0
SECTION
2
HEADER
9
$ACADVER
1
AC1015
9
$DWGCODEPAGE
3
ANSI_1252
9
$HANDSEED
5
206
9
$ANGBASE
50
0
9
$ANGDIR
70
0
9
$ATTMODE
70
1
9
$AUNITS
70
0
9
$AUPREC
70
0
9
$CECOLOR
62
256
9
$CELTSCALE
40
1
9
$CELTYPE
6
ByLayer
9
$CELWEIGHT
370
18
9
$CLAYER
8
0
9
$CMLJUST
70
0
9
$CMLSCALE
40
1
9
$CMLSTYLE
2
Standard
9
$DIMSTYLE
2
Standard
9
$TEXTSIZE
40
0.2
9
$TEXTSTYLE
7
Standard
9
$LUNITS
70
2
9
$LUPREC
70
4
9
$EXTNAMES
290
1
9
$INSUNITS
70
4
9
$LTSCALE
40
1
9
$LWDISPLAY
290
1
9
$PDMODE
70
0
9
$PDSIZE
40
0
9
$PLINEGEN
70
0
0
ENDSEC
0
SECTION
2
CLASSES
0
CLASS
1
RASTERVARIABLES
2
AcDbRasterVariables
3
ISM
90
0
280
0
281
0
0
ENDSEC
0
SECTION
2
TABLES
0
TABLE
2
VPORT
5
1fc
100
AcDbSymbolTable
0
VPORT
5
1
100
AcDbSymbolTableRecord
100
AcDbViewportTableRecord
2
*Active
70
0
10
0
20
0
11
1
21
1
12
-1
22
1
13
0
23
0
14
0.5
24
0.5
15
10
25
10
16
0
26
0
36
1
17
0
27
0
37
0
0
ENDTAB
0
TABLE
2
LTYPE
5
1fd
100
AcDbSymbolTable
0
LTYPE
5
14
100
AcDbSymbolTableRecord
100
AcDbLinetypeTableRecord
70
0
2
ByBlock
3

72
65
73
0
40
0
0
LTYPE
5
15
100
AcDbSymbolTableRecord
100
AcDbLinetypeTableRecord
70
0
2
ByLayer
3

72
65
73
0
40
0
0
LTYPE
5
16
100
AcDbSymbolTableRecord
100
AcDbLinetypeTableRecord
70
0
2
CONTINUOUS
3
Solid line
72
65
73
0
40
0
0
LTYPE
5
6A
100
AcDbSymbolTableRecord
100
AcDbLinetypeTableRecord
70
0
2
CENTER
3
____ _ ____ _ ____ _ ____
72
65
73
4
40
47.5
49
22
74
0
49
-8.5
74
0
49
8.5
74
0
49
-8.5
74
0
0
LTYPE
5
6B
100
AcDbSymbolTableRecord
100
AcDbLinetypeTableRecord
70
0
2
DASHED
3
__ __ __ __ __ __ __ __ __
72
65
73
2
40
25.72
49
12.86
74
0
49
-12.86
74
0
0
ENDTAB
0
TABLE
2
LAYER
5
1fe
100
AcDbSymbolTable
0
LAYER
5
10
100
AcDbSymbolTableRecord
100
AcDbLayerTableRecord
2
0
70
0
62
7
6
CONTINUOUS
290
1
370
-3
390
0
0
LAYER
5
6D
100
AcDbSymbolTableRecord
100
AcDbLayerTableRecord
2
80
70
0
62
-6
6
CONTINUOUS
290
1
370
-3
390
0
0
LAYER
5
6F
100
AcDbSymbolTableRecord
100
AcDbLayerTableRecord
2
81
70
0
62
-3
6
CONTINUOUS
290
1
370
-3
390
0
0
LAYER
5
74
100
AcDbSymbolTableRecord
100
AcDbLayerTableRecord
2
1
70
0
62
4
6
CONTINUOUS
290
1
370
-3
390
0
0
LAYER
5
C4
100
AcDbSymbolTableRecord
100
AcDbLayerTableRecord
2
4
70
0
62
-2
6
CENTER
290
1
370
-3
390
0
0
LAYER
5
181
100
AcDbSymbolTableRecord
100
AcDbLayerTableRecord
2
2
70
0
62
7
6
CONTINUOUS
290
1
370
-3
390
0
0
LAYER
5
1e7
100
AcDbSymbolTableRecord
100
AcDbLayerTableRecord
2
SK1
70
0
62
4
6
CONTINUOUS
290
1
370
-3
390
0
0
LAYER
5
1e8
100
AcDbSymbolTableRecord
100
AcDbLayerTableRecord
2
SK3
70
0
62
1
6
DASHED
290
1
370
-3
390
0
0
LAYER
5
1e9
100
AcDbSymbolTableRecord
100
AcDbLayerTableRecord
2
SK4
70
0
62
2
6
CENTER
290
1
370
-3
390
0
0
LAYER
5
1ea
100
AcDbSymbolTableRecord
100
AcDbLayerTableRecord
2
SK6
70
0
62
5
6
CONTINUOUS
290
1
370
-3
390
0
0
LAYER
5
1eb
100
AcDbSymbolTableRecord
100
AcDbLayerTableRecord
2
SK2
70
0
62
7
6
CONTINUOUS
290
1
370
-3
390
0
0
ENDTAB
0
TABLE
2
STYLE
5
1ff
100
AcDbSymbolTable
0
STYLE
5
11
100
AcDbSymbolTableRecord
100
AcDbTextStyleTableRecord
2
Standard
3
txt
70
0
71
0
40
0
41
1
42
0
50
0
0
STYLE
5
112
100
AcDbSymbolTableRecord
100
AcDbTextStyleTableRecord
2
iso_b_vert
3
simplex.shx
70
0
71
0
40
0
41
1
42
0
50
0
0
STYLE
5
113
100
AcDbSymbolTableRecord
100
AcDbTextStyleTableRecord
2
DWGDirectTextStyle
3
simplex
70
0
71
0
40
0
41
1
42
0
50
0
0
ENDTAB
0
TABLE
2
DIMSTYLE
5
200
100
AcDbSymbolTable
100
AcDbDimStyleTable
0
DIMSTYLE
105
27
100
AcDbSymbolTableRecord
100
AcDbDimStyleTableRecord
2
Standard
70
0
3
<>
41
0.18
42
0.0625
44
0.18
140
0.18
147
0.09
73
0
74
0
77
1
271
2
275
0
278
52
280
0
340
11
0
ENDTAB
0
TABLE
2
VIEW
5
201
100
AcDbSymbolTable
0
ENDTAB
0
TABLE
2
UCS
5
202
100
AcDbSymbolTable
0
ENDTAB
0
TABLE
2
APPID
5
203
100
AcDbSymbolTable
0
APPID
5
12
100
AcDbSymbolTableRecord
100
AcDbRegAppTableRecord
2
ACAD
70
0
0
ENDTAB
0
TABLE
2
BLOCK_RECORD
5
204
100
AcDbSymbolTable
0
BLOCK_RECORD
5
1F
100
AcDbSymbolTableRecord
100
AcDbBlockTableRecord
2
*Model_Space
340
0
70
0
0
BLOCK_RECORD
5
1B
100
AcDbSymbolTableRecord
100
AcDbBlockTableRecord
2
*Paper_Space
340
0
70
0
0
BLOCK_RECORD
5
23
100
AcDbSymbolTableRecord
100
AcDbBlockTableRecord
2
*Paper_Space0
340
0
70
0
0
BLOCK_RECORD
5
115
100
AcDbSymbolTableRecord
100
AcDbBlockTableRecord
2
DimnDraft3D1
340
0
70
0
0
BLOCK_RECORD
5
124
100
AcDbSymbolTableRecord
100
AcDbBlockTableRecord
2
_CLOSED
340
0
70
0
0
BLOCK_RECORD
5
12B
100
AcDbSymbolTableRecord
100
AcDbBlockTableRecord
2
DimnDraft3D2
340
0
70
0
0
BLOCK_RECORD
5
139
100
AcDbSymbolTableRecord
100
AcDbBlockTableRecord
2
DimnDraft3D3
340
0
70
0
0
BLOCK_RECORD
5
147
100
AcDbSymbolTableRecord
100
AcDbBlockTableRecord
2
DimnDraft3D4
340
0
70
0
0
BLOCK_RECORD
5
155
100
AcDbSymbolTableRecord
100
AcDbBlockTableRecord
2
DimnDraft3D5
340
0
70
0
0
BLOCK_RECORD
5
163
100
AcDbSymbolTableRecord
100
AcDbBlockTableRecord
2
DimnDraft3D6
340
0
70
0
0
BLOCK_RECORD
5
171
100
AcDbSymbolTableRecord
100
AcDbBlockTableRecord
2
DimnDraft3D7
340
0
70
0
0
BLOCK_RECORD
5
17F
100
AcDbSymbolTableRecord
100
AcDbBlockTableRecord
2
DimnDraft3D8
340
0
70
0
0
ENDTAB
0
ENDSEC
0
SECTION
2
BLOCKS
0
BLOCK
5
20
100
AcDbEntity
8
0
100
AcDbBlockBegin
2
*Model_Space
70
0
10
0
20
0
30
0
3
*Model_Space
0
ENDBLK
5
21
100
AcDbEntity
8
0
100
AcDbBlockEnd
0
BLOCK
5
1C
100
AcDbEntity
8
0
100
AcDbBlockBegin
2
*Paper_Space
70
0
10
0
20
0
30
0
3
*Paper_Space
0
ENDBLK
5
1D
100
AcDbEntity
8
0
100
AcDbBlockEnd
0
BLOCK
5
24
100
AcDbEntity
8
0
100
AcDbBlockBegin
2
*Paper_Space0
70
0
10
0
20
0
30
0
3
*Paper_Space0
0
ENDBLK
5
25
100
AcDbEntity
8
0
100
AcDbBlockEnd
0
BLOCK
5
121
100
AcDbEntity
8
0
100
AcDbBlockBegin
2
DimnDraft3D1
70
0
10
0
20
0
30
0
3
DimnDraft3D1
0
MTEXT
5
116
100
AcDbEntity
8
SK2
62
256
6
ByLayer
370
18
48
1
60
0
100
AcDbMText
10
-50.541265
20
-4.452632
30
0
210
0
220
0
230
1
1
\W1.2949;%%c63
40
3
41
0
44
1.084337
50
90
71
7
72
5
7
iso_b_vert
0
LINE
5
118
100
AcDbEntity
8
SK2
62
256
6
ByLayer
370
13
48
1
60
0
100
AcDbLine
10
-1.7
20
31.5
30
0
11
-51.041265
21
31.5
31
0
39
0
210
0
220
0
230
1
0
LINE
5
119
100
AcDbEntity
8
SK2
62
256
6
ByLayer
370
13
48
1
60
0
100
AcDbLine
10
-1.7
20
-31.5
30
0
11
-51.041265
21
-31.5
31
0
39
0
210
0
220
0
230
1
0
LINE
5
11A
100
AcDbEntity
8
SK2
62
256
6
ByLayer
370
13
48
1
60
0
100
AcDbLine
10
-49.041265
20
31.5
30
0
11
-49.041265
21
-31.5
31
0
39
0
210
0
220
0
230
1
0
LINE
5
11B
100
AcDbEntity
8
SK2
62
256
6
ByLayer
370
13
48
1
60
0
100
AcDbLine
10
-49.041265
20
31.5
30
0
11
-48.623268
21
28.325002
31
0
39
0
210
0
220
0
230
1
0
LINE
5
11C
100
AcDbEntity
8
SK2
62
256
6
ByLayer
370
13
48
1
60
0
100
AcDbLine
10
-49.041265
20
31.5
30
0
11
-49.459262
21
28.324998
31
0
39
0
210
0
220
0
230
1
0
LINE
5
11D
100
AcDbEntity
8
SK2
62
256
6
ByLayer
370
13
48
1
60
0
100
AcDbLine
10
-48.623268
20
28.325002
30
0
11
-49.459262
21
28.324998
31
0
39
0
210
0
220
0
230
1
0
LINE
5
11E
100
AcDbEntity
8
SK2
62
256
6
ByLayer
370
13
48
1
60
0
100
AcDbLine
10
-49.041265
20
-31.5
30
0
11
-49.459262
21
-28.325002
31
0
39
0
210
0
220
0
230
1
0
LINE
5
11F
100
AcDbEntity
8
SK2
62
256
6
ByLayer
370
13
48
1
60
0
100
AcDbLine
10
-49.041265
20
-31.5
30
0
11
-48.623268
21
-28.324998
31
0
39
0
210
0
220
0
230
1
0
LINE
5
120
100
AcDbEntity
8
SK2
62
256
6
ByLayer
370
13
48
1
60
0
100
AcDbLine
10
-49.459262
20
-28.325002
30
0
11
-48.623268
21
-28.324998
31
0
39
0
210
0
220
0
230
1
0
ENDBLK
5
122
100
AcDbEntity
8
0
100
AcDbBlockEnd
0
BLOCK
5
125
100
AcDbEntity
8
0
100
AcDbBlockBegin
2
_CLOSED
70
0
10
0
20
0
30
0
3
_CLOSED
0
LINE
5
127
100
AcDbEntity
8
0
62
256
6
ByLayer
370
-2
48
1
60
0
100
AcDbLine
10
-1
20
0.166667
30
0
11
0
21
0
31
0
39
0
210
0
220
0
230
1
0
LINE
5
128
100
AcDbEntity
8
0
62
256
6
ByLayer
370
-2
48
1
60
0
100
AcDbLine
10
0
20
0
30
0
11
-1
21
-0.166667
31
0
39
0
210
0
220
0
230
1
0
LINE
5
129
100
AcDbEntity
8
0
62
256
6
ByLayer
370
-2
48
1
60
0
100
AcDbLine
10
-1
20
0.166667
30
0
11
-1
21
-0.166667
31
0
39
0
210
0
220
0
230
1
0
LINE
5
12A
100
AcDbEntity
8
0
62
256
6
ByLayer
370
-2
48
1
60
0
100
AcDbLine
10
0
20
0
30
0
11
-1
21
0
31
0
39
0
210
0
220
0
230
1
0
ENDBLK
5
126
100
AcDbEntity
8
0
100
AcDbBlockEnd
0
BLOCK
5
136
100
AcDbEntity
8
0
100
AcDbBlockBegin
2
DimnDraft3D2
70
0
10
0
20
0
30
0
3
DimnDraft3D2
0
MTEXT
5
12C
100
AcDbEntity
8
SK2
62
256
6
ByLayer
370
18
48
1
60
0
100
AcDbMText
10
141.272356
20
5.872368
30
0
210
0
220
0
230
1
1
\W0.5144;13
40
3
41
0
44
1.084337
50
90
71
7
72
5
7
iso_b_vert
0
LINE
5
12D
100
AcDbEntity
8
SK2
62
256
6
ByLayer
370
13
48
1
60
0
100
AcDbLine
10
117
20
13
30
0
11
144.022356
21
13
31
0
39
0
210
0
220
0
230
1
0
LINE
5
12E
100
AcDbEntity
8
SK2
62
256
6
ByLayer
370
13
48
1
60
0
100
AcDbLine
10
129.38651
20
0
30
0
11
144.022356
21
0
31
0
39
0
210
0
220
0
230
1
0
LINE
5
12F
100
AcDbEntity
8
SK2
62
256
6
ByLayer
370
13
48
1
60
0
100
AcDbLine
10
142.022356
20
20.5
30
0
11
142.022356
21
-7.5
31
0
39
0
210
0
220
0
230
1
0
LINE
5
130
100
AcDbEntity
8
SK2
62
256
6
ByLayer
370
13
48
1
60
0
100
AcDbLine
10
142.022356
20
13
30
0
11
141.604359
21
16.174998
31
0
39
0
210
0
220
0
230
1
0
LINE
5
131
100
AcDbEntity
8
SK2
62
256
6
ByLayer
370
13
48
1
60
0
100
AcDbLine
10
142.022356
20
13
30
0
11
142.440352
21
16.175002
31
0
39
0
210
0
220
0
230
1
0
LINE
5
132
100
AcDbEntity
8
SK2
62
256
6
ByLayer
370
13
48
1
60
0
100
AcDbLine
10
141.604359
20
16.174998
30
0
11
142.440352
21
16.175002
31
0
39
0
210
0
220
0
230
1
0
LINE
5
133
100
AcDbEntity
8
SK2
62
256
6
ByLayer
370
13
48
1
60
0
100
AcDbLine
10
142.022356
20
0
30
0
11
142.440352
21
-3.174998
31
0
39
0
210
0
220
0
230
1
0
LINE
5
134
100
AcDbEntity
8
SK2
62
256
6
ByLayer
370
13
48
1
60
0
100
AcDbLine
10
142.022356
20
0
30
0
11
141.604359
21
-3.175002
31
0
39
0
210
0
220
0
230
1
0
LINE
5
135
100
AcDbEntity
8
SK2
62
256
6
ByLayer
370
13
48
1
60
0
100
AcDbLine
10
142.440352
20
-3.174998
30
0
11
141.604359
21
-3.175002
31
0
39
0
210
0
220
0
230
1
0
ENDBLK
5
137
100
AcDbEntity
8
0
100
AcDbBlockEnd
0
BLOCK
5
144
100
AcDbEntity
8
0
100
AcDbBlockBegin
2
DimnDraft3D3
70
0
10
0
20
0
30
0
3
DimnDraft3D3
0
MTEXT
5
13A
100
AcDbEntity
8
SK2
62
256
6
ByLayer
370
18
48
1
60
0
100
AcDbMText
10
153.751409
20
17.997368
30
0
210
0
220
0
230
1
1
\W0.6563;38
40
3
41
0
44
1.084337
50
90
71
7
72
5
7
iso_b_vert
0
LINE
5
13B
100
AcDbEntity
8
SK2
62
256
6
ByLayer
370
13
48
1
60
0
100
AcDbLine
10
122
20
38
30
0
11
156.501409
21
38
31
0
39
0
210
0
220
0
230
1
0
LINE
5
13C
100
AcDbEntity
8
SK2
62
256
6
ByLayer
370
13
48
1
60
0
100
AcDbLine
10
129.38651
20
0
30
0
11
156.501409
21
0
31
0
39
0
210
0
220
0
230
1
0
LINE
5
13D
100
AcDbEntity
8
SK2
62
256
6
ByLayer
370
13
48
1
60
0
100
AcDbLine
10
154.501409
20
38
30
0
11
154.501409
21
0
31
0
39
0
210
0
220
0
230
1
0
LINE
5
13E
100
AcDbEntity
8
SK2
62
256
6
ByLayer
370
13
48
1
60
0
100
AcDbLine
10
154.501409
20
38
30
0
11
154.919405
21
34.825002
31
0
39
0
210
0
220
0
230
1
0
LINE
5
13F
100
AcDbEntity
8
SK2
62
256
6
ByLayer
370
13
48
1
60
0
100
AcDbLine
10
154.501409
20
38
30
0
11
154.083412
21
34.824998
31
0
39
0
210
0
220
0
230
1
0
LINE
5
140
100
AcDbEntity
8
SK2
62
256
6
ByLayer
370
13
48
1
60
0
100
AcDbLine
10
154.919405
20
34.825002
30
0
11
154.083412
21
34.824998
31
0
39
0
210
0
220
0
230
1
0
LINE
5
141
100
AcDbEntity
8
SK2
62
256
6
ByLayer
370
13
48
1
60
0
100
AcDbLine
10
154.501409
20
0
30
0
11
154.083412
21
3.174998
31
0
39
0
210
0
220
0
230
1
0
LINE
5
142
100
AcDbEntity
8
SK2
62
256
6
ByLayer
370
13
48
1
60
0
100
AcDbLine
10
154.501409
20
0
30
0
11
154.919405
21
3.175002
31
0
39
0
210
0
220
0
230
1
0
LINE
5
143
100
AcDbEntity
8
SK2
62
256
6
ByLayer
370
13
48
1
60
0
100
AcDbLine
10
154.083412
20
3.174998
30
0
11
154.919405
21
3.175002
31
0
39
0
210
0
220
0
230
1
0
ENDBLK
5
145
100
AcDbEntity
8
0
100
AcDbBlockEnd
0
BLOCK
5
152
100
AcDbEntity
8
0
100
AcDbBlockBegin
2
DimnDraft3D4
70
0
10
0
20
0
30
0
3
DimnDraft3D4
0
MTEXT
5
148
100
AcDbEntity
8
SK2
62
256
6
ByLayer
370
18
48
1
60
0
100
AcDbMText
10
9.957895
20
48.07827
30
0
210
0
220
0
230
1
1
\W0.6740;22
40
3
41
0
44
1.084337
50
0
71
7
72
5
7
iso_b_vert
0
LINE
5
149
100
AcDbEntity
8
SK2
62
256
6
ByLayer
370
13
48
1
60
0
100
AcDbLine
10
0
20
33.2
30
0
11
0
21
49.32827
31
0
39
0
210
0
220
0
230
1
0
LINE
5
14A
100
AcDbEntity
8
SK2
62
256
6
ByLayer
370
13
48
1
60
0
100
AcDbLine
10
22
20
33.5
30
0
11
22
21
49.32827
31
0
39
0
210
0
220
0
230
1
0
LINE
5
14B
100
AcDbEntity
8
SK2
62
256
6
ByLayer
370
13
48
1
60
0
100
AcDbLine
10
0
20
47.32827
30
0
11
22
21
47.32827
31
0
39
0
210
0
220
0
230
1
0
LINE
5
14C
100
AcDbEntity
8
SK2
62
256
6
ByLayer
370
13
48
1
60
0
100
AcDbLine
10
0
20
47.32827
30
0
11
3.174998
21
47.746267
31
0
39
0
210
0
220
0
230
1
0
LINE
5
14D
100
AcDbEntity
8
SK2
62
256
6
ByLayer
370
13
48
1
60
0
100
AcDbLine
10
0
20
47.32827
30
0
11
3.175002
21
46.910273
31
0
39
0
210
0
220
0
230
1
0
LINE
5
14E
100
AcDbEntity
8
SK2
62
256
6
ByLayer
370
13
48
1
60
0
100
AcDbLine
10
3.174998
20
47.746267
30
0
11
3.175002
21
46.910273
31
0
39
0
210
0
220
0
230
1
0
LINE
5
14F
100
AcDbEntity
8
SK2
62
256
6
ByLayer
370
13
48
1
60
0
100
AcDbLine
10
22
20
47.32827
30
0
11
18.825002
21
46.910273
31
0
39
0
210
0
220
0
230
1
0
LINE
5
150
100
AcDbEntity
8
SK2
62
256
6
ByLayer
370
13
48
1
60
0
100
AcDbLine
10
22
20
47.32827
30
0
11
18.824998
21
47.746267
31
0
39
0
210
0
220
0
230
1
0
LINE
5
151
100
AcDbEntity
8
SK2
62
256
6
ByLayer
370
13
48
1
60
0
100
AcDbLine
10
18.825002
20
46.910273
30
0
11
18.824998
21
47.746267
31
0
39
0
210
0
220
0
230
1
0
ENDBLK
5
153
100
AcDbEntity
8
0
100
AcDbBlockEnd
0
BLOCK
5
160
100
AcDbEntity
8
0
100
AcDbBlockBegin
2
DimnDraft3D5
70
0
10
0
20
0
30
0
3
DimnDraft3D5
0
MTEXT
5
156
100
AcDbEntity
8
SK2
62
256
6
ByLayer
370
18
48
1
60
0
100
AcDbMText
10
15.457895
20
57.686001
30
0
210
0
220
0
230
1
1
\W0.6740;33
40
3
41
0
44
1.084337
50
0
71
7
72
5
7
iso_b_vert
0
LINE
5
157
100
AcDbEntity
8
SK2
62
256
6
ByLayer
370
13
48
1
60
0
100
AcDbLine
10
0
20
33.2
30
0
11
0
21
58.936001
31
0
39
0
210
0
220
0
230
1
0
LINE
5
158
100
AcDbEntity
8
SK2
62
256
6
ByLayer
370
13
48
1
60
0
100
AcDbLine
10
33
20
36.670996
30
0
11
33
21
58.936001
31
0
39
0
210
0
220
0
230
1
0
LINE
5
159
100
AcDbEntity
8
SK2
62
256
6
ByLayer
370
13
48
1
60
0
100
AcDbLine
10
0
20
56.936001
30
0
11
33
21
56.936001
31
0
39
0
210
0
220
0
230
1
0
LINE
5
15A
100
AcDbEntity
8
SK2
62
256
6
ByLayer
370
13
48
1
60
0
100
AcDbLine
10
0
20
56.936001
30
0
11
3.174998
21
57.353997
31
0
39
0
210
0
220
0
230
1
0
LINE
5
15B
100
AcDbEntity
8
SK2
62
256
6
ByLayer
370
13
48
1
60
0
100
AcDbLine
10
0
20
56.936001
30
0
11
3.175002
21
56.518004
31
0
39
0
210
0
220
0
230
1
0
LINE
5
15C
100
AcDbEntity
8
SK2
62
256
6
ByLayer
370
13
48
1
60
0
100
AcDbLine
10
3.174998
20
57.353997
30
0
11
3.175002
21
56.518004
31
0
39
0
210
0
220
0
230
1
0
LINE
5
15D
100
AcDbEntity
8
SK2
62
256
6
ByLayer
370
13
48
1
60
0
100
AcDbLine
10
33
20
56.936001
30
0
11
29.825002
21
56.518004
31
0
39
0
210
0
220
0
230
1
0
LINE
5
15E
100
AcDbEntity
8
SK2
62
256
6
ByLayer
370
13
48
1
60
0
100
AcDbLine
10
33
20
56.936001
30
0
11
29.824998
21
57.353997
31
0
39
0
210
0
220
0
230
1
0
LINE
5
15F
100
AcDbEntity
8
SK2
62
256
6
ByLayer
370
13
48
1
60
0
100
AcDbLine
10
29.825002
20
56.518004
30
0
11
29.824998
21
57.353997
31
0
39
0
210
0
220
0
230
1
0
ENDBLK
5
161
100
AcDbEntity
8
0
100
AcDbBlockEnd
0
BLOCK
5
16E
100
AcDbEntity
8
0
100
AcDbBlockBegin
2
DimnDraft3D6
70
0
10
0
20
0
30
0
3
DimnDraft3D6
0
MTEXT
5
164
100
AcDbEntity
8
SK2
62
256
6
ByLayer
370
18
48
1
60
0
100
AcDbMText
10
15.978947
20
68.296581
30
0
210
0
220
0
230
1
1
\W0.7346;37.5
40
3
41
0
44
1.084337
50
0
71
7
72
5
7
iso_b_vert
0
LINE
5
165
100
AcDbEntity
8
SK2
62
256
6
ByLayer
370
13
48
1
60
0
100
AcDbLine
10
0
20
33.2
30
0
11
0
21
69.546581
31
0
39
0
210
0
220
0
230
1
0
LINE
5
166
100
AcDbEntity
8
SK2
62
256
6
ByLayer
370
13
48
1
60
0
100
AcDbLine
10
37.5
20
40
30
0
11
37.5
21
69.546581
31
0
39
0
210
0
220
0
230
1
0
LINE
5
167
100
AcDbEntity
8
SK2
62
256
6
ByLayer
370
13
48
1
60
0
100
AcDbLine
10
0
20
67.546581
30
0
11
37.5
21
67.546581
31
0
39
0
210
0
220
0
230
1
0
LINE
5
168
100
AcDbEntity
8
SK2
62
256
6
ByLayer
370
13
48
1
60
0
100
AcDbLine
10
0
20
67.546581
30
0
11
3.174998
21
67.964577
31
0
39
0
210
0
220
0
230
1
0
LINE
5
169
100
AcDbEntity
8
SK2
62
256
6
ByLayer
370
13
48
1
60
0
100
AcDbLine
10
0
20
67.546581
30
0
11
3.175002
21
67.128584
31
0
39
0
210
0
220
0
230
1
0
LINE
5
16A
100
AcDbEntity
8
SK2
62
256
6
ByLayer
370
13
48
1
60
0
100
AcDbLine
10
3.174998
20
67.964577
30
0
11
3.175002
21
67.128584
31
0
39
0
210
0
220
0
230
1
0
LINE
5
16B
100
AcDbEntity
8
SK2
62
256
6
ByLayer
370
13
48
1
60
0
100
AcDbLine
10
37.5
20
67.546581
30
0
11
34.325002
21
67.128584
31
0
39
0
210
0
220
0
230
1
0
LINE
5
16C
100
AcDbEntity
8
SK2
62
256
6
ByLayer
370
13
48
1
60
0
100
AcDbLine
10
37.5
20
67.546581
30
0
11
34.324998
21
67.964577
31
0
39
0
210
0
220
0
230
1
0
LINE
5
16D
100
AcDbEntity
8
SK2
62
256
6
ByLayer
370
13
48
1
60
0
100
AcDbLine
10
34.325002
20
67.128584
30
0
11
34.324998
21
67.964577
31
0
39
0
210
0
220
0
230
1
0
ENDBLK
5
16F
100
AcDbEntity
8
0
100
AcDbBlockEnd
0
BLOCK
5
17C
100
AcDbEntity
8
0
100
AcDbBlockBegin
2
DimnDraft3D7
70
0
10
0
20
0
30
0
3
DimnDraft3D7
0
MTEXT
5
172
100
AcDbEntity
8
SK2
62
256
6
ByLayer
370
18
48
1
60
0
100
AcDbMText
10
56.086842
20
79.363712
30
0
210
0
220
0
230
1
1
\W0.5296;115
40
3
41
0
44
1.084337
50
0
71
7
72
5
7
iso_b_vert
0
LINE
5
173
100
AcDbEntity
8
SK2
62
256
6
ByLayer
370
13
48
1
60
0
100
AcDbLine
10
0
20
33.2
30
0
11
0
21
80.613712
31
0
39
0
210
0
220
0
230
1
0
LINE
5
174
100
AcDbEntity
8
SK2
62
256
6
ByLayer
370
13
48
1
60
0
100
AcDbLine
10
115
20
30
30
0
11
115
21
80.613712
31
0
39
0
210
0
220
0
230
1
0
LINE
5
175
100
AcDbEntity
8
SK2
62
256
6
ByLayer
370
13
48
1
60
0
100
AcDbLine
10
0
20
78.613712
30
0
11
115
21
78.613712
31
0
39
0
210
0
220
0
230
1
0
LINE
5
176
100
AcDbEntity
8
SK2
62
256
6
ByLayer
370
13
48
1
60
0
100
AcDbLine
10
0
20
78.613712
30
0
11
3.174998
21
79.031709
31
0
39
0
210
0
220
0
230
1
0
LINE
5
177
100
AcDbEntity
8
SK2
62
256
6
ByLayer
370
13
48
1
60
0
100
AcDbLine
10
0
20
78.613712
30
0
11
3.175002
21
78.195715
31
0
39
0
210
0
220
0
230
1
0
LINE
5
178
100
AcDbEntity
8
SK2
62
256
6
ByLayer
370
13
48
1
60
0
100
AcDbLine
10
3.174998
20
79.031709
30
0
11
3.175002
21
78.195715
31
0
39
0
210
0
220
0
230
1
0
LINE
5
179
100
AcDbEntity
8
SK2
62
256
6
ByLayer
370
13
48
1
60
0
100
AcDbLine
10
115
20
78.613712
30
0
11
111.825002
21
78.195715
31
0
39
0
210
0
220
0
230
1
0
LINE
5
17A
100
AcDbEntity
8
SK2
62
256
6
ByLayer
370
13
48
1
60
0
100
AcDbLine
10
115
20
78.613712
30
0
11
111.824998
21
79.031709
31
0
39
0
210
0
220
0
230
1
0
LINE
5
17B
100
AcDbEntity
8
SK2
62
256
6
ByLayer
370
13
48
1
60
0
100
AcDbLine
10
111.825002
20
78.195715
30
0
11
111.824998
21
79.031709
31
0
39
0
210
0
220
0
230
1
0
ENDBLK
5
17D
100
AcDbEntity
8
0
100
AcDbBlockEnd
0
BLOCK
5
18B
100
AcDbEntity
8
0
100
AcDbBlockBegin
2
DimnDraft3D8
70
0
10
0
20
0
30
0
3
DimnDraft3D8
0
MTEXT
5
180
100
AcDbEntity
8
2
62
256
6
ByLayer
370
18
48
1
60
0
100
AcDbMText
10
59.211842
20
89.625213
30
0
210
0
220
0
230
1
1
\W0.6217;122
40
3
41
0
44
1.084337
50
0
71
7
72
5
7
iso_b_vert
0
LINE
5
182
100
AcDbEntity
8
2
62
256
6
ByLayer
370
13
48
1
60
0
100
AcDbLine
10
0
20
33.2
30
0
11
0
21
90.875213
31
0
39
0
210
0
220
0
230
1
0
LINE
5
183
100
AcDbEntity
8
2
62
256
6
ByLayer
370
13
48
1
60
0
100
AcDbLine
10
122
20
38
30
0
11
122
21
90.875213
31
0
39
0
210
0
220
0
230
1
0
LINE
5
184
100
AcDbEntity
8
2
62
256
6
ByLayer
370
13
48
1
60
0
100
AcDbLine
10
0
20
88.875213
30
0
11
122
21
88.875213
31
0
39
0
210
0
220
0
230
1
0
LINE
5
185
100
AcDbEntity
8
2
62
256
6
ByLayer
370
13
48
1
60
0
100
AcDbLine
10
0
20
88.875213
30
0
11
3.174998
21
89.293209
31
0
39
0
210
0
220
0
230
1
0
LINE
5
186
100
AcDbEntity
8
2
62
256
6
ByLayer
370
13
48
1
60
0
100
AcDbLine
10
0
20
88.875213
30
0
11
3.175002
21
88.457216
31
0
39
0
210
0
220
0
230
1
0
LINE
5
187
100
AcDbEntity
8
2
62
256
6
ByLayer
370
13
48
1
60
0
100
AcDbLine
10
3.174998
20
89.293209
30
0
11
3.175002
21
88.457216
31
0
39
0
210
0
220
0
230
1
0
LINE
5
188
100
AcDbEntity
8
2
62
256
6
ByLayer
370
13
48
1
60
0
100
AcDbLine
10
122
20
88.875213
30
0
11
118.825002
21
88.457216
31
0
39
0
210
0
220
0
230
1
0
LINE
5
189
100
AcDbEntity
8
2
62
256
6
ByLayer
370
13
48
1
60
0
100
AcDbLine
10
122
20
88.875213
30
0
11
118.824998
21
89.293209
31
0
39
0
210
0
220
0
230
1
0
LINE
5
18A
100
AcDbEntity
8
2
62
256
6
ByLayer
370
13
48
1
60
0
100
AcDbLine
10
118.825002
20
88.457216
30
0
11
118.824998
21
89.293209
31
0
39
0
210
0
220
0
230
1
0
ENDBLK
5
18C
100
AcDbEntity
8
0
100
AcDbBlockEnd
0
ENDSEC
0
SECTION
2
ENTITIES
0
ARC
5
C8
100
AcDbEntity
8
1
62
256
6
ByLayer
370
18
48
1
60
0
100
AcDbCircle
39
0
10
-86
20
25
30
0
40
6.25000000000001
210
0
220
0
230
-1
100
AcDbArc
50
96.911583
51
83.088417
0
ARC
5
C9
100
AcDbEntity
8
1
62
256
6
ByLayer
370
18
48
1
60
0
100
AcDbCircle
39
0
10
-22
20
32.7
30
0
40
1.2
210
0
220
0
230
-1
100
AcDbArc
50
215.685335
51
270
0
ARC
5
D1
100
AcDbEntity
8
1
62
256
6
ByLayer
370
18
48
1
60
0
100
AcDbCircle
39
0
10
119.2
20
12.8
30
0
40
0.800000000000078
210
0
220
0
230
1
100
AcDbArc
50
270
51
0
0
ARC
5
D2
100
AcDbEntity
8
1
62
256
6
ByLayer
370
18
48
1
60
0
100
AcDbCircle
39
0
10
-22
20
-32.7
30
0
40
1.2
210
0
220
0
230
-1
100
AcDbArc
50
90
51
144.314665
0
CIRCLE
5
CA
100
AcDbEntity
8
1
62
256
6
ByLayer
370
18
48
1
60
0
100
AcDbCircle
10
68
20
25
30
0
40
6.25
39
0
210
0
220
0
230
1
0
CIRCLE
5
CB
100
AcDbEntity
8
1
62
256
6
ByLayer
370
18
48
1
60
0
100
AcDbCircle
10
86
20
25
30
0
40
6.25
39
0
210
0
220
0
230
1
0
CIRCLE
5
CC
100
AcDbEntity
8
1
62
256
6
ByLayer
370
18
48
1
60
0
100
AcDbCircle
10
104
20
25
30
0
40
6.25
39
0
210
0
220
0
230
1
0
CIRCLE
5
CD
100
AcDbEntity
8
1
62
256
6
ByLayer
370
18
48
1
60
0
100
AcDbCircle
10
-68
20
25
30
0
40
5.15
39
0
210
0
220
0
230
-1
0
CIRCLE
5
CE
100
AcDbEntity
8
1
62
256
6
ByLayer
370
18
48
1
60
0
100
AcDbCircle
10
86
20
25
30
0
40
5.15
39
0
210
0
220
0
230
1
0
CIRCLE
5
CF
100
AcDbEntity
8
1
62
256
6
ByLayer
370
18
48
1
60
0
100
AcDbCircle
10
104
20
25
30
0
40
5.15
39
0
210
0
220
0
230
1
0
CIRCLE
5
D0
100
AcDbEntity
8
1
62
256
6
ByLayer
370
18
48
1
60
0
100
AcDbCircle
10
104
20
25
30
0
40
6.25
39
0
210
0
220
0
230
1
0
ELLIPSE
5
D3
100
AcDbEntity
8
1
62
256
6
ByLayer
370
18
48
1
60
0
100
AcDbEllipse
10
-2.347154
20
0
30
0
11
14.7536831606578
21
31.0932549155831
31
0
210
0
220
0
230
-1
40
0.341999
41
0.157806186645414
42
1.09123958575278
0
ELLIPSE
5
D4
100
AcDbEntity
8
1
62
256
6
ByLayer
370
18
48
1
60
0
100
AcDbEllipse
10
26.347154
20
0
30
0
11
14.7536831606535
21
-31.0932549155776
31
0
210
0
220
0
230
-1
40
0.341999
41
2.05035306783688
42
2.98378646694435
0
ELLIPSE
5
D5
100
AcDbEntity
8
1
62
256
6
ByLayer
370
18
48
1
60
0
100
AcDbEllipse
10
-2.347154
20
0
30
0
11
14.7536831606633
21
-31.0932549155899
31
0
210
0
220
0
230
-1
40
0.341999
41
-1.09123958575261
42
-0.157806186645394
0
ELLIPSE
5
D6
100
AcDbEntity
8
1
62
256
6
ByLayer
370
18
48
1
60
0
100
AcDbEllipse
10
26.347154
20
0
30
0
11
14.753683160657
21
31.0932549155821
31
0
210
0
220
0
230
-1
40
0.341999
41
-2.98378646694437
42
-2.05035306783699
0
ELLIPSE
5
D7
100
AcDbEntity
8
1
62
256
6
ByLayer
370
18
48
1
60
0
100
AcDbEllipse
10
-2.347154
20
0
30
0
11
14.7536831606578
21
31.0932549155831
31
0
210
0
220
0
230
-1
40
0.341999
41
0.157806186645414
42
1.09123958575278
0
ELLIPSE
5
D8
100
AcDbEntity
8
1
62
256
6
ByLayer
370
18
48
1
60
0
100
AcDbEllipse
10
26.347154
20
0
30
0
11
14.7536831606535
21
-31.0932549155776
31
0
210
0
220
0
230
-1
40
0.341999
41
2.05035306783688
42
2.98378646694435
0
ELLIPSE
5
D9
100
AcDbEntity
8
1
62
256
6
ByLayer
370
18
48
1
60
0
100
AcDbEllipse
10
-2.347154
20
0
30
0
11
14.7536831606633
21
-31.0932549155899
31
0
210
0
220
0
230
-1
40
0.341999
41
-1.09123958575261
42
-0.157806186645394
0
ELLIPSE
5
DA
100
AcDbEntity
8
1
62
256
6
ByLayer
370
18
48
1
60
0
100
AcDbEllipse
10
26.347154
20
0
30
0
11
14.753683160657
21
31.0932549155821
31
0
210
0
220
0
230
-1
40
0.341999
41
-2.98378646694437
42
-2.05035306783699
0
POINT
5
6C
100
AcDbEntity
8
80
62
256
6
ByLayer
370
18
48
1
60
0
100
AcDbPoint
10
0
20
0
30
0
39
0
210
0
220
0
230
1
50
360
0
POINT
5
6E
100
AcDbEntity
8
81
62
256
6
ByLayer
370
18
48
1
60
0
100
AcDbPoint
10
122
20
25.5
30
0
39
0
210
0
220
0
230
1
50
360
0
SPLINE
5
DB
100
AcDbEntity
8
1
62
256
6
ByLayer
370
18
48
1
60
0
100
AcDbSpline
70
4
71
3
72
12
73
8
40
0
40
0
40
0
40
0
40
0.268812720709443
40
0.597605301872766
40
0.761234284787693
40
0.896143503604594
40
1
40
1
40
1
40
1
41
1
10
13.8943375672973
20
29.9139548464691
30
0
41
1
10
13.8789102783284
20
29.9344364341763
30
0
41
1
10
13.831605345163
20
29.9775637976282
30
0
41
1
10
13.7433941200962
20
30.0291632435093
30
0
41
1
10
13.634722007306
20
30.0627691562057
30
0
41
1
10
13.5458378558719
20
30.0777080286646
30
0
41
1
10
13.4878204468282
20
30.0803887582689
30
0
41
1
10
13.4613248654051
20
30.080592760317
30
0
0
SPLINE
5
DC
100
AcDbEntity
8
1
62
256
6
ByLayer
370
18
48
1
60
0
100
AcDbSpline
70
4
71
3
72
13
73
9
40
0
40
0
40
0
40
0
40
0.0049544420437418
40
0.113866519425954
40
0.253452115449249
40
0.473535455387135
40
0.894568595884646
40
1
40
1
40
1
40
1
41
1
10
10.5386751345947
20
30.080592760317
30
0
41
1
10
10.5374508724089
20
30.0805926868536
30
0
41
1
10
10.5093477717046
20
30.0805290593978
30
0
41
1
10
10.4465510164428
20
30.0768838316286
30
0
41
1
10
10.3457330197465
20
30.058773313866
30
0
41
1
10
10.2197164028837
20
30.013815703074
30
0
41
1
10
10.1481083506258
20
29.9607825352996
30
0
41
1
10
10.1120558984643
20
29.9218822348292
30
0
41
1
10
10.1056624327025
20
29.9139548464691
30
0
0
SPLINE
5
DD
100
AcDbEntity
8
1
62
256
6
ByLayer
370
18
48
1
60
0
100
AcDbSpline
70
4
71
3
72
12
73
8
40
0
40
0
40
0
40
0
40
0.268812720709595
40
0.59760530187285
40
0.761234284787767
40
0.896143503604641
40
1
40
1
40
1
40
1
41
1
10
10.1056624327025
20
9.86941261896616
30
0
41
1
10
10.1210897216714
20
9.80723406842814
30
0
41
1
10
10.168394654837
20
9.67528895226026
30
0
41
1
10
10.2566058799037
20
9.51348309748256
30
0
41
1
10
10.365277992694
20
9.40646168968885
30
0
41
1
10
10.454162144128
20
9.35849990178996
30
0
41
1
10
10.5121795531716
20
9.34989401091093
30
0
41
1
10
10.5386751345948
20
9.34922131452503
30
0
0
SPLINE
5
DE
100
AcDbEntity
8
1
62
256
6
ByLayer
370
18
48
1
60
0
100
AcDbSpline
70
4
71
3
72
13
73
9
40
0
40
0
40
0
40
0
40
0.0049544420437806
40
0.113866519425981
40
0.253452115449305
40
0.473535455387245
40
0.89456859588488
40
1
40
1
40
1
40
1
41
1
10
13.4613248654051
20
9.34922131452505
30
0
41
1
10
13.462549127591
20
9.34922155870901
30
0
41
1
10
13.4906522282954
20
9.34942610523152
30
0
41
1
10
13.553448983557
20
9.3611623118653
30
0
41
1
10
13.6542669802534
20
9.41926340653964
30
0
41
1
10
13.7802835971162
20
9.56214647013266
30
0
41
1
10
13.8518916493741
20
9.72702906428668
30
0
41
1
10
13.8879441015355
20
9.84537467551152
30
0
41
1
10
13.8943375672974
20
9.86941261896613
30
0
0
SPLINE
5
DF
100
AcDbEntity
8
1
62
256
6
ByLayer
370
18
48
1
60
0
100
AcDbSpline
70
4
71
3
72
12
73
8
40
0
40
0
40
0
40
0
40
0.268812720709525
40
0.597605301872774
40
0.76123428478772
40
0.896143503604597
40
1
40
1
40
1
40
1
41
1
10
13.8943375672974
20
-9.86941261896607
30
0
41
1
10
13.8789102783286
20
-9.80723406842807
30
0
41
1
10
13.831605345163
20
-9.67528895226021
30
0
41
1
10
13.7433941200963
20
-9.51348309748252
30
0
41
1
10
13.6347220073061
20
-9.40646168968882
30
0
41
1
10
13.5458378558719
20
-9.35849990178992
30
0
41
1
10
13.4878204468284
20
-9.3498940109109
30
0
41
1
10
13.4613248654052
20
-9.34922131452499
30
0
0
SPLINE
5
E0
100
AcDbEntity
8
1
62
256
6
ByLayer
370
18
48
1
60
0
100
AcDbSpline
70
4
71
3
72
13
73
9
40
0
40
0
40
0
40
0
40
0.0049544420437995
40
0.113866519425974
40
0.253452115449297
40
0.473535455387256
40
0.894568595884929
40
1
40
1
40
1
40
1
41
1
10
10.5386751345948
20
-9.349221314525
30
0
41
1
10
10.537450872409
20
-9.34922155870895
30
0
41
1
10
10.5093477717052
20
-9.34942610523143
30
0
41
1
10
10.4465510164426
20
-9.36116231186525
30
0
41
1
10
10.3457330197467
20
-9.41926340653958
30
0
41
1
10
10.2197164028836
20
-9.56214647013263
30
0
41
1
10
10.1481083506257
20
-9.72702906428667
30
0
41
1
10
10.1120558984644
20
-9.84537467551152
30
0
41
1
10
10.1056624327026
20
-9.86941261896611
30
0
0
SPLINE
5
E1
100
AcDbEntity
8
1
62
256
6
ByLayer
370
18
48
1
60
0
100
AcDbSpline
70
4
71
3
72
12
73
8
40
0
40
0
40
0
40
0
40
0.268812720709661
40
0.597605301872854
40
0.761234284787786
40
0.896143503604641
40
1
40
1
40
1
40
1
41
1
10
10.1056624327026
20
-29.9139548464691
30
0
41
1
10
10.1210897216715
20
-29.9344364341762
30
0
41
1
10
10.1683946548371
20
-29.9775637976282
30
0
41
1
10
10.2566058799038
20
-30.0291632435092
30
0
41
1
10
10.3652779926941
20
-30.0627691562056
30
0
41
1
10
10.4541621441282
20
-30.0777080286645
30
0
41
1
10
10.5121795531717
20
-30.0803887582688
30
0
41
1
10
10.5386751345949
20
-30.0805927603169
30
0
0
SPLINE
5
E2
100
AcDbEntity
8
1
62
256
6
ByLayer
370
18
48
1
60
0
100
AcDbSpline
70
4
71
3
72
13
73
9
40
0
40
0
40
0
40
0
40
0.0049544420437806
40
0.113866519425982
40
0.253452115449305
40
0.473535455387247
40
0.894568595884882
40
1
40
1
40
1
40
1
41
1
10
13.4613248654052
20
-30.0805927603169
30
0
41
1
10
13.462549127591
20
-30.0805926868535
30
0
41
1
10
13.4906522282956
20
-30.0805290593975
30
0
41
1
10
13.5534489835571
20
-30.0768838316287
30
0
41
1
10
13.6542669802537
20
-30.0587733138658
30
0
41
1
10
13.7802835971162
20
-30.0138157030739
30
0
41
1
10
13.8518916493742
20
-29.9607825352996
30
0
41
1
10
13.8879441015356
20
-29.9218822348291
30
0
41
1
10
13.8943375672975
20
-29.9139548464691
30
0
0
SPLINE
5
E3
100
AcDbEntity
8
SK1
62
256
6
ByLayer
370
18
48
1
60
0
100
AcDbSpline
70
4
71
2
72
6
73
3
40
0
40
0
40
0
40
1
40
1
40
1
41
1
10
-2.19904572085434
20
22.0201231973148
30
0
41
1
10
-2.59952286042718
20
22.0100618174247
30
0
41
1
10
-3.00000000000005
20
22.0000004375346
30
0
0
SPLINE
5
E4
100
AcDbEntity
8
SK1
62
256
6
ByLayer
370
18
48
1
60
0
100
AcDbSpline
70
4
71
2
72
6
73
3
40
0
40
0
40
0
40
1
40
1
40
1
41
1
10
-2.99999999999995
20
-22.0000004290441
30
0
41
1
10
-2.59952286021536
20
-22.0100618089357
30
0
41
1
10
-2.19904572043084
20
-22.0201231888273
30
0
0
SPLINE
5
E5
100
AcDbEntity
8
SK1
62
256
6
ByLayer
370
18
48
1
60
0
100
AcDbSpline
70
4
71
3
72
14
73
10
40
0
40
0
40
0
40
0
40
0.5
40
0.75
40
0.875
40
0.9375
40
0.96875
40
0.984375
40
1
40
1
40
1
40
1
41
1
10
-36.5004731679067
20
21.1583519294549
30
0
41
1
10
-36.4951732124037
20
14.1055699456174
30
0
41
1
10
-36.5011665066371
20
3.52637314942231
30
0
41
1
10
-36.5014206431247
20
-8.81595244888341
30
0
41
1
10
-36.4990519550794
20
-14.9872072175452
30
0
41
1
10
-36.5026049871508
20
-18.0726970209429
30
0
41
1
10
-36.4972754391169
20
-19.6156482953757
30
0
41
1
10
-36.5068686253081
20
-20.4969676873973
30
0
41
1
10
-36.4876822517661
20
-20.9383238964311
30
0
41
1
10
-36.5004731679066
20
-21.1583519212896
30
0
0
SPLINE
5
E6
100
AcDbEntity
8
SK1
62
256
6
ByLayer
370
18
48
1
60
0
100
AcDbSpline
70
4
71
2
72
6
73
3
40
0
40
0
40
0
40
1
40
1
40
1
41
1
10
-3.00000000000005
20
22.0000004375346
30
0
41
1
10
-19.7502365839534
20
21.5791761834948
30
0
41
1
10
-36.5004731679067
20
21.1583519294551
30
0
0
SPLINE
5
E7
100
AcDbEntity
8
SK1
62
256
6
ByLayer
370
18
48
1
60
0
100
AcDbSpline
70
4
71
2
72
6
73
3
40
0
40
0
40
0
40
1
40
1
40
1
41
1
10
-36.5004731679066
20
-21.1583519212896
30
0
41
1
10
-19.7502365839533
20
-21.5791761751669
30
0
41
1
10
-2.99999999999995
20
-22.0000004290441
30
0
0
SPLINE
5
E8
100
AcDbEntity
8
SK1
62
256
6
ByLayer
370
18
48
1
60
0
100
AcDbSpline
70
4
71
3
72
13
73
9
40
0
40
0
40
0
40
0
40
0.239458034039767
40
0.368362242523317
40
0.500001719408339
40
0.631640907399753
40
0.760544321541639
40
1
40
1
40
1
40
1
41
1
10
-2.00000000000008
20
21.8251283317571
30
0
41
1
10
-2.02607218220666
20
21.8253815759776
30
0
41
1
10
-2.0636355816604
20
21.832499461233
30
0
41
1
10
-2.1104783503755
20
21.8567272581279
30
0
41
1
10
-2.14242263587792
20
21.8827049843059
30
0
41
1
10
-2.16840067179342
20
21.9146489043199
30
0
41
1
10
-2.19262875645046
20
21.961491119038
30
0
41
1
10
-2.19974671976325
20
21.9990541435572
30
0
41
1
10
-2.2000000000001
20
22.0251260837646
30
0
0
SPLINE
5
E9
100
AcDbEntity
8
SK1
62
256
6
ByLayer
370
18
48
1
60
0
100
AcDbSpline
70
4
71
3
72
13
73
9
40
0
40
0
40
0
40
0
40
0.23945567335886
40
0.368359087136583
40
0.499998275767209
40
0.631637753936933
40
0.760541963956611
40
1
40
1
40
1
40
1
41
1
10
-2.19999999999999
20
-22.0251260775078
30
0
41
1
10
-2.19974671959665
20
-21.9990541369823
30
0
41
1
10
-2.19262875626084
20
-21.9614911120955
30
0
41
1
10
-2.16840067169748
20
-21.9146488976998
30
0
41
1
10
-2.14242263580758
20
-21.8827049776714
30
0
41
1
10
-2.1104783503302
20
-21.8567272514908
30
0
41
1
10
-2.06363558177697
20
-21.8324994546095
30
0
41
1
10
-2.0260721822557
20
-21.8253815693237
30
0
41
1
10
-1.99999999999995
20
-21.8251283250689
30
0
0
SPLINE
5
EA
100
AcDbEntity
8
SK1
62
256
6
ByLayer
370
18
48
1
60
0
100
AcDbSpline
70
4
71
2
72
6
73
3
40
0
40
0
40
0
40
1
40
1
40
1
41
1
10
-38
20
-20.241649218513
30
0
41
1
10
-37.9999999999999
20
-20.2415672299592
30
0
41
1
10
-38
20
-20.241453455998
30
0
0
SPLINE
5
EB
100
AcDbEntity
8
SK1
62
256
6
ByLayer
370
18
48
1
60
0
100
AcDbSpline
70
4
71
2
72
6
73
3
40
0
40
0
40
0
40
1
40
1
40
1
41
1
10
-36.5004804793292
20
21.1581635957922
30
0
41
1
10
-37.2502401090885
20
20.6998101178915
30
0
41
1
10
-38.0000000000001
20
20.241456633323
30
0
0
SPLINE
5
EC
100
AcDbEntity
8
SK1
62
256
6
ByLayer
370
18
48
1
60
0
100
AcDbSpline
70
4
71
2
72
6
73
3
40
0
40
0
40
0
40
1
40
1
40
1
41
1
10
-38
20
-20.2414566313419
30
0
41
1
10
-37.2502401116071
20
-20.6998101158727
30
0
41
1
10
-36.5004804844792
20
-21.1581635937519
30
0
0
SPLINE
5
ED
100
AcDbEntity
8
1
62
256
6
ByLayer
370
18
48
1
60
0
100
AcDbSpline
70
4
71
3
72
12
73
8
40
0
40
0
40
0
40
0
40
0.268812720709443
40
0.597605301872766
40
0.761234284787693
40
0.896143503604594
40
1
40
1
40
1
40
1
41
1
10
13.8943375672973
20
29.9139548464691
30
0
41
1
10
13.8789102783284
20
29.9344364341763
30
0
41
1
10
13.831605345163
20
29.9775637976282
30
0
41
1
10
13.7433941200962
20
30.0291632435093
30
0
41
1
10
13.634722007306
20
30.0627691562057
30
0
41
1
10
13.5458378558719
20
30.0777080286646
30
0
41
1
10
13.4878204468282
20
30.0803887582689
30
0
41
1
10
13.4613248654051
20
30.080592760317
30
0
0
SPLINE
5
EE
100
AcDbEntity
8
1
62
256
6
ByLayer
370
18
48
1
60
0
100
AcDbSpline
70
4
71
3
72
13
73
9
40
0
40
0
40
0
40
0
40
0.0049544420437418
40
0.113866519425954
40
0.253452115449249
40
0.473535455387135
40
0.894568595884646
40
1
40
1
40
1
40
1
41
1
10
10.5386751345947
20
30.080592760317
30
0
41
1
10
10.5374508724089
20
30.0805926868536
30
0
41
1
10
10.5093477717046
20
30.0805290593978
30
0
41
1
10
10.4465510164428
20
30.0768838316286
30
0
41
1
10
10.3457330197465
20
30.058773313866
30
0
41
1
10
10.2197164028837
20
30.013815703074
30
0
41
1
10
10.1481083506258
20
29.9607825352996
30
0
41
1
10
10.1120558984643
20
29.9218822348292
30
0
41
1
10
10.1056624327025
20
29.9139548464691
30
0
0
SPLINE
5
EF
100
AcDbEntity
8
1
62
256
6
ByLayer
370
18
48
1
60
0
100
AcDbSpline
70
4
71
3
72
12
73
8
40
0
40
0
40
0
40
0
40
0.268812720709595
40
0.59760530187285
40
0.761234284787767
40
0.896143503604641
40
1
40
1
40
1
40
1
41
1
10
10.1056624327025
20
9.86941261896616
30
0
41
1
10
10.1210897216714
20
9.80723406842814
30
0
41
1
10
10.168394654837
20
9.67528895226026
30
0
41
1
10
10.2566058799037
20
9.51348309748256
30
0
41
1
10
10.365277992694
20
9.40646168968885
30
0
41
1
10
10.454162144128
20
9.35849990178996
30
0
41
1
10
10.5121795531716
20
9.34989401091093
30
0
41
1
10
10.5386751345948
20
9.34922131452503
30
0
0
SPLINE
5
F0
100
AcDbEntity
8
1
62
256
6
ByLayer
370
18
48
1
60
0
100
AcDbSpline
70
4
71
3
72
13
73
9
40
0
40
0
40
0
40
0
40
0.0049544420437806
40
0.113866519425981
40
0.253452115449305
40
0.473535455387245
40
0.89456859588488
40
1
40
1
40
1
40
1
41
1
10
13.4613248654051
20
9.34922131452505
30
0
41
1
10
13.462549127591
20
9.34922155870901
30
0
41
1
10
13.4906522282954
20
9.34942610523152
30
0
41
1
10
13.553448983557
20
9.3611623118653
30
0
41
1
10
13.6542669802534
20
9.41926340653964
30
0
41
1
10
13.7802835971162
20
9.56214647013266
30
0
41
1
10
13.8518916493741
20
9.72702906428668
30
0
41
1
10
13.8879441015355
20
9.84537467551152
30
0
41
1
10
13.8943375672974
20
9.86941261896613
30
0
0
SPLINE
5
F1
100
AcDbEntity
8
1
62
256
6
ByLayer
370
18
48
1
60
0
100
AcDbSpline
70
4
71
3
72
12
73
8
40
0
40
0
40
0
40
0
40
0.268812720709525
40
0.597605301872774
40
0.76123428478772
40
0.896143503604597
40
1
40
1
40
1
40
1
41
1
10
13.8943375672974
20
-9.86941261896607
30
0
41
1
10
13.8789102783286
20
-9.80723406842807
30
0
41
1
10
13.831605345163
20
-9.67528895226021
30
0
41
1
10
13.7433941200963
20
-9.51348309748252
30
0
41
1
10
13.6347220073061
20
-9.40646168968882
30
0
41
1
10
13.5458378558719
20
-9.35849990178992
30
0
41
1
10
13.4878204468284
20
-9.3498940109109
30
0
41
1
10
13.4613248654052
20
-9.34922131452499
30
0
0
SPLINE
5
F2
100
AcDbEntity
8
1
62
256
6
ByLayer
370
18
48
1
60
0
100
AcDbSpline
70
4
71
3
72
13
73
9
40
0
40
0
40
0
40
0
40
0.0049544420437995
40
0.113866519425974
40
0.253452115449297
40
0.473535455387256
40
0.894568595884929
40
1
40
1
40
1
40
1
41
1
10
10.5386751345948
20
-9.349221314525
30
0
41
1
10
10.537450872409
20
-9.34922155870895
30
0
41
1
10
10.5093477717052
20
-9.34942610523143
30
0
41
1
10
10.4465510164426
20
-9.36116231186525
30
0
41
1
10
10.3457330197467
20
-9.41926340653958
30
0
41
1
10
10.2197164028836
20
-9.56214647013263
30
0
41
1
10
10.1481083506257
20
-9.72702906428667
30
0
41
1
10
10.1120558984644
20
-9.84537467551152
30
0
41
1
10
10.1056624327026
20
-9.86941261896611
30
0
0
SPLINE
5
F3
100
AcDbEntity
8
1
62
256
6
ByLayer
370
18
48
1
60
0
100
AcDbSpline
70
4
71
3
72
12
73
8
40
0
40
0
40
0
40
0
40
0.268812720709661
40
0.597605301872854
40
0.761234284787786
40
0.896143503604641
40
1
40
1
40
1
40
1
41
1
10
10.1056624327026
20
-29.9139548464691
30
0
41
1
10
10.1210897216715
20
-29.9344364341762
30
0
41
1
10
10.1683946548371
20
-29.9775637976282
30
0
41
1
10
10.2566058799038
20
-30.0291632435092
30
0
41
1
10
10.3652779926941
20
-30.0627691562056
30
0
41
1
10
10.4541621441282
20
-30.0777080286645
30
0
41
1
10
10.5121795531717
20
-30.0803887582688
30
0
41
1
10
10.5386751345949
20
-30.0805927603169
30
0
0
SPLINE
5
F4
100
AcDbEntity
8
1
62
256
6
ByLayer
370
18
48
1
60
0
100
AcDbSpline
70
4
71
3
72
13
73
9
40
0
40
0
40
0
40
0
40
0.0049544420437806
40
0.113866519425982
40
0.253452115449305
40
0.473535455387247
40
0.894568595884882
40
1
40
1
40
1
40
1
41
1
10
13.4613248654052
20
-30.0805927603169
30
0
41
1
10
13.462549127591
20
-30.0805926868535
30
0
41
1
10
13.4906522282956
20
-30.0805290593975
30
0
41
1
10
13.5534489835571
20
-30.0768838316287
30
0
41
1
10
13.6542669802537
20
-30.0587733138658
30
0
41
1
10
13.7802835971162
20
-30.0138157030739
30
0
41
1
10
13.8518916493742
20
-29.9607825352996
30
0
41
1
10
13.8879441015356
20
-29.9218822348291
30
0
41
1
10
13.8943375672975
20
-29.9139548464691
30
0
0
SPLINE
5
F5
100
AcDbEntity
8
SK1
62
256
6
ByLayer
370
18
48
1
60
0
100
AcDbSpline
70
4
71
3
72
14
73
10
40
0
40
0
40
0
40
0
40
0.5
40
0.75
40
0.875
40
0.9375
40
0.96875
40
0.984375
40
1
40
1
40
1
40
1
41
1
10
-36.5004731679067
20
21.1583519294549
30
0
41
1
10
-36.4951732124037
20
14.1055699456174
30
0
41
1
10
-36.5011665066371
20
3.52637314942231
30
0
41
1
10
-36.5014206431247
20
-8.81595244888341
30
0
41
1
10
-36.4990519550794
20
-14.9872072175452
30
0
41
1
10
-36.5026049871508
20
-18.0726970209429
30
0
41
1
10
-36.4972754391169
20
-19.6156482953757
30
0
41
1
10
-36.5068686253081
20
-20.4969676873973
30
0
41
1
10
-36.4876822517661
20
-20.9383238964311
30
0
41
1
10
-36.5004731679066
20
-21.1583519212896
30
0
0
SPLINE
5
F6
100
AcDbEntity
8
SK1
62
256
6
ByLayer
370
18
48
1
60
0
100
AcDbSpline
70
4
71
2
72
6
73
3
40
0
40
0
40
0
40
1
40
1
40
1
41
1
10
-3.00000000000005
20
22.0000004375346
30
0
41
1
10
-19.7502365839534
20
21.5791761834948
30
0
41
1
10
-36.5004731679067
20
21.1583519294551
30
0
0
SPLINE
5
F7
100
AcDbEntity
8
SK1
62
256
6
ByLayer
370
18
48
1
60
0
100
AcDbSpline
70
4
71
2
72
6
73
3
40
0
40
0
40
0
40
1
40
1
40
1
41
1
10
-36.5004731679066
20
-21.1583519212896
30
0
41
1
10
-19.7502365839533
20
-21.5791761751669
30
0
41
1
10
-2.99999999999995
20
-22.0000004290441
30
0
0
SPLINE
5
F8
100
AcDbEntity
8
SK1
62
256
6
ByLayer
370
18
48
1
60
0
100
AcDbSpline
70
4
71
2
72
6
73
3
40
0
40
0
40
0
40
1
40
1
40
1
41
1
10
-2.19492341897847
20
22.0202267638885
30
0
41
1
10
-2.59746170948926
20
22.0101136007115
30
0
41
1
10
-3.00000000000005
20
22.0000004375346
30
0
0
SPLINE
5
F9
100
AcDbEntity
8
SK1
62
256
6
ByLayer
370
18
48
1
60
0
100
AcDbSpline
70
4
71
2
72
6
73
3
40
0
40
0
40
0
40
1
40
1
40
1
41
1
10
-2.99999999999995
20
-22.0000004290441
30
0
41
1
10
-2.59746170948919
20
-22.0101135922172
30
0
41
1
10
-2.19492341897837
20
-22.0202267553903
30
0
0
SPLINE
5
FA
100
AcDbEntity
8
SK1
62
256
6
ByLayer
370
18
48
1
60
0
100
AcDbSpline
70
4
71
3
72
13
73
9
40
0
40
0
40
0
40
0
40
0.239458034039767
40
0.368362242523317
40
0.500001719408339
40
0.631640907399753
40
0.760544321541639
40
1
40
1
40
1
40
1
41
1
10
-2.00000000000008
20
21.8251283317571
30
0
41
1
10
-2.02607218220666
20
21.8253815759776
30
0
41
1
10
-2.0636355816604
20
21.832499461233
30
0
41
1
10
-2.1104783503755
20
21.8567272581279
30
0
41
1
10
-2.14242263587792
20
21.8827049843059
30
0
41
1
10
-2.16840067179342
20
21.9146489043199
30
0
41
1
10
-2.19262875645046
20
21.961491119038
30
0
41
1
10
-2.19974671976325
20
21.9990541435572
30
0
41
1
10
-2.2000000000001
20
22.0251260837646
30
0
0
SPLINE
5
FB
100
AcDbEntity
8
SK1
62
256
6
ByLayer
370
18
48
1
60
0
100
AcDbSpline
70
4
71
3
72
13
73
9
40
0
40
0
40
0
40
0
40
0.23945567335886
40
0.368359087136583
40
0.499998275767209
40
0.631637753936933
40
0.760541963956611
40
1
40
1
40
1
40
1
41
1
10
-2.19999999999999
20
-22.0251260775078
30
0
41
1
10
-2.19974671959665
20
-21.9990541369823
30
0
41
1
10
-2.19262875626084
20
-21.9614911120955
30
0
41
1
10
-2.16840067169748
20
-21.9146488976998
30
0
41
1
10
-2.14242263580758
20
-21.8827049776714
30
0
41
1
10
-2.1104783503302
20
-21.8567272514908
30
0
41
1
10
-2.06363558177697
20
-21.8324994546095
30
0
41
1
10
-2.0260721822557
20
-21.8253815693237
30
0
41
1
10
-1.99999999999995
20
-21.8251283250689
30
0
0
SPLINE
5
FC
100
AcDbEntity
8
SK1
62
256
6
ByLayer
370
18
48
1
60
0
100
AcDbSpline
70
4
71
2
72
6
73
3
40
0
40
0
40
0
40
1
40
1
40
1
41
1
10
-36.5004804793292
20
21.1581635957922
30
0
41
1
10
-37.2502401090885
20
20.6998101178915
30
0
41
1
10
-38.0000000000001
20
20.241456633323
30
0
0
SPLINE
5
FD
100
AcDbEntity
8
SK1
62
256
6
ByLayer
370
18
48
1
60
0
100
AcDbSpline
70
4
71
2
72
6
73
3
40
0
40
0
40
0
40
1
40
1
40
1
41
1
10
-38
20
-20.2414566313419
30
0
41
1
10
-37.2502401116071
20
-20.6998101158727
30
0
41
1
10
-36.5004804844792
20
-21.1581635937519
30
0
0
SPLINE
5
FE
100
AcDbEntity
8
1
62
256
6
ByLayer
370
18
48
1
60
0
100
AcDbSpline
70
4
71
3
72
10
73
6
40
0
40
0
40
0
40
0
40
0.5
40
0.5
40
1
40
1
40
1
40
1
41
1
10
32.2355156870309
20
32.0007887413364
30
0
41
1
10
32.5405994483869
20
32.0143461822122
30
0
41
1
10
32.7831329054908
20
32.2177730402635
30
0
41
1
10
32.9871335504591
20
32.556170157996
30
0
41
1
10
32.9999999999999
20
32.6890179237536
30
0
41
1
10
32.9999999999999
20
32.8000000000001
30
0
0
SPLINE
5
FF
100
AcDbEntity
8
1
62
256
6
ByLayer
370
18
48
1
60
0
100
AcDbSpline
70
4
71
3
72
12
73
8
40
0
40
0
40
0
40
0
40
0.347148591863904
40
0.347148591863904
40
0.671718427404842
40
0.671718427404842
40
1
40
1
40
1
40
1
41
1
10
32.9999999999999
20
34.670995967572
30
0
41
1
10
32.9999999999999
20
34.6993221464188
30
0
41
1
10
33.017588804706
20
34.740446543037
30
0
41
1
10
33.0790502594428
20
34.845298377845
30
0
41
1
10
33.121853928137
20
34.9086608546924
30
0
41
1
10
33.2192436335902
20
35.0671550209702
30
0
41
1
10
33.2752248766118
20
35.1653386452492
30
0
41
1
10
33.3230850314749
20
35.2804663310198
30
0
0
SPLINE
5
100
100
AcDbEntity
8
1
62
256
6
ByLayer
370
18
48
1
60
0
100
AcDbSpline
70
4
71
3
72
8
73
4
40
0
40
0
40
0
40
0
40
1
40
1
40
1
40
1
41
1
10
33.3230850314749
20
35.2804663310198
30
0
41
1
10
33.5706626758408
20
35.8760147851753
30
0
41
1
10
33.8573472827458
20
36.5218191697252
30
0
41
1
10
34.1567295359175
20
37.186468934825
30
0
0
SPLINE
5
101
100
AcDbEntity
8
1
62
256
6
ByLayer
370
18
48
1
60
0
100
AcDbSpline
70
4
71
3
72
8
73
4
40
0
40
0
40
0
40
0
40
1
40
1
40
1
40
1
41
1
10
34.1567295359175
20
37.186468934825
30
0
41
1
10
34.2981209949184
20
37.4578777179275
30
0
41
1
10
34.4404223829566
20
37.7290502251178
30
0
41
1
10
34.5835637073575
20
38.0000000000001
30
0
0
SPLINE
5
102
100
AcDbEntity
8
1
62
256
6
ByLayer
370
18
48
1
60
0
100
AcDbSpline
70
4
71
3
72
12
73
8
40
0
40
0
40
0
40
0
40
0.5
40
0.5
40
0.75
40
0.75
40
1
40
1
40
1
40
1
41
1
10
33.323085031475
20
15.8107595750804
30
0
41
1
10
33.2529440254909
20
15.4711905771487
30
0
41
1
10
33.1524231278671
20
15.1380955901486
30
0
41
1
10
32.912619246219
20
14.6743567499103
30
0
41
1
10
32.8184398206817
20
14.5264728141382
30
0
41
1
10
32.5719640860952
20
14.2774173670608
30
0
41
1
10
32.409970037745
20
14.1774468787582
30
0
41
1
10
32.235515687031
20
14.1774468787582
30
0
0
SPLINE
5
103
100
AcDbEntity
8
1
62
256
6
ByLayer
370
18
48
1
60
0
100
AcDbSpline
70
4
71
3
72
8
73
4
40
0
40
0
40
0
40
0
40
1
40
1
40
1
40
1
41
1
10
23.7612285347814
20
-13.254833995939
30
0
41
1
10
23.4803023391848
20
-10.5151521950735
30
0
41
1
10
23.273416100474
20
-7.76674543041063
30
0
41
1
10
23.1591109915469
20
-5.00742878627636
30
0
0
SPLINE
5
104
100
AcDbEntity
8
1
62
256
6
ByLayer
370
18
48
1
60
0
100
AcDbSpline
70
4
71
3
72
8
73
4
40
0
40
0
40
0
40
0
40
1
40
1
40
1
40
1
41
1
10
23.1591109915469
20
-19.0866301468847
30
0
41
1
10
23.2737063004499
20
-17.130545066737
30
0
41
1
10
23.4809613156757
20
-15.1875373194031
30
0
41
1
10
23.7612285347814
20
-13.254833995939
30
0
0
SPLINE
5
105
100
AcDbEntity
8
1
62
256
6
ByLayer
370
18
48
1
60
0
100
AcDbSpline
70
4
71
3
72
12
73
8
40
0
40
0
40
0
40
0
40
0.5
40
0.5
40
0.75
40
0.75
40
1
40
1
40
1
40
1
41
1
10
33.323085031475
20
15.8107595750804
30
0
41
1
10
33.2529440254909
20
15.4711905771487
30
0
41
1
10
33.1524231278671
20
15.1380955901486
30
0
41
1
10
32.912619246219
20
14.6743567499103
30
0
41
1
10
32.8184398206817
20
14.5264728141382
30
0
41
1
10
32.5719640860952
20
14.2774173670608
30
0
41
1
10
32.409970037745
20
14.1774468787582
30
0
41
1
10
32.235515687031
20
14.1774468787582
30
0
0
SPLINE
5
106
100
AcDbEntity
8
1
62
256
6
ByLayer
370
18
48
1
60
0
100
AcDbSpline
70
4
71
3
72
8
73
4
40
0
40
0
40
0
40
0
40
1
40
1
40
1
40
1
41
1
10
23.8586145590837
20
14.1774468787579
30
0
41
1
10
23.5277731639957
20
11.1292893564906
30
0
41
1
10
23.28545694403
20
8.0574104789401
30
0
41
1
10
23.1591109915469
20
5.00742878627644
30
0
0
SPLINE
5
107
100
AcDbEntity
8
1
62
256
6
ByLayer
370
18
48
1
60
0
100
AcDbSpline
70
4
71
3
72
12
73
8
40
0
40
0
40
0
40
0
40
0.5
40
0.5
40
0.75
40
0.75
40
1
40
1
40
1
40
1
41
1
10
23.1591109915469
20
5.00742878627644
30
0
41
1
10
23.0910175028125
20
3.36365714224748
30
0
41
1
10
22.9775445039737
20
1.7211795691383
30
0
41
1
10
22.9733437439643
20
-0.746807194711388
30
0
41
1
10
22.9982230431496
20
-1.61826462002306
30
0
41
1
10
23.0742598269263
20
-3.31308279722529
30
0
41
1
10
23.1240174033095
20
-4.16027223277886
30
0
41
1
10
23.1591109915469
20
-5.00742878627633
30
0
0
SPLINE
5
108
100
AcDbEntity
8
1
62
256
6
ByLayer
370
18
48
1
60
0
100
AcDbSpline
70
4
71
3
72
10
73
6
40
0
40
0
40
0
40
0
40
0.5
40
0.5
40
1
40
1
40
1
40
1
41
1
10
23.1591109915469
20
-19.0866301468847
30
0
41
1
10
23.0899576373575
20
-20.2670436006915
30
0
41
1
10
22.9747165479842
20
-21.4464410599832
30
0
41
1
10
22.9746423429929
20
-23.8069922736311
30
0
41
1
10
23.0899280844578
20
-24.9872859419092
30
0
41
1
10
23.159110991547
20
-26.1682038490543
30
0
0
SPLINE
5
109
100
AcDbEntity
8
1
62
256
6
ByLayer
370
18
48
1
60
0
100
AcDbSpline
70
4
71
3
72
30
73
26
40
0
40
0
40
0
40
0
40
0.0156249999999997
40
0.0156249999999997
40
0.0312499999999994
40
0.0312499999999994
40
0.0624999999999994
40
0.0624999999999994
40
0.124999999999999
40
0.124999999999999
40
0.249999999999999
40
0.249999999999999
40
0.499999999999999
40
0.499999999999999
40
0.749999999999999
40
0.749999999999999
40
0.874999999999999
40
0.874999999999999
40
0.937499999999999
40
0.937499999999999
40
0.968749999999999
40
0.968749999999999
40
0.984374999999999
40
0.984374999999999
40
1
40
1
40
1
40
1
41
1
10
24.4447529687005
20
19.4914962284931
30
0
41
1
10
24.4042036950107
20
19.4914962284931
30
0
41
1
10
24.3801613934067
20
19.5260600302477
30
0
41
1
10
24.3445161153341
20
19.5808199555258
30
0
41
1
10
24.3311249536043
20
19.6100121037481
30
0
41
1
10
24.2958896446042
20
19.6975042288152
30
0
41
1
10
24.2790376727249
20
19.7569893124185
30
0
41
1
10
24.2348606383521
20
19.9365563599691
30
0
41
1
10
24.2149381475959
20
20.0578813252709
30
0
41
1
10
24.1652900853588
20
20.4212287201087
30
0
41
1
10
24.1465884394076
20
20.6641876689741
30
0
41
1
10
24.1048202309929
20
21.3937888198121
30
0
41
1
10
24.0972042738527
20
21.8811527422316
30
0
41
1
10
24.0972145614963
20
22.855081645412
30
0
41
1
10
24.1048203924063
20
23.342116780021
30
0
41
1
10
24.1466536055788
20
24.0722146366073
30
0
41
1
10
24.1653858837079
20
24.3153074126476
30
0
41
1
10
24.2151153134861
20
24.6787124011272
30
0
41
1
10
24.235027679991
20
24.7998068275616
30
0
41
1
10
24.2792588486146
20
24.9792824063848
30
0
41
1
10
24.2962334057393
20
25.0390477743897
30
0
41
1
10
24.3315409467137
20
25.1263847274638
30
0
41
1
10
24.3447959783289
20
25.1552131663798
30
0
41
1
10
24.3805822903348
20
25.2099354043247
30
0
41
1
10
24.404769864317
20
25.2439810252267
30
0
41
1
10
24.4447529687005
20
25.2439810252267
30
0
0
SPLINE
5
10A
100
AcDbEntity
8
1
62
256
6
ByLayer
370
18
48
1
60
0
100
AcDbSpline
70
4
71
3
72
16
73
12
40
0
40
0
40
0
40
0
40
0.0624999999999989
40
0.0624999999999989
40
0.124999999999998
40
0.124999999999998
40
0.249999999999997
40
0.249999999999997
40
0.499999999999998
40
0.499999999999998
40
1
40
1
40
1
40
1
41
1
10
32.235515687031
20
25.2439810252267
30
0
41
1
10
32.3293810723493
20
25.2439810252267
30
0
41
1
10
32.3955605350098
20
25.3128096855122
30
0
41
1
10
32.4941692357424
20
25.4322920630507
30
0
41
1
10
32.5326301085161
20
25.4964467720191
30
0
41
1
10
32.6384278691531
20
25.6928121347257
30
0
41
1
10
32.693417528002
20
25.8272047967388
30
0
41
1
10
32.844667378071
20
26.2326360078424
30
0
41
1
10
32.9247160535694
20
26.5071138811203
30
0
41
1
10
33.1401706576908
20
27.3355255677174
30
0
41
1
10
33.247296141119
20
27.8922345372403
30
0
41
1
10
33.323085031475
20
28.4517737722687
30
0
0
SPLINE
5
10B
100
AcDbEntity
8
1
62
256
6
ByLayer
370
18
48
1
60
0
100
AcDbSpline
70
4
71
3
72
8
73
4
40
0
40
0
40
0
40
0
40
1
40
1
40
1
40
1
41
1
10
33.323085031475
20
28.4517737722687
30
0
41
1
10
33.7592647698625
20
31.6720304089073
30
0
41
1
10
34.5200890037881
20
34.8497293409866
30
0
41
1
10
35.4901453371699
20
38
30
0
0
SPLINE
5
10C
100
AcDbEntity
8
1
62
256
6
ByLayer
370
18
48
1
60
0
100
AcDbSpline
70
4
71
3
72
8
73
4
40
0
40
0
40
0
40
0
40
1
40
1
40
1
40
1
41
1
10
33.362361917588
20
16
30
0
41
1
10
33.3489934709211
20
16.0945226935551
30
0
41
1
10
33.3359002590977
20
16.1890903709145
30
0
41
1
10
33.3230850314781
20
16.2837034814277
30
0
0
SPLINE
5
10D
100
AcDbEntity
8
1
62
256
6
ByLayer
370
18
48
1
60
0
100
AcDbSpline
70
4
71
3
72
22
73
18
40
0
40
0
40
0
40
0
40
0.460762482360816
40
0.460762482360816
40
0.740140951472177
40
0.740140951472177
40
0.865716198238434
40
0.865716198238434
40
0.92352716735505
40
0.92352716735505
40
0.960061080357949
40
0.960061080357949
40
0.97643523063639
40
0.97643523063639
40
0.990241510368013
40
0.990241510368013
40
1
40
1
40
1
40
1
41
1
10
33.3230850314782
20
16.2837034814277
30
0
41
1
10
33.2532127099762
20
16.7995614804
30
0
41
1
10
33.1560461595203
20
17.3137639957099
30
0
41
1
10
32.952470148137
20
18.1323213409675
30
0
41
1
10
32.8657957604913
20
18.4405131044988
30
0
41
1
10
32.7048999356568
20
18.8796640881405
30
0
41
1
10
32.6503362608014
20
19.0152578103828
30
0
41
1
10
32.5506733828619
20
19.2072528463297
30
0
41
1
10
32.5162982156736
20
19.2671657303262
30
0
41
1
10
32.4487673325575
20
19.3600008601719
30
0
41
1
10
32.4197358591389
20
19.3951828757043
30
0
41
1
10
32.3684022391713
20
19.4399860946393
30
0
41
1
10
32.3509876888182
20
19.4530939584504
30
0
41
1
10
32.3153238620579
20
19.473361412145
30
0
41
1
10
32.2972624900483
20
19.4812641663095
30
0
41
1
10
32.264375975369
20
19.4895701888485
30
0
41
1
10
32.2498719808158
20
19.4914962284931
30
0
41
1
10
32.235515687031
20
19.4914962284931
30
0
0
SPLINE
5
10E
100
AcDbEntity
8
1
62
256
6
ByLayer
370
18
48
1
60
0
100
AcDbSpline
70
4
71
3
72
8
73
4
40
0
40
0
40
0
40
0
40
1
40
1
40
1
40
1
41
1
10
23.159110991547
20
-26.1682038490542
30
0
41
1
10
23.2736662665143
20
-28.1236055697784
30
0
41
1
10
23.4807918463481
20
-30.0666833924468
30
0
41
1
10
23.7612382744232
20
-31.9999999999998
30
0
0
SPLINE
5
10F
100
AcDbEntity
8
SK1
62
256
6
ByLayer
370
18
48
1
60
0
100
AcDbSpline
70
4
71
2
72
6
73
3
40
0
40
0
40
0
40
1
40
1
40
1
41
1
10
-1.99999999999995
20
-21.8251283250689
30
0
41
1
10
-0.999999999999927
20
-21.8251283250689
30
0
41
1
10
5.18E-14
20
-21.8251283250689
30
0
0
SPLINE
5
110
100
AcDbEntity
8
SK1
62
256
6
ByLayer
370
18
48
1
60
0
100
AcDbSpline
70
4
71
2
72
6
73
3
40
0
40
0
40
0
40
1
40
1
40
1
41
1
10
-5.04E-14
20
21.8251283317571
30
0
41
1
10
-1.00000000000003
20
21.8251283317571
30
0
41
1
10
-2.00000000000005
20
21.8251283317571
30
0
0
LINE
5
70
100
AcDbEntity
8
SK1
62
256
6
ByLayer
370
18
48
1
60
0
100
AcDbLine
10
-2.194923
20
22.020227
30
0
11
-2.199046
21
22.020123
31
0
39
0
210
0
220
0
230
1
0
LINE
5
72
100
AcDbEntity
8
SK1
62
256
6
ByLayer
370
18
48
1
60
0
100
AcDbLine
10
-2.199046
20
-22.020123
30
0
11
-2.194923
21
-22.020227
31
0
39
0
210
0
220
0
230
1
0
LINE
5
73
100
AcDbEntity
8
1
62
256
6
ByLayer
370
18
48
1
60
0
100
AcDbLine
10
0.3
20
31.5
30
0
11
0
21
31.2
31
0
39
0
210
0
220
0
230
1
0
LINE
5
75
100
AcDbEntity
8
1
62
256
6
ByLayer
370
18
48
1
60
0
100
AcDbLine
10
13.894338
20
-9.869413
30
0
11
13.894338
21
-29.913955
31
0
39
0
210
0
220
0
230
1
0
LINE
5
76
100
AcDbEntity
8
1
62
256
6
ByLayer
370
18
48
1
60
0
100
AcDbLine
10
13.461325
20
-9.349221
30
0
11
13.461325
21
-30.080593
31
0
39
0
210
0
220
0
230
1
0
LINE
5
77
100
AcDbEntity
8
SK1
62
256
6
ByLayer
370
18
48
1
60
0
100
AcDbLine
10
-38
20
20.241806
30
0
11
-38
21
-20.24181
31
0
39
0
210
0
220
0
230
1
0
LINE
5
78
100
AcDbEntity
8
SK1
62
256
6
ByLayer
370
18
48
1
60
0
100
AcDbLine
10
-2
20
21.825128
30
0
11
-2
21
-21.825128
31
0
39
0
210
0
220
0
230
1
0
LINE
5
79
100
AcDbEntity
8
1
62
256
6
ByLayer
370
18
48
1
60
0
100
AcDbLine
10
10.105662
20
-9.869413
30
0
11
10.105662
21
-29.913955
31
0
39
0
210
0
220
0
230
1
0
LINE
5
7A
100
AcDbEntity
8
1
62
256
6
ByLayer
370
18
48
1
60
0
100
AcDbLine
10
10.538675
20
-9.349221
30
0
11
10.538675
21
-30.080593
31
0
39
0
210
0
220
0
230
1
0
LINE
5
7B
100
AcDbEntity
8
1
62
256
6
ByLayer
370
18
48
1
60
0
100
AcDbLine
10
13.461325
20
30.080593
30
0
11
13.461325
21
9.349221
31
0
39
0
210
0
220
0
230
1
0
LINE
5
7C
100
AcDbEntity
8
1
62
256
6
ByLayer
370
18
48
1
60
0
100
AcDbLine
10
13.894338
20
29.913955
30
0
11
13.894338
21
9.869413
31
0
39
0
210
0
220
0
230
1
0
LINE
5
7D
100
AcDbEntity
8
1
62
256
6
ByLayer
370
18
48
1
60
0
100
AcDbLine
10
10.105662
20
29.913955
30
0
11
10.105662
21
9.869413
31
0
39
0
210
0
220
0
230
1
0
LINE
5
7E
100
AcDbEntity
8
1
62
256
6
ByLayer
370
18
48
1
60
0
100
AcDbLine
10
10.538675
20
30.080593
30
0
11
10.538675
21
9.349221
31
0
39
0
210
0
220
0
230
1
0
LINE
5
7F
100
AcDbEntity
8
1
62
256
6
ByLayer
370
18
48
1
60
0
100
AcDbLine
10
0
20
31.2
30
0
11
0
21
-31.2
31
0
39
0
210
0
220
0
230
1
0
LINE
5
80
100
AcDbEntity
8
1
62
256
6
ByLayer
370
18
48
1
60
0
100
AcDbLine
10
100.535898
20
25
30
0
11
102.267949
21
28
31
0
39
0
210
0
220
0
230
1
0
LINE
5
81
100
AcDbEntity
8
1
62
256
6
ByLayer
370
18
48
1
60
0
100
AcDbLine
10
64.535898
20
25
30
0
11
66.267949
21
28
31
0
39
0
210
0
220
0
230
1
0
LINE
5
82
100
AcDbEntity
8
1
62
256
6
ByLayer
370
18
48
1
60
0
100
AcDbLine
10
69.732051
20
22
30
0
11
71.464102
21
25
31
0
39
0
210
0
220
0
230
1
0
LINE
5
83
100
AcDbEntity
8
1
62
256
6
ByLayer
370
18
48
1
60
0
100
AcDbLine
10
105.732051
20
22
30
0
11
107.464102
21
25
31
0
39
0
210
0
220
0
230
1
0
LINE
5
84
100
AcDbEntity
8
1
62
256
6
ByLayer
370
18
48
1
60
0
100
AcDbLine
10
82.535898
20
25
30
0
11
84.267949
21
28
31
0
39
0
210
0
220
0
230
1
0
LINE
5
85
100
AcDbEntity
8
1
62
256
6
ByLayer
370
18
48
1
60
0
100
AcDbLine
10
87.732051
20
22
30
0
11
89.464102
21
25
31
0
39
0
210
0
220
0
230
1
0
LINE
5
86
100
AcDbEntity
8
1
62
256
6
ByLayer
370
18
48
1
60
0
100
AcDbLine
10
0
20
-31.2
30
0
11
0.3
21
-31.5
31
0
39
0
210
0
220
0
230
1
0
LINE
5
87
100
AcDbEntity
8
1
62
256
6
ByLayer
370
18
48
1
60
0
100
AcDbLine
10
66.267949
20
28
30
0
11
69.732051
21
28
31
0
39
0
210
0
220
0
230
1
0
LINE
5
88
100
AcDbEntity
8
1
62
256
6
ByLayer
370
18
48
1
60
0
100
AcDbLine
10
66.267949
20
22
30
0
11
69.732051
21
22
31
0
39
0
210
0
220
0
230
1
0
LINE
5
89
100
AcDbEntity
8
1
62
256
6
ByLayer
370
18
48
1
60
0
100
AcDbLine
10
10.538675
20
-30.080593
30
0
11
13.461325
21
-30.080593
31
0
39
0
210
0
220
0
230
1
0
LINE
5
8A
100
AcDbEntity
8
1
62
256
6
ByLayer
370
18
48
1
60
0
100
AcDbLine
10
10.538675
20
-9.349221
30
0
11
13.461325
21
-9.349221
31
0
39
0
210
0
220
0
230
1
0
LINE
5
8B
100
AcDbEntity
8
1
62
256
6
ByLayer
370
18
48
1
60
0
100
AcDbLine
10
10.538675
20
9.349221
30
0
11
13.461325
21
9.349221
31
0
39
0
210
0
220
0
230
1
0
LINE
5
8C
100
AcDbEntity
8
1
62
256
6
ByLayer
370
18
48
1
60
0
100
AcDbLine
10
10.538675
20
30.080593
30
0
11
13.461325
21
30.080593
31
0
39
0
210
0
220
0
230
1
0
LINE
5
8D
100
AcDbEntity
8
1
62
256
6
ByLayer
370
18
48
1
60
0
100
AcDbLine
10
102.267949
20
28
30
0
11
105.732051
21
28
31
0
39
0
210
0
220
0
230
1
0
LINE
5
8E
100
AcDbEntity
8
1
62
256
6
ByLayer
370
18
48
1
60
0
100
AcDbLine
10
102.267949
20
22
30
0
11
105.732051
21
22
31
0
39
0
210
0
220
0
230
1
0
LINE
5
8F
100
AcDbEntity
8
1
62
256
6
ByLayer
370
18
48
1
60
0
100
AcDbLine
10
84.267949
20
28
30
0
11
87.732051
21
28
31
0
39
0
210
0
220
0
230
1
0
LINE
5
90
100
AcDbEntity
8
1
62
256
6
ByLayer
370
18
48
1
60
0
100
AcDbLine
10
84.267949
20
22
30
0
11
87.732051
21
22
31
0
39
0
210
0
220
0
230
1
0
LINE
5
91
100
AcDbEntity
8
1
62
256
6
ByLayer
370
18
48
1
60
0
100
AcDbLine
10
87.732051
20
28
30
0
11
89.464102
21
25
31
0
39
0
210
0
220
0
230
1
0
LINE
5
92
100
AcDbEntity
8
1
62
256
6
ByLayer
370
18
48
1
60
0
100
AcDbLine
10
82.535898
20
25
30
0
11
84.267949
21
22
31
0
39
0
210
0
220
0
230
1
0
LINE
5
93
100
AcDbEntity
8
1
62
256
6
ByLayer
370
18
48
1
60
0
100
AcDbLine
10
69.732051
20
28
30
0
11
71.464102
21
25
31
0
39
0
210
0
220
0
230
1
0
LINE
5
94
100
AcDbEntity
8
1
62
256
6
ByLayer
370
18
48
1
60
0
100
AcDbLine
10
105.732051
20
28
30
0
11
107.464102
21
25
31
0
39
0
210
0
220
0
230
1
0
LINE
5
95
100
AcDbEntity
8
1
62
256
6
ByLayer
370
18
48
1
60
0
100
AcDbLine
10
100.535898
20
25
30
0
11
102.267949
21
22
31
0
39
0
210
0
220
0
230
1
0
LINE
5
96
100
AcDbEntity
8
1
62
256
6
ByLayer
370
18
48
1
60
0
100
AcDbLine
10
64.535898
20
25
30
0
11
66.267949
21
22
31
0
39
0
210
0
220
0
230
1
0
LINE
5
97
100
AcDbEntity
8
SK3
62
256
6
ByLayer
370
18
48
0.05
60
0
100
AcDbLine
10
37.5
20
13
30
0
11
37.5
21
38
31
0
39
0
210
0
220
0
230
1
0
LINE
5
99
100
AcDbEntity
8
81
62
256
6
ByLayer
370
13
48
1
60
0
100
AcDbLine
10
122
20
25.5
30
0
11
132
21
25.5
31
0
39
0
210
0
220
0
230
1
0
LINE
5
9A
100
AcDbEntity
8
80
62
256
6
ByLayer
370
13
48
1
60
0
100
AcDbLine
10
0
20
0
30
0
11
-10.461613
21
0
31
0
39
0
210
0
220
0
230
1
0
LINE
5
9B
100
AcDbEntity
8
1
62
256
6
ByLayer
370
18
48
1
60
0
100
AcDbLine
10
0.3
20
-31.5
30
0
11
21.979208
21
-31.5
31
0
39
0
210
0
220
0
230
1
0
LINE
5
9C
100
AcDbEntity
8
1
62
256
6
ByLayer
370
18
48
1
60
0
100
AcDbLine
10
85.24789
20
31.204581
30
0
11
86.75211
21
31.204581
31
0
39
0
210
0
220
0
230
1
0
LINE
5
9D
100
AcDbEntity
8
1
62
256
6
ByLayer
370
18
48
1
60
0
100
AcDbLine
10
35.29041
20
38
30
0
11
34.583564
21
38
31
0
39
0
210
0
220
0
230
1
0
LINE
5
9E
100
AcDbEntity
8
1
62
256
6
ByLayer
370
18
48
1
60
0
100
AcDbLine
10
113
20
38
30
0
11
35.29041
21
38
31
0
39
0
210
0
220
0
230
1
0
LINE
5
9F
100
AcDbEntity
8
1
62
256
6
ByLayer
370
18
48
1
60
0
100
AcDbLine
10
33
20
32.8
30
0
11
33
21
34.670996
31
0
39
0
210
0
220
0
230
1
0
LINE
5
A0
100
AcDbEntity
8
1
62
256
6
ByLayer
370
18
48
1
60
0
100
AcDbLine
10
23.858615
20
32
30
0
11
32.2
21
32
31
0
39
0
210
0
220
0
230
1
0
LINE
5
A1
100
AcDbEntity
8
1
62
256
6
ByLayer
370
18
48
1
60
0
100
AcDbLine
10
32.235516
20
14.177447
30
0
11
23.858615
21
14.177447
31
0
39
0
210
0
220
0
230
1
0
LINE
5
A2
100
AcDbEntity
8
1
62
256
6
ByLayer
370
18
48
1
60
0
100
AcDbLine
10
23.858615
20
14.177447
30
0
11
23.858615
21
32
31
0
39
0
210
0
220
0
230
1
0
LINE
5
A3
100
AcDbEntity
8
1
62
256
6
ByLayer
370
18
48
1
60
0
100
AcDbLine
10
22.974682
20
32
30
0
11
23.159111
21
32
31
0
39
0
210
0
220
0
230
1
0
LINE
5
A4
100
AcDbEntity
8
1
62
256
6
ByLayer
370
18
48
1
60
0
100
AcDbLine
10
23.159111
20
32
30
0
11
23.858615
21
32
31
0
39
0
210
0
220
0
230
1
0
LINE
5
A5
100
AcDbEntity
8
1
62
256
6
ByLayer
370
18
48
1
60
0
100
AcDbLine
10
0.3
20
31.5
30
0
11
22
21
31.5
31
0
39
0
210
0
220
0
230
1
0
LINE
5
A6
100
AcDbEntity
8
1
62
256
6
ByLayer
370
18
48
1
60
0
100
AcDbLine
10
77.115903
20
-15.454834
30
0
11
29.065252
21
-32
31
0
39
0
210
0
220
0
230
1
0
LINE
5
A7
100
AcDbEntity
8
1
62
256
6
ByLayer
370
18
48
1
60
0
100
AcDbLine
10
24.040436
20
-13.254834
30
0
11
76.747749
21
-13.254834
31
0
39
0
210
0
220
0
230
1
0
LINE
5
A8
100
AcDbEntity
8
1
62
256
6
ByLayer
370
18
48
1
60
0
100
AcDbLine
10
115
20
-2.410293
30
0
11
77.115903
21
-15.454834
31
0
39
0
210
0
220
0
230
1
0
LINE
5
A9
100
AcDbEntity
8
1
62
256
6
ByLayer
370
18
48
1
60
0
100
AcDbLine
10
115
20
-2.350637
30
0
11
115
21
-2.410293
31
0
39
0
210
0
220
0
230
1
0
LINE
5
AA
100
AcDbEntity
8
1
62
256
6
ByLayer
370
18
48
1
60
0
100
AcDbLine
10
76.747749
20
-13.254834
30
0
11
107
21
-2.838149
31
0
39
0
210
0
220
0
230
1
0
LINE
5
AB
100
AcDbEntity
8
1
62
256
6
ByLayer
370
18
48
1
60
0
100
AcDbLine
10
77.115903
20
-15.454834
30
0
11
76.747749
21
-13.254834
31
0
39
0
210
0
220
0
230
1
0
LINE
5
AC
100
AcDbEntity
8
1
62
256
6
ByLayer
370
18
48
1
60
0
100
AcDbLine
10
107
20
-2.838149
30
0
11
107
21
16
31
0
39
0
210
0
220
0
230
1
0
LINE
5
AD
100
AcDbEntity
8
1
62
256
6
ByLayer
370
18
48
1
60
0
100
AcDbLine
10
114
20
18.235306
30
0
11
115
21
16.998911
31
0
39
0
210
0
220
0
230
1
0
LINE
5
AE
100
AcDbEntity
8
1
62
256
6
ByLayer
370
18
48
1
60
0
100
AcDbLine
10
115
20
-2.350637
30
0
11
107
21
-2.838149
31
0
39
0
210
0
220
0
230
1
0
LINE
5
AF
100
AcDbEntity
8
1
62
256
6
ByLayer
370
18
48
1
60
0
100
AcDbLine
10
24.444753
20
25.243981
30
0
11
32.235516
21
25.243981
31
0
39
0
210
0
220
0
230
1
0
LINE
5
B0
100
AcDbEntity
8
1
62
256
6
ByLayer
370
18
48
1
60
0
100
AcDbLine
10
35.490145
20
38
30
0
11
105
21
38
31
0
39
0
210
0
220
0
230
1
0
LINE
5
B1
100
AcDbEntity
8
1
62
256
6
ByLayer
370
18
48
1
60
0
100
AcDbLine
10
114
20
29
30
0
11
114
21
18.235306
31
0
39
0
210
0
220
0
230
1
0
LINE
5
B2
100
AcDbEntity
8
1
62
256
6
ByLayer
370
18
48
1
60
0
100
AcDbLine
10
107
20
16
30
0
11
33.362362
21
16
31
0
39
0
210
0
220
0
230
1
0
LINE
5
B3
100
AcDbEntity
8
1
62
256
6
ByLayer
370
18
48
1
60
0
100
AcDbLine
10
32.235516
20
19.491496
30
0
11
24.444753
21
19.491496
31
0
39
0
210
0
220
0
230
1
0
LINE
5
B4
100
AcDbEntity
8
1
62
256
6
ByLayer
370
18
48
1
60
0
100
AcDbLine
10
114
20
18.235306
30
0
11
107
21
16
31
0
39
0
210
0
220
0
230
1
0
LINE
5
B5
100
AcDbEntity
8
1
62
256
6
ByLayer
370
18
48
1
60
0
100
AcDbLine
10
119
20
-1.032983
30
0
11
119
21
12
31
0
39
0
210
0
220
0
230
1
0
LINE
5
B6
100
AcDbEntity
8
1
62
256
6
ByLayer
370
18
48
1
60
0
100
AcDbLine
10
122
20
0
30
0
11
119
21
-1.032983
31
0
39
0
210
0
220
0
230
1
0
LINE
5
B7
100
AcDbEntity
8
1
62
256
6
ByLayer
370
18
48
1
60
0
100
AcDbLine
10
122
20
36
30
0
11
122
21
0
31
0
39
0
210
0
220
0
230
1
0
LINE
5
B8
100
AcDbEntity
8
1
62
256
6
ByLayer
370
18
48
1
60
0
100
AcDbLine
10
120.25
20
37.75
30
0
11
122
21
36
31
0
39
0
210
0
220
0
230
1
0
LINE
5
B9
100
AcDbEntity
8
1
62
256
6
ByLayer
370
18
48
1
60
0
100
AcDbLine
10
119
20
12
30
0
11
119.2
21
12
31
0
39
0
210
0
220
0
230
1
0
LINE
5
BA
100
AcDbEntity
8
1
62
256
6
ByLayer
370
18
48
1
60
0
100
AcDbLine
10
47.908327
20
38
30
0
11
120
21
38
31
0
39
0
210
0
220
0
230
1
0
LINE
5
BB
100
AcDbEntity
8
1
62
256
6
ByLayer
370
18
48
1
60
0
100
AcDbLine
10
120
20
38
30
0
11
120.25
21
37.75
31
0
39
0
210
0
220
0
230
1
0
LINE
5
BC
100
AcDbEntity
8
1
62
256
6
ByLayer
370
18
48
1
60
0
100
AcDbLine
10
29.065252
20
-32
30
0
11
22.974679
21
-32
31
0
39
0
210
0
220
0
230
1
0
LINE
5
BD
100
AcDbEntity
8
1
62
256
6
ByLayer
370
18
48
1
60
0
100
AcDbLine
10
76.747749
20
-13.254834
30
0
11
23.761229
21
-13.254834
31
0
39
0
210
0
220
0
230
1
0
LINE
5
BE
100
AcDbEntity
8
1
62
256
6
ByLayer
370
18
48
1
60
0
100
AcDbLine
10
115
20
28
30
0
11
115
21
-2.350637
31
0
39
0
210
0
220
0
230
1
0
LINE
5
BF
100
AcDbEntity
8
1
62
256
6
ByLayer
370
18
48
1
60
0
100
AcDbLine
10
105
20
38
30
0
11
115
21
28
31
0
39
0
210
0
220
0
230
1
0
LINE
5
C0
100
AcDbEntity
8
SK3
62
256
6
ByLayer
370
18
48
0.05
60
0
100
AcDbLine
10
38
20
13
30
0
11
115
21
13
31
0
39
0
210
0
220
0
230
1
0
LINE
5
C1
100
AcDbEntity
8
1
62
256
6
ByLayer
370
18
48
1
60
0
100
AcDbLine
10
120
20
12.8
30
0
11
120
21
38
31
0
39
0
210
0
220
0
230
1
0
LINE
5
C2
100
AcDbEntity
8
1
62
256
6
ByLayer
370
18
48
1
60
0
100
AcDbLine
10
119
20
12
30
0
11
115
21
12
31
0
39
0
210
0
220
0
230
1
0
LINE
5
C3
100
AcDbEntity
8
4
62
256
6
ByLayer
370
13
48
0.05
60
0
100
AcDbLine
10
122
20
0
30
0
11
0
21
0
31
0
39
0
210
0
220
0
230
1
0
LINE
5
C5
100
AcDbEntity
8
SK4
62
256
6
ByLayer
370
13
48
0.05
60
0
100
AcDbLine
10
-42.353893
20
0
30
0
11
127.38651
21
0
31
0
39
0
210
0
220
0
230
1
0
LINE
5
C7
100
AcDbEntity
8
1
62
256
6
ByLayer
370
18
48
1
60
0
100
AcDbLine
10
115
20
-2.410293
30
0
11
119
21
-1.032983
31
0
39
0
210
0
220
0
230
1
0
MTEXT
5
111
100
AcDbEntity
8
SK6
62
256
6
ByLayer
370
18
48
1
60
0
100
AcDbMText
10
8.736853
20
-44.207607
30
0
210
0
220
0
230
1
1
\W0.7373;C6-ASHR-122-25HP
40
3.5
41
0
44
1.084337
50
0
71
7
72
5
7
iso_b_vert
0
DIMENSION
5
123
100
AcDbEntity
8
SK2
62
256
6
ByLayer
370
13
48
1
60
0
100
AcDbDimension
2
DimnDraft3D1
10
-31.5
20
49.041265
30
0
11
-5.202632
21
49.041265
31
0
70
32
71
5
72
1
41
1
210
0
220
0
230
1
3
Standard
100
AcDbAlignedDimension
13
31.5
23
1.7
33
0
14
-31.5
24
1.7
34
0
50
0
100
AcDbRotatedDimension
1001
ACAD
1000
DSTYLE
1002
{
1070
   279
1070
     0
1070
   172
1070
     1
1070
   173
1070
     1
1070
   340
1005
112
1070
   271
1070
     1
1070
    77
1070
     1
1070
    73
1070
     0
1070
   171
1070
     3
1070
   274
1070
     4
1070
   177
1070
     7
1070
   176
1070
     7
1070
   178
1070
     7
1070
    78
1070
     8
1070
    41
1041
3.175
1070
   147
1041
1.5
1070
    42
1041
2.0
1070
    44
1041
2.0
1070
   140
1041
3.0
1070
   343
1005
124
1070
   344
1005
124
1002
}
0
DIMENSION
5
138
100
AcDbEntity
8
SK2
62
256
6
ByLayer
370
13
48
1
60
0
100
AcDbDimension
2
DimnDraft3D2
10
0
20
-142.022356
30
0
11
5.122368
21
-142.022356
31
0
70
32
71
5
72
1
41
1
210
0
220
0
230
1
3
Standard
100
AcDbAlignedDimension
13
13
23
-117
33
0
14
0
24
-129.38651
34
0
50
0
100
AcDbRotatedDimension
1001
ACAD
1000
DSTYLE
1002
{
1070
   279
1070
     0
1070
   172
1070
     1
1070
   173
1070
     1
1070
   340
1005
112
1070
   271
1070
     1
1070
    77
1070
     1
1070
    73
1070
     0
1070
   171
1070
     3
1070
   274
1070
     4
1070
   177
1070
     7
1070
   176
1070
     7
1070
   178
1070
     7
1070
    78
1070
     8
1070
    41
1041
3.175
1070
   147
1041
1.5
1070
    42
1041
2.0
1070
    44
1041
2.0
1070
   140
1041
3.0
1070
   343
1005
124
1070
   344
1005
124
1002
}
0
DIMENSION
5
146
100
AcDbEntity
8
SK2
62
256
6
ByLayer
370
13
48
1
60
0
100
AcDbDimension
2
DimnDraft3D3
10
0
20
-154.501409
30
0
11
17.247368
21
-154.501409
31
0
70
32
71
5
72
1
41
1
210
0
220
0
230
1
3
Standard
100
AcDbAlignedDimension
13
38
23
-122
33
0
14
0
24
-129.38651
34
0
50
0
100
AcDbRotatedDimension
1001
ACAD
1000
DSTYLE
1002
{
1070
   279
1070
     0
1070
   172
1070
     1
1070
   173
1070
     1
1070
   340
1005
112
1070
   271
1070
     1
1070
    77
1070
     1
1070
    73
1070
     0
1070
   171
1070
     3
1070
   274
1070
     4
1070
   177
1070
     7
1070
   176
1070
     7
1070
   178
1070
     7
1070
    78
1070
     8
1070
    41
1041
3.175
1070
   147
1041
1.5
1070
    42
1041
2.0
1070
    44
1041
2.0
1070
   140
1041
3.0
1070
   343
1005
124
1070
   344
1005
124
1002
}
0
DIMENSION
5
154
100
AcDbEntity
8
SK2
62
256
6
ByLayer
370
13
48
1
60
0
100
AcDbDimension
2
DimnDraft3D4
10
22
20
47.32827
30
0
11
9.207895
21
47.32827
31
0
70
32
71
5
72
1
41
1
210
0
220
0
230
1
3
Standard
100
AcDbAlignedDimension
13
0
23
33.2
33
0
14
22
24
33.5
34
0
50
0
100
AcDbRotatedDimension
1001
ACAD
1000
DSTYLE
1002
{
1070
   279
1070
     0
1070
   172
1070
     1
1070
   173
1070
     1
1070
   340
1005
112
1070
   271
1070
     1
1070
    77
1070
     1
1070
    73
1070
     0
1070
   171
1070
     3
1070
   274
1070
     4
1070
   177
1070
     7
1070
   176
1070
     7
1070
   178
1070
     7
1070
    78
1070
     8
1070
    41
1041
3.175
1070
   147
1041
1.5
1070
    42
1041
2.0
1070
    44
1041
2.0
1070
   140
1041
3.0
1070
   343
1005
0
1070
   344
1005
0
1002
}
0
DIMENSION
5
162
100
AcDbEntity
8
SK2
62
256
6
ByLayer
370
13
48
1
60
0
100
AcDbDimension
2
DimnDraft3D5
10
33
20
56.936001
30
0
11
14.707895
21
56.936001
31
0
70
32
71
5
72
1
41
1
210
0
220
0
230
1
3
Standard
100
AcDbAlignedDimension
13
0
23
33.2
33
0
14
33
24
36.670996
34
0
50
0
100
AcDbRotatedDimension
1001
ACAD
1000
DSTYLE
1002
{
1070
   279
1070
     0
1070
   172
1070
     1
1070
   173
1070
     1
1070
   340
1005
112
1070
   271
1070
     1
1070
    77
1070
     1
1070
    73
1070
     0
1070
   171
1070
     3
1070
   274
1070
     4
1070
   177
1070
     7
1070
   176
1070
     7
1070
   178
1070
     7
1070
    78
1070
     8
1070
    41
1041
3.175
1070
   147
1041
1.5
1070
    42
1041
2.0
1070
    44
1041
2.0
1070
   140
1041
3.0
1070
   343
1005
0
1070
   344
1005
0
1002
}
0
DIMENSION
5
170
100
AcDbEntity
8
SK2
62
256
6
ByLayer
370
13
48
1
60
0
100
AcDbDimension
2
DimnDraft3D6
10
37.5
20
67.546581
30
0
11
15.228947
21
67.546581
31
0
70
32
71
5
72
1
41
1
210
0
220
0
230
1
3
Standard
100
AcDbAlignedDimension
13
0
23
33.2
33
0
14
37.5
24
40
34
0
50
0
100
AcDbRotatedDimension
1001
ACAD
1000
DSTYLE
1002
{
1070
   279
1070
     0
1070
   172
1070
     1
1070
   173
1070
     1
1070
   340
1005
112
1070
   271
1070
     1
1070
    77
1070
     1
1070
    73
1070
     0
1070
   171
1070
     3
1070
   274
1070
     4
1070
   177
1070
     7
1070
   176
1070
     7
1070
   178
1070
     7
1070
    78
1070
     8
1070
    41
1041
3.175
1070
   147
1041
1.5
1070
    42
1041
2.0
1070
    44
1041
2.0
1070
   140
1041
3.0
1070
   343
1005
0
1070
   344
1005
0
1002
}
0
DIMENSION
5
17E
100
AcDbEntity
8
SK2
62
256
6
ByLayer
370
13
48
1
60
0
100
AcDbDimension
2
DimnDraft3D7
10
115
20
78.613712
30
0
11
55.336842
21
78.613712
31
0
70
32
71
5
72
1
41
1
210
0
220
0
230
1
3
Standard
100
AcDbAlignedDimension
13
0
23
33.2
33
0
14
115
24
30
34
0
50
0
100
AcDbRotatedDimension
1001
ACAD
1000
DSTYLE
1002
{
1070
   279
1070
     0
1070
   172
1070
     1
1070
   173
1070
     1
1070
   340
1005
112
1070
   271
1070
     1
1070
    77
1070
     1
1070
    73
1070
     0
1070
   171
1070
     3
1070
   274
1070
     4
1070
   177
1070
     7
1070
   176
1070
     7
1070
   178
1070
     7
1070
    78
1070
     8
1070
    41
1041
3.175
1070
   147
1041
1.5
1070
    42
1041
2.0
1070
    44
1041
2.0
1070
   140
1041
3.0
1070
   343
1005
0
1070
   344
1005
0
1002
}
0
DIMENSION
5
18D
100
AcDbEntity
8
2
62
256
6
ByLayer
370
13
48
1
60
0
100
AcDbDimension
2
DimnDraft3D8
10
122
20
88.875213
30
0
11
58.461842
21
88.875213
31
0
70
32
71
5
72
1
41
1
210
0
220
0
230
1
3
Standard
100
AcDbAlignedDimension
13
0
23
33.2
33
0
14
122
24
38
34
0
50
0
100
AcDbRotatedDimension
1001
ACAD
1000
DSTYLE
1002
{
1070
   279
1070
     0
1070
   172
1070
     1
1070
   173
1070
     1
1070
   340
1005
112
1070
   271
1070
     1
1070
    77
1070
     1
1070
    73
1070
     0
1070
   171
1070
     3
1070
   274
1070
     4
1070
   177
1070
     7
1070
   176
1070
     7
1070
   178
1070
     7
1070
    78
1070
     8
1070
    41
1041
3.175
1070
   147
1041
1.5
1070
    42
1041
2.0
1070
    44
1041
2.0
1070
   140
1041
3.0
1070
   343
1005
0
1070
   344
1005
0
1002
}
0
ENDSEC
0
SECTION
2
OBJECTS
0
DICTIONARY
5
1f9
330
0
100
AcDbDictionary
280
0
281
1
3
ACAD_GROUP
350
1fa
3
ACAD_MLINESTYLE
350
1fb
0
DICTIONARY
5
1fa
330
0
100
AcDbDictionary
280
0
281
1
0
DICTIONARY
5
1fb
330
0
100
AcDbDictionary
280
0
281
1
3
Standard
350
18
0
MLINESTYLE
5
18
330
1fb
100
AcDbMlineStyle
2
Standard
70
0
3

62
256
51
90
52
90
71
2
49
-0.5
62
256
6
ByLayer
49
0.5
62
256
6
ByLayer
0
RASTERVARIABLES
5
1e6
330

100
AcDbRasterVariables
90
0
70
1
71
1
72
1
0
ENDSEC
0
EOF
