0
SECTION
2
HEADER
9
$ACADVER
1
AC1015
9
$DWGCODEPAGE
3
ANSI_1252
9
$HANDSEED
5
1e4
9
$ANGBASE
50
0
9
$ANGDIR
70
0
9
$ATTMODE
70
1
9
$AUNITS
70
0
9
$AUPREC
70
0
9
$CECOLOR
62
256
9
$CELTSCALE
40
1
9
$CELTYPE
6
ByLayer
9
$CELWEIGHT
370
18
9
$CLAYER
8
0
9
$CMLJUST
70
0
9
$CMLSCALE
40
1
9
$CMLSTYLE
2
Standard
9
$DIMSTYLE
2
Standard
9
$TEXTSIZE
40
0.2
9
$TEXTSTYLE
7
Standard
9
$LUNITS
70
2
9
$LUPREC
70
4
9
$EXTNAMES
290
1
9
$INSUNITS
70
4
9
$LTSCALE
40
1
9
$LWDISPLAY
290
1
9
$PDMODE
70
0
9
$PDSIZE
40
0
9
$PLINEGEN
70
0
0
ENDSEC
0
SECTION
2
CLASSES
0
CLASS
1
RASTERVARIABLES
2
AcDbRasterVariables
3
ISM
90
0
280
0
281
0
0
ENDSEC
0
SECTION
2
TABLES
0
TABLE
2
VPORT
5
1da
100
AcDbSymbolTable
0
VPORT
5
1
100
AcDbSymbolTableRecord
100
AcDbViewportTableRecord
2
*Active
70
0
10
0
20
0
11
1
21
1
12
-1
22
1
13
0
23
0
14
0.5
24
0.5
15
10
25
10
16
0
26
0
36
1
17
0
27
0
37
0
0
ENDTAB
0
TABLE
2
LTYPE
5
1db
100
AcDbSymbolTable
0
LTYPE
5
14
100
AcDbSymbolTableRecord
100
AcDbLinetypeTableRecord
70
0
2
ByBlock
3

72
65
73
0
40
0
0
LTYPE
5
15
100
AcDbSymbolTableRecord
100
AcDbLinetypeTableRecord
70
0
2
ByLayer
3

72
65
73
0
40
0
0
LTYPE
5
16
100
AcDbSymbolTableRecord
100
AcDbLinetypeTableRecord
70
0
2
CONTINUOUS
3
Solid line
72
65
73
0
40
0
0
LTYPE
5
6A
100
AcDbSymbolTableRecord
100
AcDbLinetypeTableRecord
70
0
2
CENTER
3
____ _ ____ _ ____ _ ____
72
65
73
4
40
47.5
49
22
74
0
49
-8.5
74
0
49
8.5
74
0
49
-8.5
74
0
0
LTYPE
5
6B
100
AcDbSymbolTableRecord
100
AcDbLinetypeTableRecord
70
0
2
DASHED
3
__ __ __ __ __ __ __ __ __
72
65
73
2
40
25.72
49
12.86
74
0
49
-12.86
74
0
0
ENDTAB
0
TABLE
2
LAYER
5
1dc
100
AcDbSymbolTable
0
LAYER
5
10
100
AcDbSymbolTableRecord
100
AcDbLayerTableRecord
2
0
70
0
62
7
6
CONTINUOUS
290
1
370
-3
390
0
0
LAYER
5
6D
100
AcDbSymbolTableRecord
100
AcDbLayerTableRecord
2
81
70
0
62
-3
6
CONTINUOUS
290
1
370
-3
390
0
0
LAYER
5
6F
100
AcDbSymbolTableRecord
100
AcDbLayerTableRecord
2
80
70
0
62
-6
6
CONTINUOUS
290
1
370
-3
390
0
0
LAYER
5
71
100
AcDbSymbolTableRecord
100
AcDbLayerTableRecord
2
1
70
0
62
4
6
CONTINUOUS
290
1
370
-3
390
0
0
LAYER
5
D8
100
AcDbSymbolTableRecord
100
AcDbLayerTableRecord
2
4
70
0
62
-2
6
CENTER
290
1
370
-3
390
0
0
LAYER
5
143
100
AcDbSymbolTableRecord
100
AcDbLayerTableRecord
2
2
70
0
62
7
6
CONTINUOUS
290
1
370
-3
390
0
0
LAYER
5
1c5
100
AcDbSymbolTableRecord
100
AcDbLayerTableRecord
2
SK1
70
0
62
4
6
CONTINUOUS
290
1
370
-3
390
0
0
LAYER
5
1c6
100
AcDbSymbolTableRecord
100
AcDbLayerTableRecord
2
SK3
70
0
62
1
6
DASHED
290
1
370
-3
390
0
0
LAYER
5
1c7
100
AcDbSymbolTableRecord
100
AcDbLayerTableRecord
2
SK4
70
0
62
2
6
CENTER
290
1
370
-3
390
0
0
LAYER
5
1c8
100
AcDbSymbolTableRecord
100
AcDbLayerTableRecord
2
SK6
70
0
62
5
6
CONTINUOUS
290
1
370
-3
390
0
0
LAYER
5
1c9
100
AcDbSymbolTableRecord
100
AcDbLayerTableRecord
2
SK2
70
0
62
7
6
CONTINUOUS
290
1
370
-3
390
0
0
ENDTAB
0
TABLE
2
STYLE
5
1dd
100
AcDbSymbolTable
0
STYLE
5
11
100
AcDbSymbolTableRecord
100
AcDbTextStyleTableRecord
2
Standard
3
txt
70
0
71
0
40
0
41
1
42
0
50
0
0
STYLE
5
11A
100
AcDbSymbolTableRecord
100
AcDbTextStyleTableRecord
2
iso_b_vert
3
simplex.shx
70
0
71
0
40
0
41
1
42
0
50
0
0
STYLE
5
11B
100
AcDbSymbolTableRecord
100
AcDbTextStyleTableRecord
2
DWGDirectTextStyle
3
simplex
70
0
71
0
40
0
41
1
42
0
50
0
0
ENDTAB
0
TABLE
2
DIMSTYLE
5
1de
100
AcDbSymbolTable
100
AcDbDimStyleTable
0
DIMSTYLE
105
27
100
AcDbSymbolTableRecord
100
AcDbDimStyleTableRecord
2
Standard
70
0
3
<>
41
0.18
42
0.0625
44
0.18
140
0.18
147
0.09
73
0
74
0
77
1
271
2
275
0
278
52
280
0
340
11
0
ENDTAB
0
TABLE
2
VIEW
5
1df
100
AcDbSymbolTable
0
ENDTAB
0
TABLE
2
UCS
5
1e0
100
AcDbSymbolTable
0
ENDTAB
0
TABLE
2
APPID
5
1e1
100
AcDbSymbolTable
0
APPID
5
12
100
AcDbSymbolTableRecord
100
AcDbRegAppTableRecord
2
ACAD
70
0
0
ENDTAB
0
TABLE
2
BLOCK_RECORD
5
1e2
100
AcDbSymbolTable
0
BLOCK_RECORD
5
1F
100
AcDbSymbolTableRecord
100
AcDbBlockTableRecord
2
*Model_Space
340
0
70
0
0
BLOCK_RECORD
5
1B
100
AcDbSymbolTableRecord
100
AcDbBlockTableRecord
2
*Paper_Space
340
0
70
0
0
BLOCK_RECORD
5
23
100
AcDbSymbolTableRecord
100
AcDbBlockTableRecord
2
*Paper_Space0
340
0
70
0
0
BLOCK_RECORD
5
11D
100
AcDbSymbolTableRecord
100
AcDbBlockTableRecord
2
DimnDraft3D1
340
0
70
0
0
BLOCK_RECORD
5
12C
100
AcDbSymbolTableRecord
100
AcDbBlockTableRecord
2
_CLOSED
340
0
70
0
0
BLOCK_RECORD
5
133
100
AcDbSymbolTableRecord
100
AcDbBlockTableRecord
2
DimnDraft3D2
340
0
70
0
0
BLOCK_RECORD
5
141
100
AcDbSymbolTableRecord
100
AcDbBlockTableRecord
2
DimnDraft3D3
340
0
70
0
0
BLOCK_RECORD
5
150
100
AcDbSymbolTableRecord
100
AcDbBlockTableRecord
2
DimnDraft3D4
340
0
70
0
0
BLOCK_RECORD
5
15E
100
AcDbSymbolTableRecord
100
AcDbBlockTableRecord
2
DimnDraft3D5
340
0
70
0
0
ENDTAB
0
ENDSEC
0
SECTION
2
BLOCKS
0
BLOCK
5
20
100
AcDbEntity
8
0
100
AcDbBlockBegin
2
*Model_Space
70
0
10
0
20
0
30
0
3
*Model_Space
0
ENDBLK
5
21
100
AcDbEntity
8
0
100
AcDbBlockEnd
0
BLOCK
5
1C
100
AcDbEntity
8
0
100
AcDbBlockBegin
2
*Paper_Space
70
0
10
0
20
0
30
0
3
*Paper_Space
0
ENDBLK
5
1D
100
AcDbEntity
8
0
100
AcDbBlockEnd
0
BLOCK
5
24
100
AcDbEntity
8
0
100
AcDbBlockBegin
2
*Paper_Space0
70
0
10
0
20
0
30
0
3
*Paper_Space0
0
ENDBLK
5
25
100
AcDbEntity
8
0
100
AcDbBlockEnd
0
BLOCK
5
129
100
AcDbEntity
8
0
100
AcDbBlockBegin
2
DimnDraft3D1
70
0
10
0
20
0
30
0
3
DimnDraft3D1
0
MTEXT
5
11E
100
AcDbEntity
8
SK2
62
256
6
ByLayer
370
18
48
1
60
0
100
AcDbMText
10
-52.763026
20
-4.452632
30
0
210
0
220
0
230
1
1
\W1.2949;%%c63
40
3
41
0
44
1.084337
50
90
71
7
72
5
7
iso_b_vert
0
LINE
5
120
100
AcDbEntity
8
SK2
62
256
6
ByLayer
370
13
48
1
60
0
100
AcDbLine
10
-1.7
20
-31.5
30
0
11
-53.263026
21
-31.5
31
0
39
0
210
0
220
0
230
1
0
LINE
5
121
100
AcDbEntity
8
SK2
62
256
6
ByLayer
370
13
48
1
60
0
100
AcDbLine
10
-1.7
20
31.5
30
0
11
-53.263026
21
31.5
31
0
39
0
210
0
220
0
230
1
0
LINE
5
122
100
AcDbEntity
8
SK2
62
256
6
ByLayer
370
13
48
1
60
0
100
AcDbLine
10
-51.263026
20
-31.5
30
0
11
-51.263026
21
31.5
31
0
39
0
210
0
220
0
230
1
0
LINE
5
123
100
AcDbEntity
8
SK2
62
256
6
ByLayer
370
13
48
1
60
0
100
AcDbLine
10
-51.263026
20
-31.5
30
0
11
-51.681022
21
-28.325002
31
0
39
0
210
0
220
0
230
1
0
LINE
5
124
100
AcDbEntity
8
SK2
62
256
6
ByLayer
370
13
48
1
60
0
100
AcDbLine
10
-51.263026
20
-31.5
30
0
11
-50.845029
21
-28.324998
31
0
39
0
210
0
220
0
230
1
0
LINE
5
125
100
AcDbEntity
8
SK2
62
256
6
ByLayer
370
13
48
1
60
0
100
AcDbLine
10
-51.681022
20
-28.325002
30
0
11
-50.845029
21
-28.324998
31
0
39
0
210
0
220
0
230
1
0
LINE
5
126
100
AcDbEntity
8
SK2
62
256
6
ByLayer
370
13
48
1
60
0
100
AcDbLine
10
-51.263026
20
31.5
30
0
11
-50.845029
21
28.325002
31
0
39
0
210
0
220
0
230
1
0
LINE
5
127
100
AcDbEntity
8
SK2
62
256
6
ByLayer
370
13
48
1
60
0
100
AcDbLine
10
-51.263026
20
31.5
30
0
11
-51.681022
21
28.324998
31
0
39
0
210
0
220
0
230
1
0
LINE
5
128
100
AcDbEntity
8
SK2
62
256
6
ByLayer
370
13
48
1
60
0
100
AcDbLine
10
-50.845029
20
28.325002
30
0
11
-51.681022
21
28.324998
31
0
39
0
210
0
220
0
230
1
0
ENDBLK
5
12A
100
AcDbEntity
8
0
100
AcDbBlockEnd
0
BLOCK
5
12D
100
AcDbEntity
8
0
100
AcDbBlockBegin
2
_CLOSED
70
0
10
0
20
0
30
0
3
_CLOSED
0
LINE
5
12F
100
AcDbEntity
8
0
62
256
6
ByLayer
370
-2
48
1
60
0
100
AcDbLine
10
-1
20
0.166667
30
0
11
0
21
0
31
0
39
0
210
0
220
0
230
1
0
LINE
5
130
100
AcDbEntity
8
0
62
256
6
ByLayer
370
-2
48
1
60
0
100
AcDbLine
10
0
20
0
30
0
11
-1
21
-0.166667
31
0
39
0
210
0
220
0
230
1
0
LINE
5
131
100
AcDbEntity
8
0
62
256
6
ByLayer
370
-2
48
1
60
0
100
AcDbLine
10
-1
20
0.166667
30
0
11
-1
21
-0.166667
31
0
39
0
210
0
220
0
230
1
0
LINE
5
132
100
AcDbEntity
8
0
62
256
6
ByLayer
370
-2
48
1
60
0
100
AcDbLine
10
0
20
0
30
0
11
-1
21
0
31
0
39
0
210
0
220
0
230
1
0
ENDBLK
5
12E
100
AcDbEntity
8
0
100
AcDbBlockEnd
0
BLOCK
5
13E
100
AcDbEntity
8
0
100
AcDbBlockBegin
2
DimnDraft3D2
70
0
10
0
20
0
30
0
3
DimnDraft3D2
0
MTEXT
5
134
100
AcDbEntity
8
SK2
62
256
6
ByLayer
370
18
48
1
60
0
100
AcDbMText
10
128.369674
20
-8.240092
30
0
210
0
220
0
230
1
1
\W0.8896;45%%d
40
3
41
0
44
1.084337
50
67.5
71
7
72
5
7
iso_b_vert
0
LINE
5
135
100
AcDbEntity
8
SK2
62
256
6
ByLayer
370
13
48
1
60
0
100
AcDbLine
10
114
20
0
30
0
11
127.561738
21
-13.561738
31
0
39
0
210
0
220
0
230
1
0
LINE
5
136
100
AcDbEntity
8
SK2
62
256
6
ByLayer
370
13
48
1
60
0
100
AcDbLine
10
118.461559
20
0
30
0
11
133.179194
21
0
31
0
39
0
210
0
220
0
230
1
0
ARC
5
137
100
AcDbEntity
8
SK2
62
256
6
ByLayer
370
13
48
1
60
0
100
AcDbCircle
39
0
10
114
20
0
30
0
40
17.1791945083932
210
0
220
0
230
1
100
AcDbArc
50
291.415141
51
23.584859
0
LINE
5
138
100
AcDbEntity
8
SK2
62
256
6
ByLayer
370
13
48
1
60
0
100
AcDbLine
10
126.147525
20
-12.147525
30
0
11
124.083085
21
-14.595672
31
0
39
0
210
0
220
0
230
1
0
LINE
5
139
100
AcDbEntity
8
SK2
62
256
6
ByLayer
370
13
48
1
60
0
100
AcDbLine
10
126.147525
20
-12.147525
30
0
11
123.5198
21
-13.977939
31
0
39
0
210
0
220
0
230
1
0
LINE
5
13A
100
AcDbEntity
8
SK2
62
256
6
ByLayer
370
13
48
1
60
0
100
AcDbLine
10
124.083085
20
-14.595672
30
0
11
123.5198
21
-13.977939
31
0
39
0
210
0
220
0
230
1
0
LINE
5
13B
100
AcDbEntity
8
SK2
62
256
6
ByLayer
370
13
48
1
60
0
100
AcDbLine
10
131.179195
20
0
30
0
11
130.61541
21
3.152378
31
0
39
0
210
0
220
0
230
1
0
LINE
5
13C
100
AcDbEntity
8
SK2
62
256
6
ByLayer
370
13
48
1
60
0
100
AcDbLine
10
131.179195
20
0
30
0
11
131.450517
21
3.190884
31
0
39
0
210
0
220
0
230
1
0
LINE
5
13D
100
AcDbEntity
8
SK2
62
256
6
ByLayer
370
13
48
1
60
0
100
AcDbLine
10
130.61541
20
3.152378
30
0
11
131.450517
21
3.190884
31
0
39
0
210
0
220
0
230
1
0
ENDBLK
5
13F
100
AcDbEntity
8
0
100
AcDbBlockEnd
0
BLOCK
5
14D
100
AcDbEntity
8
0
100
AcDbBlockBegin
2
DimnDraft3D3
70
0
10
0
20
0
30
0
3
DimnDraft3D3
0
MTEXT
5
142
100
AcDbEntity
8
2
62
256
6
ByLayer
370
18
48
1
60
0
100
AcDbMText
10
55.428947
20
-48.111086
30
0
210
0
220
0
230
1
1
\W0.5601;114
40
3
41
0
44
1.084337
50
0
71
7
72
5
7
iso_b_vert
0
LINE
5
144
100
AcDbEntity
8
2
62
256
6
ByLayer
370
13
48
1
60
0
100
AcDbLine
10
0
20
-33.2
30
0
11
0
21
-50.861086
31
0
39
0
210
0
220
0
230
1
0
LINE
5
145
100
AcDbEntity
8
2
62
256
6
ByLayer
370
13
48
1
60
0
100
AcDbLine
10
114
20
-2
30
0
11
114
21
-50.861086
31
0
39
0
210
0
220
0
230
1
0
LINE
5
146
100
AcDbEntity
8
2
62
256
6
ByLayer
370
13
48
1
60
0
100
AcDbLine
10
0
20
-48.861086
30
0
11
114
21
-48.861086
31
0
39
0
210
0
220
0
230
1
0
LINE
5
147
100
AcDbEntity
8
2
62
256
6
ByLayer
370
13
48
1
60
0
100
AcDbLine
10
0
20
-48.861086
30
0
11
3.174998
21
-48.443089
31
0
39
0
210
0
220
0
230
1
0
LINE
5
148
100
AcDbEntity
8
2
62
256
6
ByLayer
370
13
48
1
60
0
100
AcDbLine
10
0
20
-48.861086
30
0
11
3.175002
21
-49.279083
31
0
39
0
210
0
220
0
230
1
0
LINE
5
149
100
AcDbEntity
8
2
62
256
6
ByLayer
370
13
48
1
60
0
100
AcDbLine
10
3.174998
20
-48.443089
30
0
11
3.175002
21
-49.279083
31
0
39
0
210
0
220
0
230
1
0
LINE
5
14A
100
AcDbEntity
8
2
62
256
6
ByLayer
370
13
48
1
60
0
100
AcDbLine
10
114
20
-48.861086
30
0
11
110.825002
21
-49.279083
31
0
39
0
210
0
220
0
230
1
0
LINE
5
14B
100
AcDbEntity
8
2
62
256
6
ByLayer
370
13
48
1
60
0
100
AcDbLine
10
114
20
-48.861086
30
0
11
110.824998
21
-48.443089
31
0
39
0
210
0
220
0
230
1
0
LINE
5
14C
100
AcDbEntity
8
2
62
256
6
ByLayer
370
13
48
1
60
0
100
AcDbLine
10
110.825002
20
-49.279083
30
0
11
110.824998
21
-48.443089
31
0
39
0
210
0
220
0
230
1
0
ENDBLK
5
14E
100
AcDbEntity
8
0
100
AcDbBlockEnd
0
BLOCK
5
15B
100
AcDbEntity
8
0
100
AcDbBlockBegin
2
DimnDraft3D4
70
0
10
0
20
0
30
0
3
DimnDraft3D4
0
MTEXT
5
151
100
AcDbEntity
8
SK2
62
256
6
ByLayer
370
18
48
1
60
0
100
AcDbMText
10
138.869226
20
-19.042105
30
0
210
0
220
0
230
1
1
\W0.6740;36
40
3
41
0
44
1.084337
50
90
71
7
72
5
7
iso_b_vert
0
LINE
5
152
100
AcDbEntity
8
SK2
62
256
6
ByLayer
370
13
48
1
60
0
100
AcDbLine
10
70.100505
20
-36
30
0
11
141.619226
21
-36
31
0
39
0
210
0
220
0
230
1
0
LINE
5
153
100
AcDbEntity
8
SK2
62
256
6
ByLayer
370
13
48
1
60
0
100
AcDbLine
10
118.461559
20
0
30
0
11
141.619226
21
0
31
0
39
0
210
0
220
0
230
1
0
LINE
5
154
100
AcDbEntity
8
SK2
62
256
6
ByLayer
370
13
48
1
60
0
100
AcDbLine
10
139.619226
20
-36
30
0
11
139.619226
21
0
31
0
39
0
210
0
220
0
230
1
0
LINE
5
155
100
AcDbEntity
8
SK2
62
256
6
ByLayer
370
13
48
1
60
0
100
AcDbLine
10
139.619226
20
-36
30
0
11
139.201229
21
-32.825002
31
0
39
0
210
0
220
0
230
1
0
LINE
5
156
100
AcDbEntity
8
SK2
62
256
6
ByLayer
370
13
48
1
60
0
100
AcDbLine
10
139.619226
20
-36
30
0
11
140.037222
21
-32.824998
31
0
39
0
210
0
220
0
230
1
0
LINE
5
157
100
AcDbEntity
8
SK2
62
256
6
ByLayer
370
13
48
1
60
0
100
AcDbLine
10
139.201229
20
-32.825002
30
0
11
140.037222
21
-32.824998
31
0
39
0
210
0
220
0
230
1
0
LINE
5
158
100
AcDbEntity
8
SK2
62
256
6
ByLayer
370
13
48
1
60
0
100
AcDbLine
10
139.619226
20
0
30
0
11
140.037222
21
-3.174998
31
0
39
0
210
0
220
0
230
1
0
LINE
5
159
100
AcDbEntity
8
SK2
62
256
6
ByLayer
370
13
48
1
60
0
100
AcDbLine
10
139.619226
20
0
30
0
11
139.201229
21
-3.175002
31
0
39
0
210
0
220
0
230
1
0
LINE
5
15A
100
AcDbEntity
8
SK2
62
256
6
ByLayer
370
13
48
1
60
0
100
AcDbLine
10
140.037222
20
-3.174998
30
0
11
139.201229
21
-3.175002
31
0
39
0
210
0
220
0
230
1
0
ENDBLK
5
15C
100
AcDbEntity
8
0
100
AcDbBlockEnd
0
BLOCK
5
169
100
AcDbEntity
8
0
100
AcDbBlockBegin
2
DimnDraft3D5
70
0
10
0
20
0
30
0
3
DimnDraft3D5
0
MTEXT
5
15F
100
AcDbEntity
8
SK2
62
256
6
ByLayer
370
18
48
1
60
0
100
AcDbMText
10
138.869226
20
16.957895
30
0
210
0
220
0
230
1
1
\W0.6740;36
40
3
41
0
44
1.084337
50
90
71
7
72
5
7
iso_b_vert
0
LINE
5
160
100
AcDbEntity
8
SK2
62
256
6
ByLayer
370
13
48
1
60
0
100
AcDbLine
10
118.461559
20
0
30
0
11
141.619226
21
0
31
0
39
0
210
0
220
0
230
1
0
LINE
5
161
100
AcDbEntity
8
SK2
62
256
6
ByLayer
370
13
48
1
60
0
100
AcDbLine
10
79.292893
20
36
30
0
11
141.619226
21
36
31
0
39
0
210
0
220
0
230
1
0
LINE
5
162
100
AcDbEntity
8
SK2
62
256
6
ByLayer
370
13
48
1
60
0
100
AcDbLine
10
139.619226
20
0
30
0
11
139.619226
21
36
31
0
39
0
210
0
220
0
230
1
0
LINE
5
163
100
AcDbEntity
8
SK2
62
256
6
ByLayer
370
13
48
1
60
0
100
AcDbLine
10
139.619226
20
0
30
0
11
139.201229
21
3.174998
31
0
39
0
210
0
220
0
230
1
0
LINE
5
164
100
AcDbEntity
8
SK2
62
256
6
ByLayer
370
13
48
1
60
0
100
AcDbLine
10
139.619226
20
0
30
0
11
140.037222
21
3.175002
31
0
39
0
210
0
220
0
230
1
0
LINE
5
165
100
AcDbEntity
8
SK2
62
256
6
ByLayer
370
13
48
1
60
0
100
AcDbLine
10
139.201229
20
3.174998
30
0
11
140.037222
21
3.175002
31
0
39
0
210
0
220
0
230
1
0
LINE
5
166
100
AcDbEntity
8
SK2
62
256
6
ByLayer
370
13
48
1
60
0
100
AcDbLine
10
139.619226
20
36
30
0
11
140.037222
21
32.825002
31
0
39
0
210
0
220
0
230
1
0
LINE
5
167
100
AcDbEntity
8
SK2
62
256
6
ByLayer
370
13
48
1
60
0
100
AcDbLine
10
139.619226
20
36
30
0
11
139.201229
21
32.824998
31
0
39
0
210
0
220
0
230
1
0
LINE
5
168
100
AcDbEntity
8
SK2
62
256
6
ByLayer
370
13
48
1
60
0
100
AcDbLine
10
140.037222
20
32.825002
30
0
11
139.201229
21
32.824998
31
0
39
0
210
0
220
0
230
1
0
ENDBLK
5
16A
100
AcDbEntity
8
0
100
AcDbBlockEnd
0
ENDSEC
0
SECTION
2
ENTITIES
0
ARC
5
DB
100
AcDbEntity
8
1
62
256
6
ByLayer
370
18
48
1
60
0
100
AcDbCircle
39
0
10
-32.235516
20
36.2
30
0
40
1.2
210
0
220
0
230
-1
100
AcDbArc
50
205
51
270
0
ARC
5
DC
100
AcDbEntity
8
1
62
256
6
ByLayer
370
18
48
1
60
0
100
AcDbCircle
39
0
10
24.444753
20
34.6
30
0
40
0.4
210
0
220
0
230
1
100
AcDbArc
50
90
51
165
0
ARC
5
DD
100
AcDbEntity
8
1
62
256
6
ByLayer
370
18
48
1
60
0
100
AcDbCircle
39
0
10
-22.279208
20
32.7
30
0
40
1.2
210
0
220
0
230
-1
100
AcDbArc
50
195
51
270
0
ARC
5
DE
100
AcDbEntity
8
1
62
256
6
ByLayer
370
18
48
1
60
0
100
AcDbCircle
39
0
10
-22.279208
20
-32.7
30
0
40
1.2
210
0
220
0
230
-1
100
AcDbArc
50
90
51
165
0
ARC
5
DF
100
AcDbEntity
8
1
62
256
6
ByLayer
370
18
48
1
60
0
100
AcDbCircle
39
0
10
24.444753
20
-34.6
30
0
40
0.4
210
0
220
0
230
1
100
AcDbArc
50
195
51
270
0
ARC
5
E0
100
AcDbEntity
8
1
62
256
6
ByLayer
370
18
48
1
60
0
100
AcDbCircle
39
0
10
-32.235516
20
-36.2
30
0
40
1.2
210
0
220
0
230
-1
100
AcDbArc
50
90
51
155
0
ARC
5
E7
100
AcDbEntity
8
1
62
256
6
ByLayer
370
18
48
1
60
0
100
AcDbCircle
39
0
10
88.544156
20
-32.526912
30
0
40
12.0000000000006
210
0
220
0
230
1
100
AcDbArc
50
69.624318
51
109.158067
0
CIRCLE
5
E1
100
AcDbEntity
8
1
62
256
6
ByLayer
370
18
48
1
60
0
100
AcDbCircle
10
92.07969
20
3.535534
30
0
40
6.25
39
0
210
0
220
0
230
1
0
CIRCLE
5
E2
100
AcDbEntity
8
1
62
256
6
ByLayer
370
18
48
1
60
0
100
AcDbCircle
10
80.058875
20
15.556349
30
0
40
6.25
39
0
210
0
220
0
230
1
0
CIRCLE
5
E3
100
AcDbEntity
8
1
62
256
6
ByLayer
370
18
48
1
60
0
100
AcDbCircle
10
68.038059
20
27.577164
30
0
40
6.25
39
0
210
0
220
0
230
1
0
CIRCLE
5
E4
100
AcDbEntity
8
1
62
256
6
ByLayer
370
18
48
1
60
0
100
AcDbCircle
10
-68.038059
20
27.577164
30
0
40
5.15
39
0
210
0
220
0
230
-1
0
CIRCLE
5
E5
100
AcDbEntity
8
1
62
256
6
ByLayer
370
18
48
1
60
0
100
AcDbCircle
10
-80.058875
20
15.556349
30
0
40
5.1
39
0
210
0
220
0
230
-1
0
CIRCLE
5
E6
100
AcDbEntity
8
1
62
256
6
ByLayer
370
18
48
1
60
0
100
AcDbCircle
10
-92.07969
20
3.535534
30
0
40
5.15
39
0
210
0
220
0
230
-1
0
ELLIPSE
5
E8
100
AcDbEntity
8
1
62
256
6
ByLayer
370
18
48
1
60
0
100
AcDbEllipse
10
-2.347154
20
0
30
0
11
14.7536831606562
21
-31.093254915581
31
0
210
0
220
0
230
1
40
0.341999
41
0.157806186645427
42
1.09123958575283
0
ELLIPSE
5
E9
100
AcDbEntity
8
1
62
256
6
ByLayer
370
18
48
1
60
0
100
AcDbEllipse
10
26.347154
20
0
30
0
11
14.7536831606569
21
31.0932549155819
31
0
210
0
220
0
230
1
40
0.341999
41
2.05035306783699
42
2.98378646694437
0
ELLIPSE
5
EA
100
AcDbEntity
8
1
62
256
6
ByLayer
370
18
48
1
60
0
100
AcDbEllipse
10
-2.347154
20
0
30
0
11
14.7536831606571
21
31.0932549155821
31
0
210
0
220
0
230
1
40
0.341999
41
-1.0912395857528
42
-0.157806186645425
0
ELLIPSE
5
EB
100
AcDbEntity
8
1
62
256
6
ByLayer
370
18
48
1
60
0
100
AcDbEllipse
10
26.347154
20
0
30
0
11
14.7536831606552
21
-31.0932549155797
31
0
210
0
220
0
230
1
40
0.341999
41
-2.98378646694436
42
-2.05035306783693
0
ELLIPSE
5
EC
100
AcDbEntity
8
1
62
256
6
ByLayer
370
18
48
1
60
0
100
AcDbEllipse
10
93.830542
20
-12.837251
30
0
11
0.972022002003616
21
2.08450791018429
31
0
210
0
220
0
230
1
40
0.258819
41
0
42
6.28318530717959
0
ELLIPSE
5
ED
100
AcDbEntity
8
1
62
256
6
ByLayer
370
18
48
1
60
0
100
AcDbEllipse
10
93.655457
20
-12.755607
30
0
11
1.05654565435176
21
2.26576946759163
31
0
210
0
220
0
230
1
40
0.258819
41
0
42
6.28318530717959
0
POINT
5
6C
100
AcDbEntity
8
81
62
256
6
ByLayer
370
18
48
1
60
0
100
AcDbPoint
10
105.161165
20
-8.838835
30
0
39
0
210
0
220
0
230
1
50
360
0
POINT
5
6E
100
AcDbEntity
8
80
62
256
6
ByLayer
370
18
48
1
60
0
100
AcDbPoint
10
0
20
0
30
0
39
0
210
0
220
0
230
1
50
360
0
SPLINE
5
EE
100
AcDbEntity
8
1
62
256
6
ByLayer
370
18
48
1
60
0
100
AcDbSpline
70
4
71
3
72
12
73
8
40
0
40
0
40
0
40
0
40
0.268812720709513
40
0.597605301872775
40
0.761234284787717
40
0.8961435036046
40
1
40
1
40
1
40
1
41
1
10
13.8943375672974
20
-29.9139548464691
30
0
41
1
10
13.8789102783285
20
-29.9344364341763
30
0
41
1
10
13.831605345163
20
-29.9775637976282
30
0
41
1
10
13.7433941200963
20
-30.0291632435093
30
0
41
1
10
13.634722007306
20
-30.0627691562056
30
0
41
1
10
13.5458378558719
20
-30.0777080286645
30
0
41
1
10
13.4878204468283
20
-30.0803887582689
30
0
41
1
10
13.4613248654052
20
-30.0805927603169
30
0
0
SPLINE
5
EF
100
AcDbEntity
8
1
62
256
6
ByLayer
370
18
48
1
60
0
100
AcDbSpline
70
4
71
3
72
13
73
9
40
0
40
0
40
0
40
0
40
0.0049544420437537
40
0.113866519425951
40
0.253452115449277
40
0.473535455387177
40
0.894568595884781
40
1
40
1
40
1
40
1
41
1
10
10.5386751345948
20
-30.0805927603169
30
0
41
1
10
10.537450872409
20
-30.0805926868535
30
0
41
1
10
10.5093477717048
20
-30.0805290593979
30
0
41
1
10
10.4465510164428
20
-30.0768838316285
30
0
41
1
10
10.3457330197466
20
-30.058773313866
30
0
41
1
10
10.2197164028837
20
-30.0138157030739
30
0
41
1
10
10.1481083506258
20
-29.9607825352996
30
0
41
1
10
10.1120558984644
20
-29.9218822348292
30
0
41
1
10
10.1056624327026
20
-29.9139548464691
30
0
0
SPLINE
5
F0
100
AcDbEntity
8
1
62
256
6
ByLayer
370
18
48
1
60
0
100
AcDbSpline
70
4
71
3
72
12
73
8
40
0
40
0
40
0
40
0
40
0.268812720709383
40
0.597605301872752
40
0.761234284787682
40
0.896143503604589
40
1
40
1
40
1
40
1
41
1
10
10.1056624327026
20
-9.86941261896613
30
0
41
1
10
10.1210897216714
20
-9.80723406842817
30
0
41
1
10
10.168394654837
20
-9.6752889522603
30
0
41
1
10
10.2566058799037
20
-9.5134830974826
30
0
41
1
10
10.365277992694
20
-9.40646168968887
30
0
41
1
10
10.454162144128
20
-9.35849990178994
30
0
41
1
10
10.5121795531717
20
-9.34989401091092
30
0
41
1
10
10.5386751345948
20
-9.349221314525
30
0
0
SPLINE
5
F1
100
AcDbEntity
8
1
62
256
6
ByLayer
370
18
48
1
60
0
100
AcDbSpline
70
4
71
3
72
13
73
9
40
0
40
0
40
0
40
0
40
0.0049544420437757
40
0.113866519425986
40
0.253452115449317
40
0.473535455387234
40
0.894568595884855
40
1
40
1
40
1
40
1
41
1
10
13.4613248654052
20
-9.34922131452502
30
0
41
1
10
13.462549127591
20
-9.34922155870898
30
0
41
1
10
13.4906522282952
20
-9.34942610523147
30
0
41
1
10
13.5534489835572
20
-9.36116231186528
30
0
41
1
10
13.6542669802534
20
-9.4192634065396
30
0
41
1
10
13.7802835971163
20
-9.56214647013262
30
0
41
1
10
13.8518916493741
20
-9.72702906428663
30
0
41
1
10
13.8879441015356
20
-9.84537467551148
30
0
41
1
10
13.8943375672974
20
-9.8694126189661
30
0
0
SPLINE
5
F2
100
AcDbEntity
8
1
62
256
6
ByLayer
370
18
48
1
60
0
100
AcDbSpline
70
4
71
3
72
12
73
8
40
0
40
0
40
0
40
0
40
0.268812720709485
40
0.597605301872762
40
0.761234284787701
40
0.896143503604602
40
1
40
1
40
1
40
1
41
1
10
13.8943375672974
20
9.8694126189661
30
0
41
1
10
13.8789102783285
20
9.80723406842811
30
0
41
1
10
13.831605345163
20
9.67528895226025
30
0
41
1
10
13.7433941200963
20
9.51348309748256
30
0
41
1
10
13.634722007306
20
9.40646168968886
30
0
41
1
10
13.5458378558719
20
9.35849990178994
30
0
41
1
10
13.4878204468283
20
9.34989401091093
30
0
41
1
10
13.4613248654052
20
9.34922131452502
30
0
0
SPLINE
5
F3
100
AcDbEntity
8
1
62
256
6
ByLayer
370
18
48
1
60
0
100
AcDbSpline
70
4
71
3
72
13
73
9
40
0
40
0
40
0
40
0
40
0.004954442043804
40
0.113866519425998
40
0.253452115449334
40
0.473535455387286
40
0.894568595884974
40
1
40
1
40
1
40
1
41
1
10
10.5386751345948
20
9.34922131452503
30
0
41
1
10
10.537450872409
20
9.34922155870898
30
0
41
1
10
10.5093477717048
20
9.34942610523131
30
0
41
1
10
10.4465510164428
20
9.36116231186536
30
0
41
1
10
10.3457330197465
20
9.41926340653958
30
0
41
1
10
10.2197164028837
20
9.5621464701327
30
0
41
1
10
10.1481083506258
20
9.72702906428669
30
0
41
1
10
10.1120558984644
20
9.84537467551155
30
0
41
1
10
10.1056624327026
20
9.86941261896613
30
0
0
SPLINE
5
F4
100
AcDbEntity
8
1
62
256
6
ByLayer
370
18
48
1
60
0
100
AcDbSpline
70
4
71
3
72
12
73
8
40
0
40
0
40
0
40
0
40
0.268812720709657
40
0.597605301872842
40
0.761234284787775
40
0.896143503604652
40
1
40
1
40
1
40
1
41
1
10
10.1056624327026
20
29.9139548464691
30
0
41
1
10
10.1210897216715
20
29.9344364341763
30
0
41
1
10
10.168394654837
20
29.9775637976282
30
0
41
1
10
10.2566058799037
20
30.0291632435092
30
0
41
1
10
10.365277992694
20
30.0627691562057
30
0
41
1
10
10.4541621441281
20
30.0777080286646
30
0
41
1
10
10.5121795531717
20
30.0803887582689
30
0
41
1
10
10.5386751345948
20
30.0805927603169
30
0
0
SPLINE
5
F5
100
AcDbEntity
8
1
62
256
6
ByLayer
370
18
48
1
60
0
100
AcDbSpline
70
4
71
3
72
13
73
9
40
0
40
0
40
0
40
0
40
0.0049544420437973
40
0.113866519425997
40
0.253452115449332
40
0.473535455387268
40
0.89456859588492
40
1
40
1
40
1
40
1
41
1
10
13.4613248654052
20
30.080592760317
30
0
41
1
10
13.462549127591
20
30.0805926868535
30
0
41
1
10
13.4906522282952
20
30.0805290593975
30
0
41
1
10
13.5534489835572
20
30.0768838316288
30
0
41
1
10
13.6542669802534
20
30.0587733138659
30
0
41
1
10
13.7802835971163
20
30.013815703074
30
0
41
1
10
13.8518916493742
20
29.9607825352996
30
0
41
1
10
13.8879441015356
20
29.9218822348292
30
0
41
1
10
13.8943375672974
20
29.9139548464691
30
0
0
SPLINE
5
F6
100
AcDbEntity
8
SK1
62
256
6
ByLayer
370
18
48
1
60
0
100
AcDbSpline
70
4
71
3
72
17
73
13
40
0
40
0
40
0
40
0
40
0.0580225012475266
40
0.118348644798807
40
0.239045605914979
40
0.359733859477783
40
0.420057331683398
40
0.540737207209985
40
0.661413446179411
40
0.7820870831716
40
0.891043037347454
40
1
40
1
40
1
40
1
41
1
10
-2.1999369715594
20
-22.0201008059928
30
0
41
1
10
-2.19994111039233
20
-22.0199534703522
30
0
41
1
10
-2.19994895187915
20
-22.0110355151029
30
0
41
1
10
-2.1999620102708
20
-21.956731982278
30
0
41
1
10
-2.19997487537995
20
-21.8226368757698
30
0
41
1
10
-2.19998362821045
20
-21.608226521278
30
0
41
1
10
-2.19999009566089
20
-21.3379022336922
30
0
41
1
10
-2.19999459150205
20
-21.0133950374225
30
0
41
1
10
-2.19999774058269
20
-20.5423536268455
30
0
41
1
10
-2.19999929850849
20
-20.0115636298903
30
0
41
1
10
-2.19999991154328
20
-19.4324285463744
30
0
41
1
10
-2.20000003133561
20
-19.0211973864701
30
0
41
1
10
-2.20000000000002
20
-18.8057993596818
30
0
0
SPLINE
5
F7
100
AcDbEntity
8
SK1
62
256
6
ByLayer
370
18
48
1
60
0
100
AcDbSpline
70
4
71
2
72
6
73
3
40
0
40
0
40
0
40
1
40
1
40
1
41
1
10
-2.19492488857411
20
-22.0202267269672
30
0
41
1
10
-2.59746244428705
20
-22.0101135822509
30
0
41
1
10
-3
20
-22.0000004375346
30
0
0
SPLINE
5
F8
100
AcDbEntity
8
SK1
62
256
6
ByLayer
370
18
48
1
60
0
100
AcDbSpline
70
4
71
2
72
6
73
3
40
0
40
0
40
0
40
1
40
1
40
1
41
1
10
-3
20
22.0000004290441
30
0
41
1
10
-2.59746244428705
20
22.0101135737565
30
0
41
1
10
-2.19492488857411
20
22.0202267184689
30
0
0
SPLINE
5
F9
100
AcDbEntity
8
SK1
62
256
6
ByLayer
370
18
48
1
60
0
100
AcDbSpline
70
4
71
3
72
17
73
13
40
0
40
0
40
0
40
0
40
0.110799964007611
40
0.221598844946521
40
0.401505990316325
40
0.491413094783591
40
0.581321314484382
40
0.67123094785544
40
0.761142399335357
40
0.851056197893279
40
0.940973209057597
40
1
40
1
40
1
40
1
41
1
10
-2.20000000000002
20
18.8057994981526
30
0
41
1
10
-2.20000003309106
20
19.0248486921952
30
0
41
1
10
-2.19999990898686
20
19.4427097268097
30
0
41
1
10
-2.19999916148124
20
20.1275845560134
30
0
41
1
10
-2.19999718027
20
20.6829077492075
30
0
41
1
10
-2.19999322562031
20
21.119223917934
30
0
41
1
10
-2.19998888046822
20
21.4003821629167
30
0
41
1
10
-2.19998279000431
20
21.6334064627361
30
0
41
1
10
-2.19997446616181
20
21.8158350496213
30
0
41
1
10
-2.19996353755558
20
21.9447098344506
30
0
41
1
10
-2.199951015391
20
22.0085414009269
30
0
41
1
10
-2.19994116247006
20
22.019913752436
30
0
41
1
10
-2.1999369706415
20
22.020100797442
30
0
0
SPLINE
5
FA
100
AcDbEntity
8
SK1
62
256
6
ByLayer
370
18
48
1
60
0
100
AcDbSpline
70
4
71
2
72
6
73
3
40
0
40
0
40
0
40
1
40
1
40
1
41
1
10
-3
20
-22.0000004375346
30
0
41
1
10
-19.7502365839533
20
-21.5791761834949
30
0
41
1
10
-36.5004731679067
20
-21.1583519294552
30
0
0
SPLINE
5
FB
100
AcDbEntity
8
SK1
62
256
6
ByLayer
370
18
48
1
60
0
100
AcDbSpline
70
4
71
2
72
6
73
3
40
0
40
0
40
0
40
1
40
1
40
1
41
1
10
-36.5004731679067
20
21.1583519212896
30
0
41
1
10
-19.7502365839533
20
21.5791761751668
30
0
41
1
10
-3
20
22.0000004290441
30
0
0
SPLINE
5
FC
100
AcDbEntity
8
SK1
62
256
6
ByLayer
370
18
48
1
60
0
100
AcDbSpline
70
4
71
3
72
13
73
9
40
0
40
0
40
0
40
0
40
0.239458034039711
40
0.368362242523283
40
0.500001719408281
40
0.631640907399732
40
0.760544321541723
40
1
40
1
40
1
40
1
41
1
10
-2
20
-21.8251283317571
30
0
41
1
10
-2.02607218220657
20
-21.8253815759776
30
0
41
1
10
-2.06363558166035
20
-21.832499461233
30
0
41
1
10
-2.11047835037542
20
-21.8567272581279
30
0
41
1
10
-2.14242263587786
20
-21.8827049843058
30
0
41
1
10
-2.16840067179331
20
-21.9146489043199
30
0
41
1
10
-2.1926287564505
20
-21.9614911190379
30
0
41
1
10
-2.19974671976325
20
-21.9990541435572
30
0
41
1
10
-2.2
20
-22.0251260837646
30
0
0
SPLINE
5
FD
100
AcDbEntity
8
SK1
62
256
6
ByLayer
370
18
48
1
60
0
100
AcDbSpline
70
4
71
3
72
13
73
9
40
0
40
0
40
0
40
0
40
0.23945567335882
40
0.368359087136603
40
0.499998275767161
40
0.631637753936879
40
0.760541963956581
40
1
40
1
40
1
40
1
41
1
10
-2.2
20
22.0251260775077
30
0
41
1
10
-2.19974671959666
20
21.9990541369823
30
0
41
1
10
-2.19262875626099
20
21.9614911120955
30
0
41
1
10
-2.16840067169749
20
21.9146488976998
30
0
41
1
10
-2.14242263580763
20
21.8827049776713
30
0
41
1
10
-2.11047835033028
20
21.8567272514908
30
0
41
1
10
-2.06363558177699
20
21.8324994546095
30
0
41
1
10
-2.02607218225585
20
21.8253815693237
30
0
41
1
10
-2
20
21.8251283250689
30
0
0
SPLINE
5
FE
100
AcDbEntity
8
SK1
62
256
6
ByLayer
370
18
48
1
60
0
100
AcDbSpline
70
4
71
2
72
6
73
3
40
0
40
0
40
0
40
1
40
1
40
1
41
1
10
-36.5004321682704
20
-21.1581061531923
30
0
41
1
10
-37.250216097561
20
-20.6997323883077
30
0
41
1
10
-38
20
-20.2413583528791
30
0
0
SPLINE
5
FF
100
AcDbEntity
8
SK1
62
256
6
ByLayer
370
18
48
1
60
0
100
AcDbSpline
70
4
71
2
72
6
73
3
40
0
40
0
40
0
40
1
40
1
40
1
41
1
10
-38
20
20.2397162883162
30
0
41
1
10
-37.2502068935606
20
20.6982812567361
30
0
41
1
10
-36.500413873027
20
21.1568446673342
30
0
0
SPLINE
5
100
100
AcDbEntity
8
1
62
256
6
ByLayer
370
18
48
1
60
0
100
AcDbSpline
70
4
71
3
72
8
73
4
40
0
40
0
40
0
40
0
40
1
40
1
40
1
40
1
41
1
10
33.323085031475
20
-33.807312309219
30
0
41
1
10
33.5371782214914
20
-34.5402109193335
30
0
41
1
10
33.7675692065047
20
-35.2710169239501
30
0
41
1
10
34.0121576673926
20
-36
30
0
0
SPLINE
5
101
100
AcDbEntity
8
1
62
256
6
ByLayer
370
18
48
1
60
0
100
AcDbSpline
70
4
71
3
72
30
73
26
40
0
40
0
40
0
40
0
40
0.0312500000000013
40
0.0312500000000013
40
0.0625000000000027
40
0.0625000000000027
40
0.093750000000004
40
0.093750000000004
40
0.125000000000005
40
0.125000000000005
40
0.187500000000005
40
0.187500000000005
40
0.250000000000006
40
0.250000000000006
40
0.375000000000005
40
0.375000000000005
40
0.500000000000004
40
0.500000000000004
40
0.625000000000003
40
0.625000000000003
40
0.750000000000002
40
0.750000000000002
40
0.875000000000001
40
0.875000000000001
40
1
40
1
40
1
40
1
41
1
10
32.2355156870304
20
-32.6523858258512
30
0
41
1
10
32.2575597374674
20
-32.6523858258512
30
0
41
1
10
32.2796611746652
20
-32.6534610565596
30
0
41
1
10
32.3230055288422
20
-32.6576162271508
30
0
41
1
10
32.3443960715533
20
-32.6606942994147
30
0
41
1
10
32.3866496363918
20
-32.6687244249318
30
0
41
1
10
32.4076271712406
20
-32.6737108657159
30
0
41
1
10
32.448510812257
20
-32.6852868658387
30
0
41
1
10
32.468325018171
20
-32.6918356085936
30
0
41
1
10
32.5261513220271
20
-32.71344099936
30
0
41
1
10
32.5625603212547
20
-32.7304407915323
30
0
41
1
10
32.6320413440646
20
-32.7684851827749
30
0
41
1
10
32.6646213853675
20
-32.7892792650454
30
0
41
1
10
32.7564027224152
20
-32.8548598898713
30
0
41
1
10
32.8103765653505
20
-32.9031267280435
30
0
41
1
10
32.9090664457365
20
-33.0054951076524
30
0
41
1
10
32.9527411402516
20
-33.0586229167016
30
0
41
1
10
33.0322745080276
20
-33.1673680683143
30
0
41
1
10
33.0681028045291
20
-33.2230350073248
30
0
41
1
10
33.1336832035989
20
-33.3363658452885
30
0
41
1
10
33.1634158023433
20
-33.3940361542338
30
0
41
1
10
33.2177491945973
20
-33.511063355798
30
0
41
1
10
33.2421582680243
20
-33.5700325210295
30
0
41
1
10
33.2861048255016
20
-33.6883130509441
30
0
41
1
10
33.3056716430176
20
-33.7477015939172
30
0
41
1
10
33.3230850314754
20
-33.8073123092189
30
0
0
SPLINE
5
102
100
AcDbEntity
8
1
62
256
6
ByLayer
370
18
48
1
60
0
100
AcDbSpline
70
4
71
3
72
20
73
16
40
0
40
0
40
0
40
0
40
0.25
40
0.25
40
0.499999999999999
40
0.499999999999999
40
0.624999999999999
40
0.624999999999999
40
0.749999999999999
40
0.749999999999999
40
0.874999999999999
40
0.874999999999999
40
0.937499999999999
40
0.937499999999999
40
1
40
1
40
1
40
1
41
1
10
24.0583826381849
20
-32.1230694014746
30
0
41
1
10
24.0661134533808
20
-32.1757913749297
30
0
41
1
10
24.0772121169446
20
-32.2279836947822
30
0
41
1
10
24.1080150969963
20
-32.3310149436426
30
0
41
1
10
24.1275694071462
20
-32.3818774638
30
0
41
1
10
24.1672391619891
20
-32.456545365495
30
0
41
1
10
24.1821355755557
20
-32.48098224392
30
0
41
1
10
24.2165418038619
20
-32.5282312152712
30
0
41
1
10
24.2360644074968
20
-32.5510992814946
30
0
41
1
10
24.2815629741284
20
-32.5930802434393
30
0
41
1
10
24.3079849470842
20
-32.6126635263696
30
0
41
1
10
24.3547230881739
20
-32.6350434459317
30
0
41
1
10
24.3716581715001
20
-32.6413261545617
30
0
41
1
10
24.4068933327667
20
-32.6499449822623
30
0
41
1
10
24.4256972364792
20
-32.6523858258512
30
0
41
1
10
24.4447529687005
20
-32.6523858258512
30
0
0
SPLINE
5
103
100
AcDbEntity
8
1
62
256
6
ByLayer
370
18
48
1
60
0
100
AcDbSpline
70
4
71
3
72
10
73
6
40
0
40
0
40
0
40
0
40
0.5
40
0.5
40
1
40
1
40
1
40
1
41
1
10
23.4383186059721
20
-26.1682038490542
30
0
41
1
10
23.4968325859328
20
-27.1670084622359
30
0
41
1
10
23.5793804830152
20
-28.1624210831174
30
0
41
1
10
23.7878336913761
20
-30.1471271386332
30
0
41
1
10
23.91370737759
20
-31.1364250366256
30
0
41
1
10
24.0583826381865
20
-32.1230694014791
30
0
0
SPLINE
5
104
100
AcDbEntity
8
1
62
256
6
ByLayer
370
18
48
1
60
0
100
AcDbSpline
70
4
71
3
72
17
73
13
40
0
40
0
40
0
40
0
40
0.250000000000001
40
0.250000000000001
40
0.375
40
0.375
40
0.5
40
0.625
40
0.625
40
0.75
40
0.75
40
1
40
1
40
1
40
1
41
1
10
23.4383186059721
20
-19.0866301468848
30
0
41
1
10
23.4037531858963
20
-19.676644722059
30
0
41
1
10
23.3549551677418
20
-20.266611915798
30
0
41
1
10
23.2983063639763
20
-21.1516177967402
30
0
41
1
10
23.2821448594529
20
-21.4466288169084
30
0
41
1
10
23.2599146870878
20
-22.0366844570896
30
0
41
1
10
23.2478756539868
20
-22.6267740243726
30
0
41
1
10
23.2598819597001
20
-23.2169436404743
30
0
41
1
10
23.282092345569
20
-23.8071472267591
30
0
41
1
10
23.2982504697652
20
-24.102265841506
30
0
41
1
10
23.3549086258872
20
-24.9876489302037
30
0
41
1
10
23.4037347792556
20
-25.5778750816531
30
0
41
1
10
23.4383186059721
20
-26.1682038490542
30
0
0
SPLINE
5
105
100
AcDbEntity
8
1
62
256
6
ByLayer
370
18
48
1
60
0
100
AcDbSpline
70
4
71
3
72
10
73
6
40
0
40
0
40
0
40
0
40
0.5
40
0.5
40
1
40
1
40
1
40
1
41
1
10
24.0404361492066
20
-13.2548339959391
30
0
41
1
10
23.9002572630715
20
-14.2214978818449
30
0
41
1
10
23.7782567421039
20
-15.1905819032105
30
0
41
1
10
23.5759119836293
20
-17.134295760859
30
0
41
1
10
23.4955962373784
20
-18.1089293902608
30
0
41
1
10
23.4383186059721
20
-19.0866301468848
30
0
0
SPLINE
5
106
100
AcDbEntity
8
1
62
256
6
ByLayer
370
18
48
1
60
0
100
AcDbSpline
70
4
71
3
72
10
73
6
40
0
40
0
40
0
40
0
40
0.5
40
0.5
40
1
40
1
40
1
40
1
41
1
10
36.3228755421655
20
27.39696961967
30
0
41
1
10
35.7425169322752
20
25.4832828546212
30
0
41
1
10
35.1948543903153
20
23.5625405547764
30
0
41
1
10
34.1867177677865
20
19.7022414228788
30
0
41
1
10
33.7262713256115
20
17.7626786266946
30
0
41
1
10
33.323085031475
20
15.8107595750803
30
0
0
SPLINE
5
107
100
AcDbEntity
8
1
62
256
6
ByLayer
370
18
48
1
60
0
100
AcDbSpline
70
4
71
3
72
31
73
27
40
0
40
0
40
0
40
0
40
0.124999999999998
40
0.124999999999998
40
0.249999999999997
40
0.249999999999997
40
0.374999999999995
40
0.374999999999995
40
0.499999999999993
40
0.499999999999993
40
0.562499999999994
40
0.562499999999994
40
0.624999999999994
40
0.624999999999994
40
0.749999999999995
40
0.749999999999995
40
0.812499999999992
40
0.812499999999992
40
0.874999999999989
40
0.874999999999989
40
0.906249999999992
40
0.906249999999992
40
0.937499999999994
40
0.968749999999997
40
0.968749999999997
40
1
40
1
40
1
40
1
41
1
10
33.323085031475
20
15.8107595750803
30
0
41
1
10
33.3056373971039
20
15.7262915005704
30
0
41
1
10
33.2860056107139
20
15.6420277243021
30
0
41
1
10
33.2418170123964
20
15.4739608421069
30
0
41
1
10
33.2172906595792
20
15.3903262192567
30
0
41
1
10
33.1631725346792
20
15.2256361936722
30
0
41
1
10
33.1335342571945
20
15.144358957627
30
0
41
1
10
33.068056652128
20
14.9843716763341
30
0
41
1
10
33.0322388472011
20
14.9056527208598
30
0
41
1
10
32.9724547590539
20
14.7900820003568
30
0
41
1
10
32.951509085324
20
14.7519797244043
30
0
41
1
10
32.9071791248855
20
14.6767847409916
30
0
41
1
10
32.8837923657339
20
14.6397086625274
30
0
41
1
10
32.8101876345272
20
14.5318418100786
30
0
41
1
10
32.7564257516325
20
14.4638098627216
30
0
41
1
10
32.6645918198262
20
14.3710144885797
30
0
41
1
10
32.6318250242525
20
14.3414543299019
30
0
41
1
10
32.5624197399205
20
14.2877388099348
30
0
41
1
10
32.5259378932507
20
14.2636384088115
30
0
41
1
10
32.4677036744894
20
14.23292974723
30
0
41
1
10
32.4475873034624
20
14.2235706923613
30
0
41
1
10
32.4068753746861
20
14.2073409752563
30
0
41
1
10
32.3655688869343
20
14.1935121515198
30
0
41
1
10
32.3229850080593
20
14.1848415711257
30
0
41
1
10
32.2797071992797
20
14.1789731546466
30
0
41
1
10
32.2575258506804
20
14.1774468787578
30
0
41
1
10
32.235515687031
20
14.1774468787578
30
0
0
SPLINE
5
108
100
AcDbEntity
8
1
62
256
6
ByLayer
370
18
48
1
60
0
100
AcDbSpline
70
4
71
3
72
26
73
22
40
0
40
0
40
0
40
0
40
0.0624999999999998
40
0.0624999999999998
40
0.125
40
0.125
40
0.187499999999999
40
0.187499999999999
40
0.249999999999999
40
0.249999999999999
40
0.312499999999999
40
0.312499999999999
40
0.374999999999999
40
0.374999999999999
40
0.499999999999998
40
0.499999999999998
40
0.624999999999998
40
0.624999999999998
40
0.749999999999998
40
0.749999999999998
40
1
40
1
40
1
40
1
41
1
10
24.4447529687005
20
14.1774468787578
30
0
41
1
10
24.4256670891698
20
14.1774468787578
30
0
41
1
10
24.4071923249364
20
14.1741023137354
30
0
41
1
10
24.3712912138121
20
14.1616753139481
30
0
41
1
10
24.3545869177842
20
14.1528427487113
30
0
41
1
10
24.3234412832553
20
14.1317237101665
30
0
41
1
10
24.3089048567583
20
14.1193311770323
30
0
41
1
10
24.2823366084306
20
14.0928658859536
30
0
41
1
10
24.2701326696634
20
14.0786705600188
30
0
41
1
10
24.2473084581356
20
14.0488685168992
30
0
41
1
10
24.23665943234
20
14.0331906557455
30
0
41
1
10
24.2169330593311
20
14.0012418126864
30
0
41
1
10
24.2078142085491
20
13.9849227765285
30
0
41
1
10
24.1822008437089
20
13.9351586022426
30
0
41
1
10
24.1674250600688
20
13.9009177215131
30
0
41
1
10
24.1410911566565
20
13.830946237064
30
0
41
1
10
24.1295346405417
20
13.7951156217989
30
0
41
1
10
24.1091942783259
20
13.7230929954966
30
0
41
1
10
24.1003773453464
20
13.6868104960269
30
0
41
1
10
24.0772146745134
20
13.5773040679378
30
0
41
1
10
24.0661123773662
20
13.5034301648413
30
0
41
1
10
24.0583826381849
20
13.4288804126083
30
0
0
SPLINE
5
109
100
AcDbEntity
8
1
62
256
6
ByLayer
370
18
48
1
60
0
100
AcDbSpline
70
4
71
3
72
10
73
6
40
0
40
0
40
0
40
0
40
0.5
40
0.5
40
1
40
1
40
1
40
1
41
1
10
24.0583826381849
20
13.4288804126084
30
0
41
1
10
23.9135986709982
20
12.0325061459081
30
0
41
1
10
23.7876958006822
20
10.6328509191194
30
0
41
1
10
23.579273222876
20
7.82600179198277
30
0
41
1
10
23.4967849722367
20
6.41880242539142
30
0
41
1
10
23.4383186059721
20
5.00742878627636
30
0
0
SPLINE
5
10A
100
AcDbEntity
8
1
62
256
6
ByLayer
370
18
48
1
60
0
100
AcDbSpline
70
4
71
3
72
26
73
22
40
0
40
0
40
0
40
0
40
0.25
40
0.25
40
0.375
40
0.375
40
0.4375
40
0.4375
40
0.46875
40
0.484375
40
0.4921875
40
0.4921875
40
0.494140625
40
0.494140625
40
0.49609375
40
0.5
40
0.625
40
0.625
40
0.75
40
0.75
40
1
40
1
40
1
40
1
41
1
10
23.4383186059721
20
5.00742878627638
30
0
41
1
10
23.4032250177347
20
4.16027223277894
30
0
41
1
10
23.3534674413516
20
3.3130827972254
30
0
41
1
10
23.296439853519
20
2.04196916432377
30
0
41
1
10
23.2803256975502
20
1.61817114555632
30
0
41
1
10
23.264094949348
20
0.982217736602497
30
0
41
1
10
23.259992099001
20
0.770191053914227
30
0
41
1
10
23.2560498127524
20
0.45207960961828
30
0
41
1
10
23.2546291411688
20
0.293006113956207
30
0
41
1
10
23.2539612122122
20
0.107388419555382
30
0
41
1
10
23.2538878486381
20
0.0278311052938364
30
0
41
1
10
23.2538868730904
20
-0.0053187311286382
30
0
41
1
10
23.2538880910318
20
-0.0115834504340691
30
0
41
1
10
23.2538932870117
20
-0.0244379557729927
30
0
41
1
10
23.2539052528245
20
-0.0437196118519065
30
0
41
1
10
23.2544476442741
20
-0.47433654149687
30
0
41
1
10
23.2611827502377
20
-0.898374850137914
30
0
41
1
10
23.2839634718116
20
-1.72051472176497
30
0
41
1
10
23.3001663262325
20
-2.13147180326575
30
0
41
1
10
23.3564256735083
20
-3.36412470936872
30
0
41
1
10
23.4042718616049
20
-4.18554296426188
30
0
41
1
10
23.4383186059721
20
-5.00742878627639
30
0
0
SPLINE
5
10B
100
AcDbEntity
8
1
62
256
6
ByLayer
370
18
48
1
60
0
100
AcDbSpline
70
4
71
3
72
10
73
6
40
0
40
0
40
0
40
0
40
0.5
40
0.5
40
1
40
1
40
1
40
1
41
1
10
23.4383186059721
20
-5.00742878627639
30
0
41
1
10
23.4955880213024
20
-6.38990812078645
30
0
41
1
10
23.5758935959809
20
-7.76815712490543
30
0
41
1
10
23.778233150009
20
-10.5169921830924
30
0
41
1
10
23.9002386670537
20
-11.8875834639412
30
0
41
1
10
24.0404361492066
20
-13.2548339959391
30
0
0
SPLINE
5
10C
100
AcDbEntity
8
1
62
256
6
ByLayer
370
18
48
1
60
0
100
AcDbSpline
70
4
71
3
72
10
73
6
40
0
40
0
40
0
40
0
40
0.5
40
0.5
40
1
40
1
40
1
40
1
41
1
10
36.3228755421655
20
27.39696961967
30
0
41
1
10
36.2496656006615
20
28.8337922785082
30
0
41
1
10
36.2450378109288
20
30.2691110584164
30
0
41
1
10
36.3723839902458
20
33.1367531959323
30
0
41
1
10
36.5043101111284
20
34.5690776027613
30
0
41
1
10
36.7001727847407
20
36
30
0
0
SPLINE
5
10D
100
AcDbEntity
8
1
62
256
6
ByLayer
370
18
48
1
60
0
100
AcDbSpline
70
4
71
3
72
10
73
6
40
0
40
0
40
0
40
0
40
0.5
40
0.5
40
1
40
1
40
1
40
1
41
1
10
33.323085031475
20
15.8107595750803
30
0
41
1
10
33.7262713256115
20
17.7626786266946
30
0
41
1
10
34.1867177677865
20
19.7022414228788
30
0
41
1
10
35.1948543903153
20
23.5625405547764
30
0
41
1
10
35.7425169322752
20
25.4832828546212
30
0
41
1
10
36.3228755421655
20
27.39696961967
30
0
0
SPLINE
5
10E
100
AcDbEntity
8
1
62
256
6
ByLayer
370
18
48
1
60
0
100
AcDbSpline
70
4
71
3
72
8
73
4
40
0
40
0
40
0
40
0
40
1
40
1
40
1
40
1
41
1
10
34.0121576673926
20
-36
30
0
41
1
10
33.7675692065047
20
-35.2710169239501
30
0
41
1
10
33.5371782214914
20
-34.5402109193335
30
0
41
1
10
33.323085031475
20
-33.807312309219
30
0
0
SPLINE
5
10F
100
AcDbEntity
8
1
62
256
6
ByLayer
370
18
48
1
60
0
100
AcDbSpline
70
4
71
3
72
31
73
27
40
0
40
0
40
0
40
0
40
0.0312500000000028
40
0.0312500000000028
40
0.0625000000000057
40
0.0937500000000084
40
0.0937500000000084
40
0.125000000000011
40
0.125000000000011
40
0.187500000000008
40
0.187500000000008
40
0.250000000000005
40
0.250000000000005
40
0.375000000000006
40
0.375000000000006
40
0.437500000000006
40
0.437500000000006
40
0.500000000000007
40
0.500000000000007
40
0.625000000000005
40
0.625000000000005
40
0.750000000000003
40
0.750000000000003
40
0.875000000000002
40
0.875000000000002
40
1
40
1
40
1
40
1
41
1
10
32.235515687031
20
14.1774468787578
30
0
41
1
10
32.2575258506804
20
14.1774468787578
30
0
41
1
10
32.2797071992797
20
14.1789731546466
30
0
41
1
10
32.3229850080593
20
14.1848415711257
30
0
41
1
10
32.3655688869343
20
14.1935121515198
30
0
41
1
10
32.4068753746861
20
14.2073409752563
30
0
41
1
10
32.4475873034624
20
14.2235706923613
30
0
41
1
10
32.4677036744894
20
14.23292974723
30
0
41
1
10
32.5259378932507
20
14.2636384088115
30
0
41
1
10
32.5624197399205
20
14.2877388099348
30
0
41
1
10
32.6318250242525
20
14.3414543299019
30
0
41
1
10
32.6645918198262
20
14.3710144885797
30
0
41
1
10
32.7564257516325
20
14.4638098627216
30
0
41
1
10
32.8101876345272
20
14.5318418100786
30
0
41
1
10
32.8837923657339
20
14.6397086625274
30
0
41
1
10
32.9071791248855
20
14.6767847409916
30
0
41
1
10
32.951509085324
20
14.7519797244043
30
0
41
1
10
32.9724547590539
20
14.7900820003568
30
0
41
1
10
33.0322388472011
20
14.9056527208598
30
0
41
1
10
33.068056652128
20
14.9843716763341
30
0
41
1
10
33.1335342571945
20
15.144358957627
30
0
41
1
10
33.1631725346792
20
15.2256361936722
30
0
41
1
10
33.2172906595792
20
15.3903262192567
30
0
41
1
10
33.2418170123964
20
15.4739608421069
30
0
41
1
10
33.2860056107139
20
15.6420277243021
30
0
41
1
10
33.3056373971039
20
15.7262915005704
30
0
41
1
10
33.323085031475
20
15.8107595750803
30
0
0
SPLINE
5
110
100
AcDbEntity
8
1
62
256
6
ByLayer
370
18
48
1
60
0
100
AcDbSpline
70
4
71
3
72
30
73
26
40
0
40
0
40
0
40
0
40
0.124999999999999
40
0.124999999999999
40
0.249999999999998
40
0.249999999999998
40
0.374999999999997
40
0.374999999999997
40
0.499999999999996
40
0.499999999999996
40
0.624999999999995
40
0.624999999999995
40
0.749999999999994
40
0.749999999999994
40
0.812499999999995
40
0.812499999999995
40
0.874999999999995
40
0.874999999999995
40
0.906249999999996
40
0.906249999999996
40
0.937499999999997
40
0.937499999999997
40
0.968749999999999
40
0.968749999999999
40
1
40
1
40
1
40
1
41
1
10
33.3230850314754
20
-33.8073123092189
30
0
41
1
10
33.3056716430176
20
-33.7477015939172
30
0
41
1
10
33.2861048255016
20
-33.6883130509441
30
0
41
1
10
33.2421582680243
20
-33.5700325210295
30
0
41
1
10
33.2177491945973
20
-33.511063355798
30
0
41
1
10
33.1634158023433
20
-33.3940361542338
30
0
41
1
10
33.1336832035989
20
-33.3363658452885
30
0
41
1
10
33.0681028045291
20
-33.2230350073248
30
0
41
1
10
33.0322745080276
20
-33.1673680683143
30
0
41
1
10
32.9527411402516
20
-33.0586229167016
30
0
41
1
10
32.9090664457365
20
-33.0054951076524
30
0
41
1
10
32.8103765653505
20
-32.9031267280435
30
0
41
1
10
32.7564027224152
20
-32.8548598898713
30
0
41
1
10
32.6646213853675
20
-32.7892792650454
30
0
41
1
10
32.6320413440646
20
-32.7684851827749
30
0
41
1
10
32.5625603212547
20
-32.7304407915323
30
0
41
1
10
32.5261513220271
20
-32.71344099936
30
0
41
1
10
32.468325018171
20
-32.6918356085936
30
0
41
1
10
32.448510812257
20
-32.6852868658387
30
0
41
1
10
32.4076271712406
20
-32.6737108657159
30
0
41
1
10
32.3866496363918
20
-32.6687244249318
30
0
41
1
10
32.3443960715533
20
-32.6606942994147
30
0
41
1
10
32.3230055288422
20
-32.6576162271508
30
0
41
1
10
32.2796611746652
20
-32.6534610565596
30
0
41
1
10
32.2575597374674
20
-32.6523858258512
30
0
41
1
10
32.2355156870304
20
-32.6523858258512
30
0
0
SPLINE
5
111
100
AcDbEntity
8
1
62
256
6
ByLayer
370
18
48
1
60
0
100
AcDbSpline
70
4
71
3
72
10
73
6
40
0
40
0
40
0
40
0
40
0.5
40
0.5
40
1
40
1
40
1
40
1
41
1
10
36.7001727847407
20
36
30
0
41
1
10
36.5043101111284
20
34.5690776027613
30
0
41
1
10
36.3723839902458
20
33.1367531959323
30
0
41
1
10
36.2450378109288
20
30.2691110584164
30
0
41
1
10
36.2496656006615
20
28.8337922785082
30
0
41
1
10
36.3228755421655
20
27.39696961967
30
0
0
SPLINE
5
112
100
AcDbEntity
8
1
62
256
6
ByLayer
370
18
48
1
60
0
100
AcDbSpline
70
4
71
3
72
25
73
21
40
0
40
0
40
0
40
0
40
0.0312500000000016
40
0.0312500000000016
40
0.0625000000000032
40
0.125000000000005
40
0.125000000000005
40
0.250000000000003
40
0.250000000000003
40
0.499999999999998
40
0.499999999999998
40
0.562499999999998
40
0.562499999999998
40
0.624999999999998
40
0.624999999999998
40
0.749999999999999
40
0.749999999999999
40
0.874999999999999
40
0.874999999999999
40
1
40
1
40
1
40
1
41
1
10
80.0588745030457
20
-24.0416305603426
30
0
41
1
10
80.0978488167859
20
-24.0026562466025
30
0
41
1
10
80.137535729
20
-23.9635123825777
30
0
41
1
10
80.2170266505513
20
-23.8861947741782
30
0
41
1
10
80.336985011126
20
-23.771124465832
30
0
41
1
10
80.4591200780622
20
-23.6587427124308
30
0
41
1
10
80.7063324326797
20
-23.4374982812809
30
0
41
1
10
80.8750588906571
20
-23.2946899196906
30
0
41
1
10
81.3934704375565
20
-22.8799649858224
30
0
41
1
10
81.7552698975024
20
-22.6216884564094
30
0
41
1
10
82.2307520257336
20
-22.3213456411479
30
0
41
1
10
82.3270194178104
20
-22.2624070179217
30
0
41
1
10
82.5220152690278
20
-22.1468026175155
30
0
41
1
10
82.6207878886439
20
-22.0901188448027
30
0
41
1
10
82.9191455922017
20
-21.9245059527529
30
0
41
1
10
83.1213307004795
20
-21.8196652724785
30
0
41
1
10
83.5326896366736
20
-21.6210708344865
30
0
41
1
10
83.7418583714732
20
-21.5273170359017
30
0
41
1
10
84.1678895059014
20
-21.3509805677519
30
0
41
1
10
84.3847384922222
20
-21.268397913302
30
0
41
1
10
84.6060510422509
20
-21.1915102959851
30
0
0
SPLINE
5
113
100
AcDbEntity
8
1
62
256
6
ByLayer
370
18
48
1
60
0
100
AcDbSpline
70
4
71
3
72
10
73
6
40
0
40
0
40
0
40
0
40
0.5
40
0.5
40
1
40
1
40
1
40
1
41
1
10
23.4383186059721
20
5.00742878627636
30
0
41
1
10
23.4967849722367
20
6.41880242539142
30
0
41
1
10
23.579273222876
20
7.82600179198277
30
0
41
1
10
23.7876958006822
20
10.6328509191194
30
0
41
1
10
23.9135986709982
20
12.0325061459081
30
0
41
1
10
24.0583826381849
20
13.4288804126084
30
0
0
SPLINE
5
114
100
AcDbEntity
8
1
62
256
6
ByLayer
370
18
48
1
60
0
100
AcDbSpline
70
4
71
3
72
10
73
6
40
0
40
0
40
0
40
0
40
0.5
40
0.5
40
1
40
1
40
1
40
1
41
1
10
24.0583826381865
20
-32.1230694014791
30
0
41
1
10
23.91370737759
20
-31.1364250366256
30
0
41
1
10
23.7878336913761
20
-30.1471271386332
30
0
41
1
10
23.5793804830152
20
-28.1624210831174
30
0
41
1
10
23.4968325859328
20
-27.1670084622359
30
0
41
1
10
23.4383186059721
20
-26.1682038490542
30
0
0
SPLINE
5
115
100
AcDbEntity
8
1
62
256
6
ByLayer
370
18
48
1
60
0
100
AcDbSpline
70
4
71
3
72
26
73
22
40
0
40
0
40
0
40
0
40
0.25
40
0.25
40
0.375
40
0.375
40
0.5
40
0.50390625
40
0.505859375
40
0.505859375
40
0.5078125
40
0.5078125
40
0.515625
40
0.53125
40
0.5625
40
0.5625
40
0.625
40
0.625
40
0.75
40
0.75
40
1
40
1
40
1
40
1
41
1
10
23.4383186059721
20
-5.00742878627639
30
0
41
1
10
23.4042718616049
20
-4.18554296426188
30
0
41
1
10
23.3564256735083
20
-3.36412470936872
30
0
41
1
10
23.3001663262325
20
-2.13147180326575
30
0
41
1
10
23.2839634718116
20
-1.72051472176497
30
0
41
1
10
23.2611827502377
20
-0.898374850137914
30
0
41
1
10
23.2544476442741
20
-0.47433654149687
30
0
41
1
10
23.2539052528245
20
-0.0437196118519065
30
0
41
1
10
23.2538932870117
20
-0.0244379557729927
30
0
41
1
10
23.2538880910318
20
-0.0115834504340691
30
0
41
1
10
23.2538868730904
20
-0.0053187311286382
30
0
41
1
10
23.2538878486381
20
0.0278311052938364
30
0
41
1
10
23.2539612122122
20
0.107388419555382
30
0
41
1
10
23.2546291411688
20
0.293006113956207
30
0
41
1
10
23.2560498127524
20
0.45207960961828
30
0
41
1
10
23.259992099001
20
0.770191053914227
30
0
41
1
10
23.264094949348
20
0.982217736602497
30
0
41
1
10
23.2803256975502
20
1.61817114555632
30
0
41
1
10
23.296439853519
20
2.04196916432377
30
0
41
1
10
23.3534674413516
20
3.3130827972254
30
0
41
1
10
23.4032250177347
20
4.16027223277894
30
0
41
1
10
23.4383186059721
20
5.00742878627638
30
0
0
SPLINE
5
116
100
AcDbEntity
8
1
62
256
6
ByLayer
370
18
48
1
60
0
100
AcDbSpline
70
4
71
3
72
17
73
13
40
0
40
0
40
0
40
0
40
0.25
40
0.25
40
0.375
40
0.375
40
0.5
40
0.625
40
0.625
40
0.749999999999999
40
0.749999999999999
40
1
40
1
40
1
40
1
41
1
10
23.4383186059721
20
-26.1682038490542
30
0
41
1
10
23.4037347792556
20
-25.5778750816531
30
0
41
1
10
23.3549086258872
20
-24.9876489302037
30
0
41
1
10
23.2982504697652
20
-24.102265841506
30
0
41
1
10
23.282092345569
20
-23.8071472267591
30
0
41
1
10
23.2598819597001
20
-23.2169436404743
30
0
41
1
10
23.2478756539868
20
-22.6267740243726
30
0
41
1
10
23.2599146870878
20
-22.0366844570896
30
0
41
1
10
23.2821448594529
20
-21.4466288169084
30
0
41
1
10
23.2983063639763
20
-21.1516177967402
30
0
41
1
10
23.3549551677418
20
-20.266611915798
30
0
41
1
10
23.4037531858963
20
-19.676644722059
30
0
41
1
10
23.4383186059721
20
-19.0866301468848
30
0
0
SPLINE
5
117
100
AcDbEntity
8
SK1
62
256
6
ByLayer
370
18
48
1
60
0
100
AcDbSpline
70
4
71
2
72
6
73
3
40
0
40
0
40
0
40
1
40
1
40
1
41
1
10
-1.283E-13
20
-21.8251283317571
30
0
41
1
10
-1.00000000000007
20
-21.8251283317571
30
0
41
1
10
-2
20
-21.8251283317571
30
0
0
SPLINE
5
118
100
AcDbEntity
8
SK1
62
256
6
ByLayer
370
18
48
1
60
0
100
AcDbSpline
70
4
71
2
72
6
73
3
40
0
40
0
40
0
40
1
40
1
40
1
41
1
10
-2
20
21.8251283250689
30
0
41
1
10
-0.999999999999938
20
21.8251283250689
30
0
41
1
10
1.282E-13
20
21.8251283250689
30
0
0
LINE
5
70
100
AcDbEntity
8
1
62
256
6
ByLayer
370
18
48
1
60
0
100
AcDbLine
10
0.3
20
-31.5
30
0
11
0
21
-31.2
31
0
39
0
210
0
220
0
230
1
0
LINE
5
72
100
AcDbEntity
8
1
62
256
6
ByLayer
370
18
48
1
60
0
100
AcDbLine
10
0
20
31.2
30
0
11
0.3
21
31.5
31
0
39
0
210
0
220
0
230
1
0
LINE
5
73
100
AcDbEntity
8
1
62
256
6
ByLayer
370
18
48
1
60
0
100
AcDbLine
10
0.3
20
31.5
30
0
11
22
21
31.5
31
0
39
0
210
0
220
0
230
1
0
LINE
5
74
100
AcDbEntity
8
1
62
256
6
ByLayer
370
18
48
1
60
0
100
AcDbLine
10
10.538675
20
-30.080593
30
0
11
13.461325
21
-30.080593
31
0
39
0
210
0
220
0
230
1
0
LINE
5
75
100
AcDbEntity
8
1
62
256
6
ByLayer
370
18
48
1
60
0
100
AcDbLine
10
13.461325
20
-9.349221
30
0
11
10.538675
21
-9.349221
31
0
39
0
210
0
220
0
230
1
0
LINE
5
76
100
AcDbEntity
8
1
62
256
6
ByLayer
370
18
48
1
60
0
100
AcDbLine
10
10.538675
20
9.349221
30
0
11
13.461325
21
9.349221
31
0
39
0
210
0
220
0
230
1
0
LINE
5
77
100
AcDbEntity
8
1
62
256
6
ByLayer
370
18
48
1
60
0
100
AcDbLine
10
13.461325
20
30.080593
30
0
11
10.538675
21
30.080593
31
0
39
0
210
0
220
0
230
1
0
LINE
5
78
100
AcDbEntity
8
1
62
256
6
ByLayer
370
18
48
1
60
0
100
AcDbLine
10
13.461325
20
-9.349221
30
0
11
13.461325
21
-30.080593
31
0
39
0
210
0
220
0
230
1
0
LINE
5
79
100
AcDbEntity
8
1
62
256
6
ByLayer
370
18
48
1
60
0
100
AcDbLine
10
13.894338
20
-9.869413
30
0
11
13.894338
21
-29.913955
31
0
39
0
210
0
220
0
230
1
0
LINE
5
7A
100
AcDbEntity
8
1
62
256
6
ByLayer
370
18
48
1
60
0
100
AcDbLine
10
10.105662
20
29.913955
30
0
11
10.105662
21
9.869413
31
0
39
0
210
0
220
0
230
1
0
LINE
5
7B
100
AcDbEntity
8
1
62
256
6
ByLayer
370
18
48
1
60
0
100
AcDbLine
10
10.538675
20
30.080593
30
0
11
10.538675
21
9.349221
31
0
39
0
210
0
220
0
230
1
0
LINE
5
7C
100
AcDbEntity
8
1
62
256
6
ByLayer
370
18
48
1
60
0
100
AcDbLine
10
13.461325
20
30.080593
30
0
11
13.461325
21
9.349221
31
0
39
0
210
0
220
0
230
1
0
LINE
5
7D
100
AcDbEntity
8
1
62
256
6
ByLayer
370
18
48
1
60
0
100
AcDbLine
10
13.894338
20
29.913955
30
0
11
13.894338
21
9.869413
31
0
39
0
210
0
220
0
230
1
0
LINE
5
7E
100
AcDbEntity
8
1
62
256
6
ByLayer
370
18
48
1
60
0
100
AcDbLine
10
10.105662
20
-9.869413
30
0
11
10.105662
21
-29.913955
31
0
39
0
210
0
220
0
230
1
0
LINE
5
7F
100
AcDbEntity
8
1
62
256
6
ByLayer
370
18
48
1
60
0
100
AcDbLine
10
10.538675
20
-9.349221
30
0
11
10.538675
21
-30.080593
31
0
39
0
210
0
220
0
230
1
0
LINE
5
80
100
AcDbEntity
8
SK1
62
256
6
ByLayer
370
18
48
1
60
0
100
AcDbLine
10
-36.500473
20
-21.157872
30
0
11
-36.500473
21
21.157996
31
0
39
0
210
0
220
0
230
1
0
LINE
5
82
100
AcDbEntity
8
SK1
62
256
6
ByLayer
370
18
48
1
60
0
100
AcDbLine
10
-38
20
20.239988
30
0
11
-38
21
-20.247289
31
0
39
0
210
0
220
0
230
1
0
LINE
5
83
100
AcDbEntity
8
1
62
256
6
ByLayer
370
18
48
1
60
0
100
AcDbLine
10
0.3
20
-31.5
30
0
11
0.3
21
31.5
31
0
39
0
210
0
220
0
230
1
0
LINE
5
84
100
AcDbEntity
8
1
62
256
6
ByLayer
370
18
48
1
60
0
100
AcDbLine
10
0
20
31.2
30
0
11
0
21
-31.2
31
0
39
0
210
0
220
0
230
1
0
LINE
5
85
100
AcDbEntity
8
SK1
62
256
6
ByLayer
370
18
48
1
60
0
100
AcDbLine
10
-2.2
20
-18.805799
30
0
11
-2.2
21
18.805799
31
0
39
0
210
0
220
0
230
1
0
LINE
5
86
100
AcDbEntity
8
80
62
256
6
ByLayer
370
13
48
1
60
0
100
AcDbLine
10
0
20
0
30
0
11
-17.348082
21
0
31
0
39
0
210
0
220
0
230
1
0
LINE
5
87
100
AcDbEntity
8
81
62
256
6
ByLayer
370
13
48
1
60
0
100
AcDbLine
10
105.161165
20
-8.838835
30
0
11
112.232233
21
-15.909903
31
0
39
0
210
0
220
0
230
1
0
LINE
5
88
100
AcDbEntity
8
1
62
256
6
ByLayer
370
18
48
1
60
0
100
AcDbLine
10
0.3
20
-31.5
30
0
11
22.279208
21
-31.5
31
0
39
0
210
0
220
0
230
1
0
LINE
5
89
100
AcDbEntity
8
1
62
256
6
ByLayer
370
18
48
1
60
0
100
AcDbLine
10
33.466308
20
36
30
0
11
33.323085
21
35.692858
31
0
39
0
210
0
220
0
230
1
0
LINE
5
8A
100
AcDbEntity
8
1
62
256
6
ByLayer
370
18
48
1
60
0
100
AcDbLine
10
32.235516
20
35
30
0
11
24.444753
21
35
31
0
39
0
210
0
220
0
230
1
0
LINE
5
8B
100
AcDbEntity
8
1
62
256
6
ByLayer
370
18
48
1
60
0
100
AcDbLine
10
24.058383
20
34.703528
30
0
11
23.438319
21
32.389417
31
0
39
0
210
0
220
0
230
1
0
LINE
5
8C
100
AcDbEntity
8
1
62
256
6
ByLayer
370
18
48
1
60
0
100
AcDbLine
10
22.279208
20
-31.5
30
0
11
0.3
21
-31.5
31
0
39
0
210
0
220
0
230
1
0
LINE
5
8D
100
AcDbEntity
8
1
62
256
6
ByLayer
370
18
48
1
60
0
100
AcDbLine
10
0.3
20
31.5
30
0
11
22.279208
21
31.5
31
0
39
0
210
0
220
0
230
1
0
LINE
5
8E
100
AcDbEntity
8
1
62
256
6
ByLayer
370
18
48
1
60
0
100
AcDbLine
10
23.438319
20
-32.389417
30
0
11
24.058383
21
-34.703528
31
0
39
0
210
0
220
0
230
1
0
LINE
5
8F
100
AcDbEntity
8
1
62
256
6
ByLayer
370
18
48
1
60
0
100
AcDbLine
10
24.444753
20
-35
30
0
11
32.235516
21
-35
31
0
39
0
210
0
220
0
230
1
0
LINE
5
90
100
AcDbEntity
8
1
62
256
6
ByLayer
370
18
48
1
60
0
100
AcDbLine
10
33.323085
20
-35.692858
30
0
11
33.466308
21
-36
31
0
39
0
210
0
220
0
230
1
0
LINE
5
91
100
AcDbEntity
8
1
62
256
6
ByLayer
370
18
48
1
60
0
100
AcDbLine
10
89.345671
20
-14.754834
30
0
11
88.724351
21
-13.254834
31
0
39
0
210
0
220
0
230
1
0
LINE
5
92
100
AcDbEntity
8
1
62
256
6
ByLayer
370
18
48
1
60
0
100
AcDbLine
10
68.100505
20
-36
30
0
11
89.345671
21
-14.754834
31
0
39
0
210
0
220
0
230
1
0
LINE
5
93
100
AcDbEntity
8
1
62
256
6
ByLayer
370
18
48
1
60
0
100
AcDbLine
10
34.012158
20
-36
30
0
11
68.100505
21
-36
31
0
39
0
210
0
220
0
230
1
0
LINE
5
94
100
AcDbEntity
8
1
62
256
6
ByLayer
370
18
48
1
60
0
100
AcDbLine
10
24.444753
20
-32.652386
30
0
11
32.235516
21
-32.652386
31
0
39
0
210
0
220
0
230
1
0
LINE
5
95
100
AcDbEntity
8
1
62
256
6
ByLayer
370
18
48
1
60
0
100
AcDbLine
10
59.025866
20
27.39697
30
0
11
36.322876
21
27.39697
31
0
39
0
210
0
220
0
230
1
0
LINE
5
96
100
AcDbEntity
8
1
62
256
6
ByLayer
370
18
48
1
60
0
100
AcDbLine
10
32.235516
20
14.177447
30
0
11
24.444753
21
14.177447
31
0
39
0
210
0
220
0
230
1
0
LINE
5
97
100
AcDbEntity
8
1
62
256
6
ByLayer
370
18
48
1
60
0
100
AcDbLine
10
88.724351
20
-13.254834
30
0
11
94.20101
21
-7.778175
31
0
39
0
210
0
220
0
230
1
0
LINE
5
98
100
AcDbEntity
8
1
62
256
6
ByLayer
370
18
48
1
60
0
100
AcDbLine
10
94.20101
20
-7.778175
30
0
11
59.025866
21
27.39697
31
0
39
0
210
0
220
0
230
1
0
LINE
5
99
100
AcDbEntity
8
1
62
256
6
ByLayer
370
18
48
1
60
0
100
AcDbLine
10
88.724351
20
-13.254834
30
0
11
24.040436
21
-13.254834
31
0
39
0
210
0
220
0
230
1
0
LINE
5
9A
100
AcDbEntity
8
1
62
256
6
ByLayer
370
18
48
1
60
0
100
AcDbLine
10
33.466308
20
36
30
0
11
39.88692
21
36
31
0
39
0
210
0
220
0
230
1
0
LINE
5
9B
100
AcDbEntity
8
1
62
256
6
ByLayer
370
18
48
1
60
0
100
AcDbLine
10
34.849432
20
-36
30
0
11
33.466308
21
-36
31
0
39
0
210
0
220
0
230
1
0
LINE
5
9C
100
AcDbEntity
8
1
62
256
6
ByLayer
370
18
48
1
60
0
100
AcDbLine
10
62.589358
20
36
30
0
11
36.700173
21
36
31
0
39
0
210
0
220
0
230
1
0
LINE
5
9D
100
AcDbEntity
8
1
62
256
6
ByLayer
370
18
48
1
60
0
100
AcDbLine
10
36.322876
20
27.39697
30
0
11
59.025866
21
27.39697
31
0
39
0
210
0
220
0
230
1
0
LINE
5
9E
100
AcDbEntity
8
1
62
256
6
ByLayer
370
18
48
1
60
0
100
AcDbLine
10
78
20
36
30
0
11
62.589358
21
36
31
0
39
0
210
0
220
0
230
1
0
LINE
5
9F
100
AcDbEntity
8
1
62
256
6
ByLayer
370
18
48
1
60
0
100
AcDbLine
10
101.979185
20
12.020815
30
0
11
78
21
36
31
0
39
0
210
0
220
0
230
1
0
LINE
5
A0
100
AcDbEntity
8
1
62
256
6
ByLayer
370
18
48
1
60
0
100
AcDbLine
10
101.979185
20
0
30
0
11
101.979185
21
12.020815
31
0
39
0
210
0
220
0
230
1
0
LINE
5
A1
100
AcDbEntity
8
1
62
256
6
ByLayer
370
18
48
1
60
0
100
AcDbLine
10
94.20101
20
-7.778175
30
0
11
101.979185
21
0
31
0
39
0
210
0
220
0
230
1
0
LINE
5
A2
100
AcDbEntity
8
1
62
256
6
ByLayer
370
18
48
1
60
0
100
AcDbLine
10
59.025866
20
27.39697
30
0
11
94.20101
21
-7.778175
31
0
39
0
210
0
220
0
230
1
0
LINE
5
A3
100
AcDbEntity
8
1
62
256
6
ByLayer
370
18
48
1
60
0
100
AcDbLine
10
62.589358
20
36
30
0
11
59.025866
21
27.39697
31
0
39
0
210
0
220
0
230
1
0
LINE
5
A4
100
AcDbEntity
8
1
62
256
6
ByLayer
370
18
48
1
60
0
100
AcDbLine
10
80.95545
20
18.902414
30
0
11
77.609385
21
18.005839
31
0
39
0
210
0
220
0
230
1
0
LINE
5
A5
100
AcDbEntity
8
1
62
256
6
ByLayer
370
18
48
1
60
0
100
AcDbLine
10
83.40494
20
16.452925
30
0
11
80.95545
21
18.902414
31
0
39
0
210
0
220
0
230
1
0
LINE
5
A6
100
AcDbEntity
8
1
62
256
6
ByLayer
370
18
48
1
60
0
100
AcDbLine
10
82.508364
20
13.106859
30
0
11
83.40494
21
16.452925
31
0
39
0
210
0
220
0
230
1
0
LINE
5
A7
100
AcDbEntity
8
1
62
256
6
ByLayer
370
18
48
1
60
0
100
AcDbLine
10
79.162299
20
12.210284
30
0
11
82.508364
21
13.106859
31
0
39
0
210
0
220
0
230
1
0
LINE
5
A8
100
AcDbEntity
8
1
62
256
6
ByLayer
370
18
48
1
60
0
100
AcDbLine
10
76.712809
20
14.659774
30
0
11
79.162299
21
12.210284
31
0
39
0
210
0
220
0
230
1
0
LINE
5
A9
100
AcDbEntity
8
1
62
256
6
ByLayer
370
18
48
1
60
0
100
AcDbLine
10
77.609385
20
18.005839
30
0
11
76.712809
21
14.659774
31
0
39
0
210
0
220
0
230
1
0
LINE
5
AA
100
AcDbEntity
8
1
62
256
6
ByLayer
370
18
48
1
60
0
100
AcDbLine
10
68.934635
20
30.92323
30
0
11
65.588569
21
30.026654
31
0
39
0
210
0
220
0
230
1
0
LINE
5
AB
100
AcDbEntity
8
1
62
256
6
ByLayer
370
18
48
1
60
0
100
AcDbLine
10
71.384124
20
28.47374
30
0
11
68.934635
21
30.92323
31
0
39
0
210
0
220
0
230
1
0
LINE
5
AC
100
AcDbEntity
8
1
62
256
6
ByLayer
370
18
48
1
60
0
100
AcDbLine
10
70.487549
20
25.127675
30
0
11
71.384124
21
28.47374
31
0
39
0
210
0
220
0
230
1
0
LINE
5
AD
100
AcDbEntity
8
1
62
256
6
ByLayer
370
18
48
1
60
0
100
AcDbLine
10
67.141484
20
24.231099
30
0
11
70.487549
21
25.127675
31
0
39
0
210
0
220
0
230
1
0
LINE
5
AE
100
AcDbEntity
8
1
62
256
6
ByLayer
370
18
48
1
60
0
100
AcDbLine
10
64.691994
20
26.680589
30
0
11
67.141484
21
24.231099
31
0
39
0
210
0
220
0
230
1
0
LINE
5
AF
100
AcDbEntity
8
1
62
256
6
ByLayer
370
18
48
1
60
0
100
AcDbLine
10
65.588569
20
30.026654
30
0
11
64.691994
21
26.680589
31
0
39
0
210
0
220
0
230
1
0
LINE
5
B0
100
AcDbEntity
8
1
62
256
6
ByLayer
370
18
48
1
60
0
100
AcDbLine
10
92.976265
20
6.881599
30
0
11
89.6302
21
5.985024
31
0
39
0
210
0
220
0
230
1
0
LINE
5
B1
100
AcDbEntity
8
1
62
256
6
ByLayer
370
18
48
1
60
0
100
AcDbLine
10
95.425755
20
4.432109
30
0
11
92.976265
21
6.881599
31
0
39
0
210
0
220
0
230
1
0
LINE
5
B2
100
AcDbEntity
8
1
62
256
6
ByLayer
370
18
48
1
60
0
100
AcDbLine
10
94.52918
20
1.086044
30
0
11
95.425755
21
4.432109
31
0
39
0
210
0
220
0
230
1
0
LINE
5
B3
100
AcDbEntity
8
1
62
256
6
ByLayer
370
18
48
1
60
0
100
AcDbLine
10
91.183114
20
0.189469
30
0
11
94.52918
21
1.086044
31
0
39
0
210
0
220
0
230
1
0
LINE
5
B4
100
AcDbEntity
8
1
62
256
6
ByLayer
370
18
48
1
60
0
100
AcDbLine
10
88.733625
20
2.638958
30
0
11
91.183114
21
0.189469
31
0
39
0
210
0
220
0
230
1
0
LINE
5
B5
100
AcDbEntity
8
1
62
256
6
ByLayer
370
18
48
1
60
0
100
AcDbLine
10
89.6302
20
5.985024
30
0
11
88.733625
21
2.638958
31
0
39
0
210
0
220
0
230
1
0
LINE
5
B6
100
AcDbEntity
8
1
62
256
6
ByLayer
370
18
48
1
60
0
100
AcDbLine
10
92.722246
20
-21.277754
30
0
11
94.20101
21
-19.79899
31
0
39
0
210
0
220
0
230
1
0
LINE
5
B7
100
AcDbEntity
8
1
62
256
6
ByLayer
370
18
48
1
60
0
100
AcDbLine
10
101.979185
20
-2.12132
30
0
11
101.979185
21
0
31
0
39
0
210
0
220
0
230
1
0
LINE
5
B8
100
AcDbEntity
8
1
62
256
6
ByLayer
370
18
48
1
60
0
100
AcDbLine
10
94.82233
20
-9.278175
30
0
11
101.979185
21
-2.12132
31
0
39
0
210
0
220
0
230
1
0
LINE
5
B9
100
AcDbEntity
8
1
62
256
6
ByLayer
370
18
48
1
60
0
100
AcDbLine
10
101.979185
20
0
30
0
11
94.20101
21
-7.778175
31
0
39
0
210
0
220
0
230
1
0
LINE
5
BA
100
AcDbEntity
8
1
62
256
6
ByLayer
370
18
48
1
60
0
100
AcDbLine
10
89.345671
20
-14.754834
30
0
11
94.82233
21
-9.278175
31
0
39
0
210
0
220
0
230
1
0
LINE
5
BB
100
AcDbEntity
8
1
62
256
6
ByLayer
370
18
48
1
60
0
100
AcDbLine
10
88.724351
20
-13.254834
30
0
11
89.345671
21
-14.754834
31
0
39
0
210
0
220
0
230
1
0
LINE
5
BC
100
AcDbEntity
8
1
62
256
6
ByLayer
370
18
48
1
60
0
100
AcDbLine
10
94.20101
20
-7.778175
30
0
11
88.724351
21
-13.254834
31
0
39
0
210
0
220
0
230
1
0
LINE
5
BD
100
AcDbEntity
8
1
62
256
6
ByLayer
370
18
48
1
60
0
100
AcDbLine
10
77.292893
20
36
30
0
11
42.361818
21
36
31
0
39
0
210
0
220
0
230
1
0
LINE
5
BE
100
AcDbEntity
8
1
62
256
6
ByLayer
370
18
48
1
60
0
100
AcDbLine
10
94.766696
20
-16.404877
30
0
11
96.180909
21
-17.819091
31
0
39
0
210
0
220
0
230
1
0
LINE
5
BF
100
AcDbEntity
8
1
62
256
6
ByLayer
370
18
48
1
60
0
100
AcDbLine
10
112.585786
20
-1.414214
30
0
11
112.585786
21
1.06066
31
0
39
0
210
0
220
0
230
1
0
LINE
5
C0
100
AcDbEntity
8
1
62
256
6
ByLayer
370
18
48
1
60
0
100
AcDbLine
10
78
20
36
30
0
11
77.292893
21
36
31
0
39
0
210
0
220
0
230
1
0
LINE
5
C1
100
AcDbEntity
8
1
62
256
6
ByLayer
370
18
48
1
60
0
100
AcDbLine
10
112.585786
20
1.414214
30
0
11
78
21
36
31
0
39
0
210
0
220
0
230
1
0
LINE
5
C2
100
AcDbEntity
8
1
62
256
6
ByLayer
370
18
48
1
60
0
100
AcDbLine
10
112.585786
20
1.06066
30
0
11
112.585786
21
1.414214
31
0
39
0
210
0
220
0
230
1
0
LINE
5
C3
100
AcDbEntity
8
1
62
256
6
ByLayer
370
18
48
1
60
0
100
AcDbLine
10
91.372583
20
-12.727922
30
0
11
80.058875
21
-24.041631
31
0
39
0
210
0
220
0
230
1
0
LINE
5
C4
100
AcDbEntity
8
1
62
256
6
ByLayer
370
18
48
1
60
0
100
AcDbLine
10
22.279208
20
-31.5
30
0
11
22.279208
21
31.5
31
0
39
0
210
0
220
0
230
1
0
LINE
5
C5
100
AcDbEntity
8
1
62
256
6
ByLayer
370
18
48
1
60
0
100
AcDbLine
10
23.438319
20
-19.08663
30
0
11
23.438319
21
-5.007429
31
0
39
0
210
0
220
0
230
1
0
LINE
5
C6
100
AcDbEntity
8
1
62
256
6
ByLayer
370
18
48
1
60
0
100
AcDbLine
10
33.323085
20
35.692858
30
0
11
33.323085
21
15.81076
31
0
39
0
210
0
220
0
230
1
0
LINE
5
C7
100
AcDbEntity
8
1
62
256
6
ByLayer
370
18
48
1
60
0
100
AcDbLine
10
33.323085
20
-33.807312
30
0
11
33.323085
21
-35.692858
31
0
39
0
210
0
220
0
230
1
0
LINE
5
C8
100
AcDbEntity
8
1
62
256
6
ByLayer
370
18
48
1
60
0
100
AcDbLine
10
32.235516
20
-35
30
0
11
32.235516
21
-32.652386
31
0
39
0
210
0
220
0
230
1
0
LINE
5
C9
100
AcDbEntity
8
1
62
256
6
ByLayer
370
18
48
1
60
0
100
AcDbLine
10
32.235516
20
14.177447
30
0
11
32.235516
21
35
31
0
39
0
210
0
220
0
230
1
0
LINE
5
CA
100
AcDbEntity
8
1
62
256
6
ByLayer
370
18
48
1
60
0
100
AcDbLine
10
24.058383
20
-32.123069
30
0
11
24.058383
21
-34.703528
31
0
39
0
210
0
220
0
230
1
0
LINE
5
CB
100
AcDbEntity
8
1
62
256
6
ByLayer
370
18
48
1
60
0
100
AcDbLine
10
24.058383
20
34.703528
30
0
11
24.058383
21
13.42888
31
0
39
0
210
0
220
0
230
1
0
LINE
5
CC
100
AcDbEntity
8
1
62
256
6
ByLayer
370
18
48
1
60
0
100
AcDbLine
10
23.438319
20
-26.168204
30
0
11
23.438319
21
-32.389417
31
0
39
0
210
0
220
0
230
1
0
LINE
5
CD
100
AcDbEntity
8
1
62
256
6
ByLayer
370
18
48
1
60
0
100
AcDbLine
10
23.438319
20
32.389417
30
0
11
23.438319
21
5.007429
31
0
39
0
210
0
220
0
230
1
0
LINE
5
CE
100
AcDbEntity
8
1
62
256
6
ByLayer
370
18
48
1
60
0
100
AcDbLine
10
93.187396
20
-14.825578
30
0
11
94.766696
21
-16.404877
31
0
39
0
210
0
220
0
230
1
0
LINE
5
CF
100
AcDbEntity
8
SK3
62
256
6
ByLayer
370
13
48
0.05
60
0
100
AcDbLine
10
42.644661
20
36
30
0
11
91.372583
21
-12.727922
31
0
39
0
210
0
220
0
230
1
0
LINE
5
D1
100
AcDbEntity
8
1
62
256
6
ByLayer
370
18
48
1
60
0
100
AcDbLine
10
91.64518
20
-14.576645
30
0
11
85.227454
21
-20.994372
31
0
39
0
210
0
220
0
230
1
0
LINE
5
D2
100
AcDbEntity
8
1
62
256
6
ByLayer
370
18
48
1
60
0
100
AcDbLine
10
90.198471
20
-13.902034
30
0
11
92.598911
21
-15.021377
31
0
39
0
210
0
220
0
230
1
0
LINE
5
D3
100
AcDbEntity
8
1
62
256
6
ByLayer
370
18
48
1
60
0
100
AcDbLine
10
93.960908
20
-10.139597
30
0
11
94.712002
21
-10.489838
31
0
39
0
210
0
220
0
230
1
0
LINE
5
D4
100
AcDbEntity
8
1
62
256
6
ByLayer
370
18
48
1
60
0
100
AcDbLine
10
94.20101
20
-19.79899
30
0
11
112.585786
21
-1.414214
31
0
39
0
210
0
220
0
230
1
0
LINE
5
D5
100
AcDbEntity
8
1
62
256
6
ByLayer
370
18
48
1
60
0
100
AcDbLine
10
112.585786
20
1.414214
30
0
11
94.766696
21
-16.404877
31
0
39
0
210
0
220
0
230
1
0
LINE
5
D6
100
AcDbEntity
8
1
62
256
6
ByLayer
370
18
48
1
60
0
100
AcDbLine
10
94.20101
20
-19.79899
30
0
11
94.20101
21
-15.839192
31
0
39
0
210
0
220
0
230
1
0
LINE
5
D7
100
AcDbEntity
8
4
62
256
6
ByLayer
370
13
48
0.05
60
0
100
AcDbLine
10
0
20
0
30
0
11
112.585786
21
0
31
0
39
0
210
0
220
0
230
1
0
LINE
5
D9
100
AcDbEntity
8
SK4
62
256
6
ByLayer
370
18
48
0.05
60
0
100
AcDbLine
10
-40.800973
20
0
30
0
11
116.461559
21
0
31
0
39
0
210
0
220
0
230
1
0
MTEXT
5
119
100
AcDbEntity
8
SK6
62
256
6
ByLayer
370
18
48
1
60
0
100
AcDbMText
10
3.300072
20
40.97432
30
0
210
0
220
0
230
1
1
\W0.7409;C6-ASHL45-114-25HP
40
3.5
41
0
44
1.084337
50
0
71
7
72
5
7
iso_b_vert
0
DIMENSION
5
12B
100
AcDbEntity
8
SK2
62
256
6
ByLayer
370
13
48
1
60
0
100
AcDbDimension
2
DimnDraft3D1
10
31.5
20
51.263026
30
0
11
5.202632
21
51.263026
31
0
70
32
71
5
72
1
41
1
210
0
220
0
230
1
3
Standard
100
AcDbAlignedDimension
13
-31.5
23
1.7
33
0
14
31.5
24
1.7
34
0
50
0
100
AcDbRotatedDimension
1001
ACAD
1000
DSTYLE
1002
{
1070
   279
1070
     0
1070
   172
1070
     1
1070
   173
1070
     1
1070
   340
1005
11A
1070
   271
1070
     2
1070
    77
1070
     1
1070
    73
1070
     0
1070
   171
1070
     3
1070
   274
1070
     3
1070
   177
1070
     7
1070
   176
1070
     7
1070
   178
1070
     7
1070
    78
1070
     8
1070
    41
1041
3.175
1070
   147
1041
1.5
1070
    42
1041
2.0
1070
    44
1041
2.0
1070
   140
1041
3.0
1070
   343
1005
12C
1070
   344
1005
12C
1002
}
0
DIMENSION
5
140
100
AcDbEntity
8
SK2
62
256
6
ByLayer
370
13
48
1
60
0
100
AcDbDimension
2
DimnDraft3D2
10
116.461559
20
0
30
0
11
-5.426143
21
-127.099868
31
0
70
34
71
5
72
1
41
1
210
0
220
0
230
1
3
Standard
100
AcDb2LineAngularDimension
13
112.585786
23
1.414214
33
0
14
78
24
36
34
0
15
-40.800973
25
0
35
0
16
-6.574193
26
-129.871506
36
0
40
0
0
DIMENSION
5
14F
100
AcDbEntity
8
2
62
256
6
ByLayer
370
13
48
1
60
0
100
AcDbDimension
2
DimnDraft3D3
10
114
20
-48.861086
30
0
11
54.678947
21
-48.861086
31
0
70
32
71
5
72
1
41
1
210
0
220
0
230
1
3
Standard
100
AcDbAlignedDimension
13
0
23
-33.2
33
0
14
114
24
-2
34
0
50
0
100
AcDbRotatedDimension
1001
ACAD
1000
DSTYLE
1002
{
1070
   279
1070
     0
1070
   172
1070
     1
1070
   173
1070
     1
1070
   340
1005
11A
1070
   271
1070
     1
1070
    77
1070
     1
1070
    73
1070
     0
1070
   171
1070
     3
1070
   274
1070
     3
1070
   177
1070
     7
1070
   176
1070
     7
1070
   178
1070
     7
1070
    78
1070
     8
1070
    41
1041
3.175
1070
   147
1041
1.5
1070
    42
1041
2.0
1070
    44
1041
2.0
1070
   140
1041
3.0
1070
   343
1005
12C
1070
   344
1005
12C
1002
}
0
DIMENSION
5
15D
100
AcDbEntity
8
SK2
62
256
6
ByLayer
370
13
48
1
60
0
100
AcDbDimension
2
DimnDraft3D4
10
139.619226
20
0
30
0
11
139.619226
21
-19.792105
31
0
70
32
71
5
72
1
41
1
210
0
220
0
230
1
3
Standard
100
AcDbAlignedDimension
13
70.100505
23
-36
33
0
14
118.461559
24
0
34
0
50
90
100
AcDbRotatedDimension
1001
ACAD
1000
DSTYLE
1002
{
1070
    74
1070
     0
1070
   279
1070
     0
1070
   172
1070
     1
1070
   173
1070
     1
1070
   340
1005
11A
1070
   271
1070
     2
1070
    77
1070
     1
1070
    73
1070
     0
1070
   171
1070
     3
1070
   274
1070
     3
1070
   177
1070
     7
1070
   176
1070
     7
1070
   178
1070
     7
1070
    78
1070
     8
1070
    41
1041
3.175
1070
   147
1041
1.5
1070
    42
1041
2.0
1070
    44
1041
2.0
1070
   140
1041
3.0
1070
   343
1005
0
1070
   344
1005
0
1002
}
0
DIMENSION
5
16B
100
AcDbEntity
8
SK2
62
256
6
ByLayer
370
13
48
1
60
0
100
AcDbDimension
2
DimnDraft3D5
10
139.619226
20
36
30
0
11
139.619226
21
7.06991
31
0
70
32
71
5
72
1
41
1
210
0
220
0
230
1
3
Standard
100
AcDbAlignedDimension
13
118.461559
23
0
33
0
14
79.292893
24
36
34
0
50
90
100
AcDbRotatedDimension
1001
ACAD
1000
DSTYLE
1002
{
1070
    74
1070
     0
1070
   279
1070
     0
1070
   172
1070
     1
1070
   173
1070
     1
1070
   340
1005
11A
1070
   271
1070
     2
1070
    77
1070
     1
1070
    73
1070
     0
1070
   171
1070
     3
1070
   274
1070
     3
1070
   177
1070
     7
1070
   176
1070
     7
1070
   178
1070
     7
1070
    78
1070
     8
1070
    41
1041
3.175
1070
   147
1041
1.5
1070
    42
1041
2.0
1070
    44
1041
2.0
1070
   140
1041
3.0
1070
   343
1005
0
1070
   344
1005
0
1002
}
0
ENDSEC
0
SECTION
2
OBJECTS
0
DICTIONARY
5
1d7
330
0
100
AcDbDictionary
280
0
281
1
3
ACAD_GROUP
350
1d8
3
ACAD_MLINESTYLE
350
1d9
0
DICTIONARY
5
1d8
330
0
100
AcDbDictionary
280
0
281
1
0
DICTIONARY
5
1d9
330
0
100
AcDbDictionary
280
0
281
1
3
Standard
350
18
0
MLINESTYLE
5
18
330
1d9
100
AcDbMlineStyle
2
Standard
70
0
3

62
256
51
90
52
90
71
2
49
-0.5
62
256
6
ByLayer
49
0.5
62
256
6
ByLayer
0
RASTERVARIABLES
5
1c4
330

100
AcDbRasterVariables
90
0
70
1
71
1
72
1
0
ENDSEC
0
EOF
