0
SECTION
2
HEADER
9
$ACADVER
1
AC1015
9
$DWGCODEPAGE
3
ANSI_1252
9
$HANDSEED
5
229
9
$ANGBASE
50
0
9
$ANGDIR
70
0
9
$ATTMODE
70
1
9
$AUNITS
70
0
9
$AUPREC
70
0
9
$CECOLOR
62
256
9
$CELTSCALE
40
1
9
$CELTYPE
6
ByLayer
9
$CELWEIGHT
370
18
9
$CLAYER
8
0
9
$CMLJUST
70
0
9
$CMLSCALE
40
1
9
$CMLSTYLE
2
Standard
9
$DIMSTYLE
2
Standard
9
$TEXTSIZE
40
0.2
9
$TEXTSTYLE
7
Standard
9
$LUNITS
70
2
9
$LUPREC
70
4
9
$EXTNAMES
290
1
9
$INSUNITS
70
4
9
$LTSCALE
40
1
9
$LWDISPLAY
290
1
9
$PDMODE
70
0
9
$PDSIZE
40
0
9
$PLINEGEN
70
0
0
ENDSEC
0
SECTION
2
CLASSES
0
CLASS
1
RASTERVARIABLES
2
AcDbRasterVariables
3
ISM
90
0
280
0
281
0
0
ENDSEC
0
SECTION
2
TABLES
0
TABLE
2
VPORT
5
21f
100
AcDbSymbolTable
0
VPORT
5
1
100
AcDbSymbolTableRecord
100
AcDbViewportTableRecord
2
*Active
70
0
10
0
20
0
11
1
21
1
12
-1
22
1
13
0
23
0
14
0.5
24
0.5
15
10
25
10
16
0
26
0
36
1
17
0
27
0
37
0
0
ENDTAB
0
TABLE
2
LTYPE
5
220
100
AcDbSymbolTable
0
LTYPE
5
14
100
AcDbSymbolTableRecord
100
AcDbLinetypeTableRecord
70
0
2
ByBlock
3

72
65
73
0
40
0
0
LTYPE
5
15
100
AcDbSymbolTableRecord
100
AcDbLinetypeTableRecord
70
0
2
ByLayer
3

72
65
73
0
40
0
0
LTYPE
5
16
100
AcDbSymbolTableRecord
100
AcDbLinetypeTableRecord
70
0
2
CONTINUOUS
3
Solid line
72
65
73
0
40
0
0
LTYPE
5
6A
100
AcDbSymbolTableRecord
100
AcDbLinetypeTableRecord
70
0
2
CENTER
3
____ _ ____ _ ____ _ ____
72
65
73
4
40
47.5
49
22
74
0
49
-8.5
74
0
49
8.5
74
0
49
-8.5
74
0
0
LTYPE
5
6B
100
AcDbSymbolTableRecord
100
AcDbLinetypeTableRecord
70
0
2
DASHED
3
__ __ __ __ __ __ __ __ __
72
65
73
2
40
25.72
49
12.86
74
0
49
-12.86
74
0
0
ENDTAB
0
TABLE
2
LAYER
5
221
100
AcDbSymbolTable
0
LAYER
5
10
100
AcDbSymbolTableRecord
100
AcDbLayerTableRecord
2
0
70
0
62
7
6
CONTINUOUS
290
1
370
-3
390
0
0
LAYER
5
6D
100
AcDbSymbolTableRecord
100
AcDbLayerTableRecord
2
80
70
0
62
-6
6
CONTINUOUS
290
1
370
-3
390
0
0
LAYER
5
6F
100
AcDbSymbolTableRecord
100
AcDbLayerTableRecord
2
81
70
0
62
-3
6
CONTINUOUS
290
1
370
-3
390
0
0
LAYER
5
71
100
AcDbSymbolTableRecord
100
AcDbLayerTableRecord
2
1
70
0
62
4
6
CONTINUOUS
290
1
370
-3
390
0
0
LAYER
5
CF
100
AcDbSymbolTableRecord
100
AcDbLayerTableRecord
2
4
70
0
62
-2
6
CENTER
290
1
370
-3
390
0
0
LAYER
5
188
100
AcDbSymbolTableRecord
100
AcDbLayerTableRecord
2
2
70
0
62
7
6
CONTINUOUS
290
1
370
-3
390
0
0
LAYER
5
20a
100
AcDbSymbolTableRecord
100
AcDbLayerTableRecord
2
SK1
70
0
62
4
6
CONTINUOUS
290
1
370
-3
390
0
0
LAYER
5
20b
100
AcDbSymbolTableRecord
100
AcDbLayerTableRecord
2
SK3
70
0
62
1
6
DASHED
290
1
370
-3
390
0
0
LAYER
5
20c
100
AcDbSymbolTableRecord
100
AcDbLayerTableRecord
2
SK4
70
0
62
2
6
CENTER
290
1
370
-3
390
0
0
LAYER
5
20d
100
AcDbSymbolTableRecord
100
AcDbLayerTableRecord
2
SK6
70
0
62
5
6
CONTINUOUS
290
1
370
-3
390
0
0
LAYER
5
20e
100
AcDbSymbolTableRecord
100
AcDbLayerTableRecord
2
SK2
70
0
62
7
6
CONTINUOUS
290
1
370
-3
390
0
0
ENDTAB
0
TABLE
2
STYLE
5
222
100
AcDbSymbolTable
0
STYLE
5
11
100
AcDbSymbolTableRecord
100
AcDbTextStyleTableRecord
2
Standard
3
txt
70
0
71
0
40
0
41
1
42
0
50
0
0
STYLE
5
143
100
AcDbSymbolTableRecord
100
AcDbTextStyleTableRecord
2
iso_b_vert
3
simplex.shx
70
0
71
0
40
0
41
1
42
0
50
0
0
STYLE
5
144
100
AcDbSymbolTableRecord
100
AcDbTextStyleTableRecord
2
DWGDirectTextStyle
3
simplex
70
0
71
0
40
0
41
1
42
0
50
0
0
ENDTAB
0
TABLE
2
DIMSTYLE
5
223
100
AcDbSymbolTable
100
AcDbDimStyleTable
0
DIMSTYLE
105
27
100
AcDbSymbolTableRecord
100
AcDbDimStyleTableRecord
2
Standard
70
0
3
<>
41
0.18
42
0.0625
44
0.18
140
0.18
147
0.09
73
0
74
0
77
1
271
2
275
0
278
52
280
0
340
11
0
ENDTAB
0
TABLE
2
VIEW
5
224
100
AcDbSymbolTable
0
ENDTAB
0
TABLE
2
UCS
5
225
100
AcDbSymbolTable
0
ENDTAB
0
TABLE
2
APPID
5
226
100
AcDbSymbolTable
0
APPID
5
12
100
AcDbSymbolTableRecord
100
AcDbRegAppTableRecord
2
ACAD
70
0
0
ENDTAB
0
TABLE
2
BLOCK_RECORD
5
227
100
AcDbSymbolTable
0
BLOCK_RECORD
5
1F
100
AcDbSymbolTableRecord
100
AcDbBlockTableRecord
2
*Model_Space
340
0
70
0
0
BLOCK_RECORD
5
1B
100
AcDbSymbolTableRecord
100
AcDbBlockTableRecord
2
*Paper_Space
340
0
70
0
0
BLOCK_RECORD
5
23
100
AcDbSymbolTableRecord
100
AcDbBlockTableRecord
2
*Paper_Space0
340
0
70
0
0
BLOCK_RECORD
5
146
100
AcDbSymbolTableRecord
100
AcDbBlockTableRecord
2
DimnDraft3D1
340
0
70
0
0
BLOCK_RECORD
5
155
100
AcDbSymbolTableRecord
100
AcDbBlockTableRecord
2
_CLOSED
340
0
70
0
0
BLOCK_RECORD
5
15C
100
AcDbSymbolTableRecord
100
AcDbBlockTableRecord
2
DimnDraft3D2
340
0
70
0
0
BLOCK_RECORD
5
16A
100
AcDbSymbolTableRecord
100
AcDbBlockTableRecord
2
DimnDraft3D3
340
0
70
0
0
BLOCK_RECORD
5
178
100
AcDbSymbolTableRecord
100
AcDbBlockTableRecord
2
DimnDraft3D4
340
0
70
0
0
BLOCK_RECORD
5
186
100
AcDbSymbolTableRecord
100
AcDbBlockTableRecord
2
DimnDraft3D5
340
0
70
0
0
BLOCK_RECORD
5
195
100
AcDbSymbolTableRecord
100
AcDbBlockTableRecord
2
DimnDraft3D6
340
0
70
0
0
BLOCK_RECORD
5
1A3
100
AcDbSymbolTableRecord
100
AcDbBlockTableRecord
2
DimnDraft3D7
340
0
70
0
0
ENDTAB
0
ENDSEC
0
SECTION
2
BLOCKS
0
BLOCK
5
20
100
AcDbEntity
8
0
100
AcDbBlockBegin
2
*Model_Space
70
0
10
0
20
0
30
0
3
*Model_Space
0
ENDBLK
5
21
100
AcDbEntity
8
0
100
AcDbBlockEnd
0
BLOCK
5
1C
100
AcDbEntity
8
0
100
AcDbBlockBegin
2
*Paper_Space
70
0
10
0
20
0
30
0
3
*Paper_Space
0
ENDBLK
5
1D
100
AcDbEntity
8
0
100
AcDbBlockEnd
0
BLOCK
5
24
100
AcDbEntity
8
0
100
AcDbBlockBegin
2
*Paper_Space0
70
0
10
0
20
0
30
0
3
*Paper_Space0
0
ENDBLK
5
25
100
AcDbEntity
8
0
100
AcDbBlockEnd
0
BLOCK
5
152
100
AcDbEntity
8
0
100
AcDbBlockBegin
2
DimnDraft3D1
70
0
10
0
20
0
30
0
3
DimnDraft3D1
0
MTEXT
5
147
100
AcDbEntity
8
SK2
62
256
6
ByLayer
370
18
48
1
60
0
100
AcDbMText
10
-53.413124
20
-4.452632
30
0
210
0
220
0
230
1
1
\W1.2949;%%c63
40
3
41
0
44
1.084337
50
90
71
7
72
5
7
iso_b_vert
0
LINE
5
149
100
AcDbEntity
8
SK2
62
256
6
ByLayer
370
13
48
1
60
0
100
AcDbLine
10
-1.7
20
31.5
30
0
11
-53.913124
21
31.5
31
0
39
0
210
0
220
0
230
1
0
LINE
5
14A
100
AcDbEntity
8
SK2
62
256
6
ByLayer
370
13
48
1
60
0
100
AcDbLine
10
-1.7
20
-31.5
30
0
11
-53.913124
21
-31.5
31
0
39
0
210
0
220
0
230
1
0
LINE
5
14B
100
AcDbEntity
8
SK2
62
256
6
ByLayer
370
13
48
1
60
0
100
AcDbLine
10
-51.913124
20
31.5
30
0
11
-51.913124
21
-31.5
31
0
39
0
210
0
220
0
230
1
0
LINE
5
14C
100
AcDbEntity
8
SK2
62
256
6
ByLayer
370
13
48
1
60
0
100
AcDbLine
10
-51.913124
20
31.5
30
0
11
-51.495127
21
28.325002
31
0
39
0
210
0
220
0
230
1
0
LINE
5
14D
100
AcDbEntity
8
SK2
62
256
6
ByLayer
370
13
48
1
60
0
100
AcDbLine
10
-51.913124
20
31.5
30
0
11
-52.331121
21
28.324998
31
0
39
0
210
0
220
0
230
1
0
LINE
5
14E
100
AcDbEntity
8
SK2
62
256
6
ByLayer
370
13
48
1
60
0
100
AcDbLine
10
-51.495127
20
28.325002
30
0
11
-52.331121
21
28.324998
31
0
39
0
210
0
220
0
230
1
0
LINE
5
14F
100
AcDbEntity
8
SK2
62
256
6
ByLayer
370
13
48
1
60
0
100
AcDbLine
10
-51.913124
20
-31.5
30
0
11
-52.331121
21
-28.325002
31
0
39
0
210
0
220
0
230
1
0
LINE
5
150
100
AcDbEntity
8
SK2
62
256
6
ByLayer
370
13
48
1
60
0
100
AcDbLine
10
-51.913124
20
-31.5
30
0
11
-51.495127
21
-28.324998
31
0
39
0
210
0
220
0
230
1
0
LINE
5
151
100
AcDbEntity
8
SK2
62
256
6
ByLayer
370
13
48
1
60
0
100
AcDbLine
10
-52.331121
20
-28.325002
30
0
11
-51.495127
21
-28.324998
31
0
39
0
210
0
220
0
230
1
0
ENDBLK
5
153
100
AcDbEntity
8
0
100
AcDbBlockEnd
0
BLOCK
5
156
100
AcDbEntity
8
0
100
AcDbBlockBegin
2
_CLOSED
70
0
10
0
20
0
30
0
3
_CLOSED
0
LINE
5
158
100
AcDbEntity
8
0
62
256
6
ByLayer
370
-2
48
1
60
0
100
AcDbLine
10
-1
20
0.166667
30
0
11
0
21
0
31
0
39
0
210
0
220
0
230
1
0
LINE
5
159
100
AcDbEntity
8
0
62
256
6
ByLayer
370
-2
48
1
60
0
100
AcDbLine
10
0
20
0
30
0
11
-1
21
-0.166667
31
0
39
0
210
0
220
0
230
1
0
LINE
5
15A
100
AcDbEntity
8
0
62
256
6
ByLayer
370
-2
48
1
60
0
100
AcDbLine
10
-1
20
0.166667
30
0
11
-1
21
-0.166667
31
0
39
0
210
0
220
0
230
1
0
LINE
5
15B
100
AcDbEntity
8
0
62
256
6
ByLayer
370
-2
48
1
60
0
100
AcDbLine
10
0
20
0
30
0
11
-1
21
0
31
0
39
0
210
0
220
0
230
1
0
ENDBLK
5
157
100
AcDbEntity
8
0
100
AcDbBlockEnd
0
BLOCK
5
167
100
AcDbEntity
8
0
100
AcDbBlockBegin
2
DimnDraft3D2
70
0
10
0
20
0
30
0
3
DimnDraft3D2
0
MTEXT
5
15D
100
AcDbEntity
8
SK2
62
256
6
ByLayer
370
18
48
1
60
0
100
AcDbMText
10
142.334791
20
-8.627632
30
0
210
0
220
0
230
1
1
\W0.5144;16
40
3
41
0
44
1.084337
50
90
71
7
72
5
7
iso_b_vert
0
LINE
5
15E
100
AcDbEntity
8
SK2
62
256
6
ByLayer
370
13
48
1
60
0
100
AcDbLine
10
131.328124
20
0
30
0
11
145.084791
21
0
31
0
39
0
210
0
220
0
230
1
0
LINE
5
15F
100
AcDbEntity
8
SK2
62
256
6
ByLayer
370
13
48
1
60
0
100
AcDbLine
10
127
20
-16
30
0
11
145.084791
21
-16
31
0
39
0
210
0
220
0
230
1
0
LINE
5
160
100
AcDbEntity
8
SK2
62
256
6
ByLayer
370
13
48
1
60
0
100
AcDbLine
10
143.084791
20
0
30
0
11
143.084791
21
-16
31
0
39
0
210
0
220
0
230
1
0
LINE
5
161
100
AcDbEntity
8
SK2
62
256
6
ByLayer
370
13
48
1
60
0
100
AcDbLine
10
143.084791
20
0
30
0
11
143.502788
21
-3.174998
31
0
39
0
210
0
220
0
230
1
0
LINE
5
162
100
AcDbEntity
8
SK2
62
256
6
ByLayer
370
13
48
1
60
0
100
AcDbLine
10
143.084791
20
0
30
0
11
142.666795
21
-3.175002
31
0
39
0
210
0
220
0
230
1
0
LINE
5
163
100
AcDbEntity
8
SK2
62
256
6
ByLayer
370
13
48
1
60
0
100
AcDbLine
10
143.502788
20
-3.174998
30
0
11
142.666795
21
-3.175002
31
0
39
0
210
0
220
0
230
1
0
LINE
5
164
100
AcDbEntity
8
SK2
62
256
6
ByLayer
370
13
48
1
60
0
100
AcDbLine
10
143.084791
20
-16
30
0
11
142.666795
21
-12.825002
31
0
39
0
210
0
220
0
230
1
0
LINE
5
165
100
AcDbEntity
8
SK2
62
256
6
ByLayer
370
13
48
1
60
0
100
AcDbLine
10
143.084791
20
-16
30
0
11
143.502788
21
-12.824998
31
0
39
0
210
0
220
0
230
1
0
LINE
5
166
100
AcDbEntity
8
SK2
62
256
6
ByLayer
370
13
48
1
60
0
100
AcDbLine
10
142.666795
20
-12.825002
30
0
11
143.502788
21
-12.824998
31
0
39
0
210
0
220
0
230
1
0
ENDBLK
5
168
100
AcDbEntity
8
0
100
AcDbBlockEnd
0
BLOCK
5
175
100
AcDbEntity
8
0
100
AcDbBlockBegin
2
DimnDraft3D3
70
0
10
0
20
0
30
0
3
DimnDraft3D3
0
MTEXT
5
16B
100
AcDbEntity
8
SK2
62
256
6
ByLayer
370
18
48
1
60
0
100
AcDbMText
10
9.957895
20
-48.357058
30
0
210
0
220
0
230
1
1
\W0.6740;22
40
3
41
0
44
1.084337
50
0
71
7
72
5
7
iso_b_vert
0
LINE
5
16C
100
AcDbEntity
8
SK2
62
256
6
ByLayer
370
13
48
1
60
0
100
AcDbLine
10
0
20
-33.2
30
0
11
0
21
-51.107058
31
0
39
0
210
0
220
0
230
1
0
LINE
5
16D
100
AcDbEntity
8
SK2
62
256
6
ByLayer
370
13
48
1
60
0
100
AcDbLine
10
22
20
-35
30
0
11
22
21
-51.107058
31
0
39
0
210
0
220
0
230
1
0
LINE
5
16E
100
AcDbEntity
8
SK2
62
256
6
ByLayer
370
13
48
1
60
0
100
AcDbLine
10
0
20
-49.107058
30
0
11
22
21
-49.107058
31
0
39
0
210
0
220
0
230
1
0
LINE
5
16F
100
AcDbEntity
8
SK2
62
256
6
ByLayer
370
13
48
1
60
0
100
AcDbLine
10
0
20
-49.107058
30
0
11
3.174998
21
-48.689061
31
0
39
0
210
0
220
0
230
1
0
LINE
5
170
100
AcDbEntity
8
SK2
62
256
6
ByLayer
370
13
48
1
60
0
100
AcDbLine
10
0
20
-49.107058
30
0
11
3.175002
21
-49.525055
31
0
39
0
210
0
220
0
230
1
0
LINE
5
171
100
AcDbEntity
8
SK2
62
256
6
ByLayer
370
13
48
1
60
0
100
AcDbLine
10
3.174998
20
-48.689061
30
0
11
3.175002
21
-49.525055
31
0
39
0
210
0
220
0
230
1
0
LINE
5
172
100
AcDbEntity
8
SK2
62
256
6
ByLayer
370
13
48
1
60
0
100
AcDbLine
10
22
20
-49.107058
30
0
11
18.825002
21
-49.525055
31
0
39
0
210
0
220
0
230
1
0
LINE
5
173
100
AcDbEntity
8
SK2
62
256
6
ByLayer
370
13
48
1
60
0
100
AcDbLine
10
22
20
-49.107058
30
0
11
18.824998
21
-48.689061
31
0
39
0
210
0
220
0
230
1
0
LINE
5
174
100
AcDbEntity
8
SK2
62
256
6
ByLayer
370
13
48
1
60
0
100
AcDbLine
10
18.825002
20
-49.525055
30
0
11
18.824998
21
-48.689061
31
0
39
0
210
0
220
0
230
1
0
ENDBLK
5
176
100
AcDbEntity
8
0
100
AcDbBlockEnd
0
BLOCK
5
183
100
AcDbEntity
8
0
100
AcDbBlockBegin
2
DimnDraft3D4
70
0
10
0
20
0
30
0
3
DimnDraft3D4
0
MTEXT
5
179
100
AcDbEntity
8
SK2
62
256
6
ByLayer
370
18
48
1
60
0
100
AcDbMText
10
12.957895
20
-59.158839
30
0
210
0
220
0
230
1
1
\W0.6740;28
40
3
41
0
44
1.084337
50
0
71
7
72
5
7
iso_b_vert
0
LINE
5
17A
100
AcDbEntity
8
SK2
62
256
6
ByLayer
370
13
48
1
60
0
100
AcDbLine
10
0
20
-33.2
30
0
11
0
21
-61.908839
31
0
39
0
210
0
220
0
230
1
0
LINE
5
17B
100
AcDbEntity
8
SK2
62
256
6
ByLayer
370
13
48
1
60
0
100
AcDbLine
10
28
20
-38
30
0
11
28
21
-61.908839
31
0
39
0
210
0
220
0
230
1
0
LINE
5
17C
100
AcDbEntity
8
SK2
62
256
6
ByLayer
370
13
48
1
60
0
100
AcDbLine
10
0
20
-59.908839
30
0
11
28
21
-59.908839
31
0
39
0
210
0
220
0
230
1
0
LINE
5
17D
100
AcDbEntity
8
SK2
62
256
6
ByLayer
370
13
48
1
60
0
100
AcDbLine
10
0
20
-59.908839
30
0
11
3.174998
21
-59.490843
31
0
39
0
210
0
220
0
230
1
0
LINE
5
17E
100
AcDbEntity
8
SK2
62
256
6
ByLayer
370
13
48
1
60
0
100
AcDbLine
10
0
20
-59.908839
30
0
11
3.175002
21
-60.326836
31
0
39
0
210
0
220
0
230
1
0
LINE
5
17F
100
AcDbEntity
8
SK2
62
256
6
ByLayer
370
13
48
1
60
0
100
AcDbLine
10
3.174998
20
-59.490843
30
0
11
3.175002
21
-60.326836
31
0
39
0
210
0
220
0
230
1
0
LINE
5
180
100
AcDbEntity
8
SK2
62
256
6
ByLayer
370
13
48
1
60
0
100
AcDbLine
10
28
20
-59.908839
30
0
11
24.825002
21
-60.326836
31
0
39
0
210
0
220
0
230
1
0
LINE
5
181
100
AcDbEntity
8
SK2
62
256
6
ByLayer
370
13
48
1
60
0
100
AcDbLine
10
28
20
-59.908839
30
0
11
24.824998
21
-59.490843
31
0
39
0
210
0
220
0
230
1
0
LINE
5
182
100
AcDbEntity
8
SK2
62
256
6
ByLayer
370
13
48
1
60
0
100
AcDbLine
10
24.825002
20
-60.326836
30
0
11
24.824998
21
-59.490843
31
0
39
0
210
0
220
0
230
1
0
ENDBLK
5
184
100
AcDbEntity
8
0
100
AcDbBlockEnd
0
BLOCK
5
192
100
AcDbEntity
8
0
100
AcDbBlockBegin
2
DimnDraft3D5
70
0
10
0
20
0
30
0
3
DimnDraft3D5
0
MTEXT
5
187
100
AcDbEntity
8
2
62
256
6
ByLayer
370
18
48
1
60
0
100
AcDbMText
10
60.711842
20
-69.976207
30
0
210
0
220
0
230
1
1
\W0.6217;125
40
3
41
0
44
1.084337
50
0
71
7
72
5
7
iso_b_vert
0
LINE
5
189
100
AcDbEntity
8
2
62
256
6
ByLayer
370
13
48
1
60
0
100
AcDbLine
10
0
20
-33.2
30
0
11
0
21
-72.726207
31
0
39
0
210
0
220
0
230
1
0
LINE
5
18A
100
AcDbEntity
8
2
62
256
6
ByLayer
370
13
48
1
60
0
100
AcDbLine
10
125
20
-38
30
0
11
125
21
-72.726207
31
0
39
0
210
0
220
0
230
1
0
LINE
5
18B
100
AcDbEntity
8
2
62
256
6
ByLayer
370
13
48
1
60
0
100
AcDbLine
10
0
20
-70.726207
30
0
11
125
21
-70.726207
31
0
39
0
210
0
220
0
230
1
0
LINE
5
18C
100
AcDbEntity
8
2
62
256
6
ByLayer
370
13
48
1
60
0
100
AcDbLine
10
0
20
-70.726207
30
0
11
3.174998
21
-70.30821
31
0
39
0
210
0
220
0
230
1
0
LINE
5
18D
100
AcDbEntity
8
2
62
256
6
ByLayer
370
13
48
1
60
0
100
AcDbLine
10
0
20
-70.726207
30
0
11
3.175002
21
-71.144203
31
0
39
0
210
0
220
0
230
1
0
LINE
5
18E
100
AcDbEntity
8
2
62
256
6
ByLayer
370
13
48
1
60
0
100
AcDbLine
10
3.174998
20
-70.30821
30
0
11
3.175002
21
-71.144203
31
0
39
0
210
0
220
0
230
1
0
LINE
5
18F
100
AcDbEntity
8
2
62
256
6
ByLayer
370
13
48
1
60
0
100
AcDbLine
10
125
20
-70.726207
30
0
11
121.825002
21
-71.144203
31
0
39
0
210
0
220
0
230
1
0
LINE
5
190
100
AcDbEntity
8
2
62
256
6
ByLayer
370
13
48
1
60
0
100
AcDbLine
10
125
20
-70.726207
30
0
11
121.824998
21
-70.30821
31
0
39
0
210
0
220
0
230
1
0
LINE
5
191
100
AcDbEntity
8
2
62
256
6
ByLayer
370
13
48
1
60
0
100
AcDbLine
10
121.825002
20
-71.144203
30
0
11
121.824998
21
-70.30821
31
0
39
0
210
0
220
0
230
1
0
ENDBLK
5
193
100
AcDbEntity
8
0
100
AcDbBlockEnd
0
BLOCK
5
1A0
100
AcDbEntity
8
0
100
AcDbBlockBegin
2
DimnDraft3D6
70
0
10
0
20
0
30
0
3
DimnDraft3D6
0
MTEXT
5
196
100
AcDbEntity
8
SK2
62
256
6
ByLayer
370
18
48
1
60
0
100
AcDbMText
10
154.223311
20
-19.042105
30
0
210
0
220
0
230
1
1
\W0.6740;36
40
3
41
0
44
1.084337
50
90
71
7
72
5
7
iso_b_vert
0
LINE
5
197
100
AcDbEntity
8
SK2
62
256
6
ByLayer
370
13
48
1
60
0
100
AcDbLine
10
131.328124
20
0
30
0
11
156.973311
21
0
31
0
39
0
210
0
220
0
230
1
0
LINE
5
198
100
AcDbEntity
8
SK2
62
256
6
ByLayer
370
13
48
1
60
0
100
AcDbLine
10
124
20
-36
30
0
11
156.973311
21
-36
31
0
39
0
210
0
220
0
230
1
0
LINE
5
199
100
AcDbEntity
8
SK2
62
256
6
ByLayer
370
13
48
1
60
0
100
AcDbLine
10
154.973311
20
0
30
0
11
154.973311
21
-36
31
0
39
0
210
0
220
0
230
1
0
LINE
5
19A
100
AcDbEntity
8
SK2
62
256
6
ByLayer
370
13
48
1
60
0
100
AcDbLine
10
154.973311
20
0
30
0
11
155.391308
21
-3.174998
31
0
39
0
210
0
220
0
230
1
0
LINE
5
19B
100
AcDbEntity
8
SK2
62
256
6
ByLayer
370
13
48
1
60
0
100
AcDbLine
10
154.973311
20
0
30
0
11
154.555315
21
-3.175002
31
0
39
0
210
0
220
0
230
1
0
LINE
5
19C
100
AcDbEntity
8
SK2
62
256
6
ByLayer
370
13
48
1
60
0
100
AcDbLine
10
155.391308
20
-3.174998
30
0
11
154.555315
21
-3.175002
31
0
39
0
210
0
220
0
230
1
0
LINE
5
19D
100
AcDbEntity
8
SK2
62
256
6
ByLayer
370
13
48
1
60
0
100
AcDbLine
10
154.973311
20
-36
30
0
11
154.555315
21
-32.825002
31
0
39
0
210
0
220
0
230
1
0
LINE
5
19E
100
AcDbEntity
8
SK2
62
256
6
ByLayer
370
13
48
1
60
0
100
AcDbLine
10
154.973311
20
-36
30
0
11
155.391308
21
-32.824998
31
0
39
0
210
0
220
0
230
1
0
LINE
5
19F
100
AcDbEntity
8
SK2
62
256
6
ByLayer
370
13
48
1
60
0
100
AcDbLine
10
154.555315
20
-32.825002
30
0
11
155.391308
21
-32.824998
31
0
39
0
210
0
220
0
230
1
0
ENDBLK
5
1A1
100
AcDbEntity
8
0
100
AcDbBlockEnd
0
BLOCK
5
1AE
100
AcDbEntity
8
0
100
AcDbBlockBegin
2
DimnDraft3D7
70
0
10
0
20
0
30
0
3
DimnDraft3D7
0
MTEXT
5
1A4
100
AcDbEntity
8
SK2
62
256
6
ByLayer
370
18
48
1
60
0
100
AcDbMText
10
154.223311
20
21.3
30
0
210
0
220
0
230
1
1
\W0.7361;45
40
3
41
0
44
1.084337
50
90
71
7
72
5
7
iso_b_vert
0
LINE
5
1A5
100
AcDbEntity
8
SK2
62
256
6
ByLayer
370
13
48
1
60
0
100
AcDbLine
10
131.328124
20
0
30
0
11
156.973311
21
0
31
0
39
0
210
0
220
0
230
1
0
LINE
5
1A6
100
AcDbEntity
8
SK2
62
256
6
ByLayer
370
13
48
1
60
0
100
AcDbLine
10
124
20
45
30
0
11
156.973311
21
45
31
0
39
0
210
0
220
0
230
1
0
LINE
5
1A7
100
AcDbEntity
8
SK2
62
256
6
ByLayer
370
13
48
1
60
0
100
AcDbLine
10
154.973311
20
0
30
0
11
154.973311
21
45
31
0
39
0
210
0
220
0
230
1
0
LINE
5
1A8
100
AcDbEntity
8
SK2
62
256
6
ByLayer
370
13
48
1
60
0
100
AcDbLine
10
154.973311
20
0
30
0
11
154.555315
21
3.174998
31
0
39
0
210
0
220
0
230
1
0
LINE
5
1A9
100
AcDbEntity
8
SK2
62
256
6
ByLayer
370
13
48
1
60
0
100
AcDbLine
10
154.973311
20
0
30
0
11
155.391308
21
3.175002
31
0
39
0
210
0
220
0
230
1
0
LINE
5
1AA
100
AcDbEntity
8
SK2
62
256
6
ByLayer
370
13
48
1
60
0
100
AcDbLine
10
154.555315
20
3.174998
30
0
11
155.391308
21
3.175002
31
0
39
0
210
0
220
0
230
1
0
LINE
5
1AB
100
AcDbEntity
8
SK2
62
256
6
ByLayer
370
13
48
1
60
0
100
AcDbLine
10
154.973311
20
45
30
0
11
155.391308
21
41.825002
31
0
39
0
210
0
220
0
230
1
0
LINE
5
1AC
100
AcDbEntity
8
SK2
62
256
6
ByLayer
370
13
48
1
60
0
100
AcDbLine
10
154.973311
20
45
30
0
11
154.555315
21
41.824998
31
0
39
0
210
0
220
0
230
1
0
LINE
5
1AD
100
AcDbEntity
8
SK2
62
256
6
ByLayer
370
13
48
1
60
0
100
AcDbLine
10
155.391308
20
41.825002
30
0
11
154.555315
21
41.824998
31
0
39
0
210
0
220
0
230
1
0
ENDBLK
5
1AF
100
AcDbEntity
8
0
100
AcDbBlockEnd
0
ENDSEC
0
SECTION
2
ENTITIES
0
ARC
5
D0
100
AcDbEntity
8
1
62
256
6
ByLayer
370
18
48
1
60
0
100
AcDbCircle
39
0
10
121.298871
20
-12.618682
30
0
40
4.49999999968578
210
0
220
0
230
1
100
AcDbArc
50
26.3878
51
34.666869
0
ARC
5
D1
100
AcDbEntity
8
1
62
256
6
ByLayer
370
18
48
1
60
0
100
AcDbCircle
39
0
10
121.298871
20
-12.618682
30
0
40
4.4999999997982
210
0
220
0
230
1
100
AcDbArc
50
325.333131
51
333.6122
0
ARC
5
D3
100
AcDbEntity
8
1
62
256
6
ByLayer
370
18
48
1
60
0
100
AcDbCircle
39
0
10
121.298871
20
21.916283
30
0
40
4.4999999999541
210
0
220
0
230
1
100
AcDbArc
50
26.3878
51
34.666869
0
ARC
5
D4
100
AcDbEntity
8
1
62
256
6
ByLayer
370
18
48
1
60
0
100
AcDbCircle
39
0
10
121.298871
20
21.916283
30
0
40
4.50000000007384
210
0
220
0
230
1
100
AcDbArc
50
325.333131
51
333.6122
0
ARC
5
D5
100
AcDbEntity
8
1
62
256
6
ByLayer
370
18
48
1
60
0
100
AcDbCircle
39
0
10
121.298871
20
-9.297602
30
0
40
4.49999999968578
210
0
220
0
230
1
100
AcDbArc
50
26.3878
51
34.666869
0
ARC
5
DB
100
AcDbEntity
8
1
62
256
6
ByLayer
370
18
48
1
60
0
100
AcDbCircle
39
0
10
-53
20
-25
30
0
40
3.46410161513686
210
0
220
0
230
-1
100
AcDbArc
50
90
51
89.989383
0
ARC
5
DC
100
AcDbEntity
8
1
62
256
6
ByLayer
370
18
48
1
60
0
100
AcDbCircle
39
0
10
-84
20
-25
30
0
40
3.46410161513857
210
0
220
0
230
-1
100
AcDbArc
50
90
51
89.989383
0
ARC
5
DD
100
AcDbEntity
8
1
62
256
6
ByLayer
370
18
48
1
60
0
100
AcDbCircle
39
0
10
-115
20
-25
30
0
40
3.4641016151379
210
0
220
0
230
-1
100
AcDbArc
50
90
51
89.989383
0
CIRCLE
5
D2
100
AcDbEntity
8
1
62
256
6
ByLayer
370
18
48
1
60
0
100
AcDbCircle
10
84
20
-25
30
0
40
5
39
0
210
0
220
0
230
1
0
CIRCLE
5
D6
100
AcDbEntity
8
1
62
256
6
ByLayer
370
18
48
1
60
0
100
AcDbCircle
10
53
20
-25
30
0
40
5
39
0
210
0
220
0
230
1
0
CIRCLE
5
D7
100
AcDbEntity
8
1
62
256
6
ByLayer
370
18
48
1
60
0
100
AcDbCircle
10
115
20
-25
30
0
40
5
39
0
210
0
220
0
230
1
0
CIRCLE
5
D8
100
AcDbEntity
8
1
62
256
6
ByLayer
370
18
48
1
60
0
100
AcDbCircle
10
53
20
-25
30
0
40
5.28960000000001
39
0
210
0
220
0
230
1
0
CIRCLE
5
D9
100
AcDbEntity
8
1
62
256
6
ByLayer
370
18
48
1
60
0
100
AcDbCircle
10
84
20
-25
30
0
40
5.2896
39
0
210
0
220
0
230
1
0
CIRCLE
5
DA
100
AcDbEntity
8
1
62
256
6
ByLayer
370
18
48
1
60
0
100
AcDbCircle
10
115
20
-25
30
0
40
5.2896
39
0
210
0
220
0
230
1
0
ELLIPSE
5
DE
100
AcDbEntity
8
1
62
256
6
ByLayer
370
18
48
1
60
0
100
AcDbEllipse
10
53
20
13.236122
30
0
11
4.25
21
-4.81567368447455E-15
31
0
210
0
220
0
230
1
40
0.5
41
0.00097941747408356
42
3.14159265358979
0
ELLIPSE
5
DF
100
AcDbEntity
8
1
62
256
6
ByLayer
370
18
48
1
60
0
100
AcDbEllipse
10
53
20
12.5
30
0
11
3.40000000000001
21
-3.85253894757965E-15
31
0
210
0
220
0
230
1
40
0.5
41
0
42
6.28318530717959
0
ELLIPSE
5
E0
100
AcDbEntity
8
1
62
256
6
ByLayer
370
18
48
1
60
0
100
AcDbEllipse
10
115
20
13.236122
30
0
11
4.25
21
-4.81567368447455E-15
31
0
210
0
220
0
230
1
40
0.5
41
0.000979417474085234
42
3.14159265358979
0
ELLIPSE
5
E1
100
AcDbEntity
8
1
62
256
6
ByLayer
370
18
48
1
60
0
100
AcDbEllipse
10
115
20
12.5
30
0
11
3.4
21
-3.85253894757964E-15
31
0
210
0
220
0
230
1
40
0.5
41
0
42
6.28318530717959
0
ELLIPSE
5
E2
100
AcDbEntity
8
1
62
256
6
ByLayer
370
18
48
1
60
0
100
AcDbEllipse
10
84
20
13.236122
30
0
11
4.25
21
-4.81567368447455E-15
31
0
210
0
220
0
230
1
40
0.5
41
0.000979417474087742
42
3.14159265358979
0
ELLIPSE
5
E3
100
AcDbEntity
8
1
62
256
6
ByLayer
370
18
48
1
60
0
100
AcDbEllipse
10
84
20
12.5
30
0
11
3.4
21
-3.85253894757964E-15
31
0
210
0
220
0
230
1
40
0.5
41
0
42
6.28318530717959
0
ELLIPSE
5
E4
100
AcDbEntity
8
1
62
256
6
ByLayer
370
18
48
1
60
0
100
AcDbEllipse
10
31.5
20
3.710581
30
0
11
4.99999999999997
21
-5.66549845232297E-15
31
0
210
0
220
0
230
1
40
0.866025
41
3.14159265358979
42
-0.775397496610748
0
ELLIPSE
5
E5
100
AcDbEntity
8
1
62
256
6
ByLayer
370
18
48
1
60
0
100
AcDbEllipse
10
31.5
20
17.566987
30
0
11
4.99999999999425
21
-5.66549845231649E-15
31
0
210
0
220
0
230
1
40
0.866025
41
3.14159265358979
42
-2.34619382340516
0
ELLIPSE
5
E6
100
AcDbEntity
8
1
62
256
6
ByLayer
370
18
48
1
60
0
100
AcDbEllipse
10
31.5
20
3.710581
30
0
11
5.00000000000647
21
-5.66549845233034E-15
31
0
210
0
220
0
230
1
40
0.866025
41
2.3461938234062
42
3.14159265358979
0
ELLIPSE
5
E7
100
AcDbEntity
8
1
62
256
6
ByLayer
370
18
48
1
60
0
100
AcDbEllipse
10
31.5
20
7.566987
30
0
11
4.99999999999998
21
-5.66549845232298E-15
31
0
210
0
220
0
230
1
40
0.866025
41
-2.34619382340565
42
-2.05116115516325E-16
0
ELLIPSE
5
E8
100
AcDbEntity
8
1
62
256
6
ByLayer
370
18
48
1
60
0
100
AcDbEllipse
10
31.5
20
17.566987
30
0
11
4.99999999999999
21
-5.66549845232299E-15
31
0
210
0
220
0
230
1
40
0.866025
41
0.523598775598291
42
3.14159265358979
0
ELLIPSE
5
E9
100
AcDbEntity
8
1
62
256
6
ByLayer
370
18
48
1
60
0
100
AcDbEllipse
10
31.5
20
7.566987
30
0
11
4.99999999994713
21
-5.6654984522631E-15
31
0
210
0
220
0
230
1
40
0.866025
41
0
42
0.304692654017032
0
ELLIPSE
5
EA
100
AcDbEntity
8
1
62
256
6
ByLayer
370
18
48
1
60
0
100
AcDbEllipse
10
31.5
20
7.066987
30
0
11
4.99999999999998
21
-5.66549845232298E-15
31
0
210
0
220
0
230
1
40
0.866025
41
0.0577671386840612
42
2.34619382340565
0
ELLIPSE
5
EB
100
AcDbEntity
8
1
62
256
6
ByLayer
370
18
48
1
60
0
100
AcDbEllipse
10
115
20
14.232051
30
0
11
5.28959999999992
21
-5.99364412268146E-15
31
0
210
0
220
0
230
1
40
0.5
41
0
42
1.5707963267949
0
ELLIPSE
5
EC
100
AcDbEntity
8
1
62
256
6
ByLayer
370
18
48
1
60
0
100
AcDbEllipse
10
84
20
14.232051
30
0
11
5.28959999999984
21
-5.99364412268137E-15
31
0
210
0
220
0
230
1
40
0.5
41
0
42
1.5707963267949
0
ELLIPSE
5
ED
100
AcDbEntity
8
1
62
256
6
ByLayer
370
18
48
1
60
0
100
AcDbEllipse
10
53
20
14.232051
30
0
11
5.28960000000003
21
-5.99364412268159E-15
31
0
210
0
220
0
230
1
40
0.5
41
0
42
1.5707963267949
0
ELLIPSE
5
EE
100
AcDbEntity
8
1
62
256
6
ByLayer
370
18
48
1
60
0
100
AcDbEllipse
10
53
20
14.232051
30
0
11
5.28960000000017
21
-5.99364412268174E-15
31
0
210
0
220
0
230
1
40
0.5
41
1.5707963267949
42
3.14159265358979
0
ELLIPSE
5
EF
100
AcDbEntity
8
1
62
256
6
ByLayer
370
18
48
1
60
0
100
AcDbEllipse
10
53
20
14.232051
30
0
11
5.28959999997854
21
-5.99364412265724E-15
31
0
210
0
220
0
230
1
40
0.5
41
-0.670981014860378
42
-6.71641273218185E-16
0
ELLIPSE
5
F0
100
AcDbEntity
8
1
62
256
6
ByLayer
370
18
48
1
60
0
100
AcDbEllipse
10
53
20
14.232051
30
0
11
5.28960000000872
21
-5.99364412269143E-15
31
0
210
0
220
0
230
1
40
0.5
41
3.14159265358979
42
-2.46949653001824
0
ELLIPSE
5
F1
100
AcDbEntity
8
1
62
256
6
ByLayer
370
18
48
1
60
0
100
AcDbEllipse
10
84
20
14.232051
30
0
11
5.28959999999995
21
-5.9936441226815E-15
31
0
210
0
220
0
230
1
40
0.5
41
1.5707963267949
42
3.14159265358979
0
ELLIPSE
5
F2
100
AcDbEntity
8
1
62
256
6
ByLayer
370
18
48
1
60
0
100
AcDbEllipse
10
84
20
14.232051
30
0
11
5.28959999999972
21
-5.99364412268124E-15
31
0
210
0
220
0
230
1
40
0.5
41
-0.670981014858975
42
-6.71641273215496E-16
0
ELLIPSE
5
F3
100
AcDbEntity
8
1
62
256
6
ByLayer
370
18
48
1
60
0
100
AcDbEllipse
10
84
20
14.232051
30
0
11
5.28959999999764
21
-5.99364412267888E-15
31
0
210
0
220
0
230
1
40
0.5
41
3.14159265358979
42
-2.46949653001751
0
ELLIPSE
5
F4
100
AcDbEntity
8
1
62
256
6
ByLayer
370
18
48
1
60
0
100
AcDbEllipse
10
115
20
14.232051
30
0
11
5.28959999999989
21
-5.99364412268143E-15
31
0
210
0
220
0
230
1
40
0.5
41
1.5707963267949
42
3.14159265358979
0
ELLIPSE
5
F5
100
AcDbEntity
8
1
62
256
6
ByLayer
370
18
48
1
60
0
100
AcDbEllipse
10
115
20
14.232051
30
0
11
5.28960000000118
21
-5.99364412268289E-15
31
0
210
0
220
0
230
1
40
0.5
41
-0.670981014858877
42
-6.71641273215312E-16
0
ELLIPSE
5
F6
100
AcDbEntity
8
1
62
256
6
ByLayer
370
18
48
1
60
0
100
AcDbEllipse
10
115
20
14.232051
30
0
11
5.28959999999931
21
-5.99364412268077E-15
31
0
210
0
220
0
230
1
40
0.5
41
3.14159265358979
42
-2.46949653001761
0
ELLIPSE
5
F7
100
AcDbEntity
8
1
62
256
6
ByLayer
370
18
48
1
60
0
100
AcDbEllipse
10
31.5
20
6.816987
30
0
11
-1.25463254193526E-15
21
-6.83012702010548
31
0
210
0
220
0
230
1
40
0.732051
41
1.87548898078272
42
2.09439510232299
0
ELLIPSE
5
F8
100
AcDbEntity
8
1
62
256
6
ByLayer
370
18
48
1
60
0
100
AcDbEllipse
10
26.347154
20
0
30
0
11
14.7536831606675
21
-31.0932549155952
31
0
210
0
220
0
230
1
40
0.341999
41
-2.98378646694442
42
-2.05035306783731
0
ELLIPSE
5
F9
100
AcDbEntity
8
1
62
256
6
ByLayer
370
18
48
1
60
0
100
AcDbEllipse
10
-2.347154
20
0
30
0
11
14.7536831606504
21
31.0932549155735
31
0
210
0
220
0
230
1
40
0.341999
41
-1.09123958575301
42
-0.157806186645455
0
ELLIPSE
5
FA
100
AcDbEntity
8
1
62
256
6
ByLayer
370
18
48
1
60
0
100
AcDbEllipse
10
26.347154
20
0
30
0
11
14.7536831606558
21
31.0932549155803
31
0
210
0
220
0
230
1
40
0.341999
41
2.05035306783695
42
2.98378646694436
0
ELLIPSE
5
FB
100
AcDbEntity
8
1
62
256
6
ByLayer
370
18
48
1
60
0
100
AcDbEllipse
10
-2.347154
20
0
30
0
11
14.7536831606577
21
-31.0932549155828
31
0
210
0
220
0
230
1
40
0.341999
41
0.157806186645422
42
1.09123958575279
0
POINT
5
6C
100
AcDbEntity
8
80
62
256
6
ByLayer
370
18
48
1
60
0
100
AcDbPoint
10
0
20
0
30
0
39
0
210
0
220
0
230
1
50
360
0
POINT
5
6E
100
AcDbEntity
8
81
62
256
6
ByLayer
370
18
48
1
60
0
100
AcDbPoint
10
125
20
-26
30
0
39
0
210
0
220
0
230
1
50
360
0
SPLINE
5
FC
100
AcDbEntity
8
1
62
256
6
ByLayer
370
18
48
1
60
0
100
AcDbSpline
70
4
71
3
72
38
73
34
40
0
40
0
40
0
40
0
40
0.0155433566425842
40
0.0444907953206734
40
0.0733915189039276
40
0.102762464895065
40
0.133074456936914
40
0.164691485375383
40
0.197759060169799
40
0.232097181624634
40
0.267239708491208
40
0.302638228230385
40
0.337894154575265
40
0.372905860025303
40
0.407676529678348
40
0.442254552828181
40
0.4767035938822
40
0.511091007964225
40
0.545484900345186
40
0.579935999573341
40
0.614512217422909
40
0.649289829524389
40
0.684349057899131
40
0.71976809894423
40
0.755602939853485
40
0.791836708778745
40
0.828216724623772
40
0.860295614470127
40
0.890999384692758
40
0.920410536294489
40
0.948822681032269
40
0.979302898188828
40
1
40
1
40
1
40
1
41
1
10
57.2499968523052
20
13.2393930082215
30
0
41
1
10
57.2500600825216
20
13.1894101185271
30
0
41
1
10
57.2441327034445
20
13.0471956338116
30
0
41
1
10
57.204744284253
20
12.8143462452216
30
0
41
1
10
57.1151933687959
20
12.5493033365579
30
0
41
1
10
56.9850795241001
20
12.2966074990135
30
0
41
1
10
56.8150330209313
20
12.0564508230971
30
0
41
1
10
56.6044728080303
20
11.8290478438694
30
0
41
1
10
56.352738097836
20
11.6156501596692
30
0
41
1
10
56.0606585914208
20
11.4187599364502
30
0
41
1
10
55.7316805190945
20
11.2416160146387
30
0
41
1
10
55.3715766779019
20
11.0871353538571
30
0
41
1
10
54.986699594819
20
10.957054118864
30
0
41
1
10
54.5826538174133
20
10.8520333007625
30
0
41
1
10
54.1639640252732
20
10.7721647519005
30
0
41
1
10
53.734771382006
20
10.7174257058877
30
0
41
1
10
53.299080928094
20
10.6877841577932
30
0
41
1
10
52.8608710384719
20
10.6832124676907
30
0
41
1
10
52.4241868185172
20
10.7036754487848
30
0
41
1
10
51.993042787157
20
10.7491145424295
30
0
41
1
10
51.5713448860896
20
10.8194724855259
30
0
41
1
10
51.1627729989087
20
10.9147745797738
30
0
41
1
10
50.7708425023955
20
11.0352185396882
30
0
41
1
10
50.3990096984849
20
11.1812725990908
30
0
41
1
10
50.0509284091448
20
11.3537264414509
30
0
41
1
10
49.7311615064623
20
11.5533956719147
30
0
41
1
10
49.4559646329566
20
11.7722253128453
30
0
41
1
10
49.2286454366808
20
12.0042183079103
30
0
41
1
10
49.0493902526112
20
12.2419396633087
30
0
41
1
10
48.9112601028105
20
12.4903067151565
30
0
41
1
10
48.8110918376379
20
12.7550909096724
30
0
41
1
10
48.7595534196671
20
13.0060637003743
30
0
41
1
10
48.7500823629706
20
13.1694294828062
30
0
41
1
10
48.75
20
13.236121593217
30
0
0
SPLINE
5
FD
100
AcDbEntity
8
1
62
256
6
ByLayer
370
18
48
1
60
0
100
AcDbSpline
70
4
71
3
72
38
73
34
40
0
40
0
40
0
40
0
40
0.0155433566425956
40
0.044490795320691
40
0.0733915189039505
40
0.102762464895093
40
0.133074456936946
40
0.164691485375417
40
0.197759060169832
40
0.232097181624667
40
0.267239708491236
40
0.302638228230404
40
0.337894154575288
40
0.37290586002533
40
0.407676529678374
40
0.442254552828206
40
0.476703593882228
40
0.511091007964252
40
0.545484900345215
40
0.579935999573372
40
0.61451221742294
40
0.64928982952442
40
0.684349057899162
40
0.719768098944258
40
0.75560293985351
40
0.791836708778772
40
0.828216724623807
40
0.860295614470161
40
0.890999384692792
40
0.920410536294524
40
0.948822681032303
40
0.979302898188858
40
1
40
1
40
1
40
1
41
1
10
119.249996852305
20
13.2393930082213
30
0
41
1
10
119.250060082522
20
13.1894101185269
30
0
41
1
10
119.244132703445
20
13.0471956338114
30
0
41
1
10
119.204744284253
20
12.8143462452213
30
0
41
1
10
119.115193368796
20
12.5493033365576
30
0
41
1
10
118.9850795241
20
12.2966074990131
30
0
41
1
10
118.815033020931
20
12.0564508230967
30
0
41
1
10
118.60447280803
20
11.829047843869
30
0
41
1
10
118.352738097836
20
11.6156501596688
30
0
41
1
10
118.060658591421
20
11.4187599364499
30
0
41
1
10
117.731680519094
20
11.2416160146385
30
0
41
1
10
117.371576677902
20
11.0871353538568
30
0
41
1
10
116.986699594819
20
10.9570541188638
30
0
41
1
10
116.582653817413
20
10.8520333007623
30
0
41
1
10
116.163964025273
20
10.7721647519003
30
0
41
1
10
115.734771382006
20
10.7174257058875
30
0
41
1
10
115.299080928094
20
10.687784157793
30
0
41
1
10
114.860871038472
20
10.6832124676906
30
0
41
1
10
114.424186818517
20
10.7036754487846
30
0
41
1
10
113.993042787157
20
10.7491145424294
30
0
41
1
10
113.571344886089
20
10.8194724855258
30
0
41
1
10
113.162772998908
20
10.9147745797738
30
0
41
1
10
112.770842502395
20
11.0352185396882
30
0
41
1
10
112.399009698485
20
11.1812725990908
30
0
41
1
10
112.050928409145
20
11.3537264414509
30
0
41
1
10
111.731161506462
20
11.5533956719147
30
0
41
1
10
111.455964632956
20
11.7722253128454
30
0
41
1
10
111.228645436681
20
12.0042183079105
30
0
41
1
10
111.049390252611
20
12.2419396633089
30
0
41
1
10
110.91126010281
20
12.4903067151566
30
0
41
1
10
110.811091837638
20
12.7550909096725
30
0
41
1
10
110.759553419667
20
13.0060637003744
30
0
41
1
10
110.750082362971
20
13.1694294828061
30
0
41
1
10
110.75
20
13.2361215932169
30
0
0
SPLINE
5
FE
100
AcDbEntity
8
1
62
256
6
ByLayer
370
18
48
1
60
0
100
AcDbSpline
70
4
71
3
72
38
73
34
40
0
40
0
40
0
40
0
40
0.0155433566425992
40
0.0444907953206971
40
0.0733915189039591
40
0.102762464895105
40
0.133074456936953
40
0.164691485375427
40
0.197759060169841
40
0.232097181624678
40
0.267239708491244
40
0.302638228230412
40
0.337894154575296
40
0.372905860025337
40
0.407676529678387
40
0.442254552828215
40
0.476703593882239
40
0.511091007964264
40
0.545484900345227
40
0.579935999573384
40
0.614512217422953
40
0.649289829524433
40
0.684349057899177
40
0.71976809894427
40
0.755602939853526
40
0.791836708778785
40
0.828216724623823
40
0.860295614470173
40
0.890999384692806
40
0.920410536294538
40
0.948822681032319
40
0.979302898188881
40
1
40
1
40
1
40
1
41
1
10
88.2499968523053
20
13.2393930082214
30
0
41
1
10
88.2500600825216
20
13.189410118527
30
0
41
1
10
88.2441327034445
20
13.0471956338114
30
0
41
1
10
88.2047442842529
20
12.8143462452213
30
0
41
1
10
88.1151933687958
20
12.5493033365576
30
0
41
1
10
87.9850795240999
20
12.2966074990131
30
0
41
1
10
87.8150330209311
20
12.0564508230967
30
0
41
1
10
87.60447280803
20
11.829047843869
30
0
41
1
10
87.3527380978357
20
11.6156501596689
30
0
41
1
10
87.0606585914205
20
11.4187599364499
30
0
41
1
10
86.7316805190942
20
11.2416160146385
30
0
41
1
10
86.3715766779016
20
11.0871353538569
30
0
41
1
10
85.9866995948187
20
10.9570541188638
30
0
41
1
10
85.5826538174128
20
10.8520333007624
30
0
41
1
10
85.1639640252728
20
10.7721647519004
30
0
41
1
10
84.7347713820055
20
10.7174257058876
30
0
41
1
10
84.2990809280936
20
10.6877841577931
30
0
41
1
10
83.8608710384714
20
10.6832124676907
30
0
41
1
10
83.4241868185168
20
10.7036754487847
30
0
41
1
10
82.9930427871564
20
10.7491145424295
30
0
41
1
10
82.5713448860891
20
10.8194724855259
30
0
41
1
10
82.1627729989081
20
10.9147745797739
30
0
41
1
10
81.770842502395
20
11.0352185396883
30
0
41
1
10
81.3990096984845
20
11.1812725990909
30
0
41
1
10
81.0509284091444
20
11.353726441451
30
0
41
1
10
80.7311615064619
20
11.5533956719149
30
0
41
1
10
80.4559646329563
20
11.7722253128456
30
0
41
1
10
80.2286454366805
20
12.0042183079106
30
0
41
1
10
80.0493902526109
20
12.241939663309
30
0
41
1
10
79.9112601028103
20
12.4903067151568
30
0
41
1
10
79.8110918376378
20
12.7550909096728
30
0
41
1
10
79.7595534196672
20
13.0060637003746
30
0
41
1
10
79.7500823629705
20
13.1694294828063
30
0
41
1
10
79.7500000000001
20
13.236121593217
30
0
0
SPLINE
5
FF
100
AcDbEntity
8
1
62
256
6
ByLayer
370
18
48
1
60
0
100
AcDbSpline
70
4
71
1
72
4
73
2
40
0
40
0
40
1
40
1
41
1
10
25
20
-5.38268590217962
30
0
41
1
10
22
20
-6.00000000000006
30
0
0
SPLINE
5
100
100
AcDbEntity
8
1
62
256
6
ByLayer
370
18
48
1
60
0
100
AcDbSpline
70
4
71
1
72
4
73
2
40
0
40
0
40
1
40
1
41
1
10
22.0000000000001
20
39.0000000000002
30
0
41
1
10
25.0000000000001
20
41.3826859021801
30
0
0
SPLINE
5
101
100
AcDbEntity
8
1
62
256
6
ByLayer
370
18
48
1
60
0
100
AcDbSpline
70
4
71
1
72
4
73
2
40
0
40
0
40
1
40
1
41
1
10
124
20
38.3654118544163
30
0
41
1
10
122
20
41.3826859021798
30
0
0
SPLINE
5
102
100
AcDbEntity
8
1
62
256
6
ByLayer
370
18
48
1
60
0
100
AcDbSpline
70
4
71
2
72
6
73
3
40
0
40
0
40
0
40
1
40
1
40
1
41
1
10
122
20
-5.38268590217985
30
0
41
1
10
123.586726567852
20
-3.10082604712532
30
0
41
1
10
125
20
-0.734993995195207
30
0
0
SPLINE
5
103
100
AcDbEntity
8
1
62
256
6
ByLayer
370
18
48
1
60
0
100
AcDbSpline
70
4
71
1
72
4
73
2
40
0
40
0
40
1
40
1
41
1
10
124
20
-36
30
0
41
1
10
125
20
-35
30
0
0
SPLINE
5
104
100
AcDbEntity
8
1
62
256
6
ByLayer
370
18
48
1
60
0
100
AcDbSpline
70
4
71
1
72
4
73
2
40
0
40
0
40
1
40
1
41
1
10
124
20
-36
30
0
41
1
10
122
20
-36
30
0
0
SPLINE
5
105
100
AcDbEntity
8
1
62
256
6
ByLayer
370
18
48
1
60
0
100
AcDbSpline
70
4
71
1
72
4
73
2
40
0
40
0
40
1
40
1
41
1
10
21.9999999999999
20
-32.9999999999998
30
0
41
1
10
24.9999999999999
20
-35.9999999999998
30
0
0
SPLINE
5
106
100
AcDbEntity
8
1
62
256
6
ByLayer
370
18
48
1
60
0
100
AcDbSpline
70
4
71
3
72
53
73
49
40
0
40
0
40
0
40
0
40
0.0187285687542607
40
0.0421928158524422
40
0.0656874036165548
40
0.0866231290351608
40
0.107635240356527
40
0.128596793474045
40
0.150038265308959
40
0.171530588402186
40
0.192976122700789
40
0.218342078062084
40
0.243787317040914
40
0.26913725200275
40
0.293742859495389
40
0.318443633947403
40
0.343018634953263
40
0.363987729709309
40
0.385041609710452
40
0.405992375946233
40
0.423813990097317
40
0.441701779886896
40
0.459517030389412
40
0.479764385849899
40
0.500010783862824
40
0.523718578383103
40
0.547428475643097
40
0.571106152924918
40
0.594789783200073
40
0.619064569868229
40
0.643348665920313
40
0.66951347896755
40
0.695690838323734
40
0.715204930048803
40
0.73477095558569
40
0.754294830231061
40
0.776648738713089
40
0.799062310952488
40
0.821422596111624
40
0.84652089255035
40
0.87169395244691
40
0.896774535233002
40
0.915131543058937
40
0.933529109704112
40
0.951862784494201
40
0.973090378377596
40
0.994294842671769
40
1
40
1
40
1
40
1
41
1
10
116.2213525108
20
-31.6385840391127
30
0
41
1
10
116.492930378876
20
-31.587494718489
30
0
41
1
10
117.085085561043
20
-31.4420121706938
30
0
41
1
10
117.944926601426
20
-31.0986281499914
30
0
41
1
10
118.739925517645
20
-30.6424551279682
30
0
41
1
10
119.417473522922
20
-30.1247465670774
30
0
41
1
10
119.989002186256
20
-29.5690925304471
30
0
41
1
10
120.485623740689
20
-28.9592135482213
30
0
41
1
10
120.90532204213
20
-28.3003397107864
30
0
41
1
10
121.245966857229
20
-27.5981307484926
30
0
41
1
10
121.519144152182
20
-26.8184964991609
30
0
41
1
10
121.702422591138
20
-25.9591804292015
30
0
41
1
10
121.771163696017
20
-25.0256900678178
30
0
41
1
10
121.710527261575
20
-24.0854656742682
30
0
41
1
10
121.514118846387
20
-23.152312656202
30
0
41
1
10
121.186030526197
20
-22.2441488442179
30
0
41
1
10
120.743911193626
20
-21.4129658645993
30
0
41
1
10
120.205080026819
20
-20.6751462715194
30
0
41
1
10
119.599528762742
20
-20.0350009040666
30
0
41
1
10
118.93839349179
20
-19.4960692856186
30
0
41
1
10
118.242212024818
20
-19.0638200076673
30
0
41
1
10
117.534915937495
20
-18.7287158486739
30
0
41
1
10
116.753415085689
20
-18.4629719865008
30
0
41
1
10
115.903838737824
20
-18.2912493362344
30
0
41
1
10
114.948563074409
20
-18.2257794327792
30
0
41
1
10
113.941285976257
20
-18.3068990949015
30
0
41
1
10
112.913410435754
20
-18.5513330555711
30
0
41
1
10
111.947107115939
20
-18.9514387978857
30
0
41
1
10
111.056980974208
20
-19.4882876709428
30
0
41
1
10
110.269237039141
20
-20.1503240011272
30
0
41
1
10
109.580154808078
20
-20.9311133656142
30
0
41
1
10
109.021461516082
20
-21.809928241227
30
0
41
1
10
108.639574242838
20
-22.6808143787763
30
0
41
1
10
108.407187912963
20
-23.4903042242217
30
0
41
1
10
108.281796559702
20
-24.2226949032254
30
0
41
1
10
108.234873175743
20
-24.9881637018653
30
0
41
1
10
108.278592232386
20
-25.7781635726167
30
0
41
1
10
108.421701346766
20
-26.5828726778862
30
0
41
1
10
108.668432014356
20
-27.3922337577026
30
0
41
1
10
109.030397967512
20
-28.1940829730759
30
0
41
1
10
109.518430279062
20
-28.9747717952505
30
0
41
1
10
110.065314517524
20
-29.630226244327
30
0
41
1
10
110.638785877031
20
-30.1678507467995
30
0
41
1
10
111.210883668514
20
-30.6016413244827
30
0
41
1
10
111.877016749113
20
-31.002516663393
30
0
41
1
10
112.647316994834
20
-31.3472295347631
30
0
41
1
10
113.311846204555
20
-31.5454288608624
30
0
41
1
10
113.696406097751
20
-31.6234034750391
30
0
41
1
10
113.7786474892
20
-31.6385840391127
30
0
0
SPLINE
5
107
100
AcDbEntity
8
1
62
256
6
ByLayer
370
18
48
1
60
0
100
AcDbSpline
70
4
71
3
72
53
73
49
40
0
40
0
40
0
40
0
40
0.0187285687542607
40
0.0421928158524423
40
0.065687403616555
40
0.0866231290351609
40
0.107635240356527
40
0.128596793474045
40
0.150038265308959
40
0.171530588402187
40
0.19297612270079
40
0.218342078062085
40
0.243787317040914
40
0.269137252002751
40
0.29374285949539
40
0.318443633947403
40
0.343018634953264
40
0.363987729709309
40
0.385041609710453
40
0.405992375946234
40
0.423813990097317
40
0.441701779886896
40
0.459517030389413
40
0.4797643858499
40
0.500010783862823
40
0.523718578383103
40
0.547428475643097
40
0.571106152924918
40
0.594789783200073
40
0.619064569868229
40
0.643348665920312
40
0.66951347896755
40
0.695690838323734
40
0.715204930048802
40
0.734770955585689
40
0.754294830231061
40
0.776648738713089
40
0.799062310952487
40
0.821422596111624
40
0.84652089255035
40
0.871693952446909
40
0.896774535233001
40
0.915131543058937
40
0.933529109704111
40
0.951862784494201
40
0.973090378377596
40
0.994294842671769
40
1
40
1
40
1
40
1
41
1
10
85.2213525108
20
-31.6385840391127
30
0
41
1
10
85.4929303788759
20
-31.587494718489
30
0
41
1
10
86.0850855610426
20
-31.4420121706937
30
0
41
1
10
86.9449266014257
20
-31.0986281499913
30
0
41
1
10
87.7399255176448
20
-30.6424551279681
30
0
41
1
10
88.4174735229225
20
-30.1247465670773
30
0
41
1
10
88.9890021862561
20
-29.569092530447
30
0
41
1
10
89.4856237406887
20
-28.9592135482213
30
0
41
1
10
89.9053220421298
20
-28.3003397107864
30
0
41
1
10
90.2459668572293
20
-27.5981307484925
30
0
41
1
10
90.5191441521821
20
-26.8184964991608
30
0
41
1
10
90.7024225911378
20
-25.9591804292014
30
0
41
1
10
90.7711636960167
20
-25.0256900678177
30
0
41
1
10
90.7105272615752
20
-24.0854656742681
30
0
41
1
10
90.5141188463871
20
-23.1523126562018
30
0
41
1
10
90.186030526197
20
-22.2441488442178
30
0
41
1
10
89.7439111936262
20
-21.4129658645991
30
0
41
1
10
89.2050800268188
20
-20.6751462715194
30
0
41
1
10
88.5995287627418
20
-20.0350009040665
30
0
41
1
10
87.9383934917902
20
-19.4960692856185
30
0
41
1
10
87.2422120248177
20
-19.0638200076672
30
0
41
1
10
86.5349159374946
20
-18.7287158486738
30
0
41
1
10
85.7534150856889
20
-18.4629719865007
30
0
41
1
10
84.9038387378236
20
-18.2912493362344
30
0
41
1
10
83.9485630744093
20
-18.2257794327792
30
0
41
1
10
82.9412859762573
20
-18.3068990949014
30
0
41
1
10
81.9134104357535
20
-18.551333055571
30
0
41
1
10
80.9471071159387
20
-18.9514387978857
30
0
41
1
10
80.0569809742079
20
-19.4882876709427
30
0
41
1
10
79.2692370391411
20
-20.1503240011271
30
0
41
1
10
78.580154808078
20
-20.9311133656141
30
0
41
1
10
78.0214615160823
20
-21.809928241227
30
0
41
1
10
77.6395742428377
20
-22.6808143787762
30
0
41
1
10
77.4071879129631
20
-23.4903042242216
30
0
41
1
10
77.2817965597025
20
-24.2226949032253
30
0
41
1
10
77.2348731757432
20
-24.9881637018653
30
0
41
1
10
77.2785922323858
20
-25.7781635726166
30
0
41
1
10
77.4217013467657
20
-26.5828726778861
30
0
41
1
10
77.6684320143561
20
-27.3922337577025
30
0
41
1
10
78.030397967512
20
-28.1940829730758
30
0
41
1
10
78.5184302790618
20
-28.9747717952504
30
0
41
1
10
79.0653145175244
20
-29.6302262443269
30
0
41
1
10
79.638785877031
20
-30.1678507467994
30
0
41
1
10
80.210883668514
20
-30.6016413244826
30
0
41
1
10
80.8770167491132
20
-31.0025166633929
30
0
41
1
10
81.6473169948338
20
-31.3472295347631
30
0
41
1
10
82.3118462045552
20
-31.5454288608623
30
0
41
1
10
82.6964060977515
20
-31.6234034750391
30
0
41
1
10
82.7786474891999
20
-31.6385840391126
30
0
0
SPLINE
5
108
100
AcDbEntity
8
1
62
256
6
ByLayer
370
18
48
1
60
0
100
AcDbSpline
70
4
71
3
72
53
73
49
40
0
40
0
40
0
40
0
40
0.0187285687542601
40
0.0421928158524415
40
0.065687403616554
40
0.08662312903516
40
0.107635240356526
40
0.128596793474044
40
0.150038265308958
40
0.171530588402186
40
0.192976122700788
40
0.218342078062084
40
0.243787317040913
40
0.269137252002749
40
0.293742859495388
40
0.318443633947402
40
0.343018634953263
40
0.363987729709308
40
0.385041609710452
40
0.405992375946233
40
0.423813990097316
40
0.441701779886895
40
0.459517030389411
40
0.479764385849898
40
0.500010783862823
40
0.523718578383102
40
0.547428475643097
40
0.571106152924917
40
0.594789783200073
40
0.619064569868228
40
0.643348665920312
40
0.66951347896755
40
0.695690838323733
40
0.715204930048802
40
0.734770955585689
40
0.754294830231061
40
0.776648738713089
40
0.799062310952488
40
0.821422596111624
40
0.84652089255035
40
0.871693952446909
40
0.896774535233001
40
0.915131543058936
40
0.933529109704111
40
0.951862784494201
40
0.973090378377597
40
0.99429484267177
40
1
40
1
40
1
40
1
41
1
10
54.2213525108
20
-31.6385840391126
30
0
41
1
10
54.4929303788759
20
-31.5874947184889
30
0
41
1
10
55.0850855610426
20
-31.4420121706936
30
0
41
1
10
55.9449266014257
20
-31.0986281499912
30
0
41
1
10
56.7399255176448
20
-30.6424551279681
30
0
41
1
10
57.4174735229224
20
-30.1247465670772
30
0
41
1
10
57.9890021862561
20
-29.569092530447
30
0
41
1
10
58.4856237406886
20
-28.9592135482212
30
0
41
1
10
58.9053220421298
20
-28.3003397107863
30
0
41
1
10
59.2459668572293
20
-27.5981307484925
30
0
41
1
10
59.5191441521821
20
-26.8184964991607
30
0
41
1
10
59.7024225911378
20
-25.9591804292014
30
0
41
1
10
59.7711636960167
20
-25.0256900678177
30
0
41
1
10
59.7105272615752
20
-24.0854656742681
30
0
41
1
10
59.514118846387
20
-23.1523126562018
30
0
41
1
10
59.186030526197
20
-22.2441488442178
30
0
41
1
10
58.7439111936262
20
-21.4129658645991
30
0
41
1
10
58.2050800268188
20
-20.6751462715193
30
0
41
1
10
57.5995287627418
20
-20.0350009040664
30
0
41
1
10
56.9383934917902
20
-19.4960692856184
30
0
41
1
10
56.2422120248177
20
-19.0638200076672
30
0
41
1
10
55.5349159374946
20
-18.7287158486737
30
0
41
1
10
54.7534150856889
20
-18.4629719865007
30
0
41
1
10
53.9038387378236
20
-18.2912493362343
30
0
41
1
10
52.9485630744093
20
-18.2257794327791
30
0
41
1
10
51.9412859762573
20
-18.3068990949014
30
0
41
1
10
50.9134104357535
20
-18.5513330555709
30
0
41
1
10
49.9471071159387
20
-18.9514387978856
30
0
41
1
10
49.0569809742079
20
-19.4882876709426
30
0
41
1
10
48.2692370391411
20
-20.150324001127
30
0
41
1
10
47.580154808078
20
-20.931113365614
30
0
41
1
10
47.0214615160822
20
-21.8099282412269
30
0
41
1
10
46.6395742428377
20
-22.6808143787762
30
0
41
1
10
46.4071879129631
20
-23.4903042242215
30
0
41
1
10
46.2817965597025
20
-24.2226949032253
30
0
41
1
10
46.2348731757432
20
-24.9881637018652
30
0
41
1
10
46.2785922323858
20
-25.7781635726165
30
0
41
1
10
46.4217013467656
20
-26.582872677886
30
0
41
1
10
46.6684320143561
20
-27.3922337577025
30
0
41
1
10
47.030397967512
20
-28.1940829730758
30
0
41
1
10
47.5184302790618
20
-28.9747717952503
30
0
41
1
10
48.0653145175244
20
-29.6302262443268
30
0
41
1
10
48.6387858770309
20
-30.1678507467994
30
0
41
1
10
49.210883668514
20
-30.6016413244825
30
0
41
1
10
49.8770167491131
20
-31.0025166633929
30
0
41
1
10
50.6473169948338
20
-31.3472295347629
30
0
41
1
10
51.311846204555
20
-31.5454288608625
30
0
41
1
10
51.6964060977515
20
-31.6234034750388
30
0
41
1
10
51.7786474891999
20
-31.6385840391126
30
0
0
SPLINE
5
109
100
AcDbEntity
8
1
62
256
6
ByLayer
370
18
48
1
60
0
100
AcDbSpline
70
4
71
3
72
12
73
8
40
0
40
0
40
0
40
0
40
0.268812720709595
40
0.597605301872838
40
0.761234284787753
40
0.896143503604642
40
1
40
1
40
1
40
1
41
1
10
10.1056624327026
20
9.8694126189664
30
0
41
1
10
10.1210897216715
20
9.80723406842839
30
0
41
1
10
10.1683946548371
20
9.6752889522605
30
0
41
1
10
10.2566058799037
20
9.51348309748281
30
0
41
1
10
10.3652779926941
20
9.4064616896891
30
0
41
1
10
10.454162144128
20
9.35849990179021
30
0
41
1
10
10.5121795531717
20
9.34989401091118
30
0
41
1
10
10.5386751345948
20
9.34922131452527
30
0
0
SPLINE
5
10A
100
AcDbEntity
8
1
62
256
6
ByLayer
370
18
48
1
60
0
100
AcDbSpline
70
4
71
3
72
13
73
9
40
0
40
0
40
0
40
0
40
0.0049544420437419
40
0.113866519425937
40
0.253452115449234
40
0.473535455387136
40
0.894568595884644
40
1
40
1
40
1
40
1
41
1
10
10.5386751345949
20
30.0805927603172
30
0
41
1
10
10.5374508724091
20
30.0805926868538
30
0
41
1
10
10.5093477717047
20
30.0805290593981
30
0
41
1
10
10.446551016443
20
30.0768838316288
30
0
41
1
10
10.3457330197466
20
30.0587733138663
30
0
41
1
10
10.2197164028838
20
30.0138157030742
30
0
41
1
10
10.148108350626
20
29.9607825352998
30
0
41
1
10
10.1120558984645
20
29.9218822348295
30
0
41
1
10
10.1056624327026
20
29.9139548464694
30
0
0
SPLINE
5
10B
100
AcDbEntity
8
1
62
256
6
ByLayer
370
18
48
1
60
0
100
AcDbSpline
70
4
71
3
72
12
73
8
40
0
40
0
40
0
40
0
40
0.268812720709444
40
0.597605301872766
40
0.761234284787693
40
0.896143503604594
40
1
40
1
40
1
40
1
41
1
10
13.8943375672975
20
29.9139548464694
30
0
41
1
10
13.8789102783286
20
29.9344364341765
30
0
41
1
10
13.831605345163
20
29.9775637976284
30
0
41
1
10
13.7433941200964
20
30.0291632435095
30
0
41
1
10
13.6347220073061
20
30.0627691562059
30
0
41
1
10
13.545837855872
20
30.0777080286648
30
0
41
1
10
13.4878204468284
20
30.0803887582691
30
0
41
1
10
13.4613248654053
20
30.0805927603172
30
0
0
SPLINE
5
10C
100
AcDbEntity
8
1
62
256
6
ByLayer
370
18
48
1
60
0
100
AcDbSpline
70
4
71
3
72
13
73
9
40
0
40
0
40
0
40
0
40
0.0049544420437806
40
0.113866519425999
40
0.253452115449322
40
0.473535455387248
40
0.89456859588488
40
1
40
1
40
1
40
1
41
1
10
13.4613248654052
20
9.34922131452529
30
0
41
1
10
13.462549127591
20
9.34922155870924
30
0
41
1
10
13.4906522282951
20
9.34942610523178
30
0
41
1
10
13.5534489835572
20
9.36116231186551
30
0
41
1
10
13.6542669802534
20
9.41926340653987
30
0
41
1
10
13.7802835971163
20
9.56214647013289
30
0
41
1
10
13.8518916493742
20
9.7270290642869
30
0
41
1
10
13.8879441015356
20
9.84537467551175
30
0
41
1
10
13.8943375672974
20
9.86941261896636
30
0
0
SPLINE
5
10D
100
AcDbEntity
8
1
62
256
6
ByLayer
370
18
48
1
60
0
100
AcDbSpline
70
4
71
3
72
12
73
8
40
0
40
0
40
0
40
0
40
0.268812720709658
40
0.597605301872841
40
0.761234284787771
40
0.896143503604642
40
1
40
1
40
1
40
1
41
1
10
10.1056624327025
20
-29.9139548464688
30
0
41
1
10
10.1210897216714
20
-29.934436434176
30
0
41
1
10
10.1683946548369
20
-29.9775637976279
30
0
41
1
10
10.2566058799037
20
-30.029163243509
30
0
41
1
10
10.3652779926939
20
-30.0627691562054
30
0
41
1
10
10.454162144128
20
-30.0777080286643
30
0
41
1
10
10.5121795531716
20
-30.0803887582686
30
0
41
1
10
10.5386751345947
20
-30.0805927603167
30
0
0
SPLINE
5
10E
100
AcDbEntity
8
1
62
256
6
ByLayer
370
18
48
1
60
0
100
AcDbSpline
70
4
71
3
72
13
73
9
40
0
40
0
40
0
40
0
40
0.0049544420438186
40
0.113866519425992
40
0.253452115449315
40
0.473535455387259
40
0.894568595884928
40
1
40
1
40
1
40
1
41
1
10
10.5386751345948
20
-9.34922131452475
30
0
41
1
10
10.537450872409
20
-9.34922155870871
30
0
41
1
10
10.5093477717047
20
-9.34942610523121
30
0
41
1
10
10.4465510164428
20
-9.36116231186499
30
0
41
1
10
10.3457330197466
20
-9.41926340653935
30
0
41
1
10
10.2197164028837
20
-9.56214647013238
30
0
41
1
10
10.1481083506257
20
-9.72702906428643
30
0
41
1
10
10.1120558984644
20
-9.84537467551127
30
0
41
1
10
10.1056624327026
20
-9.86941261896587
30
0
0
SPLINE
5
10F
100
AcDbEntity
8
1
62
256
6
ByLayer
370
18
48
1
60
0
100
AcDbSpline
70
4
71
3
72
12
73
8
40
0
40
0
40
0
40
0
40
0.268812720709522
40
0.597605301872762
40
0.761234284787721
40
0.896143503604598
40
1
40
1
40
1
40
1
41
1
10
13.8943375672974
20
-9.86941261896584
30
0
41
1
10
13.8789102783285
20
-9.80723406842785
30
0
41
1
10
13.8316053451629
20
-9.67528895225999
30
0
41
1
10
13.7433941200962
20
-9.51348309748229
30
0
41
1
10
13.634722007306
20
-9.4064616896886
30
0
41
1
10
13.5458378558719
20
-9.35849990178969
30
0
41
1
10
13.4878204468283
20
-9.34989401091067
30
0
41
1
10
13.4613248654051
20
-9.34922131452476
30
0
0
SPLINE
5
110
100
AcDbEntity
8
1
62
256
6
ByLayer
370
18
48
1
60
0
100
AcDbSpline
70
4
71
3
72
13
73
9
40
0
40
0
40
0
40
0
40
0.0049544420437805
40
0.113866519426
40
0.253452115449322
40
0.47353545538725
40
0.894568595884882
40
1
40
1
40
1
40
1
41
1
10
13.4613248654051
20
-30.0805927603167
30
0
41
1
10
13.4625491275909
20
-30.0805926868533
30
0
41
1
10
13.490652228295
20
-30.0805290593974
30
0
41
1
10
13.5534489835572
20
-30.0768838316284
30
0
41
1
10
13.6542669802533
20
-30.0587733138657
30
0
41
1
10
13.7802835971162
20
-30.0138157030737
30
0
41
1
10
13.851891649374
20
-29.9607825352993
30
0
41
1
10
13.8879441015355
20
-29.9218822348289
30
0
41
1
10
13.8943375672973
20
-29.9139548464689
30
0
0
SPLINE
5
111
100
AcDbEntity
8
1
62
256
6
ByLayer
370
18
48
1
60
0
100
AcDbSpline
70
4
71
1
72
4
73
2
40
0
40
0
40
1
40
1
41
1
10
124
20
38.3654118544163
30
0
41
1
10
125
20
37.6059692628831
30
0
0
SPLINE
5
112
100
AcDbEntity
8
SK1
62
256
6
ByLayer
370
18
48
1
60
0
100
AcDbSpline
70
4
71
2
72
6
73
3
40
0
40
0
40
0
40
1
40
1
40
1
41
1
10
0
20
6.53762644691771
30
0
41
1
10
-0.0701685688191418
20
6.81436012170836
30
0
41
1
10
-0.200000000000372
20
7.06635659049349
30
0
0
SPLINE
5
113
100
AcDbEntity
8
SK1
62
256
6
ByLayer
370
18
48
1
60
0
100
AcDbSpline
70
4
71
3
72
18
73
14
40
0
40
0
40
0
40
0
40
0.457601954979947
40
0.670228390503605
40
0.756258954025563
40
0.840913625537986
40
0.872113365658749
40
0.903550890302637
40
0.922117238676576
40
0.940788516967644
40
0.95798996254858
40
0.987812257341818
40
1
40
1
40
1
40
1
41
1
10
-0.200000000000031
20
6.83438539665005
30
0
41
1
10
-0.196288555477395
20
6.70659076258054
30
0
41
1
10
-0.206763221450444
20
6.5194181819731
30
0
41
1
10
-0.23504802500716
20
6.30574989641359
30
0
41
1
10
-0.262320806799934
20
6.19921380029887
30
0
41
1
10
-0.28327361605264
20
6.14414172095757
30
0
41
1
10
-0.306505140720986
20
6.1079550454021
30
0
41
1
10
-0.323460845652477
20
6.09075458849242
30
0
41
1
10
-0.34157160095198
20
6.08179566830256
30
0
41
1
10
-0.357322427113715
20
6.08023537591002
30
0
41
1
10
-0.375278755299163
20
6.08482142558716
30
0
41
1
10
-0.389098606433166
20
6.09409200313979
30
0
41
1
10
-0.397637448450382
20
6.10181966298637
30
0
41
1
10
-0.400000000000006
20
6.10423197315564
30
0
0
SPLINE
5
114
100
AcDbEntity
8
SK1
62
256
6
ByLayer
370
18
48
1
60
0
100
AcDbSpline
70
4
71
3
72
17
73
13
40
0
40
0
40
0
40
0
40
0.0428240807901583
40
0.086026498619629
40
0.116365121965836
40
0.146702344468331
40
0.190290998790324
40
0.271171318915646
40
0.40558975578982
40
0.540658493128872
40
0.770235905397075
40
1
40
1
40
1
40
1
41
1
10
-0.40000000000002
20
6.10423197315567
30
0
41
1
10
-0.419811939807829
20
6.12545634712039
30
0
41
1
10
-0.464215810549277
20
6.16118054942645
30
0
41
1
10
-0.537404296379776
20
6.19762954520627
30
0
41
1
10
-0.611358310763066
20
6.20533675022254
30
0
41
1
10
-0.683800317523136
20
6.18970784507697
30
0
41
1
10
-0.77626342866715
20
6.1354405542104
30
0
41
1
10
-0.890570771917211
20
6.00617655880103
30
0
41
1
10
-1.00159332888055
20
5.80742857092647
30
0
41
1
10
-1.11592044967112
20
5.50690539843465
30
0
41
1
10
-1.22095392591014
20
5.13705997601861
30
0
41
1
10
-1.28227297421149
20
4.8444088164019
30
0
41
1
10
-1.30710678118912
20
4.69591515672542
30
0
0
SPLINE
5
115
100
AcDbEntity
8
SK1
62
256
6
ByLayer
370
18
48
1
60
0
100
AcDbSpline
70
4
71
3
72
17
73
13
40
0
40
0
40
0
40
0
40
0.381018898312303
40
0.53340658753234
40
0.685314393402133
40
0.776940313646898
40
0.826439455395077
40
0.863683733136109
40
0.893990912348022
40
0.924297367659275
40
0.967822770240201
40
1
40
1
40
1
40
1
41
1
10
-1.30710678118901
20
-4.69591747911632
30
0
41
1
10
-1.26801027582606
20
-4.94329991172823
30
0
41
1
10
-1.18690631520143
20
-5.27981270933059
30
0
41
1
10
-1.0483058144893
20
-5.69927235921772
30
0
41
1
10
-0.937566190853033
20
-5.93030168201841
30
0
41
1
10
-0.825101510100922
20
-6.08660263394584
30
0
41
1
10
-0.732996132442281
20
-6.16410159398309
30
0
41
1
10
-0.658447126217979
20
-6.1979451299674
30
0
41
1
10
-0.588823204324555
20
-6.20534736395748
30
0
41
1
10
-0.516429272949651
20
-6.18985053412127
30
0
41
1
10
-0.453132891096587
20
-6.15239431560616
30
0
41
1
10
-0.414932067199416
20
-6.1198021829742
30
0
41
1
10
-0.400000000000063
20
-6.10423156157984
30
0
0
SPLINE
5
116
100
AcDbEntity
8
SK1
62
256
6
ByLayer
370
18
48
1
60
0
100
AcDbSpline
70
4
71
3
72
17
73
13
40
0
40
0
40
0
40
0
40
0.0298547527790894
40
0.0525781980068946
40
0.0702552594574067
40
0.0879570282206767
40
0.111562258438708
40
0.153224651801904
40
0.282447345849235
40
0.553767947019485
40
0.826225344354153
40
1
40
1
40
1
40
1
41
1
10
-0.400000000000048
20
-6.1042315615798
30
0
41
1
10
-0.394253616263356
20
-6.09797454756681
30
0
41
1
10
-0.382913537569237
20
-6.08923142505234
30
0
41
1
10
-0.364786670968343
20
-6.0812343123476
30
0
41
1
10
-0.348123200226283
20
-6.08048188623928
30
0
41
1
10
-0.331686692288074
20
-6.08578067628301
30
0
41
1
10
-0.312103115453581
20
-6.10063829425691
30
0
41
1
10
-0.278950759627506
20
-6.14757789301968
30
0
41
1
10
-0.240075114125943
20
-6.27084073435032
30
0
41
1
10
-0.210538570778098
20
-6.46014710085127
30
0
41
1
10
-0.20220707679151
20
-6.66173364401404
30
0
41
1
10
-0.199932550514546
20
-6.78606967214922
30
0
41
1
10
-0.200000000000088
20
-6.83438537300069
30
0
0
SPLINE
5
117
100
AcDbEntity
8
SK1
62
256
6
ByLayer
370
18
48
1
60
0
100
AcDbSpline
70
4
71
2
72
6
73
3
40
0
40
0
40
0
40
1
40
1
40
1
41
1
10
-0.200000000000117
20
-7.06635637915011
30
0
41
1
10
-0.0734274419907308
20
-6.81242483479834
30
0
41
1
10
-5.68E-14
20
-6.53762631735237
30
0
0
SPLINE
5
118
100
AcDbEntity
8
SK1
62
256
6
ByLayer
370
18
48
1
60
0
100
AcDbSpline
70
4
71
3
72
17
73
13
40
0
40
0
40
0
40
0
40
0.0580225012479921
40
0.11834864479948
40
0.239045605916066
40
0.359733859479286
40
0.420057331685108
40
0.540737207212112
40
0.661413446181953
40
0.782087083174558
40
0.891043037348933
40
1
40
1
40
1
40
1
41
1
10
-2.19993697155937
20
22.0201008059931
30
0
41
1
10
-2.19994111039227
20
22.0199534703525
30
0
41
1
10
-2.19994895187905
20
22.0110355151031
30
0
41
1
10
-2.1999620102708
20
21.9567319822781
30
0
41
1
10
-2.19997487537984
20
21.8226368757697
30
0
41
1
10
-2.19998362821039
20
21.6082265212777
30
0
41
1
10
-2.19999009566088
20
21.3379022336918
30
0
41
1
10
-2.199994591502
20
21.0133950374219
30
0
41
1
10
-2.19999774058265
20
20.5423536268448
30
0
41
1
10
-2.19999929850843
20
20.0115636298921
30
0
41
1
10
-2.19999991154323
20
19.432428546383
30
0
41
1
10
-2.20000003133549
20
19.0211973864865
30
0
41
1
10
-2.19999999999996
20
18.8057993597023
30
0
0
SPLINE
5
119
100
AcDbEntity
8
SK1
62
256
6
ByLayer
370
18
48
1
60
0
100
AcDbSpline
70
4
71
2
72
6
73
3
40
0
40
0
40
0
40
1
40
1
40
1
41
1
10
-2.19492341897848
20
-22.02022675539
30
0
41
1
10
-2.59746170948928
20
-22.0101135922169
30
0
41
1
10
-3.00000000000006
20
-22.0000004290438
30
0
0
SPLINE
5
11A
100
AcDbEntity
8
SK1
62
256
6
ByLayer
370
18
48
1
60
0
100
AcDbSpline
70
4
71
2
72
6
73
3
40
0
40
0
40
0
40
1
40
1
40
1
41
1
10
-2.99999999999994
20
22.0000004375349
30
0
41
1
10
-2.59746170948914
20
22.0101136007119
30
0
41
1
10
-2.19492341897836
20
22.0202267638888
30
0
0
SPLINE
5
11B
100
AcDbEntity
8
SK1
62
256
6
ByLayer
370
18
48
1
60
0
100
AcDbSpline
70
4
71
3
72
16
73
12
40
0
40
0
40
0
40
0
40
0.184646545889678
40
0.369282001002234
40
0.446570578458753
40
0.601218053327681
40
0.678508667543342
40
0.755800290912626
40
0.910480712180171
40
0.987777323109331
40
1
40
1
40
1
40
1
41
1
10
-2.20000000000006
20
-18.8057994753422
30
0
41
1
10
-2.20000018272168
20
-19.1716156324772
30
0
41
1
10
-2.19999974454276
20
-19.8452654753842
30
0
41
1
10
-2.19999793915504
20
-20.5243306402591
30
0
41
1
10
-2.19999408510641
20
-21.058941239356
30
0
41
1
10
-2.19998945764314
20
-21.3894116400498
30
0
41
1
10
-2.19998210572923
20
-21.6478613936427
30
0
41
1
10
-2.19997253629171
20
-21.8562295107393
30
0
41
1
10
-2.19995900721271
20
-21.9859008207826
30
0
41
1
10
-2.19994416653245
20
-22.0186595225646
30
0
41
1
10
-2.19993796684436
20
-22.0200932305389
30
0
41
1
10
-2.19993658405048
20
-22.0201031381139
30
0
0
SPLINE
5
11C
100
AcDbEntity
8
SK1
62
256
6
ByLayer
370
18
48
1
60
0
100
AcDbSpline
70
4
71
3
72
32
73
28
40
0
40
0
40
0
40
0
40
0.0716334260949745
40
0.143256529189987
40
0.190050573724377
40
0.213441193233611
40
0.260240138007838
40
0.283631588752894
40
0.30702344732284
40
0.35383553582361
40
0.377229344462789
40
0.424062554554733
40
0.447460003204659
40
0.494326234429853
40
0.517726623753285
40
0.564594278770553
40
0.611439644929098
40
0.634834243232038
40
0.658227890547434
40
0.681620767793084
40
0.728429060974258
40
0.751820445379219
40
0.798619714518877
40
0.845415336969496
40
0.892208389551173
40
0.938999579257363
40
1
40
1
40
1
40
1
41
1
10
-2.19999999999999
20
13.0172213664195
30
0
41
1
10
-2.20000012546204
20
12.5163682521984
30
0
41
1
10
-2.19999979855268
20
11.4787806153274
30
0
41
1
10
-2.19999832423321
20
10.0061434571947
30
0
41
1
10
-2.19999567121343
20
8.84940025016655
30
0
41
1
10
-2.19999244201175
20
7.86699827696334
30
0
41
1
10
-2.1999888908763
20
7.05834071262724
30
0
41
1
10
-2.19998411097174
20
6.22762972868382
30
0
41
1
10
-2.1999784478885
20
5.38216671385277
30
0
41
1
10
-2.19997134280064
20
4.51445976226745
30
0
41
1
10
-2.19996087692474
20
3.40444474467769
30
0
41
1
10
-2.19995155028431
20
2.49604539408716
30
0
41
1
10
-2.19994118537217
20
1.34163268177041
30
0
41
1
10
-2.19993602981931
20
0.404861182855436
30
0
41
1
10
-2.19993737251807
20
-0.767166940003547
30
0
41
1
10
-2.19994585803009
20
-1.93426260184126
30
0
41
1
10
-2.19995759722258
20
-3.07716034841892
30
0
41
1
10
-2.199966275069
20
-3.97166295154338
30
0
41
1
10
-2.19997225400365
20
-4.63218041454743
30
0
41
1
10
-2.19997931359299
20
-5.49902983221403
30
0
41
1
10
-2.19998495658039
20
-6.34468898110269
30
0
41
1
10
-2.1999903867021
20
-7.37364443866689
30
0
41
1
10
-2.19999436945503
20
-8.3748439391996
30
0
41
1
10
-2.19999734755106
20
-9.53096311125931
30
0
41
1
10
-2.19999902893714
20
-10.6415225398889
30
0
41
1
10
-2.19999986677122
20
-11.8140230232374
30
0
41
1
10
-2.2000000582605
20
-12.5907288729275
30
0
41
1
10
-2.20000000000006
20
-13.0172198853361
30
0
0
SPLINE
5
11D
100
AcDbEntity
8
SK1
62
256
6
ByLayer
370
18
48
1
60
0
100
AcDbSpline
70
4
71
3
72
13
73
9
40
0
40
0
40
0
40
0
40
0.239458036043324
40
0.368362246063034
40
0.500001724232853
40
0.631640912863353
40
0.760544326641082
40
1
40
1
40
1
40
1
41
1
10
-2.0000000000001
20
-21.8251283250686
30
0
41
1
10
-2.02607218225593
20
-21.8253815693234
30
0
41
1
10
-2.06363558177705
20
-21.8324994546092
30
0
41
1
10
-2.11047835033028
20
-21.8567272514905
30
0
41
1
10
-2.14242263580771
20
-21.882704977671
30
0
41
1
10
-2.16840067169753
20
-21.9146488976996
30
0
41
1
10
-2.19262875626107
20
-21.9614911120952
30
0
41
1
10
-2.19974671959667
20
-21.9990541369819
30
0
41
1
10
-2.20000000000006
20
-22.0251260775074
30
0
0
SPLINE
5
11E
100
AcDbEntity
8
SK1
62
256
6
ByLayer
370
18
48
1
60
0
100
AcDbSpline
70
4
71
3
72
13
73
9
40
0
40
0
40
0
40
0
40
0.239455678458316
40
0.368359092600217
40
0.4999982805917
40
0.631637757476773
40
0.760541965960201
40
1
40
1
40
1
40
1
41
1
10
-2.19999999999996
20
22.0251260837648
30
0
41
1
10
-2.19974671976318
20
21.9990541435575
30
0
41
1
10
-2.19262875645042
20
21.9614911190383
30
0
41
1
10
-2.16840067179325
20
21.9146489043202
30
0
41
1
10
-2.14242263587782
20
21.8827049843061
30
0
41
1
10
-2.1104783503753
20
21.8567272581282
30
0
41
1
10
-2.06363558166028
20
21.8324994612333
30
0
41
1
10
-2.02607218220652
20
21.8253815759779
30
0
41
1
10
-1.99999999999991
20
21.8251283317574
30
0
0
SPLINE
5
11F
100
AcDbEntity
8
SK1
62
256
6
ByLayer
370
18
48
1
60
0
100
AcDbSpline
70
4
71
3
72
49
73
45
40
0
40
0
40
0
40
0
40
0.0001475045227293
40
0.024135829007025
40
0.0507419524763763
40
0.0796236802539475
40
0.110462258282342
40
0.142976752321686
40
0.176582160530474
40
0.210515942348529
40
0.244234267834771
40
0.277174584265954
40
0.308778652996427
40
0.338366528715461
40
0.365586358761112
40
0.390365621639752
40
0.412592340766277
40
0.432121977509153
40
0.449017695276649
40
0.4637716220309
40
0.476872949203847
40
0.488799374662162
40
0.50000012838953
40
0.511200881880703
40
0.52312730719013
40
0.536228634526209
40
0.550982561192364
40
0.567878277340552
40
0.587407912151972
40
0.60963463161445
40
0.634413896612512
40
0.661633729496881
40
0.691221607210001
40
0.722825676882269
40
0.755765993989263
40
0.789484319610311
40
0.823418100951741
40
0.857023508217065
40
0.889538001699442
40
0.920376579776998
40
0.949258307798929
40
0.975864431432268
40
0.999852755859864
40
1
40
1
40
1
40
1
41
1
10
-36.500473405053
20
21.1582995235052
30
0
41
1
10
-36.5004723974974
20
21.1583172137219
30
0
41
1
10
-36.5003076028511
20
21.1610550484541
30
0
41
1
10
-36.499987467434
20
21.1064242689956
30
0
41
1
10
-36.4995563209426
20
20.8651112726754
30
0
41
1
10
-36.4991610679035
20
20.4445261031174
30
0
41
1
10
-36.4988171402291
20
19.8291731156548
30
0
41
1
10
-36.4985408753772
20
19.0092271671458
30
0
41
1
10
-36.4983484839566
20
17.9733920004664
30
0
41
1
10
-36.4982392150291
20
16.7500689209577
30
0
41
1
10
-36.498210736941
20
15.3783144150542
30
0
41
1
10
-36.498259906282
20
13.8930397472087
30
0
41
1
10
-36.4983845892024
20
12.3278595964941
30
0
41
1
10
-36.4985779768549
20
10.7305478878599
30
0
41
1
10
-36.4988189903225
20
9.15952533376679
30
0
41
1
10
-36.4990912200131
20
7.64760736725527
30
0
41
1
10
-36.4993767528022
20
6.22657199706157
30
0
41
1
10
-36.4996628628941
20
4.91823531641398
30
0
41
1
10
-36.4999294899273
20
3.73980410250068
30
0
41
1
10
-36.5001546574946
20
2.68498640092397
30
0
41
1
10
-36.5003300722335
20
1.72717768555282
30
0
41
1
10
-36.5004443733706
20
0.842757683329678
30
0
41
1
10
-36.5004871163849
20
-8.7341826E-09
30
0
41
1
10
-36.5004443720926
20
-0.84275771974094
30
0
41
1
10
-36.5003300714629
20
-1.72717771192409
30
0
41
1
10
-36.5001546575904
20
-2.68498639327488
30
0
41
1
10
-36.4999294908462
20
-3.7398040414424
30
0
41
1
10
-36.4996628635238
20
-4.9182353375035
30
0
41
1
10
-36.499376752825
20
-6.22657212878346
30
0
41
1
10
-36.4990912201103
20
-7.64760745049167
30
0
41
1
10
-36.498818990549
20
-9.15952537002267
30
0
41
1
10
-36.4985779771834
20
-10.7305478600859
30
0
41
1
10
-36.4983845893585
20
-12.3278595561981
30
0
41
1
10
-36.4982599057583
20
-13.8930397760205
30
0
41
1
10
-36.4982107355889
20
-15.3783145252215
30
0
41
1
10
-36.4982392131571
20
-16.7500690970884
30
0
41
1
10
-36.4983484821863
20
-17.9733921797934
30
0
41
1
10
-36.4985408751306
20
-19.0092271783294
30
0
41
1
10
-36.4988171419569
20
-19.8291729303503
30
0
41
1
10
-36.4991610707739
20
-20.4445258850664
30
0
41
1
10
-36.4995563246611
20
-20.8651111149406
30
0
41
1
10
-36.4999874717441
20
-21.1064241561611
30
0
41
1
10
-36.5003076059848
20
-21.1610548154695
30
0
41
1
10
-36.5004723989162
20
-21.1583172724513
30
0
41
1
10
-36.5004734046939
20
-21.1582996167488
30
0
0
SPLINE
5
120
100
AcDbEntity
8
SK1
62
256
6
ByLayer
370
18
48
1
60
0
100
AcDbSpline
70
4
71
2
72
6
73
3
40
0
40
0
40
0
40
1
40
1
40
1
41
1
10
-3.00000000000006
20
-22.0000004290438
30
0
41
1
10
-19.7502365839534
20
-21.5791761751665
30
0
41
1
10
-36.5004731679067
20
-21.1583519212892
30
0
0
SPLINE
5
121
100
AcDbEntity
8
SK1
62
256
6
ByLayer
370
18
48
1
60
0
100
AcDbSpline
70
4
71
2
72
6
73
3
40
0
40
0
40
0
40
1
40
1
40
1
41
1
10
-36.5004731679066
20
21.1583519294555
30
0
41
1
10
-19.7502365839533
20
21.5791761834952
30
0
41
1
10
-2.99999999999994
20
22.0000004375349
30
0
0
SPLINE
5
122
100
AcDbEntity
8
SK1
62
256
6
ByLayer
370
18
48
1
60
0
100
AcDbSpline
70
4
71
2
72
6
73
3
40
0
40
0
40
0
40
1
40
1
40
1
41
1
10
-37.9999999999999
20
20.2414566333235
30
0
41
1
10
-37.2502401090884
20
20.699810117892
30
0
41
1
10
-36.5004804793291
20
21.1581635957927
30
0
0
SPLINE
5
123
100
AcDbEntity
8
SK1
62
256
6
ByLayer
370
18
48
1
60
0
100
AcDbSpline
70
4
71
2
72
6
73
3
40
0
40
0
40
0
40
1
40
1
40
1
41
1
10
-36.5004804844793
20
-21.1581635937514
30
0
41
1
10
-37.2502401116072
20
-20.6998101158722
30
0
41
1
10
-38.0000000000001
20
-20.2414566313414
30
0
0
SPLINE
5
124
100
AcDbEntity
8
SK1
62
256
6
ByLayer
370
18
48
1
60
0
100
AcDbSpline
70
4
71
3
72
17
73
13
40
0
40
0
40
0
40
0
40
0.165081191613287
40
0.248797061165695
40
0.332496679566327
40
0.415277825743967
40
0.498046968683792
40
0.583249585425435
40
0.668465384839979
40
0.750712143588995
40
0.832974102657855
40
1
40
1
40
1
40
1
41
1
10
-1.30710678118656
20
-4.69591747912997
30
0
41
1
10
-1.39798477932828
20
-4.20540076485697
30
0
41
1
10
-1.51864992901834
20
-3.45199087457988
30
0
41
1
10
-1.65120335434381
20
-2.41585133978305
30
0
41
1
10
-1.72812095010369
20
-1.62293542031003
30
0
41
1
10
-1.77718425553142
20
-0.822446580426829
30
0
41
1
10
-1.79522923957649
20
-0.0111379780858118
30
0
41
1
10
-1.77806664947632
20
0.808218120760969
30
0
41
1
10
-1.72842463498334
20
1.61975783719177
30
0
41
1
10
-1.65159875379374
20
2.41111733942181
30
0
41
1
10
-1.51984228358829
20
3.44452139763586
30
0
41
1
10
-1.3990988708412
20
4.19959953418576
30
0
41
1
10
-1.30710678118682
20
4.69591515673761
30
0
0
SPLINE
5
125
100
AcDbEntity
8
SK1
62
256
6
ByLayer
370
18
48
1
60
0
100
AcDbSpline
70
4
71
2
72
6
73
3
40
0
40
0
40
0
40
1
40
1
40
1
41
1
10
-1.99999999999994
20
21.8251283317574
30
0
41
1
10
-1.19999999999993
20
21.8251283317574
30
0
41
1
10
-0.399999999999949
20
21.8251283317574
30
0
0
SPLINE
5
126
100
AcDbEntity
8
SK1
62
256
6
ByLayer
370
18
48
1
60
0
100
AcDbSpline
70
4
71
2
72
6
73
3
40
0
40
0
40
0
40
1
40
1
40
1
41
1
10
-0.400000000000063
20
-21.8251283250686
30
0
41
1
10
-1.20000000000007
20
-21.8251283250686
30
0
41
1
10
-2.00000000000008
20
-21.8251283250686
30
0
0
SPLINE
5
127
100
AcDbEntity
8
SK1
62
256
6
ByLayer
370
18
48
1
60
0
100
AcDbSpline
70
4
71
3
72
17
73
13
40
0
40
0
40
0
40
0
40
0.0562503710121019
40
0.302232893456549
40
0.54482175708038
40
0.633989362759356
40
0.723835143577771
40
0.777156866819234
40
0.83077671635121
40
0.880226750602766
40
0.966168127189509
40
1
40
1
40
1
40
1
41
1
10
-0.241410258213065
20
-21.873679374238
30
0
41
1
10
-0.242520657230244
20
-21.8719350281294
30
0
41
1
10
-0.248792802644701
20
-21.8624796952583
30
0
41
1
10
-0.262334160117845
20
-21.8447775349849
30
0
41
1
10
-0.28330881529682
20
-21.8243203375177
30
0
41
1
10
-0.306572525311879
20
-21.8085068522608
30
0
41
1
10
-0.323531624237987
20
-21.7995894645501
30
0
41
1
10
-0.341652688951655
20
-21.7928012309489
30
0
41
1
10
-0.357437579552624
20
-21.7887375410063
30
0
41
1
10
-0.375448834624223
20
-21.7860084676533
30
0
41
1
10
-0.389214394819561
20
-21.7856403636883
30
0
41
1
10
-0.397708107025878
20
-21.7860027199815
30
0
41
1
10
-0.400000000000063
20
-21.7861773216567
30
0
0
SPLINE
5
128
100
AcDbEntity
8
SK1
62
256
6
ByLayer
370
18
48
1
60
0
100
AcDbSpline
70
4
71
2
72
6
73
3
40
0
40
0
40
0
40
1
40
1
40
1
41
1
10
-0.207513812777861
20
-21.9543394548568
30
0
41
1
10
-0.215102696058992
20
-21.9180320772149
30
0
41
1
10
-0.241410258213065
20
-21.873679374238
30
0
0
SPLINE
5
129
100
AcDbEntity
8
SK1
62
256
6
ByLayer
370
18
48
1
60
0
100
AcDbSpline
70
4
71
3
72
10
73
6
40
0
40
0
40
0
40
0
40
0.19417320545291
40
0.720692852633074
40
1
40
1
40
1
40
1
41
1
10
-0.230992960280346
20
-21.9164927393489
30
0
41
1
10
-0.231497447137826
20
-21.9168337474582
30
0
41
1
10
-0.233465095684835
20
-21.9158514537837
30
0
41
1
10
-0.236554822110733
20
-21.9033674864714
30
0
41
1
10
-0.239647604505151
20
-21.8823136957842
30
0
41
1
10
-0.24077878553696
20
-21.8737416974886
30
0
0
SPLINE
5
12A
100
AcDbEntity
8
SK1
62
256
6
ByLayer
370
18
48
1
60
0
100
AcDbSpline
70
4
71
1
72
4
73
2
40
0
40
0
40
1
40
1
41
1
10
-0.200000000000088
20
-7.06635637915029
30
0
41
1
10
-0.200000000000088
20
-7.45410184860161
30
0
0
SPLINE
5
12B
100
AcDbEntity
8
SK1
62
256
6
ByLayer
370
18
48
1
60
0
100
AcDbSpline
70
4
71
1
72
4
73
2
40
0
40
0
40
1
40
1
41
1
10
-5.68E-14
20
-7.47795498707157
30
0
41
1
10
-0.200000000000031
20
-7.45410184860163
30
0
0
SPLINE
5
12C
100
AcDbEntity
8
SK1
62
256
6
ByLayer
370
18
48
1
60
0
100
AcDbSpline
70
4
71
1
72
4
73
2
40
0
40
0
40
1
40
1
41
1
10
-0.200000000000031
20
7.45410255809337
30
0
41
1
10
-0.200000000000031
20
7.06635659049349
30
0
0
SPLINE
5
12D
100
AcDbEntity
8
SK1
62
256
6
ByLayer
370
18
48
1
60
0
100
AcDbSpline
70
4
71
1
72
4
73
2
40
0
40
0
40
1
40
1
41
1
10
-0.199999999999974
20
7.45410255809337
30
0
41
1
10
0
20
7.47795571927772
30
0
0
SPLINE
5
12E
100
AcDbEntity
8
SK1
62
256
6
ByLayer
370
18
48
1
60
0
100
AcDbSpline
70
4
71
3
72
13
73
9
40
0
40
0
40
0
40
0
40
0.0079707130596743
40
0.0396241270433275
40
0.0955488425600348
40
0.26917307367285
40
0.633822992485746
40
1
40
1
40
1
40
1
41
1
10
-0.338282050925287
20
21.7942082084432
30
0
41
1
10
-0.336668556352521
20
21.794761657102
30
0
41
1
10
-0.328819983142211
20
21.797558793573
30
0
41
1
10
-0.311883259224402
20
21.8052416553615
30
0
41
1
10
-0.278665032833857
20
21.8266242880782
30
0
41
1
10
-0.23950460297543
20
21.8707298360349
30
0
41
1
10
-0.211260723872058
20
21.9275599013441
30
0
41
1
10
-0.201686189674362
20
21.9672324425539
30
0
41
1
10
-0.2019829735396
20
21.9851190293863
30
0
0
SPLINE
5
12F
100
AcDbEntity
8
SK1
62
256
6
ByLayer
370
18
48
1
60
0
100
AcDbSpline
70
4
71
3
72
18
73
14
40
0
40
0
40
0
40
0
40
0.0001431681574931
40
0.0003354112121143
40
0.0008355839746337
40
0.0024849240296756
40
0.0088310998690423
40
0.0350773432353198
40
0.150346955196424
40
0.282246603809536
40
0.466811423049957
40
0.713073957317827
40
1
40
1
40
1
40
1
41
1
10
-0.329402966041513
20
21.798611897025
30
0
41
1
10
-0.329320211007143
20
21.7986433604435
30
0
41
1
10
-0.329134275804606
20
21.7987155649775
30
0
41
1
10
-0.328711403447372
20
21.7988910859115
30
0
41
1
10
-0.327855167068094
20
21.7992872732389
30
0
41
1
10
-0.326162393136983
20
21.8002464837878
30
0
41
1
10
-0.322746614637595
20
21.8028745835735
30
0
41
1
10
-0.31573476036553
20
21.8112432930142
30
0
41
1
10
-0.309826589812886
20
21.8229933477726
30
0
41
1
10
-0.302814942565234
20
21.8377792089496
30
0
41
1
10
-0.296382330850534
20
21.8512992517013
30
0
41
1
10
-0.290009766766843
20
21.8597832804476
30
0
41
1
10
-0.286096723159417
20
21.8587440837094
30
0
41
1
10
-0.284307708094815
20
21.8559936314478
30
0
0
SPLINE
5
130
100
AcDbEntity
8
SK1
62
256
6
ByLayer
370
18
48
1
60
0
100
AcDbSpline
70
4
71
3
72
27
73
23
40
0
40
0
40
0
40
0
40
0.0001073852543368
40
0.0002199288032347
40
0.0004766322078734
40
0.0011865882088497
40
0.0035852972007502
40
0.0124906097527044
40
0.0457773827886433
40
0.163320048993921
40
0.327166697384366
40
0.511886284051417
40
0.693355537316442
40
0.849016222535385
40
0.957783689348997
40
0.988251419690304
40
0.996454526370576
40
0.998725110286059
40
0.999438075256938
40
0.999713538405663
40
0.999957925939071
40
1
40
1
40
1
40
1
41
1
10
-0.399999999999977
20
21.8251283317574
30
0
41
1
10
-0.399952929909787
20
21.8251283332132
30
0
41
1
10
-0.399858862015037
20
21.8251283647616
30
0
41
1
10
-0.399662497283245
20
21.8251285732485
30
0
41
1
10
-0.399278471368973
20
21.8251294283576
30
0
41
1
10
-0.398474986215163
20
21.8251332611164
30
0
41
1
10
-0.396921129491247
20
21.8251483818731
30
0
41
1
10
-0.39385912453298
20
21.8252014625691
30
0
41
1
10
-0.388019887674176
20
21.825319343945
30
0
41
1
10
-0.381306416136454
20
21.8249988200073
30
0
41
1
10
-0.373331594145057
20
21.8229562188468
30
0
41
1
10
-0.365230309655885
20
21.8184391684184
30
0
41
1
10
-0.357082372194299
20
21.8117911518966
30
0
41
1
10
-0.34892523597297
20
21.8046798723027
30
0
41
1
10
-0.341981411276976
20
21.7995529064509
30
0
41
1
10
-0.335860974297333
20
21.797731157711
30
0
41
1
10
-0.332662052750393
20
21.7977847955825
30
0
41
1
10
-0.331028408005338
20
21.7980971834621
30
0
41
1
10
-0.330191885972013
20
21.7983373641889
30
0
41
1
10
-0.329761962144843
20
21.7984804914221
30
0
41
1
10
-0.329535433463036
20
21.7985620336231
30
0
41
1
10
-0.32942000441416
20
21.7986054527805
30
0
41
1
10
-0.329402966041528
20
21.798611897025
30
0
0
SPLINE
5
131
100
AcDbEntity
8
1
62
256
6
ByLayer
370
18
48
1
60
0
100
AcDbSpline
70
4
71
3
72
12
73
8
40
0
40
0
40
0
40
0
40
0.109646161983805
40
0.399606241128653
40
0.6903380052895
40
0.980443448942484
40
1
40
1
40
1
40
1
41
1
10
108.731950772814
20
44.9999996576727
30
0
41
1
10
108.696074599519
20
45.0000328605116
30
0
41
1
10
108.572737703639
20
44.9987497889751
30
0
41
1
10
108.407147787311
20
44.987816097172
30
0
41
1
10
108.281813298766
20
44.9575092169119
30
0
41
1
10
108.250926005445
20
44.9250305735675
30
0
41
1
10
108.249998243983
20
44.9049681800424
30
0
41
1
10
108.250000002806
20
44.9036881866829
30
0
0
SPLINE
5
132
100
AcDbEntity
8
1
62
256
6
ByLayer
370
18
48
1
60
0
100
AcDbSpline
70
4
71
3
72
25
73
21
40
0
40
0
40
0
40
0
40
0.0180737668453323
40
0.0833130245406941
40
0.13897968254416
40
0.194871419946502
40
0.250489421225339
40
0.297800462143406
40
0.345287179535789
40
0.392581326875352
40
0.446331983496742
40
0.500080098381988
40
0.56301718293097
40
0.625959849623291
40
0.688816981936242
40
0.751689917661212
40
0.81613219632342
40
0.8805991886081
40
0.95005892049306
40
1
40
1
40
1
40
1
41
1
10
121.268192645199
20
44.9999997068816
30
0
41
1
10
121.234647433096
20
44.9997828924798
30
0
41
1
10
121.072101263106
20
44.9976522846083
30
0
41
1
10
120.744338939229
20
44.9860099823759
30
0
41
1
10
120.204972636625
20
44.9537030598763
30
0
41
1
10
119.599557584257
20
44.9145210274088
30
0
41
1
10
118.938387056495
20
44.8728166864501
30
0
41
1
10
118.242213636444
20
44.8337695798301
30
0
41
1
10
117.534915508743
20
44.8003010501491
30
0
41
1
10
116.753415218061
20
44.7716263117876
30
0
41
1
10
115.903838699888
20
44.7522567487428
30
0
41
1
10
114.948563089544
20
44.7444901853197
30
0
41
1
10
113.941285958275
20
44.7541488084509
30
0
41
1
10
112.913410490825
20
44.7814929557455
30
0
41
1
10
111.947106913909
20
44.8232800078571
30
0
41
1
10
111.056981735529
20
44.8727211793703
30
0
41
1
10
110.26923411857
20
44.9230652236292
30
0
41
1
10
109.58016606014
20
44.9675762161214
30
0
41
1
10
109.075120891704
20
44.9942594303954
30
0
41
1
10
108.823677867963
20
44.999622622633
30
0
41
1
10
108.731950772814
20
44.9999996576727
30
0
0
SPLINE
5
133
100
AcDbEntity
8
1
62
256
6
ByLayer
370
18
48
1
60
0
100
AcDbSpline
70
4
71
3
72
12
73
8
40
0
40
0
40
0
40
0
40
0.109646161983805
40
0.399606241128651
40
0.690338005289497
40
0.98044344894248
40
1
40
1
40
1
40
1
41
1
10
77.731950772814
20
44.9999996576728
30
0
41
1
10
77.6960745995189
20
45.0000328605116
30
0
41
1
10
77.572737703639
20
44.9987497889751
30
0
41
1
10
77.4071477873107
20
44.9878160971721
30
0
41
1
10
77.2818132987657
20
44.9575092169119
30
0
41
1
10
77.2509260054455
20
44.9250305735677
30
0
41
1
10
77.2499982439833
20
44.9049681800425
30
0
41
1
10
77.2500000028059
20
44.903688186683
30
0
0
SPLINE
5
134
100
AcDbEntity
8
1
62
256
6
ByLayer
370
18
48
1
60
0
100
AcDbSpline
70
4
71
3
72
25
73
21
40
0
40
0
40
0
40
0
40
0.0180737668453346
40
0.0833130245406964
40
0.138979682544163
40
0.194871419946504
40
0.250489421225341
40
0.297800462143409
40
0.345287179535791
40
0.392581326875354
40
0.446331983496743
40
0.500080098381988
40
0.56301718293097
40
0.625959849623291
40
0.688816981936242
40
0.751689917661212
40
0.81613219632342
40
0.8805991886081
40
0.95005892049306
40
1
40
1
40
1
40
1
41
1
10
90.2681926451992
20
44.9999997068817
30
0
41
1
10
90.234647433096
20
44.9997828924799
30
0
41
1
10
90.0721012631057
20
44.9976522846084
30
0
41
1
10
89.7443389392294
20
44.986009982376
30
0
41
1
10
89.2049726366253
20
44.9537030598763
30
0
41
1
10
88.5995575842569
20
44.9145210274088
30
0
41
1
10
87.9383870564952
20
44.8728166864502
30
0
41
1
10
87.2422136364443
20
44.8337695798302
30
0
41
1
10
86.5349155087426
20
44.8003010501492
30
0
41
1
10
85.7534152180613
20
44.7716263117876
30
0
41
1
10
84.9038386998882
20
44.7522567487429
30
0
41
1
10
83.9485630895442
20
44.7444901853198
30
0
41
1
10
82.9412859582751
20
44.754148808451
30
0
41
1
10
81.913410490825
20
44.7814929557456
30
0
41
1
10
80.9471069139086
20
44.8232800078572
30
0
41
1
10
80.0569817355292
20
44.8727211793704
30
0
41
1
10
79.2692341185705
20
44.9230652236293
30
0
41
1
10
78.5801660601405
20
44.9675762161215
30
0
41
1
10
78.0751208917044
20
44.9942594303955
30
0
41
1
10
77.8236778679632
20
44.999622622633
30
0
41
1
10
77.731950772814
20
44.9999996576727
30
0
0
SPLINE
5
135
100
AcDbEntity
8
1
62
256
6
ByLayer
370
18
48
1
60
0
100
AcDbSpline
70
4
71
3
72
12
73
8
40
0
40
0
40
0
40
0
40
0.10964616198381
40
0.399606241128656
40
0.690338005289501
40
0.980443448942484
40
1
40
1
40
1
40
1
41
1
10
46.731950772814
20
44.9999996576728
30
0
41
1
10
46.6960745995189
20
45.0000328605117
30
0
41
1
10
46.572737703639
20
44.9987497889752
30
0
41
1
10
46.4071477873107
20
44.9878160971721
30
0
41
1
10
46.2818132987659
20
44.957509216912
30
0
41
1
10
46.2509260054451
20
44.9250305735678
30
0
41
1
10
46.2499982439833
20
44.9049681800425
30
0
41
1
10
46.2500000028059
20
44.9036881866831
30
0
0
SPLINE
5
136
100
AcDbEntity
8
1
62
256
6
ByLayer
370
18
48
1
60
0
100
AcDbSpline
70
4
71
3
72
25
73
21
40
0
40
0
40
0
40
0
40
0.0180737668453298
40
0.0833130245406915
40
0.138979682544158
40
0.1948714199465
40
0.250489421225336
40
0.297800462143404
40
0.345287179535788
40
0.392581326875351
40
0.446331983496741
40
0.500080098381988
40
0.563017182930971
40
0.625959849623291
40
0.688816981936243
40
0.751689917661213
40
0.816132196323421
40
0.880599188608101
40
0.95005892049306
40
1
40
1
40
1
40
1
41
1
10
59.2681926451992
20
44.9999997068817
30
0
41
1
10
59.234647433096
20
44.99978289248
30
0
41
1
10
59.0721012631057
20
44.9976522846085
30
0
41
1
10
58.7443389392295
20
44.986009982376
30
0
41
1
10
58.2049726366254
20
44.9537030598764
30
0
41
1
10
57.599557584257
20
44.9145210274089
30
0
41
1
10
56.9383870564953
20
44.8728166864503
30
0
41
1
10
56.2422136364443
20
44.8337695798302
30
0
41
1
10
55.5349155087427
20
44.8003010501493
30
0
41
1
10
54.7534152180613
20
44.7716263117877
30
0
41
1
10
53.9038386998882
20
44.752256748743
30
0
41
1
10
52.9485630895442
20
44.7444901853198
30
0
41
1
10
51.9412859582751
20
44.754148808451
30
0
41
1
10
50.913410490825
20
44.7814929557457
30
0
41
1
10
49.9471069139085
20
44.8232800078572
30
0
41
1
10
49.0569817355292
20
44.8727211793705
30
0
41
1
10
48.2692341185705
20
44.9230652236293
30
0
41
1
10
47.5801660601404
20
44.9675762161216
30
0
41
1
10
47.0751208917045
20
44.9942594303955
30
0
41
1
10
46.8236778679632
20
44.9996226226331
30
0
41
1
10
46.731950772814
20
44.9999996576728
30
0
0
SPLINE
5
137
100
AcDbEntity
8
1
62
256
6
ByLayer
370
18
48
1
60
0
100
AcDbSpline
70
4
71
3
72
19
73
15
40
0
40
0
40
0
40
0
40
0.0766410133912577
40
0.17266136068332
40
0.268805867990727
40
0.354479003680711
40
0.440464725616508
40
0.526243553366793
40
0.613986303578496
40
0.701937147212634
40
0.789696521830507
40
0.893499036055449
40
0.997625994549083
40
1
40
1
40
1
40
1
41
1
10
116.2213525108
20
43.5321049406584
30
0
41
1
10
116.492930378876
20
43.5506689089553
30
0
41
1
10
117.085085545051
20
43.6015274814961
30
0
41
1
10
117.944926672713
20
43.7182746996053
30
0
41
1
10
118.739925266565
20
43.8632532168592
30
0
41
1
10
119.417474347674
20
44.0147170480039
30
0
41
1
10
119.988999087154
20
44.1637084940435
30
0
41
1
10
120.485635389046
20
44.3116799780317
30
0
41
1
10
120.905277411457
20
44.4527418601801
30
0
41
1
10
121.246133582407
20
44.5839358103674
30
0
41
1
10
121.518475571431
20
44.7072462214936
30
0
41
1
10
121.705434877522
20
44.8194618296083
30
0
41
1
10
121.742228891253
20
44.8720170041561
30
0
41
1
10
121.749839236741
20
44.9029742338839
30
0
41
1
10
121.749999980993
20
44.9036636536614
30
0
0
SPLINE
5
138
100
AcDbEntity
8
1
62
256
6
ByLayer
370
18
48
1
60
0
100
AcDbSpline
70
4
71
3
72
19
73
15
40
0
40
0
40
0
40
0
40
0.0766410133912586
40
0.172661360683321
40
0.268805867990729
40
0.354479003680712
40
0.44046472561651
40
0.526243553366796
40
0.613986303578499
40
0.701937147212637
40
0.789696521830511
40
0.893499036055452
40
0.997625994549086
40
1
40
1
40
1
40
1
41
1
10
85.2213525108001
20
43.5321049406585
30
0
41
1
10
85.4929303788761
20
43.5506689089553
30
0
41
1
10
86.0850855450513
20
43.6015274814961
30
0
41
1
10
86.9449266727134
20
43.7182746996054
30
0
41
1
10
87.7399252665655
20
43.8632532168592
30
0
41
1
10
88.4174743476738
20
44.014717048004
30
0
41
1
10
88.9889990871545
20
44.1637084940436
30
0
41
1
10
89.4856353890464
20
44.3116799780317
30
0
41
1
10
89.905277411457
20
44.4527418601802
30
0
41
1
10
90.246133582407
20
44.5839358103675
30
0
41
1
10
90.5184755714307
20
44.7072462214939
30
0
41
1
10
90.7054348775221
20
44.8194618296077
30
0
41
1
10
90.7422288912529
20
44.8720170041578
30
0
41
1
10
90.7498392367411
20
44.9029742338839
30
0
41
1
10
90.749999980993
20
44.9036636536615
30
0
0
SPLINE
5
139
100
AcDbEntity
8
1
62
256
6
ByLayer
370
18
48
1
60
0
100
AcDbSpline
70
4
71
3
72
19
73
15
40
0
40
0
40
0
40
0
40
0.0766410133912537
40
0.172661360683316
40
0.268805867990724
40
0.354479003680706
40
0.440464725616503
40
0.526243553366789
40
0.613986303578492
40
0.70193714721263
40
0.789696521830504
40
0.893499036055445
40
0.997625994549079
40
1
40
1
40
1
40
1
41
1
10
54.2213525108001
20
43.5321049406586
30
0
41
1
10
54.492930378876
20
43.5506689089554
30
0
41
1
10
55.0850855450512
20
43.6015274814962
30
0
41
1
10
55.9449266727134
20
43.7182746996055
30
0
41
1
10
56.7399252665654
20
43.8632532168593
30
0
41
1
10
57.4174743476738
20
44.014717048004
30
0
41
1
10
57.9889990871544
20
44.1637084940436
30
0
41
1
10
58.4856353890463
20
44.3116799780318
30
0
41
1
10
58.9052774114568
20
44.4527418601802
30
0
41
1
10
59.246133582407
20
44.5839358103675
30
0
41
1
10
59.5184755714306
20
44.7072462214938
30
0
41
1
10
59.7054348775223
20
44.8194618296084
30
0
41
1
10
59.7422288912523
20
44.8720170041564
30
0
41
1
10
59.7498392367411
20
44.902974233884
30
0
41
1
10
59.749999980993
20
44.9036636536615
30
0
0
SPLINE
5
13A
100
AcDbEntity
8
1
62
256
6
ByLayer
370
18
48
1
60
0
100
AcDbSpline
70
4
71
3
72
19
73
15
40
0
40
0
40
0
40
0
40
0.086089354869455
40
0.177801405864661
40
0.269295416318618
40
0.371992845282444
40
0.474996192017171
40
0.577621140102165
40
0.652734505337725
40
0.728013829504716
40
0.803031720420053
40
0.889890974801526
40
0.97665558732745
40
1
40
1
40
1
40
1
41
1
10
46.2500000028059
20
44.9036881866831
30
0
41
1
10
46.2505149742259
20
44.8830002241956
30
0
41
1
10
46.2811360749601
20
44.8340439595131
30
0
41
1
10
46.4217719824046
20
44.7395522365168
30
0
41
1
10
46.6684105134031
20
44.6197364971335
30
0
41
1
10
47.0304040323642
20
44.474859872721
30
0
41
1
10
47.5184286418599
20
44.3087366996871
30
0
41
1
10
48.065314826945
20
44.1485429452971
30
0
41
1
10
48.6387858050728
20
44.0021032340666
30
0
41
1
10
49.2108836876489
20
43.874847884303
30
0
41
1
10
49.8770167430704
20
43.7493307613325
30
0
41
1
10
50.6473169966219
20
43.6344892861222
30
0
41
1
10
51.3118462044284
20
43.565169553854
30
0
41
1
10
51.6964060977517
20
43.5375327763228
30
0
41
1
10
51.7786474892001
20
43.5321049406586
30
0
0
SPLINE
5
13B
100
AcDbEntity
8
1
62
256
6
ByLayer
370
18
48
1
60
0
100
AcDbSpline
70
4
71
3
72
10
73
6
40
0
40
0
40
0
40
0
40
0.368172884866982
40
0.733877309299606
40
1
40
1
40
1
40
1
41
1
10
59.749999980993
20
44.9036636536615
30
0
41
1
10
59.7508890558279
20
44.9278353260785
30
0
41
1
10
59.7086063458279
20
44.9669895469919
30
0
41
1
10
59.5317032393974
20
44.9943027311159
30
0
41
1
10
59.3544363531155
20
44.9998827844696
30
0
41
1
10
59.2681926451992
20
44.9999997068817
30
0
0
SPLINE
5
13C
100
AcDbEntity
8
1
62
256
6
ByLayer
370
18
48
1
60
0
100
AcDbSpline
70
4
71
3
72
19
73
15
40
0
40
0
40
0
40
0
40
0.0860893548694551
40
0.177801405864661
40
0.269295416318618
40
0.371992845282444
40
0.474996192017172
40
0.577621140102166
40
0.652734505337726
40
0.728013829504717
40
0.803031720420053
40
0.889890974801528
40
0.976655587327452
40
1
40
1
40
1
40
1
41
1
10
108.250000002806
20
44.9036881866829
30
0
41
1
10
108.250514974226
20
44.8830002241954
30
0
41
1
10
108.28113607496
20
44.834043959513
30
0
41
1
10
108.421771982405
20
44.7395522365166
30
0
41
1
10
108.668410513403
20
44.6197364971334
30
0
41
1
10
109.030404032364
20
44.4748598727209
30
0
41
1
10
109.51842864186
20
44.308736699687
30
0
41
1
10
110.065314826945
20
44.1485429452969
30
0
41
1
10
110.638785805073
20
44.0021032340664
30
0
41
1
10
111.210883687649
20
43.8748478843028
30
0
41
1
10
111.87701674307
20
43.7493307613324
30
0
41
1
10
112.647316996622
20
43.634489286122
30
0
41
1
10
113.311846204429
20
43.5651695538538
30
0
41
1
10
113.696406097752
20
43.5375327763226
30
0
41
1
10
113.7786474892
20
43.5321049406584
30
0
0
SPLINE
5
13D
100
AcDbEntity
8
1
62
256
6
ByLayer
370
18
48
1
60
0
100
AcDbSpline
70
4
71
3
72
10
73
6
40
0
40
0
40
0
40
0
40
0.368172884866997
40
0.733877309299618
40
1
40
1
40
1
40
1
41
1
10
121.749999980993
20
44.9036636536614
30
0
41
1
10
121.750889055828
20
44.9278353260784
30
0
41
1
10
121.708606345828
20
44.9669895469918
30
0
41
1
10
121.531703239397
20
44.9943027311157
30
0
41
1
10
121.354436353116
20
44.9998827844694
30
0
41
1
10
121.268192645199
20
44.9999997068816
30
0
0
SPLINE
5
13E
100
AcDbEntity
8
1
62
256
6
ByLayer
370
18
48
1
60
0
100
AcDbSpline
70
4
71
3
72
19
73
15
40
0
40
0
40
0
40
0
40
0.0860893548694537
40
0.17780140586466
40
0.269295416318617
40
0.371992845282443
40
0.474996192017171
40
0.577621140102165
40
0.652734505337725
40
0.728013829504716
40
0.803031720420052
40
0.889890974801527
40
0.976655587327452
40
1
40
1
40
1
40
1
41
1
10
77.2500000028059
20
44.903688186683
30
0
41
1
10
77.2505149742259
20
44.8830002241955
30
0
41
1
10
77.2811360749601
20
44.8340439595131
30
0
41
1
10
77.4217719824046
20
44.7395522365167
30
0
41
1
10
77.668410513403
20
44.6197364971335
30
0
41
1
10
78.0304040323641
20
44.474859872721
30
0
41
1
10
78.5184286418599
20
44.308736699687
30
0
41
1
10
79.065314826945
20
44.148542945297
30
0
41
1
10
79.6387858050728
20
44.0021032340665
30
0
41
1
10
80.2108836876489
20
43.8748478843029
30
0
41
1
10
80.8770167430704
20
43.7493307613325
30
0
41
1
10
81.6473169966219
20
43.6344892861221
30
0
41
1
10
82.3118462044286
20
43.5651695538538
30
0
41
1
10
82.6964060977516
20
43.5375327763227
30
0
41
1
10
82.7786474892001
20
43.5321049406585
30
0
0
SPLINE
5
13F
100
AcDbEntity
8
1
62
256
6
ByLayer
370
18
48
1
60
0
100
AcDbSpline
70
4
71
3
72
10
73
6
40
0
40
0
40
0
40
0
40
0.368172884867009
40
0.733877309299631
40
1
40
1
40
1
40
1
41
1
10
90.749999980993
20
44.9036636536615
30
0
41
1
10
90.7508890558279
20
44.9278353260784
30
0
41
1
10
90.7086063458279
20
44.9669895469919
30
0
41
1
10
90.5317032393974
20
44.9943027311158
30
0
41
1
10
90.3544363531155
20
44.9998827844695
30
0
41
1
10
90.2681926451992
20
44.9999997068817
30
0
0
SPLINE
5
140
100
AcDbEntity
8
SK1
62
256
6
ByLayer
370
18
48
1
60
0
100
AcDbSpline
70
4
71
2
72
6
73
3
40
0
40
0
40
0
40
1
40
1
40
1
41
0.500003660052447
10
-0.200000000000035
20
6.83438539663512
30
0
41
0.499996339947553
10
-0.200000000000027
20
6.95057450632236
30
0
41
0.500003660052447
10
-0.200000000000035
20
7.06635659049325
30
0
0
SPLINE
5
141
100
AcDbEntity
8
SK1
62
256
6
ByLayer
370
18
48
1
60
0
100
AcDbSpline
70
4
71
2
72
6
73
3
40
0
40
0
40
0
40
1
40
1
40
1
41
0.500003660046511
10
-0.200000000000036
20
-7.06635637915061
30
0
41
0.499996339953489
10
-0.200000000000026
20
-6.95057438850069
30
0
41
0.500003660046511
10
-0.200000000000036
20
-6.83438537300109
30
0
0
LINE
5
70
100
AcDbEntity
8
1
62
256
6
ByLayer
370
18
48
1
60
0
100
AcDbLine
10
57.25
20
15.806643
30
0
11
57.25
21
13.236122
31
0
39
0
210
0
220
0
230
1
0
LINE
5
72
100
AcDbEntity
8
1
62
256
6
ByLayer
370
18
48
1
60
0
100
AcDbLine
10
48.75
20
13.236122
30
0
11
48.75
21
15.806643
31
0
39
0
210
0
220
0
230
1
0
LINE
5
73
100
AcDbEntity
8
1
62
256
6
ByLayer
370
18
48
1
60
0
100
AcDbLine
10
119.25
20
15.806643
30
0
11
119.25
21
13.236122
31
0
39
0
210
0
220
0
230
1
0
LINE
5
74
100
AcDbEntity
8
1
62
256
6
ByLayer
370
18
48
1
60
0
100
AcDbLine
10
110.75
20
13.236122
30
0
11
110.75
21
15.806643
31
0
39
0
210
0
220
0
230
1
0
LINE
5
75
100
AcDbEntity
8
1
62
256
6
ByLayer
370
18
48
1
60
0
100
AcDbLine
10
88.25
20
15.806643
30
0
11
88.25
21
13.236122
31
0
39
0
210
0
220
0
230
1
0
LINE
5
76
100
AcDbEntity
8
1
62
256
6
ByLayer
370
18
48
1
60
0
100
AcDbLine
10
79.75
20
13.236122
30
0
11
79.75
21
15.806643
31
0
39
0
210
0
220
0
230
1
0
LINE
5
77
100
AcDbEntity
8
1
62
256
6
ByLayer
370
18
48
1
60
0
100
AcDbLine
10
124
20
19.732051
30
0
11
124
21
38.365412
31
0
39
0
210
0
220
0
230
1
0
LINE
5
78
100
AcDbEntity
8
1
62
256
6
ByLayer
370
18
48
1
60
0
100
AcDbLine
10
122
20
41.382686
30
0
11
25
21
41.382686
31
0
39
0
210
0
220
0
230
1
0
LINE
5
79
100
AcDbEntity
8
1
62
256
6
ByLayer
370
18
48
1
60
0
100
AcDbLine
10
25
20
-5.382686
30
0
11
122
21
-5.382686
31
0
39
0
210
0
220
0
230
1
0
LINE
5
7A
100
AcDbEntity
8
1
62
256
6
ByLayer
370
18
48
1
60
0
100
AcDbLine
10
125
20
0.679492
30
0
11
35.070714
21
0.679492
31
0
39
0
210
0
220
0
230
1
0
LINE
5
7B
100
AcDbEntity
8
1
62
256
6
ByLayer
370
18
48
1
60
0
100
AcDbLine
10
35.830127
20
19.732051
30
0
11
124
21
19.732051
31
0
39
0
210
0
220
0
230
1
0
LINE
5
7C
100
AcDbEntity
8
1
62
256
6
ByLayer
370
18
48
1
60
0
100
AcDbLine
10
122
20
-36
30
0
11
25
21
-36
31
0
39
0
210
0
220
0
230
1
0
LINE
5
7D
100
AcDbEntity
8
1
62
256
6
ByLayer
370
18
48
1
60
0
100
AcDbLine
10
113.778647
20
-31.638584
30
0
11
116.221353
21
-31.638584
31
0
39
0
210
0
220
0
230
1
0
LINE
5
7E
100
AcDbEntity
8
1
62
256
6
ByLayer
370
18
48
1
60
0
100
AcDbLine
10
82.778647
20
-31.638584
30
0
11
85.221353
21
-31.638584
31
0
39
0
210
0
220
0
230
1
0
LINE
5
7F
100
AcDbEntity
8
1
62
256
6
ByLayer
370
18
48
1
60
0
100
AcDbLine
10
51.778647
20
-31.638584
30
0
11
54.221353
21
-31.638584
31
0
39
0
210
0
220
0
230
1
0
LINE
5
80
100
AcDbEntity
8
1
62
256
6
ByLayer
370
18
48
1
60
0
100
AcDbLine
10
35.830127
20
19.732051
30
0
11
35.830127
21
10.232051
31
0
39
0
210
0
220
0
230
1
0
LINE
5
81
100
AcDbEntity
8
1
62
256
6
ByLayer
370
18
48
1
60
0
100
AcDbLine
10
0.3
20
-31.5
30
0
11
0
21
-31.2
31
0
39
0
210
0
220
0
230
1
0
LINE
5
82
100
AcDbEntity
8
1
62
256
6
ByLayer
370
18
48
1
60
0
100
AcDbLine
10
0
20
31.2
30
0
11
0.3
21
31.5
31
0
39
0
210
0
220
0
230
1
0
LINE
5
83
100
AcDbEntity
8
1
62
256
6
ByLayer
370
18
48
1
60
0
100
AcDbLine
10
22
20
-31.5
30
0
11
0.3
21
-31.5
31
0
39
0
210
0
220
0
230
1
0
LINE
5
84
100
AcDbEntity
8
1
62
256
6
ByLayer
370
18
48
1
60
0
100
AcDbLine
10
0.3
20
31.5
30
0
11
22
21
31.5
31
0
39
0
210
0
220
0
230
1
0
LINE
5
85
100
AcDbEntity
8
1
62
256
6
ByLayer
370
18
48
1
60
0
100
AcDbLine
10
13.461325
20
9.349221
30
0
11
10.538675
21
9.349221
31
0
39
0
210
0
220
0
230
1
0
LINE
5
86
100
AcDbEntity
8
1
62
256
6
ByLayer
370
18
48
1
60
0
100
AcDbLine
10
10.538675
20
30.080593
30
0
11
13.461325
21
30.080593
31
0
39
0
210
0
220
0
230
1
0
LINE
5
87
100
AcDbEntity
8
1
62
256
6
ByLayer
370
18
48
1
60
0
100
AcDbLine
10
13.461325
20
-30.080593
30
0
11
10.538675
21
-30.080593
31
0
39
0
210
0
220
0
230
1
0
LINE
5
88
100
AcDbEntity
8
1
62
256
6
ByLayer
370
18
48
1
60
0
100
AcDbLine
10
10.538675
20
-9.349221
30
0
11
13.461325
21
-9.349221
31
0
39
0
210
0
220
0
230
1
0
LINE
5
89
100
AcDbEntity
8
1
62
256
6
ByLayer
370
18
48
1
60
0
100
AcDbLine
10
35.830127
20
10.232051
30
0
11
125
21
10.232051
31
0
39
0
210
0
220
0
230
1
0
LINE
5
8A
100
AcDbEntity
8
1
62
256
6
ByLayer
370
18
48
1
60
0
100
AcDbLine
10
125
20
19.232051
30
0
11
124
21
19.732051
31
0
39
0
210
0
220
0
230
1
0
LINE
5
8B
100
AcDbEntity
8
1
62
256
6
ByLayer
370
18
48
1
60
0
100
AcDbLine
10
10.538675
20
-30.080593
30
0
11
10.538675
21
-9.349221
31
0
39
0
210
0
220
0
230
1
0
LINE
5
8C
100
AcDbEntity
8
1
62
256
6
ByLayer
370
18
48
1
60
0
100
AcDbLine
10
10.105662
20
-29.913955
30
0
11
10.105662
21
-9.869413
31
0
39
0
210
0
220
0
230
1
0
LINE
5
8D
100
AcDbEntity
8
1
62
256
6
ByLayer
370
18
48
1
60
0
100
AcDbLine
10
13.894338
20
9.869413
30
0
11
13.894338
21
29.913955
31
0
39
0
210
0
220
0
230
1
0
LINE
5
8E
100
AcDbEntity
8
1
62
256
6
ByLayer
370
18
48
1
60
0
100
AcDbLine
10
13.461325
20
9.349221
30
0
11
13.461325
21
30.080593
31
0
39
0
210
0
220
0
230
1
0
LINE
5
8F
100
AcDbEntity
8
1
62
256
6
ByLayer
370
18
48
1
60
0
100
AcDbLine
10
13.894338
20
-29.913955
30
0
11
13.894338
21
-9.869413
31
0
39
0
210
0
220
0
230
1
0
LINE
5
90
100
AcDbEntity
8
1
62
256
6
ByLayer
370
18
48
1
60
0
100
AcDbLine
10
13.461325
20
-30.080593
30
0
11
13.461325
21
-9.349221
31
0
39
0
210
0
220
0
230
1
0
LINE
5
91
100
AcDbEntity
8
1
62
256
6
ByLayer
370
18
48
1
60
0
100
AcDbLine
10
10.538675
20
9.349221
30
0
11
10.538675
21
30.080593
31
0
39
0
210
0
220
0
230
1
0
LINE
5
92
100
AcDbEntity
8
1
62
256
6
ByLayer
370
18
48
1
60
0
100
AcDbLine
10
10.105662
20
9.869413
30
0
11
10.105662
21
29.913955
31
0
39
0
210
0
220
0
230
1
0
LINE
5
93
100
AcDbEntity
8
SK1
62
256
6
ByLayer
370
18
48
1
60
0
100
AcDbLine
10
0
20
-22.45
30
0
11
-0.2
21
-22.45
31
0
39
0
210
0
220
0
230
1
0
LINE
5
95
100
AcDbEntity
8
SK1
62
256
6
ByLayer
370
18
48
1
60
0
100
AcDbLine
10
-0.2
20
22.45
30
0
11
0
21
22.45
31
0
39
0
210
0
220
0
230
1
0
LINE
5
96
100
AcDbEntity
8
1
62
256
6
ByLayer
370
18
48
1
60
0
100
AcDbLine
10
125
20
8.866025
30
0
11
36.269696
21
8.866025
31
0
39
0
210
0
220
0
230
1
0
LINE
5
97
100
AcDbEntity
8
1
62
256
6
ByLayer
370
18
48
1
60
0
100
AcDbLine
10
122
20
45
30
0
11
125
21
42
31
0
39
0
210
0
220
0
230
1
0
LINE
5
98
100
AcDbEntity
8
1
62
256
6
ByLayer
370
18
48
1
60
0
100
AcDbLine
10
121.253395
20
45
30
0
11
122
21
45
31
0
39
0
210
0
220
0
230
1
0
LINE
5
99
100
AcDbEntity
8
1
62
256
6
ByLayer
370
18
48
1
60
0
100
AcDbLine
10
90.253395
20
45
30
0
11
108.74803
21
45
31
0
39
0
210
0
220
0
230
1
0
LINE
5
9A
100
AcDbEntity
8
1
62
256
6
ByLayer
370
18
48
1
60
0
100
AcDbLine
10
59.253395
20
45
30
0
11
77.74803
21
45
31
0
39
0
210
0
220
0
230
1
0
LINE
5
9B
100
AcDbEntity
8
1
62
256
6
ByLayer
370
18
48
1
60
0
100
AcDbLine
10
25
20
45
30
0
11
46.74803
21
45
31
0
39
0
210
0
220
0
230
1
0
LINE
5
9C
100
AcDbEntity
8
1
62
256
6
ByLayer
370
18
48
1
60
0
100
AcDbLine
10
113.778647
20
43.532105
30
0
11
116.221353
21
43.532105
31
0
39
0
210
0
220
0
230
1
0
LINE
5
9D
100
AcDbEntity
8
1
62
256
6
ByLayer
370
18
48
1
60
0
100
AcDbLine
10
82.778647
20
43.532105
30
0
11
85.221353
21
43.532105
31
0
39
0
210
0
220
0
230
1
0
LINE
5
9E
100
AcDbEntity
8
1
62
256
6
ByLayer
370
18
48
1
60
0
100
AcDbLine
10
51.778647
20
43.532105
30
0
11
54.221353
21
43.532105
31
0
39
0
210
0
220
0
230
1
0
LINE
5
9F
100
AcDbEntity
8
1
62
256
6
ByLayer
370
18
48
1
60
0
100
AcDbLine
10
22
20
42
30
0
11
25
21
45
31
0
39
0
210
0
220
0
230
1
0
LINE
5
A0
100
AcDbEntity
8
1
62
256
6
ByLayer
370
18
48
1
60
0
100
AcDbLine
10
125
20
-36
30
0
11
124
21
-36
31
0
39
0
210
0
220
0
230
1
0
LINE
5
A1
100
AcDbEntity
8
1
62
256
6
ByLayer
370
18
48
1
60
0
100
AcDbLine
10
87
20
-26.732051
30
0
11
84
21
-28.464102
31
0
39
0
210
0
220
0
230
1
0
LINE
5
A2
100
AcDbEntity
8
1
62
256
6
ByLayer
370
18
48
1
60
0
100
AcDbLine
10
84
20
-21.535898
30
0
11
81
21
-23.267949
31
0
39
0
210
0
220
0
230
1
0
LINE
5
A3
100
AcDbEntity
8
1
62
256
6
ByLayer
370
18
48
1
60
0
100
AcDbLine
10
81
20
-26.732051
30
0
11
84
21
-28.464102
31
0
39
0
210
0
220
0
230
1
0
LINE
5
A4
100
AcDbEntity
8
1
62
256
6
ByLayer
370
18
48
1
60
0
100
AcDbLine
10
84
20
-21.535898
30
0
11
87
21
-23.267949
31
0
39
0
210
0
220
0
230
1
0
LINE
5
A5
100
AcDbEntity
8
1
62
256
6
ByLayer
370
18
48
1
60
0
100
AcDbLine
10
81
20
-23.267949
30
0
11
81
21
-26.732051
31
0
39
0
210
0
220
0
230
1
0
LINE
5
A6
100
AcDbEntity
8
1
62
256
6
ByLayer
370
18
48
1
60
0
100
AcDbLine
10
87
20
-23.267949
30
0
11
87
21
-26.732051
31
0
39
0
210
0
220
0
230
1
0
LINE
5
A7
100
AcDbEntity
8
1
62
256
6
ByLayer
370
18
48
1
60
0
100
AcDbLine
10
56
20
-26.732051
30
0
11
53
21
-28.464102
31
0
39
0
210
0
220
0
230
1
0
LINE
5
A8
100
AcDbEntity
8
1
62
256
6
ByLayer
370
18
48
1
60
0
100
AcDbLine
10
53
20
-21.535898
30
0
11
50
21
-23.267949
31
0
39
0
210
0
220
0
230
1
0
LINE
5
A9
100
AcDbEntity
8
1
62
256
6
ByLayer
370
18
48
1
60
0
100
AcDbLine
10
50
20
-26.732051
30
0
11
53
21
-28.464102
31
0
39
0
210
0
220
0
230
1
0
LINE
5
AA
100
AcDbEntity
8
1
62
256
6
ByLayer
370
18
48
1
60
0
100
AcDbLine
10
53
20
-21.535898
30
0
11
56
21
-23.267949
31
0
39
0
210
0
220
0
230
1
0
LINE
5
AB
100
AcDbEntity
8
1
62
256
6
ByLayer
370
18
48
1
60
0
100
AcDbLine
10
50
20
-23.267949
30
0
11
50
21
-26.732051
31
0
39
0
210
0
220
0
230
1
0
LINE
5
AC
100
AcDbEntity
8
1
62
256
6
ByLayer
370
18
48
1
60
0
100
AcDbLine
10
56
20
-23.267949
30
0
11
56
21
-26.732051
31
0
39
0
210
0
220
0
230
1
0
LINE
5
AD
100
AcDbEntity
8
1
62
256
6
ByLayer
370
18
48
1
60
0
100
AcDbLine
10
118
20
-26.732051
30
0
11
115
21
-28.464102
31
0
39
0
210
0
220
0
230
1
0
LINE
5
AE
100
AcDbEntity
8
1
62
256
6
ByLayer
370
18
48
1
60
0
100
AcDbLine
10
115
20
-21.535898
30
0
11
112
21
-23.267949
31
0
39
0
210
0
220
0
230
1
0
LINE
5
AF
100
AcDbEntity
8
1
62
256
6
ByLayer
370
18
48
1
60
0
100
AcDbLine
10
112
20
-26.732051
30
0
11
115
21
-28.464102
31
0
39
0
210
0
220
0
230
1
0
LINE
5
B0
100
AcDbEntity
8
1
62
256
6
ByLayer
370
18
48
1
60
0
100
AcDbLine
10
115
20
-21.535898
30
0
11
118
21
-23.267949
31
0
39
0
210
0
220
0
230
1
0
LINE
5
B1
100
AcDbEntity
8
1
62
256
6
ByLayer
370
18
48
1
60
0
100
AcDbLine
10
112
20
-23.267949
30
0
11
112
21
-26.732051
31
0
39
0
210
0
220
0
230
1
0
LINE
5
B2
100
AcDbEntity
8
1
62
256
6
ByLayer
370
18
48
1
60
0
100
AcDbLine
10
118
20
-23.267949
30
0
11
118
21
-26.732051
31
0
39
0
210
0
220
0
230
1
0
LINE
5
B3
100
AcDbEntity
8
SK1
62
256
6
ByLayer
370
18
48
1
60
0
100
AcDbLine
10
-3
20
-22
30
0
11
-3
21
22
31
0
39
0
210
0
220
0
230
1
0
LINE
5
B4
100
AcDbEntity
8
SK1
62
256
6
ByLayer
370
18
48
1
60
0
100
AcDbLine
10
-2.2
20
13.017221
30
0
11
-2.2
21
18.805799
31
0
39
0
210
0
220
0
230
1
0
LINE
5
B5
100
AcDbEntity
8
SK1
62
256
6
ByLayer
370
18
48
1
60
0
100
AcDbLine
10
-2.2
20
-18.805799
30
0
11
-2.2
21
-13.01722
31
0
39
0
210
0
220
0
230
1
0
LINE
5
B6
100
AcDbEntity
8
SK1
62
256
6
ByLayer
370
18
48
1
60
0
100
AcDbLine
10
-2
20
21.825128
30
0
11
-2
21
-21.825128
31
0
39
0
210
0
220
0
230
1
0
LINE
5
B7
100
AcDbEntity
8
SK1
62
256
6
ByLayer
370
18
48
1
60
0
100
AcDbLine
10
-38
20
-20.24181
30
0
11
-38
21
20.241807
31
0
39
0
210
0
220
0
230
1
0
LINE
5
B8
100
AcDbEntity
8
SK1
62
256
6
ByLayer
370
18
48
1
60
0
100
AcDbLine
10
-0.4
20
21.825128
30
0
11
-0.4
21
6.104232
31
0
39
0
210
0
220
0
230
1
0
LINE
5
B9
100
AcDbEntity
8
SK1
62
256
6
ByLayer
370
18
48
1
60
0
100
AcDbLine
10
-0.4
20
-6.104232
30
0
11
-0.4
21
-21.825128
31
0
39
0
210
0
220
0
230
1
0
LINE
5
BA
100
AcDbEntity
8
1
62
256
6
ByLayer
370
18
48
1
60
0
100
AcDbLine
10
122
20
-36
30
0
11
122
21
-5.382686
31
0
39
0
210
0
220
0
230
1
0
LINE
5
BB
100
AcDbEntity
8
1
62
256
6
ByLayer
370
18
48
1
60
0
100
AcDbLine
10
0.3
20
31.5
30
0
11
0.3
21
-31.5
31
0
39
0
210
0
220
0
230
1
0
LINE
5
BC
100
AcDbEntity
8
1
62
256
6
ByLayer
370
18
48
1
60
0
100
AcDbLine
10
0
20
-31.2
30
0
11
0
21
31.2
31
0
39
0
210
0
220
0
230
1
0
LINE
5
BD
100
AcDbEntity
8
SK1
62
256
6
ByLayer
370
18
48
1
60
0
100
AcDbLine
10
-1.307107
20
4.695915
30
0
11
-1.307107
21
-4.695917
31
0
39
0
210
0
220
0
230
1
0
LINE
5
BE
100
AcDbEntity
8
SK1
62
256
6
ByLayer
370
18
48
1
60
0
100
AcDbLine
10
-0.2
20
-22.45
30
0
11
-0.2
21
-7.454102
31
0
39
0
210
0
220
0
230
1
0
LINE
5
BF
100
AcDbEntity
8
SK1
62
256
6
ByLayer
370
18
48
1
60
0
100
AcDbLine
10
-0.2
20
7.454103
30
0
11
-0.2
21
22.45
31
0
39
0
210
0
220
0
230
1
0
LINE
5
C0
100
AcDbEntity
8
1
62
256
6
ByLayer
370
18
48
1
60
0
100
AcDbLine
10
122
20
41.382686
30
0
11
122
21
45
31
0
39
0
210
0
220
0
230
1
0
LINE
5
C1
100
AcDbEntity
8
1
62
256
6
ByLayer
370
18
48
1
60
0
100
AcDbLine
10
22
20
-33
30
0
11
22
21
42
31
0
39
0
210
0
220
0
230
1
0
LINE
5
C2
100
AcDbEntity
8
1
62
256
6
ByLayer
370
18
48
1
60
0
100
AcDbLine
10
25
20
-36
30
0
11
25
21
45
31
0
39
0
210
0
220
0
230
1
0
LINE
5
C3
100
AcDbEntity
8
1
62
256
6
ByLayer
370
18
48
1
60
0
100
AcDbLine
10
28
20
0.618252
30
0
11
28
21
14.474658
31
0
39
0
210
0
220
0
230
1
0
LINE
5
C4
100
AcDbEntity
8
1
62
256
6
ByLayer
370
18
48
1
60
0
100
AcDbLine
10
125.33
20
-14.618682
30
0
11
125.33
21
-7.297602
31
0
39
0
210
0
220
0
230
1
0
LINE
5
C5
100
AcDbEntity
8
1
62
256
6
ByLayer
370
18
48
1
60
0
100
AcDbLine
10
125.33
20
19.916283
30
0
11
125.33
21
23.916283
31
0
39
0
210
0
220
0
230
1
0
LINE
5
C6
100
AcDbEntity
8
1
62
256
6
ByLayer
370
18
48
1
60
0
100
AcDbLine
10
125
20
-36
30
0
11
125
21
42
31
0
39
0
210
0
220
0
230
1
0
LINE
5
C7
100
AcDbEntity
8
SK3
62
256
6
ByLayer
370
18
48
0.05
60
0
100
AcDbLine
10
28
20
-16
30
0
11
28
21
-36
31
0
39
0
210
0
220
0
230
1
0
LINE
5
C9
100
AcDbEntity
8
SK3
62
256
6
ByLayer
370
18
48
0.05
60
0
100
AcDbLine
10
28
20
-16
30
0
11
125
21
-16
31
0
39
0
210
0
220
0
230
1
0
LINE
5
CA
100
AcDbEntity
8
SK4
62
256
6
ByLayer
370
18
48
0.05
60
0
100
AcDbLine
10
-41.419488
20
0
30
0
11
129.328124
21
0
31
0
39
0
210
0
220
0
230
1
0
LINE
5
CC
100
AcDbEntity
8
80
62
256
6
ByLayer
370
13
48
1
60
0
100
AcDbLine
10
0
20
0
30
0
11
-18.420926
21
0
31
0
39
0
210
0
220
0
230
1
0
LINE
5
CD
100
AcDbEntity
8
81
62
256
6
ByLayer
370
13
48
1
60
0
100
AcDbLine
10
125
20
-26
30
0
11
140
21
-26
31
0
39
0
210
0
220
0
230
1
0
LINE
5
CE
100
AcDbEntity
8
4
62
256
6
ByLayer
370
13
48
0.05
60
0
100
AcDbLine
10
0
20
0
30
0
11
125
21
0
31
0
39
0
210
0
220
0
230
1
0
MTEXT
5
142
100
AcDbEntity
8
SK6
62
256
6
ByLayer
370
18
48
1
60
0
100
AcDbMText
10
2.858398
20
55.878754
30
0
210
0
220
0
230
1
1
\W0.7353;C6-ASHL3-36125-20
40
3.5
41
0
44
1.084337
50
0
71
7
72
5
7
iso_b_vert
0
DIMENSION
5
154
100
AcDbEntity
8
SK2
62
256
6
ByLayer
370
13
48
1
60
0
100
AcDbDimension
2
DimnDraft3D1
10
-31.5
20
51.913124
30
0
11
5.202632
21
51.913124
31
0
70
32
71
5
72
1
41
1
210
0
220
0
230
1
3
Standard
100
AcDbAlignedDimension
13
31.5
23
1.7
33
0
14
-31.5
24
1.7
34
0
50
0
100
AcDbRotatedDimension
1001
ACAD
1000
DSTYLE
1002
{
1070
   279
1070
     0
1070
   172
1070
     1
1070
   173
1070
     1
1070
   340
1005
143
1070
    77
1070
     1
1070
    73
1070
     0
1070
   171
1070
     3
1070
   274
1070
     3
1070
   177
1070
     7
1070
   176
1070
     7
1070
   178
1070
     7
1070
    78
1070
     8
1070
    41
1041
3.175
1070
   147
1041
1.5
1070
    42
1041
2.0
1070
    44
1041
2.0
1070
   140
1041
3.0
1070
   343
1005
155
1070
   344
1005
155
1002
}
0
DIMENSION
5
169
100
AcDbEntity
8
SK2
62
256
6
ByLayer
370
13
48
1
60
0
100
AcDbDimension
2
DimnDraft3D2
10
-16
20
-143.084791
30
0
11
-6.622368
21
-143.084791
31
0
70
32
71
5
72
1
41
1
210
0
220
0
230
1
3
Standard
100
AcDbAlignedDimension
13
0
23
-131.328124
33
0
14
-16
24
-127
34
0
50
0
100
AcDbRotatedDimension
1001
ACAD
1000
DSTYLE
1002
{
1070
   279
1070
     0
1070
   172
1070
     1
1070
   173
1070
     1
1070
   340
1005
143
1070
    77
1070
     1
1070
    73
1070
     0
1070
   171
1070
     3
1070
   274
1070
     3
1070
   177
1070
     7
1070
   176
1070
     7
1070
   178
1070
     7
1070
    78
1070
     8
1070
    41
1041
3.175
1070
   147
1041
1.5
1070
    42
1041
2.0
1070
    44
1041
2.0
1070
   140
1041
3.0
1070
   343
1005
155
1070
   344
1005
155
1002
}
0
DIMENSION
5
177
100
AcDbEntity
8
SK2
62
256
6
ByLayer
370
13
48
1
60
0
100
AcDbDimension
2
DimnDraft3D3
10
22
20
-49.107058
30
0
11
9.207895
21
-49.107058
31
0
70
32
71
5
72
1
41
1
210
0
220
0
230
1
3
Standard
100
AcDbAlignedDimension
13
0
23
-33.2
33
0
14
22
24
-35
34
0
50
0
100
AcDbRotatedDimension
1001
ACAD
1000
DSTYLE
1002
{
1070
   279
1070
     0
1070
   172
1070
     1
1070
   173
1070
     1
1070
   340
1005
143
1070
    77
1070
     1
1070
    73
1070
     0
1070
   171
1070
     3
1070
   274
1070
     3
1070
   177
1070
     7
1070
   176
1070
     7
1070
   178
1070
     7
1070
    78
1070
     8
1070
    41
1041
3.175
1070
   147
1041
1.5
1070
    42
1041
2.0
1070
    44
1041
2.0
1070
   140
1041
3.0
1070
   343
1005
0
1070
   344
1005
0
1002
}
0
DIMENSION
5
185
100
AcDbEntity
8
SK2
62
256
6
ByLayer
370
13
48
1
60
0
100
AcDbDimension
2
DimnDraft3D4
10
28
20
-59.908839
30
0
11
12.207895
21
-59.908839
31
0
70
32
71
5
72
1
41
1
210
0
220
0
230
1
3
Standard
100
AcDbAlignedDimension
13
0
23
-33.2
33
0
14
28
24
-38
34
0
50
0
100
AcDbRotatedDimension
1001
ACAD
1000
DSTYLE
1002
{
1070
   279
1070
     0
1070
   172
1070
     1
1070
   173
1070
     1
1070
   340
1005
143
1070
    77
1070
     1
1070
    73
1070
     0
1070
   171
1070
     3
1070
   274
1070
     3
1070
   177
1070
     7
1070
   176
1070
     7
1070
   178
1070
     7
1070
    78
1070
     8
1070
    41
1041
3.175
1070
   147
1041
1.5
1070
    42
1041
2.0
1070
    44
1041
2.0
1070
   140
1041
3.0
1070
   343
1005
0
1070
   344
1005
0
1002
}
0
DIMENSION
5
194
100
AcDbEntity
8
2
62
256
6
ByLayer
370
13
48
1
60
0
100
AcDbDimension
2
DimnDraft3D5
10
125
20
-70.726207
30
0
11
59.961842
21
-70.726207
31
0
70
32
71
5
72
1
41
1
210
0
220
0
230
1
3
Standard
100
AcDbAlignedDimension
13
0
23
-33.2
33
0
14
125
24
-38
34
0
50
0
100
AcDbRotatedDimension
1001
ACAD
1000
DSTYLE
1002
{
1070
   279
1070
     0
1070
   172
1070
     1
1070
   173
1070
     1
1070
   340
1005
143
1070
    77
1070
     1
1070
    73
1070
     0
1070
   171
1070
     3
1070
   274
1070
     3
1070
   177
1070
     7
1070
   176
1070
     7
1070
   178
1070
     7
1070
    78
1070
     8
1070
    41
1041
3.175
1070
   147
1041
1.5
1070
    42
1041
2.0
1070
    44
1041
2.0
1070
   140
1041
3.0
1070
   343
1005
0
1070
   344
1005
0
1002
}
0
DIMENSION
5
1A2
100
AcDbEntity
8
SK2
62
256
6
ByLayer
370
13
48
1
60
0
100
AcDbDimension
2
DimnDraft3D6
10
154.973311
20
-36
30
0
11
154.973311
21
-19.792105
31
0
70
32
71
5
72
1
41
1
210
0
220
0
230
1
3
Standard
100
AcDbAlignedDimension
13
131.328124
23
0
33
0
14
124
24
-36
34
0
50
90
100
AcDbRotatedDimension
1001
ACAD
1000
DSTYLE
1002
{
1070
    74
1070
     0
1070
   279
1070
     0
1070
   172
1070
     1
1070
   173
1070
     1
1070
   340
1005
143
1070
    77
1070
     1
1070
    73
1070
     0
1070
   171
1070
     3
1070
   274
1070
     3
1070
   177
1070
     7
1070
   176
1070
     7
1070
   178
1070
     7
1070
    78
1070
     8
1070
    41
1041
3.175
1070
   147
1041
1.5
1070
    42
1041
2.0
1070
    44
1041
2.0
1070
   140
1041
3.0
1070
   343
1005
0
1070
   344
1005
0
1002
}
0
DIMENSION
5
1B0
100
AcDbEntity
8
SK2
62
256
6
ByLayer
370
13
48
1
60
0
100
AcDbDimension
2
DimnDraft3D7
10
154.973311
20
45
30
0
11
154.973311
21
10.232463
31
0
70
32
71
5
72
1
41
1
210
0
220
0
230
1
3
Standard
100
AcDbAlignedDimension
13
131.328124
23
0
33
0
14
124
24
45
34
0
50
90
100
AcDbRotatedDimension
1001
ACAD
1000
DSTYLE
1002
{
1070
    74
1070
     0
1070
   279
1070
     0
1070
   172
1070
     1
1070
   173
1070
     1
1070
   340
1005
143
1070
    77
1070
     1
1070
    73
1070
     0
1070
   171
1070
     3
1070
   274
1070
     3
1070
   177
1070
     7
1070
   176
1070
     7
1070
   178
1070
     7
1070
    78
1070
     8
1070
    41
1041
3.175
1070
   147
1041
1.5
1070
    42
1041
2.0
1070
    44
1041
2.0
1070
   140
1041
3.0
1070
   343
1005
0
1070
   344
1005
0
1002
}
0
ENDSEC
0
SECTION
2
OBJECTS
0
DICTIONARY
5
21c
330
0
100
AcDbDictionary
280
0
281
1
3
ACAD_GROUP
350
21d
3
ACAD_MLINESTYLE
350
21e
0
DICTIONARY
5
21d
330
0
100
AcDbDictionary
280
0
281
1
0
DICTIONARY
5
21e
330
0
100
AcDbDictionary
280
0
281
1
3
Standard
350
18
0
MLINESTYLE
5
18
330
21e
100
AcDbMlineStyle
2
Standard
70
0
3

62
256
51
90
52
90
71
2
49
-0.5
62
256
6
ByLayer
49
0.5
62
256
6
ByLayer
0
RASTERVARIABLES
5
209
330

100
AcDbRasterVariables
90
0
70
1
71
1
72
1
0
ENDSEC
0
EOF
