0
SECTION
2
HEADER
9
$ACADVER
1
AC1015
9
$DWGCODEPAGE
3
ANSI_1252
9
$HANDSEED
5
1e2
9
$ANGBASE
50
0
9
$ANGDIR
70
0
9
$ATTMODE
70
1
9
$AUNITS
70
0
9
$AUPREC
70
0
9
$CECOLOR
62
256
9
$CELTSCALE
40
1
9
$CELTYPE
6
ByLayer
9
$CELWEIGHT
370
18
9
$CLAYER
8
0
9
$CMLJUST
70
0
9
$CMLSCALE
40
1
9
$CMLSTYLE
2
Standard
9
$DIMSTYLE
2
Standard
9
$TEXTSIZE
40
0.2
9
$TEXTSTYLE
7
Standard
9
$LUNITS
70
2
9
$LUPREC
70
4
9
$EXTNAMES
290
1
9
$INSUNITS
70
4
9
$LTSCALE
40
1
9
$LWDISPLAY
290
1
9
$PDMODE
70
0
9
$PDSIZE
40
0
9
$PLINEGEN
70
0
0
ENDSEC
0
SECTION
2
CLASSES
0
CLASS
1
RASTERVARIABLES
2
AcDbRasterVariables
3
ISM
90
0
280
0
281
0
0
ENDSEC
0
SECTION
2
TABLES
0
TABLE
2
VPORT
5
1d8
100
AcDbSymbolTable
0
VPORT
5
1
100
AcDbSymbolTableRecord
100
AcDbViewportTableRecord
2
*Active
70
0
10
0
20
0
11
1
21
1
12
-1
22
1
13
0
23
0
14
0.5
24
0.5
15
10
25
10
16
0
26
0
36
1
17
0
27
0
37
0
0
ENDTAB
0
TABLE
2
LTYPE
5
1d9
100
AcDbSymbolTable
0
LTYPE
5
14
100
AcDbSymbolTableRecord
100
AcDbLinetypeTableRecord
70
0
2
ByBlock
3

72
65
73
0
40
0
0
LTYPE
5
15
100
AcDbSymbolTableRecord
100
AcDbLinetypeTableRecord
70
0
2
ByLayer
3

72
65
73
0
40
0
0
LTYPE
5
16
100
AcDbSymbolTableRecord
100
AcDbLinetypeTableRecord
70
0
2
CONTINUOUS
3
Solid line
72
65
73
0
40
0
0
LTYPE
5
6A
100
AcDbSymbolTableRecord
100
AcDbLinetypeTableRecord
70
0
2
CENTER
3
____ _ ____ _ ____ _ ____
72
65
73
4
40
47.5
49
22
74
0
49
-8.5
74
0
49
8.5
74
0
49
-8.5
74
0
0
LTYPE
5
6B
100
AcDbSymbolTableRecord
100
AcDbLinetypeTableRecord
70
0
2
DASHED
3
__ __ __ __ __ __ __ __ __
72
65
73
2
40
25.72
49
12.86
74
0
49
-12.86
74
0
0
ENDTAB
0
TABLE
2
LAYER
5
1da
100
AcDbSymbolTable
0
LAYER
5
10
100
AcDbSymbolTableRecord
100
AcDbLayerTableRecord
2
0
70
0
62
7
6
CONTINUOUS
290
1
370
-3
390
0
0
LAYER
5
6D
100
AcDbSymbolTableRecord
100
AcDbLayerTableRecord
2
80
70
0
62
-6
6
CONTINUOUS
290
1
370
-3
390
0
0
LAYER
5
6F
100
AcDbSymbolTableRecord
100
AcDbLayerTableRecord
2
81
70
0
62
-3
6
CONTINUOUS
290
1
370
-3
390
0
0
LAYER
5
71
100
AcDbSymbolTableRecord
100
AcDbLayerTableRecord
2
82
70
0
62
-3
6
DASHED
290
1
370
-3
390
0
0
LAYER
5
73
100
AcDbSymbolTableRecord
100
AcDbLayerTableRecord
2
1
70
0
62
4
6
CONTINUOUS
290
1
370
-3
390
0
0
LAYER
5
CA
100
AcDbSymbolTableRecord
100
AcDbLayerTableRecord
2
4
70
0
62
-2
6
CENTER
290
1
370
-3
390
0
0
LAYER
5
101
100
AcDbSymbolTableRecord
100
AcDbLayerTableRecord
2
2
70
0
62
7
6
CONTINUOUS
290
1
370
-3
390
0
0
LAYER
5
1c3
100
AcDbSymbolTableRecord
100
AcDbLayerTableRecord
2
SK1
70
0
62
4
6
CONTINUOUS
290
1
370
-3
390
0
0
LAYER
5
1c4
100
AcDbSymbolTableRecord
100
AcDbLayerTableRecord
2
SK4
70
0
62
2
6
CENTER
290
1
370
-3
390
0
0
LAYER
5
1c5
100
AcDbSymbolTableRecord
100
AcDbLayerTableRecord
2
SK3
70
0
62
1
6
DASHED
290
1
370
-3
390
0
0
LAYER
5
1c6
100
AcDbSymbolTableRecord
100
AcDbLayerTableRecord
2
SK6
70
0
62
5
6
CONTINUOUS
290
1
370
-3
390
0
0
LAYER
5
1c7
100
AcDbSymbolTableRecord
100
AcDbLayerTableRecord
2
SK2
70
0
62
7
6
CONTINUOUS
290
1
370
-3
390
0
0
ENDTAB
0
TABLE
2
STYLE
5
1db
100
AcDbSymbolTable
0
STYLE
5
11
100
AcDbSymbolTableRecord
100
AcDbTextStyleTableRecord
2
Standard
3
txt
70
0
71
0
40
0
41
1
42
0
50
0
0
STYLE
5
FC
100
AcDbSymbolTableRecord
100
AcDbTextStyleTableRecord
2
iso_b_vert
3
simplex.shx
70
0
71
0
40
0
41
1
42
0
50
0
0
STYLE
5
FD
100
AcDbSymbolTableRecord
100
AcDbTextStyleTableRecord
2
DWGDirectTextStyle
3
simplex
70
0
71
0
40
0
41
1
42
0
50
0
0
ENDTAB
0
TABLE
2
DIMSTYLE
5
1dc
100
AcDbSymbolTable
100
AcDbDimStyleTable
0
DIMSTYLE
105
27
100
AcDbSymbolTableRecord
100
AcDbDimStyleTableRecord
2
Standard
70
0
3
<>
41
0.18
42
0.0625
44
0.18
140
0.18
147
0.09
73
0
74
0
77
1
271
2
275
0
278
52
280
0
340
11
0
ENDTAB
0
TABLE
2
VIEW
5
1dd
100
AcDbSymbolTable
0
ENDTAB
0
TABLE
2
UCS
5
1de
100
AcDbSymbolTable
0
ENDTAB
0
TABLE
2
APPID
5
1df
100
AcDbSymbolTable
0
APPID
5
12
100
AcDbSymbolTableRecord
100
AcDbRegAppTableRecord
2
ACAD
70
0
0
ENDTAB
0
TABLE
2
BLOCK_RECORD
5
1e0
100
AcDbSymbolTable
0
BLOCK_RECORD
5
1F
100
AcDbSymbolTableRecord
100
AcDbBlockTableRecord
2
*Model_Space
340
0
70
0
0
BLOCK_RECORD
5
1B
100
AcDbSymbolTableRecord
100
AcDbBlockTableRecord
2
*Paper_Space
340
0
70
0
0
BLOCK_RECORD
5
23
100
AcDbSymbolTableRecord
100
AcDbBlockTableRecord
2
*Paper_Space0
340
0
70
0
0
BLOCK_RECORD
5
FF
100
AcDbSymbolTableRecord
100
AcDbBlockTableRecord
2
DimnDraft3D1
340
0
70
0
0
BLOCK_RECORD
5
10E
100
AcDbSymbolTableRecord
100
AcDbBlockTableRecord
2
_CLOSED
340
0
70
0
0
BLOCK_RECORD
5
115
100
AcDbSymbolTableRecord
100
AcDbBlockTableRecord
2
DimnDraft3D2
340
0
70
0
0
BLOCK_RECORD
5
124
100
AcDbSymbolTableRecord
100
AcDbBlockTableRecord
2
DimnDraft3D3
340
0
70
0
0
BLOCK_RECORD
5
132
100
AcDbSymbolTableRecord
100
AcDbBlockTableRecord
2
DimnDraft3D4
340
0
70
0
0
BLOCK_RECORD
5
140
100
AcDbSymbolTableRecord
100
AcDbBlockTableRecord
2
DimnDraft3D5
340
0
70
0
0
BLOCK_RECORD
5
14E
100
AcDbSymbolTableRecord
100
AcDbBlockTableRecord
2
DimnDraft3D6
340
0
70
0
0
BLOCK_RECORD
5
15C
100
AcDbSymbolTableRecord
100
AcDbBlockTableRecord
2
DimnDraft3D7
340
0
70
0
0
ENDTAB
0
ENDSEC
0
SECTION
2
BLOCKS
0
BLOCK
5
20
100
AcDbEntity
8
0
100
AcDbBlockBegin
2
*Model_Space
70
0
10
0
20
0
30
0
3
*Model_Space
0
ENDBLK
5
21
100
AcDbEntity
8
0
100
AcDbBlockEnd
0
BLOCK
5
1C
100
AcDbEntity
8
0
100
AcDbBlockBegin
2
*Paper_Space
70
0
10
0
20
0
30
0
3
*Paper_Space
0
ENDBLK
5
1D
100
AcDbEntity
8
0
100
AcDbBlockEnd
0
BLOCK
5
24
100
AcDbEntity
8
0
100
AcDbBlockBegin
2
*Paper_Space0
70
0
10
0
20
0
30
0
3
*Paper_Space0
0
ENDBLK
5
25
100
AcDbEntity
8
0
100
AcDbBlockEnd
0
BLOCK
5
10B
100
AcDbEntity
8
0
100
AcDbBlockBegin
2
DimnDraft3D1
70
0
10
0
20
0
30
0
3
DimnDraft3D1
0
MTEXT
5
100
100
AcDbEntity
8
2
62
256
6
ByLayer
370
18
48
1
60
0
100
AcDbMText
10
21.339474
20
56.820332
30
0
210
0
220
0
230
1
1
\W0.7183;45
40
3
41
0
44
1.084337
50
0
71
7
72
5
7
iso_b_vert
0
LINE
5
102
100
AcDbEntity
8
2
62
256
6
ByLayer
370
13
48
1
60
0
100
AcDbLine
10
45
20
41.162374
30
0
11
45
21
59.070332
31
0
39
0
210
0
220
0
230
1
0
LINE
5
103
100
AcDbEntity
8
2
62
256
6
ByLayer
370
13
48
1
60
0
100
AcDbLine
10
0
20
32.7
30
0
11
0
21
59.070332
31
0
39
0
210
0
220
0
230
1
0
LINE
5
104
100
AcDbEntity
8
2
62
256
6
ByLayer
370
13
48
1
60
0
100
AcDbLine
10
45
20
56.070332
30
0
11
0
21
56.070332
31
0
39
0
210
0
220
0
230
1
0
LINE
5
105
100
AcDbEntity
8
2
62
256
6
ByLayer
370
13
48
1
60
0
100
AcDbLine
10
45
20
56.070332
30
0
11
42.000002
21
55.570332
31
0
39
0
210
0
220
0
230
1
0
LINE
5
106
100
AcDbEntity
8
2
62
256
6
ByLayer
370
13
48
1
60
0
100
AcDbLine
10
45
20
56.070332
30
0
11
41.999998
21
56.570332
31
0
39
0
210
0
220
0
230
1
0
LINE
5
107
100
AcDbEntity
8
2
62
256
6
ByLayer
370
13
48
1
60
0
100
AcDbLine
10
42.000002
20
55.570332
30
0
11
41.999998
21
56.570332
31
0
39
0
210
0
220
0
230
1
0
LINE
5
108
100
AcDbEntity
8
2
62
256
6
ByLayer
370
13
48
1
60
0
100
AcDbLine
10
0
20
56.070332
30
0
11
2.999998
21
56.570332
31
0
39
0
210
0
220
0
230
1
0
LINE
5
109
100
AcDbEntity
8
2
62
256
6
ByLayer
370
13
48
1
60
0
100
AcDbLine
10
0
20
56.070332
30
0
11
3.000002
21
55.570332
31
0
39
0
210
0
220
0
230
1
0
LINE
5
10A
100
AcDbEntity
8
2
62
256
6
ByLayer
370
13
48
1
60
0
100
AcDbLine
10
2.999998
20
56.570332
30
0
11
3.000002
21
55.570332
31
0
39
0
210
0
220
0
230
1
0
ENDBLK
5
10C
100
AcDbEntity
8
0
100
AcDbBlockEnd
0
BLOCK
5
10F
100
AcDbEntity
8
0
100
AcDbBlockBegin
2
_CLOSED
70
0
10
0
20
0
30
0
3
_CLOSED
0
LINE
5
111
100
AcDbEntity
8
0
62
256
6
ByLayer
370
-2
48
1
60
0
100
AcDbLine
10
-1
20
0.166667
30
0
11
0
21
0
31
0
39
0
210
0
220
0
230
1
0
LINE
5
112
100
AcDbEntity
8
0
62
256
6
ByLayer
370
-2
48
1
60
0
100
AcDbLine
10
0
20
0
30
0
11
-1
21
-0.166667
31
0
39
0
210
0
220
0
230
1
0
LINE
5
113
100
AcDbEntity
8
0
62
256
6
ByLayer
370
-2
48
1
60
0
100
AcDbLine
10
-1
20
0.166667
30
0
11
-1
21
-0.166667
31
0
39
0
210
0
220
0
230
1
0
LINE
5
114
100
AcDbEntity
8
0
62
256
6
ByLayer
370
-2
48
1
60
0
100
AcDbLine
10
0
20
0
30
0
11
-1
21
0
31
0
39
0
210
0
220
0
230
1
0
ENDBLK
5
110
100
AcDbEntity
8
0
100
AcDbBlockEnd
0
BLOCK
5
121
100
AcDbEntity
8
0
100
AcDbBlockBegin
2
DimnDraft3D2
70
0
10
0
20
0
30
0
3
DimnDraft3D2
0
MTEXT
5
116
100
AcDbEntity
8
SK2
62
256
6
ByLayer
370
18
48
1
60
0
100
AcDbMText
10
23.997368
20
65.8369
30
0
210
0
220
0
230
1
1
\W0.6563;50
40
3
41
0
44
1.084337
50
0
71
7
72
5
7
iso_b_vert
0
LINE
5
118
100
AcDbEntity
8
SK2
62
256
6
ByLayer
370
13
48
1
60
0
100
AcDbLine
10
0
20
32.7
30
0
11
0
21
68.0869
31
0
39
0
210
0
220
0
230
1
0
LINE
5
119
100
AcDbEntity
8
SK2
62
256
6
ByLayer
370
13
48
1
60
0
100
AcDbLine
10
50
20
41.5
30
0
11
50
21
68.0869
31
0
39
0
210
0
220
0
230
1
0
LINE
5
11A
100
AcDbEntity
8
SK2
62
256
6
ByLayer
370
13
48
1
60
0
100
AcDbLine
10
0
20
65.0869
30
0
11
50
21
65.0869
31
0
39
0
210
0
220
0
230
1
0
LINE
5
11B
100
AcDbEntity
8
SK2
62
256
6
ByLayer
370
13
48
1
60
0
100
AcDbLine
10
0
20
65.0869
30
0
11
2.999998
21
65.615881
31
0
39
0
210
0
220
0
230
1
0
LINE
5
11C
100
AcDbEntity
8
SK2
62
256
6
ByLayer
370
13
48
1
60
0
100
AcDbLine
10
0
20
65.0869
30
0
11
3.000002
21
64.557919
31
0
39
0
210
0
220
0
230
1
0
LINE
5
11D
100
AcDbEntity
8
SK2
62
256
6
ByLayer
370
13
48
1
60
0
100
AcDbLine
10
2.999998
20
65.615881
30
0
11
3.000002
21
64.557919
31
0
39
0
210
0
220
0
230
1
0
LINE
5
11E
100
AcDbEntity
8
SK2
62
256
6
ByLayer
370
13
48
1
60
0
100
AcDbLine
10
50
20
65.0869
30
0
11
47.000002
21
64.557919
31
0
39
0
210
0
220
0
230
1
0
LINE
5
11F
100
AcDbEntity
8
SK2
62
256
6
ByLayer
370
13
48
1
60
0
100
AcDbLine
10
50
20
65.0869
30
0
11
46.999998
21
65.615881
31
0
39
0
210
0
220
0
230
1
0
LINE
5
120
100
AcDbEntity
8
SK2
62
256
6
ByLayer
370
13
48
1
60
0
100
AcDbLine
10
47.000002
20
64.557919
30
0
11
46.999998
21
65.615881
31
0
39
0
210
0
220
0
230
1
0
ENDBLK
5
122
100
AcDbEntity
8
0
100
AcDbBlockEnd
0
BLOCK
5
12F
100
AcDbEntity
8
0
100
AcDbBlockBegin
2
DimnDraft3D3
70
0
10
0
20
0
30
0
3
DimnDraft3D3
0
MTEXT
5
125
100
AcDbEntity
8
SK2
62
256
6
ByLayer
370
18
48
1
60
0
100
AcDbMText
10
-47.225214
20
-3.402632
30
0
210
0
220
0
230
1
1
\W0.8066;%%c 63
40
3
41
0
44
1.084337
50
90
71
7
72
5
7
iso_b_vert
0
LINE
5
126
100
AcDbEntity
8
SK2
62
256
6
ByLayer
370
13
48
1
60
0
100
AcDbLine
10
-1.2
20
-31.5
30
0
11
-49.475214
21
-31.5
31
0
39
0
210
0
220
0
230
1
0
LINE
5
127
100
AcDbEntity
8
SK2
62
256
6
ByLayer
370
13
48
1
60
0
100
AcDbLine
10
-1.2
20
31.5
30
0
11
-49.475214
21
31.5
31
0
39
0
210
0
220
0
230
1
0
LINE
5
128
100
AcDbEntity
8
SK2
62
256
6
ByLayer
370
13
48
1
60
0
100
AcDbLine
10
-46.475214
20
-31.5
30
0
11
-46.475214
21
31.5
31
0
39
0
210
0
220
0
230
1
0
LINE
5
129
100
AcDbEntity
8
SK2
62
256
6
ByLayer
370
13
48
1
60
0
100
AcDbLine
10
-46.475214
20
-31.5
30
0
11
-47.004195
21
-28.500002
31
0
39
0
210
0
220
0
230
1
0
LINE
5
12A
100
AcDbEntity
8
SK2
62
256
6
ByLayer
370
13
48
1
60
0
100
AcDbLine
10
-46.475214
20
-31.5
30
0
11
-45.946233
21
-28.499998
31
0
39
0
210
0
220
0
230
1
0
LINE
5
12B
100
AcDbEntity
8
SK2
62
256
6
ByLayer
370
13
48
1
60
0
100
AcDbLine
10
-47.004195
20
-28.500002
30
0
11
-45.946233
21
-28.499998
31
0
39
0
210
0
220
0
230
1
0
LINE
5
12C
100
AcDbEntity
8
SK2
62
256
6
ByLayer
370
13
48
1
60
0
100
AcDbLine
10
-46.475214
20
31.5
30
0
11
-45.946233
21
28.500002
31
0
39
0
210
0
220
0
230
1
0
LINE
5
12D
100
AcDbEntity
8
SK2
62
256
6
ByLayer
370
13
48
1
60
0
100
AcDbLine
10
-46.475214
20
31.5
30
0
11
-47.004195
21
28.499998
31
0
39
0
210
0
220
0
230
1
0
LINE
5
12E
100
AcDbEntity
8
SK2
62
256
6
ByLayer
370
13
48
1
60
0
100
AcDbLine
10
-45.946233
20
28.500002
30
0
11
-47.004195
21
28.499998
31
0
39
0
210
0
220
0
230
1
0
ENDBLK
5
130
100
AcDbEntity
8
0
100
AcDbBlockEnd
0
BLOCK
5
13D
100
AcDbEntity
8
0
100
AcDbBlockBegin
2
DimnDraft3D4
70
0
10
0
20
0
30
0
3
DimnDraft3D4
0
MTEXT
5
133
100
AcDbEntity
8
SK2
62
256
6
ByLayer
370
18
48
1
60
0
100
AcDbMText
10
8.368551
20
46.122849
30
0
210
0
220
0
230
1
1
\W0.7346;22.3
40
3
41
0
44
1.084337
50
0
71
7
72
5
7
iso_b_vert
0
LINE
5
134
100
AcDbEntity
8
SK2
62
256
6
ByLayer
370
13
48
1
60
0
100
AcDbLine
10
0
20
32.7
30
0
11
0
21
48.372849
31
0
39
0
210
0
220
0
230
1
0
LINE
5
135
100
AcDbEntity
8
SK2
62
256
6
ByLayer
370
13
48
1
60
0
100
AcDbLine
10
22.279208
20
33
30
0
11
22.279208
21
48.372849
31
0
39
0
210
0
220
0
230
1
0
LINE
5
136
100
AcDbEntity
8
SK2
62
256
6
ByLayer
370
13
48
1
60
0
100
AcDbLine
10
0
20
45.372849
30
0
11
22.279208
21
45.372849
31
0
39
0
210
0
220
0
230
1
0
LINE
5
137
100
AcDbEntity
8
SK2
62
256
6
ByLayer
370
13
48
1
60
0
100
AcDbLine
10
0
20
45.372849
30
0
11
2.999998
21
45.90183
31
0
39
0
210
0
220
0
230
1
0
LINE
5
138
100
AcDbEntity
8
SK2
62
256
6
ByLayer
370
13
48
1
60
0
100
AcDbLine
10
0
20
45.372849
30
0
11
3.000002
21
44.843868
31
0
39
0
210
0
220
0
230
1
0
LINE
5
139
100
AcDbEntity
8
SK2
62
256
6
ByLayer
370
13
48
1
60
0
100
AcDbLine
10
2.999998
20
45.90183
30
0
11
3.000002
21
44.843868
31
0
39
0
210
0
220
0
230
1
0
LINE
5
13A
100
AcDbEntity
8
SK2
62
256
6
ByLayer
370
13
48
1
60
0
100
AcDbLine
10
22.279208
20
45.372849
30
0
11
19.27921
21
44.843868
31
0
39
0
210
0
220
0
230
1
0
LINE
5
13B
100
AcDbEntity
8
SK2
62
256
6
ByLayer
370
13
48
1
60
0
100
AcDbLine
10
22.279208
20
45.372849
30
0
11
19.279206
21
45.90183
31
0
39
0
210
0
220
0
230
1
0
LINE
5
13C
100
AcDbEntity
8
SK2
62
256
6
ByLayer
370
13
48
1
60
0
100
AcDbLine
10
19.27921
20
44.843868
30
0
11
19.279206
21
45.90183
31
0
39
0
210
0
220
0
230
1
0
ENDBLK
5
13E
100
AcDbEntity
8
0
100
AcDbBlockEnd
0
BLOCK
5
14B
100
AcDbEntity
8
0
100
AcDbBlockBegin
2
DimnDraft3D5
70
0
10
0
20
0
30
0
3
DimnDraft3D5
0
MTEXT
5
141
100
AcDbEntity
8
SK2
62
256
6
ByLayer
370
18
48
1
60
0
100
AcDbMText
10
89.800798
20
-1.042105
30
0
210
0
220
0
230
1
1
\W0.6740;82
40
3
41
0
44
1.084337
50
90
71
7
72
5
7
iso_b_vert
0
LINE
5
142
100
AcDbEntity
8
SK2
62
256
6
ByLayer
370
13
48
1
60
0
100
AcDbLine
10
50.224823
20
41
30
0
11
93.550798
21
41
31
0
39
0
210
0
220
0
230
1
0
LINE
5
143
100
AcDbEntity
8
SK2
62
256
6
ByLayer
370
13
48
1
60
0
100
AcDbLine
10
50.224823
20
-41
30
0
11
93.550798
21
-41
31
0
39
0
210
0
220
0
230
1
0
LINE
5
144
100
AcDbEntity
8
SK2
62
256
6
ByLayer
370
13
48
1
60
0
100
AcDbLine
10
90.550798
20
41
30
0
11
90.550798
21
-41
31
0
39
0
210
0
220
0
230
1
0
LINE
5
145
100
AcDbEntity
8
SK2
62
256
6
ByLayer
370
13
48
1
60
0
100
AcDbLine
10
90.550798
20
41
30
0
11
91.079779
21
38.000002
31
0
39
0
210
0
220
0
230
1
0
LINE
5
146
100
AcDbEntity
8
SK2
62
256
6
ByLayer
370
13
48
1
60
0
100
AcDbLine
10
90.550798
20
41
30
0
11
90.021817
21
37.999998
31
0
39
0
210
0
220
0
230
1
0
LINE
5
147
100
AcDbEntity
8
SK2
62
256
6
ByLayer
370
13
48
1
60
0
100
AcDbLine
10
91.079779
20
38.000002
30
0
11
90.021817
21
37.999998
31
0
39
0
210
0
220
0
230
1
0
LINE
5
148
100
AcDbEntity
8
SK2
62
256
6
ByLayer
370
13
48
1
60
0
100
AcDbLine
10
90.550798
20
-41
30
0
11
90.021817
21
-38.000002
31
0
39
0
210
0
220
0
230
1
0
LINE
5
149
100
AcDbEntity
8
SK2
62
256
6
ByLayer
370
13
48
1
60
0
100
AcDbLine
10
90.550798
20
-41
30
0
11
91.079779
21
-37.999998
31
0
39
0
210
0
220
0
230
1
0
LINE
5
14A
100
AcDbEntity
8
SK2
62
256
6
ByLayer
370
13
48
1
60
0
100
AcDbLine
10
90.021817
20
-38.000002
30
0
11
91.079779
21
-37.999998
31
0
39
0
210
0
220
0
230
1
0
ENDBLK
5
14C
100
AcDbEntity
8
0
100
AcDbBlockEnd
0
BLOCK
5
159
100
AcDbEntity
8
0
100
AcDbBlockBegin
2
DimnDraft3D6
70
0
10
0
20
0
30
0
3
DimnDraft3D6
0
MTEXT
5
14F
100
AcDbEntity
8
SK2
62
256
6
ByLayer
370
18
48
1
60
0
100
AcDbMText
10
68.735145
20
-19.042105
30
0
210
0
220
0
230
1
1
\W0.6740;36
40
3
41
0
44
1.084337
50
90
71
7
72
5
7
iso_b_vert
0
LINE
5
150
100
AcDbEntity
8
SK2
62
256
6
ByLayer
370
13
48
1
60
0
100
AcDbLine
10
58.66774
20
0
30
0
11
72.485145
21
0
31
0
39
0
210
0
220
0
230
1
0
LINE
5
151
100
AcDbEntity
8
SK2
62
256
6
ByLayer
370
13
48
1
60
0
100
AcDbLine
10
50.5
20
-36
30
0
11
72.485145
21
-36
31
0
39
0
210
0
220
0
230
1
0
LINE
5
152
100
AcDbEntity
8
SK2
62
256
6
ByLayer
370
13
48
1
60
0
100
AcDbLine
10
69.485145
20
0
30
0
11
69.485145
21
-36
31
0
39
0
210
0
220
0
230
1
0
LINE
5
153
100
AcDbEntity
8
SK2
62
256
6
ByLayer
370
13
48
1
60
0
100
AcDbLine
10
69.485145
20
0
30
0
11
70.014125
21
-2.999998
31
0
39
0
210
0
220
0
230
1
0
LINE
5
154
100
AcDbEntity
8
SK2
62
256
6
ByLayer
370
13
48
1
60
0
100
AcDbLine
10
69.485145
20
0
30
0
11
68.956164
21
-3.000002
31
0
39
0
210
0
220
0
230
1
0
LINE
5
155
100
AcDbEntity
8
SK2
62
256
6
ByLayer
370
13
48
1
60
0
100
AcDbLine
10
70.014125
20
-2.999998
30
0
11
68.956164
21
-3.000002
31
0
39
0
210
0
220
0
230
1
0
LINE
5
156
100
AcDbEntity
8
SK2
62
256
6
ByLayer
370
13
48
1
60
0
100
AcDbLine
10
69.485145
20
-36
30
0
11
68.956164
21
-33.000002
31
0
39
0
210
0
220
0
230
1
0
LINE
5
157
100
AcDbEntity
8
SK2
62
256
6
ByLayer
370
13
48
1
60
0
100
AcDbLine
10
69.485145
20
-36
30
0
11
70.014125
21
-32.999998
31
0
39
0
210
0
220
0
230
1
0
LINE
5
158
100
AcDbEntity
8
SK2
62
256
6
ByLayer
370
13
48
1
60
0
100
AcDbLine
10
68.956164
20
-33.000002
30
0
11
70.014125
21
-32.999998
31
0
39
0
210
0
220
0
230
1
0
ENDBLK
5
15A
100
AcDbEntity
8
0
100
AcDbBlockEnd
0
BLOCK
5
167
100
AcDbEntity
8
0
100
AcDbBlockBegin
2
DimnDraft3D7
70
0
10
0
20
0
30
0
3
DimnDraft3D7
0
MTEXT
5
15D
100
AcDbEntity
8
SK2
62
256
6
ByLayer
370
18
48
1
60
0
100
AcDbMText
10
78.804262
20
-21.325
30
0
210
0
220
0
230
1
1
\W0.7092;41
40
3
41
0
44
1.084337
50
90
71
7
72
5
7
iso_b_vert
0
LINE
5
15E
100
AcDbEntity
8
SK2
62
256
6
ByLayer
370
13
48
1
60
0
100
AcDbLine
10
58.66774
20
0
30
0
11
82.554262
21
0
31
0
39
0
210
0
220
0
230
1
0
LINE
5
15F
100
AcDbEntity
8
SK2
62
256
6
ByLayer
370
13
48
1
60
0
100
AcDbLine
10
50.224823
20
-41
30
0
11
82.554262
21
-41
31
0
39
0
210
0
220
0
230
1
0
LINE
5
160
100
AcDbEntity
8
SK2
62
256
6
ByLayer
370
13
48
1
60
0
100
AcDbLine
10
79.554262
20
0
30
0
11
79.554262
21
-41
31
0
39
0
210
0
220
0
230
1
0
LINE
5
161
100
AcDbEntity
8
SK2
62
256
6
ByLayer
370
13
48
1
60
0
100
AcDbLine
10
79.554262
20
0
30
0
11
80.083243
21
-2.999998
31
0
39
0
210
0
220
0
230
1
0
LINE
5
162
100
AcDbEntity
8
SK2
62
256
6
ByLayer
370
13
48
1
60
0
100
AcDbLine
10
79.554262
20
0
30
0
11
79.025281
21
-3.000002
31
0
39
0
210
0
220
0
230
1
0
LINE
5
163
100
AcDbEntity
8
SK2
62
256
6
ByLayer
370
13
48
1
60
0
100
AcDbLine
10
80.083243
20
-2.999998
30
0
11
79.025281
21
-3.000002
31
0
39
0
210
0
220
0
230
1
0
LINE
5
164
100
AcDbEntity
8
SK2
62
256
6
ByLayer
370
13
48
1
60
0
100
AcDbLine
10
79.554262
20
-41
30
0
11
79.025281
21
-38.000002
31
0
39
0
210
0
220
0
230
1
0
LINE
5
165
100
AcDbEntity
8
SK2
62
256
6
ByLayer
370
13
48
1
60
0
100
AcDbLine
10
79.554262
20
-41
30
0
11
80.083243
21
-37.999998
31
0
39
0
210
0
220
0
230
1
0
LINE
5
166
100
AcDbEntity
8
SK2
62
256
6
ByLayer
370
13
48
1
60
0
100
AcDbLine
10
79.025281
20
-38.000002
30
0
11
80.083243
21
-37.999998
31
0
39
0
210
0
220
0
230
1
0
ENDBLK
5
168
100
AcDbEntity
8
0
100
AcDbBlockEnd
0
ENDSEC
0
SECTION
2
ENTITIES
0
ARC
5
D1
100
AcDbEntity
8
1
62
256
6
ByLayer
370
18
48
1
60
0
100
AcDbCircle
39
0
10
32.235516
20
-36.2
30
0
40
1.2
210
0
220
0
230
1
100
AcDbArc
50
25
51
90
0
ARC
5
D2
100
AcDbEntity
8
1
62
256
6
ByLayer
370
18
48
1
60
0
100
AcDbCircle
39
0
10
-24.444753
20
-34.6
30
0
40
0.4
210
0
220
0
230
-1
100
AcDbArc
50
270
51
345
0
ARC
5
D3
100
AcDbEntity
8
1
62
256
6
ByLayer
370
18
48
1
60
0
100
AcDbCircle
39
0
10
22.279208
20
-32.7
30
0
40
1.2
210
0
220
0
230
1
100
AcDbArc
50
15
51
90
0
ARC
5
D4
100
AcDbEntity
8
1
62
256
6
ByLayer
370
18
48
1
60
0
100
AcDbCircle
39
0
10
22.279208
20
32.7
30
0
40
1.2
210
0
220
0
230
1
100
AcDbArc
50
270
51
345
0
ARC
5
D5
100
AcDbEntity
8
1
62
256
6
ByLayer
370
18
48
1
60
0
100
AcDbCircle
39
0
10
-24.444753
20
34.6
30
0
40
0.4
210
0
220
0
230
-1
100
AcDbArc
50
15
51
90
0
ARC
5
D6
100
AcDbEntity
8
1
62
256
6
ByLayer
370
18
48
1
60
0
100
AcDbCircle
39
0
10
32.235516
20
36.2
30
0
40
1.2
210
0
220
0
230
1
100
AcDbArc
50
270
51
335
0
CIRCLE
5
D7
100
AcDbEntity
8
1
62
256
6
ByLayer
370
18
48
1
60
0
100
AcDbCircle
10
-37.5
20
6
30
0
40
2
39
0
210
0
220
0
230
-1
0
CIRCLE
5
D8
100
AcDbEntity
8
1
62
256
6
ByLayer
370
18
48
1
60
0
100
AcDbCircle
10
-37.5
20
-6
30
0
40
2
39
0
210
0
220
0
230
-1
0
ELLIPSE
5
D9
100
AcDbEntity
8
1
62
256
6
ByLayer
370
18
48
1
60
0
100
AcDbEllipse
10
92.087142
20
51.99995
30
0
11
59.7126091449628
21
-3.86239637009732E-05
31
0
210
0
220
0
230
-1
40
0.267949
41
2.37428074796479
42
2.38355060736462
0
ELLIPSE
5
DA
100
AcDbEntity
8
1
62
256
6
ByLayer
370
18
48
1
60
0
100
AcDbEllipse
10
92.087332
20
-51.999999
30
0
11
59.7128094030353
21
6.41668081634225E-07
31
0
210
0
220
0
230
-1
40
0.267949
41
-2.38355186494043
42
-2.37428202598353
0
ELLIPSE
5
DB
100
AcDbEntity
8
1
62
256
6
ByLayer
370
18
48
1
60
0
100
AcDbEllipse
10
47.729704
20
52
30
0
11
-9.79685084223751E-16
21
16.0000000190404
31
0
210
0
220
0
230
-1
40
0.267949
41
-2.45136583528257
42
-2.34259491850099
0
ELLIPSE
5
DC
100
AcDbEntity
8
1
62
256
6
ByLayer
370
18
48
1
60
0
100
AcDbEllipse
10
47.729704
20
-52
30
0
11
-9.79685084191894E-16
21
16.0000000185201
31
0
210
0
220
0
230
-1
40
0.267949
41
-0.798997735087284
42
-0.690226818301754
0
ELLIPSE
5
DD
100
AcDbEntity
8
1
62
256
6
ByLayer
370
18
48
1
60
0
100
AcDbEllipse
10
43
20
-37.70399
30
0
11
1.8
21
1.81915029914825E-15
31
0
210
0
220
0
230
-1
40
0.258819
41
0
42
6.28318530717959
0
ELLIPSE
5
DE
100
AcDbEntity
8
1
62
256
6
ByLayer
370
18
48
1
60
0
100
AcDbEllipse
10
43
20
-37.510805
30
0
11
2
21
2.02127811016473E-15
31
0
210
0
220
0
230
-1
40
0.258819
41
0
42
6.28318530717959
0
ELLIPSE
5
DF
100
AcDbEntity
8
1
62
256
6
ByLayer
370
18
48
1
60
0
100
AcDbEllipse
10
43
20
37.70399
30
0
11
1.80000000000001
21
1.81915029914826E-15
31
0
210
0
220
0
230
-1
40
0.258819
41
0
42
6.28318530717959
0
ELLIPSE
5
E0
100
AcDbEntity
8
1
62
256
6
ByLayer
370
18
48
1
60
0
100
AcDbEllipse
10
43
20
37.510805
30
0
11
1.99999999999999
21
2.02127811016472E-15
31
0
210
0
220
0
230
-1
40
0.258819
41
0
42
6.28318530717959
0
POINT
5
6C
100
AcDbEntity
8
80
62
256
6
ByLayer
370
18
48
1
60
0
100
AcDbPoint
10
0
20
0
30
0
39
0
210
0
220
0
230
1
50
360
0
POINT
5
6E
100
AcDbEntity
8
81
62
256
6
ByLayer
370
18
48
1
60
0
100
AcDbPoint
10
45
20
41
30
0
39
0
210
0
220
0
230
1
50
360
0
POINT
5
70
100
AcDbEntity
8
82
62
256
6
ByLayer
370
18
48
1
60
0
100
AcDbPoint
10
45
20
-41
30
0
39
0
210
0
220
0
230
1
50
360
0
SPLINE
5
E1
100
AcDbEntity
8
SK1
62
256
6
ByLayer
370
18
48
1
60
0
100
AcDbSpline
70
4
71
3
72
21
73
17
40
0
40
0
40
0
40
0
40
0.0516512852812926
40
0.0935350199252282
40
0.130231157575614
40
0.191789079216958
40
0.275258802016462
40
0.349809170369445
40
0.462727739307038
40
0.593133413578286
40
0.710538474857416
40
0.823987933643521
40
0.875952285318454
40
0.914499432865537
40
0.956509970244687
40
1
40
1
40
1
40
1
41
1
10
-2.09186392960638
20
22.0183271962844
30
0
41
1
10
-2.07954853506493
20
21.9776191706807
30
0
41
1
10
-2.04474289382461
20
21.920906530306
30
0
41
1
10
-1.9543727429629
20
21.8693482121739
30
0
41
1
10
-1.84958947683287
20
21.8838651990787
30
0
41
1
10
-1.71620595499288
20
21.8816457007454
30
0
41
1
10
-1.55389065250599
20
21.8815187360382
30
0
41
1
10
-1.35439023756634
20
21.8934132880981
30
0
41
1
10
-1.11993134115308
20
21.8997558613863
30
0
41
1
10
-0.853715996233151
20
21.9004232530316
30
0
41
1
10
-0.58774573048104
20
21.9170978309203
30
0
41
1
10
-0.378403980349103
20
21.9119701866265
30
0
41
1
10
-0.229135530022753
20
21.9249399429851
30
0
41
1
10
-0.129426210953036
20
21.9227191289627
30
0
41
1
10
-0.0474859940065474
20
21.9755395609382
30
0
41
1
10
-0.0130249002769405
20
22.0264281695365
30
0
41
1
10
-2.62105502697E-05
20
22.058248563293
30
0
0
SPLINE
5
E2
100
AcDbEntity
8
SK1
62
256
6
ByLayer
370
18
48
1
60
0
100
AcDbSpline
70
4
71
3
72
21
73
17
40
0
40
0
40
0
40
0
40
0.0516512852812926
40
0.0935350199252282
40
0.130231157575614
40
0.191789079216958
40
0.275258802016462
40
0.349809170369445
40
0.462727739307038
40
0.593133413578286
40
0.710538474857416
40
0.823987933643521
40
0.875952285318454
40
0.914499432865537
40
0.956509970244687
40
1
40
1
40
1
40
1
41
1
10
-2.09186392960638
20
-22.0183271962844
30
0
41
1
10
-2.07954853506493
20
-21.9776191706807
30
0
41
1
10
-2.04474289382461
20
-21.920906530306
30
0
41
1
10
-1.9543727429629
20
-21.8693482121739
30
0
41
1
10
-1.84958947683287
20
-21.8838651990787
30
0
41
1
10
-1.71620595499288
20
-21.8816457007455
30
0
41
1
10
-1.55389065250599
20
-21.8815187360382
30
0
41
1
10
-1.35439023756634
20
-21.8934132880981
30
0
41
1
10
-1.11993134115308
20
-21.8997558613863
30
0
41
1
10
-0.853715996233151
20
-21.9004232530315
30
0
41
1
10
-0.58774573048104
20
-21.9170978309203
30
0
41
1
10
-0.378403980349103
20
-21.9119701866265
30
0
41
1
10
-0.229135530022753
20
-21.9249399429851
30
0
41
1
10
-0.129426210953036
20
-21.9227191289627
30
0
41
1
10
-0.0474859940065474
20
-21.9755395609382
30
0
41
1
10
-0.0130249002769405
20
-22.0264281695365
30
0
41
1
10
-2.62105502697E-05
20
-22.058248563293
30
0
0
SPLINE
5
E3
100
AcDbEntity
8
1
62
256
6
ByLayer
370
18
48
1
60
0
100
AcDbSpline
70
4
71
3
72
12
73
8
40
0
40
0
40
0
40
0
40
0.572625769168314
40
0.572625769168314
40
0.961304022014957
40
0.961304022014957
40
1
40
1
40
1
40
1
41
1
10
10.25
20
-30.0805856895312
30
0
41
1
10
8.74004435261178
20
-28.4126131172084
30
0
41
1
10
7.96314503905199
20
-24.9790137307284
30
0
41
1
10
8.37720331697552
20
-17.5890512557807
30
0
41
1
10
8.99589154344229
20
-14.0490050657315
30
0
41
1
10
10.0491801140302
20
-10.0734255326476
30
0
41
1
10
10.1479626596711
20
-9.71189903534956
30
0
41
1
10
10.25
20
-9.34924406434925
30
0
0
SPLINE
5
E4
100
AcDbEntity
8
1
62
256
6
ByLayer
370
18
48
1
60
0
100
AcDbSpline
70
4
71
3
72
12
73
8
40
0
40
0
40
0
40
0
40
0.572625769168314
40
0.572625769168314
40
0.961304022014957
40
0.961304022014957
40
1
40
1
40
1
40
1
41
1
10
10.25
20
9.34924406434931
30
0
41
1
10
8.74004435261178
20
14.7158375070071
30
0
41
1
10
7.96314503905199
20
20.052443793227
30
0
41
1
10
8.37720331697552
20
26.4281747634865
30
0
41
1
10
8.99589154344229
20
28.4527504887667
30
0
41
1
10
10.0491801140302
20
29.8483104720045
30
0
41
1
10
10.1479626596711
20
29.9678701370474
30
0
41
1
10
10.25
20
30.0805856895312
30
0
0
SPLINE
5
E5
100
AcDbEntity
8
1
62
256
6
ByLayer
370
18
48
1
60
0
100
AcDbSpline
70
4
71
3
72
12
73
8
40
0
40
0
40
0
40
0
40
0.0238069036086083
40
0.0238069036086083
40
0.412781952217015
40
0.412781952217015
40
1
40
1
40
1
40
1
41
1
10
13.75
20
-9.34924406434723
30
0
41
1
10
13.8127287161885
20
-9.57219069032656
30
0
41
1
10
13.8742247248165
20
-9.7947005087937
30
0
41
1
10
14.9184698304633
20
-13.6434259207234
30
0
41
1
10
15.5689245664743
20
-17.2069737328843
30
0
41
1
10
16.0711357802983
20
-24.7953579571968
30
0
41
1
10
15.2972585123096
20
-28.3714065058317
30
0
41
1
10
13.75
20
-30.0805856895312
30
0
0
SPLINE
5
E6
100
AcDbEntity
8
1
62
256
6
ByLayer
370
18
48
1
60
0
100
AcDbSpline
70
4
71
3
72
12
73
8
40
0
40
0
40
0
40
0
40
0.0238069036086083
40
0.0238069036086083
40
0.412781952217015
40
0.412781952217015
40
1
40
1
40
1
40
1
41
1
10
13.75
20
30.0805856895325
30
0
41
1
10
13.8127287161885
20
30.0112924104349
30
0
41
1
10
13.8742247248165
20
29.9394164342885
30
0
41
1
10
14.9184698304633
20
28.648558697592
30
0
41
1
10
15.5689245664743
20
26.6782930894712
30
0
41
1
10
16.0711357802983
20
20.3200700821315
30
0
41
1
10
15.2972585123096
20
14.8484171033851
30
0
41
1
10
13.75
20
9.34924406434931
30
0
0
SPLINE
5
E7
100
AcDbEntity
8
1
62
256
6
ByLayer
370
18
48
1
60
0
100
AcDbSpline
70
4
71
3
72
14
73
10
40
0
40
0
40
0
40
0
40
0.5
40
0.5
40
0.75
40
0.75
40
0.875
40
0.875
40
1
40
1
40
1
40
1
41
1
10
33.323085031475
20
-15.8107595750803
30
1E-16
41
1
10
33.7111819430064
20
-17.6896273999733
30
1E-16
41
1
10
34.1530625888986
20
-19.5603456015812
30
1E-16
41
1
10
34.878569599082
20
-22.3569243515355
30
1E-16
41
1
10
35.130879530533
20
-23.2875301473682
30
1E-16
41
1
10
35.5230934308555
20
-24.6813555124395
30
1E-16
41
1
10
35.656125115937
20
-25.1456164099656
30
1E-16
41
1
10
35.9264758366683
20
-26.0734885608005
30
1E-16
41
1
10
36.0638207707743
20
-26.5371818349328
30
1E-16
41
1
10
36.2029940147195
20
-27
30
1E-16
0
SPLINE
5
E8
100
AcDbEntity
8
1
62
256
6
ByLayer
370
18
48
1
60
0
100
AcDbSpline
70
4
71
3
72
28
73
24
40
0
40
0
40
0
40
0
40
0.0625000000000078
40
0.0625000000000078
40
0.0937500000000066
40
0.0937500000000066
40
0.125000000000005
40
0.125000000000005
40
0.187500000000004
40
0.187500000000004
40
0.250000000000003
40
0.250000000000003
40
0.312500000000002
40
0.312500000000002
40
0.375
40
0.375
40
0.5
40
0.5
40
0.750000000000001
40
0.750000000000001
40
0.875000000000002
40
0.875000000000002
40
1
40
1
40
1
40
1
41
1
10
32.235515687031
20
-14.1774468787578
30
1E-16
41
1
10
32.2794738602606
20
-14.1774468787578
30
1E-16
41
1
10
32.3225489004188
20
-14.1833869922823
30
1E-16
41
1
10
32.3859658349472
20
-14.2003391583615
30
1E-16
41
1
10
32.4070423732175
20
-14.2073957068758
30
1E-16
41
1
10
32.4479687379529
20
-14.2237347520651
30
1E-16
41
1
10
32.467838516419
20
-14.23299753217
30
1E-16
41
1
10
32.5259052611941
20
-14.2636278638828
30
1E-16
41
1
10
32.5627720620576
20
-14.2879767020058
30
1E-16
41
1
10
32.6323403555044
20
-14.3418883859484
30
1E-16
41
1
10
32.6647326128597
20
-14.3711449179842
30
1E-16
41
1
10
32.7259815124858
20
-14.4330587892188
30
1E-16
41
1
10
32.7548261524
20
-14.4657276731416
30
1E-16
41
1
10
32.809697623951
20
-14.5337758102851
30
1E-16
41
1
10
32.8358032243283
20
-14.5692967159208
30
1E-16
41
1
10
32.9095670840471
20
-14.6776560481067
30
1E-16
41
1
10
32.9530892656287
20
-14.7525850426864
30
1E-16
41
1
10
33.0721152636193
20
-14.9828617886956
30
1E-16
41
1
10
33.1362685315513
20
-15.1436089214631
30
1E-16
41
1
10
33.2177339387091
20
-15.3917529937602
30
1E-16
41
1
10
33.2421912088649
20
-15.4753111785147
30
1E-16
41
1
10
33.2861373380284
20
-15.642602461656
30
1E-16
41
1
10
33.3056902792293
20
-15.7265475152948
30
1E-16
41
1
10
33.323085031475
20
-15.8107595750803
30
1E-16
0
SPLINE
5
E9
100
AcDbEntity
8
1
62
256
6
ByLayer
370
18
48
1
60
0
100
AcDbSpline
70
4
71
3
72
20
73
16
40
0
40
0
40
0
40
0
40
0.250000000000002
40
0.250000000000002
40
0.500000000000004
40
0.500000000000004
40
0.625000000000002
40
0.625000000000002
40
0.75
40
0.75
40
0.874999999999999
40
0.874999999999999
40
0.937499999999999
40
0.937499999999999
40
1
40
1
40
1
40
1
41
1
10
24.0583826381849
20
-13.4288804126083
30
1E-16
41
1
10
24.0661134533809
20
-13.5034405425049
30
1E-16
41
1
10
24.0772121169423
20
-13.5772516290871
30
1E-16
41
1
10
24.1080150969937
20
-13.7229598185765
30
1E-16
41
1
10
24.1275694071434
20
-13.7948902844008
30
1E-16
41
1
10
24.1672391619865
20
-13.9004866436542
30
1E-16
41
1
10
24.182135575553
20
-13.9350456085454
30
1E-16
41
1
10
24.2165418038592
20
-14.00186574464
30
1E-16
41
1
10
24.2360644074943
20
-14.0342060740389
30
1E-16
41
1
10
24.2815629741262
20
-14.0935761197839
30
1E-16
41
1
10
24.3079849470822
20
-14.1212710641005
30
1E-16
41
1
10
24.3547230881724
20
-14.152921049871
30
1E-16
41
1
10
24.3716581714988
20
-14.1618061416242
30
1E-16
41
1
10
24.406893332766
20
-14.1739950046507
30
1E-16
41
1
10
24.4256972364789
20
-14.1774468787578
30
1E-16
41
1
10
24.4447529687005
20
-14.1774468787578
30
1E-16
0
SPLINE
5
EA
100
AcDbEntity
8
1
62
256
6
ByLayer
370
18
48
1
60
0
100
AcDbSpline
70
4
71
3
72
10
73
6
40
0
40
0
40
0
40
0
40
0.5
40
0.5
40
1
40
1
40
1
40
1
41
1
10
23.4383186059721
20
-5.0074287862764
30
1E-16
41
1
10
23.4967849722367
20
-6.41880242539146
30
1E-16
41
1
10
23.579273222876
20
-7.82600179198277
30
1E-16
41
1
10
23.7876958006822
20
-10.6328509191194
30
1E-16
41
1
10
23.9135986709982
20
-12.0325061459081
30
1E-16
41
1
10
24.0583826381849
20
-13.4288804126083
30
1E-16
0
SPLINE
5
EB
100
AcDbEntity
8
1
62
256
6
ByLayer
370
18
48
1
60
0
100
AcDbSpline
70
4
71
3
72
26
73
22
40
0
40
0
40
0
40
0
40
0.25
40
0.25
40
0.375
40
0.375
40
0.5
40
0.50390625
40
0.505859375
40
0.505859375
40
0.5078125
40
0.5078125
40
0.515625
40
0.53125
40
0.5625
40
0.5625
40
0.625
40
0.625
40
0.75
40
0.75
40
1
40
1
40
1
40
1
41
1
10
23.4383186059721
20
5.00742878627639
30
1E-16
41
1
10
23.4042718616049
20
4.18554296426186
30
1E-16
41
1
10
23.3564256735083
20
3.36412470936867
30
1E-16
41
1
10
23.3001663262325
20
2.13147180326567
30
1E-16
41
1
10
23.2839634718116
20
1.72051472176489
30
1E-16
41
1
10
23.2611827502377
20
0.898374850137804
30
1E-16
41
1
10
23.2544476442741
20
0.474336541496741
30
1E-16
41
1
10
23.2539052528245
20
0.0437196118517677
30
1E-16
41
1
10
23.2538932870117
20
0.0244379557728532
30
1E-16
41
1
10
23.2538880910318
20
0.0115834504339293
30
1E-16
41
1
10
23.2538868730904
20
0.0053187311284939
30
1E-16
41
1
10
23.2538878486381
20
-0.0278311052939799
30
1E-16
41
1
10
23.2539612122122
20
-0.10738841955552
30
1E-16
41
1
10
23.2546291411688
20
-0.293006113956345
30
1E-16
41
1
10
23.2560498127525
20
-0.452079609618411
30
1E-16
41
1
10
23.259992099001
20
-0.77019105391435
30
1E-16
41
1
10
23.264094949348
20
-0.982217736602617
30
1E-16
41
1
10
23.2803256975502
20
-1.61817114555642
30
1E-16
41
1
10
23.296439853519
20
-2.04196916432386
30
1E-16
41
1
10
23.3534674413516
20
-3.31308279722545
30
1E-16
41
1
10
23.4032250177347
20
-4.16027223277896
30
1E-16
41
1
10
23.4383186059721
20
-5.00742878627638
30
1E-16
0
SPLINE
5
EC
100
AcDbEntity
8
1
62
256
6
ByLayer
370
18
48
1
60
0
100
AcDbSpline
70
4
71
3
72
10
73
6
40
0
40
0
40
0
40
0
40
0.5
40
0.5
40
1
40
1
40
1
40
1
41
1
10
24.0583826381865
20
13.4288804126239
30
1E-16
41
1
10
23.9136402836501
20
12.0329074806527
30
1E-16
41
1
10
23.7877485663795
20
10.633472842131
30
1E-16
41
1
10
23.5793142530983
20
7.82664298874671
30
1E-16
41
1
10
23.4968031810543
20
6.41924198486382
30
1E-16
41
1
10
23.4383186059721
20
5.00742878627639
30
1E-16
0
SPLINE
5
ED
100
AcDbEntity
8
1
62
256
6
ByLayer
370
18
48
1
60
0
100
AcDbSpline
70
4
71
3
72
24
73
20
40
0
40
0
40
0
40
0
40
0.0624999999999987
40
0.0624999999999987
40
0.124999999999997
40
0.124999999999997
40
0.187499999999996
40
0.187499999999996
40
0.249999999999995
40
0.249999999999995
40
0.374999999999995
40
0.374999999999995
40
0.499999999999995
40
0.499999999999995
40
0.624999999999995
40
0.624999999999995
40
0.749999999999994
40
0.749999999999994
40
1
40
1
40
1
40
1
41
1
10
24.4447529687005
20
14.1774468787578
30
1E-16
41
1
10
24.4256670891702
20
14.1774468787578
30
1E-16
41
1
10
24.407192324937
20
14.1741023137355
30
1E-16
41
1
10
24.3712912138134
20
14.1616753139486
30
1E-16
41
1
10
24.3545869177856
20
14.1528427487121
30
1E-16
41
1
10
24.3234412832572
20
14.1317237101679
30
1E-16
41
1
10
24.3089048567603
20
14.1193311770341
30
1E-16
41
1
10
24.2823366084328
20
14.092865885956
30
1E-16
41
1
10
24.2701326696657
20
14.0786705600215
30
1E-16
41
1
10
24.2358963523743
20
14.0339674953433
30
1E-16
41
1
10
24.2163519968318
20
14.0015108346284
30
1E-16
41
1
10
24.1822008437117
20
13.9351586022486
30
1E-16
41
1
10
24.1674250600716
20
13.9009177215197
30
1E-16
41
1
10
24.1410911566592
20
13.8309462370721
30
1E-16
41
1
10
24.1295346405444
20
13.7951156218077
30
1E-16
41
1
10
24.1091942783285
20
13.7230929955068
30
1E-16
41
1
10
24.1003773453489
20
13.6868104960377
30
1E-16
41
1
10
24.0772146745156
20
13.5773040679506
30
1E-16
41
1
10
24.0661123773681
20
13.5034301648553
30
1E-16
41
1
10
24.0583826381865
20
13.4288804126236
30
1E-16
0
SPLINE
5
EE
100
AcDbEntity
8
1
62
256
6
ByLayer
370
18
48
1
60
0
100
AcDbSpline
70
4
71
3
72
28
73
24
40
0
40
0
40
0
40
0
40
0.125000000000001
40
0.125000000000001
40
0.250000000000001
40
0.250000000000001
40
0.500000000000001
40
0.500000000000001
40
0.562500000000002
40
0.562500000000002
40
0.625000000000002
40
0.625000000000002
40
0.750000000000002
40
0.750000000000002
40
0.812500000000001
40
0.812500000000001
40
0.875000000000001
40
0.875000000000001
40
0.9375
40
0.9375
40
0.96875
40
0.96875
40
1
40
1
40
1
40
1
41
1
10
33.323085031475
20
15.8107595750803
30
1E-16
41
1
10
33.3056491715309
20
15.7263485033224
30
1E-16
41
1
10
33.2860409402395
20
15.6421856114111
30
1E-16
41
1
10
33.2419432326576
20
15.4744174793162
30
1E-16
41
1
10
33.2173973979049
20
15.3906704011049
30
1E-16
41
1
10
33.1361613301605
20
15.1433981929701
30
1E-16
41
1
10
33.0721210600219
20
14.9827953294981
30
1E-16
41
1
10
32.9726228385916
20
14.7903957444383
30
1E-16
41
1
10
32.9517148841583
20
14.7523489551284
30
1E-16
41
1
10
32.9074890666248
20
14.6772905720843
30
1E-16
41
1
10
32.8840942099148
20
14.6401710281404
30
1E-16
41
1
10
32.8103684519451
20
14.5320670804681
30
1E-16
41
1
10
32.7565292571309
20
14.4639227734351
30
1E-16
41
1
10
32.6646209586911
20
14.3710397772109
30
1E-16
41
1
10
32.6318208445306
20
14.3414596459114
30
1E-16
41
1
10
32.5626367564847
20
14.2878982431179
30
1E-16
41
1
10
32.52630568706
20
14.2638821659871
30
1E-16
41
1
10
32.4491012880706
20
14.2230710923331
30
1E-16
41
1
10
32.4078183986436
20
14.2062521814954
30
1E-16
41
1
10
32.3445382972616
20
14.1892302810062
30
1E-16
41
1
10
32.3231309005494
20
14.184863014872
30
1E-16
41
1
10
32.2796352127448
20
14.1789617352748
30
1E-16
41
1
10
32.2574331910833
20
14.1774468787578
30
1E-16
41
1
10
32.235515687031
20
14.1774468787578
30
1E-16
0
SPLINE
5
EF
100
AcDbEntity
8
1
62
256
6
ByLayer
370
18
48
1
60
0
100
AcDbSpline
70
4
71
3
72
10
73
6
40
0
40
0
40
0
40
0
40
0.5
40
0.5
40
1
40
1
40
1
40
1
41
1
10
36.2029940147195
20
27
30
1E-16
41
1
10
35.6468438351635
20
25.1505323989915
30
1E-16
41
1
10
35.1219562018717
20
23.2947413892443
30
1E-16
41
1
10
34.1545664226168
20
19.5664954324584
30
1E-16
41
1
10
33.7120923329769
20
17.6940348105269
30
1E-16
41
1
10
33.323085031475
20
15.8107595750803
30
1E-16
0
SPLINE
5
F0
100
AcDbEntity
8
1
62
256
6
ByLayer
370
18
48
1
60
0
100
AcDbSpline
70
4
71
3
72
10
73
6
40
0
40
0
40
0
40
0
40
0.5
40
0.5
40
1
40
1
40
1
40
1
41
1
10
36.2029940147195
20
-27
30
1E-16
41
1
10
36.5134934811225
20
-28.5130630315177
30
1E-16
41
1
10
36.8560300635402
20
-30.018800242516
30
1E-16
41
1
10
37.5946053807371
20
-33.0180405056881
30
1E-16
41
1
10
37.9906329534216
20
-34.5115461102609
30
1E-16
41
1
10
38.4087525735117
20
-36
30
1E-16
0
SPLINE
5
F1
100
AcDbEntity
8
1
62
256
6
ByLayer
370
18
48
1
60
0
100
AcDbSpline
70
4
71
3
72
10
73
6
40
0
40
0
40
0
40
0
40
0.5
40
0.5
40
1
40
1
40
1
40
1
41
1
10
38.4087525735117
20
36
30
1E-16
41
1
10
37.9906329534216
20
34.5115461102609
30
1E-16
41
1
10
37.5946053807371
20
33.0180405056881
30
1E-16
41
1
10
36.8560300635402
20
30.018800242516
30
1E-16
41
1
10
36.5134934811225
20
28.5130630315177
30
1E-16
41
1
10
36.2029940147195
20
27
30
1E-16
0
SPLINE
5
F2
100
AcDbEntity
8
1
62
256
6
ByLayer
370
18
48
1
60
0
100
AcDbSpline
70
4
71
3
72
28
73
24
40
0
40
0
40
0
40
0
40
0.125000000000001
40
0.125000000000001
40
0.250000000000001
40
0.250000000000001
40
0.500000000000001
40
0.500000000000001
40
0.562500000000002
40
0.562500000000002
40
0.625000000000002
40
0.625000000000002
40
0.750000000000002
40
0.750000000000002
40
0.812500000000001
40
0.812500000000001
40
0.875000000000001
40
0.875000000000001
40
0.9375
40
0.9375
40
0.96875
40
0.96875
40
1
40
1
40
1
40
1
41
1
10
33.323085031475
20
15.8107595750803
30
1E-16
41
1
10
33.3056491715309
20
15.7263485033224
30
1E-16
41
1
10
33.2860409402395
20
15.6421856114111
30
1E-16
41
1
10
33.2419432326576
20
15.4744174793162
30
1E-16
41
1
10
33.2173973979049
20
15.3906704011049
30
1E-16
41
1
10
33.1361613301605
20
15.1433981929701
30
1E-16
41
1
10
33.0721210600219
20
14.9827953294981
30
1E-16
41
1
10
32.9726228385916
20
14.7903957444383
30
1E-16
41
1
10
32.9517148841583
20
14.7523489551284
30
1E-16
41
1
10
32.9074890666248
20
14.6772905720843
30
1E-16
41
1
10
32.8840942099148
20
14.6401710281404
30
1E-16
41
1
10
32.8103684519451
20
14.5320670804681
30
1E-16
41
1
10
32.7565292571309
20
14.4639227734351
30
1E-16
41
1
10
32.6646209586911
20
14.3710397772109
30
1E-16
41
1
10
32.6318208445306
20
14.3414596459114
30
1E-16
41
1
10
32.5626367564847
20
14.2878982431179
30
1E-16
41
1
10
32.52630568706
20
14.2638821659871
30
1E-16
41
1
10
32.4491012880706
20
14.2230710923331
30
1E-16
41
1
10
32.4078183986436
20
14.2062521814954
30
1E-16
41
1
10
32.3445382972616
20
14.1892302810062
30
1E-16
41
1
10
32.3231309005494
20
14.184863014872
30
1E-16
41
1
10
32.2796352127448
20
14.1789617352748
30
1E-16
41
1
10
32.2574331910833
20
14.1774468787578
30
1E-16
41
1
10
32.235515687031
20
14.1774468787578
30
1E-16
0
SPLINE
5
F3
100
AcDbEntity
8
1
62
256
6
ByLayer
370
18
48
1
60
0
100
AcDbSpline
70
4
71
3
72
28
73
24
40
0
40
0
40
0
40
0
40
0.0625000000000078
40
0.0625000000000078
40
0.0937500000000066
40
0.0937500000000066
40
0.125000000000005
40
0.125000000000005
40
0.187500000000004
40
0.187500000000004
40
0.250000000000003
40
0.250000000000003
40
0.312500000000002
40
0.312500000000002
40
0.375
40
0.375
40
0.5
40
0.5
40
0.750000000000001
40
0.750000000000001
40
0.875000000000002
40
0.875000000000002
40
1
40
1
40
1
40
1
41
1
10
32.235515687031
20
-14.1774468787578
30
1E-16
41
1
10
32.2794738602606
20
-14.1774468787578
30
1E-16
41
1
10
32.3225489004188
20
-14.1833869922823
30
1E-16
41
1
10
32.3859658349472
20
-14.2003391583615
30
1E-16
41
1
10
32.4070423732175
20
-14.2073957068758
30
1E-16
41
1
10
32.4479687379529
20
-14.2237347520651
30
1E-16
41
1
10
32.467838516419
20
-14.23299753217
30
1E-16
41
1
10
32.5259052611941
20
-14.2636278638828
30
1E-16
41
1
10
32.5627720620576
20
-14.2879767020058
30
1E-16
41
1
10
32.6323403555044
20
-14.3418883859484
30
1E-16
41
1
10
32.6647326128597
20
-14.3711449179842
30
1E-16
41
1
10
32.7259815124858
20
-14.4330587892188
30
1E-16
41
1
10
32.7548261524
20
-14.4657276731416
30
1E-16
41
1
10
32.809697623951
20
-14.5337758102851
30
1E-16
41
1
10
32.8358032243283
20
-14.5692967159208
30
1E-16
41
1
10
32.9095670840471
20
-14.6776560481067
30
1E-16
41
1
10
32.9530892656287
20
-14.7525850426864
30
1E-16
41
1
10
33.0721152636193
20
-14.9828617886956
30
1E-16
41
1
10
33.1362685315513
20
-15.1436089214631
30
1E-16
41
1
10
33.2177339387091
20
-15.3917529937602
30
1E-16
41
1
10
33.2421912088649
20
-15.4753111785147
30
1E-16
41
1
10
33.2861373380284
20
-15.642602461656
30
1E-16
41
1
10
33.3056902792293
20
-15.7265475152948
30
1E-16
41
1
10
33.323085031475
20
-15.8107595750803
30
1E-16
0
SPLINE
5
F4
100
AcDbEntity
8
1
62
256
6
ByLayer
370
18
48
1
60
0
100
AcDbSpline
70
4
71
3
72
26
73
22
40
0
40
0
40
0
40
0
40
0.25
40
0.25
40
0.375
40
0.375
40
0.5
40
0.50390625
40
0.505859375
40
0.505859375
40
0.5078125
40
0.5078125
40
0.515625
40
0.53125
40
0.5625
40
0.5625
40
0.625
40
0.625
40
0.75
40
0.75
40
1
40
1
40
1
40
1
41
1
10
23.4383186059721
20
5.00742878627639
30
1E-16
41
1
10
23.4042718616049
20
4.18554296426186
30
1E-16
41
1
10
23.3564256735083
20
3.36412470936867
30
1E-16
41
1
10
23.3001663262325
20
2.13147180326567
30
1E-16
41
1
10
23.2839634718116
20
1.72051472176489
30
1E-16
41
1
10
23.2611827502377
20
0.898374850137804
30
1E-16
41
1
10
23.2544476442741
20
0.474336541496741
30
1E-16
41
1
10
23.2539052528245
20
0.0437196118517677
30
1E-16
41
1
10
23.2538932870117
20
0.0244379557728532
30
1E-16
41
1
10
23.2538880910318
20
0.0115834504339293
30
1E-16
41
1
10
23.2538868730904
20
0.0053187311284939
30
1E-16
41
1
10
23.2538878486381
20
-0.0278311052939799
30
1E-16
41
1
10
23.2539612122122
20
-0.10738841955552
30
1E-16
41
1
10
23.2546291411688
20
-0.293006113956345
30
1E-16
41
1
10
23.2560498127525
20
-0.452079609618411
30
1E-16
41
1
10
23.259992099001
20
-0.77019105391435
30
1E-16
41
1
10
23.264094949348
20
-0.982217736602617
30
1E-16
41
1
10
23.2803256975502
20
-1.61817114555642
30
1E-16
41
1
10
23.296439853519
20
-2.04196916432386
30
1E-16
41
1
10
23.3534674413516
20
-3.31308279722545
30
1E-16
41
1
10
23.4032250177347
20
-4.16027223277896
30
1E-16
41
1
10
23.4383186059721
20
-5.00742878627638
30
1E-16
0
SPLINE
5
F5
100
AcDbEntity
8
1
62
256
6
ByLayer
370
18
48
1
60
0
100
AcDbSpline
70
4
71
3
72
20
73
16
40
0
40
0
40
0
40
0
40
0.250000000000002
40
0.250000000000002
40
0.500000000000004
40
0.500000000000004
40
0.625000000000002
40
0.625000000000002
40
0.75
40
0.75
40
0.874999999999999
40
0.874999999999999
40
0.937499999999999
40
0.937499999999999
40
1
40
1
40
1
40
1
41
1
10
24.0583826381849
20
-13.4288804126083
30
1E-16
41
1
10
24.0661134533809
20
-13.5034405425049
30
1E-16
41
1
10
24.0772121169423
20
-13.5772516290871
30
1E-16
41
1
10
24.1080150969937
20
-13.7229598185765
30
1E-16
41
1
10
24.1275694071434
20
-13.7948902844008
30
1E-16
41
1
10
24.1672391619865
20
-13.9004866436542
30
1E-16
41
1
10
24.182135575553
20
-13.9350456085454
30
1E-16
41
1
10
24.2165418038592
20
-14.00186574464
30
1E-16
41
1
10
24.2360644074943
20
-14.0342060740389
30
1E-16
41
1
10
24.2815629741262
20
-14.0935761197839
30
1E-16
41
1
10
24.3079849470822
20
-14.1212710641005
30
1E-16
41
1
10
24.3547230881724
20
-14.152921049871
30
1E-16
41
1
10
24.3716581714988
20
-14.1618061416242
30
1E-16
41
1
10
24.406893332766
20
-14.1739950046507
30
1E-16
41
1
10
24.4256972364789
20
-14.1774468787578
30
1E-16
41
1
10
24.4447529687005
20
-14.1774468787578
30
1E-16
0
SPLINE
5
F6
100
AcDbEntity
8
1
62
256
6
ByLayer
370
18
48
1
60
0
100
AcDbSpline
70
4
71
3
72
24
73
20
40
0
40
0
40
0
40
0
40
0.0624999999999987
40
0.0624999999999987
40
0.124999999999997
40
0.124999999999997
40
0.187499999999996
40
0.187499999999996
40
0.249999999999995
40
0.249999999999995
40
0.374999999999995
40
0.374999999999995
40
0.499999999999995
40
0.499999999999995
40
0.624999999999995
40
0.624999999999995
40
0.749999999999994
40
0.749999999999994
40
1
40
1
40
1
40
1
41
1
10
24.4447529687005
20
14.1774468787578
30
1E-16
41
1
10
24.4256670891702
20
14.1774468787578
30
1E-16
41
1
10
24.407192324937
20
14.1741023137355
30
1E-16
41
1
10
24.3712912138134
20
14.1616753139486
30
1E-16
41
1
10
24.3545869177856
20
14.1528427487121
30
1E-16
41
1
10
24.3234412832572
20
14.1317237101679
30
1E-16
41
1
10
24.3089048567603
20
14.1193311770341
30
1E-16
41
1
10
24.2823366084328
20
14.092865885956
30
1E-16
41
1
10
24.2701326696657
20
14.0786705600215
30
1E-16
41
1
10
24.2358963523743
20
14.0339674953433
30
1E-16
41
1
10
24.2163519968318
20
14.0015108346284
30
1E-16
41
1
10
24.1822008437117
20
13.9351586022486
30
1E-16
41
1
10
24.1674250600716
20
13.9009177215197
30
1E-16
41
1
10
24.1410911566592
20
13.8309462370721
30
1E-16
41
1
10
24.1295346405444
20
13.7951156218077
30
1E-16
41
1
10
24.1091942783285
20
13.7230929955068
30
1E-16
41
1
10
24.1003773453489
20
13.6868104960377
30
1E-16
41
1
10
24.0772146745156
20
13.5773040679506
30
1E-16
41
1
10
24.0661123773681
20
13.5034301648553
30
1E-16
41
1
10
24.0583826381865
20
13.4288804126236
30
1E-16
0
SPLINE
5
F7
100
AcDbEntity
8
1
62
256
6
ByLayer
370
18
48
1
60
0
100
AcDbSpline
70
4
71
3
72
29
73
25
40
0
40
0
40
0
40
0
40
0.124999999999998
40
0.124999999999998
40
0.187499999999997
40
0.218749999999997
40
0.218749999999997
40
0.249999999999996
40
0.249999999999996
40
0.374999999999996
40
0.374999999999996
40
0.499999999999996
40
0.499999999999996
40
0.562499999999996
40
0.562499999999996
40
0.593749999999996
40
0.593749999999996
40
0.624999999999996
40
0.624999999999996
40
0.749999999999998
40
0.749999999999998
40
0.874999999999999
40
0.874999999999999
40
1
40
1
40
1
40
1
41
1
10
38.8325267973054
20
41
30
1E-16
41
1
10
38.5936463260925
20
40.6180663946396
30
1E-16
41
1
10
38.3580956229501
20
40.2545589800392
30
1E-16
41
1
10
38.0102411011399
20
39.7369440487121
30
1E-16
41
1
10
37.8376870604765
20
39.4850605339761
30
1E-16
41
1
10
37.6673357455929
20
39.2436814370007
30
1E-16
41
1
10
37.5542777700207
20
39.0851181956656
30
1E-16
41
1
10
37.4979942484155
20
39.0070035390866
30
1E-16
41
1
10
37.2189185967843
20
38.6237566566027
30
1E-16
41
1
10
37.0023021434557
20
38.3393851337502
30
1E-16
41
1
10
36.5835701075125
20
37.8150053347521
30
1E-16
41
1
10
36.3814491091335
20
37.5749914175744
30
1E-16
41
1
10
36.0906373829219
20
37.2492821842187
30
1E-16
41
1
10
35.9957683864617
20
37.1464430541764
30
1E-16
41
1
10
35.8568234801944
20
37.0010324011497
30
1E-16
41
1
10
35.8110688001698
20
36.9540377707871
30
1E-16
41
1
10
35.7207295338486
20
36.8630535243628
30
1E-16
41
1
10
35.6760822121104
20
36.8190043984181
30
1E-16
41
1
10
35.4569109504486
20
36.6073860933337
30
1E-16
41
1
10
35.2943394038087
20
36.4653638796649
30
1E-16
41
1
10
34.9967922605192
20
36.2359767736887
30
1E-16
41
1
10
34.8618125655489
20
36.1486050439074
30
1E-16
41
1
10
34.6225216124806
20
36.0306268560754
30
1E-16
41
1
10
34.5182007026256
20
36
30
1E-16
41
1
10
34.4313532080086
20
36
30
1E-16
0
SPLINE
5
F8
100
AcDbEntity
8
1
62
256
6
ByLayer
370
18
48
1
60
0
100
AcDbSpline
70
4
71
3
72
8
73
4
40
0
40
0
40
0
40
0
40
1
40
1
40
1
40
1
41
1
10
44.6572593389688
20
40.8411945591051
30
1E-16
41
1
10
44.643657935377
20
40.8933554703398
30
1E-16
41
1
10
44.6353466625761
20
40.9462977731113
30
1E-16
41
1
10
44.6318670649431
20
41
30
1E-16
0
SPLINE
5
F9
100
AcDbEntity
8
1
62
256
6
ByLayer
370
18
48
1
60
0
100
AcDbSpline
70
4
71
3
72
30
73
26
40
0
40
0
40
0
40
0
40
0.0624999999999998
40
0.0624999999999998
40
0.0937499999999996
40
0.0937499999999996
40
0.124999999999999
40
0.124999999999999
40
0.249999999999999
40
0.249999999999999
40
0.374999999999999
40
0.374999999999999
40
0.499999999999998
40
0.499999999999998
40
0.531249999999998
40
0.531249999999998
40
0.562499999999997
40
0.562499999999997
40
0.624999999999998
40
0.624999999999998
40
0.749999999999998
40
0.749999999999998
40
0.874999999999999
40
0.874999999999999
40
1
40
1
40
1
40
1
41
1
10
34.4313532080086
20
-36
30
1E-16
41
1
10
34.4748684619168
20
-36
30
1E-16
41
1
10
34.5229549304471
20
-36.0077124551082
30
1E-16
41
1
10
34.6016405853018
20
-36.0306161920853
30
1E-16
41
1
10
34.6289623089019
20
-36.0401411320907
30
1E-16
41
1
10
34.6857479498545
20
-36.0629465544884
30
1E-16
41
1
10
34.7152507978897
20
-36.0762477913912
30
1E-16
41
1
10
34.867388946255
20
-36.1517745119606
30
1E-16
41
1
10
35.0039229768141
20
-36.2409194628381
30
1E-16
41
1
10
35.3024014377935
20
-36.4721627007298
30
1E-16
41
1
10
35.464358057971
20
-36.6142830383912
30
1E-16
41
1
10
35.8107475691412
20
-36.9493316540846
30
1E-16
41
1
10
35.9951866343235
20
-37.1422685270356
30
1E-16
41
1
10
36.2385720529913
20
-37.4149970772868
30
1E-16
41
1
10
36.2878932073936
20
-37.4711249179264
30
1E-16
41
1
10
36.3878019716241
20
-37.5865566216497
30
1E-16
41
1
10
36.4384383692241
20
-37.6459186349554
30
1E-16
41
1
10
36.5918902818283
20
-37.8284039059966
30
1E-16
41
1
10
36.6957723532891
20
-37.9553519881744
30
1E-16
41
1
10
37.0117359130308
20
-38.3515483226773
30
1E-16
41
1
10
37.2281125490071
20
-38.6361066189315
30
1E-16
41
1
10
37.6706960850185
20
-39.244455195743
30
1E-16
41
1
10
37.8969086480075
20
-39.5682526397254
30
1E-16
41
1
10
38.3581878641879
20
-40.254746840373
30
1E-16
41
1
10
38.5932571006396
20
-40.6174440822348
30
1E-16
41
1
10
38.8325267973054
20
-41
30
1E-16
0
SPLINE
5
FA
100
AcDbEntity
8
1
62
256
6
ByLayer
370
18
48
1
60
0
100
AcDbSpline
70
4
71
3
72
8
73
4
40
0
40
0
40
0
40
0
40
1
40
1
40
1
40
1
41
1
10
44.6318670649431
20
-41
30
1E-16
41
1
10
44.6353466625761
20
-40.9462977731113
30
1E-16
41
1
10
44.643657935377
20
-40.8933554703398
30
1E-16
41
1
10
44.6572593389688
20
-40.8411945591051
30
1E-16
0
LINE
5
72
100
AcDbEntity
8
1
62
256
6
ByLayer
370
18
48
1
60
0
100
AcDbLine
10
0
20
-31.2
30
0
11
0
21
31.2
31
0
39
0
210
0
220
0
230
1
0
LINE
5
74
100
AcDbEntity
8
1
62
256
6
ByLayer
370
18
48
1
60
0
100
AcDbLine
10
22.05727
20
31.5
30
0
11
0.3
21
31.5
31
0
39
0
210
0
220
0
230
1
0
LINE
5
75
100
AcDbEntity
8
SK1
62
256
6
ByLayer
370
18
48
1
60
0
100
AcDbLine
10
-38
20
-20.279849
30
0
11
-38
21
20.279849
31
0
39
0
210
0
220
0
230
1
0
LINE
5
77
100
AcDbEntity
8
SK1
62
256
6
ByLayer
370
18
48
1
60
0
100
AcDbLine
10
-2.1
20
-22.022494
30
0
11
-2.1
21
22.022494
31
0
39
0
210
0
220
0
230
1
0
LINE
5
78
100
AcDbEntity
8
1
62
256
6
ByLayer
370
18
48
1
60
0
100
AcDbLine
10
22.05727
20
-31.5
30
0
11
0.3
21
-31.5
31
0
39
0
210
0
220
0
230
1
0
LINE
5
79
100
AcDbEntity
8
1
62
256
6
ByLayer
370
18
48
1
60
0
100
AcDbLine
10
0
20
31.2
30
0
11
0.3
21
31.5
31
0
39
0
210
0
220
0
230
1
0
LINE
5
7A
100
AcDbEntity
8
1
62
256
6
ByLayer
370
18
48
1
60
0
100
AcDbLine
10
0
20
-31.2
30
0
11
0.3
21
-31.5
31
0
39
0
210
0
220
0
230
1
0
LINE
5
7B
100
AcDbEntity
8
SK1
62
256
6
ByLayer
370
18
48
1
60
0
100
AcDbLine
10
-2.1
20
22.022939
30
0
11
-36.5
21
21.145874
31
0
39
0
210
0
220
0
230
1
0
LINE
5
7C
100
AcDbEntity
8
SK1
62
256
6
ByLayer
370
18
48
1
60
0
100
AcDbLine
10
-2.1
20
-22.022939
30
0
11
-36.5
21
-21.145874
31
0
39
0
210
0
220
0
230
1
0
LINE
5
7D
100
AcDbEntity
8
SK1
62
256
6
ByLayer
370
18
48
1
60
0
100
AcDbLine
10
-36.5
20
-21.145874
30
0
11
-36.5
21
21.145874
31
0
39
0
210
0
220
0
230
1
0
LINE
5
7E
100
AcDbEntity
8
SK1
62
256
6
ByLayer
370
18
48
1
60
0
100
AcDbLine
10
-38
20
20.279849
30
0
11
-36.5
21
21.145874
31
0
39
0
210
0
220
0
230
1
0
LINE
5
7F
100
AcDbEntity
8
SK1
62
256
6
ByLayer
370
18
48
1
60
0
100
AcDbLine
10
-38
20
-20.279849
30
0
11
-36.5
21
-21.145874
31
0
39
0
210
0
220
0
230
1
0
LINE
5
80
100
AcDbEntity
8
1
62
256
6
ByLayer
370
18
48
1
60
0
100
AcDbLine
10
10.25
20
-9.349244
30
0
11
10.25
21
-30.080586
31
0
39
0
210
0
220
0
230
1
0
LINE
5
81
100
AcDbEntity
8
1
62
256
6
ByLayer
370
18
48
1
60
0
100
AcDbLine
10
13.75
20
-30.080586
30
0
11
10.25
21
-30.080586
31
0
39
0
210
0
220
0
230
1
0
LINE
5
82
100
AcDbEntity
8
1
62
256
6
ByLayer
370
18
48
1
60
0
100
AcDbLine
10
13.75
20
-9.349244
30
0
11
10.25
21
-9.349244
31
0
39
0
210
0
220
0
230
1
0
LINE
5
83
100
AcDbEntity
8
1
62
256
6
ByLayer
370
18
48
1
60
0
100
AcDbLine
10
10.25
20
30.080586
30
0
11
10.25
21
9.349244
31
0
39
0
210
0
220
0
230
1
0
LINE
5
84
100
AcDbEntity
8
1
62
256
6
ByLayer
370
18
48
1
60
0
100
AcDbLine
10
13.75
20
9.349244
30
0
11
10.25
21
9.349244
31
0
39
0
210
0
220
0
230
1
0
LINE
5
85
100
AcDbEntity
8
1
62
256
6
ByLayer
370
18
48
1
60
0
100
AcDbLine
10
13.75
20
30.080586
30
0
11
10.25
21
30.080586
31
0
39
0
210
0
220
0
230
1
0
LINE
5
86
100
AcDbEntity
8
1
62
256
6
ByLayer
370
18
48
1
60
0
100
AcDbLine
10
13.75
20
-9.349244
30
0
11
13.75
21
-30.080586
31
0
39
0
210
0
220
0
230
1
0
LINE
5
87
100
AcDbEntity
8
1
62
256
6
ByLayer
370
18
48
1
60
0
100
AcDbLine
10
13.75
20
30.080586
30
0
11
13.75
21
9.349244
31
0
39
0
210
0
220
0
230
1
0
LINE
5
88
100
AcDbEntity
8
80
62
256
6
ByLayer
370
13
48
1
60
0
100
AcDbLine
10
0
20
0
30
0
11
-12
21
0
31
0
39
0
210
0
220
0
230
1
0
LINE
5
89
100
AcDbEntity
8
1
62
256
6
ByLayer
370
18
48
1
60
0
100
AcDbLine
10
33.466308
20
-36
30
0
11
33.323085
21
-35.692858
31
0
39
0
210
0
220
0
230
1
0
LINE
5
8A
100
AcDbEntity
8
1
62
256
6
ByLayer
370
18
48
1
60
0
100
AcDbLine
10
32.235516
20
-35
30
0
11
24.444753
21
-35
31
0
39
0
210
0
220
0
230
1
0
LINE
5
8B
100
AcDbEntity
8
1
62
256
6
ByLayer
370
18
48
1
60
0
100
AcDbLine
10
24.058383
20
-34.703528
30
0
11
23.438319
21
-32.389417
31
0
39
0
210
0
220
0
230
1
0
LINE
5
8C
100
AcDbEntity
8
1
62
256
6
ByLayer
370
18
48
1
60
0
100
AcDbLine
10
22.279208
20
-31.5
30
0
11
0.3
21
-31.5
31
0
39
0
210
0
220
0
230
1
0
LINE
5
8D
100
AcDbEntity
8
1
62
256
6
ByLayer
370
18
48
1
60
0
100
AcDbLine
10
0.3
20
31.5
30
0
11
22.279208
21
31.5
31
0
39
0
210
0
220
0
230
1
0
LINE
5
8E
100
AcDbEntity
8
1
62
256
6
ByLayer
370
18
48
1
60
0
100
AcDbLine
10
23.438319
20
32.389417
30
0
11
24.058383
21
34.703528
31
0
39
0
210
0
220
0
230
1
0
LINE
5
8F
100
AcDbEntity
8
1
62
256
6
ByLayer
370
18
48
1
60
0
100
AcDbLine
10
24.444753
20
35
30
0
11
32.235516
21
35
31
0
39
0
210
0
220
0
230
1
0
LINE
5
90
100
AcDbEntity
8
1
62
256
6
ByLayer
370
18
48
1
60
0
100
AcDbLine
10
33.323085
20
35.692858
30
0
11
33.466308
21
36
31
0
39
0
210
0
220
0
230
1
0
LINE
5
91
100
AcDbEntity
8
1
62
256
6
ByLayer
370
18
48
1
60
0
100
AcDbLine
10
24.444753
20
-14.177447
30
0
11
32.235516
21
-14.177447
31
0
39
0
210
0
220
0
230
1
0
LINE
5
92
100
AcDbEntity
8
1
62
256
6
ByLayer
370
18
48
1
60
0
100
AcDbLine
10
32.235516
20
14.177447
30
0
11
24.444753
21
14.177447
31
0
39
0
210
0
220
0
230
1
0
LINE
5
93
100
AcDbEntity
8
1
62
256
6
ByLayer
370
18
48
1
60
0
100
AcDbLine
10
49.5
20
-35.5
30
0
11
50
21
-35
31
0
39
0
210
0
220
0
230
1
0
LINE
5
94
100
AcDbEntity
8
1
62
256
6
ByLayer
370
18
48
1
60
0
100
AcDbLine
10
50
20
35
30
0
11
49.5
21
35.5
31
0
39
0
210
0
220
0
230
1
0
LINE
5
95
100
AcDbEntity
8
1
62
256
6
ByLayer
370
18
48
1
60
0
100
AcDbLine
10
50
20
-35
30
0
11
50
21
35
31
0
39
0
210
0
220
0
230
1
0
LINE
5
96
100
AcDbEntity
8
1
62
256
6
ByLayer
370
18
48
1
60
0
100
AcDbLine
10
41
20
27
30
0
11
41
21
-27
31
0
39
0
210
0
220
0
230
1
0
LINE
5
97
100
AcDbEntity
8
1
62
256
6
ByLayer
370
18
48
1
60
0
100
AcDbLine
10
38.408753
20
-36
30
0
11
49
21
-36
31
0
39
0
210
0
220
0
230
1
0
LINE
5
98
100
AcDbEntity
8
1
62
256
6
ByLayer
370
18
48
1
60
0
100
AcDbLine
10
49
20
-36
30
0
11
49.5
21
-35.5
31
0
39
0
210
0
220
0
230
1
0
LINE
5
99
100
AcDbEntity
8
1
62
256
6
ByLayer
370
18
48
1
60
0
100
AcDbLine
10
41
20
-27
30
0
11
49.5
21
-35.5
31
0
39
0
210
0
220
0
230
1
0
LINE
5
9A
100
AcDbEntity
8
1
62
256
6
ByLayer
370
18
48
1
60
0
100
AcDbLine
10
36.202994
20
-27
30
0
11
41
21
-27
31
0
39
0
210
0
220
0
230
1
0
LINE
5
9B
100
AcDbEntity
8
1
62
256
6
ByLayer
370
18
48
1
60
0
100
AcDbLine
10
49.5
20
35.5
30
0
11
49
21
36
31
0
39
0
210
0
220
0
230
1
0
LINE
5
9C
100
AcDbEntity
8
1
62
256
6
ByLayer
370
18
48
1
60
0
100
AcDbLine
10
49
20
36
30
0
11
38.408753
21
36
31
0
39
0
210
0
220
0
230
1
0
LINE
5
9D
100
AcDbEntity
8
1
62
256
6
ByLayer
370
18
48
1
60
0
100
AcDbLine
10
49.5
20
35.5
30
0
11
41
21
27
31
0
39
0
210
0
220
0
230
1
0
LINE
5
9E
100
AcDbEntity
8
1
62
256
6
ByLayer
370
18
48
1
60
0
100
AcDbLine
10
41
20
27
30
0
11
36.202994
21
27
31
0
39
0
210
0
220
0
230
1
0
LINE
5
9F
100
AcDbEntity
8
1
62
256
6
ByLayer
370
18
48
1
60
0
100
AcDbLine
10
22.279208
20
31.5
30
0
11
22.279208
21
-31.5
31
0
39
0
210
0
220
0
230
1
0
LINE
5
A0
100
AcDbEntity
8
1
62
256
6
ByLayer
370
18
48
1
60
0
100
AcDbLine
10
50
20
40
30
0
11
49.107232
21
40.892768
31
0
39
0
210
0
220
0
230
1
0
LINE
5
A1
100
AcDbEntity
8
1
62
256
6
ByLayer
370
18
48
1
60
0
100
AcDbLine
10
50
20
-40
30
0
11
50
21
40
31
0
39
0
210
0
220
0
230
1
0
LINE
5
A2
100
AcDbEntity
8
1
62
256
6
ByLayer
370
18
48
1
60
0
100
AcDbLine
10
49.107232
20
-40.892768
30
0
11
50
21
-40
31
0
39
0
210
0
220
0
230
1
0
LINE
5
A3
100
AcDbEntity
8
1
62
256
6
ByLayer
370
18
48
1
60
0
100
AcDbLine
10
45
20
37.019099
30
0
11
45
21
39.662374
31
0
39
0
210
0
220
0
230
1
0
LINE
5
A4
100
AcDbEntity
8
1
62
256
6
ByLayer
370
18
48
1
60
0
100
AcDbLine
10
45
20
-39.662374
30
0
11
45
21
-37.019099
31
0
39
0
210
0
220
0
230
1
0
LINE
5
A5
100
AcDbEntity
8
1
62
256
6
ByLayer
370
18
48
1
60
0
100
AcDbLine
10
50.4
20
14.25
30
0
11
50.4
21
23.75
31
0
39
0
210
0
220
0
230
1
0
LINE
5
A6
100
AcDbEntity
8
1
62
256
6
ByLayer
370
18
48
1
60
0
100
AcDbLine
10
52.75
20
16.5
30
0
11
52.75
21
21.5
31
0
39
0
210
0
220
0
230
1
0
LINE
5
A7
100
AcDbEntity
8
1
62
256
6
ByLayer
370
18
48
1
60
0
100
AcDbLine
10
50.4
20
-4.75
30
0
11
50.4
21
4.75
31
0
39
0
210
0
220
0
230
1
0
LINE
5
A8
100
AcDbEntity
8
1
62
256
6
ByLayer
370
18
48
1
60
0
100
AcDbLine
10
52.75
20
-2.5
30
0
11
52.75
21
2.5
31
0
39
0
210
0
220
0
230
1
0
LINE
5
A9
100
AcDbEntity
8
1
62
256
6
ByLayer
370
18
48
1
60
0
100
AcDbLine
10
50.4
20
-23.75
30
0
11
50.4
21
-14.25
31
0
39
0
210
0
220
0
230
1
0
LINE
5
AA
100
AcDbEntity
8
1
62
256
6
ByLayer
370
18
48
1
60
0
100
AcDbLine
10
52.75
20
-21.5
30
0
11
52.75
21
-16.5
31
0
39
0
210
0
220
0
230
1
0
LINE
5
AB
100
AcDbEntity
8
1
62
256
6
ByLayer
370
18
48
1
60
0
100
AcDbLine
10
24.444753
20
-35
30
0
11
24.444753
21
-14.177447
31
0
39
0
210
0
220
0
230
1
0
LINE
5
AC
100
AcDbEntity
8
1
62
256
6
ByLayer
370
18
48
1
60
0
100
AcDbLine
10
24.444753
20
14.177447
30
0
11
24.444753
21
35
31
0
39
0
210
0
220
0
230
1
0
LINE
5
AD
100
AcDbEntity
8
1
62
256
6
ByLayer
370
18
48
1
60
0
100
AcDbLine
10
24.058383
20
-13.42888
30
0
11
24.058383
21
-34.703528
31
0
39
0
210
0
220
0
230
1
0
LINE
5
AE
100
AcDbEntity
8
1
62
256
6
ByLayer
370
18
48
1
60
0
100
AcDbLine
10
24.058383
20
34.703528
30
0
11
24.058383
21
13.428869
31
0
39
0
210
0
220
0
230
1
0
LINE
5
AF
100
AcDbEntity
8
1
62
256
6
ByLayer
370
18
48
1
60
0
100
AcDbLine
10
23.438319
20
-32.389417
30
0
11
23.438319
21
-5.007429
31
0
39
0
210
0
220
0
230
1
0
LINE
5
B0
100
AcDbEntity
8
1
62
256
6
ByLayer
370
18
48
1
60
0
100
AcDbLine
10
23.438319
20
5.007429
30
0
11
23.438319
21
32.389417
31
0
39
0
210
0
220
0
230
1
0
LINE
5
B1
100
AcDbEntity
8
1
62
256
6
ByLayer
370
18
48
1
60
0
100
AcDbLine
10
32.235516
20
35
30
0
11
32.235516
21
14.177447
31
0
39
0
210
0
220
0
230
1
0
LINE
5
B2
100
AcDbEntity
8
1
62
256
6
ByLayer
370
18
48
1
60
0
100
AcDbLine
10
33.323085
20
15.81076
30
0
11
33.323085
21
35.692858
31
0
39
0
210
0
220
0
230
1
0
LINE
5
B3
100
AcDbEntity
8
1
62
256
6
ByLayer
370
18
48
1
60
0
100
AcDbLine
10
32.235516
20
-14.177447
30
0
11
32.235516
21
-35
31
0
39
0
210
0
220
0
230
1
0
LINE
5
B4
100
AcDbEntity
8
1
62
256
6
ByLayer
370
18
48
1
60
0
100
AcDbLine
10
33.323085
20
-35.692858
30
0
11
33.323085
21
-15.81076
31
0
39
0
210
0
220
0
230
1
0
LINE
5
B5
100
AcDbEntity
8
1
62
256
6
ByLayer
370
18
48
1
60
0
100
AcDbLine
10
44.85
20
-36
30
0
11
33.466308
21
-36
31
0
39
0
210
0
220
0
230
1
0
LINE
5
B6
100
AcDbEntity
8
1
62
256
6
ByLayer
370
18
48
1
60
0
100
AcDbLine
10
33.466308
20
36
30
0
11
44.85
21
36
31
0
39
0
210
0
220
0
230
1
0
LINE
5
B7
100
AcDbEntity
8
1
62
256
6
ByLayer
370
18
48
1
60
0
100
AcDbLine
10
38.832527
20
-41
30
0
11
48.724823
21
-41
31
0
39
0
210
0
220
0
230
1
0
LINE
5
B8
100
AcDbEntity
8
1
62
256
6
ByLayer
370
18
48
1
60
0
100
AcDbLine
10
48.724823
20
41
30
0
11
38.832527
21
41
31
0
39
0
210
0
220
0
230
1
0
LINE
5
B9
100
AcDbEntity
8
1
62
256
6
ByLayer
370
18
48
1
60
0
100
AcDbLine
10
41
20
-37.510805
30
0
11
41
21
-36
31
0
39
0
210
0
220
0
230
1
0
LINE
5
BA
100
AcDbEntity
8
1
62
256
6
ByLayer
370
18
48
1
60
0
100
AcDbLine
10
45
20
-37.510805
30
0
11
45
21
-36
31
0
39
0
210
0
220
0
230
1
0
LINE
5
BB
100
AcDbEntity
8
1
62
256
6
ByLayer
370
18
48
1
60
0
100
AcDbLine
10
41
20
36
30
0
11
41
21
37.510805
31
0
39
0
210
0
220
0
230
1
0
LINE
5
BC
100
AcDbEntity
8
1
62
256
6
ByLayer
370
18
48
1
60
0
100
AcDbLine
10
45
20
37.510805
30
0
11
45
21
36
31
0
39
0
210
0
220
0
230
1
0
LINE
5
BD
100
AcDbEntity
8
1
62
256
6
ByLayer
370
18
48
1
60
0
100
AcDbLine
10
52.75
20
21.5
30
0
11
50.4
21
23.75
31
0
39
0
210
0
220
0
230
1
0
LINE
5
BE
100
AcDbEntity
8
1
62
256
6
ByLayer
370
18
48
1
60
0
100
AcDbLine
10
52.75
20
16.5
30
0
11
50.4
21
14.25
31
0
39
0
210
0
220
0
230
1
0
LINE
5
BF
100
AcDbEntity
8
1
62
256
6
ByLayer
370
18
48
1
60
0
100
AcDbLine
10
50.4
20
23.75
30
0
11
50
21
23.75
31
0
39
0
210
0
220
0
230
1
0
LINE
5
C0
100
AcDbEntity
8
1
62
256
6
ByLayer
370
18
48
1
60
0
100
AcDbLine
10
50.4
20
14.25
30
0
11
50
21
14.25
31
0
39
0
210
0
220
0
230
1
0
LINE
5
C1
100
AcDbEntity
8
1
62
256
6
ByLayer
370
18
48
1
60
0
100
AcDbLine
10
52.75
20
2.5
30
0
11
50.4
21
4.75
31
0
39
0
210
0
220
0
230
1
0
LINE
5
C2
100
AcDbEntity
8
1
62
256
6
ByLayer
370
18
48
1
60
0
100
AcDbLine
10
52.75
20
-2.5
30
0
11
50.4
21
-4.75
31
0
39
0
210
0
220
0
230
1
0
LINE
5
C3
100
AcDbEntity
8
1
62
256
6
ByLayer
370
18
48
1
60
0
100
AcDbLine
10
50.4
20
4.75
30
0
11
50
21
4.75
31
0
39
0
210
0
220
0
230
1
0
LINE
5
C4
100
AcDbEntity
8
1
62
256
6
ByLayer
370
18
48
1
60
0
100
AcDbLine
10
50.4
20
-4.75
30
0
11
50
21
-4.75
31
0
39
0
210
0
220
0
230
1
0
LINE
5
C5
100
AcDbEntity
8
1
62
256
6
ByLayer
370
18
48
1
60
0
100
AcDbLine
10
50.4
20
-14.25
30
0
11
50
21
-14.25
31
0
39
0
210
0
220
0
230
1
0
LINE
5
C6
100
AcDbEntity
8
1
62
256
6
ByLayer
370
18
48
1
60
0
100
AcDbLine
10
50.4
20
-23.75
30
0
11
50
21
-23.75
31
0
39
0
210
0
220
0
230
1
0
LINE
5
C7
100
AcDbEntity
8
1
62
256
6
ByLayer
370
18
48
1
60
0
100
AcDbLine
10
50.4
20
-23.75
30
0
11
52.75
21
-21.5
31
0
39
0
210
0
220
0
230
1
0
LINE
5
C8
100
AcDbEntity
8
1
62
256
6
ByLayer
370
18
48
1
60
0
100
AcDbLine
10
52.75
20
-16.5
30
0
11
50.4
21
-14.25
31
0
39
0
210
0
220
0
230
1
0
LINE
5
C9
100
AcDbEntity
8
4
62
256
6
ByLayer
370
13
48
0.05
60
0
100
AcDbLine
10
0
20
0
30
0
11
50
21
0
31
0
39
0
210
0
220
0
230
1
0
LINE
5
CB
100
AcDbEntity
8
SK4
62
256
6
ByLayer
370
13
48
0.05
60
0
100
AcDbLine
10
-39.5
20
0
30
0
11
57.16774
21
0
31
0
39
0
210
0
220
0
230
1
0
LINE
5
CD
100
AcDbEntity
8
81
62
256
6
ByLayer
370
13
48
1
60
0
100
AcDbLine
10
45
20
41
30
0
11
45
21
51
31
0
39
0
210
0
220
0
230
1
0
LINE
5
CE
100
AcDbEntity
8
82
62
256
6
ByLayer
370
13
48
0.05
60
0
100
AcDbLine
10
45
20
-41
30
0
11
45
21
-51
31
0
39
0
210
0
220
0
230
1
0
LINE
5
CF
100
AcDbEntity
8
SK3
62
256
6
ByLayer
370
13
48
0.05
60
0
100
AcDbLine
10
45
20
36
30
0
11
45
21
-37.019099
31
0
39
0
210
0
220
0
230
1
0
MTEXT
5
FB
100
AcDbEntity
8
SK6
62
256
6
ByLayer
370
18
48
1
60
0
100
AcDbMText
10
-7.112828
20
-49.565109
30
0
210
0
220
0
230
1
1
\W0.7672;C6-APBA-050-25HP
40
3.5
41
0
44
1.084337
50
0
71
7
72
5
7
iso_b_vert
0
DIMENSION
5
10D
100
AcDbEntity
8
2
62
256
6
ByLayer
370
13
48
1
60
0
100
AcDbDimension
2
DimnDraft3D1
10
0
20
56.070332
30
0
11
20.589474
21
56.070332
31
0
70
32
71
5
72
1
41
1
210
0
220
0
230
1
3
Standard
100
AcDbAlignedDimension
13
45
23
41.162374
33
0
14
0
24
32.7
34
0
50
0
100
AcDbRotatedDimension
1001
ACAD
1000
DSTYLE
1002
{
1070
   279
1070
     0
1070
   173
1070
     1
1070
   340
1005
FC
1070
   271
1070
     0
1070
   272
1070
     2
1070
    77
1070
     1
1070
    73
1070
     0
1070
   171
1070
     4
1070
   274
1070
     4
1070
   177
1070
     7
1070
   176
1070
     7
1070
   178
1070
     7
1070
    41
1041
3.0
1070
   147
1041
1.5
1070
    42
1041
1.5
1070
    44
1041
3.0
1070
   140
1041
3.0
1070
   343
1005
10E
1070
   344
1005
10E
1002
}
0
DIMENSION
5
123
100
AcDbEntity
8
SK2
62
256
6
ByLayer
370
13
48
1
60
0
100
AcDbDimension
2
DimnDraft3D2
10
50
20
65.0869
30
0
11
23.247368
21
65.0869
31
0
70
32
71
5
72
1
41
1
210
0
220
0
230
1
3
Standard
100
AcDbAlignedDimension
13
0
23
32.7
33
0
14
50
24
41.5
34
0
50
0
100
AcDbRotatedDimension
1001
ACAD
1000
DSTYLE
1002
{
1070
   279
1070
     0
1070
   173
1070
     1
1070
   340
1005
FC
1070
   271
1070
     0
1070
   272
1070
     2
1070
    77
1070
     1
1070
    73
1070
     0
1070
   171
1070
     4
1070
   274
1070
     4
1070
   177
1070
     7
1070
   176
1070
     7
1070
   178
1070
     7
1070
    41
1041
3.0
1070
   147
1041
1.5
1070
    42
1041
1.5
1070
    44
1041
3.0
1070
   140
1041
3.0
1070
   343
1005
10E
1070
   344
1005
10E
1002
}
0
DIMENSION
5
131
100
AcDbEntity
8
SK2
62
256
6
ByLayer
370
13
48
1
60
0
100
AcDbDimension
2
DimnDraft3D3
10
-46.475214
20
31.5
30
0
11
-46.475214
21
-4.152632
31
0
70
32
71
5
72
1
41
1
210
0
220
0
230
1
3
Standard
100
AcDbAlignedDimension
13
-1.2
23
-31.5
33
0
14
-1.2
24
31.5
34
0
50
90
100
AcDbRotatedDimension
1001
ACAD
1000
DSTYLE
1002
{
1070
    74
1070
     0
1070
   279
1070
     0
1070
   173
1070
     1
1070
   340
1005
FC
1070
   271
1070
     0
1070
   272
1070
     2
1070
    77
1070
     1
1070
    73
1070
     0
1070
   171
1070
     4
1070
   274
1070
     4
1070
   177
1070
     7
1070
   176
1070
     7
1070
   178
1070
     7
1070
    41
1041
3.0
1070
   147
1041
1.5
1070
    42
1041
1.5
1070
    44
1041
3.0
1070
   140
1041
3.0
1070
   343
1005
10E
1070
   344
1005
10E
1002
}
0
DIMENSION
5
13F
100
AcDbEntity
8
SK2
62
256
6
ByLayer
370
13
48
1
60
0
100
AcDbDimension
2
DimnDraft3D4
10
22.279208
20
45.372849
30
0
11
7.618551
21
45.372849
31
0
70
32
71
5
72
1
41
1
210
0
220
0
230
1
3
Standard
100
AcDbAlignedDimension
13
0
23
32.7
33
0
14
22.279208
24
33
34
0
50
0
100
AcDbRotatedDimension
1001
ACAD
1000
DSTYLE
1002
{
1070
   279
1070
     0
1070
   173
1070
     1
1070
   340
1005
FC
1070
   271
1070
     1
1070
   272
1070
     2
1070
    77
1070
     1
1070
    73
1070
     0
1070
   171
1070
     4
1070
   274
1070
     4
1070
   177
1070
     7
1070
   176
1070
     7
1070
   178
1070
     7
1070
    41
1041
3.0
1070
   147
1041
1.5
1070
    42
1041
1.5
1070
    44
1041
3.0
1070
   140
1041
3.0
1070
   343
1005
10E
1070
   344
1005
10E
1002
}
0
DIMENSION
5
14D
100
AcDbEntity
8
SK2
62
256
6
ByLayer
370
13
48
1
60
0
100
AcDbDimension
2
DimnDraft3D5
10
90.550798
20
-41
30
0
11
90.550798
21
-1.792105
31
0
70
32
71
5
72
1
41
1
210
0
220
0
230
1
3
Standard
100
AcDbAlignedDimension
13
50.224823
23
41
33
0
14
50.224823
24
-41
34
0
50
90
100
AcDbRotatedDimension
1001
ACAD
1000
DSTYLE
1002
{
1070
    74
1070
     0
1070
   279
1070
     0
1070
   173
1070
     1
1070
   340
1005
FC
1070
   271
1070
     0
1070
   272
1070
     2
1070
    77
1070
     1
1070
    73
1070
     0
1070
   171
1070
     4
1070
   274
1070
     4
1070
   177
1070
     7
1070
   176
1070
     7
1070
   178
1070
     7
1070
    41
1041
3.0
1070
   147
1041
1.5
1070
    42
1041
1.5
1070
    44
1041
3.0
1070
   140
1041
3.0
1070
   343
1005
0
1070
   344
1005
0
1002
}
0
DIMENSION
5
15B
100
AcDbEntity
8
SK2
62
256
6
ByLayer
370
13
48
1
60
0
100
AcDbDimension
2
DimnDraft3D6
10
69.485145
20
-36
30
0
11
69.485145
21
-19.792105
31
0
70
32
71
5
72
1
41
1
210
0
220
0
230
1
3
Standard
100
AcDbAlignedDimension
13
58.66774
23
0
33
0
14
50.5
24
-36
34
0
50
90
100
AcDbRotatedDimension
1001
ACAD
1000
DSTYLE
1002
{
1070
    74
1070
     0
1070
   279
1070
     0
1070
   173
1070
     1
1070
   340
1005
FC
1070
   271
1070
     0
1070
   272
1070
     2
1070
    77
1070
     1
1070
    73
1070
     0
1070
   171
1070
     4
1070
   274
1070
     4
1070
   177
1070
     7
1070
   176
1070
     7
1070
   178
1070
     7
1070
    41
1041
3.0
1070
   147
1041
1.5
1070
    42
1041
1.5
1070
    44
1041
3.0
1070
   140
1041
3.0
1070
   343
1005
0
1070
   344
1005
0
1002
}
0
DIMENSION
5
169
100
AcDbEntity
8
SK2
62
256
6
ByLayer
370
13
48
1
60
0
100
AcDbDimension
2
DimnDraft3D7
10
79.554262
20
-41
30
0
11
79.554262
21
-22.075
31
0
70
32
71
5
72
1
41
1
210
0
220
0
230
1
3
Standard
100
AcDbAlignedDimension
13
58.66774
23
0
33
0
14
50.224823
24
-41
34
0
50
90
100
AcDbRotatedDimension
1001
ACAD
1000
DSTYLE
1002
{
1070
    74
1070
     0
1070
   279
1070
     0
1070
   173
1070
     1
1070
   340
1005
FC
1070
   271
1070
     0
1070
   272
1070
     2
1070
    77
1070
     1
1070
    73
1070
     0
1070
   171
1070
     4
1070
   274
1070
     4
1070
   177
1070
     7
1070
   176
1070
     7
1070
   178
1070
     7
1070
    41
1041
3.0
1070
   147
1041
1.5
1070
    42
1041
1.5
1070
    44
1041
3.0
1070
   140
1041
3.0
1070
   343
1005
0
1070
   344
1005
0
1002
}
0
ENDSEC
0
SECTION
2
OBJECTS
0
DICTIONARY
5
1d5
330
0
100
AcDbDictionary
280
0
281
1
3
ACAD_GROUP
350
1d6
3
ACAD_MLINESTYLE
350
1d7
0
DICTIONARY
5
1d6
330
0
100
AcDbDictionary
280
0
281
1
0
DICTIONARY
5
1d7
330
0
100
AcDbDictionary
280
0
281
1
3
Standard
350
18
0
MLINESTYLE
5
18
330
1d7
100
AcDbMlineStyle
2
Standard
70
0
3

62
256
51
90
52
90
71
2
49
-0.5
62
256
6
ByLayer
49
0.5
62
256
6
ByLayer
0
RASTERVARIABLES
5
1c2
330

100
AcDbRasterVariables
90
0
70
1
71
1
72
1
0
ENDSEC
0
EOF
