0
SECTION
2
HEADER
9
$ACADVER
1
AC1015
9
$DWGCODEPAGE
3
ANSI_1252
9
$HANDSEED
5
274
9
$ANGBASE
50
0
9
$ANGDIR
70
0
9
$ATTMODE
70
1
9
$AUNITS
70
0
9
$AUPREC
70
0
9
$CECOLOR
62
256
9
$CELTSCALE
40
1
9
$CELTYPE
6
ByLayer
9
$CELWEIGHT
370
18
9
$CLAYER
8
0
9
$CMLJUST
70
0
9
$CMLSCALE
40
1
9
$CMLSTYLE
2
Standard
9
$DIMSTYLE
2
Standard
9
$TEXTSIZE
40
0.2
9
$TEXTSTYLE
7
Standard
9
$LUNITS
70
2
9
$LUPREC
70
4
9
$EXTNAMES
290
1
9
$INSUNITS
70
4
9
$LTSCALE
40
1
9
$LWDISPLAY
290
1
9
$PDMODE
70
0
9
$PDSIZE
40
0
9
$PLINEGEN
70
0
0
ENDSEC
0
SECTION
2
CLASSES
0
CLASS
1
RASTERVARIABLES
2
AcDbRasterVariables
3
ISM
90
0
280
0
281
0
0
ENDSEC
0
SECTION
2
TABLES
0
TABLE
2
VPORT
5
26a
100
AcDbSymbolTable
0
VPORT
5
1
100
AcDbSymbolTableRecord
100
AcDbViewportTableRecord
2
*Active
70
0
10
0
20
0
11
1
21
1
12
-1
22
1
13
0
23
0
14
0.5
24
0.5
15
10
25
10
16
0
26
0
36
1
17
0
27
0
37
0
0
ENDTAB
0
TABLE
2
LTYPE
5
26b
100
AcDbSymbolTable
0
LTYPE
5
14
100
AcDbSymbolTableRecord
100
AcDbLinetypeTableRecord
70
0
2
ByBlock
3

72
65
73
0
40
0
0
LTYPE
5
15
100
AcDbSymbolTableRecord
100
AcDbLinetypeTableRecord
70
0
2
ByLayer
3

72
65
73
0
40
0
0
LTYPE
5
16
100
AcDbSymbolTableRecord
100
AcDbLinetypeTableRecord
70
0
2
CONTINUOUS
3
Solid line
72
65
73
0
40
0
0
LTYPE
5
6A
100
AcDbSymbolTableRecord
100
AcDbLinetypeTableRecord
70
0
2
CENTER
3
____ _ ____ _ ____ _ ____
72
65
73
4
40
47.5
49
22
74
0
49
-8.5
74
0
49
8.5
74
0
49
-8.5
74
0
0
LTYPE
5
6B
100
AcDbSymbolTableRecord
100
AcDbLinetypeTableRecord
70
0
2
DASHED
3
__ __ __ __ __ __ __ __ __
72
65
73
2
40
25.72
49
12.86
74
0
49
-12.86
74
0
0
ENDTAB
0
TABLE
2
LAYER
5
26c
100
AcDbSymbolTable
0
LAYER
5
10
100
AcDbSymbolTableRecord
100
AcDbLayerTableRecord
2
0
70
0
62
7
6
CONTINUOUS
290
1
370
-3
390
0
0
LAYER
5
6D
100
AcDbSymbolTableRecord
100
AcDbLayerTableRecord
2
81
70
0
62
-3
6
CONTINUOUS
290
1
370
-3
390
0
0
LAYER
5
6F
100
AcDbSymbolTableRecord
100
AcDbLayerTableRecord
2
80
70
0
62
-6
6
CONTINUOUS
290
1
370
-3
390
0
0
LAYER
5
71
100
AcDbSymbolTableRecord
100
AcDbLayerTableRecord
2
1
70
0
62
4
6
CONTINUOUS
290
1
370
-3
390
0
0
LAYER
5
E6
100
AcDbSymbolTableRecord
100
AcDbLayerTableRecord
2
4
70
0
62
-2
6
CENTER
290
1
370
-3
390
0
0
LAYER
5
1AE
100
AcDbSymbolTableRecord
100
AcDbLayerTableRecord
2
2
70
0
62
7
6
CONTINUOUS
290
1
370
-3
390
0
0
LAYER
5
256
100
AcDbSymbolTableRecord
100
AcDbLayerTableRecord
2
SK1
70
0
62
4
6
CONTINUOUS
290
1
370
-3
390
0
0
LAYER
5
257
100
AcDbSymbolTableRecord
100
AcDbLayerTableRecord
2
SK4
70
0
62
2
6
CENTER
290
1
370
-3
390
0
0
LAYER
5
258
100
AcDbSymbolTableRecord
100
AcDbLayerTableRecord
2
SK6
70
0
62
5
6
CONTINUOUS
290
1
370
-3
390
0
0
LAYER
5
259
100
AcDbSymbolTableRecord
100
AcDbLayerTableRecord
2
SK2
70
0
62
7
6
CONTINUOUS
290
1
370
-3
390
0
0
ENDTAB
0
TABLE
2
STYLE
5
26d
100
AcDbSymbolTable
0
STYLE
5
11
100
AcDbSymbolTableRecord
100
AcDbTextStyleTableRecord
2
Standard
3
txt
70
0
71
0
40
0
41
1
42
0
50
0
0
STYLE
5
1A9
100
AcDbSymbolTableRecord
100
AcDbTextStyleTableRecord
2
iso_b_vert
3
simplex.shx
70
0
71
0
40
0
41
1
42
0
50
0
0
STYLE
5
1AA
100
AcDbSymbolTableRecord
100
AcDbTextStyleTableRecord
2
DWGDirectTextStyle
3
simplex
70
0
71
0
40
0
41
1
42
0
50
0
0
ENDTAB
0
TABLE
2
DIMSTYLE
5
26e
100
AcDbSymbolTable
100
AcDbDimStyleTable
0
DIMSTYLE
105
27
100
AcDbSymbolTableRecord
100
AcDbDimStyleTableRecord
2
Standard
70
0
3
<>
41
0.18
42
0.0625
44
0.18
140
0.18
147
0.09
73
0
74
0
77
1
271
2
275
0
278
52
280
0
340
11
0
ENDTAB
0
TABLE
2
VIEW
5
26f
100
AcDbSymbolTable
0
ENDTAB
0
TABLE
2
UCS
5
270
100
AcDbSymbolTable
0
ENDTAB
0
TABLE
2
APPID
5
271
100
AcDbSymbolTable
0
APPID
5
12
100
AcDbSymbolTableRecord
100
AcDbRegAppTableRecord
2
ACAD
70
0
0
ENDTAB
0
TABLE
2
BLOCK_RECORD
5
272
100
AcDbSymbolTable
0
BLOCK_RECORD
5
1F
100
AcDbSymbolTableRecord
100
AcDbBlockTableRecord
2
*Model_Space
340
0
70
0
0
BLOCK_RECORD
5
1B
100
AcDbSymbolTableRecord
100
AcDbBlockTableRecord
2
*Paper_Space
340
0
70
0
0
BLOCK_RECORD
5
23
100
AcDbSymbolTableRecord
100
AcDbBlockTableRecord
2
*Paper_Space0
340
0
70
0
0
BLOCK_RECORD
5
1AC
100
AcDbSymbolTableRecord
100
AcDbBlockTableRecord
2
DimnDraft3D1
340
0
70
0
0
BLOCK_RECORD
5
1B7
100
AcDbSymbolTableRecord
100
AcDbBlockTableRecord
2
DimnDraft3D2
340
0
70
0
0
BLOCK_RECORD
5
1C2
100
AcDbSymbolTableRecord
100
AcDbBlockTableRecord
2
DimnDraft3D3
340
0
70
0
0
BLOCK_RECORD
5
1CC
100
AcDbSymbolTableRecord
100
AcDbBlockTableRecord
2
DimnDraft3D4
340
0
70
0
0
BLOCK_RECORD
5
1DA
100
AcDbSymbolTableRecord
100
AcDbBlockTableRecord
2
_CLOSED
340
0
70
0
0
BLOCK_RECORD
5
1E1
100
AcDbSymbolTableRecord
100
AcDbBlockTableRecord
2
DimnDraft3D5
340
0
70
0
0
BLOCK_RECORD
5
1EF
100
AcDbSymbolTableRecord
100
AcDbBlockTableRecord
2
DimnDraft3D6
340
0
70
0
0
ENDTAB
0
ENDSEC
0
SECTION
2
BLOCKS
0
BLOCK
5
20
100
AcDbEntity
8
0
100
AcDbBlockBegin
2
*Model_Space
70
0
10
0
20
0
30
0
3
*Model_Space
0
ENDBLK
5
21
100
AcDbEntity
8
0
100
AcDbBlockEnd
0
BLOCK
5
1C
100
AcDbEntity
8
0
100
AcDbBlockBegin
2
*Paper_Space
70
0
10
0
20
0
30
0
3
*Paper_Space
0
ENDBLK
5
1D
100
AcDbEntity
8
0
100
AcDbBlockEnd
0
BLOCK
5
24
100
AcDbEntity
8
0
100
AcDbBlockBegin
2
*Paper_Space0
70
0
10
0
20
0
30
0
3
*Paper_Space0
0
ENDBLK
5
25
100
AcDbEntity
8
0
100
AcDbBlockEnd
0
BLOCK
5
1B4
100
AcDbEntity
8
0
100
AcDbBlockBegin
2
DimnDraft3D1
70
0
10
0
20
0
30
0
3
DimnDraft3D1
0
MTEXT
5
1AD
100
AcDbEntity
8
2
62
256
6
ByLayer
370
18
48
1
60
0
100
AcDbMText
10
21.339471
20
59.817282
30
0
210
0
220
0
230
1
1
\W0.7183;45
40
3.000007
41
0
44
1.084337
50
0
71
7
72
5
7
iso_b_vert
0
LINE
5
1AF
100
AcDbEntity
8
2
62
256
6
ByLayer
370
13
48
1
60
0
100
AcDbLine
10
0
20
1.5875
30
0
11
0
21
62.242281
31
0
39
0
210
0
220
0
230
1
0
LINE
5
1B0
100
AcDbEntity
8
2
62
256
6
ByLayer
370
13
48
1
60
0
100
AcDbLine
10
45
20
22.5875
30
0
11
45
21
62.242281
31
0
39
0
210
0
220
0
230
1
0
LINE
5
1B1
100
AcDbEntity
8
2
62
256
6
ByLayer
370
13
48
1
60
0
100
AcDbLine
10
0
20
59.067281
30
0
11
45
21
59.067281
31
0
39
0
210
0
220
0
230
1
0
SOLID
5
1B2
100
AcDbEntity
8
2
62
256
6
ByLayer
370
13
48
1
60
0
100
AcDbTrace
10
0
20
59.067281
30
0
11
3.174998
21
59.570151
31
0
12
3.175002
22
58.56441
32
0
13
0
23
59.067281
33
0
39
0
210
0
220
0
230
1
0
SOLID
5
1B3
100
AcDbEntity
8
2
62
256
6
ByLayer
370
13
48
1
60
0
100
AcDbTrace
10
45
20
59.067281
30
0
11
41.825002
21
58.56441
31
0
12
41.824998
22
59.570151
32
0
13
45
23
59.067281
33
0
39
0
210
0
220
0
230
1
0
ENDBLK
5
1B5
100
AcDbEntity
8
0
100
AcDbBlockEnd
0
BLOCK
5
1BF
100
AcDbEntity
8
0
100
AcDbBlockBegin
2
DimnDraft3D2
70
0
10
0
20
0
30
0
3
DimnDraft3D2
0
MTEXT
5
1B8
100
AcDbEntity
8
SK2
62
256
6
ByLayer
370
18
48
1
60
0
100
AcDbMText
10
2.497366
20
71.590447
30
0
210
0
220
0
230
1
1
\W0.6563;83
40
3.000007
41
0
44
1.084337
50
0
71
7
72
5
7
iso_b_vert
0
LINE
5
1BA
100
AcDbEntity
8
SK2
62
256
6
ByLayer
370
13
48
1
60
0
100
AcDbLine
10
45
20
22.5875
30
0
11
45
21
74.015445
31
0
39
0
210
0
220
0
230
1
0
LINE
5
1BB
100
AcDbEntity
8
SK2
62
256
6
ByLayer
370
13
48
1
60
0
100
AcDbLine
10
-38
20
21.867349
30
0
11
-38
21
74.015445
31
0
39
0
210
0
220
0
230
1
0
LINE
5
1BC
100
AcDbEntity
8
SK2
62
256
6
ByLayer
370
13
48
1
60
0
100
AcDbLine
10
45
20
70.840445
30
0
11
-38
21
70.840445
31
0
39
0
210
0
220
0
230
1
0
SOLID
5
1BD
100
AcDbEntity
8
SK2
62
256
6
ByLayer
370
13
48
1
60
0
100
AcDbTrace
10
45
20
70.840445
30
0
11
41.825002
21
70.337574
31
0
12
41.824998
22
71.343316
32
0
13
45
23
70.840445
33
0
39
0
210
0
220
0
230
1
0
SOLID
5
1BE
100
AcDbEntity
8
SK2
62
256
6
ByLayer
370
13
48
1
60
0
100
AcDbTrace
10
-38
20
70.840445
30
0
11
-34.825002
21
71.343316
31
0
12
-34.824998
22
70.337574
32
0
13
-38
23
70.840445
33
0
39
0
210
0
220
0
230
1
0
ENDBLK
5
1C0
100
AcDbEntity
8
0
100
AcDbBlockEnd
0
BLOCK
5
1C9
100
AcDbEntity
8
0
100
AcDbBlockBegin
2
DimnDraft3D3
70
0
10
0
20
0
30
0
3
DimnDraft3D3
0
MTEXT
5
1C3
100
AcDbEntity
8
SK2
62
256
6
ByLayer
370
18
48
1
60
0
100
AcDbMText
10
69.743314
20
17.518413
30
0
210
0
220
0
230
1
1
\W0.8203;%%c 40
40
3.000007
41
0
44
1.084337
50
90
71
7
72
5
7
iso_b_vert
0
LINE
5
1C4
100
AcDbEntity
8
SK2
62
256
6
ByLayer
370
13
48
1
60
0
100
AcDbLine
10
45.912019
20
41
30
0
11
73.668315
21
41
31
0
39
0
210
0
220
0
230
1
0
LINE
5
1C5
100
AcDbEntity
8
SK2
62
256
6
ByLayer
370
13
48
1
60
0
100
AcDbLine
10
45.912019
20
1
30
0
11
73.668315
21
1
31
0
39
0
210
0
220
0
230
1
0
LINE
5
1C6
100
AcDbEntity
8
SK2
62
256
6
ByLayer
370
13
48
1
60
0
100
AcDbLine
10
70.493315
20
41
30
0
11
70.493315
21
1
31
0
39
0
210
0
220
0
230
1
0
SOLID
5
1C7
100
AcDbEntity
8
SK2
62
256
6
ByLayer
370
13
48
1
60
0
100
AcDbTrace
10
70.493315
20
41
30
0
11
70.996186
21
37.825002
31
0
12
69.990445
22
37.824998
32
0
13
70.493315
23
41
33
0
39
0
210
0
220
0
230
1
0
SOLID
5
1C8
100
AcDbEntity
8
SK2
62
256
6
ByLayer
370
13
48
1
60
0
100
AcDbTrace
10
70.493315
20
1
30
0
11
69.990445
21
4.174998
31
0
12
70.996186
22
4.175002
32
0
13
70.493315
23
1
33
0
39
0
210
0
220
0
230
1
0
ENDBLK
5
1CA
100
AcDbEntity
8
0
100
AcDbBlockEnd
0
BLOCK
5
1D7
100
AcDbEntity
8
0
100
AcDbBlockBegin
2
DimnDraft3D4
70
0
10
0
20
0
30
0
3
DimnDraft3D4
0
MTEXT
5
1CD
100
AcDbEntity
8
SK2
62
256
6
ByLayer
370
18
48
1
60
0
100
AcDbMText
10
-47.506937
20
-3.323684
30
0
210
0
220
0
230
1
1
\W0.7884;%%c 63
40
3
41
0
44
1.084337
50
90
71
7
72
5
7
iso_b_vert
0
LINE
5
1CE
100
AcDbEntity
8
SK2
62
256
6
ByLayer
370
13
48
1
60
0
100
AcDbLine
10
-1.2
20
31.5
30
0
11
-49.756937
21
31.5
31
0
39
0
210
0
220
0
230
1
0
LINE
5
1CF
100
AcDbEntity
8
SK2
62
256
6
ByLayer
370
13
48
1
60
0
100
AcDbLine
10
-1.2
20
-31.5
30
0
11
-49.756937
21
-31.5
31
0
39
0
210
0
220
0
230
1
0
LINE
5
1D0
100
AcDbEntity
8
SK2
62
256
6
ByLayer
370
13
48
1
60
0
100
AcDbLine
10
-46.756937
20
31.5
30
0
11
-46.756937
21
-31.5
31
0
39
0
210
0
220
0
230
1
0
LINE
5
1D1
100
AcDbEntity
8
SK2
62
256
6
ByLayer
370
13
48
1
60
0
100
AcDbLine
10
-46.756937
20
31.5
30
0
11
-46.227956
21
28.500002
31
0
39
0
210
0
220
0
230
1
0
LINE
5
1D2
100
AcDbEntity
8
SK2
62
256
6
ByLayer
370
13
48
1
60
0
100
AcDbLine
10
-46.756937
20
31.5
30
0
11
-47.285918
21
28.499998
31
0
39
0
210
0
220
0
230
1
0
LINE
5
1D3
100
AcDbEntity
8
SK2
62
256
6
ByLayer
370
13
48
1
60
0
100
AcDbLine
10
-46.227956
20
28.500002
30
0
11
-47.285918
21
28.499998
31
0
39
0
210
0
220
0
230
1
0
LINE
5
1D4
100
AcDbEntity
8
SK2
62
256
6
ByLayer
370
13
48
1
60
0
100
AcDbLine
10
-46.756937
20
-31.5
30
0
11
-47.285918
21
-28.500002
31
0
39
0
210
0
220
0
230
1
0
LINE
5
1D5
100
AcDbEntity
8
SK2
62
256
6
ByLayer
370
13
48
1
60
0
100
AcDbLine
10
-46.756937
20
-31.5
30
0
11
-46.227956
21
-28.499998
31
0
39
0
210
0
220
0
230
1
0
LINE
5
1D6
100
AcDbEntity
8
SK2
62
256
6
ByLayer
370
13
48
1
60
0
100
AcDbLine
10
-47.285918
20
-28.500002
30
0
11
-46.227956
21
-28.499998
31
0
39
0
210
0
220
0
230
1
0
ENDBLK
5
1D8
100
AcDbEntity
8
0
100
AcDbBlockEnd
0
BLOCK
5
1DB
100
AcDbEntity
8
0
100
AcDbBlockBegin
2
_CLOSED
70
0
10
0
20
0
30
0
3
_CLOSED
0
LINE
5
1DD
100
AcDbEntity
8
0
62
256
6
ByLayer
370
-2
48
1
60
0
100
AcDbLine
10
-1
20
0.166667
30
0
11
0
21
0
31
0
39
0
210
0
220
0
230
1
0
LINE
5
1DE
100
AcDbEntity
8
0
62
256
6
ByLayer
370
-2
48
1
60
0
100
AcDbLine
10
0
20
0
30
0
11
-1
21
-0.166667
31
0
39
0
210
0
220
0
230
1
0
LINE
5
1DF
100
AcDbEntity
8
0
62
256
6
ByLayer
370
-2
48
1
60
0
100
AcDbLine
10
-1
20
0.166667
30
0
11
-1
21
-0.166667
31
0
39
0
210
0
220
0
230
1
0
LINE
5
1E0
100
AcDbEntity
8
0
62
256
6
ByLayer
370
-2
48
1
60
0
100
AcDbLine
10
0
20
0
30
0
11
-1
21
0
31
0
39
0
210
0
220
0
230
1
0
ENDBLK
5
1DC
100
AcDbEntity
8
0
100
AcDbBlockEnd
0
BLOCK
5
1EC
100
AcDbEntity
8
0
100
AcDbBlockBegin
2
DimnDraft3D5
70
0
10
0
20
0
30
0
3
DimnDraft3D5
0
MTEXT
5
1E2
100
AcDbEntity
8
SK2
62
256
6
ByLayer
370
18
48
1
60
0
100
AcDbMText
10
55.880688
20
51.60562
30
0
210
0
220
0
230
1
1
\W0.8896;40%%d
40
3
41
0
44
1.084337
50
290.060536363211
71
7
72
5
7
iso_b_vert
0
LINE
5
1E3
100
AcDbEntity
8
SK2
62
256
6
ByLayer
370
18
48
1
60
0
100
AcDbLine
10
46.324519
20
41
30
0
11
59.380397
21
41
31
0
39
0
210
0
220
0
230
1
0
LINE
5
1E4
100
AcDbEntity
8
SK2
62
256
6
ByLayer
370
18
48
1
60
0
100
AcDbLine
10
34.529369
20
42.28881
30
0
11
53.172679
21
57.999657
31
0
39
0
210
0
220
0
230
1
0
ARC
5
1E5
100
AcDbEntity
8
SK2
62
256
6
ByLayer
370
18
48
1
60
0
100
AcDbCircle
39
0
10
33
20
41
30
0
40
24.3803969710259
210
0
220
0
230
1
100
AcDbArc
50
0
51
40.121073
0
LINE
5
1E6
100
AcDbEntity
8
SK2
62
256
6
ByLayer
370
18
48
1
60
0
100
AcDbLine
10
57.380397
20
41
30
0
11
56.859417
21
44.159734
31
0
39
0
210
0
220
0
230
1
0
LINE
5
1E7
100
AcDbEntity
8
SK2
62
256
6
ByLayer
370
18
48
1
60
0
100
AcDbLine
10
57.380397
20
41
30
0
11
57.694968
21
44.186911
31
0
39
0
210
0
220
0
230
1
0
LINE
5
1E8
100
AcDbEntity
8
SK2
62
256
6
ByLayer
370
18
48
1
60
0
100
AcDbLine
10
56.859417
20
44.159734
30
0
11
57.694968
21
44.186911
31
0
39
0
210
0
220
0
230
1
0
LINE
5
1E9
100
AcDbEntity
8
SK2
62
256
6
ByLayer
370
18
48
1
60
0
100
AcDbLine
10
51.64331
20
56.710848
30
0
11
53.937517
21
54.47658
31
0
39
0
210
0
220
0
230
1
0
LINE
5
1EA
100
AcDbEntity
8
SK2
62
256
6
ByLayer
370
18
48
1
60
0
100
AcDbLine
10
51.64331
20
56.710848
30
0
11
53.281075
21
53.958924
31
0
39
0
210
0
220
0
230
1
0
LINE
5
1EB
100
AcDbEntity
8
SK2
62
256
6
ByLayer
370
18
48
1
60
0
100
AcDbLine
10
53.937517
20
54.47658
30
0
11
53.281075
21
53.958924
31
0
39
0
210
0
220
0
230
1
0
ENDBLK
5
1ED
100
AcDbEntity
8
0
100
AcDbBlockEnd
0
BLOCK
5
1FA
100
AcDbEntity
8
0
100
AcDbBlockBegin
2
DimnDraft3D6
70
0
10
0
20
0
30
0
3
DimnDraft3D6
0
MTEXT
5
1F0
100
AcDbEntity
8
SK2
62
256
6
ByLayer
370
18
48
1
60
0
100
AcDbMText
10
15.497368
20
47.308557
30
0
210
0
220
0
230
1
1
\W0.6562;33
40
3
41
0
44
1.084337
50
0
71
7
72
5
7
iso_b_vert
0
LINE
5
1F1
100
AcDbEntity
8
SK2
62
256
6
ByLayer
370
18
48
1
60
0
100
AcDbLine
10
0
20
33.2
30
0
11
0
21
48.558557
31
0
39
0
210
0
220
0
230
1
0
LINE
5
1F2
100
AcDbEntity
8
SK2
62
256
6
ByLayer
370
18
48
1
60
0
100
AcDbLine
10
33
20
43
30
0
11
33
21
48.558557
31
0
39
0
210
0
220
0
230
1
0
LINE
5
1F3
100
AcDbEntity
8
SK2
62
256
6
ByLayer
370
18
48
1
60
0
100
AcDbLine
10
0
20
46.558557
30
0
11
33
21
46.558557
31
0
39
0
210
0
220
0
230
1
0
LINE
5
1F4
100
AcDbEntity
8
SK2
62
256
6
ByLayer
370
18
48
1
60
0
100
AcDbLine
10
0
20
46.558557
30
0
11
3.174998
21
46.976554
31
0
39
0
210
0
220
0
230
1
0
LINE
5
1F5
100
AcDbEntity
8
SK2
62
256
6
ByLayer
370
18
48
1
60
0
100
AcDbLine
10
0
20
46.558557
30
0
11
3.175002
21
46.14056
31
0
39
0
210
0
220
0
230
1
0
LINE
5
1F6
100
AcDbEntity
8
SK2
62
256
6
ByLayer
370
18
48
1
60
0
100
AcDbLine
10
3.174998
20
46.976554
30
0
11
3.175002
21
46.14056
31
0
39
0
210
0
220
0
230
1
0
LINE
5
1F7
100
AcDbEntity
8
SK2
62
256
6
ByLayer
370
18
48
1
60
0
100
AcDbLine
10
33
20
46.558557
30
0
11
29.825002
21
46.14056
31
0
39
0
210
0
220
0
230
1
0
LINE
5
1F8
100
AcDbEntity
8
SK2
62
256
6
ByLayer
370
18
48
1
60
0
100
AcDbLine
10
33
20
46.558557
30
0
11
29.824998
21
46.976554
31
0
39
0
210
0
220
0
230
1
0
LINE
5
1F9
100
AcDbEntity
8
SK2
62
256
6
ByLayer
370
18
48
1
60
0
100
AcDbLine
10
29.825002
20
46.14056
30
0
11
29.824998
21
46.976554
31
0
39
0
210
0
220
0
230
1
0
ENDBLK
5
1FB
100
AcDbEntity
8
0
100
AcDbBlockEnd
0
ENDSEC
0
SECTION
2
ENTITIES
0
ARC
5
F2
100
AcDbEntity
8
1
62
256
6
ByLayer
370
18
48
1
60
0
100
AcDbCircle
39
0
10
-28.9
20
-5.4
30
0
40
6.39999999999998
210
0
220
0
230
-1
100
AcDbArc
50
15
51
90
0
POINT
5
6C
100
AcDbEntity
8
81
62
256
6
ByLayer
370
18
48
1
60
0
100
AcDbPoint
10
45
20
21
30
0
39
0
210
0
220
0
230
1
50
360
0
POINT
5
6E
100
AcDbEntity
8
80
62
256
6
ByLayer
370
18
48
1
60
0
100
AcDbPoint
10
0
20
0
30
0
39
0
210
0
220
0
230
1
50
360
0
SPLINE
5
F3
100
AcDbEntity
8
1
62
256
6
ByLayer
370
18
48
1
60
0
100
AcDbSpline
70
4
71
3
72
29
73
25
40
0
40
0
40
0
40
0
40
0.0304706643282696
40
0.0739855655105012
40
0.117328475744764
40
0.157480488805096
40
0.197744691296923
40
0.238060034839145
40
0.278349117023815
40
0.318522056239563
40
0.363548681929761
40
0.408699211819965
40
0.45393771856183
40
0.499204946014711
40
0.544421855898574
40
0.589492867437043
40
0.639934461132272
40
0.69043481127683
40
0.740945580222047
40
0.791401397383983
40
0.843524971503266
40
0.895693070806009
40
0.947867621378739
40
1
40
1
40
1
40
1
41
1
10
44.5204809471128
20
40.8040381057259
30
0
41
1
10
44.5204894851182
20
40.8040294705728
30
0
41
1
10
44.5205938856646
20
40.8039241350272
30
0
41
1
10
44.5210650456193
20
40.8034489837127
30
0
41
1
10
44.5220203302388
20
40.8024855610806
30
0
41
1
10
44.5233571734547
20
40.8011373702255
30
0
41
1
10
44.5250170216548
20
40.7994635627644
30
0
41
1
10
44.5270148371996
20
40.7974491368588
30
0
41
1
10
44.5293287462966
20
40.7951162458799
30
0
41
1
10
44.532047760174
20
40.7923752516795
30
0
41
1
10
44.5352023594443
20
40.7891956162844
30
0
41
1
10
44.5388056442886
20
40.7855643656201
30
0
41
1
10
44.5427128606132
20
40.7816275416433
30
0
41
1
10
44.5468925609645
20
40.7774169907814
30
0
41
1
10
44.551313384089
20
40.7729644683553
30
0
41
1
10
44.5561377347887
20
40.7681066234573
30
0
41
1
10
44.5613780479747
20
40.762831281319
30
0
41
1
10
44.5670399675217
20
40.7571330758647
30
0
41
1
10
44.5729054420295
20
40.7512316830464
30
0
41
1
10
44.5790168485709
20
40.7450846680696
30
0
41
1
10
44.5853627226939
20
40.7387038318869
30
0
41
1
10
44.5919320144877
20
40.7321004825825
30
0
41
1
10
44.5986389674608
20
40.7253609622094
30
0
41
1
10
44.6031872307026
20
40.7207921877914
30
0
41
1
10
44.6054809471617
20
40.718488502244
30
0
0
SPLINE
5
F4
100
AcDbEntity
8
1
62
256
6
ByLayer
370
18
48
1
60
0
100
AcDbSpline
70
4
71
3
72
25
73
21
40
0
40
0
40
0
40
0
40
0.0569503691896748
40
0.113904080159259
40
0.170858421545269
40
0.227809650442408
40
0.284755836072364
40
0.34170446431612
40
0.39865325380843
40
0.455599659332086
40
0.512905345841287
40
0.570213463609776
40
0.627521399601703
40
0.684826838223107
40
0.737328213009232
40
0.789830661059506
40
0.842331679458511
40
0.894887661280988
40
0.947445212013181
40
1
40
1
40
1
40
1
41
1
10
45.2495190528383
20
25.571656778949
30
0
41
1
10
45.2522421636033
20
25.5539104282997
30
0
41
1
10
45.2575274302266
20
25.5184050702866
30
0
41
1
10
45.2649626154492
20
25.465108108485
30
0
41
1
10
45.2719333676499
20
25.4117827491678
30
0
41
1
10
45.2784580134444
20
25.3584368532897
30
0
41
1
10
45.2845565620299
20
25.3050751746739
30
0
41
1
10
45.2902336459373
20
25.2517012664728
30
0
41
1
10
45.2954955299527
20
25.1983187241809
30
0
41
1
10
45.3003578183244
20
25.1448202087489
30
0
41
1
10
45.3048239834691
20
25.0912088600852
30
0
41
1
10
45.3088840539822
20
25.0374886059578
30
0
41
1
10
45.3125205913298
20
24.9837774765364
30
0
41
1
10
45.3156362718422
20
24.931581910468
30
0
41
1
10
45.3182646503243
20
24.8809052259904
30
0
41
1
10
45.3204244115077
20
24.8317515185881
30
0
41
1
10
45.3221716496901
20
24.7826109152678
30
0
41
1
10
45.3234866404714
20
24.7334912238032
30
0
41
1
10
45.3243244107194
20
24.6844042933231
30
0
41
1
10
45.3245129682097
20
24.6517289649413
30
0
41
1
10
45.3245190528383
20
24.6354027023458
30
0
0
SPLINE
5
F5
100
AcDbEntity
8
1
62
256
6
ByLayer
370
18
48
1
60
0
100
AcDbSpline
70
4
71
3
72
31
73
27
40
0
40
0
40
0
40
0
40
0.0415873295200745
40
0.083175477421993
40
0.124764017350461
40
0.166352536889455
40
0.207940637738295
40
0.249527935889037
40
0.291115553424422
40
0.332704045332782
40
0.37429295754002
40
0.415881849681428
40
0.457470295283544
40
0.49905788194746
40
0.540645780329794
40
0.582234607385998
40
0.623823882552373
40
0.665413138431333
40
0.707001920977624
40
0.748589789686025
40
0.790490676209519
40
0.832392565189226
40
0.874294939797381
40
0.916197295853251
40
0.958099142019491
40
1
40
1
40
1
40
1
41
1
10
44.6054809471617
20
28.7148372207045
30
0
41
1
10
44.6164590541889
20
28.671869559381
30
0
41
1
10
44.6382527290222
20
28.5858789749309
30
0
41
1
10
44.6704567710634
20
28.4567283098046
30
0
41
1
10
44.7021696476352
20
28.3274145748507
30
0
41
1
10
44.7333879266168
20
28.1979404629661
30
0
41
1
10
44.7641077188285
20
28.0683088675417
30
0
41
1
10
44.7943256244148
20
27.9385210781623
30
0
41
1
10
44.8240383778469
20
27.808577436338
30
0
41
1
10
44.8532429720249
20
27.6784784818755
30
0
41
1
10
44.8819360129661
20
27.5482264238565
30
0
41
1
10
44.9101138582015
20
27.4178245345288
30
0
41
1
10
44.937772865024
20
27.2872760862504
30
0
41
1
10
44.9649097378137
20
27.1565827094526
30
0
41
1
10
44.9915213413946
20
27.0257449712282
30
0
41
1
10
45.0176048564503
20
26.894763646381
30
0
41
1
10
45.0431571011175
20
26.7636412663654
30
0
41
1
10
45.0681746508511
20
26.6323815258893
30
0
41
1
10
45.092654081083
20
26.5009881191507
30
0
41
1
10
45.1166522880105
20
26.369133351982
30
0
41
1
10
45.1401615363999
20
26.2368168474985
30
0
41
1
10
45.1631743861257
20
26.1040385158671
30
0
41
1
10
45.1856292617807
20
25.9711312281305
30
0
41
1
10
45.2075228727335
20
25.8380992609423
30
0
41
1
10
45.2288523322408
20
25.7049465308202
30
0
41
1
10
45.2426931605919
20
25.6160996661649
30
0
41
1
10
45.2495190528383
20
25.571656778949
30
0
0
SPLINE
5
F6
100
AcDbEntity
8
1
62
256
6
ByLayer
370
18
48
1
60
0
100
AcDbSpline
70
4
71
3
72
38
73
34
40
0
40
0
40
0
40
0
40
0.0280624111240487
40
0.0561907595988438
40
0.0842811520239622
40
0.112291670306769
40
0.131675211058268
40
0.151116325500009
40
0.170538816677485
40
0.18989688209723
40
0.209441815500432
40
0.229079032983711
40
0.248713689885321
40
0.268255115013562
40
0.290834495234439
40
0.313480316085728
40
0.336081665245261
40
0.363249317047849
40
0.390509905786727
40
0.417813721807244
40
0.445040504097153
40
0.47959291902471
40
0.514206740209112
40
0.548895006374315
40
0.583631425910627
40
0.618356507735331
40
0.652983267683273
40
0.707656711922119
40
0.762369682380376
40
0.81710146231747
40
0.871800572776462
40
0.944545393773376
40
1
40
1
40
1
40
1
41
1
10
44.6054809471617
20
29.3737007520068
30
0
41
1
10
44.6039851221917
20
29.3753893650397
30
0
41
1
10
44.6009456846155
20
29.3786665401751
30
0
41
1
10
44.5962546840969
20
29.383301529709
30
0
41
1
10
44.5914319166207
20
29.3875575373773
30
0
41
1
10
44.5869971722055
20
29.3909683493433
30
0
41
1
10
44.5830011456358
20
29.3936102719834
30
0
41
1
10
44.5794806673165
20
29.3956056109766
30
0
41
1
10
44.5759416823603
20
29.3972567468201
30
0
41
1
10
44.5723983168643
20
29.3985254963534
30
0
41
1
10
44.5688755537943
20
29.3993478282222
30
0
41
1
10
44.5654038080724
20
29.3997129590962
30
0
41
1
10
44.5620300606196
20
29.3996198303901
30
0
41
1
10
44.5586263196523
20
29.3990276171817
30
0
41
1
10
44.5552547094078
20
29.3978437472888
30
0
41
1
10
44.5519592951656
20
29.3960627367713
30
0
41
1
10
44.5487050739798
20
29.3936425794594
30
0
41
1
10
44.5455559249291
20
29.3905332892434
30
0
41
1
10
44.5425535785281
20
29.3867327102656
30
0
41
1
10
44.5398619934435
20
29.3825168260083
30
0
41
1
10
44.5372401516597
20
29.3775574447718
30
0
41
1
10
44.5347288978579
20
29.3718357258033
30
0
41
1
10
44.5323726497148
20
29.3653266259082
30
0
41
1
10
44.5303306661171
20
29.3585184345585
30
0
41
1
10
44.5285672599878
20
29.3514696047326
30
0
41
1
10
44.5270488282297
20
29.3442365325873
30
0
41
1
10
44.525483232937
20
29.3354417335058
30
0
41
1
10
44.5239801453433
20
29.3250128246929
30
0
41
1
10
44.5226695507313
20
29.3128758551402
30
0
41
1
10
44.5217074065731
20
29.300535128304
30
0
41
1
10
44.5209693049647
20
29.286661687545
30
0
41
1
10
44.5205585758083
20
29.2725652297033
30
0
41
1
10
44.5204762474748
20
29.2625915758181
30
0
41
1
10
44.5204809498914
20
29.2582581967162
30
0
0
SPLINE
5
F7
100
AcDbEntity
8
1
62
256
6
ByLayer
370
18
48
1
60
0
100
AcDbSpline
70
4
71
3
72
13
73
9
40
0
40
0
40
0
40
0
40
0.166655895385702
40
0.333312293668031
40
0.499968101828385
40
0.666645232266318
40
0.833322980959062
40
1
40
1
40
1
40
1
41
1
10
44.6054809471617
20
29.3737007520068
30
0
41
1
10
44.6416524901801
20
29.3330486174986
30
0
41
1
10
44.7138692283637
20
29.2515954308836
30
0
41
1
10
44.8218216002016
20
29.1289757522045
30
0
41
1
10
44.9293857506616
20
29.0058916537363
30
0
41
1
10
45.0365479896531
20
28.8823304297535
30
0
41
1
10
45.1432928252733
20
28.7582775594113
30
0
41
1
10
45.2141589991134
20
28.6752369902682
30
0
41
1
10
45.2495190528383
20
28.63363333884
30
0
0
SPLINE
5
F8
100
AcDbEntity
8
1
62
256
6
ByLayer
370
18
48
1
60
0
100
AcDbSpline
70
4
71
3
72
36
73
32
40
0
40
0
40
0
40
0
40
0.0267557926030454
40
0.0535713493494635
40
0.0803508341244848
40
0.10705731552017
40
0.131312143067981
40
0.155615025955141
40
0.179832589613737
40
0.204322615872495
40
0.228915829750425
40
0.253396464761162
40
0.274218672101815
40
0.295103847920112
40
0.315946572744745
40
0.340589583261478
40
0.365316925795539
40
0.39008354396639
40
0.41478027956777
40
0.452526679171577
40
0.490359562192801
40
0.52828110125235
40
0.566223292775767
40
0.604061601377055
40
0.653181615147406
40
0.702335527599752
40
0.751505593287599
40
0.800647648075386
40
0.86708941952921
40
0.933549566641457
40
1
40
1
40
1
40
1
41
1
10
45.2495190528383
20
28.63363333884
30
0
41
1
10
45.2507795174971
20
28.632143319949
30
0
41
1
10
45.2533435285414
20
28.6292456101822
30
0
41
1
10
45.2573077060956
20
28.6251290425042
30
0
41
1
10
45.2613952821849
20
28.6213272695921
30
0
41
1
10
45.2654695581354
20
28.6180109397897
30
0
41
1
10
45.2695111615255
20
28.615223808935
30
0
41
1
10
45.2734866709705
20
28.6129975901352
30
0
41
1
10
45.2775076450282
20
28.6113133893138
30
0
41
1
10
45.2815209468359
20
28.6103054898046
30
0
41
1
10
45.2854550630692
20
28.6099985558351
30
0
41
1
10
45.2890406243009
20
28.6103936900837
30
0
41
1
10
45.2922348631579
20
28.6113904792631
30
0
41
1
10
45.2950668267393
20
28.612794952665
30
0
41
1
10
45.2978595937151
20
28.6147276619525
30
0
41
1
10
45.3005635417484
20
28.6172230707843
30
0
41
1
10
45.3031482203952
20
28.6202757863173
30
0
41
1
10
45.3054837813192
20
28.6236750158671
30
0
41
1
10
45.3079594089901
20
28.6280024724663
30
0
41
1
10
45.3104701547112
20
28.6333571162975
30
0
41
1
10
45.3129076329101
20
28.6398192221442
30
0
41
1
10
45.3149907276351
20
28.6466132439181
30
0
41
1
10
45.3167678693326
20
28.653655670565
30
0
41
1
10
45.3184440020312
20
28.6615970733456
30
0
41
1
10
45.3199829029489
20
28.6704511496466
30
0
41
1
10
45.3213247262883
20
28.6802488248533
30
0
41
1
10
45.3223841271409
20
28.6902129524246
30
0
41
1
10
45.3232964381252
20
28.7014915734838
30
0
41
1
10
45.3240035851827
20
28.7141053918188
30
0
41
1
10
45.3244305205816
20
28.7280786672489
30
0
41
1
10
45.3245236849411
20
28.7374732452115
30
0
41
1
10
45.3245190528383
20
28.7421921583254
30
0
0
SPLINE
5
F9
100
AcDbEntity
8
1
62
256
6
ByLayer
370
18
48
1
60
0
100
AcDbSpline
70
4
71
3
72
26
73
22
40
0
40
0
40
0
40
0
40
0.0413037723571767
40
0.0826256089148604
40
0.123960828470467
40
0.165296343587692
40
0.206611593607472
40
0.258171578617491
40
0.309743169912547
40
0.361317539065945
40
0.412881312880153
40
0.466624104530969
40
0.520375474886116
40
0.574127808310223
40
0.627871913442266
40
0.689786878004104
40
0.751707532871259
40
0.813622561984106
40
0.875746707113747
40
0.937876620178026
40
1
40
1
40
1
40
1
41
1
10
45.3245190528383
20
29.180039359129
30
0
41
1
10
45.3245150057576
20
29.1857850140185
30
0
41
1
10
45.3243772010547
20
29.1973265097943
30
0
41
1
10
45.3237642627116
20
29.2147975772783
30
0
41
1
10
45.322795476087
20
29.2323910432388
30
0
41
1
10
45.3215025440763
20
29.2500821297494
30
0
41
1
10
45.3197929375369
20
29.2693164766145
30
0
41
1
10
45.3176145435805
20
29.2901014082506
30
0
41
1
10
45.3148974601282
20
29.3124457639797
30
0
41
1
10
45.3118234303463
20
29.3348578895711
30
0
41
1
10
45.3083694331109
20
29.3576389469313
30
0
41
1
10
45.3045424320841
20
29.3807805764952
30
0
41
1
10
45.3003360180439
20
29.4042774764805
30
0
41
1
10
45.2958143670594
20
29.4278026740826
30
0
41
1
10
45.2907441810573
20
29.4525399770775
30
0
41
1
10
45.2850803579339
20
29.4784854614487
30
0
41
1
10
45.2787676789136
20
29.5056320682383
30
0
41
1
10
45.272063074111
20
29.5328068836187
30
0
41
1
10
45.2649682132421
20
29.5599998816406
30
0
41
1
10
45.2574759567487
20
29.5872019569451
30
0
41
1
10
45.2522152187203
20
29.6053122222598
30
0
41
1
10
45.2495190528383
20
29.6143615771271
30
0
0
SPLINE
5
FA
100
AcDbEntity
8
1
62
256
6
ByLayer
370
18
48
1
60
0
100
AcDbSpline
70
4
71
3
72
22
73
18
40
0
40
0
40
0
40
0
40
0.066626168426018
40
0.133253277801706
40
0.19988072642288
40
0.266507884266632
40
0.333134093343854
40
0.399759926812783
40
0.466386632296412
40
0.533013653078587
40
0.599640405198328
40
0.666266277781928
40
0.733012460794878
40
0.799759454145963
40
0.866506741265169
40
0.93325377941416
40
1
40
1
40
1
40
1
41
1
10
45.2495190528383
20
29.6143615771271
30
0
41
1
10
45.2364243345696
20
29.6582924515626
30
0
41
1
10
45.210067922842
20
29.7460874379714
30
0
41
1
10
45.170030684381
20
29.877578775916
30
0
41
1
10
45.1294970329242
20
30.0088676593664
30
0
41
1
10
45.0884713263026
20
30.1399519915744
30
0
41
1
10
45.046958258517
20
30.2708303583751
30
0
41
1
10
45.0049619500665
20
30.401502664434
30
0
41
1
10
44.9624866232376
20
30.5319689663314
30
0
41
1
10
44.919536678909
20
30.6622286060574
30
0
41
1
10
44.8761168994925
20
30.7922797651337
30
0
41
1
10
44.832205311342
20
30.9221997630806
30
0
41
1
10
44.7878050635872
20
31.0519882784458
30
0
41
1
10
44.742919307591
20
31.1816451277999
30
0
41
1
10
44.6975792837593
20
31.3110916459419
30
0
41
1
10
44.6517892589513
20
31.4403263991962
30
0
41
1
10
44.6209665621037
20
31.5263414370952
30
0
41
1
10
44.6054809471617
20
31.5693134260413
30
0
0
SPLINE
5
FB
100
AcDbEntity
8
1
62
256
6
ByLayer
370
18
48
1
60
0
100
AcDbSpline
70
4
71
3
72
27
73
23
40
0
40
0
40
0
40
0
40
0.0670055616534624
40
0.134031035482076
40
0.201056661843111
40
0.268062431557025
40
0.321675342883947
40
0.375306512387661
40
0.428941619222238
40
0.48256866461488
40
0.536178115853362
40
0.582956595928424
40
0.629766879215681
40
0.676586065019968
40
0.723396673507117
40
0.770187156847153
40
0.816952428912053
40
0.855939444863597
40
0.894987047441213
40
0.934045100918581
40
0.973078310707619
40
1
40
1
40
1
40
1
41
1
10
44.6054809471617
20
31.5693134260414
30
0
41
1
10
44.6023392098572
20
31.5780327351573
30
0
41
1
10
44.5961950140498
20
31.5954794441458
30
0
41
1
10
44.5873974801357
20
31.6216747303068
30
0
41
1
10
44.5790237170578
20
31.6478717387812
30
0
41
1
10
44.5716074657524
20
31.6723096781951
30
0
41
1
10
44.5650568687703
20
31.6949805780197
30
0
41
1
10
44.5592958662346
20
31.7158850788823
30
0
41
1
10
44.5538340005306
20
31.7367547925478
30
0
41
1
10
44.5486849112296
20
31.7575745623407
30
0
41
1
10
44.5440679060544
20
31.7774505787305
30
0
41
1
10
44.5399428663461
20
31.7963861222152
30
0
41
1
10
44.5362828830568
20
31.8143833506625
30
0
41
1
10
44.5329220640043
20
31.8323057730406
30
0
41
1
10
44.5298864775043
20
31.850130763516
30
0
41
1
10
44.5272017118076
20
31.8678358700483
30
0
41
1
10
44.5250239290142
20
31.8844269238206
30
0
41
1
10
44.5232959521788
20
31.8999220743933
30
0
41
1
10
44.5219849355445
20
31.9143302350069
30
0
41
1
10
44.5210373896989
20
31.9285784011353
30
0
41
1
10
44.520541520864
20
31.9411796352958
30
0
41
1
10
44.5204722561412
20
31.9489617715171
30
0
41
1
10
44.520480949964
20
31.9521188154647
30
0
0
SPLINE
5
FC
100
AcDbEntity
8
1
62
256
6
ByLayer
370
18
48
1
60
0
100
AcDbSpline
70
4
71
3
72
11
73
7
40
0
40
0
40
0
40
0
40
0.249998546865872
40
0.499997103610211
40
0.749998547678361
40
1
40
1
40
1
40
1
41
1
10
45.2495190528388
20
31.4146616975716
30
0
41
1
10
45.1959995281171
20
31.4652689481708
30
0
41
1
10
45.088884416438
20
31.5663757640078
30
0
41
1
10
44.9279789030681
20
31.7177082736915
30
0
41
1
10
44.7668526729626
20
31.8687287744606
30
0
41
1
10
44.6592951844467
20
31.9692104089359
30
0
41
1
10
44.6054809471617
20
32.0194006791821
30
0
0
SPLINE
5
FD
100
AcDbEntity
8
1
62
256
6
ByLayer
370
18
48
1
60
0
100
AcDbSpline
70
4
71
3
72
32
73
28
40
0
40
0
40
0
40
0
40
0.0634399937808602
40
0.126900660383639
40
0.190322652478011
40
0.23909344474569
40
0.287928798075465
40
0.336729212919243
40
0.385452292454899
40
0.417910895569113
40
0.450422370281078
40
0.482911235391859
40
0.515338953054625
40
0.548149165897139
40
0.581087841410279
40
0.61398197542016
40
0.646731196576761
40
0.680448448356674
40
0.714272226700555
40
0.747985334760576
40
0.781600419044212
40
0.815317717894674
40
0.848963685325269
40
0.886628081717265
40
0.924418973031972
40
0.96226296687197
40
1
40
1
40
1
40
1
41
1
10
45.3245190528383
20
31.4759079944298
30
0
41
1
10
45.3245243881624
20
31.472434844096
30
0
41
1
10
45.3244136278809
20
31.4655592397264
30
0
41
1
10
45.323906249158
20
31.4554404789873
30
0
41
1
10
45.3230592847146
20
31.4463417680487
30
0
41
1
10
45.3219454015544
20
31.4382341509308
30
0
41
1
10
45.3206249358277
20
31.4310911452621
30
0
41
1
10
45.318952012901
20
31.4242345688829
30
0
41
1
10
45.3171142908158
20
31.4184531832396
30
0
41
1
10
45.3152203592943
20
31.4136730340844
30
0
41
1
10
45.3133780178505
20
31.4098006208683
30
0
41
1
10
45.3112975872685
20
31.4061942991091
30
0
41
1
10
45.3089540792553
20
31.4028852613306
30
0
41
1
10
45.3063145519636
20
31.3999356476858
30
0
41
1
10
45.3033642126948
20
31.3974062987793
30
0
41
1
10
45.3001153834604
20
31.3953680390692
30
0
41
1
10
45.2965365225067
20
31.393876785221
30
0
41
1
10
45.2926170349972
20
31.3930378354285
30
0
41
1
10
45.288402633289
20
31.3928707169653
30
0
41
1
10
45.2839846142634
20
31.3933914914482
30
0
41
1
10
45.2794172954443
20
31.3946135096731
30
0
41
1
10
45.2747685463302
20
31.3964469427066
30
0
41
1
10
45.2698972801847
20
31.3989288659626
30
0
41
1
10
45.2648449541568
20
31.4020736743524
30
0
41
1
10
45.2596498947577
20
31.4058484346471
30
0
41
1
10
45.2545280378355
20
31.4100581193069
30
0
41
1
10
45.2511772448252
20
31.4130878916423
30
0
41
1
10
45.2495190528388
20
31.4146616975716
30
0
0
SPLINE
5
FE
100
AcDbEntity
8
1
62
256
6
ByLayer
370
18
48
1
60
0
100
AcDbSpline
70
4
71
3
72
24
73
20
40
0
40
0
40
0
40
0
40
0.0686681501438173
40
0.137362263773589
40
0.206057246029935
40
0.274726581109661
40
0.34340467345119
40
0.412110777293248
40
0.480813132552706
40
0.549486111054839
40
0.607623432421423
40
0.66580834660235
40
0.723995832792476
40
0.782155000722837
40
0.840270711547679
40
0.880117297529752
40
0.919962744978416
40
0.959982471299729
40
1
40
1
40
1
40
1
41
1
10
45.2495190528383
20
32.0911859175859
30
0
41
1
10
45.252427505896
20
32.0838329681722
30
0
41
1
10
45.2581032413541
20
32.0691150469985
30
0
41
1
10
45.2661915183641
20
32.0470012007105
30
0
41
1
10
45.2738507916811
20
32.0248749818501
30
0
41
1
10
45.2810776873965
20
32.0027525868296
30
0
41
1
10
45.2878706835043
20
31.9806471555374
30
0
41
1
10
45.2942110409806
20
31.9585735028504
30
0
41
1
10
45.3000762672154
20
31.9365550295873
30
0
41
1
10
45.3051669408261
20
31.9157380673771
30
0
41
1
10
45.3095556363621
20
31.8961228572196
30
0
41
1
10
45.3132935715985
20
31.8777095809841
30
0
41
1
10
45.3165887195602
20
31.8594099388211
30
0
41
1
10
45.3193978373751
20
31.8412636748194
30
0
41
1
10
45.3214412763909
20
31.8251863180023
30
0
41
1
10
45.3228602152597
20
31.8111450147608
30
0
41
1
10
45.3237850686408
20
31.7990784183316
30
0
41
1
10
45.3243796715382
20
31.787146077255
30
0
41
1
10
45.3245140889791
20
31.7793158678412
30
0
41
1
10
45.3245190528383
20
31.7754320110877
30
0
0
SPLINE
5
FF
100
AcDbEntity
8
1
62
256
6
ByLayer
370
18
48
1
60
0
100
AcDbSpline
70
4
71
3
72
19
73
15
40
0
40
0
40
0
40
0
40
0.083308790128694
40
0.166618115923546
40
0.249927423291662
40
0.333236188292831
40
0.416545174773547
40
0.499854738238998
40
0.583164282056277
40
0.666473241743854
40
0.749854632382875
40
0.833236645636775
40
0.916618637935896
40
1
40
1
40
1
40
1
41
1
10
44.6054809471617
20
33.6254528336146
30
0
41
1
10
44.6241749842147
20
33.5833079721173
30
0
41
1
10
44.6614326552798
20
33.498941565761
30
0
41
1
10
44.7169296790812
20
33.3721628370493
30
0
41
1
10
44.7720310591385
20
33.2451543919056
30
0
41
1
10
44.8267327708426
20
33.1179159692657
30
0
41
1
10
44.8810303732765
20
32.9904468103434
30
0
41
1
10
44.9349194917708
20
32.8627462306953
30
0
41
1
10
44.9883953976339
20
32.7348142632322
30
0
41
1
10
45.041468761082
20
32.606613728845
30
0
41
1
10
45.0941347137122
20
32.4781437732014
30
0
41
1
10
45.1463881284654
20
32.3494036076341
30
0
41
1
10
45.1982094080973
20
32.2204305670553
30
0
41
1
10
45.2324643850121
20
32.1342932513343
30
0
41
1
10
45.2495190528383
20
32.0911859175859
30
0
0
SPLINE
5
100
100
AcDbEntity
8
1
62
256
6
ByLayer
370
18
48
1
60
0
100
AcDbSpline
70
4
71
3
72
33
73
29
40
0
40
0
40
0
40
0
40
0.0391223622133688
40
0.0783217471846426
40
0.117492781546508
40
0.156576402551473
40
0.18845337800925
40
0.220464878271333
40
0.252497629843575
40
0.284462072351403
40
0.316299417953955
40
0.352950312607314
40
0.389766339521498
40
0.426591789484937
40
0.46325559102464
40
0.495952428498324
40
0.528733849719753
40
0.561534925185835
40
0.594258630250998
40
0.638152469109676
40
0.682170716416514
40
0.726282215195497
40
0.770395631172505
40
0.814369528666659
40
0.863003939383215
40
0.911687046757256
40
0.960386484272293
40
1
40
1
40
1
40
1
41
1
10
44.6054809471617
20
33.9705635333407
30
0
41
1
10
44.6036111873852
20
33.972173386227
30
0
41
1
10
44.5998544681731
20
33.9752865458279
30
0
41
1
10
44.5941705477952
20
33.979649510868
30
0
41
1
10
44.5884633902624
20
33.9836368307189
30
0
41
1
10
44.5831091735316
20
33.9869792936384
30
0
41
1
10
44.5781286216251
20
33.9897047172699
30
0
41
1
10
44.5735324210125
20
33.9918787684851
30
0
41
1
10
44.5689994801693
20
33.9936664380403
30
0
41
1
10
44.5645704217025
20
33.9950307559631
30
0
41
1
10
44.5600627160373
20
33.9959841477676
30
0
41
1
10
44.5555384908828
20
33.9963920998274
30
0
41
1
10
44.5510618745236
20
33.9961793070003
30
0
41
1
10
44.5468762803796
20
33.9953479284919
30
0
41
1
10
44.5431620253283
20
33.9939575967624
30
0
41
1
10
44.5399049688744
20
33.9920955783328
30
0
41
1
10
44.5370465837075
20
33.9898859845046
30
0
41
1
10
44.534459473604
20
33.9872948146533
30
0
41
1
10
44.5318773250815
20
33.9840246689816
30
0
41
1
10
44.5294007203814
20
33.9799695958367
30
0
41
1
10
44.5271184540057
20
33.9750568962242
30
0
41
1
10
44.5252291414162
20
33.9697283394919
30
0
41
1
10
44.5237020259648
20
33.9640560990744
30
0
41
1
10
44.5224626349331
20
33.9578859287751
30
0
41
1
10
44.5215156273867
20
33.9512287844699
30
0
41
1
10
44.5208667692345
20
33.9440897769158
30
0
41
1
10
44.5205423538112
20
33.9371810441387
30
0
41
1
10
44.5204787285895
20
33.9326276753953
30
0
41
1
10
44.5204809478335
20
33.9305634774664
30
0
0
SPLINE
5
101
100
AcDbEntity
8
1
62
256
6
ByLayer
370
18
48
1
60
0
100
AcDbSpline
70
4
71
2
72
6
73
3
40
0
40
0
40
0
40
1
40
1
40
1
41
1
10
44.6054809471617
20
33.9705635333407
30
0
41
1
10
44.9277531848467
20
33.6936928186849
30
0
41
1
10
45.2495190528383
20
33.4160379589426
30
0
0
SPLINE
5
102
100
AcDbEntity
8
1
62
256
6
ByLayer
370
18
48
1
60
0
100
AcDbSpline
70
4
71
3
72
31
73
27
40
0
40
0
40
0
40
0
40
0.0387562707940303
40
0.07758852231419
40
0.11639256545354
40
0.15511028969194
40
0.194658259786462
40
0.234369236057531
40
0.274039797757671
40
0.313532419350137
40
0.349847404247765
40
0.386325074478384
40
0.422812744852998
40
0.459141426694657
40
0.491640607514895
40
0.524223118518146
40
0.556825264408749
40
0.589351285732645
40
0.633345724426077
40
0.677464525119186
40
0.721677035689779
40
0.765891873030148
40
0.809967100013136
40
0.873279693727487
40
0.936657670078349
40
1
40
1
40
1
40
1
41
1
10
45.2495190528383
20
33.4160379589426
30
0
41
1
10
45.2511514531953
20
33.4146262153249
30
0
41
1
10
45.2544320497058
20
33.4118959057407
30
0
41
1
10
45.2593977480892
20
33.4080685694946
30
0
41
1
10
45.2643865220786
20
33.404570037839
30
0
41
1
10
45.269411474107
20
33.4014221920408
30
0
41
1
10
45.2744510760317
20
33.3987016835614
30
0
41
1
10
45.2794679519855
20
33.3964676068921
30
0
41
1
10
45.2843755158647
20
33.3947876097429
30
0
41
1
10
45.2889879189254
20
33.3937497250695
30
0
41
1
10
45.2932636669781
20
33.3933630419611
30
0
41
1
10
45.2971989477447
20
33.3935464433921
30
0
41
1
10
45.3008823468068
20
33.3942699565285
30
0
41
1
10
45.3041585296228
20
33.3954819805177
30
0
41
1
10
45.307038716446
20
33.3971071324696
30
0
41
1
10
45.3095726513194
20
33.399038106522
30
0
41
1
10
45.3118697348167
20
33.4013024325428
30
0
41
1
10
45.3141744448004
20
33.4041691821413
30
0
41
1
10
45.3163954520023
20
33.4077342483527
30
0
41
1
10
45.3184509594409
20
33.4120644095821
30
0
41
1
10
45.3201568363321
20
33.4167616971922
30
0
41
1
10
45.3215402209732
20
33.4217618114146
30
0
41
1
10
45.3227875406056
20
33.4277782547677
30
0
41
1
10
45.3237783720312
20
33.4348978078145
30
0
41
1
10
45.3243912192305
20
33.4431915080623
30
0
41
1
10
45.3245251070725
20
33.4489082414174
30
0
41
1
10
45.3245190528383
20
33.4518174255441
30
0
0
SPLINE
5
103
100
AcDbEntity
8
1
62
256
6
ByLayer
370
18
48
1
60
0
100
AcDbSpline
70
4
71
3
72
25
73
21
40
0
40
0
40
0
40
0
40
0.044601430958853
40
0.0892510146940773
40
0.1339180505408
40
0.178543303820839
40
0.224298854958845
40
0.270078931228569
40
0.315865106620691
40
0.361628978999427
40
0.424614609648804
40
0.487651118902903
40
0.55071409372863
40
0.613768341836693
40
0.676768862587506
40
0.741385832307081
40
0.806045945979004
40
0.870721032274581
40
0.935382170447077
40
1
40
1
40
1
40
1
41
1
10
45.3245190528383
20
33.680963139062
30
0
41
1
10
45.3245135697821
20
33.6842856237643
30
0
41
1
10
45.3243485213172
20
33.6910256044437
30
0
41
1
10
45.3236156785728
20
33.7014372729931
30
0
41
1
10
45.322464819579
20
33.7120774212045
30
0
41
1
10
45.3209250744386
20
33.7229966958979
30
0
41
1
10
45.319028789828
20
33.7341644488329
30
0
41
1
10
45.3167878652689
20
33.7455664449585
30
0
41
1
10
45.3142436472191
20
33.7570861873094
30
0
41
1
10
45.3110654705429
20
33.7701597647424
30
0
41
1
10
45.3071507571484
20
33.7848147470231
30
0
41
1
10
45.3023862067646
20
33.8010708830753
30
0
41
1
10
45.2971914969747
20
33.8174334102506
30
0
41
1
10
45.2915957294953
20
33.8338708262886
30
0
41
1
10
45.2855739264828
20
33.850502030239
30
0
41
1
10
45.2791349832701
20
33.8673158987977
30
0
41
1
10
45.2722733625201
20
33.8843046213742
30
0
41
1
10
45.26505268386
20
33.9013100857622
30
0
41
1
10
45.2574833217543
20
33.9183114391974
30
0
41
1
10
45.2522113440648
20
33.9296296326843
30
0
41
1
10
45.2495190528383
20
33.9352844860648
30
0
0
SPLINE
5
104
100
AcDbEntity
8
1
62
256
6
ByLayer
370
18
48
1
60
0
100
AcDbSpline
70
4
71
3
72
17
73
13
40
0
40
0
40
0
40
0
40
0.099984300706523
40
0.199969534408379
40
0.299955115323485
40
0.399940417596414
40
0.499924775814688
40
0.599939231561699
40
0.699954526999974
40
0.799970135019512
40
0.899985492346166
40
1
40
1
40
1
40
1
41
1
10
45.2495190528383
20
33.9352844860648
30
0
41
1
10
45.2287133027647
20
33.9789829948914
30
0
41
1
10
45.1869661393213
20
34.0662935744194
30
0
41
1
10
45.1239364583124
20
34.1969987672502
30
0
41
1
10
45.0605048635073
20
34.3274448386494
30
0
41
1
10
44.9966762500081
20
34.457631980148
30
0
41
1
10
44.9324493907749
20
34.5875742707653
30
0
41
1
10
44.8678288502918
20
34.7172733096429
30
0
41
1
10
44.8028189910743
20
34.8467306996786
30
0
41
1
10
44.7374312355817
20
34.975934553198
30
0
41
1
10
44.6716701916345
20
35.1048852457503
30
0
41
1
10
44.6275849773077
20
35.1906848305584
30
0
41
1
10
44.6054809471617
20
35.23354250388
30
0
0
SPLINE
5
105
100
AcDbEntity
8
1
62
256
6
ByLayer
370
18
48
1
60
0
100
AcDbSpline
70
4
71
3
72
26
73
22
40
0
40
0
40
0
40
0
40
0.0679374129289707
40
0.135911601291896
40
0.203884525105497
40
0.271820212709627
40
0.327221474866601
40
0.382661821143385
40
0.438109706109891
40
0.493539464708235
40
0.54893184074807
40
0.602015800264798
40
0.655163825299445
40
0.708316284954938
40
0.761431473662243
40
0.814487861153318
40
0.858620597513735
40
0.902771798504783
40
0.946893679845967
40
0.980856771176575
40
1
40
1
40
1
40
1
41
1
10
44.6054809471617
20
35.23354250388
30
0
41
1
10
44.6023407872951
20
35.2396309098142
30
0
41
1
10
44.596187679557
20
35.251810018046
30
0
41
1
10
44.5873386271345
20
35.2700864889406
30
0
41
1
10
44.5788875961506
20
35.2883412589423
30
0
41
1
10
44.571342494275
20
35.3054328189429
30
0
41
1
10
44.5646291051085
20
35.3213549883799
30
0
41
1
10
44.5586812861922
20
35.3361107926845
30
0
41
1
10
44.5530465924195
20
35.3507998173865
30
0
41
1
10
44.5477455194417
20
35.3653988620395
30
0
41
1
10
44.5428667577049
20
35.379687496066
30
0
41
1
10
44.5384079497917
20
35.3936592160804
30
0
41
1
10
44.5343824487621
20
35.4072992614032
30
0
41
1
10
44.5307655382509
20
35.4207739044781
30
0
41
1
10
44.5275996412675
20
35.4340378564668
30
0
41
1
10
44.5250749710112
20
35.4463220902992
30
0
41
1
10
44.5231378459299
20
35.4576365612454
30
0
41
1
10
44.5217417107752
20
35.4679924131061
30
0
41
1
10
44.5208832594367
20
35.4772828263409
30
0
41
1
10
44.5205318937028
20
35.4844488452787
30
0
41
1
10
44.5204816097956
20
35.4882601576699
30
0
41
1
10
44.5204809496749
20
35.4896216629351
30
0
0
SPLINE
5
106
100
AcDbEntity
8
1
62
256
6
ByLayer
370
18
48
1
60
0
100
AcDbSpline
70
4
71
1
72
4
73
2
40
0
40
0
40
1
40
1
41
1
10
45.2495190528383
20
34.9767957315306
30
0
41
1
10
44.6054809471617
20
35.5101290627099
30
0
0
SPLINE
5
107
100
AcDbEntity
8
1
62
256
6
ByLayer
370
18
48
1
60
0
100
AcDbSpline
70
4
71
3
72
31
73
27
40
0
40
0
40
0
40
0
40
0.048054652876172
40
0.0962201891174624
40
0.144389045829392
40
0.19248881030218
40
0.240488178422618
40
0.287826997545665
40
0.335311599703284
40
0.382747747798133
40
0.430020277122272
40
0.468845846094819
40
0.507805595128706
40
0.546750544291413
40
0.585555860438559
40
0.624401697788225
40
0.66338659628126
40
0.702387256461751
40
0.74125466233602
40
0.780189429605194
40
0.819244172247678
40
0.858372635477172
40
0.897489288237749
40
0.936476146561239
40
0.968237507399495
40
1
40
1
40
1
40
1
41
1
10
45.3245190528383
20
34.9946727753959
30
0
41
1
10
45.3245216934993
20
34.9927785001705
30
0
41
1
10
45.3244334053293
20
34.9890582879785
30
0
41
1
10
45.3240313647371
20
34.9836789290215
30
0
41
1
10
45.3233243824675
20
34.9785471694497
30
0
41
1
10
45.3222883882831
20
34.9737072414983
30
0
41
1
10
45.3209041979379
20
34.9692228808887
30
0
41
1
10
45.3191413091606
20
34.9651389577687
30
0
41
1
10
45.3169798906331
20
34.9615034157866
30
0
41
1
10
45.3143937028775
20
34.9583600179162
30
0
41
1
10
45.3115445219914
20
34.9559330652813
30
0
41
1
10
45.3084977512425
20
34.9541809146882
30
0
41
1
10
45.3053484936484
20
34.9530017930064
30
0
41
1
10
45.3019105121821
20
34.9522952693436
30
0
41
1
10
45.2981996474688
20
34.9520858170993
30
0
41
1
10
45.2942259787815
20
34.9524030347103
30
0
41
1
10
45.2900290612775
20
34.9532168532113
30
0
41
1
10
45.285652273157
20
34.9545011913667
30
0
41
1
10
45.2811305428675
20
34.9562374964302
30
0
41
1
10
45.2764914735569
20
34.9584087887535
30
0
41
1
10
45.2717628351946
20
34.9609679434748
30
0
41
1
10
45.2669749120947
20
34.9638755124754
30
0
41
1
10
45.2621607388482
20
34.9670887728937
30
0
41
1
10
45.2576393452627
20
34.9703595173025
30
0
41
1
10
45.2534243107776
20
34.9736089710939
30
0
41
1
10
45.2508198695058
20
34.9757168792002
30
0
41
1
10
45.2495190528383
20
34.9767957315306
30
0
0
SPLINE
5
108
100
AcDbEntity
8
1
62
256
6
ByLayer
370
18
48
1
60
0
100
AcDbSpline
70
4
71
3
72
25
73
21
40
0
40
0
40
0
40
0
40
0.0703646991320142
40
0.140774586425561
40
0.211183018445129
40
0.281545731830666
40
0.339136509935091
40
0.396775858834641
40
0.454424466470114
40
0.512050423989292
40
0.569629961349864
40
0.622486817297417
40
0.675382614101721
40
0.728267587680806
40
0.78110967325892
40
0.82485762741264
40
0.86868496513954
40
0.912513909352799
40
0.956292772310311
40
1
40
1
40
1
40
1
41
1
10
45.2495190528383
20
35.3919687469227
30
0
41
1
10
45.2524125038174
20
35.3866810029328
30
0
41
1
10
45.2580760673421
20
35.3761026395783
30
0
41
1
10
45.2662025988642
20
35.3602258281265
30
0
41
1
10
45.273941025345
20
35.3443692076738
30
0
41
1
10
45.2808326346558
20
35.3295111426563
30
0
41
1
10
45.2869474453132
20
35.3156581077351
30
0
41
1
10
45.2923490125873
20
35.302807736634
30
0
41
1
10
45.2974393115576
20
35.2900239422262
30
0
41
1
10
45.3021967827287
20
35.2773307730986
30
0
41
1
10
45.3064809296897
20
35.2650917624351
30
0
41
1
10
45.3103068524537
20
35.2533119077652
30
0
41
1
10
45.3136803231933
20
35.2419997833664
30
0
41
1
10
45.3166800879012
20
35.2308445542077
30
0
41
1
10
45.3191233231433
20
35.2205086445831
30
0
41
1
10
45.3210626962067
20
35.210978399307
30
0
41
1
10
45.3225444861325
20
35.202240044206
30
0
41
1
10
45.3236544366188
20
35.1937177066534
30
0
41
1
10
45.3243565100886
20
35.1854572059966
30
0
41
1
10
45.3245143092092
20
35.180169628281
30
0
41
1
10
45.3245190528383
20
35.1775779752017
30
0
0
SPLINE
5
109
100
AcDbEntity
8
1
62
256
6
ByLayer
370
18
48
1
60
0
100
AcDbSpline
70
4
71
3
72
15
73
11
40
0
40
0
40
0
40
0
40
0.124988019727269
40
0.249976734233678
40
0.374965415980309
40
0.499953391034907
40
0.624964679831859
40
0.749976738647141
40
0.874988760968207
40
1
40
1
40
1
40
1
41
1
10
44.6054809471617
20
36.5333642578061
30
0
41
1
10
44.6328687948493
20
36.4862324125538
30
0
41
1
10
44.6875091077157
20
36.391864314586
30
0
41
1
10
44.7690658849395
20
36.2500007512258
30
0
41
1
10
44.8502103559395
20
36.1078224866378
30
0
41
1
10
44.9309418343756
20
35.9653187907114
30
0
41
1
10
45.0112540509179
20
35.8224869005569
30
0
41
1
10
45.0911403890505
20
35.6793239787951
30
0
41
1
10
45.1705898015262
20
35.5358370332234
30
0
41
1
10
45.2232585867591
20
35.4399609870563
30
0
41
1
10
45.2495190528383
20
35.3919687469227
30
0
0
SPLINE
5
10A
100
AcDbEntity
8
1
62
256
6
ByLayer
370
18
48
1
60
0
100
AcDbSpline
70
4
71
3
72
31
73
27
40
0
40
0
40
0
40
0
40
0.0418509702571974
40
0.0838019086694366
40
0.125762404183144
40
0.167666864126102
40
0.209478762733958
40
0.252050360988778
40
0.294817062958815
40
0.337617285852486
40
0.380320728027506
40
0.422839032586043
40
0.460345170371106
40
0.498007818841077
40
0.535729807204652
40
0.573403868615724
40
0.610919618713603
40
0.653083237336767
40
0.695360804398519
40
0.737661735759503
40
0.779857297621756
40
0.82400151245275
40
0.868255985925036
40
0.912601947653693
40
0.95698833177957
40
1
40
1
40
1
40
1
41
1
10
44.6054809471617
20
36.7591932680759
30
0
41
1
10
44.6035710771432
20
36.7607552831172
30
0
41
1
10
44.5997501323264
20
36.7637995257076
30
0
41
1
10
44.5940190306172
20
36.7681299214858
30
0
41
1
10
44.5883097216834
20
36.7721850505282
30
0
41
1
10
44.582649030054
20
36.7759276464124
30
0
41
1
10
44.5770265714126
20
36.7793440281147
30
0
41
1
10
44.5714644485338
20
36.7823800069184
30
0
41
1
10
44.5659926600378
20
36.7849946087804
30
0
41
1
10
44.560681918009
20
36.7871393566906
30
0
41
1
10
44.5555878255777
20
36.7887701748305
30
0
41
1
10
44.5509460117024
20
36.789804464693
30
0
41
1
10
44.5467635313124
20
36.7902730603519
30
0
41
1
10
44.5430082916417
20
36.7902653142244
30
0
41
1
10
44.5395188146351
20
36.7898111291786
30
0
41
1
10
44.5363200790055
20
36.7889193631917
30
0
41
1
10
44.5333136466575
20
36.7875377499989
30
0
41
1
10
44.5305576058753
20
36.7856091782994
30
0
41
1
10
44.5280797527174
20
36.7831235707337
30
0
41
1
10
44.5259778416102
20
36.7801961138497
30
0
41
1
10
44.5242171742694
20
36.7768146937088
30
0
41
1
10
44.5228038686849
20
36.7729916575414
30
0
41
1
10
44.52172812311
20
36.7687502209386
30
0
41
1
10
44.5209890316149
20
36.7641850774236
30
0
41
1
10
44.520571389767
20
36.7593828444103
30
0
41
1
10
44.5204795973738
20
36.7560430121364
30
0
41
1
10
44.5204809471908
20
36.754359705032
30
0
0
SPLINE
5
10B
100
AcDbEntity
8
1
62
256
6
ByLayer
370
18
48
1
60
0
100
AcDbSpline
70
4
71
1
72
4
73
2
40
0
40
0
40
1
40
1
41
1
10
44.6054809471617
20
36.7591932680759
30
0
41
1
10
45.2495190528383
20
36.2329786727337
30
0
0
SPLINE
5
10C
100
AcDbEntity
8
1
62
256
6
ByLayer
370
18
48
1
60
0
100
AcDbSpline
70
4
71
3
72
28
73
24
40
0
40
0
40
0
40
0
40
0.0524584669507038
40
0.10503624534241
40
0.157573609121797
40
0.209976832033833
40
0.252690110048784
40
0.29559896909632
40
0.338542021410309
40
0.381388608136358
40
0.424049424457435
40
0.471106167505601
40
0.518369573476716
40
0.565643545427843
40
0.612714759300509
40
0.655226222908207
40
0.697852046503927
40
0.740501374512978
40
0.783044972530348
40
0.837193950106235
40
0.89147436585682
40
0.945795445189323
40
1
40
1
40
1
40
1
41
1
10
45.2495190528383
20
36.2329786727337
30
0
41
1
10
45.2516289092409
20
36.2312519781661
30
0
41
1
10
45.2558467236604
20
36.2279141084773
30
0
41
1
10
45.2621673252438
20
36.2232416836132
30
0
41
1
10
45.2684391583672
20
36.218977396953
30
0
41
1
10
45.2742428770359
20
36.2154105153947
30
0
41
1
10
45.2795610876843
20
36.2125106613223
30
0
41
1
10
45.2843963295931
20
36.2102033768068
30
0
41
1
10
45.2890884970015
20
36.2083111852671
30
0
41
1
10
45.2935884901898
20
36.2068724017865
30
0
41
1
10
45.2980015828056
20
36.205889587549
30
0
41
1
10
45.3022540201027
20
36.2054706107586
30
0
41
1
10
45.3062891022597
20
36.2056603194825
30
0
41
1
10
45.3099403469768
20
36.2064538778681
30
0
41
1
10
45.3130675400942
20
36.2077991206586
30
0
41
1
10
45.3156933871107
20
36.2096205271186
30
0
41
1
10
45.31788684531
20
36.2118054699971
30
0
41
1
10
45.3197445012667
20
36.2143799805359
30
0
41
1
10
45.3214123332276
20
36.2175753047528
30
0
41
1
10
45.3227935804559
20
36.2214751793212
30
0
41
1
10
45.3238125790201
20
36.226127950777
30
0
41
1
10
45.3243944338364
20
36.2311757214082
30
0
41
1
10
45.3245225180197
20
36.2347548022513
30
0
41
1
10
45.3245190528383
20
36.2365998497609
30
0
0
SPLINE
5
10D
100
AcDbEntity
8
1
62
256
6
ByLayer
370
18
48
1
60
0
100
AcDbSpline
70
4
71
3
72
26
73
22
40
0
40
0
40
0
40
0
40
0.0385565456335216
40
0.0771626152149088
40
0.115782486065641
40
0.154357874549091
40
0.207484417675796
40
0.260651785792157
40
0.313791982419117
40
0.372639292422533
40
0.43154325504208
40
0.490460013651496
40
0.549324788835577
40
0.609734126151536
40
0.670183604340457
40
0.73063808193719
40
0.791054241054393
40
0.843204823629037
40
0.895355596477879
40
0.947677772234533
40
1
40
1
40
1
40
1
41
1
10
45.3245190528383
20
36.3850774567956
30
0
41
1
10
45.3245156988944
20
36.3869213567093
30
0
41
1
10
45.3243922940058
20
36.3906987769201
30
0
41
1
10
45.3238429890506
20
36.3966459640752
30
0
41
1
10
45.3229702724511
20
36.4028220610493
30
0
41
1
10
45.3216513946267
20
36.4099983615648
30
0
41
1
10
45.3197787645747
20
36.4182331744385
30
0
41
1
10
45.3172485418931
20
36.4275696063445
30
0
41
1
10
45.3141879538247
20
36.4374777331721
30
0
41
1
10
45.3105889950432
20
36.4479444718229
30
0
41
1
10
45.3064377465978
20
36.4589592594631
30
0
41
1
10
45.3018901397402
20
36.4701366316938
30
0
41
1
10
45.29693739173
20
36.4815431055506
30
0
41
1
10
45.2915969143937
20
36.4931596593276
30
0
41
1
10
45.2858767954153
20
36.5049729151236
30
0
41
1
10
45.2798435860064
20
36.5168618133042
30
0
41
1
10
45.2738052525893
20
36.5282621967314
30
0
41
1
10
45.2678205420037
20
36.5391517294813
30
0
41
1
10
45.2619290121602
20
36.5495293380165
30
0
41
1
10
45.2558365434734
20
36.559933715096
30
0
41
1
10
45.2516459415652
20
36.5668801470431
30
0
41
1
10
45.2495190528383
20
36.5703546552214
30
0
0
SPLINE
5
10E
100
AcDbEntity
8
1
62
256
6
ByLayer
370
18
48
1
60
0
100
AcDbSpline
70
4
71
3
72
14
73
10
40
0
40
0
40
0
40
0
40
0.124991812352006
40
0.249984142995058
40
0.374976497021849
40
0.499968341260913
40
0.666645355677589
40
0.833322943344418
40
1
40
1
40
1
40
1
41
1
10
45.2495190528383
20
36.5703546552214
30
0
41
1
10
45.2231082787948
20
36.6135001163048
30
0
41
1
10
45.1701786053699
20
36.6997024295847
30
0
41
1
10
45.0904578252273
20
36.8287386093975
30
0
41
1
10
45.0104173127903
20
36.9575104822427
30
0
41
1
10
44.9211282805779
20
37.1003059126806
30
0
41
1
10
44.8224630265859
20
37.2570168346806
30
0
41
1
10
44.7142810627519
20
37.4275224292531
30
0
41
1
10
44.6418069367697
20
37.5408926283996
30
0
41
1
10
44.6054809471617
20
37.5975021651337
30
0
0
SPLINE
5
10F
100
AcDbEntity
8
1
62
256
6
ByLayer
370
18
48
1
60
0
100
AcDbSpline
70
4
71
3
72
28
73
24
40
0
40
0
40
0
40
0
40
0.0576434457896765
40
0.115334306644699
40
0.173037908391
40
0.230722803630645
40
0.288361241926805
40
0.347864982013694
40
0.407444608523973
40
0.467035889738405
40
0.526589056622697
40
0.58607057724888
40
0.629432430293987
40
0.672876860397839
40
0.716345522842708
40
0.759793015153585
40
0.803188548238531
40
0.846517747276725
40
0.882857009400176
40
0.919313095927711
40
0.955801332844349
40
0.992256510541192
40
1
40
1
40
1
40
1
41
1
10
44.6054809471617
20
37.5975021651337
30
0
41
1
10
44.6028586657032
20
37.601588410504
30
0
41
1
10
44.5976929633319
20
37.6097563335332
30
0
41
1
10
44.5901807566845
20
37.6219931474749
30
0
41
1
10
44.5829205918514
20
37.6341967695732
30
0
41
1
10
44.5759276102828
20
37.6463478472839
30
0
41
1
10
44.5691435840536
20
37.6585603796227
30
0
41
1
10
44.5625893463312
20
37.6708223454782
30
0
41
1
10
44.5562974987432
20
37.6831136879684
30
0
41
1
10
44.5503659668506
20
37.6952780879298
30
0
41
1
10
44.5448289763156
20
37.707277970645
30
0
41
1
10
44.5401797056184
20
37.7180160525706
30
0
41
1
10
44.5363159283356
20
37.7275294757066
30
0
41
1
10
44.5331386689689
20
37.73586405716
30
0
41
1
10
44.5302458942934
20
37.7440450991562
30
0
41
1
10
44.5276651744041
20
37.7520399814694
30
0
41
1
10
44.525424543766
20
37.7598156852559
30
0
41
1
10
44.523650485371
20
37.7669393528771
30
0
41
1
10
44.5223027045053
20
37.7734327865312
30
0
41
1
10
44.5213396118515
20
37.7793198684164
30
0
41
1
10
44.5207041223779
20
37.7849604838867
30
0
41
1
10
44.5205008158607
20
37.7889067003466
30
0
41
1
10
44.5204815518831
20
37.7909900468426
30
0
41
1
10
44.5204809482201
20
37.791352741021
30
0
0
SPLINE
5
110
100
AcDbEntity
8
1
62
256
6
ByLayer
370
18
48
1
60
0
100
AcDbSpline
70
4
71
1
72
4
73
2
40
0
40
0
40
1
40
1
41
1
10
45.2495190528383
20
37.2553517208022
30
0
41
1
10
44.6054809471617
20
37.782744099361
30
0
0
SPLINE
5
111
100
AcDbEntity
8
1
62
256
6
ByLayer
370
18
48
1
60
0
100
AcDbSpline
70
4
71
3
72
28
73
24
40
0
40
0
40
0
40
0
40
0.0532451984862295
40
0.106623457847048
40
0.159963302157196
40
0.213155978566855
40
0.256375230511595
40
0.299781977204486
40
0.343230315378392
40
0.386594473686035
40
0.429777854094208
40
0.478355662239488
40
0.527125706031224
40
0.575910453560991
40
0.624508390467918
40
0.670814284670918
40
0.717241510031573
40
0.763693860380649
40
0.810034102259581
40
0.857475944539275
40
0.904994787763205
40
0.952532452388734
40
1
40
1
40
1
40
1
41
1
10
45.3245190528383
20
37.2467561030828
30
0
41
1
10
45.3245217377116
20
37.2452023365042
30
0
41
1
10
45.3243846709735
20
37.242219462637
30
0
41
1
10
45.3237640195426
20
37.2381085405537
30
0
41
1
10
45.3226895645569
20
37.2344293321441
30
0
41
1
10
45.3212337198915
20
37.2314329540114
30
0
41
1
10
45.3194587202176
20
37.229078803626
30
0
41
1
10
45.3174593875314
20
37.2272800921892
30
0
41
1
10
45.3151152262651
20
37.2258863578888
30
0
41
1
10
45.3124335091881
20
37.2249242573039
30
0
41
1
10
45.3092909265539
20
37.2243980985439
30
0
41
1
10
45.3056308578603
20
37.2244099509419
30
0
41
1
10
45.3014482877481
20
37.2250064836098
30
0
41
1
10
45.2969319170185
20
37.2261644750351
30
0
41
1
10
45.2921994603874
20
37.2278424768486
30
0
41
1
10
45.2872998861038
20
37.2299963174096
30
0
41
1
10
45.2822881543251
20
37.2325467180678
30
0
41
1
10
45.2771246017472
20
37.2354893947642
30
0
41
1
10
45.2718033879668
20
37.2388138938859
30
0
41
1
10
45.2663477013505
20
37.2424987442879
30
0
41
1
10
45.2607785612787
20
37.2465137994633
30
0
41
1
10
45.2551614212564
20
37.2507988818427
30
0
41
1
10
45.2514022959589
20
37.2538079552808
30
0
41
1
10
45.2495190528383
20
37.2553517208022
30
0
0
SPLINE
5
112
100
AcDbEntity
8
1
62
256
6
ByLayer
370
18
48
1
60
0
100
AcDbSpline
70
4
71
3
72
26
73
22
40
0
40
0
40
0
40
0
40
0.069418385187674
40
0.138894320983783
40
0.208365561373678
40
0.277777538347238
40
0.335062384787066
40
0.392417079551467
40
0.449783723114793
40
0.507116437858222
40
0.564382827527187
40
0.614843611726143
40
0.66532500759759
40
0.715778493470458
40
0.767305989859118
40
0.818866201501411
40
0.870377823882291
40
0.902655409558201
40
0.93493183370036
40
0.96746672124677
40
1
40
1
40
1
40
1
41
1
10
45.2495190528383
20
37.5300672644229
30
0
41
1
10
45.2523146987206
20
37.5259125169863
30
0
41
1
10
45.2578035652913
20
37.517612529303
30
0
41
1
10
45.2657323531875
20
37.5051903865136
30
0
41
1
10
45.2733285297128
20
37.4928267093042
30
0
41
1
10
45.2801488859442
20
37.4812601183487
30
0
41
1
10
45.2862449761125
20
37.4704915819485
30
0
41
1
10
45.2916683557848
20
37.4605139998693
30
0
41
1
10
45.296798449873
20
37.4506385235169
30
0
41
1
10
45.3016085884201
20
37.4408937703097
30
0
41
1
10
45.3058977748833
20
37.4316832053965
30
0
41
1
10
45.3096892843573
20
37.4230073883516
30
0
41
1
10
45.3130050632923
20
37.4148652924634
30
0
41
1
10
45.3160020667026
20
37.4068540479759
30
0
41
1
10
45.3186414202883
20
37.3990088810009
30
0
41
1
10
45.3208732446373
20
37.3913776071072
30
0
41
1
10
45.3224153429554
20
37.3849731243893
30
0
41
1
10
45.3234201028129
20
37.3797100131171
30
0
41
1
10
45.3240411917653
20
37.3754719472038
30
0
41
1
10
45.3244297616955
20
37.3714048696052
30
0
41
1
10
45.324517165836
20
37.3688287432403
30
0
41
1
10
45.3245190528383
20
37.3675746358548
30
0
0
SPLINE
5
113
100
AcDbEntity
8
1
62
256
6
ByLayer
370
18
48
1
60
0
100
AcDbSpline
70
4
71
3
72
13
73
9
40
0
40
0
40
0
40
0
40
0.166659547741856
40
0.333319457245375
40
0.499978977163021
40
0.666652529084657
40
0.833326479068975
40
1
40
1
40
1
40
1
41
1
10
44.6054809471617
20
38.4690798577815
30
0
41
1
10
44.6416694217323
20
38.4172918182931
30
0
41
1
10
44.7139121626003
20
38.3135913895099
30
0
41
1
10
44.8218767810993
20
38.1576701984005
30
0
41
1
10
44.9294347250992
20
38.0013677179474
30
0
41
1
10
45.036579051004
20
37.8446797774009
30
0
41
1
10
45.1433024610356
20
37.6876019673066
30
0
41
1
10
45.2141614705207
20
37.5826220964942
30
0
41
1
10
45.2495190528383
20
37.5300672644229
30
0
0
SPLINE
5
114
100
AcDbEntity
8
1
62
256
6
ByLayer
370
18
48
1
60
0
100
AcDbSpline
70
4
71
3
72
29
73
25
40
0
40
0
40
0
40
0
40
0.0513526040109111
40
0.102841569296679
40
0.15434442820405
40
0.205771545630417
40
0.257072144405529
40
0.300261560263661
40
0.343596270334637
40
0.386956606325782
40
0.430246059568339
40
0.473397393491534
40
0.516843790503293
40
0.560481543932876
40
0.60418056914422
40
0.647810766239599
40
0.691250797852203
40
0.739113591380791
40
0.787126060887317
40
0.835161054044098
40
0.883054655001951
40
0.935294583898581
40
0.987695556224732
40
1
40
1
40
1
40
1
41
1
10
44.6054809471617
20
38.6201256110366
30
0
41
1
10
44.6031897920279
20
38.6220264966844
30
0
41
1
10
44.5986208068679
20
38.6257398924256
30
0
41
1
10
44.5918113714408
20
38.6310474231574
30
0
41
1
10
44.5850784040441
20
38.6360456315555
30
0
41
1
10
44.5784600843625
20
38.6406890995531
30
0
41
1
10
44.5723312262267
20
38.644710927414
30
0
41
1
10
44.5666944951021
20
38.648138893707
30
0
41
1
10
44.5615385216772
20
38.6510243464897
30
0
41
1
10
44.556560395607
20
38.6535435199145
30
0
41
1
10
44.5518017670316
20
38.6556610621169
30
0
41
1
10
44.5472862219664
20
38.6573508144849
30
0
41
1
10
44.5430526644044
20
38.6585672414434
30
0
41
1
10
44.5391196716208
20
38.6593047011183
30
0
41
1
10
44.5355178126011
20
38.6595604154002
30
0
41
1
10
44.5322796504899
20
38.6593292144109
30
0
41
1
10
44.5293368097312
20
38.6585773193536
30
0
41
1
10
44.5267591855404
20
38.6572374181152
30
0
41
1
10
44.5245763706081
20
38.6552981787098
30
0
41
1
10
44.5228634698191
20
38.6528401939256
30
0
41
1
10
44.5215792143353
20
38.6498071141282
30
0
41
1
10
44.5207582969117
20
38.6461820722069
30
0
41
1
10
44.5205171059439
20
38.643032800962
30
0
41
1
10
44.5204832479814
20
38.6412009238376
30
0
41
1
10
44.5204809484386
20
38.6408487377063
30
0
0
SPLINE
5
115
100
AcDbEntity
8
1
62
256
6
ByLayer
370
18
48
1
60
0
100
AcDbSpline
70
4
71
1
72
4
73
2
40
0
40
0
40
1
40
1
41
1
10
44.6054809471617
20
38.6201256110366
30
0
41
1
10
45.2495190528383
20
38.0859380746278
30
0
0
SPLINE
5
116
100
AcDbEntity
8
1
62
256
6
ByLayer
370
18
48
1
60
0
100
AcDbSpline
70
4
71
3
72
28
73
24
40
0
40
0
40
0
40
0
40
0.0517942260672874
40
0.103726841685633
40
0.155673725142633
40
0.207543891744791
40
0.259285606228348
40
0.30284945361383
40
0.346559890877695
40
0.390296549068188
40
0.433962032729016
40
0.477488053254235
40
0.521304715779411
40
0.565313106681366
40
0.609383177759918
40
0.653384565053923
40
0.697195327954682
40
0.745616888346256
40
0.79418983930467
40
0.842785284978115
40
0.891237613235511
40
0.945615412809512
40
1
40
1
40
1
40
1
41
1
10
45.2495190528383
20
38.0859380746278
30
0
41
1
10
45.2515552085959
20
38.0842471951943
30
0
41
1
10
45.2556152319761
20
38.0809439090786
30
0
41
1
10
45.2616648710636
20
38.0762222721569
30
0
41
1
10
45.2676448145404
20
38.0717752520765
30
0
41
1
10
45.2735207416244
20
38.0676431324031
30
0
41
1
10
45.2789597258449
20
38.0640632276201
30
0
41
1
10
45.2839594566322
20
38.0610108042988
30
0
41
1
10
45.2885302867854
20
38.0584398490246
30
0
41
1
10
45.2929405541007
20
38.0561930300948
30
0
41
1
10
45.297153108673
20
38.0543012742929
30
0
41
1
10
45.301146593749
20
38.052787480622
30
0
41
1
10
45.3048863220898
20
38.0516911545557
30
0
41
1
10
45.3083558889808
20
38.0510166204502
30
0
41
1
10
45.3115284585977
20
38.0507660986912
30
0
41
1
10
45.314375310948
20
38.0509438684656
30
0
41
1
10
45.3169590943582
20
38.0515791242757
30
0
41
1
10
45.319215806259
20
38.0527325646898
30
0
41
1
10
45.3211171160249
20
38.0544159160059
30
0
41
1
10
45.3225947609936
20
38.0565583439423
30
0
41
1
10
45.32369614692
20
38.0592341504555
30
0
41
1
10
45.324367722528
20
38.0624777091251
30
0
41
1
10
45.324522249433
20
38.0650064677964
30
0
41
1
10
45.3245190528383
20
38.0663467902296
30
0
0
SPLINE
5
117
100
AcDbEntity
8
1
62
256
6
ByLayer
370
18
48
1
60
0
100
AcDbSpline
70
4
71
3
72
26
73
22
40
0
40
0
40
0
40
0
40
0.0443326812998323
40
0.0887211730373385
40
0.133070227576349
40
0.178949173651651
40
0.224867580852565
40
0.270757733027398
40
0.31706476785049
40
0.36341766196557
40
0.409780028927915
40
0.456099993578761
40
0.519542340846487
40
0.583027227098108
40
0.64647973319343
40
0.70500878791498
40
0.763561821599917
40
0.822094522947771
40
0.881388960656232
40
0.940703804009748
40
1
40
1
40
1
40
1
41
1
10
45.3245190528383
20
38.1637522287217
30
0
41
1
10
45.3245147722943
20
38.1651174837876
30
0
41
1
10
45.3243562469004
20
38.167976583023
30
0
41
1
10
45.3236515026394
20
38.1726682489988
30
0
41
1
10
45.3225172222811
20
38.1777540993142
30
0
41
1
10
45.3209658419227
20
38.1832105543499
30
0
41
1
10
45.3190184350739
20
38.1890068753119
30
0
41
1
10
45.3167163285927
20
38.1950652544798
30
0
41
1
10
45.3140850191107
20
38.201356986226
30
0
41
1
10
45.3111458162525
20
38.2078592035372
30
0
41
1
10
45.3079303236158
20
38.2145276383619
30
0
41
1
10
45.3040336390929
20
38.2221780335794
30
0
41
1
10
45.2993614720955
20
38.2308547582822
30
0
41
1
10
45.2938254862823
20
38.2405876314073
30
0
41
1
10
45.2880754532424
20
38.2502303297014
30
0
41
1
10
45.2821731977036
20
38.2597408707064
30
0
41
1
10
45.2761665979747
20
38.2690896809876
30
0
41
1
10
45.2698858625386
20
38.2785599366722
30
0
41
1
10
45.2633444566962
20
38.2881367424941
30
0
41
1
10
45.2565518009407
20
38.2978082039038
30
0
41
1
10
45.2518864893218
20
38.3042795643182
30
0
41
1
10
45.2495190528383
20
38.3075215858111
30
0
0
SPLINE
5
118
100
AcDbEntity
8
1
62
256
6
ByLayer
370
18
48
1
60
0
100
AcDbSpline
70
4
71
3
72
13
73
9
40
0
40
0
40
0
40
0
40
0.166661617296802
40
0.333323529256958
40
0.499985167290288
40
0.666656682522076
40
0.833328466119308
40
1
40
1
40
1
40
1
41
1
10
45.2495190528383
20
38.3075215858111
30
0
41
1
10
45.2140651718397
20
38.3560787485684
30
0
41
1
10
45.1430472039753
20
38.4530852706117
30
0
41
1
10
45.0361871383037
20
38.5982694839994
30
0
41
1
10
44.9289999431413
20
38.7431366263208
30
0
41
1
10
44.8214909587304
20
38.8876904443295
30
0
41
1
10
44.7136652592373
20
39.0319344770259
30
0
41
1
10
44.6415767599628
20
39.1278923628918
30
0
41
1
10
44.6054809471617
20
39.1758197623512
30
0
0
SPLINE
5
119
100
AcDbEntity
8
1
62
256
6
ByLayer
370
18
48
1
60
0
100
AcDbSpline
70
4
71
3
72
27
73
23
40
0
40
0
40
0
40
0
40
0.0633031817516702
40
0.126656597458663
40
0.190004723179249
40
0.253300685478671
40
0.30548822630565
40
0.357737782799681
40
0.409998341319397
40
0.462229147947971
40
0.514400944844318
40
0.560645730728375
40
0.607003506535449
40
0.653396065181477
40
0.699761498386887
40
0.746056606011068
40
0.792259520380573
40
0.836031412555026
40
0.87994440287278
40
0.923872364119695
40
0.96772225425069
40
1
40
1
40
1
40
1
41
1
10
44.6054809471617
20
39.1758197623512
30
0
41
1
10
44.6026394305975
20
39.179592177237
30
0
41
1
10
44.5970406084138
20
39.187117749519
30
0
41
1
10
44.5888921702379
20
39.1983495097622
30
0
41
1
10
44.5810213617605
20
39.2094960159861
30
0
41
1
10
44.5738923387976
20
39.219889414773
30
0
41
1
10
44.5674641871686
20
39.229534005002
30
0
41
1
10
44.5616932065288
20
39.2384415638593
30
0
41
1
10
44.5561735938097
20
39.2472315359797
30
0
41
1
10
44.5509298793864
20
39.2558777226083
30
0
41
1
10
44.5461711517838
20
39.2640372188633
30
0
41
1
10
44.5418768729672
20
39.2717165739884
30
0
41
1
10
44.5380267770438
20
39.2789227858566
30
0
41
1
10
44.5344698458078
20
39.2859450495459
30
0
41
1
10
44.5312370562626
20
39.2927473031054
30
0
41
1
10
44.5283599325575
20
39.2992930313054
30
0
41
1
10
44.5259101345269
20
39.3054416627797
30
0
41
1
10
44.5238974918759
20
39.3111794923375
30
0
41
1
10
44.5223276787034
20
39.316492645071
30
0
41
1
10
44.5211973145757
20
39.3214412184991
30
0
41
1
10
44.5205991259537
20
39.3255784926968
30
0
41
1
10
44.5204840033536
20
39.3279601891787
30
0
41
1
10
44.5204809482594
20
39.3289289227777
30
0
0
SPLINE
5
11A
100
AcDbEntity
8
1
62
256
6
ByLayer
370
18
48
1
60
0
100
AcDbSpline
70
4
71
2
72
6
73
3
40
0
40
0
40
0
40
1
40
1
40
1
41
1
10
45.2495190528383
20
38.7516787998499
30
0
41
1
10
44.9276189142756
20
39.0244849354744
30
0
41
1
10
44.6054809471617
20
39.2969165050502
30
0
0
SPLINE
5
11B
100
AcDbEntity
8
1
62
256
6
ByLayer
370
18
48
1
60
0
100
AcDbSpline
70
4
71
3
72
27
73
23
40
0
40
0
40
0
40
0
40
0.0523540730095836
40
0.104869956945876
40
0.157358301763362
40
0.209674701685252
40
0.251961335142545
40
0.294408374245541
40
0.336909327401105
40
0.379355196139172
40
0.421640844278745
40
0.471734371756178
40
0.521982215129311
40
0.572252705832984
40
0.622377208574096
40
0.676911374560327
40
0.731615060222849
40
0.78641832752084
40
0.84120099748877
40
0.895801621776819
40
0.947899524010962
40
1
40
1
40
1
40
1
41
1
10
45.3245190528383
20
38.7218312162063
30
0
41
1
10
45.324520003232
20
38.7207729300689
30
0
41
1
10
45.3243641965068
20
38.7188059620586
30
0
41
1
10
45.3236622397905
20
38.7162994400596
30
0
41
1
10
45.3224742286016
20
38.7142825894966
30
0
41
1
10
45.3208935149589
20
38.7128875584052
30
0
41
1
10
45.3190040698604
20
38.7120441019297
30
0
41
1
10
45.3169181877905
20
38.7116381432757
30
0
41
1
10
45.314512787598
20
38.7116059258856
30
0
41
1
10
45.3118054197817
20
38.7119481778459
30
0
41
1
10
45.3086223827954
20
38.7127126546975
30
0
41
1
10
45.3049053819207
20
38.7139889011583
30
0
41
1
10
45.3006348441901
20
38.7158256339416
30
0
41
1
10
45.2960586620232
20
38.7181190522678
30
0
41
1
10
45.291075460229
20
38.7209185718741
30
0
41
1
10
45.2856883114797
20
38.7242437048495
30
0
41
1
10
45.2799165169174
20
38.7280859871202
30
0
41
1
10
45.2739509494293
20
38.7323083944352
30
0
41
1
10
45.267840529511
20
38.7368605839207
30
0
41
1
10
45.2617146359562
20
38.741630363489
30
0
41
1
10
45.2556024994752
20
38.7465736653666
30
0
41
1
10
45.2515542239537
20
38.7499529843074
30
0
41
1
10
45.2495190528383
20
38.7516787998499
30
0
0
SPLINE
5
11C
100
AcDbEntity
8
1
62
256
6
ByLayer
370
18
48
1
60
0
100
AcDbSpline
70
4
71
3
72
27
73
23
40
0
40
0
40
0
40
0
40
0.0612089722996065
40
0.122465923312058
40
0.183717829296401
40
0.244919916516039
40
0.307972387699494
40
0.371096444866114
40
0.434206222850557
40
0.497239199506105
40
0.543551513765976
40
0.589882652697853
40
0.636189638207726
40
0.683411701386205
40
0.730661455449978
40
0.777873857662641
40
0.814434298748763
40
0.85101356955305
40
0.887568650457919
40
0.925039051967628
40
0.962537542354899
40
1
40
1
40
1
40
1
41
1
10
45.2495190528383
20
38.9264464721899
30
0
41
1
10
45.2519453310322
20
38.9233558725452
30
0
41
1
10
45.2567298370532
20
38.9171928226975
30
0
41
1
10
45.263704940019
20
38.9080018611605
30
0
41
1
10
45.2704546278431
20
38.8988873688358
30
0
41
1
10
45.2770261898479
20
38.889776475459
30
0
41
1
10
45.2833928557891
20
38.8806885008922
30
0
41
1
10
45.2895199852081
20
38.871649745311
30
0
41
1
10
45.2953118836746
20
38.862781513446
30
0
41
1
10
45.3002541852712
20
38.8548839838414
30
0
41
1
10
45.3044256231208
20
38.847925098342
30
0
41
1
10
45.3079117325037
20
38.8418594923408
30
0
41
1
10
45.3111622366982
20
38.8359203591787
30
0
41
1
10
45.3141490940478
20
38.8301335902371
30
0
41
1
10
45.3168398468906
20
38.8245308036145
30
0
41
1
10
45.3190103713726
20
38.8195820071636
30
0
41
1
10
45.3207208747347
20
38.8152526067417
30
0
41
1
10
45.3220395458055
20
38.8114959295888
30
0
41
1
10
45.3231106015255
20
38.8079183309698
30
0
41
1
10
45.3239067689828
20
38.8045495115143
30
0
41
1
10
45.3244050557611
20
38.8014165533846
30
0
41
1
10
45.3245168061093
20
38.7995275919724
30
0
41
1
10
45.3245190528383
20
38.7986314551885
30
0
0
SPLINE
5
11D
100
AcDbEntity
8
1
62
256
6
ByLayer
370
18
48
1
60
0
100
AcDbSpline
70
4
71
3
72
13
73
9
40
0
40
0
40
0
40
0
40
0.166663274663073
40
0.33332672234509
40
0.499989984415984
40
0.666659931133777
40
0.833330067271027
40
1
40
1
40
1
40
1
41
1
10
44.6054809471617
20
39.7363843093967
30
0
41
1
10
44.6415044809823
20
39.691648722897
30
0
41
1
10
44.7134714654715
20
39.6020918895989
30
0
41
1
10
44.8211834496937
20
39.4675013516936
30
0
41
1
10
44.9286527250742
20
39.3326491185128
30
0
41
1
10
45.0358754650939
20
39.1975321478221
30
0
41
1
10
45.1428476401454
20
39.0621472195247
30
0
41
1
10
45.2139903801908
20
38.9717099628991
30
0
41
1
10
45.2495190528383
20
38.9264464721899
30
0
0
SPLINE
5
11E
100
AcDbEntity
8
1
62
256
6
ByLayer
370
18
48
1
60
0
100
AcDbSpline
70
4
71
3
72
29
73
25
40
0
40
0
40
0
40
0
40
0.0501764632483238
40
0.100494749764774
40
0.150858605651004
40
0.201190614206192
40
0.251435309768347
40
0.301562585579434
40
0.349098266937446
40
0.396790482584506
40
0.444508652297237
40
0.492148951594879
40
0.539640950529559
40
0.587520846528859
40
0.635623778069764
40
0.683790031180095
40
0.731868566038874
40
0.7797279057897
40
0.820942835584198
40
0.862288889716683
40
0.903691498706022
40
0.94506042490646
40
0.986294599585741
40
1
40
1
40
1
40
1
41
1
10
44.6054809471617
20
39.8304402666759
30
0
41
1
10
44.603267524658
20
39.8323615849659
30
0
41
1
10
44.5988604313983
20
39.8361429935188
30
0
41
1
10
44.5923147271951
20
39.8416290866704
30
0
41
1
10
44.5858570206374
20
39.8468997915288
30
0
41
1
10
44.5795165067052
20
39.8519234710857
30
0
41
1
10
44.573324849857
20
39.8566653199483
30
0
41
1
10
44.5674109746669
20
39.8610201291027
30
0
41
1
10
44.5617883648333
20
39.864974815567
30
0
41
1
10
44.5564676218624
20
39.8685251499118
30
0
41
1
10
44.5513801651493
20
39.871712233269
30
0
41
1
10
44.5465712827718
20
39.8744956273513
30
0
41
1
10
44.5420656987032
20
39.8768478954403
30
0
41
1
10
44.5379097213218
20
39.8787175342922
30
0
41
1
10
44.5341268939179
20
39.8800893483944
30
0
41
1
10
44.5307522737349
20
39.8809496892995
30
0
41
1
10
44.5278231568682
20
39.881281882907
30
0
41
1
10
44.5254857816288
20
39.881077195791
30
0
41
1
10
44.5236910380259
20
39.8804057405154
30
0
41
1
10
44.5223477771911
20
39.879375073029
30
0
41
1
10
44.5213605681356
20
39.8779666409057
30
0
41
1
10
44.5207256952632
20
39.8761996374755
30
0
41
1
10
44.5205049688669
20
39.8745554028499
30
0
41
1
10
44.5204806466885
20
39.8735193527287
30
0
41
1
10
44.5204809478526
20
39.8732546567526
30
0
0
SPLINE
5
11F
100
AcDbEntity
8
1
62
256
6
ByLayer
370
18
48
1
60
0
100
AcDbSpline
70
4
71
2
72
6
73
3
40
0
40
0
40
0
40
1
40
1
40
1
41
1
10
44.6054809471617
20
39.8304402666759
30
0
41
1
10
44.9277069048757
20
39.5508388142639
30
0
41
1
10
45.2495190528383
20
39.2706026319897
30
0
0
SPLINE
5
120
100
AcDbEntity
8
1
62
256
6
ByLayer
370
18
48
1
60
0
100
AcDbSpline
70
4
71
3
72
26
73
22
40
0
40
0
40
0
40
0
40
0.0609799708690302
40
0.122138731643203
40
0.183316444373002
40
0.244395383430533
40
0.305308217626539
40
0.353377817358283
40
0.401605688869018
40
0.449860105055514
40
0.498036068696011
40
0.546061993115738
40
0.594476286300732
40
0.643115560405537
40
0.691818558548676
40
0.740432945553227
40
0.788826269513106
40
0.841514744649828
40
0.894389240658922
40
0.947283914482619
40
1
40
1
40
1
40
1
41
1
10
45.2495190528384
20
39.2706026319897
30
0
41
1
10
45.2518921616701
20
39.2685351532612
30
0
41
1
10
45.2566088687712
20
39.2644815568308
30
0
41
1
10
45.2635918323483
20
39.2586445363345
30
0
41
1
10
45.2704419818643
20
39.253099438411
30
0
41
1
10
45.2771132706563
20
39.2478954728317
30
0
41
1
10
45.2831109389123
20
39.2434174612518
30
0
41
1
10
45.2884512051284
20
39.2396172330641
30
0
41
1
10
45.293171262926
20
39.2364224654801
30
0
41
1
10
45.2976788365635
20
39.2335485092628
30
0
41
1
10
45.3019333684904
20
39.2310309803068
30
0
41
1
10
45.3059123938218
20
39.2288939057962
30
0
41
1
10
45.3095742655372
20
39.2271822349957
30
0
41
1
10
45.3128978800041
20
39.2259091520808
30
0
41
1
10
45.3158521327769
20
39.225087052513
30
0
41
1
10
45.3184038958123
20
39.2247309443896
30
0
41
1
10
45.3205860627197
20
39.224861246084
30
0
41
1
10
45.3223248309381
20
39.2255465897764
30
0
41
1
10
45.3235932359814
20
39.2267992656883
30
0
41
1
10
45.3243505402042
20
39.2285732506471
30
0
41
1
10
45.3245190384621
20
39.2300825606953
30
0
41
1
10
45.3245190528383
20
39.2309190812485
30
0
0
SPLINE
5
121
100
AcDbEntity
8
1
62
256
6
ByLayer
370
18
48
1
60
0
100
AcDbSpline
70
4
71
3
72
26
73
22
40
0
40
0
40
0
40
0
40
0.0407899412378834
40
0.0816280602350318
40
0.122427629684653
40
0.164697739977805
40
0.20700762957624
40
0.249286843221081
40
0.300848332693552
40
0.352460916899861
40
0.404035850653821
40
0.457057510227432
40
0.510116802737914
40
0.563147369821402
40
0.617000469440242
40
0.670903629673976
40
0.724814706148909
40
0.778678610386262
40
0.852432777303159
40
0.926237490189342
40
1
40
1
40
1
40
1
41
1
10
45.3245190528383
20
39.2890178190712
30
0
41
1
10
45.3245165591033
20
39.2897441007583
30
0
41
1
10
45.3243870286567
20
39.2913126443547
30
0
41
1
10
45.3238094145663
20
39.2940238764587
30
0
41
1
10
45.3228657678015
20
39.2970910026598
30
0
41
1
10
45.3215570340174
20
39.3005054786028
30
0
41
1
10
45.3198968469615
20
39.3042468458211
30
0
41
1
10
45.3177791728935
20
39.3085408204657
30
0
41
1
10
45.3151454623087
20
39.3134277014113
30
0
41
1
10
45.3119504510167
20
39.3189324982489
30
0
41
1
10
45.3083641027652
20
39.3247603196789
30
0
41
1
10
45.3044074609676
20
39.3308858960885
30
0
41
1
10
45.3001014055025
20
39.3372855208391
30
0
41
1
10
45.2954863775842
20
39.3439096531842
30
0
41
1
10
45.2905823838893
20
39.350737685137
30
0
41
1
10
45.2854064249887
20
39.3577523217541
30
0
41
1
10
45.2800055396417
20
39.3648972930049
30
0
41
1
10
45.2737103948422
20
39.3730457942231
30
0
41
1
10
45.2664462993496
20
39.382230771257
30
0
41
1
10
45.258144837038
20
39.3924726290933
30
0
41
1
10
45.2524260152709
20
39.3993738745276
30
0
41
1
10
45.2495190528383
20
39.4028438779788
30
0
0
SPLINE
5
122
100
AcDbEntity
8
1
62
256
6
ByLayer
370
18
48
1
60
0
100
AcDbSpline
70
4
71
3
72
11
73
7
40
0
40
0
40
0
40
0
40
0.249996457160472
40
0.499992927971239
40
0.749996457831891
40
1
40
1
40
1
40
1
41
1
10
45.2495190528383
20
39.4028438779788
30
0
41
1
10
45.1961438496582
20
39.466570596633
30
0
41
1
10
45.0892452152458
20
39.5938574813521
30
0
41
1
10
44.9284462674359
20
39.784285688494
30
0
41
1
10
44.7672107225036
20
39.9742245016827
30
0
41
1
10
44.6594382234542
20
40.1005320890339
30
0
41
1
10
44.6054809471617
20
40.1636053482986
30
0
0
SPLINE
5
123
100
AcDbEntity
8
1
62
256
6
ByLayer
370
18
48
1
60
0
100
AcDbSpline
70
4
71
3
72
27
73
23
40
0
40
0
40
0
40
0
40
0.0652383946733501
40
0.130638065483636
40
0.196095139742708
40
0.261523020430143
40
0.326855242582583
40
0.392048568000753
40
0.441734265540953
40
0.491557262235946
40
0.541424335699118
40
0.591260555620651
40
0.641012259885579
40
0.69065030905269
40
0.736729147371955
40
0.782957081442031
40
0.829205779694865
40
0.875376635101879
40
0.92140745072077
40
0.95943544754613
40
0.997592327429511
40
1
40
1
40
1
40
1
41
1
10
44.6054809471617
20
40.1636053482986
30
0
41
1
10
44.6025826745852
20
40.1669929084167
30
0
41
1
10
44.5968600938092
20
40.1737376265745
30
0
41
1
10
44.5885023937609
20
40.1837565278641
30
0
41
1
10
44.5804044390668
20
40.1936457107741
30
0
41
1
10
44.5726039457023
20
40.2033663921387
30
0
41
1
10
44.5651420953991
20
40.2128764580835
30
0
41
1
10
44.5586141943031
20
40.221408756185
30
0
41
1
10
44.5529503717942
20
40.2290022475815
30
0
41
1
10
44.5480729061561
20
40.2357071889656
30
0
41
1
10
44.5434739905291
20
40.2422126997816
30
0
41
1
10
44.5391879676059
20
40.2484814261622
30
0
41
1
10
44.5352496262807
20
40.254475589356
30
0
41
1
10
44.5317741988056
20
40.2600275575548
30
0
41
1
10
44.528764214508
20
40.2651303032796
30
0
41
1
10
44.5262129865267
20
40.269783220612
30
0
41
1
10
44.5240766830611
20
40.2740765797765
30
0
41
1
10
44.5223897032109
20
40.2779656826032
30
0
41
1
10
44.5212738520872
20
40.2811917952307
30
0
41
1
10
44.5206158438119
20
40.2838548272013
30
0
41
1
10
44.520550540155
20
40.2852216852295
30
0
41
1
10
44.5204847429026
20
40.2859584229169
30
0
41
1
10
44.5204809472326
20
40.2860020458511
30
0
0
SPLINE
5
124
100
AcDbEntity
8
1
62
256
6
ByLayer
370
18
48
1
60
0
100
AcDbSpline
70
4
71
2
72
6
73
3
40
0
40
0
40
0
40
1
40
1
40
1
41
1
10
45.2495190528384
20
39.6549655818255
30
0
41
1
10
44.9278165138189
20
39.9442650674064
30
0
41
1
10
44.6054809471617
20
40.2326235256898
30
0
0
SPLINE
5
125
100
AcDbEntity
8
1
62
256
6
ByLayer
370
18
48
1
60
0
100
AcDbSpline
70
4
71
3
72
27
73
23
40
0
40
0
40
0
40
0
40
0.0427036315913673
40
0.0855595082902855
40
0.128460389533829
40
0.171303546444268
40
0.213996472038908
40
0.256919817261442
40
0.299986756155164
40
0.34311452513246
40
0.386204360631197
40
0.429146974497741
40
0.482804710109993
40
0.53660152201423
40
0.590425059292424
40
0.644119329693031
40
0.703228207264679
40
0.762513270821889
40
0.821933485091503
40
0.881405648559675
40
0.940810799077623
40
1
40
1
40
1
40
1
41
1
10
45.3245190528383
20
39.6056313904784
30
0
41
1
10
45.3245184205189
20
39.605139848849
30
0
41
1
10
45.3244013972632
20
39.60427005945
30
0
41
1
10
45.3238757360366
20
39.6033087719554
30
0
41
1
10
45.3230035995955
20
39.6026966049539
30
0
41
1
10
45.3217862875905
20
39.6024420342661
30
0
41
1
10
45.3202198099428
20
39.6025545487215
30
0
41
1
10
45.3182961613514
20
39.6030483412308
30
0
41
1
10
45.3160358180533
20
39.6039069590421
30
0
41
1
10
45.3134629812443
20
39.6051147457358
30
0
41
1
10
45.3106021219479
20
39.6066554610117
30
0
41
1
10
45.3072096574941
20
39.6086731972182
30
0
41
1
10
45.3032172242119
20
39.6112559911936
30
0
41
1
10
45.2985883485999
20
39.6144599441563
30
0
41
1
10
45.2936529415718
20
39.6180592659769
30
0
41
1
10
45.2882781236562
20
39.6221482328769
30
0
41
1
10
45.2824636298628
20
39.6267387416118
30
0
41
1
10
45.2762187300996
20
39.6318290153235
30
0
41
1
10
45.2697622251408
20
39.6372363594349
30
0
41
1
10
45.2631373089694
20
39.6429161279068
30
0
41
1
10
45.2563839490947
20
39.6488272694697
30
0
41
1
10
45.2518172470634
20
39.6528983148229
30
0
41
1
10
45.2495190528384
20
39.6549655818255
30
0
0
SPLINE
5
126
100
AcDbEntity
8
1
62
256
6
ByLayer
370
18
48
1
60
0
100
AcDbSpline
70
4
71
3
72
25
73
21
40
0
40
0
40
0
40
0
40
0.0665348053289725
40
0.133253511038215
40
0.200036318409057
40
0.266784017829262
40
0.333421599346732
40
0.399902183275319
40
0.458180383403303
40
0.516627698393519
40
0.575094322145945
40
0.633468840631344
40
0.691685814423925
40
0.737235158267764
40
0.782931479159575
40
0.828650901543431
40
0.874296056271853
40
0.919802351847693
40
0.959902183276168
40
1
40
1
40
1
40
1
41
1
10
45.2495190528383
20
39.7475823101069
30
0
41
1
10
45.2521270009913
20
39.7446466782893
30
0
41
1
10
45.25727747383
20
39.7388074174155
30
0
41
1
10
45.2648024206905
20
39.730151558913
30
0
41
1
10
45.2720931889821
20
39.7216289643706
30
0
41
1
10
45.2791119508313
20
39.7132771838376
30
0
41
1
10
45.2858174386574
20
39.7051369155218
30
0
41
1
10
45.2919144987708
20
39.6975649194795
30
0
41
1
10
45.297420692168
20
39.6905543518516
30
0
41
1
10
45.3023582393922
20
39.6840943658925
30
0
41
1
10
45.3069344458081
20
39.6779106921653
30
0
41
1
10
45.3110980432707
20
39.6720574989521
30
0
41
1
10
45.3145351454254
20
39.6669783711668
30
0
41
1
10
45.3173129979663
20
39.6626247903557
30
0
41
1
10
45.3195212046098
20
39.6589251079621
30
0
41
1
10
45.3213706464602
20
39.6555392673465
30
0
41
1
10
45.3228303183681
20
39.6525053855778
30
0
41
1
10
45.323827505454
20
39.6499650439843
30
0
41
1
10
45.3243954878609
20
39.6478940608089
30
0
41
1
10
45.3245174294624
20
39.6468036868845
30
0
41
1
10
45.3245190528383
20
39.6463150218744
30
0
0
SPLINE
5
127
100
AcDbEntity
8
1
62
256
6
ByLayer
370
18
48
1
60
0
100
AcDbSpline
70
4
71
3
72
11
73
7
40
0
40
0
40
0
40
0
40
0.249997648594072
40
0.499995288931463
40
0.749997649039619
40
1
40
1
40
1
40
1
41
1
10
44.6054809471617
20
40.4662642256101
30
0
41
1
10
44.6593740533067
20
40.4066425746535
30
0
41
1
10
44.7670493568559
20
40.2872662587604
30
0
41
1
10
44.9282339929495
20
40.1078049405818
30
0
41
1
10
45.0890801349205
20
39.927936776706
30
0
41
1
10
45.1960779468055
20
39.8077463340019
30
0
41
1
10
45.2495190528383
20
39.7475823101069
30
0
0
SPLINE
5
128
100
AcDbEntity
8
1
62
256
6
ByLayer
370
18
48
1
60
0
100
AcDbSpline
70
4
71
3
72
28
73
24
40
0
40
0
40
0
40
0
40
0.0573437256041465
40
0.11486321421852
40
0.172439367798242
40
0.229976162081025
40
0.287404691224951
40
0.344687607168112
40
0.395464956591966
40
0.446404523579326
40
0.497368794099874
40
0.548250371124354
40
0.598978932760783
40
0.64194874691881
40
0.68506479874546
40
0.728216744446502
40
0.771306646431131
40
0.814254454861559
40
0.857318040018988
40
0.900540141757127
40
0.943821291483626
40
0.987053217608012
40
1
40
1
40
1
40
1
41
1
10
44.6054809471617
20
40.5115897539126
30
0
41
1
10
44.6029607272766
20
40.5139244259609
30
0
41
1
10
44.5979556984847
20
40.5185339878844
30
0
41
1
10
44.5905609080231
20
40.5252645519417
30
0
41
1
10
44.5833093201838
20
40.5317772674538
30
0
41
1
10
44.5762383125603
20
40.5380335439055
30
0
41
1
10
44.5693884963139
20
40.5439911783256
30
0
41
1
10
44.5630422360122
20
40.5494025220856
30
0
41
1
10
44.5571974622763
20
40.5542760036276
30
0
41
1
10
44.5518425579206
20
40.5586318664163
30
0
41
1
10
44.5467728402231
20
40.5626359327685
30
0
41
1
10
44.5420362303204
20
40.5662427380413
30
0
41
1
10
44.5378957609208
20
40.5692512736405
30
0
41
1
10
44.534326706585
20
40.5716964354502
30
0
41
1
10
44.5312753806832
20
40.5736438083511
30
0
41
1
10
44.5285584369938
20
40.5752173543148
30
0
41
1
10
44.5262033295157
20
40.5763958968684
30
0
41
1
10
44.5242317724554
20
40.5771611301676
30
0
41
1
10
44.5226719927042
20
40.5774872054467
30
0
41
1
10
44.5215201028723
20
40.5773830241591
30
0
41
1
10
44.5207729652582
20
40.5768597827039
30
0
41
1
10
44.5205186864368
20
40.5761347461356
30
0
41
1
10
44.5204831853007
20
40.5756172030453
30
0
41
1
10
44.5204809472948
20
40.5754919456873
30
0
0
SPLINE
5
129
100
AcDbEntity
8
1
62
256
6
ByLayer
370
18
48
1
60
0
100
AcDbSpline
70
4
71
3
72
11
73
7
40
0
40
0
40
0
40
0
40
0.24999962755804
40
0.499999253843646
40
0.749999627624987
40
1
40
1
40
1
40
1
41
1
10
44.6054809471617
20
40.5115897539126
30
0
41
1
10
44.6592249401346
20
40.4618117060123
30
0
41
1
10
44.766676110081
20
40.3622027173512
30
0
41
1
10
44.927743619552
20
40.2126317836138
30
0
41
1
10
45.0886987587383
20
40.0628992663572
30
0
41
1
10
45.1959250396029
20
39.9629669237567
30
0
41
1
10
45.2495190528383
20
39.9129733564589
30
0
0
SPLINE
5
12A
100
AcDbEntity
8
1
62
256
6
ByLayer
370
18
48
1
60
0
100
AcDbSpline
70
4
71
3
72
27
73
23
40
0
40
0
40
0
40
0
40
0.0582209871287239
40
0.116622076661776
40
0.175081594148385
40
0.233501213628939
40
0.291810097387369
40
0.349969439886354
40
0.401391546953157
40
0.452977741109842
40
0.504589112899079
40
0.556117017281292
40
0.607490084473349
40
0.650972696389677
40
0.694603197524129
40
0.738269656113461
40
0.781873058481717
40
0.825332866202482
40
0.868943580681222
40
0.912664678531751
40
0.956387258858597
40
1
40
1
40
1
40
1
41
1
10
45.2495190528383
20
39.9129733564589
30
0
41
1
10
45.2517781521482
20
39.9108657475363
30
0
41
1
10
45.2562630735393
20
39.9067031212165
30
0
41
1
10
45.2628849158794
20
39.900621289477
30
0
41
1
10
45.2693730940058
20
39.8947316188818
30
0
41
1
10
45.2756934507626
20
39.8890685918065
30
0
41
1
10
45.2818088449531
20
39.8836698673432
30
0
41
1
10
45.2874622925784
20
39.8787634206282
30
0
41
1
10
45.2926565471984
20
39.8743408865427
30
0
41
1
10
45.2974033157311
20
39.8703831286383
30
0
41
1
10
45.3018885963881
20
39.8667349652672
30
0
41
1
10
45.3060692973003
20
39.8634367292817
30
0
41
1
10
45.3097122506767
20
39.8606724469979
30
0
41
1
10
45.3128406580123
20
39.8584110285635
30
0
41
1
10
45.3155037001428
20
39.8565945805339
30
0
41
1
10
45.3178623730748
20
39.8551078136007
30
0
41
1
10
45.3198923145501
20
39.8539698471354
30
0
41
1
10
45.321573379955
20
39.8531980382206
30
0
41
1
10
45.322882463482
20
39.8528126126167
30
0
41
1
10
45.3238229142105
20
39.8528058992329
30
0
41
1
10
45.3243915074675
20
39.8531750431116
30
0
41
1
10
45.324518253908
20
39.8536714485058
30
0
41
1
10
45.3245190528383
20
39.853981763269
30
0
0
SPLINE
5
12B
100
AcDbEntity
8
1
62
256
6
ByLayer
370
18
48
1
60
0
100
AcDbSpline
70
4
71
3
72
26
73
22
40
0
40
0
40
0
40
0
40
0.0466099387316803
40
0.093406611041024
40
0.140292566155822
40
0.187137700185592
40
0.233788450331581
40
0.280251269352914
40
0.326828721739892
40
0.373467415275526
40
0.420087199653217
40
0.466585613060842
40
0.525589209095703
40
0.584749728689278
40
0.644026718446097
40
0.703345818877535
40
0.762603662799941
40
0.821672331908128
40
0.881103005696693
40
0.940564258683367
40
1
40
1
40
1
40
1
41
1
10
45.3245190528383
20
39.878081337987
30
0
41
1
10
45.3245155724576
20
39.878408683041
30
0
41
1
10
45.3243524120677
20
39.8792163364716
30
0
41
1
10
45.3236237244188
20
39.8809016297435
30
0
41
1
10
45.3224486396776
20
39.8830166977954
30
0
41
1
10
45.3208501672867
20
39.8855324130624
30
0
41
1
10
45.3188502021752
20
39.8884209735484
30
0
41
1
10
45.316468944344
20
39.8916598845394
30
0
41
1
10
45.3137441664191
20
39.8952120466625
30
0
41
1
10
45.3106995672307
20
39.8990534494519
30
0
41
1
10
45.3073671091951
20
39.9031500507482
30
0
41
1
10
45.3034489098726
20
39.907864136026
30
0
41
1
10
45.2988792385328
20
39.9132509878433
30
0
41
1
10
45.2936065345248
20
39.9193515095925
30
0
41
1
10
45.2880132322171
20
39.9257219107712
30
0
41
1
10
45.2821403562553
20
39.9323211691246
30
0
41
1
10
45.2760286502116
20
39.939108525921
30
0
41
1
10
45.2696934491126
20
39.9460710096326
30
0
41
1
10
45.2631546820778
20
39.953189980307
30
0
41
1
10
45.2564256892773
20
39.960453563262
30
0
41
1
10
45.2518386531886
20
39.9653667757306
30
0
41
1
10
45.2495190528383
20
39.9678417894922
30
0
0
SPLINE
5
12C
100
AcDbEntity
8
1
62
256
6
ByLayer
370
18
48
1
60
0
100
AcDbSpline
70
4
71
3
72
11
73
7
40
0
40
0
40
0
40
0
40
0.249998382316818
40
0.499996770671808
40
0.749998382607667
40
1
40
1
40
1
40
1
41
1
10
45.2495190528383
20
39.9678417894922
30
0
41
1
10
45.1960275741395
20
40.0249213714663
30
0
41
1
10
45.0889548686089
20
40.1389679264481
30
0
41
1
10
44.9280731214069
20
40.3096977328272
30
0
41
1
10
44.7669269482369
20
40.4800962987123
30
0
41
1
10
44.6593250146811
20
40.5934800092824
30
0
41
1
10
44.6054809471617
20
40.6501174514861
30
0
0
SPLINE
5
12D
100
AcDbEntity
8
1
62
256
6
ByLayer
370
18
48
1
60
0
100
AcDbSpline
70
4
71
3
72
27
73
23
40
0
40
0
40
0
40
0
40
0.068614776950459
40
0.137269694724174
40
0.205874280414271
40
0.258778950007742
40
0.311740511548783
40
0.364691278036954
40
0.417581210723229
40
0.471159340669774
40
0.524896248799711
40
0.578653792112374
40
0.63232719021947
40
0.685851900780494
40
0.729936997055139
40
0.774170033451613
40
0.818431763715799
40
0.862623738417935
40
0.906674282781181
40
0.951001647585962
40
0.995521556389813
40
1
40
1
40
1
40
1
41
1
10
44.6054809471617
20
40.6501174514861
30
0
41
1
10
44.6024538720852
20
40.653301419373
30
0
41
1
10
44.5964774204944
20
40.6596086371671
30
0
41
1
10
44.5877369523779
20
40.6688956237888
30
0
41
1
10
44.5799124125979
20
40.6772722088632
30
0
41
1
10
44.5729640990536
20
40.6847657048386
30
0
41
1
10
44.5668425141054
20
40.691414416238
30
0
41
1
10
44.5609480731071
20
40.6978669069821
30
0
41
1
10
44.555283538386
20
40.7041227222376
30
0
41
1
10
44.5498790916557
20
40.7101530123807
30
0
41
1
10
44.5447692202905
20
40.7159235821544
30
0
41
1
10
44.5400148540586
20
40.7213696445638
30
0
41
1
10
44.5356663956401
20
40.7264384809336
30
0
41
1
10
44.5319967199735
20
40.7308117157627
30
0
41
1
10
44.5289606993775
20
40.7345285479911
30
0
41
1
10
44.5264860537371
20
40.7376555001079
30
0
41
1
10
44.5243941721984
20
40.7404139174636
30
0
41
1
10
44.522712115949
20
40.7427729339183
30
0
41
1
10
44.521477972142
20
40.7446928966523
30
0
41
1
10
44.520679556888
20
40.7461844492261
30
0
41
1
10
44.5205684017129
20
40.7467827163015
30
0
41
1
10
44.5204878856752
20
40.7471191613276
30
0
41
1
10
44.5204809471654
20
40.747149492938
30
0
0
SPLINE
5
12E
100
AcDbEntity
8
1
62
256
6
ByLayer
370
18
48
1
60
0
100
AcDbSpline
70
4
71
3
72
11
73
7
40
0
40
0
40
0
40
0
40
0.249999345204986
40
0.499998692817582
40
0.749999345319608
40
1
40
1
40
1
40
1
41
1
10
45.2495190528384
20
40.0497606679231
30
0
41
1
10
45.1959527024936
20
40.1018045946708
30
0
41
1
10
45.0887679128677
20
40.205820773101
30
0
41
1
10
44.9278326445919
20
40.3616283852828
30
0
41
1
10
44.7667439057562
20
40.5172250417036
30
0
41
1
10
44.6592519691254
20
40.6208190691421
30
0
41
1
10
44.6054809471617
20
40.6725814719131
30
0
0
SPLINE
5
12F
100
AcDbEntity
8
1
62
256
6
ByLayer
370
18
48
1
60
0
100
AcDbSpline
70
4
71
3
72
27
73
23
40
0
40
0
40
0
40
0
40
0.0443296814760853
40
0.0888311554311509
40
0.133398792136823
40
0.177914902206928
40
0.222256907019412
40
0.266614023991027
40
0.311099740926245
40
0.355648279389015
40
0.400170332695268
40
0.444558015639007
40
0.494728813327374
40
0.545035503311809
40
0.595440792969644
40
0.645879982746894
40
0.696265022453108
40
0.746488208201094
40
0.809811106303182
40
0.873223979782869
40
0.936653868068015
40
1
40
1
40
1
40
1
41
1
10
45.3245190528383
20
39.9809308839425
30
0
41
1
10
45.3245171259985
20
39.9808163127694
30
0
41
1
10
45.3243789237674
20
39.9807206141675
30
0
41
1
10
45.3237600743283
20
39.9809859236462
30
0
41
1
10
45.3227485648659
20
39.9816438814974
30
0
41
1
10
45.3213555285226
20
39.9826858930913
30
0
41
1
10
45.3195884271316
20
39.9841065139593
30
0
41
1
10
45.3174531540587
20
39.985901269584
30
0
41
1
10
45.3149803844198
20
39.9880402381074
30
0
41
1
10
45.3121947378919
20
39.9905001079383
30
0
41
1
10
45.3091251629769
20
39.9932536104303
30
0
41
1
10
45.3056481745955
20
39.9964121172643
30
0
41
1
10
45.3017400128296
20
40.000001697491
30
0
41
1
10
45.2973908639739
20
40.0040340607838
30
0
41
1
10
45.2927846715143
20
40.0083383655243
30
0
41
1
10
45.2879542885308
20
40.0128824425674
30
0
41
1
10
45.2829323278962
20
40.0176343510228
30
0
41
1
10
45.2772902903402
20
40.0230008409742
30
0
41
1
10
45.2709915689019
20
40.0290235732301
30
0
41
1
10
45.2640127151708
20
40.0357310638269
30
0
41
1
10
45.2568505047555
20
40.0426468725179
30
0
41
1
10
45.2519793090323
20
40.0473701910415
30
0
41
1
10
45.2495190528384
20
40.0497606679231
30
0
0
SPLINE
5
130
100
AcDbEntity
8
1
62
256
6
ByLayer
370
18
48
1
60
0
100
AcDbSpline
70
4
71
3
72
26
73
22
40
0
40
0
40
0
40
0
40
0.0696926540687544
40
0.139429769175721
40
0.209110160538184
40
0.263015242760764
40
0.316985729741809
40
0.370943328853833
40
0.424830814614832
40
0.477070463532583
40
0.529468143298394
40
0.581888412646857
40
0.634226827562683
40
0.68641662451949
40
0.730266483958869
40
0.774264634414777
40
0.818294594410832
40
0.862257436312216
40
0.906077583834664
40
0.95303949156063
40
1
40
1
40
1
40
1
41
1
10
45.2495190528383
20
40.067936485844
30
0
41
1
10
45.2522317184299
20
40.0651803395951
30
0
41
1
10
45.2575890045846
20
40.0597300793046
30
0
41
1
10
45.2654295863723
20
40.0517325429691
30
0
41
1
10
45.2724563313354
20
40.0445432762875
30
0
41
1
10
45.2787009732312
20
40.0381345239821
30
0
41
1
10
45.2842058989227
20
40.032467664158
30
0
41
1
10
45.2895002669296
20
40.026998502839
30
0
41
1
10
45.2945052979007
20
40.021807343041
30
0
41
1
10
45.29920334047
20
40.0169114946256
30
0
41
1
10
45.3035783541656
20
40.0123270182435
30
0
41
1
10
45.3076474918503
20
40.008034607714
30
0
41
1
10
45.3113680307603
20
40.0040772135122
30
0
41
1
10
45.3145254661611
20
40.0006826810166
30
0
41
1
10
45.3171518771746
20
39.9978209762247
30
0
41
1
10
45.3193041108919
20
39.9954377281189
30
0
41
1
10
45.3211205335049
20
39.9933813073472
30
0
41
1
10
45.322577093164
20
39.9916769141601
30
0
41
1
10
45.3236746194384
20
39.9903184423742
30
0
41
1
10
45.3243605785039
20
39.9893585627124
30
0
41
1
10
45.3245178142462
20
39.9890111093497
30
0
41
1
10
45.3245190528383
20
39.9889137686264
30
0
0
SPLINE
5
131
100
AcDbEntity
8
1
62
256
6
ByLayer
370
18
48
1
60
0
100
AcDbSpline
70
4
71
3
72
11
73
7
40
0
40
0
40
0
40
0
40
0.249998976029811
40
0.499997948544235
40
0.749998976215789
40
1
40
1
40
1
40
1
41
1
10
44.6054809471617
20
40.718488502244
30
0
41
1
10
44.6592842906494
20
40.6644528185242
30
0
41
1
10
44.7668246727835
20
40.5562937125882
30
0
41
1
10
44.9279387068391
20
40.3937936262374
30
0
41
1
10
45.0888504026013
20
40.231025405428
30
0
41
1
10
45.1959858280641
20
40.1223297320835
30
0
41
1
10
45.2495190528383
20
40.067936485844
30
0
0
SPLINE
5
132
100
AcDbEntity
8
1
62
256
6
ByLayer
370
18
48
1
60
0
100
AcDbSpline
70
4
71
3
72
28
73
24
40
0
40
0
40
0
40
0
40
0.0526668691941245
40
0.105377287432641
40
0.15808096371408
40
0.210738631513092
40
0.265147527994578
40
0.319626666331859
40
0.374091297662741
40
0.428480385355229
40
0.479443471464572
40
0.53056101013921
40
0.581701022481887
40
0.632761401769079
40
0.683676406659442
40
0.72686478740247
40
0.770199684645729
40
0.813567278211185
40
0.856869718642871
40
0.900030786786453
40
0.943373006867333
40
0.986886929312634
40
1
40
1
40
1
40
1
41
1
10
44.6054809471617
20
1.28151149775602
30
0
41
1
10
44.6031637236578
20
1.27918420256829
30
0
41
1
10
44.5985692910721
20
1.27456904256925
30
0
41
1
10
44.5917955584716
20
1.26776238243278
30
0
41
1
10
44.5851626778705
20
1.26109505850968
30
0
41
1
10
44.5786168753283
20
1.25451311778077
30
0
41
1
10
44.57218253584
20
1.24804112204745
30
0
41
1
10
44.5658897811752
20
1.24170953118856
30
0
41
1
10
44.5598391022255
20
1.23561966772111
30
0
41
1
10
44.5541844634553
20
1.22992674627832
30
0
41
1
10
44.5489367386439
20
1.22464202351987
30
0
41
1
10
44.5441012386023
20
1.21977122966919
30
0
41
1
10
44.5395972279133
20
1.21523331612174
30
0
41
1
10
44.5354710642075
20
1.2110752253882
30
0
41
1
10
44.5319501916232
20
1.20752641185716
30
0
41
1
10
44.5290036551544
20
1.20455602051692
30
0
41
1
10
44.5265727683351
20
1.20210514741383
30
0
41
1
10
44.5245110152049
20
1.2000262027464
30
0
41
1
10
44.5228442153701
20
1.19834533647704
30
0
41
1
10
44.5215971387365
20
1.1970876423643
30
0
41
1
10
44.520790027016
20
1.19627362939226
30
0
41
1
10
44.520542167414
20
1.19602372687514
30
0
41
1
10
44.5204878581837
20
1.19596888355111
30
0
41
1
10
44.5204808263089
20
1.19596177210003
30
0
0
SPLINE
5
133
100
AcDbEntity
8
1
62
256
6
ByLayer
370
18
48
1
60
0
100
AcDbSpline
70
4
71
3
72
11
73
7
40
0
40
0
40
0
40
0
40
0.249998948294772
40
0.499997900476775
40
0.749998948480631
40
1
40
1
40
1
40
1
41
1
10
45.2495190528384
20
1.93206351415602
30
0
41
1
10
45.1959862725017
20
1.87767071947505
30
0
41
1
10
45.0888517370436
20
1.76897594775777
30
0
41
1
10
44.9279404891471
20
1.60620817399266
30
0
41
1
10
44.7668260117178
20
1.44370763466837
30
0
41
1
10
44.6592847373329
20
1.33554763006989
30
0
41
1
10
44.6054809471617
20
1.28151149775602
30
0
0
SPLINE
5
134
100
AcDbEntity
8
1
62
256
6
ByLayer
370
18
48
1
60
0
100
AcDbSpline
70
4
71
3
72
26
73
22
40
0
40
0
40
0
40
0
40
0.0453852814136416
40
0.0909504625935201
40
0.136593229314302
40
0.182189318157563
40
0.227600626244408
40
0.272923229169549
40
0.318367314667055
40
0.363873788273136
40
0.409357968941941
40
0.454714292542762
40
0.509099182279826
40
0.563629694264607
40
0.618267486523139
40
0.67294344590828
40
0.727562168634585
40
0.782006038705887
40
0.854644098646468
40
0.927347257785442
40
1
40
1
40
1
40
1
41
1
10
45.3245190528383
20
2.01108623137361
30
0
41
1
10
45.3245163838119
20
2.01099071320837
30
0
41
1
10
45.3243662445359
20
2.01065635329431
30
0
41
1
10
45.3236948666253
20
2.00971328498566
30
0
41
1
10
45.3226050759304
20
2.00835811632528
30
0
41
1
10
45.3211136706851
20
2.00660933780004
30
0
41
1
10
45.3192349324561
20
2.00448272663409
30
0
41
1
10
45.3169818757776
20
2.00199198643803
30
0
41
1
10
45.3143891142056
20
1.99917141747175
30
0
41
1
10
45.3114808965895
20
1.99604543827768
30
0
41
1
10
45.3082878221908
20
1.9926451587155
30
0
41
1
10
45.3046035981291
20
1.9887514904019
30
0
41
1
10
45.3003843680161
20
1.98432288198304
30
0
41
1
10
45.2956007083175
20
1.97933192332983
30
0
41
1
10
45.290531050132
20
1.97406890013036
30
0
41
1
10
45.2852121318906
20
1.96857031102815
30
0
41
1
10
45.279680449579
20
1.96287241763408
30
0
41
1
10
45.2733246829755
20
1.95634636510668
30
0
41
1
10
45.2660886461205
20
1.94894043455233
30
0
41
1
10
45.2579291819573
20
1.94061614759057
30
0
41
1
10
45.2523472441089
20
1.9349370228138
30
0
41
1
10
45.2495190528383
20
1.93206351415602
30
0
0
SPLINE
5
135
100
AcDbEntity
8
1
62
256
6
ByLayer
370
18
48
1
60
0
100
AcDbSpline
70
4
71
3
72
26
73
22
40
0
40
0
40
0
40
0
40
0.0712253998987473
40
0.142502138013851
40
0.213711226983086
40
0.26910153547036
40
0.324572925238181
40
0.380026999085763
40
0.435393659032433
40
0.485029663213874
40
0.534819279262444
40
0.584633553660377
40
0.634370753925308
40
0.683962664057103
40
0.733998323815523
40
0.784269706253536
40
0.834598609688394
40
0.884826197385848
40
0.934824955495209
40
0.9674124648193
40
1
40
1
40
1
40
1
41
1
10
45.2495190528383
20
1.95023933207683
30
0
41
1
10
45.2522862000733
20
1.95292803602305
30
0
41
1
10
45.2577544553262
20
1.9582289313472
30
0
41
1
10
45.265768692023
20
1.96596113731884
30
0
41
1
10
45.2729675451701
20
1.97286952195172
30
0
41
1
10
45.2793765658126
20
1.9789869384865
30
0
41
1
10
45.2850349242775
20
1.98435944203149
30
0
41
1
10
45.2904687392007
20
1.98948801559927
30
0
41
1
10
45.2954666039719
20
1.99417274252563
30
0
41
1
10
45.3000283860363
20
1.99841543637287
30
0
41
1
10
45.3041643685673
20
2.00222886534966
30
0
41
1
10
45.3080149443666
20
2.00574255825298
30
0
41
1
10
45.3115407006643
20
2.00891858843007
30
0
41
1
10
45.3147185434459
20
2.01173392192569
30
0
41
1
10
45.3175021800597
20
2.01414246996003
30
0
41
1
10
45.3198683463292
20
2.01612257486567
30
0
41
1
10
45.3217887915535
20
2.01764963878645
30
0
41
1
10
45.3232334371403
20
2.01869713658101
30
0
41
1
10
45.3240620505675
20
2.01917370714013
30
0
41
1
10
45.3244458538233
20
2.01925290042433
30
0
41
1
10
45.3245189668516
20
2.0191545709651
30
0
41
1
10
45.3245190528383
20
2.01906911605745
30
0
0
SPLINE
5
136
100
AcDbEntity
8
1
62
256
6
ByLayer
370
18
48
1
60
0
100
AcDbSpline
70
4
71
3
72
11
73
7
40
0
40
0
40
0
40
0
40
0.249999362386756
40
0.499998722595197
40
0.749999362501421
40
1
40
1
40
1
40
1
41
1
10
44.6054809471617
20
1.3274185280869
30
0
41
1
10
44.6592516911704
20
1.37918066329457
30
0
41
1
10
44.7667430724162
20
1.48277415488201
30
0
41
1
10
44.9278315348542
20
1.63837054158817
30
0
41
1
10
45.0887670816406
20
1.79417842057141
30
0
41
1
10
45.195952425595
20
1.8981951363093
30
0
41
1
10
45.2495190528383
20
1.95023933207683
30
0
0
SPLINE
5
137
100
AcDbEntity
8
1
62
256
6
ByLayer
370
18
48
1
60
0
100
AcDbSpline
70
4
71
3
72
27
73
23
40
0
40
0
40
0
40
0
40
0.060928387095801
40
0.122050722257571
40
0.183235689929579
40
0.244377286766367
40
0.305399386145976
40
0.36626075478115
40
0.41832034229063
40
0.470542996782548
40
0.522789270908925
40
0.574951315775123
40
0.626959914799033
40
0.670502122257596
40
0.714191885128351
40
0.757915323024146
40
0.801573834114229
40
0.845089743042253
40
0.888772712141131
40
0.93262552713362
40
0.976538126493578
40
1
40
1
40
1
40
1
41
1
10
44.6054809471617
20
1.3274185280869
30
0
41
1
10
44.602802727348
20
1.3248400744747
30
0
41
1
10
44.5974912066784
20
1.31974096929178
30
0
41
1
10
44.5896656453097
20
1.31227146138597
30
0
41
1
10
44.5820163972106
20
1.30501787007992
30
0
41
1
10
44.5745853878693
20
1.2980228953431
30
0
41
1
10
44.5674181971308
20
1.291333115115
30
0
41
1
10
44.5608826859175
20
1.28529259727414
30
0
41
1
10
44.5549641276232
20
1.27988178357123
30
0
41
1
10
44.5496351789486
20
1.27506766804689
30
0
41
1
10
44.5446161641614
20
1.27059746886799
30
0
41
1
10
44.5399562285052
20
1.2665193697629
30
0
41
1
10
44.5359284283345
20
1.26307271924205
30
0
41
1
10
44.5325006450107
20
1.26022001446254
30
0
41
1
10
44.5296120211926
20
1.25789418966224
30
0
41
1
10
44.5270742286227
20
1.25593987797581
30
0
41
1
10
44.5249159468973
20
1.25438278034383
30
0
41
1
10
44.5231591546497
20
1.25324352605167
30
0
41
1
10
44.52183721832
20
1.25255457875945
30
0
41
1
10
44.5209442387022
20
1.25230733789731
30
0
41
1
10
44.5205638462348
20
1.25247996675348
30
0
41
1
10
44.5204877627249
20
1.25274009352075
30
0
41
1
10
44.5204809472415
20
1.25285059403129
30
0
0
SPLINE
5
138
100
AcDbEntity
8
1
62
256
6
ByLayer
370
18
48
1
60
0
100
AcDbSpline
70
4
71
3
72
11
73
7
40
0
40
0
40
0
40
0
40
0.249998425382244
40
0.499996845308296
40
0.749998425673382
40
1
40
1
40
1
40
1
41
1
10
44.6054809471617
20
1.34988254851391
30
0
41
1
10
44.6593243271848
20
1.40651926759153
30
0
41
1
10
44.7669248879804
20
1.51990152909743
30
0
41
1
10
44.928070380272
20
1.69029936350243
30
0
41
1
10
45.0889528173375
20
1.8610298900529
30
0
41
1
10
45.1960268911356
20
1.97507789975343
30
0
41
1
10
45.2495190528383
20
2.03215821050777
30
0
0
SPLINE
5
139
100
AcDbEntity
8
1
62
256
6
ByLayer
370
18
48
1
60
0
100
AcDbSpline
70
4
71
3
72
26
73
22
40
0
40
0
40
0
40
0
40
0.0679224551615427
40
0.135883077352617
40
0.203796525139107
40
0.256086039588626
40
0.308427970471709
40
0.360760510740236
40
0.41303720654846
40
0.468136212652667
40
0.523398344928026
40
0.578681298602112
40
0.633877447927657
40
0.688920954836923
40
0.733161416948386
40
0.777545334118888
40
0.821955933079322
40
0.86629788538919
40
0.910503039641061
40
0.95525260229088
40
1
40
1
40
1
40
1
41
1
10
45.2495190528383
20
2.03215821050777
30
0
41
1
10
45.2521706829271
20
2.03498740972073
30
0
41
1
10
45.2574046274249
20
2.04059663572687
30
0
41
1
10
45.2650552088861
20
2.04886943706894
30
0
41
1
10
45.2718984315712
20
2.05634408223319
30
0
41
1
10
45.2779710611795
20
2.0630430323222
30
0
41
1
10
45.2833178156212
20
2.06899791153709
30
0
41
1
10
45.2884673350326
20
2.07479471007102
30
0
41
1
10
45.2934858654764
20
2.0805124831204
30
0
41
1
10
45.2983372249243
20
2.08611953186378
30
0
41
1
10
45.3029771939659
20
2.09157515591744
30
0
41
1
10
45.3072863873325
20
2.09674654494522
30
0
41
1
10
45.3112181132596
20
2.10158532123936
30
0
41
1
10
45.31450178749
20
2.10575790262375
30
0
41
1
10
45.3171892075163
20
2.10930687866502
30
0
41
1
10
45.3193557763078
20
2.1122983174153
30
0
41
1
10
45.3211828537958
20
2.11497570834845
30
0
41
1
10
45.3226436910019
20
2.11730818797801
30
0
41
1
10
45.3237152499116
20
2.11927328833241
30
0
41
1
10
45.3243699527603
20
2.12084093791891
30
0
41
1
10
45.3245173824685
20
2.12160609510804
30
0
41
1
10
45.3245190528383
20
2.12191866201299
30
0
0
SPLINE
5
13A
100
AcDbEntity
8
1
62
256
6
ByLayer
370
18
48
1
60
0
100
AcDbSpline
70
4
71
3
72
27
73
23
40
0
40
0
40
0
40
0
40
0.0434344507700895
40
0.0870314178041863
40
0.130683616364593
40
0.174280578198929
40
0.217715024591623
40
0.261271509904557
40
0.304963963160583
40
0.348718781399956
40
0.392441961884933
40
0.436024300288522
40
0.491607135518995
40
0.547364867640293
40
0.603220682232121
40
0.659051244352031
40
0.714695361247936
40
0.771667110377554
40
0.828744163344663
40
0.885877871283055
40
0.942994769041832
40
1
40
1
40
1
40
1
41
1
10
45.3245190528383
20
2.14601823673101
30
0
41
1
10
45.324517804115
20
2.14632683666991
30
0
41
1
10
45.3243906157673
20
2.14682063953456
30
0
41
1
10
45.3238202282188
20
2.14718531144754
30
0
41
1
10
45.3228811012745
20
2.14717841695722
30
0
41
1
10
45.3215792086463
20
2.14679952112074
30
0
41
1
10
45.3199159331323
20
2.14604559771228
30
0
41
1
10
45.3178901391759
20
2.14491171463492
30
0
41
1
10
45.3155277831698
20
2.14342182152442
30
0
41
1
10
45.3128535312665
20
2.14159639389619
30
0
41
1
10
45.309894292735
20
2.13945777263221
30
0
41
1
10
45.3063735719472
20
2.13679867337763
30
0
41
1
10
45.3022164198371
20
2.13353162796523
30
0
41
1
10
45.2973761445266
20
2.12959715776043
30
0
41
1
10
45.2922184026011
20
2.12529067340405
30
0
41
1
10
45.2867939493651
20
2.12066060080989
30
0
41
1
10
45.2810943009877
20
2.11570335778303
30
0
41
1
10
45.2751405376229
20
2.11043911429813
30
0
41
1
10
45.2689518200786
20
2.10488825272933
30
0
41
1
10
45.2626018236952
20
2.09912000485078
30
0
41
1
10
45.2561205273454
20
2.09316488799206
30
0
41
1
10
45.2517308874982
20
2.0890901731419
30
0
41
1
10
45.2495190528383
20
2.08702664354108
30
0
0
SPLINE
5
13B
100
AcDbEntity
8
1
62
256
6
ByLayer
370
18
48
1
60
0
100
AcDbSpline
70
4
71
3
72
11
73
7
40
0
40
0
40
0
40
0
40
0.249999617521803
40
0.49999923644992
40
0.749999617588735
40
1
40
1
40
1
40
1
41
1
10
45.2495190528383
20
2.08702664354108
30
0
41
1
10
45.1959252014269
20
2.03703322719203
30
0
41
1
10
45.0886992444381
20
1.93710118616213
30
0
41
1
10
44.9277442677672
20
1.78736881886378
30
0
41
1
10
44.7666765966874
20
1.63779773386762
30
0
41
1
10
44.6592251024118
20
1.53818844428623
30
0
41
1
10
44.6054809471617
20
1.48841024608737
30
0
0
SPLINE
5
13C
100
AcDbEntity
8
1
62
256
6
ByLayer
370
18
48
1
60
0
100
AcDbSpline
70
4
71
3
72
28
73
24
40
0
40
0
40
0
40
0
40
0.0667693167525056
40
0.133573026522491
40
0.200334884178898
40
0.251602244570726
40
0.302915296681456
40
0.354220493845097
40
0.405477133098623
40
0.452504999334295
40
0.499665141278144
40
0.546868981138355
40
0.594044595942138
40
0.641139517179978
40
0.688123790593281
40
0.733180840401522
40
0.778386786827581
40
0.823617467862736
40
0.868774116069464
40
0.913789685874134
40
0.951605106367255
40
0.989589017314302
40
1
40
1
40
1
40
1
41
1
10
44.6054809471617
20
1.53373577438989
30
0
41
1
10
44.6025263341513
20
1.53046740590504
30
0
41
1
10
44.5966955440002
20
1.52397852727793
30
0
41
1
10
44.5881770444417
20
1.5143821731741
30
0
41
1
10
44.5805635646331
20
1.50568928118876
30
0
41
1
10
44.5738107689734
20
1.49787817553464
30
0
41
1
10
44.5678672874363
20
1.49091768548683
30
0
41
1
10
44.5621364926994
20
1.48411421877793
30
0
41
1
10
44.5567918261598
20
1.47767231826101
30
0
41
1
10
44.5518296893616
20
1.47159211664956
30
0
41
1
10
44.5472441049736
20
1.46587200538785
30
0
41
1
10
44.5429136858331
20
1.46035866183892
30
0
41
1
10
44.538869789828
20
1.45508569383034
30
0
41
1
10
44.5351441601268
20
1.4500870754808
30
0
41
1
10
44.5318102703571
20
1.44545556474003
30
0
41
1
10
44.528883044312
20
1.44120744472068
30
0
41
1
10
44.5263676209178
20
1.4373515950013
30
0
41
1
10
44.5242495278647
20
1.43385949044531
30
0
41
1
10
44.5225622856536
20
1.43077179596068
30
0
41
1
10
44.5214069752665
20
1.42827063750318
30
0
41
1
10
44.52071860404
20
1.42629789890363
30
0
41
1
10
44.5205422856332
20
1.42519926742632
30
0
41
1
10
44.5204889428499
20
1.42462795037486
30
0
41
1
10
44.5204809473913
20
1.42450847704076
30
0
0
SPLINE
5
13D
100
AcDbEntity
8
1
62
256
6
ByLayer
370
18
48
1
60
0
100
AcDbSpline
70
4
71
3
72
11
73
7
40
0
40
0
40
0
40
0
40
0.249997583387899
40
0.499995175922899
40
0.749997583832794
40
1
40
1
40
1
40
1
41
1
10
45.2495190528383
20
2.25241768989304
30
0
41
1
10
45.1960789659692
20
2.19225481329882
30
0
41
1
10
45.0890831967571
20
2.07206666000912
30
0
41
1
10
44.9282380871456
20
1.89219962772218
30
0
41
1
10
44.7670524359688
20
1.71273715731207
30
0
41
1
10
44.6593750811082
20
1.59335856232628
30
0
41
1
10
44.6054809471617
20
1.53373577438989
30
0
0
SPLINE
5
13E
100
AcDbEntity
8
1
62
256
6
ByLayer
370
18
48
1
60
0
100
AcDbSpline
70
4
71
3
72
25
73
21
40
0
40
0
40
0
40
0
40
0.0480287906659081
40
0.0962498319969113
40
0.144571925880026
40
0.192859908733922
40
0.240945074679732
40
0.288748888486646
40
0.336660780696117
40
0.384632209986992
40
0.432587431534236
40
0.480427670829811
40
0.544525222485376
40
0.608793020581177
40
0.673187022655279
40
0.737626539698102
40
0.801999529701178
40
0.866167414514988
40
0.933082836845787
40
1
40
1
40
1
40
1
41
1
10
45.3245190528383
20
2.35368497812563
30
0
41
1
10
45.3245146821604
20
2.35309690113573
30
0
41
1
10
45.3243371532678
20
2.3517584257377
30
0
41
1
10
45.3235452079304
20
2.34924513478263
30
0
41
1
10
45.3222760069543
20
2.34628623886868
30
0
41
1
10
45.3205593932817
20
2.34292213556402
30
0
41
1
10
45.3184257628195
20
2.33919417860371
30
0
41
1
10
45.3159025864879
20
2.3351330251805
30
0
41
1
10
45.3130300192585
20
2.33077706447851
30
0
41
1
10
45.3098311616816
20
2.32614857248491
30
0
41
1
10
45.3063391317614
20
2.3212837775916
30
0
41
1
10
45.3021539370331
20
2.31563523407757
30
0
41
1
10
45.2971855245155
20
2.30913577333076
30
0
41
1
10
45.2913567841332
20
2.30173347886693
30
0
41
1
10
45.2851656851249
20
2.29406634540471
30
0
41
1
10
45.2786580313662
20
2.2861803285395
30
0
41
1
10
45.2718790022337
20
2.27812081582408
30
0
41
1
10
45.2647610986731
20
2.26980140555627
30
0
41
1
10
45.2573143910337
20
2.26123454443173
30
0
41
1
10
45.2521420190298
20
2.25537020487135
30
0
41
1
10
45.2495190528383
20
2.25241768989304
30
0
0
SPLINE
5
13F
100
AcDbEntity
8
1
62
256
6
ByLayer
370
18
48
1
60
0
100
AcDbSpline
70
4
71
3
72
27
73
23
40
0
40
0
40
0
40
0
40
0.0545207602764236
40
0.109203548014588
40
0.163938763882689
40
0.218637977243374
40
0.273237566673326
40
0.327702710528688
40
0.377572237168165
40
0.427603639700615
40
0.477661079877491
40
0.527637268908812
40
0.577460341133527
40
0.627726034603478
40
0.678232849798384
40
0.728802951664713
40
0.779273413575664
40
0.829508472626775
40
0.872077912312138
40
0.914747456312202
40
0.957422729545989
40
1
40
1
40
1
40
1
41
1
10
45.2495190528383
20
2.3450344181744
30
0
41
1
10
45.2516355757894
20
2.34693822106481
30
0
41
1
10
45.2558432771799
20
2.35069199172916
30
0
41
1
10
45.262073450401
20
2.35615790758736
30
0
41
1
10
45.2681977630076
20
2.36143118219926
30
0
41
1
10
45.2741860293987
20
2.36648066406189
30
0
41
1
10
45.2800054535232
20
2.37127222992281
30
0
41
1
10
45.285471568203
20
2.37565101102537
30
0
41
1
10
45.2905783203688
20
2.37961554415486
30
0
41
1
10
45.2953255612213
20
2.38317382152175
30
0
41
1
10
45.2998355448545
20
2.38641618016809
30
0
41
1
10
45.3040662127653
20
2.3893044870228
30
0
41
1
10
45.3079947296647
20
2.39181448192693
30
0
41
1
10
45.3115758207737
20
2.39389846951488
30
0
41
1
10
45.3147853146049
20
2.39553806343961
30
0
41
1
10
45.3175895001237
20
2.39671422641666
30
0
41
1
10
45.3199527898021
20
2.39740546937941
30
0
41
1
10
45.3217457865151
20
2.39757913275435
30
0
41
1
10
45.3230256840571
20
2.39730630693342
30
0
41
1
10
45.3238872998694
20
2.39669143206215
30
0
41
1
10
45.3244038829046
20
2.39572734612623
30
0
41
1
10
45.3245188591984
20
2.39485909835521
30
0
41
1
10
45.3245190528383
20
2.3943686095216
30
0
0
SPLINE
5
140
100
AcDbEntity
8
1
62
256
6
ByLayer
370
18
48
1
60
0
100
AcDbSpline
70
4
71
2
72
6
73
3
40
0
40
0
40
0
40
1
40
1
40
1
41
1
10
44.6054809471617
20
1.76737647431015
30
0
41
1
10
44.9278165138113
20
2.05573493260395
30
0
41
1
10
45.2495190528383
20
2.3450344181744
30
0
0
SPLINE
5
141
100
AcDbEntity
8
1
62
256
6
ByLayer
370
18
48
1
60
0
100
AcDbSpline
70
4
71
3
72
29
73
25
40
0
40
0
40
0
40
0
40
0.0537721207398862
40
0.107702665081223
40
0.161684203115863
40
0.215630220963395
40
0.269478682664938
40
0.323195934195393
40
0.372473160733661
40
0.421910427308063
40
0.471373188564692
40
0.520755388011654
40
0.569986283244218
40
0.61135963009256
40
0.652919130180704
40
0.69456213569497
40
0.736190974996063
40
0.777717710793134
40
0.819069119334489
40
0.861311740487595
40
0.903696745409529
40
0.94614079068229
40
0.988546084596908
40
1
40
1
40
1
40
1
41
1
10
44.6054809471617
20
1.76737647431015
30
0
41
1
10
44.6031151042137
20
1.7652594025855
30
0
41
1
10
44.5984105015312
20
1.76108618034108
30
0
41
1
10
44.5914409399842
20
1.75501241409894
30
0
41
1
10
44.5845853408615
20
1.74915633952722
30
0
41
1
10
44.5778768519454
20
1.74355288793239
30
0
41
1
10
44.5713514605637
20
1.7382403688203
30
0
41
1
10
44.5652119191614
20
1.73338792632678
30
0
41
1
10
44.5594653906888
20
1.72899803503783
30
0
41
1
10
44.5541128085138
20
1.72506287463005
30
0
41
1
10
44.5490198253283
20
1.72148601616588
30
0
41
1
10
44.5442332891293
20
1.71831056831166
30
0
41
1
10
44.5400275727543
20
1.71571804851088
30
0
41
1
10
44.5363802608539
20
1.713671517472
30
0
41
1
10
44.5332376326116
20
1.71209950072185
30
0
41
1
10
44.5303960263306
20
1.71088701212668
30
0
41
1
10
44.5278790038019
20
1.71004821447167
30
0
41
1
10
44.5257092309119
20
1.70959619067867
30
0
41
1
10
44.5238947181562
20
1.7095453578398
30
0
41
1
10
44.5224624969003
20
1.70991946604698
30
0
41
1
10
44.5214073061353
20
1.71070688150516
30
0
41
1
10
44.5207318153608
20
1.71188806367406
30
0
41
1
10
44.5205121366154
20
1.71307659665554
30
0
41
1
10
44.5204827656336
20
1.71383335055853
30
0
41
1
10
44.5204809473884
20
1.71399869684259
30
0
0
SPLINE
5
142
100
AcDbEntity
8
1
62
256
6
ByLayer
370
18
48
1
60
0
100
AcDbSpline
70
4
71
3
72
11
73
7
40
0
40
0
40
0
40
0
40
0.249996554411313
40
0.499993096516559
40
0.749996555084182
40
1
40
1
40
1
40
1
41
1
10
44.6054809471617
20
1.83639465170142
30
0
41
1
10
44.6594367152475
20
1.89946614808685
30
0
41
1
10
44.767206205943
20
2.02577020057093
30
0
41
1
10
44.9284402665441
20
2.21570722381198
30
0
41
1
10
45.0892407311357
20
2.40613718427247
30
0
41
1
10
45.1961423576762
20
2.53342762217397
30
0
41
1
10
45.2495190528383
20
2.59715612202116
30
0
0
SPLINE
5
143
100
AcDbEntity
8
1
62
256
6
ByLayer
370
18
48
1
60
0
100
AcDbSpline
70
4
71
3
72
26
73
22
40
0
40
0
40
0
40
0
40
0.0641215558835892
40
0.128388446564522
40
0.192708824534188
40
0.257005128912152
40
0.321216405255975
40
0.38530080619359
40
0.43683293324055
40
0.488507841849181
40
0.540228410578318
40
0.591916672726868
40
0.643516931196906
40
0.69499916548818
40
0.742194636784231
40
0.789542862622055
40
0.836910610458403
40
0.884196958560421
40
0.931340369735565
40
0.965670883246786
40
1
40
1
40
1
40
1
41
1
10
45.2495190528383
20
2.59715612202116
30
0
41
1
10
45.2520452540649
20
2.60017181100155
30
0
41
1
10
45.2570314711992
20
2.60618034711448
30
0
41
1
10
45.2643092005098
20
2.61511876287355
30
0
41
1
10
45.2713576069019
20
2.62395805472696
30
0
41
1
10
45.2781461350839
20
2.63266744104842
30
0
41
1
10
45.2846413920525
20
2.64121353986142
30
0
41
1
10
45.2904133173477
20
2.64902536980651
30
0
41
1
10
45.2955094987449
20
2.65612557812137
30
0
41
1
10
45.2999825378728
20
2.66254371670758
30
0
41
1
10
45.3041905816514
20
2.66878872882242
30
0
41
1
10
45.3081012853405
20
2.67482587264655
30
0
41
1
10
45.3116818795803
20
2.68062002547016
30
0
41
1
10
45.3148143883244
20
2.68598853640596
30
0
41
1
10
45.3175016547271
20
2.69092843501952
30
0
41
1
10
45.3197541638165
20
2.69544136525822
30
0
41
1
10
45.321621439244
20
2.69963715746997
30
0
41
1
10
45.3230671686376
20
2.70346923643173
30
0
41
1
10
45.3239651805632
20
2.706583393863
30
0
41
1
10
45.3244258708228
20
2.70906861372845
30
0
41
1
10
45.3245177615761
20
2.71037199307801
30
0
41
1
10
45.3245190528383
20
2.71098218092884
30
0
0
SPLINE
5
144
100
AcDbEntity
8
1
62
256
6
ByLayer
370
18
48
1
60
0
100
AcDbSpline
70
4
71
3
72
26
73
22
40
0
40
0
40
0
40
0
40
0.0527252366264783
40
0.105629164814726
40
0.158512902395532
40
0.211210511097558
40
0.253692763122704
40
0.296326615457635
40
0.339018517929497
40
0.381664803375596
40
0.424157520620486
40
0.47578290596418
40
0.527552991990955
40
0.579347979133062
40
0.631007412679912
40
0.691170164400917
40
0.75151856263771
40
0.811977812531001
40
0.872416049135978
40
0.93265439044218
40
1
40
1
40
1
40
1
41
1
10
45.3245190528383
20
2.76908091875149
30
0
41
1
10
45.3245190378451
20
2.76991760001808
30
0
41
1
10
45.3243504843592
20
2.77142717865326
30
0
41
1
10
45.3235928300089
20
2.77320130286193
30
0
41
1
10
45.3223241205584
20
2.77445415258266
30
0
41
1
10
45.3206508881763
20
2.77511227006902
30
0
41
1
10
45.3186700177431
20
2.77526271144274
30
0
41
1
10
45.3165028171695
20
2.77503120054623
30
0
41
1
10
45.3140208143168
20
2.77443793402
30
0
41
1
10
45.3112453584251
20
2.7734915186872
30
0
41
1
10
45.3079717390736
20
2.77210359428727
30
0
41
1
10
45.3041380058274
20
2.77018675306117
30
0
41
1
10
45.2997170467801
20
2.76768948091798
30
0
41
1
10
45.2949933282196
20
2.76476984303692
30
0
41
1
10
45.289734353326
20
2.76128143745427
30
0
41
1
10
45.283920354538
20
2.75717707498768
30
0
41
1
10
45.2775529497177
20
2.75243726775389
30
0
41
1
10
45.270965967017
20
2.74731484011367
30
0
41
1
10
45.2642149565
20
2.74186754478614
30
0
41
1
10
45.2570645469651
20
2.73590800891519
30
0
41
1
10
45.2521408031089
20
2.73168206533865
30
0
41
1
10
45.2495190528383
20
2.72939736801027
30
0
0
SPLINE
5
145
100
AcDbEntity
8
1
62
256
6
ByLayer
370
18
48
1
60
0
100
AcDbSpline
70
4
71
2
72
6
73
3
40
0
40
0
40
0
40
1
40
1
40
1
41
1
10
45.2495190528383
20
2.72939736801027
30
0
41
1
10
44.927706904878
20
2.44916118573284
30
0
41
1
10
44.6054809471617
20
2.16955973332412
30
0
0
SPLINE
5
146
100
AcDbEntity
8
1
62
256
6
ByLayer
370
18
48
1
60
0
100
AcDbSpline
70
4
71
3
72
27
73
23
40
0
40
0
40
0
40
0
40
0.059735801161008
40
0.119517622049819
40
0.179294208261305
40
0.239022865612395
40
0.300538487530969
40
0.362123717538993
40
0.423694775493579
40
0.485191049200244
40
0.531609895812164
40
0.578149386366028
40
0.624727063436442
40
0.671277018003947
40
0.717752456034879
40
0.764128499709252
40
0.808191186401201
40
0.852397369618966
40
0.896622318654352
40
0.940771193689112
40
0.984785663798731
40
1
40
1
40
1
40
1
41
1
10
44.6054809471617
20
2.26361569060327
30
0
41
1
10
44.6028147854177
20
2.26030512758142
30
0
41
1
10
44.5975522585702
20
2.25370688721177
30
0
41
1
10
44.5898652544725
20
2.24387694271391
30
0
41
1
10
44.5824104514182
20
2.23413965251692
30
0
41
1
10
44.5751356485237
20
2.22441891392132
30
0
41
1
10
44.5680691412269
20
2.21473665518555
30
0
41
1
10
44.5612475264813
20
2.20512250678282
30
0
41
1
10
44.554775154249
20
2.19570601776572
30
0
41
1
10
44.5491867321359
20
2.1872750782846
30
0
41
1
10
44.5444070245206
20
2.17979265785598
30
0
41
1
10
44.5403528761528
20
2.17320914149512
30
0
41
1
10
44.5365817251196
20
2.16681887079478
30
0
41
1
10
44.5331245268289
20
2.160657129181
30
0
41
1
10
44.530012740686
20
2.15475965424481
30
0
41
1
10
44.5273194815147
20
2.14924969408275
30
0
41
1
10
44.5250558275273
20
2.14414144526441
30
0
41
1
10
44.5232259597974
20
2.13944620267046
30
0
41
1
10
44.5218201262234
20
2.13511396470951
30
0
41
1
10
44.5208743547522
20
2.1311955575354
30
0
41
1
10
44.5205221669172
20
2.1284901465367
30
0
41
1
10
44.5204812004811
20
2.12709393590765
30
0
41
1
10
44.5204809477443
20
2.12674494501848
30
0
0
SPLINE
5
147
100
AcDbEntity
8
1
62
256
6
ByLayer
370
18
48
1
60
0
100
AcDbSpline
70
4
71
3
72
13
73
9
40
0
40
0
40
0
40
0
40
0.16666317602541
40
0.333326555434453
40
0.499989745446436
40
0.666659764221437
40
0.833329968630745
40
1
40
1
40
1
40
1
41
1
10
45.2495190528383
20
3.07355352781008
30
0
41
1
10
45.2139918205425
20
3.02829187202705
30
0
41
1
10
45.1428519680574
20
2.93785827803528
30
0
41
1
10
45.0358841451447
20
2.80247882181515
30
0
41
1
10
44.9286628794579
20
2.66736365015821
30
0
41
1
10
44.821192176673
20
2.53250956818575
30
0
41
1
10
44.713475840326
20
2.39791355819616
30
0
41
1
10
44.6415059414525
20
2.3083530907015
30
0
41
1
10
44.6054809471617
20
2.26361569060327
30
0
0
SPLINE
5
148
100
AcDbEntity
8
1
62
256
6
ByLayer
370
18
48
1
60
0
100
AcDbSpline
70
4
71
3
72
25
73
21
40
0
40
0
40
0
40
0
40
0.0423991015052763
40
0.084850208209922
40
0.127262133156763
40
0.171179984589322
40
0.215137657739498
40
0.259065774162739
40
0.315230124002285
40
0.371450614767058
40
0.427631074025728
40
0.485360959861771
40
0.543130663306233
40
0.600870141056976
40
0.66673713071451
40
0.73264589293053
40
0.798521243636763
40
0.865668189835163
40
0.932848816562641
40
1
40
1
40
1
40
1
41
1
10
45.3245190528383
20
3.20136854481146
30
0
41
1
10
45.3245157568121
20
3.20035328484566
30
0
41
1
10
45.3243730082466
20
3.19820047461055
30
0
41
1
10
45.3237374288605
20
3.19459071935131
30
0
41
1
10
45.3227065794353
20
3.1906056844547
30
0
41
1
10
45.3212864889001
20
3.18626103614115
30
0
41
1
10
45.319494380345
20
3.1815824228749
30
0
41
1
10
45.3171765699544
20
3.1761934162796
30
0
41
1
10
45.3142509405715
20
3.17004215248031
30
0
41
1
10
45.3106489134213
20
3.16309506693331
30
0
41
1
10
45.3066053714034
20
3.15581138332183
30
0
41
1
10
45.3021468798475
20
3.14822243829145
30
0
41
1
10
45.297296785103
20
3.14035519803825
30
0
41
1
10
45.291884315218
20
3.13193092270014
30
0
41
1
10
45.2858874619263
20
3.12294925054181
30
0
41
1
10
45.2792886867619
20
3.11341593283669
30
0
41
1
10
45.2723313794226
20
3.10368227022497
30
0
41
1
10
45.2650372850895
20
3.09377170853133
30
0
41
1
10
45.2574218555618
20
3.0837025018425
30
0
41
1
10
45.2521812381222
20
3.07694450956266
30
0
41
1
10
45.2495190528383
20
3.07355352781008
30
0
0
SPLINE
5
149
100
AcDbEntity
8
1
62
256
6
ByLayer
370
18
48
1
60
0
100
AcDbSpline
70
4
71
3
72
27
73
23
40
0
40
0
40
0
40
0
40
0.0564435780060961
40
0.113045374892879
40
0.169663755664412
40
0.22619461644375
40
0.282578538738076
40
0.328561869940768
40
0.374698412495889
40
0.420861590210978
40
0.46694967870378
40
0.512892238947586
40
0.559172171241248
40
0.605660599828809
40
0.652212209590097
40
0.698685531749749
40
0.744952737374604
40
0.795478795043565
40
0.846170985819985
40
0.896884415149197
40
0.947439527442137
40
1
40
1
40
1
40
1
41
1
10
45.2495190528383
20
3.24832120015004
30
0
41
1
10
45.2517242419369
20
3.25019117088387
30
0
41
1
10
45.2561142595622
20
3.25385060889629
30
0
41
1
10
45.2626346468037
20
3.25909974972733
30
0
41
1
10
45.2690555716732
20
3.26406404329582
30
0
41
1
10
45.2753370256779
20
3.26869893883493
30
0
41
1
10
45.2810678361024
20
3.27270017398144
30
0
41
1
10
45.2862534088678
20
3.27610411920671
30
0
41
1
10
45.2909160380443
20
3.27896989123413
30
0
41
1
10
45.2953917008647
20
3.28151191819993
30
0
41
1
10
45.2996414609599
20
3.28369700216513
30
0
41
1
10
45.3036433263998
20
3.28550159178073
30
0
41
1
10
45.3073591811426
20
3.28688349539417
30
0
41
1
10
45.3107705186018
20
3.28783424625509
30
0
41
1
10
45.3138485099635
20
3.2883470091452
30
0
41
1
10
45.3165624007902
20
3.28841261568506
30
0
41
1
10
45.3189562032618
20
3.28800713469605
30
0
41
1
10
45.3209635936365
20
3.28706932512242
30
0
41
1
10
45.3225588281911
20
3.28558914243438
30
0
41
1
10
45.3236917289114
20
3.28362611545397
30
0
41
1
10
45.3243715500718
20
3.28116973596664
30
0
41
1
10
45.3245224924756
20
3.27923356214964
30
0
41
1
10
45.3245190528383
20
3.27816878379365
30
0
0
SPLINE
5
14A
100
AcDbEntity
8
1
62
256
6
ByLayer
370
18
48
1
60
0
100
AcDbSpline
70
4
71
2
72
6
73
3
40
0
40
0
40
0
40
1
40
1
40
1
41
1
10
44.6054809471617
20
2.70308349494979
30
0
41
1
10
44.9276189142752
20
2.97551506452623
30
0
41
1
10
45.2495190528383
20
3.24832120015004
30
0
0
SPLINE
5
14B
100
AcDbEntity
8
1
62
256
6
ByLayer
370
18
48
1
60
0
100
AcDbSpline
70
4
71
3
72
29
73
25
40
0
40
0
40
0
40
0
40
0.055846909523991
40
0.111849215794351
40
0.167867571137054
40
0.223799751740353
40
0.279587688322372
40
0.325109966761844
40
0.370783901910524
40
0.416483862534251
40
0.462109180152133
40
0.507590550146755
40
0.5534115281981
40
0.599439875773097
40
0.645530967800998
40
0.691544095499843
40
0.73735225104964
40
0.777269354561479
40
0.817306586623946
40
0.857397633433915
40
0.897459647560691
40
0.937397599588524
40
0.989351022603439
40
1
40
1
40
1
40
1
41
1
10
44.6054809471617
20
2.70308349494979
30
0
41
1
10
44.6030056257043
20
2.70098879501905
30
0
41
1
10
44.5980769696349
20
2.69689008646766
30
0
41
1
10
44.5907540781158
20
2.6910121618797
30
0
41
1
10
44.5835395911089
20
2.68545509202983
30
0
41
1
10
44.5764777979541
20
2.68026902286261
30
0
41
1
10
44.5700295472517
20
2.67579387101477
30
0
41
1
10
44.5641892106348
20
2.67198901393507
30
0
41
1
10
44.5589325491955
20
2.66878860258722
30
0
41
1
10
44.5538819855622
20
2.66595430154492
30
0
41
1
10
44.5490810686786
20
2.66352393618034
30
0
41
1
10
44.5445540443849
20
2.66152439785593
30
0
41
1
10
44.5403434718526
20
2.66000417289402
30
0
41
1
10
44.536470160827
20
2.65897339045583
30
0
41
1
10
44.5329667619398
20
2.65843977104028
30
0
41
1
10
44.5298680891048
20
2.65841379783617
30
0
41
1
10
44.5273183709191
20
2.65888769280942
30
0
41
1
10
44.525276748562
20
2.65979597774489
30
0
41
1
10
44.5236639257132
20
2.66103946042299
30
0
41
1
10
44.5223805263866
20
2.66264324499952
30
0
41
1
10
44.5214246226803
20
2.66458764018153
30
0
41
1
10
44.5207268787264
20
2.66708155651004
30
0
41
1
10
44.5205092450761
20
2.66933876728272
30
0
41
1
10
44.5204821185985
20
2.67081528717589
30
0
41
1
10
44.5204809479214
20
2.67106974964773
30
0
0
SPLINE
5
14C
100
AcDbEntity
8
1
62
256
6
ByLayer
370
18
48
1
60
0
100
AcDbSpline
70
4
71
3
72
13
73
9
40
0
40
0
40
0
40
0
40
0.16666176345178
40
0.333323776576039
40
0.499985521383354
40
0.666656929844796
40
0.833328612279889
40
1
40
1
40
1
40
1
41
1
10
44.6054809471617
20
2.82418023764875
30
0
41
1
10
44.6415746439221
20
2.87210482761301
30
0
41
1
10
44.713658923326
20
2.96805708230999
30
0
41
1
10
44.8214783292309
20
3.11229263208467
30
0
41
1
10
44.9289852592093
20
3.25684357938321
30
0
41
1
10
45.0361745962857
20
3.40171350589174
30
0
41
1
10
45.143040955573
20
3.54690620219097
30
0
41
1
10
45.2140630933033
20
3.64391840485111
30
0
41
1
10
45.2495190528383
20
3.69247841418887
30
0
0
SPLINE
5
14D
100
AcDbEntity
8
1
62
256
6
ByLayer
370
18
48
1
60
0
100
AcDbSpline
70
4
71
3
72
25
73
21
40
0
40
0
40
0
40
0
40
0.0650353956255641
40
0.130123293780633
40
0.195206243102798
40
0.260234884777989
40
0.327281925646017
40
0.394407052782034
40
0.461515859521951
40
0.528540618391165
40
0.576750106864201
40
0.624979171777389
40
0.673182553591563
40
0.722365023672195
40
0.771577207988456
40
0.820747678887647
40
0.865214836551792
40
0.909678309832135
40
0.954841858249314
40
1
40
1
40
1
40
1
41
1
10
45.2495190528383
20
3.69247841418887
30
0
41
1
10
45.2521159886388
20
3.69603456287007
30
0
41
1
10
45.2572267758824
20
3.70313265088886
30
0
41
1
10
45.2646463688595
20
3.71373787996323
30
0
41
1
10
45.2717934501576
20
3.72427505572812
30
0
41
1
10
45.2787189440548
20
3.73483171497959
30
0
41
1
10
45.2853926041486
20
3.74538693133713
30
0
41
1
10
45.2917736368744
20
3.7559112942138
30
0
41
1
10
45.2977563038499
20
3.76626120567905
30
0
41
1
10
45.3027814382983
20
3.77544853227498
30
0
41
1
10
45.3069501095984
20
3.78350719577043
30
0
41
1
10
45.3103689381659
20
3.79048729160284
30
0
41
1
10
45.3135162877196
20
3.7973400127387
30
0
41
1
10
45.3163597772219
20
3.80403574523474
30
0
41
1
10
45.3188602806996
20
3.81053667526744
30
0
41
1
10
45.3208971180763
20
3.81656240948221
30
0
41
1
10
45.3224787716313
20
3.82210300520854
30
0
41
1
10
45.3236248764127
20
3.82718189469222
30
0
41
1
10
45.3243505895924
20
3.8319440241322
30
0
41
1
10
45.3245146901791
20
3.83485701706767
30
0
41
1
10
45.3245190528383
20
3.83624777127823
30
0
0
SPLINE
5
14E
100
AcDbEntity
8
1
62
256
6
ByLayer
370
18
48
1
60
0
100
AcDbSpline
70
4
71
3
72
28
73
24
40
0
40
0
40
0
40
0
40
0.0524328969297314
40
0.105011915957119
40
0.157557587827026
40
0.209944879260067
40
0.252398722579679
40
0.295023812034111
40
0.337697316403626
40
0.380303632135921
40
0.422741666777764
40
0.471822933092688
40
0.521073604843117
40
0.570343776507008
40
0.61945172342234
40
0.668638102994034
40
0.717978884366992
40
0.767408177699238
40
0.816816827024629
40
0.866060312907932
40
0.910695698597818
40
0.955358119748223
40
1
40
1
40
1
40
1
41
1
10
45.3245190528383
20
3.93365320977035
30
0
41
1
10
45.3245208823497
20
3.93494412161344
30
0
41
1
10
45.3243758750776
20
3.93738966528146
30
0
41
1
10
45.3237209841125
20
3.94065712326708
30
0
41
1
10
45.322600349431
20
3.94346592287192
30
0
41
1
10
45.3210959059711
20
3.94562590636125
30
0
41
1
10
45.3192800007494
20
3.947191754159
30
0
41
1
10
45.3172558926497
20
3.94826433646833
30
0
41
1
10
45.3149035567823
20
3.94895022287946
30
0
41
1
10
45.3122359190684
20
3.94923726218848
30
0
41
1
10
45.3091046661631
20
3.94910587974849
30
0
41
1
10
45.3054527472524
20
3.94846131703414
30
0
41
1
10
45.3012671393107
20
3.94725578805202
30
0
41
1
10
45.2967656615329
20
3.94554866440698
30
0
41
1
10
45.2919866666947
20
3.94336283105682
30
0
41
1
10
45.2869595329213
20
3.94071641068357
30
0
41
1
10
45.2817226555593
20
3.93765575917377
30
0
41
1
10
45.276315669274
20
3.93422155147361
30
0
41
1
10
45.2707824886526
20
3.93045821697367
30
0
41
1
10
45.2653285322581
20
3.92652503084745
30
0
41
1
10
45.2599854192079
20
3.9224807531892
30
0
41
1
10
45.2547709071178
20
3.91837268797398
30
0
41
1
10
45.2512735032444
20
3.91551872520058
30
0
41
1
10
45.2495190528383
20
3.91406192537223
30
0
0
SPLINE
5
14F
100
AcDbEntity
8
1
62
256
6
ByLayer
370
18
48
1
60
0
100
AcDbSpline
70
4
71
1
72
4
73
2
40
0
40
0
40
1
40
1
41
1
10
45.2495190528383
20
3.91406192537223
30
0
41
1
10
44.6054809471617
20
3.37987438896338
30
0
0
SPLINE
5
150
100
AcDbEntity
8
1
62
256
6
ByLayer
370
18
48
1
60
0
100
AcDbSpline
70
4
71
3
72
27
73
23
40
0
40
0
40
0
40
0
40
0.0673321232354205
40
0.134719165576338
40
0.202100939995892
40
0.269425873740139
40
0.324980064820235
40
0.380602508459119
40
0.436236404204704
40
0.491836935761896
40
0.547372726965776
40
0.592758825371187
40
0.638245831036222
40
0.683763061968599
40
0.729255093239025
40
0.774683886055334
40
0.820031097840821
40
0.856275057995569
40
0.892632717457024
40
0.929024675463349
40
0.965388233773431
40
1
40
1
40
1
40
1
41
1
10
44.6054809471617
20
3.53092014221849
30
0
41
1
10
44.6024387474764
20
3.52656715320925
30
0
41
1
10
44.5964566125226
20
3.51787620219833
30
0
41
1
10
44.5877871838948
20
3.5048837281397
30
0
41
1
10
44.5794518484663
20
3.49196824920254
30
0
41
1
10
44.5719387406518
20
3.47990183538971
30
0
41
1
10
44.5651971528896
20
3.46868328863479
30
0
41
1
10
44.5591754457185
20
3.45830288122216
30
0
41
1
10
44.5534526514075
20
3.44804343227069
30
0
41
1
10
44.5480572853654
20
3.43793589226933
30
0
41
1
10
44.5433223213603
20
3.42861083552205
30
0
41
1
10
44.5391959562128
20
3.42004915032198
30
0
41
1
10
44.535626557004
20
3.41222769713232
30
0
41
1
10
44.5323530472669
20
3.40457784376318
30
0
41
1
10
44.5294055493639
20
3.3971351250057
30
0
41
1
10
44.5268147268131
20
3.3899355516094
30
0
41
1
10
44.5247557688067
20
3.3834728108889
30
0
41
1
10
44.5231706760318
20
3.37771197136004
30
0
41
1
10
44.5219955459556
20
3.37260984516482
30
0
41
1
10
44.5211291039353
20
3.36774924756664
30
0
41
1
10
44.5206024161442
20
3.36323550462818
30
0
41
1
10
44.5204849938509
20
3.36045355284173
30
0
41
1
10
44.5204809472149
20
3.35914263128017
30
0
0
SPLINE
5
151
100
AcDbEntity
8
1
62
256
6
ByLayer
370
18
48
1
60
0
100
AcDbSpline
70
4
71
3
72
13
73
9
40
0
40
0
40
0
40
0
40
0.166659329483101
40
0.333319087910337
40
0.499978448373656
40
0.666652159741751
40
0.833326260798078
40
1
40
1
40
1
40
1
41
1
10
45.2495190528383
20
4.4699327355771
30
0
41
1
10
45.2141644812
20
4.41738237821399
30
0
41
1
10
45.1433115173155
20
4.3124114348809
30
0
41
1
10
45.0365972492648
20
4.15534694952018
30
0
41
1
10
44.9294560540853
20
3.99866337451124
30
0
41
1
10
44.821895144969
20
3.84235637705797
30
0
41
1
10
44.713921384544
20
3.6864218612022
30
0
41
1
10
44.6416725034115
20
3.58271259149816
30
0
41
1
10
44.6054809471617
20
3.53092014221849
30
0
0
SPLINE
5
152
100
AcDbEntity
8
1
62
256
6
ByLayer
370
18
48
1
60
0
100
AcDbSpline
70
4
71
3
72
25
73
21
40
0
40
0
40
0
40
0
40
0.0467115821854371
40
0.0934827546545953
40
0.140214634532838
40
0.188488561364051
40
0.236801190203213
40
0.285087022484337
40
0.33660139264234
40
0.388166292382474
40
0.439742298993363
40
0.491271829142451
40
0.54417603487331
40
0.597115595938363
40
0.650060370608149
40
0.702971690423229
40
0.776936914593443
40
0.850903817925852
40
0.925451547292854
40
1
40
1
40
1
40
1
41
1
10
45.3245190528383
20
4.63242536414524
30
0
41
1
10
45.3245135299198
20
4.63062082600721
30
0
41
1
10
45.3243355381364
20
4.62687679113954
30
0
41
1
10
45.3235454699327
20
4.62083458085597
30
0
41
1
10
45.3222842669274
20
4.61437961562785
30
0
41
1
10
45.3205725854318
20
4.60754423181881
30
0
41
1
10
45.3184356580959
20
4.60036401509077
30
0
41
1
10
45.3158714620941
20
4.59278561903129
30
0
41
1
10
45.3128864477686
20
4.58482653340246
30
0
41
1
10
45.309483403822
20
4.57650074903816
30
0
41
1
10
45.3057549469405
20
4.56800817662994
30
0
41
1
10
45.3016927706775
20
4.55929941543453
30
0
41
1
10
45.2973109228922
20
4.55039032955418
30
0
41
1
10
45.292617951046
20
4.54129239476898
30
0
41
1
10
45.2876705659114
20
4.53210168727325
30
0
41
1
10
45.2817989327459
20
4.52160647159596
30
0
41
1
10
45.2749014694819
20
4.50978559577475
30
0
41
1
10
45.2668550943623
20
4.49659685850307
30
0
41
1
10
45.2584051109937
20
4.48330351303527
30
0
41
1
10
45.2525215188062
20
4.47439487721161
30
0
41
1
10
45.2495190528383
20
4.4699327355771
30
0
0
SPLINE
5
153
100
AcDbEntity
8
1
62
256
6
ByLayer
370
18
48
1
60
0
100
AcDbSpline
70
4
71
3
72
29
73
25
40
0
40
0
40
0
40
0
40
0.0469829904522524
40
0.0940851689066629
40
0.141199311705206
40
0.188247128015369
40
0.235184412892551
40
0.283009930848703
40
0.331067573310641
40
0.379165060978611
40
0.42714716794001
40
0.474909033726711
40
0.515871681415264
40
0.557007095415451
40
0.598206788354216
40
0.639352462739797
40
0.680323752373923
40
0.726170510734816
40
0.772144609490958
40
0.818142819746815
40
0.864022545541315
40
0.909329688477491
40
0.954681035323063
40
1
40
1
40
1
40
1
41
1
10
45.2495190528383
20
4.74464827919778
30
0
41
1
10
45.2513830433356
20
4.74617612165073
30
0
41
1
10
45.2551058646271
20
4.74915660124702
30
0
41
1
10
45.2606711169009
20
4.7534042943292
30
0
41
1
10
45.2661933290482
20
4.75739107401993
30
0
41
1
10
45.2716435064563
20
4.76108026366695
30
0
41
1
10
45.2770299701081
20
4.76445959830045
30
0
41
1
10
45.2823267919773
20
4.7674761837734
30
0
41
1
10
45.2875014791433
20
4.77008998146133
30
0
41
1
10
45.2924824047968
20
4.77225208173151
30
0
41
1
10
45.2972122934428
20
4.77391828009925
30
0
41
1
10
45.301433225431
20
4.77499442954706
30
0
41
1
10
45.3051494885621
20
4.77552506253677
30
0
41
1
10
45.3084086921077
20
4.7756097059898
30
0
41
1
10
45.3113909867781
20
4.77528403246802
30
0
41
1
10
45.3140745449604
20
4.77455490656143
30
0
41
1
10
45.3165344768899
20
4.77337879347235
30
0
41
1
10
45.3187143255479
20
4.77170368598671
30
0
41
1
10
45.3205883934852
20
4.76952039861064
30
0
41
1
10
45.32208555497
20
4.76692738423192
30
0
41
1
10
45.323209806651
20
4.76397106533507
30
0
41
1
10
45.3239791314366
20
4.76068802716917
30
0
41
1
10
45.3244231375466
20
4.75711855697923
30
0
41
1
10
45.3245210243369
20
4.75456545506527
30
0
41
1
10
45.3245190528383
20
4.75324389691724
30
0
0
SPLINE
5
154
100
AcDbEntity
8
1
62
256
6
ByLayer
370
18
48
1
60
0
100
AcDbSpline
70
4
71
1
72
4
73
2
40
0
40
0
40
1
40
1
41
1
10
44.6054809471617
20
4.21725590063893
30
0
41
1
10
45.2495190528383
20
4.74464827919778
30
0
0
SPLINE
5
155
100
AcDbEntity
8
1
62
256
6
ByLayer
370
18
48
1
60
0
100
AcDbSpline
70
4
71
3
72
31
73
27
40
0
40
0
40
0
40
0
40
0.0467065332185848
40
0.0935309900908867
40
0.140367186639237
40
0.187137672301702
40
0.233798829168741
40
0.273369845235827
40
0.313124890818805
40
0.352948451993128
40
0.392741129336003
40
0.43242474522113
40
0.471947934104697
40
0.512652594422329
40
0.553530537884241
40
0.594472610679067
40
0.635360176814121
40
0.676072942265232
40
0.721428708511106
40
0.766910657155474
40
0.812416628244141
40
0.857805240284742
40
0.903600363827878
40
0.949512739004885
40
0.995518836505368
40
1
40
1
40
1
40
1
41
1
10
44.6054809471617
20
4.21725590063893
30
0
41
1
10
44.6033774975968
20
4.21553206943956
30
0
41
1
10
44.5991762239848
20
4.21216917939705
30
0
41
1
10
44.5928951959061
20
4.20737613812563
30
0
41
1
10
44.5866618609182
20
4.20287729036207
30
0
41
1
10
44.5805087032758
20
4.1987140193058
30
0
41
1
10
44.5747699267776
20
4.19511607084867
30
0
41
1
10
44.5694501183721
20
4.19206203528741
30
0
41
1
10
44.564542579177
20
4.18950528189398
30
0
41
1
10
44.559770942003
20
4.18729224213797
30
0
41
1
10
44.5551724373446
20
4.1854521832415
30
0
41
1
10
44.5507841910755
20
4.1840137743093
30
0
41
1
10
44.5465954156498
20
4.18299374103623
30
0
41
1
10
44.5426451192308
20
4.18244046170298
30
0
41
1
10
44.5389507306069
20
4.18235762964797
30
0
41
1
10
44.5355670018265
20
4.18274195471526
30
0
41
1
10
44.5325188776142
20
4.183586048035
30
0
41
1
10
44.5297253935629
20
4.18493838468874
30
0
41
1
10
44.527247892356
20
4.18685601055819
30
0
41
1
10
44.525112455063
20
4.18934674804033
30
0
41
1
10
44.5233967839464
20
4.19230150180898
30
0
41
1
10
44.522085876866
20
4.19569062370558
30
0
41
1
10
44.5211731565805
20
4.19948927321856
30
0
41
1
10
44.5206212022997
20
4.20365017202794
30
0
41
1
10
44.5205032161706
20
4.20680509017119
30
0
41
1
10
44.5204823415694
20
4.20849122086525
30
0
41
1
10
44.5204809474221
20
4.20864128010814
30
0
0
SPLINE
5
156
100
AcDbEntity
8
1
62
256
6
ByLayer
370
18
48
1
60
0
100
AcDbSpline
70
4
71
3
72
14
73
10
40
0
40
0
40
0
40
0
40
0.166656174020745
40
0.333312878852478
40
0.499969010655765
40
0.624976516828488
40
0.749984532976952
40
0.874992525730106
40
1
40
1
40
1
40
1
41
1
10
44.6054809471617
20
4.40249783486629
30
0
41
1
10
44.6418023852684
20
4.45910027924815
30
0
41
1
10
44.7142674532906
20
4.57245625554749
30
0
41
1
10
44.8224359636711
20
4.74294040259211
30
0
41
1
10
44.9210957555102
20
4.89964226774689
30
0
41
1
10
45.010387178115
20
5.04244114928326
30
0
41
1
10
45.090437819671
20
5.17122907523069
30
0
41
1
10
45.1701686499964
20
5.30028137381902
30
0
41
1
10
45.2231049692993
20
5.38649447746989
30
0
41
1
10
45.2495190528383
20
5.42964534477864
30
0
0
SPLINE
5
157
100
AcDbEntity
8
1
62
256
6
ByLayer
370
18
48
1
60
0
100
AcDbSpline
70
4
71
3
72
25
73
21
40
0
40
0
40
0
40
0
40
0.0746466396433318
40
0.149356582436326
40
0.224062290503768
40
0.298703150564247
40
0.360341407284934
40
0.422057061504044
40
0.483784821542765
40
0.545473918125527
40
0.607089873494646
40
0.660265452689482
40
0.713463096130318
40
0.766629419843448
40
0.807415535810473
40
0.848240760451653
40
0.88905451039553
40
0.929824963237808
40
0.964872063256559
40
1
40
1
40
1
40
1
41
1
10
45.2495190528383
20
5.42964534477864
30
0
41
1
10
45.2525547656539
20
5.43460385476613
30
0
41
1
10
45.2584978806126
20
5.44451701059808
30
0
41
1
10
45.2670303098745
20
5.4593758532644
30
0
41
1
10
45.2751504337712
20
5.4741870645605
30
0
41
1
10
45.2823888036763
20
5.48806725341003
30
0
41
1
10
45.2888118252802
20
5.50101156945112
30
0
41
1
10
45.2944818212167
20
5.51302452793875
30
0
41
1
10
45.2997930448751
20
5.52493109017128
30
0
41
1
10
45.3047131928173
20
5.53669620000872
30
0
41
1
10
45.3090073174461
20
5.54776156033588
30
0
41
1
10
45.3127119784189
20
5.55812734190607
30
0
41
1
10
45.3158596519972
20
5.56779537264945
30
0
41
1
10
45.3183888236648
20
5.57651908733826
30
0
41
1
10
45.3203741852007
20
5.58432291745493
30
0
41
1
10
45.3218931933987
20
5.59124178176593
30
0
41
1
10
45.323101945633
20
5.59796302911254
30
0
41
1
10
45.3239317015074
20
5.6041495782848
30
0
41
1
10
45.3244135468079
20
5.60981504023237
30
0
41
1
10
45.3245163606674
20
5.61324318472741
30
0
41
1
10
45.3245190528383
20
5.61492254320438
30
0
0
SPLINE
5
158
100
AcDbEntity
8
1
62
256
6
ByLayer
370
18
48
1
60
0
100
AcDbSpline
70
4
71
3
72
29
73
25
40
0
40
0
40
0
40
0
40
0.0553728329638819
40
0.110870851377201
40
0.16632424139787
40
0.221636070799767
40
0.266713700944841
40
0.312010219068195
40
0.357339760169938
40
0.402556251642938
40
0.447566445881486
40
0.486286014672351
40
0.525176231429096
40
0.564129211320059
40
0.603028082287963
40
0.641754941564002
40
0.684165696906332
40
0.72669345422714
40
0.769244523758088
40
0.811687152937311
40
0.85870419106407
40
0.905813616976686
40
0.952948365971917
40
1
40
1
40
1
40
1
41
1
10
45.3245190528383
20
5.76340015023913
30
0
41
1
10
45.3245227295194
20
5.76528523047297
30
0
41
1
10
45.3243888521804
20
5.76893917664734
30
0
41
1
10
45.3237808586987
20
5.77408460278985
30
0
41
1
10
45.3227145480348
20
5.77881459437412
30
0
41
1
10
45.3212548653675
20
5.78280704086986
30
0
41
1
10
45.3194552029094
20
5.78608927130314
30
0
41
1
10
45.3174033846868
20
5.78873338060382
30
0
41
1
10
45.3149723339876
20
5.79093718671969
30
0
41
1
10
45.3121621692151
20
5.79265323719794
30
0
41
1
10
45.309117304879
20
5.793783225059
30
0
41
1
10
45.305887413688
20
5.79436506790318
30
0
41
1
10
45.3025510008984
20
5.79449469466938
30
0
41
1
10
45.298968753932
20
5.7942095329537
30
0
41
1
10
45.2951735306211
20
5.79351547573524
30
0
41
1
10
45.2910608352873
20
5.79237763900944
30
0
41
1
10
45.2866285308587
20
5.79075497386737
30
0
41
1
10
45.2818962556123
20
5.78865067365444
30
0
41
1
10
45.2770336209608
20
5.78614925147667
30
0
41
1
10
45.2718970877148
20
5.7831820735646
30
0
41
1
10
45.2665007153213
20
5.77973453244802
30
0
41
1
10
45.2608637021496
20
5.77581310386727
30
0
41
1
10
45.255193464739
20
5.77157319212067
30
0
41
1
10
45.2514109026762
20
5.7685691769987
30
0
41
1
10
45.2495190528383
20
5.76702132726629
30
0
0
SPLINE
5
159
100
AcDbEntity
8
1
62
256
6
ByLayer
370
18
48
1
60
0
100
AcDbSpline
70
4
71
1
72
4
73
2
40
0
40
0
40
1
40
1
41
1
10
45.2495190528383
20
5.76702132726629
30
0
41
1
10
44.6054809471617
20
5.2408067319241
30
0
0
SPLINE
5
15A
100
AcDbEntity
8
1
62
256
6
ByLayer
370
18
48
1
60
0
100
AcDbSpline
70
4
71
3
72
26
73
22
40
0
40
0
40
0
40
0
40
0.0597478977288489
40
0.119541610895688
40
0.179348213568401
40
0.239137275337012
40
0.298881268926089
40
0.36041149024457
40
0.422013856838479
40
0.483626964653896
40
0.545203544571104
40
0.606712113717958
40
0.656297560441388
40
0.705958910509915
40
0.755625284844854
40
0.805247200657751
40
0.854799524950073
40
0.895994989736983
40
0.937212261344129
40
0.978396200430777
40
1
40
1
40
1
40
1
41
1
10
44.6054809471617
20
5.46663574219391
30
0
41
1
10
44.6027418184659
20
5.46192221275861
30
0
41
1
10
44.597354505676
20
5.45249561228831
30
0
41
1
10
44.5895462883905
20
5.4383585334174
30
0
41
1
10
44.5820256465839
20
5.42424361023356
30
0
41
1
10
44.5748069193499
20
5.41017139846748
30
0
41
1
10
44.5678348101412
20
5.39601942503434
30
0
41
1
10
44.5611293425476
20
5.38179922690635
30
0
41
1
10
44.554724978503
20
5.3675305525517
30
0
41
1
10
44.5487180145071
20
5.3533802689247
30
0
41
1
10
44.5431441721606
20
5.33938769341004
30
0
41
1
10
44.5383670420558
20
5.32647730268378
30
0
41
1
10
44.5343124843994
20
5.31463114988594
30
0
41
1
10
44.530913651768
20
5.3038277468555
30
0
41
1
10
44.5279075905606
20
5.29322462419419
30
0
41
1
10
44.5253363893899
20
5.28287011392367
30
0
41
1
10
44.5233579653882
20
5.27337265557059
30
0
41
1
10
44.5219207351507
20
5.26471717712966
30
0
41
1
10
44.5209755785473
20
5.2568859796716
30
0
41
1
10
44.5205490203555
20
5.25056408508371
30
0
41
1
10
44.5204823067387
20
5.24689812418397
30
0
41
1
10
44.5204809483638
20
5.24565329693568
30
0
0
SPLINE
5
15B
100
AcDbEntity
8
1
62
256
6
ByLayer
370
18
48
1
60
0
100
AcDbSpline
70
4
71
3
72
15
73
11
40
0
40
0
40
0
40
0
40
0.124987626519733
40
0.249976035891166
40
0.374964481729617
40
0.499952157977412
40
0.624963745559764
40
0.749976040242815
40
0.874988367710743
40
1
40
1
40
1
40
1
41
1
10
45.2495190528383
20
6.60803125307727
30
0
41
1
10
45.2232635471988
20
6.56004807778127
30
0
41
1
10
45.1706047382407
20
6.464190120555
30
0
41
1
10
45.0911704578688
20
6.32073018517165
30
0
41
1
10
45.0112994143036
20
6.17759415212104
30
0
41
1
10
44.9309925377436
20
6.03477104351432
30
0
41
1
10
44.8502562538174
20
5.89225816386068
30
0
41
1
10
44.7690966487265
20
5.75005288990452
30
0
41
1
10
44.6875245791585
20
5.60816243705155
30
0
41
1
10
44.6328739691877
20
5.5137764914314
30
0
41
1
10
44.6054809471617
20
5.46663574219391
30
0
0
SPLINE
5
15C
100
AcDbEntity
8
1
62
256
6
ByLayer
370
18
48
1
60
0
100
AcDbSpline
70
4
71
3
72
27
73
23
40
0
40
0
40
0
40
0
40
0.0352049245813073
40
0.0704420347158452
40
0.105688215493663
40
0.140905519858998
40
0.188945502706599
40
0.237011272674305
40
0.285059674552988
40
0.336555269018634
40
0.388095031461773
40
0.439659149239474
40
0.491216872863635
40
0.542727544886144
40
0.608798282372549
40
0.674912092446973
40
0.741030905589011
40
0.807108469793581
40
0.855273701185154
40
0.903438992974472
40
0.951719508429886
40
1
40
1
40
1
40
1
41
1
10
45.3245190528383
20
6.82242202479827
30
0
41
1
10
45.324516301294
20
6.82033604398232
30
0
41
1
10
45.324412275029
20
6.81609464503977
30
0
41
1
10
45.3239491255572
20
6.80951496013981
30
0
41
1
10
45.3232125628071
20
6.80275831657958
30
0
41
1
10
45.3221033704949
20
6.79500996497326
30
0
41
1
10
45.3205349087548
20
6.78622792582777
30
0
41
1
10
45.3184202078043
20
6.77637977267276
30
0
41
1
10
45.3158883395316
20
6.76611686360616
30
0
41
1
10
45.3129454751985
20
6.75545487914674
30
0
41
1
10
45.3095884572865
20
6.74440360688333
30
0
41
1
10
45.3059074038628
20
6.7332284417159
30
0
41
1
10
45.3019266888005
20
6.72195536099303
30
0
41
1
10
45.2972672087543
20
6.70953420685764
30
0
41
1
10
45.2918525775175
20
6.69595087306946
30
0
41
1
10
45.2856000458359
20
6.6811987265146
30
0
41
1
10
45.27896190749
20
6.66637915488474
30
0
41
1
10
45.2725925758811
20
6.65285792648794
30
0
41
1
10
45.266611115762
20
6.64066237654176
30
0
41
1
10
45.2611038266872
20
6.62979415070565
30
0
41
1
10
45.2554148737237
20
6.61891402755264
30
0
41
1
10
45.2515037363578
20
6.6116585514122
30
0
41
1
10
45.2495190528383
20
6.60803125307727
30
0
0
SPLINE
5
15D
100
AcDbEntity
8
1
62
256
6
ByLayer
370
18
48
1
60
0
100
AcDbSpline
70
4
71
3
72
30
73
26
40
0
40
0
40
0
40
0
40
0.0458139173897863
40
0.0917251722306436
40
0.137602333357694
40
0.183369654145268
40
0.220697124387368
40
0.258187271127479
40
0.295705369488761
40
0.333142892432213
40
0.370426039033309
40
0.412579124511612
40
0.454916864320766
40
0.497265603641261
40
0.539433753423918
40
0.577580670686348
40
0.615827391321109
40
0.654096197561752
40
0.692273307123563
40
0.742168981719829
40
0.792208918485505
40
0.842351941499948
40
0.892492978583983
40
0.942473705573705
40
1
40
1
40
1
40
1
41
1
10
45.2495190528383
20
7.02320426846939
30
0
41
1
10
45.2513965639941
20
7.02476279138383
30
0
41
1
10
45.2551590797058
20
7.02777430338563
30
0
41
1
10
45.2608238770845
20
7.03198678545221
30
0
41
1
10
45.2664774983854
20
7.035827535589
30
0
41
1
10
45.2717449746572
20
7.03903699025462
30
0
41
1
10
45.2766081785012
20
7.04164309287242
30
0
41
1
10
45.2810630687734
20
7.04371282198847
30
0
41
1
10
45.2854214474559
20
7.04540507443939
30
0
41
1
10
45.2896413667775
20
7.04668558773955
30
0
41
1
10
45.2938640040682
20
7.04755953204454
30
0
41
1
10
45.2980238898129
20
7.04791248140749
30
0
41
1
10
45.3020624135164
20
7.04768735215354
30
0
41
1
10
45.3057824422482
20
7.04688943048189
30
0
41
1
10
45.309041398238
20
7.04557040764734
30
0
41
1
10
45.3118547573212
20
7.0438030308347
30
0
41
1
10
45.3142800516648
20
7.04169472912185
30
0
41
1
10
45.316416157613
20
7.0392215694355
30
0
41
1
10
45.3184571603225
20
7.03613100606681
30
0
41
1
10
45.3203084721228
20
7.03233368856945
30
0
41
1
10
45.3218899096861
20
7.02777050503463
30
0
41
1
10
45.3230750356688
20
7.02282253628309
30
0
41
1
10
45.323895667439
20
7.01755553722334
30
0
41
1
10
45.3244040614402
20
7.01173716913034
30
0
41
1
10
45.3245232223862
20
7.00759628365894
30
0
41
1
10
45.3245190528383
20
7.0053272246041
30
0
0
SPLINE
5
15E
100
AcDbEntity
8
1
62
256
6
ByLayer
370
18
48
1
60
0
100
AcDbSpline
70
4
71
1
72
4
73
2
40
0
40
0
40
1
40
1
41
1
10
44.6054809471617
20
6.48987093729009
30
0
41
1
10
45.2495190528383
20
7.02320426846939
30
0
0
SPLINE
5
15F
100
AcDbEntity
8
1
62
256
6
ByLayer
370
18
48
1
60
0
100
AcDbSpline
70
4
71
3
72
32
73
28
40
0
40
0
40
0
40
0
40
0.0459218700537469
40
0.0919412983441606
40
0.137926633199012
40
0.18380190705464
40
0.221177790209669
40
0.25871665825674
40
0.296283157324996
40
0.333768578969097
40
0.371099445576524
40
0.404854704099234
40
0.438750058778335
40
0.472699415785485
40
0.506606669360615
40
0.540371949293346
40
0.57839152463489
40
0.616511286090432
40
0.654653020522243
40
0.692702634761376
40
0.74217833198586
40
0.791797116015276
40
0.841518166333254
40
0.891237263078346
40
0.94079735018631
40
0.992848991402334
40
1
40
1
40
1
40
1
41
1
10
44.6054809471617
20
6.48987093729009
30
0
41
1
10
44.6033445836057
20
6.48809941024335
30
0
41
1
10
44.5990638107941
20
6.48467613634588
30
0
41
1
10
44.5926201193879
20
6.47988718710785
30
0
41
1
10
44.5861906809791
20
6.47552012772739
30
0
41
1
10
44.5802037402098
20
6.47187116693748
30
0
41
1
10
44.5746796281279
20
6.46890794034208
30
0
41
1
10
44.5696223789008
20
6.46655432162888
30
0
41
1
10
44.564675616815
20
6.46462895628643
30
0
41
1
10
44.5598870109528
20
6.46317123398059
30
0
41
1
10
44.5554421172182
20
6.46224742274383
30
0
41
1
10
44.5513553727177
20
6.46184261440183
30
0
41
1
10
44.5476110086611
20
6.46188695238679
30
0
41
1
10
44.5440869437446
20
6.46235607860598
30
0
41
1
10
44.5408084652208
20
6.46324052955023
30
0
41
1
10
44.5376696081504
20
6.46459155045321
30
0
41
1
10
44.5347220565266
20
6.46646257918665
30
0
41
1
10
44.5319914675753
20
6.46886203552891
30
0
41
1
10
44.5295874898857
20
6.47167669730925
30
0
41
1
10
44.5272964284656
20
6.47518741055824
30
0
41
1
10
44.5252220720834
20
6.4794935572019
30
0
41
1
10
44.5234513611898
20
6.48466006474107
30
0
41
1
10
44.5221223458646
20
6.4902616832602
30
0
41
1
10
44.5211993697284
20
6.49622526291185
30
0
41
1
10
44.5206401749012
20
6.50260080386938
30
0
41
1
10
44.5204866385552
20
6.50738125710895
30
0
41
1
10
44.5204805445044
20
6.51004066077435
30
0
41
1
10
44.5204809476223
20
6.51036276047212
30
0
0
SPLINE
5
160
100
AcDbEntity
8
1
62
256
6
ByLayer
370
18
48
1
60
0
100
AcDbSpline
70
4
71
3
72
17
73
13
40
0
40
0
40
0
40
0
40
0.0999848181261503
40
0.199970485153554
40
0.299956402655765
40
0.399942007869222
40
0.499926774150962
40
0.599940821861996
40
0.6999558144559
40
0.799971085925807
40
0.899986009868202
40
1
40
1
40
1
40
1
41
1
10
44.6054809471617
20
6.76645749612001
30
0
41
1
10
44.6275784153601
20
6.80930244712153
30
0
41
1
10
44.6716505791883
20
6.8950765370249
30
0
41
1
10
44.7373922660065
20
7.02398883769007
30
0
41
1
10
44.8027608888322
20
7.15315414814938
30
0
41
1
10
44.867751844002
20
7.2825728436574
30
0
41
1
10
44.9323665032597
20
7.4122587055998
30
0
41
1
10
44.9966002403686
20
7.54221351377763
30
0
41
1
10
45.0604482181107
20
7.67243904553207
30
0
41
1
10
45.1238989458003
20
7.80292366010812
30
0
41
1
10
45.1869475240188
20
7.93366754922841
30
0
41
1
10
45.2287071243476
20
8.02100402928978
30
0
41
1
10
45.2495190528383
20
8.0647155139352
30
0
0
SPLINE
5
161
100
AcDbEntity
8
1
62
256
6
ByLayer
370
18
48
1
60
0
100
AcDbSpline
70
4
71
3
72
26
73
22
40
0
40
0
40
0
40
0
40
0.0580730029314667
40
0.116166760220995
40
0.174260701745645
40
0.232333955996443
40
0.290415009857753
40
0.348518488932925
40
0.406619751807316
40
0.464697782388812
40
0.525872905049396
40
0.587084988198347
40
0.648287777568061
40
0.709450218884666
40
0.757500391424857
40
0.805563410673959
40
0.853607271501152
40
0.890198207742889
40
0.926814005449846
40
0.963421032455607
40
1
40
1
40
1
40
1
41
1
10
45.2495190528383
20
8.0647155139352
30
0
41
1
10
45.2519383975909
20
8.0697973153343
30
0
41
1
10
45.2566856301797
20
8.07996698318658
30
0
41
1
10
45.2635317954682
20
8.09524014618846
30
0
41
1
10
45.2700970578667
20
8.11051610947789
30
0
41
1
10
45.2763767594785
20
8.1257842300757
30
0
41
1
10
45.2823669394922
20
8.14103559689048
30
0
41
1
10
45.2880568735318
20
8.15626042270229
30
0
41
1
10
45.2934331281616
20
8.17144355329816
30
0
41
1
10
45.298571197228
20
8.18683828449462
30
0
41
1
10
45.3034386342394
20
8.20242970353311
30
0
41
1
10
45.3079846502652
20
8.21819277817709
30
0
41
1
10
45.3120906862655
20
8.23383023771705
30
0
41
1
10
45.315461963306
20
8.24820335666062
30
0
41
1
10
45.3181805833899
20
8.26132249921138
30
0
41
1
10
45.3203227348842
20
8.2732049243192
30
0
41
1
10
45.321941363607
20
8.2839846258891
30
0
41
1
10
45.3231112429595
20
8.29368228909093
30
0
41
1
10
45.3239033710056
20
8.30232404261578
30
0
41
1
10
45.3244034347772
20
8.31080095675361
30
0
41
1
10
45.3245158501612
20
8.31631358786874
30
0
41
1
10
45.3245190528383
20
8.31903686093797
30
0
0
SPLINE
5
162
100
AcDbEntity
8
1
62
256
6
ByLayer
370
18
48
1
60
0
100
AcDbSpline
70
4
71
3
72
31
73
27
40
0
40
0
40
0
40
0
40
0.0563219054507003
40
0.112785940741386
40
0.169242296545837
40
0.22559832423247
40
0.281829427724963
40
0.325519937861193
40
0.369321330400892
40
0.413076623495584
40
0.456704098904755
40
0.491696827162189
40
0.526804823199035
40
0.561888074354211
40
0.596846943989923
40
0.631990566741662
40
0.667282182457733
40
0.702580572689821
40
0.737733471986001
40
0.770125447852953
40
0.802603111555529
40
0.835100282348842
40
0.867518926193567
40
0.911646085698385
40
0.955844096395913
40
1
40
1
40
1
40
1
41
1
10
45.3245190528383
20
8.5481825744559
30
0
41
1
10
45.3245236190411
20
8.55076821389356
30
0
41
1
10
45.324419568913
20
8.5558668731254
30
0
41
1
10
45.3239432045485
20
8.56330226863865
30
0
41
1
10
45.3230863119845
20
8.57045627617821
30
0
41
1
10
45.321808353495
20
8.57726209331116
30
0
41
1
10
45.3201948763153
20
8.58317833881344
30
0
41
1
10
45.3183174424253
20
8.58824436868127
30
0
41
1
10
45.3162547062514
20
8.59251416247527
30
0
41
1
10
45.3138172886062
20
8.59636452274962
30
0
41
1
10
45.3111675455301
20
8.59950165794047
30
0
41
1
10
45.3083652081117
20
8.60196172216859
30
0
41
1
10
45.3054934854185
20
8.60382838773975
30
0
41
1
10
45.302348456092
20
8.605254507263
30
0
41
1
10
45.2989326649381
20
8.60620207130213
30
0
41
1
10
45.2952440135039
20
8.60661680726511
30
0
41
1
10
45.2913173910318
20
8.60650884288521
30
0
41
1
10
45.2872021857835
20
8.60589227662399
30
0
41
1
10
45.2830479041326
20
8.60480061101082
30
0
41
1
10
45.2788979883489
20
8.60328710917667
30
0
41
1
10
45.2747896484902
20
8.60144123732384
30
0
41
1
10
45.2706365118788
20
8.59925496919498
30
0
41
1
10
45.2659616856001
20
8.59645963745384
30
0
41
1
10
45.2607784463588
20
8.59295374072853
30
0
41
1
10
45.2551174649905
20
8.58866676372685
30
0
41
1
10
45.2513794764249
20
8.58557223255896
30
0
41
1
10
45.2495190528383
20
8.58396204105735
30
0
0
SPLINE
5
163
100
AcDbEntity
8
1
62
256
6
ByLayer
370
18
48
1
60
0
100
AcDbSpline
70
4
71
2
72
6
73
3
40
0
40
0
40
0
40
1
40
1
40
1
41
1
10
45.2495190528383
20
8.58396204105735
30
0
41
1
10
44.9277531848528
20
8.30630718130611
30
0
41
1
10
44.6054809471617
20
8.02943646665925
30
0
0
SPLINE
5
164
100
AcDbEntity
8
1
62
256
6
ByLayer
370
18
48
1
60
0
100
AcDbSpline
70
4
71
3
72
26
73
22
40
0
40
0
40
0
40
0
40
0.0617812411722286
40
0.123584401537422
40
0.185387442501668
40
0.247168520796568
40
0.308964159613157
40
0.370784730348291
40
0.432601933675257
40
0.494392978673307
40
0.546580377784936
40
0.59880653336191
40
0.651036683467097
40
0.703245593930962
40
0.755418519040666
40
0.802745295696896
40
0.850085885570239
40
0.897404473857066
40
0.933545780577073
40
0.969717783905008
40
1
40
1
40
1
40
1
41
1
10
44.6054809471617
20
8.37454716638537
30
0
41
1
10
44.6026024580855
20
8.3680572864683
30
0
41
1
10
44.5969575298456
20
8.3550720903782
30
0
41
1
10
44.5888264515164
20
8.33557723719003
30
0
41
1
10
44.5810397020357
20
8.31608602935054
30
0
41
1
10
44.573603128547
20
8.29661189589612
30
0
41
1
10
44.5665218379189
20
8.2771667548218
30
0
41
1
10
44.5598124229218
20
8.2577641492144
30
0
41
1
10
44.5534953415759
20
8.23842576089265
30
0
41
1
10
44.5478979739834
20
8.22017065926224
30
0
41
1
10
44.5429624288853
20
8.20299742937386
30
0
41
1
10
44.5386420424979
20
8.18690233848735
30
0
41
1
10
44.5346811572814
20
8.17091558134483
30
0
41
1
10
44.5311110350888
20
8.15506789692377
30
0
41
1
10
44.5280590756724
20
8.13987126178699
30
0
41
1
10
44.5255109022798
20
8.12533321639791
30
0
41
1
10
44.5234677326299
20
8.11146867233424
30
0
41
1
10
44.5220167111461
20
8.09891172493694
30
0
41
1
10
44.521073984095
20
8.08763811293489
30
0
41
1
10
44.5205803273262
20
8.07815216868637
30
0
41
1
10
44.5204821671574
20
8.07214929611166
30
0
41
1
10
44.5204809482046
20
8.0694408345915
30
0
0
SPLINE
5
165
100
AcDbEntity
8
1
62
256
6
ByLayer
370
18
48
1
60
0
100
AcDbSpline
70
4
71
3
72
19
73
15
40
0
40
0
40
0
40
0
40
0.083307683119905
40
0.166615994822271
40
0.249924327405994
40
0.33323203900069
40
0.41653951113898
40
0.499847567414118
40
0.583155643337119
40
0.666463142268137
40
0.749847073843918
40
0.833231549277587
40
0.91661604320513
40
1
40
1
40
1
40
1
41
1
10
45.2495190528384
20
9.9088140824141
30
0
41
1
10
45.2324794561165
20
9.86574483996444
30
0
41
1
10
45.1982548771831
20
9.77968357053021
30
0
41
1
10
45.1464799668437
20
9.650824188138
30
0
41
1
10
45.0942736760714
20
9.5221972697221
30
0
41
1
10
45.0416403869821
20
9.39380306303143
30
0
41
1
10
44.9885847865738
20
9.26564101461579
30
0
41
1
10
44.93511131656
20
9.13771050606463
30
0
41
1
10
44.8812246323509
20
9.01001137829947
30
0
41
1
10
44.8269128096497
20
8.88250456872567
30
0
41
1
10
44.7721797885684
20
8.75518963961426
30
0
41
1
10
44.717029588508
20
8.62806607902322
30
0
41
1
10
44.6614830221084
20
8.50117265050633
30
0
41
1
10
44.6241918521025
20
8.41673005368
30
0
41
1
10
44.6054809471617
20
8.37454716638537
30
0
0
SPLINE
5
166
100
AcDbEntity
8
1
62
256
6
ByLayer
370
18
48
1
60
0
100
AcDbSpline
70
4
71
3
72
25
73
21
40
0
40
0
40
0
40
0
40
0.0412179254494832
40
0.0824688676623762
40
0.123743819850299
40
0.16501889758638
40
0.206257082895226
40
0.258911270442612
40
0.311588120793461
40
0.364270721466129
40
0.416932753580266
40
0.474795466780723
40
0.532684250980921
40
0.590585055346994
40
0.648480079943366
40
0.706348029428039
40
0.779745917538393
40
0.853175138819619
40
0.926603409170061
40
1
40
1
40
1
40
1
41
1
10
45.3245190528383
20
10.2245679889123
30
0
41
1
10
45.3245148964844
20
10.2205680573568
30
0
41
1
10
45.3243748249892
20
10.2124992119994
30
0
41
1
10
45.3237517685093
20
10.2001779304495
30
0
41
1
10
45.3227670922435
20
10.1876864188836
30
0
41
1
10
45.3214530791956
20
10.1750572085481
30
0
41
1
10
45.3196992791165
20
10.1611448950478
30
0
41
1
10
45.3174423362783
20
10.1459338432912
30
0
41
1
10
45.3146049346002
20
10.1294085842374
30
0
41
1
10
45.3113945048687
20
10.112779249409
30
0
41
1
10
45.3077231245715
20
10.0955179815985
30
0
41
1
10
45.3035800569441
20
10.0776313281667
30
0
41
1
10
45.2989409533932
20
10.059123061013
30
0
41
1
10
45.2939492926873
20
10.040560242701
30
0
41
1
10
45.2886212572499
20
10.0219613630305
30
0
41
1
10
45.2824664328718
20
10.0016740500312
30
0
41
1
10
45.2753913713945
20
9.97969868546842
30
0
41
1
10
45.2672834019518
20
9.95604681278639
30
0
41
1
10
45.2586843719291
20
9.93240637538088
30
0
41
1
10
45.2526279078429
20
9.91667369724044
30
0
41
1
10
45.2495190528383
20
9.9088140824141
30
0
0
SPLINE
5
167
100
AcDbEntity
8
1
62
256
6
ByLayer
370
18
48
1
60
0
100
AcDbSpline
70
4
71
3
72
34
73
30
40
0
40
0
40
0
40
0
40
0.0314979272066992
40
0.0630529807233557
40
0.0945842147944357
40
0.126049597498186
40
0.158290661280731
40
0.190668796908668
40
0.223005872076869
40
0.25519069287444
40
0.284294860608101
40
0.313538078674984
40
0.342789183428434
40
0.371904156567851
40
0.405532778425159
40
0.43924976839629
40
0.472910394126248
40
0.508147028303987
40
0.543480852885982
40
0.578891995400363
40
0.61430833371884
40
0.649614376517539
40
0.692864483892796
40
0.736160500589383
40
0.779474614609176
40
0.822749424456578
40
0.881818722174077
40
0.940917708038333
40
1
40
1
40
1
40
1
41
1
10
45.2495190528383
20
10.5853383024278
30
0
41
1
10
45.250902693979
20
10.5866501551619
30
0
41
1
10
45.2536937624163
20
10.5891940966098
30
0
41
1
10
45.2579476002257
20
10.592782050018
30
0
41
1
10
45.2622576139714
20
10.5960850536102
30
0
41
1
10
45.2666447094214
20
10.5990865023039
30
0
41
1
10
45.2710990931157
20
10.6017132545898
30
0
41
1
10
45.2755922195678
20
10.6039019604003
30
0
41
1
10
45.280043859353
20
10.6055784708341
30
0
41
1
10
45.2842634102871
20
10.6066440053796
30
0
41
1
10
45.2882105310791
20
10.6070908250991
30
0
41
1
10
45.2918739827556
20
10.6070032541371
30
0
41
1
10
45.2953541639229
20
10.6064138911265
30
0
41
1
10
45.2987816264797
20
10.6052711351715
30
0
41
1
10
45.3020856844278
20
10.6034971741118
30
0
41
1
10
45.3052271967636
20
10.6010960464415
30
0
41
1
10
45.3080970307319
20
10.5981686024528
30
0
41
1
10
45.3106896984611
20
10.5947566405741
30
0
41
1
10
45.3130162026727
20
10.5909065315466
30
0
41
1
10
45.3150583903549
20
10.5867255251899
30
0
41
1
10
45.3168378318749
20
10.5822737199304
30
0
41
1
10
45.3184940866029
20
10.5772481872005
30
0
41
1
10
45.3199943164304
20
10.5716315935972
30
0
41
1
10
45.321304747236
20
10.5654059901559
30
0
41
1
10
45.3223550485158
20
10.5589775811693
30
0
41
1
10
45.3232730614025
20
10.5515807797888
30
0
41
1
10
45.3239895250713
20
10.5431778034978
30
0
41
1
10
45.3244275297495
20
10.5337335853066
30
0
41
1
10
45.324523265858
20
10.5273259547606
30
0
41
1
10
45.3245190528383
20
10.5240920055702
30
0
0
SPLINE
5
168
100
AcDbEntity
8
1
62
256
6
ByLayer
370
18
48
1
60
0
100
AcDbSpline
70
4
71
3
72
11
73
7
40
0
40
0
40
0
40
0
40
0.249998614661779
40
0.499997221070453
40
0.749998615474676
40
1
40
1
40
1
40
1
41
1
10
44.6054809471617
20
9.9805993208179
30
0
41
1
10
44.6592945736024
20
10.030789021404
30
0
41
1
10
44.7668508420799
20
10.1312695142135
30
0
41
1
10
44.9279764661932
20
10.2822894384125
30
0
41
1
10
45.0888825922296
20
10.4336225151884
30
0
41
1
10
45.1959989206092
20
10.5347304774304
30
0
41
1
10
45.2495190528383
20
10.5853383024278
30
0
0
SPLINE
5
169
100
AcDbEntity
8
1
62
256
6
ByLayer
370
18
48
1
60
0
100
AcDbSpline
70
4
71
3
72
35
73
31
40
0
40
0
40
0
40
0
40
0.0320594963848524
40
0.0641773954634246
40
0.0962715242242497
40
0.128298543056865
40
0.161049729106354
40
0.19393756684727
40
0.226785423566298
40
0.259481850060708
40
0.289333148596254
40
0.319326804665438
40
0.349327855468944
40
0.37918928535103
40
0.405066201883427
40
0.431009259606017
40
0.456968484507359
40
0.482867500992187
40
0.518576281578952
40
0.554384129001391
40
0.590269870160494
40
0.626160150902868
40
0.661938273396412
40
0.703770796829263
40
0.745645197908139
40
0.787535414963859
40
0.829389525735439
40
0.886462970145513
40
0.943564250503746
40
1
40
1
40
1
40
1
41
1
10
44.6054809471617
20
9.9805993208179
30
0
41
1
10
44.6038850179248
20
9.97910703302148
30
0
41
1
10
44.6006672673465
20
9.97621428911816
30
0
41
1
10
44.5957672961702
20
9.97213802003301
30
0
41
1
10
44.5908080410049
20
9.96838874567876
30
0
41
1
10
44.5857695657274
20
9.96498738854088
30
0
41
1
10
44.5806646740201
20
9.9620150157156
30
0
41
1
10
44.5755262883388
20
9.95954082861208
30
0
41
1
10
44.570442368022
20
9.95764560051998
30
0
41
1
10
44.565615321069
20
9.95643571445433
30
0
41
1
10
44.5610911445581
20
9.95592592458795
30
0
41
1
10
44.5568836748992
20
9.95602856759723
30
0
41
1
10
44.5528926651365
20
9.95670895049107
30
0
41
1
10
44.5493264410161
20
9.95790665063591
30
0
41
1
10
44.5461736163985
20
9.95952444162867
30
0
41
1
10
44.5433814699663
20
9.96143276779948
30
0
41
1
10
44.540798374124
20
9.96367641713542
30
0
41
1
10
44.5381248971365
20
9.96654376642679
30
0
41
1
10
44.5354496805586
20
9.97013947343386
30
0
41
1
10
44.5328544885178
20
9.97453764401551
30
0
41
1
10
44.5305840941807
20
9.97931364939723
30
0
41
1
10
44.5286139305081
20
9.98439970432892
30
0
41
1
10
44.5268208325052
20
9.99004367834492
30
0
41
1
10
44.5252253312236
20
9.99625056652386
30
0
41
1
10
44.5238494595974
20
10.003029208753
30
0
41
1
10
44.5227460736638
20
10.010024503282
30
0
41
1
10
44.5217822541929
20
10.0180687970783
30
0
41
1
10
44.5210314169989
20
10.027204838592
30
0
41
1
10
44.5205756294978
20
10.0374327345691
30
0
41
1
10
44.5204766029437
20
10.0443603919157
30
0
41
1
10
44.5204809471678
20
10.0478368736345
30
0
0
SPLINE
5
16A
100
AcDbEntity
8
1
62
256
6
ByLayer
370
18
48
1
60
0
100
AcDbSpline
70
4
71
3
72
22
73
18
40
0
40
0
40
0
40
0
40
0.0666280003630594
40
0.133256813888511
40
0.199885875084635
40
0.266514644130731
40
0.333142607188063
40
0.399770926113889
40
0.466400124553711
40
0.533029591646854
40
0.599658743447257
40
0.666287023255628
40
0.733029005905243
40
0.799771942221462
40
0.86651517077179
40
0.933258058283657
40
1
40
1
40
1
40
1
41
1
10
44.6054809471617
20
10.4306865739586
30
0
41
1
10
44.6209391324212
20
10.4735824511089
30
0
41
1
10
44.6517074981915
20
10.5594450131882
30
0
41
1
10
44.6974176029211
20
10.6884503013059
30
0
41
1
10
44.7426793149622
20
10.8176666053671
30
0
41
1
10
44.7874883901919
20
10.94709249965
30
0
41
1
10
44.8318403845329
20
11.0767275813362
30
0
41
1
10
44.8757311939446
20
11.2065721122521
30
0
41
1
10
44.919156692535
20
11.3366262099934
30
0
41
1
10
44.9621123602337
20
11.4668888093778
30
0
41
1
10
45.0045934142119
20
11.5973580923905
30
0
41
1
10
45.0466192666429
20
11.728107488782
30
0
41
1
10
45.088184736397
20
11.8591374680945
30
0
41
1
10
45.1292847200469
20
11.9904483400464
30
0
41
1
10
45.169890960455
20
12.121964480573
30
0
41
1
10
45.2099990770466
20
12.2536837822681
30
0
41
1
10
45.2364015786773
20
12.3416312112229
30
0
41
1
10
45.2495190528383
20
12.3856384228729
30
0
0
SPLINE
5
16B
100
AcDbEntity
8
1
62
256
6
ByLayer
370
18
48
1
60
0
100
AcDbSpline
70
4
71
3
72
24
73
20
40
0
40
0
40
0
40
0
40
0.0648727688634462
40
0.129765695406955
40
0.194666583497675
40
0.259561839398825
40
0.324436562529728
40
0.390014492912354
40
0.455616537639356
40
0.521223199778014
40
0.58681867396162
40
0.652391091583808
40
0.710112394779612
40
0.767840770916008
40
0.825558371599438
40
0.86916532689822
40
0.912787185175925
40
0.95640227619543
40
1
40
1
40
1
40
1
41
1
10
45.2495190528383
20
12.3856384228729
30
0
41
1
10
45.2523349200161
20
12.3950883280307
30
0
41
1
10
45.2578240396325
20
12.4140024437599
30
0
41
1
10
45.2656263210364
20
12.4424161914515
30
0
41
1
10
45.2730019558262
20
12.4708556885306
30
0
41
1
10
45.279952389149
20
12.4993045940082
30
0
41
1
10
45.2865037034417
20
12.5278528927797
30
0
41
1
10
45.2926563176507
20
12.5564944487347
30
0
41
1
10
45.2983877249214
20
12.5852204262146
30
0
41
1
10
45.3036542956574
20
12.6139123442576
30
0
41
1
10
45.3084333354547
20
12.6425475615426
30
0
41
1
10
45.3125333338016
20
12.669968425366
30
0
41
1
10
45.3160008990774
20
12.6961695167348
30
0
41
1
10
45.3188600699234
20
12.7211429099284
30
0
41
1
10
45.3210245595489
20
12.7439739099836
30
0
41
1
10
45.3226005121167
20
12.7646739171384
30
0
41
1
10
45.3236750127212
20
12.783256168392
30
0
41
1
10
45.3243596813534
20
12.8017097131537
30
0
41
1
10
45.324513921902
20
12.813895327151
30
0
41
1
10
45.3245190528383
20
12.819960640871
30
0
0
SPLINE
5
16C
100
AcDbEntity
8
1
62
256
6
ByLayer
370
18
48
1
60
0
100
AcDbSpline
70
4
71
3
72
35
73
31
40
0
40
0
40
0
40
0
40
0.0726161532907293
40
0.14527435341946
40
0.217905835483458
40
0.290485531504262
40
0.339228016867149
40
0.387984499616815
40
0.436709764990553
40
0.474295117551547
40
0.511945525735068
40
0.54954885876542
40
0.587069891991122
40
0.610643955146604
40
0.634278488099881
40
0.657880538968844
40
0.681410183423409
40
0.703944880076251
40
0.726532245591439
40
0.749039105710653
40
0.771693916891314
40
0.794437869994455
40
0.81709944516
40
0.837809596815976
40
0.858574980628101
40
0.879305679354957
40
0.909383246267662
40
0.939577481213228
40
0.969835353097355
40
1
40
1
40
1
40
1
41
1
10
45.3245190528383
20
13.2578078416746
30
0
41
1
10
45.3245263534905
20
13.2629657999499
30
0
41
1
10
45.3244168533436
20
13.2732309850015
30
0
41
1
10
45.3239111694627
20
13.2884883256549
30
0
41
1
10
45.3229712455832
20
13.3035396172637
30
0
41
1
10
45.3216951093548
20
13.3167120098193
30
0
41
1
10
45.3202061938121
20
13.3280489458249
30
0
41
1
10
45.3186153244757
20
13.3376019385621
30
0
41
1
10
45.3168081065813
20
13.3461953858871
30
0
41
1
10
45.3148417773493
20
13.3538501764853
30
0
41
1
10
45.3127576937736
20
13.3605785819024
30
0
41
1
10
45.3103212697183
20
13.366985673231
30
0
41
1
10
45.3078331745898
20
13.3722385665402
30
0
41
1
10
45.3054141109512
20
13.3764262817899
30
0
41
1
10
45.3031833288648
20
13.3796680127535
30
0
41
1
10
45.3007255106173
20
13.3825948544687
30
0
41
1
10
45.2980649109385
20
13.3851062952344
30
0
41
1
10
45.2951942799542
20
13.3871419919672
30
0
41
1
10
45.2921329702645
20
13.3886638929864
30
0
41
1
10
45.2888476633727
20
13.3896446516529
30
0
41
1
10
45.2853553859966
20
13.3899888637089
30
0
41
1
10
45.2817185142063
20
13.3897138125732
30
0
41
1
10
45.2781046669131
20
13.388857412184
30
0
41
1
10
45.2745743236811
20
13.3874900113224
30
0
41
1
10
45.2711640578997
20
13.3857454271393
30
0
41
1
10
45.2672860928163
20
13.3833129080749
30
0
41
1
10
45.2629877048411
20
13.3800539214117
30
0
41
1
10
45.258334615036
20
13.3758915500897
30
0
41
1
10
45.2538375286891
20
13.3713048719089
30
0
41
1
10
45.2509399395463
20
13.3680485080552
30
0
41
1
10
45.2495190528383
20
13.36636666116
30
0
0
SPLINE
5
16D
100
AcDbEntity
8
1
62
256
6
ByLayer
370
18
48
1
60
0
100
AcDbSpline
70
4
71
3
72
13
73
9
40
0
40
0
40
0
40
0
40
0.166655161444303
40
0.333311052255976
40
0.499966325040631
40
0.666643990813468
40
0.833322246954642
40
1
40
1
40
1
40
1
41
1
10
45.2495190528384
20
13.36636666116
30
0
41
1
10
45.2141636366297
20
13.3247684651011
30
0
41
1
10
45.1433067752917
20
13.2417387637721
30
0
41
1
10
45.0365760236896
20
13.1177020633359
30
0
41
1
10
44.9294186058028
20
12.9941460831008
30
0
41
1
10
44.8218498834594
20
12.8710564516301
30
0
41
1
10
44.7138834279931
20
12.7484206027789
30
0
41
1
10
44.6416572346798
20
12.6669567137871
30
0
41
1
10
44.6054809471617
20
12.6262992479855
30
0
0
SPLINE
5
16E
100
AcDbEntity
8
1
62
256
6
ByLayer
370
18
48
1
60
0
100
AcDbSpline
70
4
71
3
72
28
73
24
40
0
40
0
40
0
40
0
40
0.0593229462183258
40
0.118657017418845
40
0.177994844057704
40
0.237328997602797
40
0.296652012897298
40
0.356375156842579
40
0.416112864416739
40
0.475853119182519
40
0.535586398819273
40
0.595305828127173
40
0.646749836861101
40
0.698197888707863
40
0.749640113082028
40
0.788388333245543
40
0.827143754442393
40
0.865896677772892
40
0.904641491082033
40
0.935414830525238
40
0.966196113205824
40
0.996974048457432
40
1
40
1
40
1
40
1
41
1
10
44.6054809471617
20
13.2851627792955
30
0
41
1
10
44.6027076782167
20
13.2743074541143
30
0
41
1
10
44.5972712874494
20
13.2525907052583
30
0
41
1
10
44.589447902235
20
13.2199978080359
30
0
41
1
10
44.5819569817116
20
13.1873984239342
30
0
41
1
10
44.5748003412422
20
13.1548040450486
30
0
41
1
10
44.5679644008214
20
13.1221506713135
30
0
41
1
10
44.5614508531077
20
13.0894432193571
30
0
41
1
10
44.5552797578791
20
13.0566885797386
30
0
41
1
10
44.5494863757362
20
13.0239718973525
30
0
41
1
10
44.5440921815421
20
12.9913104292218
30
0
41
1
10
44.5393470352824
20
12.9602233104731
30
0
41
1
10
44.5352061685294
20
12.9307116849719
30
0
41
1
10
44.5316389212715
20
12.9027763998911
30
0
41
1
10
44.5287280002626
20
12.8772222915076
30
0
41
1
10
44.5263896014947
20
12.8540384867694
30
0
41
1
10
44.5245481664367
20
12.8332100667172
30
0
41
1
10
44.5230021189881
20
12.8124709070939
30
0
41
1
10
44.5218647969898
20
12.7932542460452
30
0
41
1
10
44.5210816369828
20
12.7755482590505
30
0
41
1
10
44.520616480419
20
12.7593452624288
30
0
41
1
10
44.5204764847794
20
12.7480858256974
30
0
41
1
10
44.5204800981985
20
12.7422260371779
30
0
41
1
10
44.5204809475907
20
12.7417017204433
30
0
0
SPLINE
5
16F
100
AcDbEntity
8
1
62
256
6
ByLayer
370
18
48
1
60
0
100
AcDbSpline
70
4
71
3
72
31
73
27
40
0
40
0
40
0
40
0
40
0.0415829731963885
40
0.0831669125061018
40
0.124751350189752
40
0.166335805863362
40
0.207919786688859
40
0.249502787563088
40
0.291085497424857
40
0.332669121199681
40
0.374253218329941
40
0.415837334730158
40
0.457421002974613
40
0.499003742483463
40
0.540586173764139
40
0.582169464100994
40
0.623753201024075
40
0.665336957998775
40
0.706920294609084
40
0.748502756739376
40
0.790418255975891
40
0.832334577229568
40
0.874251327387073
40
0.916168098584719
40
0.958084468393064
40
1
40
1
40
1
40
1
41
1
10
45.2495190528383
20
16.4283432210509
30
0
41
1
10
45.2427449511733
20
16.384237509052
30
0
41
1
10
45.2290105546174
20
16.2960644064135
30
0
41
1
10
45.2078493201351
20
16.1639205354524
30
0
41
1
10
45.1861324177308
20
16.0318955723426
30
0
41
1
10
45.1638626679518
20
15.8999933466909
30
0
41
1
10
45.1410432856243
20
15.7682180398581
30
0
41
1
10
45.1176771481671
20
15.6365724673784
30
0
41
1
10
45.0937668286329
20
15.5050576428172
30
0
41
1
10
45.069315277163
20
15.3736743668003
30
0
41
1
10
45.0443255969325
20
15.2424246171626
30
0
41
1
10
45.0188012091579
20
15.1113120902963
30
0
41
1
10
44.9927455351881
20
14.9803404826677
30
0
41
1
10
44.9661617531119
20
14.849512323816
30
0
41
1
10
44.9390526794631
20
14.7188283900698
30
0
41
1
10
44.9114214470061
20
14.5882892501473
30
0
41
1
10
44.8832713495829
20
14.4578965399216
30
0
41
1
10
44.8546060271521
20
14.3276535339155
30
0
41
1
10
44.8254291192294
20
14.1975635062326
30
0
41
1
10
44.7956646920475
20
14.0672814516306
30
0
41
1
10
44.7653110067449
20
13.9368093442405
30
0
41
1
10
44.7343666581998
20
13.8061490226817
30
0
41
1
10
44.7029158106078
20
13.6756486160549
30
0
41
1
10
44.6709624453774
20
13.5453110888189
30
0
41
1
10
44.6385100761556
20
13.415139199661
30
0
41
1
10
44.6165456981525
20
13.3284695394285
30
0
41
1
10
44.6054809471617
20
13.2851627792955
30
0
0
SPLINE
5
170
100
AcDbEntity
8
1
62
256
6
ByLayer
370
18
48
1
60
0
100
AcDbSpline
70
4
71
3
72
25
73
21
40
0
40
0
40
0
40
0
40
0.0524961946048218
40
0.10499514314852
40
0.157492527064303
40
0.210052141272883
40
0.262613190558663
40
0.315173162988611
40
0.372133479089207
40
0.429096248482606
40
0.486059196503375
40
0.543019756197099
40
0.599979774415892
40
0.656942176560285
40
0.713904419247518
40
0.770864220015515
40
0.82814696341027
40
0.885432870246967
40
0.942718133825588
40
1
40
1
40
1
40
1
41
1
10
45.3245190528383
20
17.3645972976542
30
0
41
1
10
45.3245129856058
20
17.3482892414714
30
0
41
1
10
45.324324833778
20
17.315650370363
30
0
41
1
10
45.323488859735
20
17.2666182743727
30
0
41
1
10
45.3221756505613
20
17.2175169744424
30
0
41
1
10
45.3204289420223
20
17.1683581869781
30
0
41
1
10
45.3182674307582
20
17.1191496594334
30
0
41
1
10
45.315642956375
20
17.0685441463493
30
0
41
1
10
45.3125403123146
20
17.0165459377374
30
0
41
1
10
45.3089294789555
20
16.9631584133025
30
0
41
1
10
45.3049001400047
20
16.9097618165152
30
0
41
1
10
45.3004602861825
20
16.8563619769405
30
0
41
1
10
45.2956168595629
20
16.8029627448451
30
0
41
1
10
45.2903635232135
20
16.7495672870392
30
0
41
1
10
45.2846949242667
20
16.6961803651435
30
0
41
1
10
45.2785935293232
20
16.6427062818458
30
0
41
1
10
45.2720520369053
20
16.5891486781181
30
0
41
1
10
45.2650473873134
20
16.5355125091245
30
0
41
1
10
45.2575730912002
20
16.4819049917468
30
0
41
1
10
45.2522579936736
20
16.4461928801696
30
0
41
1
10
45.2495190528383
20
16.4283432210509
30
0
0
SPLINE
5
171
100
AcDbEntity
8
1
62
256
6
ByLayer
370
18
48
1
60
0
100
AcDbSpline
70
4
71
3
72
50
73
46
40
0
40
0
40
0
40
0
40
0.0219701513487708
40
0.0439380385572926
40
0.0542148384580792
40
0.0645334220301941
40
0.0748486419014384
40
0.0851308897704116
40
0.0953732489395508
40
0.10559908806456
40
0.110285543366632
40
0.114975995170635
40
0.119647917679831
40
0.123389385115221
40
0.127122529804673
40
0.129776718197993
40
0.132428621761236
40
0.13507961207892
40
0.137732292081251
40
0.141895359012127
40
0.146072156136642
40
0.150187564546815
40
0.15430681301504
40
0.161250135858854
40
0.168211803412413
40
0.175170309285683
40
0.185494902158409
40
0.195822064104814
40
0.211042863532832
40
0.226265961570606
40
0.249506485517301
40
0.272749314080139
40
0.298489935498341
40
0.324233597240082
40
0.349976267503752
40
0.400466028924845
40
0.450962424120997
40
0.501463562109463
40
0.55195979171383
40
0.626626137185075
40
0.701296660787025
40
0.775972145549348
40
0.850650828680206
40
0.925328733416271
40
1
40
1
40
1
40
1
41
1
10
45.2495190528383
20
19.1080333964834
30
0
41
1
10
45.2506068885578
20
19.1127505257118
30
0
41
1
10
45.2528822569939
20
19.1221412154217
30
0
41
1
10
45.2559309363776
20
19.1336309141015
30
0
41
1
10
45.2584722773141
20
19.1425797926672
30
0
41
1
10
45.2603952152912
20
19.1490406706448
30
0
41
1
10
45.2624729841936
20
19.1554202001149
30
0
41
1
10
45.2647564594735
20
19.1616565586259
30
0
41
1
10
45.2673048355381
20
19.1676820497919
30
0
41
1
10
45.269647212741
20
19.172394216192
30
0
41
1
10
45.2716496109021
20
19.1758806437574
30
0
41
1
10
45.2732165255382
20
19.178222954473
30
0
41
1
10
45.2748254645244
20
19.1801948409599
30
0
41
1
10
45.2764574538313
20
19.1817542607554
30
0
41
1
10
45.2779350098052
20
19.1827595290307
30
0
41
1
10
45.2793261528838
20
19.1833257166348
30
0
41
1
10
45.2805799355653
20
19.1835474090883
30
0
41
1
10
45.2818261301946
20
19.1834477981012
30
0
41
1
10
45.2832569987075
20
19.1829851355841
30
0
41
1
10
45.2847928840809
20
19.1819786023086
30
0
41
1
10
45.2863324575916
20
19.1804118490479
30
0
41
1
10
45.2876933497316
20
19.1785695564081
30
0
41
1
10
45.2891798656987
20
19.1760847465932
30
0
41
1
10
45.2907345433491
20
19.1728955868512
30
0
41
1
10
45.2922882476421
20
19.1689802044298
30
0
41
1
10
45.2938843732446
20
19.164266141287
30
0
41
1
10
45.2954983828776
20
19.1587541736279
30
0
41
1
10
45.2973340039927
20
19.151433700545
30
0
41
1
10
45.2991665751909
20
19.1429746269737
30
0
41
1
10
45.3012684405523
20
19.1316882393559
30
0
41
1
10
45.3033688422337
20
19.1185792723969
30
0
41
1
10
45.3054822761974
20
19.1031069927841
30
0
41
1
10
45.3074086419605
20
19.087010860071
30
0
41
1
10
45.309160897969
20
19.0703033655148
30
0
41
1
10
45.3112211437482
20
19.0481712364927
30
0
41
1
10
45.3134374711092
20
19.0205787984315
30
0
41
1
10
45.3156321017752
20
18.987494349691
30
0
41
1
10
45.3174526793138
20
18.9543345503897
30
0
41
1
10
45.3192299985811
20
18.9158266296024
30
0
41
1
10
45.320901712155
20
18.8719673246158
30
0
41
1
10
45.3223359144716
20
18.8227419072319
30
0
41
1
10
45.3233763212505
20
18.7734674756964
30
0
41
1
10
45.3240655978551
20
18.7241558084741
30
0
41
1
10
45.3244420255176
20
18.6748179513856
30
0
41
1
10
45.3245237625026
20
18.6419157390281
30
0
41
1
10
45.3245190528383
20
18.6254620396571
30
0
0
SPLINE
5
172
100
AcDbEntity
8
1
62
256
6
ByLayer
370
18
48
1
60
0
100
AcDbSpline
70
4
71
3
72
34
73
30
40
0
40
0
40
0
40
0
40
0.0414029011800066
40
0.0828081321713283
40
0.124214378625764
40
0.165620446702531
40
0.20702526604181
40
0.248427892772126
40
0.289833518261538
40
0.331242026226957
40
0.372651798667526
40
0.414061360037258
40
0.455469380899617
40
0.496874681631686
40
0.53236770112404
40
0.567863519473056
40
0.603360881137724
40
0.638858616921806
40
0.674355645967487
40
0.709850977776965
40
0.74534371426053
40
0.77716051547914
40
0.808978204230478
40
0.840795855730891
40
0.872612606151357
40
0.904458990915098
40
0.936306347712602
40
0.968153666741071
40
1
40
1
40
1
40
1
41
1
10
44.6054809471617
20
17.2170729269221
30
0
41
1
10
44.6165557548545
20
17.2420884321388
30
0
41
1
10
44.6385506640032
20
17.2922106843285
30
0
41
1
10
44.6710823887479
20
17.3676643728059
30
0
41
1
10
44.7031393192697
20
17.4433905656578
30
0
41
1
10
44.7347110890148
20
17.5193878641172
30
0
41
1
10
44.7657859548984
20
17.5956550387932
30
0
41
1
10
44.7963540594931
20
17.672194494995
30
0
41
1
10
44.8264053144333
20
17.7490091421638
30
0
41
1
10
44.8559292597227
20
17.8261012879551
30
0
41
1
10
44.8849138099531
20
17.9034688095151
30
0
41
1
10
44.9133464479911
20
17.9811085933354
30
0
41
1
10
44.9412146463366
20
18.0590175130386
30
0
41
1
10
44.9672077857334
20
18.1334739184943
30
0
41
1
10
44.9914084989489
20
18.2044362016597
30
0
41
1
10
45.0138981156421
20
18.2718658547205
30
0
41
1
10
45.0359423002219
20
18.3394947799058
30
0
41
1
10
45.0575327551229
20
18.4073194886751
30
0
41
1
10
45.0786611906302
20
18.4753364798444
30
0
41
1
10
45.0993193231018
20
18.543542243966
30
0
41
1
10
45.1188028200099
20
18.6095744255428
30
0
41
1
10
45.1371612238442
20
18.6734105571662
30
0
41
1
10
45.1544440081764
20
18.7350296151541
30
0
41
1
10
45.171326279187
20
18.7967965165055
30
0
41
1
10
45.1878074590218
20
18.8587280622748
30
0
41
1
10
45.2038816730638
20
18.920823143623
30
0
41
1
10
45.2195431512164
20
18.9830802118372
30
0
41
1
10
45.2347819562529
20
19.0454773154461
30
0
41
1
10
45.2446542619258
20
19.0871662729952
30
0
41
1
10
45.2495190528383
20
19.1080333964834
30
0
0
SPLINE
5
173
100
AcDbEntity
8
1
62
256
6
ByLayer
370
18
48
1
60
0
100
AcDbSpline
70
4
71
3
72
47
73
43
40
0
40
0
40
0
40
0
40
0.0150007344488304
40
0.0300784556764394
40
0.045155397913417
40
0.0601803737873218
40
0.0751379064671814
40
0.0900582093563867
40
0.0982299222887025
40
0.106410995392438
40
0.114569447841631
40
0.120987998915871
40
0.127420730170973
40
0.133829544453492
40
0.140297881920393
40
0.146793966149164
40
0.153263129648044
40
0.161669063744832
40
0.170083294958296
40
0.179982562882773
40
0.189921972512382
40
0.199847671524025
40
0.215425848786127
40
0.231046264392545
40
0.246720907691972
40
0.262413893132184
40
0.27805312257768
40
0.307707164193872
40
0.337387634322014
40
0.367100481509877
40
0.396823818710745
40
0.426513849545459
40
0.476855835954765
40
0.527209702331972
40
0.577559340929005
40
0.643183526385562
40
0.708818820487507
40
0.774468004282459
40
0.840126449763675
40
0.905783119537935
40
0.971421558627887
40
1
40
1
40
1
40
1
41
1
10
44.6054809471617
20
17.2170729269221
30
0
41
1
10
44.604553353998
20
17.2149607491342
30
0
41
1
10
44.6026463808297
20
17.2107635648435
30
0
41
1
10
44.599663561743
20
17.2045540110119
30
0
41
1
10
44.5964939439356
20
17.1985017951295
30
0
41
1
10
44.5931097869812
20
17.1926847806026
30
0
41
1
10
44.5894747369103
20
17.187190818938
30
0
41
1
10
44.5861528634571
20
17.182866812991
30
0
41
1
10
44.5832540685738
20
17.1796063060108
30
0
41
1
10
44.5808663965275
20
17.177285659882
30
0
41
1
10
44.5785415980206
20
17.1754037512205
30
0
41
1
10
44.5763100885042
20
17.1739612724399
30
0
41
1
10
44.5742066697937
20
17.1729194333341
30
0
41
1
10
44.5720583250811
20
17.172198218219
30
0
41
1
10
44.569891785025
20
17.1718676734512
30
0
41
1
10
44.567745058638
20
17.1719255252365
30
0
41
1
10
44.5654511023218
20
17.1724146488739
30
0
41
1
10
44.5630829860857
20
17.1734746004816
30
0
41
1
10
44.5605682919569
20
17.1752278917228
30
0
41
1
10
44.5581514510058
20
17.1775858199751
30
0
41
1
10
44.5558610585698
20
17.180489068328
30
0
41
1
10
44.5534054183962
20
17.1843213999861
30
0
41
1
10
44.5508681123211
20
17.1891472424742
30
0
41
1
10
44.5483463885963
20
17.1950259804347
30
0
41
1
10
44.5461374766286
20
17.2012035324793
30
0
41
1
10
44.5441835642191
20
17.2075851990181
30
0
41
1
10
44.5418928868301
20
17.2160396359241
30
0
41
1
10
44.5393946375266
20
17.226648172989
30
0
41
1
10
44.5368797948817
20
17.2395159012298
30
0
41
1
10
44.5347344906929
20
17.2525905355734
30
0
41
1
10
44.5328896603983
20
17.2658110037813
30
0
41
1
10
44.530885553428
20
17.2822105401467
30
0
41
1
10
44.5288423467991
20
17.3018360472449
30
0
41
1
10
44.5269290884657
20
17.3247432125507
30
0
41
1
10
44.5252135735244
20
17.3501037927657
30
0
41
1
10
44.5237075662282
20
17.3779147579458
30
0
41
1
10
44.5224667812481
20
17.4081866706271
30
0
41
1
10
44.5215718994041
20
17.4385601557638
30
0
41
1
10
44.5209732934141
20
17.4690138174687
30
0
41
1
10
44.5206234189763
20
17.4995267161078
30
0
41
1
10
44.5204989956283
20
17.5243330094149
30
0
41
1
10
44.5204808987199
20
17.5389646048707
30
0
41
1
10
44.5204809539196
20
17.5434040467434
30
0
0
SPLINE
5
174
100
AcDbEntity
8
1
62
256
6
ByLayer
370
18
48
1
60
0
100
AcDbSpline
70
4
71
3
72
31
73
27
40
0
40
0
40
0
40
0
40
0.041564202868466
40
0.0831295220203072
40
0.124695394932879
40
0.166261262559743
40
0.207826569513629
40
0.249390764249905
40
0.290955022100591
40
0.332520404730063
40
0.374086348320148
40
0.415652290113652
40
0.4572176685971
40
0.498781923683695
40
0.540346186437874
40
0.581911572650955
40
0.623477522175795
40
0.665043473462576
40
0.706608863741725
40
0.748173129206686
40
0.790143314019885
40
0.832114644013953
40
0.87408655132979
40
0.916058464123493
40
0.958029806758969
40
1
40
1
40
1
40
1
41
1
10
44.6054809471617
20
19.3186194999244
30
0
41
1
10
44.6079996462687
20
19.3651496109675
30
0
41
1
10
44.6128288166453
20
19.4582246761322
30
0
41
1
10
44.6194480982263
20
19.5978810130417
30
0
41
1
10
44.6254418231948
20
19.737576570849
30
0
41
1
10
44.6308091574692
20
19.8773061568104
30
0
41
1
10
44.635549165122
20
20.0170640867421
30
0
41
1
10
44.6396609956924
20
20.1568467397167
30
0
41
1
10
44.643143791634
20
20.2966522594341
30
0
41
1
10
44.6459973790247
20
20.4364787522145
30
0
41
1
10
44.6482214946148
20
20.5763223728218
30
0
41
1
10
44.6498158283857
20
20.7161774529915
30
0
41
1
10
44.6507800706709
20
20.8560383242626
30
0
41
1
10
44.6511139162328
20
20.995901213602
30
0
41
1
10
44.65081701739
20
21.135764222698
30
0
41
1
10
44.6498897165357
20
21.275625452995
30
0
41
1
10
44.6483323134531
20
21.4154811140248
30
0
41
1
10
44.6461451119211
20
21.555325536765
30
0
41
1
10
44.6433284156327
20
21.695153052989
30
0
41
1
10
44.6398712642591
20
21.8354150028422
30
0
41
1
10
44.6357666322134
20
21.9761092779699
30
0
41
1
10
44.6310081784864
20
22.117233663303
30
0
41
1
10
44.6256100550542
20
22.2583293162352
30
0
41
1
10
44.6195732221099
20
22.3993903832547
30
0
41
1
10
44.6128985358769
20
22.540411517528
30
0
41
1
10
44.6080242497308
20
22.6343958835302
30
0
41
1
10
44.6054809471617
20
22.6813805000767
30
0
0
SPLINE
5
175
100
AcDbEntity
8
1
62
256
6
ByLayer
370
18
48
1
60
0
100
AcDbSpline
70
4
71
3
72
29
73
25
40
0
40
0
40
0
40
0
40
0.0663738860559086
40
0.13274812207181
40
0.199121907206581
40
0.265496833602576
40
0.331872250795804
40
0.398246954834194
40
0.448029766118515
40
0.497813422715738
40
0.547596816957073
40
0.597379270476947
40
0.637348092914666
40
0.67731852002538
40
0.717288982162181
40
0.7572584413091
40
0.797226451875202
40
0.832117177278933
40
0.86700846763316
40
0.901898768998693
40
0.928070570889596
40
0.954243813893605
40
0.98041632938185
40
1
40
1
40
1
40
1
41
1
10
44.6054809471617
20
22.6813805000767
30
0
41
1
10
44.6033426053539
20
22.7207932853832
30
0
41
1
10
44.5990115212225
20
22.7996094257684
30
0
41
1
10
44.5923308687824
20
22.9178054405926
30
0
41
1
10
44.5855287474914
20
23.0359713942875
30
0
41
1
10
44.5786440695695
20
23.1541050453489
30
0
41
1
10
44.5717332369023
20
23.2722031195685
30
0
41
1
10
44.565426820895
20
23.3804239624437
30
0
41
1
10
44.5597556897421
20
23.4787747303016
30
0
41
1
10
44.5547331576384
20
23.5672639459874
30
0
41
1
10
44.5498280478925
20
23.6557213379707
30
0
41
1
10
44.5453896408039
20
23.7383320959049
30
0
41
1
10
44.5414079995132
20
23.8151011715038
30
0
41
1
10
44.5378776790256
20
23.8860337487338
30
0
41
1
10
44.5345343165093
20
23.9569322855284
30
0
41
1
10
44.5314135906097
20
24.0277894584094
30
0
41
1
10
44.5286718649179
20
24.0956003972607
30
0
41
1
10
44.5263053398429
20
24.1603657871274
30
0
41
1
10
44.5243260140229
20
24.2220846751762
30
0
41
1
10
44.5228137050853
20
24.2786069871985
30
0
41
1
10
44.5217103851804
20
24.3299410706079
30
0
41
1
10
44.5209689152742
20
24.376095613644
30
0
41
1
10
44.5205606978287
20
24.4183228513008
30
0
41
1
10
44.5204829714815
20
24.4451451089591
30
0
41
1
10
44.520480952844
20
24.4566184101699
30
0
0
SPLINE
5
176
100
AcDbEntity
8
1
62
256
6
ByLayer
370
18
48
1
60
0
100
AcDbSpline
70
4
71
3
72
34
73
30
40
0
40
0
40
0
40
0
40
0.0310025296412151
40
0.0620059695882966
40
0.0930094434577771
40
0.124012019358151
40
0.155042667555867
40
0.186074154456241
40
0.217105675089171
40
0.248136369287066
40
0.283578023063502
40
0.319022274857432
40
0.354468225059054
40
0.389914881943044
40
0.425361163710252
40
0.460805900502893
40
0.496247836391901
40
0.537593432288738
40
0.57894175289629
40
0.62029161602062
40
0.661641689887854
40
0.702990496841712
40
0.74433641699142
40
0.786944798731453
40
0.829555575935752
40
0.872167722361305
40
0.914780069405435
40
0.957391309589127
40
1
40
1
40
1
40
1
41
1
10
45.2495190528383
20
22.8919666035166
30
0
41
1
10
45.2447831922521
20
22.9122808129358
30
0
41
1
10
45.235176161727
20
22.9528663185801
30
0
41
1
10
45.2203576836195
20
23.0136154095346
30
0
41
1
10
45.2051383479276
20
23.0742319091088
30
0
41
1
10
45.1895180076105
20
23.1347315859522
30
0
41
1
10
45.1735011573496
20
23.1951127176044
30
0
41
1
10
45.1570924141747
20
23.2553739648544
30
0
41
1
10
45.1403018871411
20
23.3154948491232
30
0
41
1
10
45.1223214317491
20
23.3783151077135
30
0
41
1
10
45.1030912832055
20
23.443810112262
30
0
41
1
10
45.0825508315333
20
23.511953155842
30
0
41
1
10
45.0615400035213
20
23.5799083067288
30
0
41
1
10
45.0400670526755
20
23.6476720229581
30
0
41
1
10
45.0181402386109
20
23.7152407726435
30
0
41
1
10
44.9957678288304
20
23.7826110360666
30
0
41
1
10
44.9716906527402
20
23.8535113608212
30
0
41
1
10
44.9458273139801
20
23.9279033652217
30
0
41
1
10
44.9180951101725
20
24.005745564205
30
0
41
1
10
44.8897981242525
20
24.0833195487332
30
0
41
1
10
44.8609488551384
20
24.1606221445618
30
0
41
1
10
44.8315597911297
20
24.2376501929781
30
0
41
1
10
44.8013377713415
20
24.3151845549832
30
0
41
1
10
44.7702745132928
20
24.3932178500471
30
0
41
1
10
44.7383622040457
20
24.4717431006141
30
0
41
1
10
44.705922259731
20
24.5499825300943
30
0
41
1
10
44.6729674992621
20
24.627934770843
30
0
41
1
10
44.6395092394193
20
24.7055982736699
30
0
41
1
10
44.6168783608637
20
24.757183038796
30
0
41
1
10
44.6054809471617
20
24.7829270731033
30
0
0
SPLINE
5
177
100
AcDbEntity
8
1
62
256
6
ByLayer
370
18
48
1
60
0
100
AcDbSpline
70
4
71
3
72
50
73
46
40
0
40
0
40
0
40
0
40
0.0746712665837198
40
0.149349171319786
40
0.224027854450651
40
0.298703339212974
40
0.373373862814915
40
0.448040208286166
40
0.498536437890533
40
0.549037575879006
40
0.599533971075153
40
0.650023732496251
40
0.675766402759911
40
0.701510064501654
40
0.727250685919865
40
0.750493514482704
40
0.773734038429399
40
0.788957136467159
40
0.804177935895191
40
0.814505097841596
40
0.824829690714322
40
0.831788196587576
40
0.838749864141147
40
0.845693186984964
40
0.849812435453189
40
0.853927843863358
40
0.858104640987876
40
0.862267707918752
40
0.864920387921076
40
0.867571378238768
40
0.870223281802011
40
0.872877470195331
40
0.876610614884784
40
0.880352082320171
40
0.885024004829377
40
0.889714456633384
40
0.894400911935445
40
0.904626751060455
40
0.9148691102296
40
0.925151358098561
40
0.935466577969815
40
0.945785161541931
40
0.956061961442707
40
0.978029848651226
40
1
40
1
40
1
40
1
41
1
10
45.3245190528383
20
23.3745379603429
30
0
41
1
10
45.3245237625026
20
23.3580842609719
30
0
41
1
10
45.3244420255176
20
23.3251820486144
30
0
41
1
10
45.3240655978551
20
23.2758441915259
30
0
41
1
10
45.3233763212505
20
23.2265325243036
30
0
41
1
10
45.3223359144716
20
23.1772580927681
30
0
41
1
10
45.320901712155
20
23.1280326753842
30
0
41
1
10
45.3192299985811
20
23.0841733703976
30
0
41
1
10
45.3174526793138
20
23.0456654496103
30
0
41
1
10
45.3156321017751
20
23.012505650309
30
0
41
1
10
45.3134374711092
20
22.9794212015685
30
0
41
1
10
45.3112211437482
20
22.9518287635072
30
0
41
1
10
45.309160897969
20
22.9296966344852
30
0
41
1
10
45.3074086419605
20
22.912989139929
30
0
41
1
10
45.3054822761974
20
22.8968930072159
30
0
41
1
10
45.3033688422337
20
22.8814207276031
30
0
41
1
10
45.3012684405523
20
22.8683117606441
30
0
41
1
10
45.2991665751909
20
22.8570253730263
30
0
41
1
10
45.2973340039926
20
22.848566299455
30
0
41
1
10
45.2954983828776
20
22.8412458263721
30
0
41
1
10
45.2938843732445
20
22.835733858713
30
0
41
1
10
45.2922882476422
20
22.8310197955702
30
0
41
1
10
45.2907345433491
20
22.8271044131488
30
0
41
1
10
45.2891798656987
20
22.8239152534068
30
0
41
1
10
45.2876933497316
20
22.8214304435919
30
0
41
1
10
45.2863324575916
20
22.8195881509521
30
0
41
1
10
45.2847928840809
20
22.8180213976914
30
0
41
1
10
45.2832569987075
20
22.8170148644159
30
0
41
1
10
45.2818261301946
20
22.8165522018987
30
0
41
1
10
45.2805799355653
20
22.8164525909117
30
0
41
1
10
45.2793261528838
20
22.8166742833652
30
0
41
1
10
45.2779350098052
20
22.8172404709693
30
0
41
1
10
45.2764574538313
20
22.8182457392446
30
0
41
1
10
45.2748254645244
20
22.8198051590401
30
0
41
1
10
45.2732165255382
20
22.821777045527
30
0
41
1
10
45.2716496109021
20
22.8241193562426
30
0
41
1
10
45.269647212741
20
22.827605783808
30
0
41
1
10
45.2673048355381
20
22.8323179502081
30
0
41
1
10
45.2647564594736
20
22.8383434413741
30
0
41
1
10
45.2624729841936
20
22.8445797998851
30
0
41
1
10
45.2603952152913
20
22.8509593293552
30
0
41
1
10
45.2584722773141
20
22.8574202073328
30
0
41
1
10
45.2559309363776
20
22.8663690858985
30
0
41
1
10
45.2528822569938
20
22.8778587845783
30
0
41
1
10
45.2506068885578
20
22.8872494742881
30
0
41
1
10
45.2495190528383
20
22.8919666035166
30
0
0
SPLINE
5
178
100
AcDbEntity
8
1
62
256
6
ByLayer
370
18
48
1
60
0
100
AcDbSpline
70
4
71
3
72
47
73
43
40
0
40
0
40
0
40
0
40
0.0248430550255093
40
0.0910993212535936
40
0.157374242908843
40
0.223650948587962
40
0.289918130866342
40
0.356171072785618
40
0.422412682539977
40
0.472057341656091
40
0.521706062619914
40
0.5713435938332
40
0.601459573490405
40
0.631609969816336
40
0.661749372067563
40
0.691855145875963
40
0.721933661850323
40
0.737573634614447
40
0.753267365928223
40
0.768942754229451
40
0.784563912260283
40
0.800142829939223
40
0.81006900071048
40
0.820008882751351
40
0.829908621179182
40
0.838323252313544
40
0.84672958593687
40
0.853199056909319
40
0.859695449891156
40
0.866164094792372
40
0.872573213680111
40
0.879006250677179
40
0.885425106819426
40
0.893583947032575
40
0.901765408975403
40
0.909937510301947
40
0.924858522332845
40
0.939816765923949
40
0.954842455914218
40
0.969920114737005
40
0.984998552587314
40
1
40
1
40
1
40
1
41
1
10
44.520480952844
20
24.4566184101699
30
0
41
1
10
44.5204809324716
20
24.460477393262
30
0
41
1
10
44.5204960967639
20
24.474624697831
30
0
41
1
10
44.5206102598531
20
24.4990439321244
30
0
41
1
10
44.5209535453729
20
24.5298450135718
30
0
41
1
10
44.5215489475457
20
24.5605861866042
30
0
41
1
10
44.522445110058
20
24.591246075205
30
0
41
1
10
44.5236928091537
20
24.621802815976
30
0
41
1
10
44.5252013392741
20
24.6496942451463
30
0
41
1
10
44.5269068092275
20
24.6749333255666
30
0
41
1
10
44.528785546148
20
24.6975214385807
30
0
41
1
10
44.5307987730934
20
24.7170035942432
30
0
41
1
10
44.5327882650499
20
24.7334319826206
30
0
41
1
10
44.5346458541504
20
24.7468479257574
30
0
41
1
10
44.5368103660503
20
24.7601154208877
30
0
41
1
10
44.5393531947573
20
24.773171510939
30
0
41
1
10
44.5418770403081
20
24.7839016924399
30
0
41
1
10
44.5441835558451
20
24.7924148059245
30
0
41
1
10
44.5461374788731
20
24.7987964661959
30
0
41
1
10
44.5483463879968
20
24.8049740199192
30
0
41
1
10
44.5508681124834
20
24.8108527574301
30
0
41
1
10
44.5534054183699
20
24.8156786000294
30
0
41
1
10
44.5558610585755
20
24.8195109316686
30
0
41
1
10
44.5581514510043
20
24.8224141800258
30
0
41
1
10
44.5605682919573
20
24.824772108277
30
0
41
1
10
44.5630829860856
20
24.8265253995185
30
0
41
1
10
44.5654511023217
20
24.8275853511261
30
0
41
1
10
44.567745058638
20
24.8280744747635
30
0
41
1
10
44.5698917850249
20
24.8281323265488
30
0
41
1
10
44.5720583250812
20
24.827801781781
30
0
41
1
10
44.5742066697936
20
24.8270805666659
30
0
41
1
10
44.5763100885043
20
24.8260387275602
30
0
41
1
10
44.5785415980206
20
24.8245962487795
30
0
41
1
10
44.5808663965275
20
24.822714340118
30
0
41
1
10
44.5832540685739
20
24.8203936939892
30
0
41
1
10
44.5861528634564
20
24.8171331870097
30
0
41
1
10
44.5894747369089
20
24.8128091810649
30
0
41
1
10
44.5931097869799
20
24.8073152194047
30
0
41
1
10
44.5964939439351
20
24.8014982048827
30
0
41
1
10
44.5996635617434
20
24.7954459890053
30
0
41
1
10
44.6026463808305
20
24.7892364351783
30
0
41
1
10
44.6045533539986
20
24.7850392508901
30
0
41
1
10
44.6054809471617
20
24.7829270731033
30
0
0
SPLINE
5
179
100
AcDbEntity
8
1
62
256
6
ByLayer
370
18
48
1
60
0
100
AcDbSpline
70
4
71
3
72
29
73
25
40
0
40
0
40
0
40
0
40
0.0184981910465064
40
0.0445761298578555
40
0.0706547975093766
40
0.0967320232588192
40
0.132075305815477
40
0.16741962539932
40
0.202763357748303
40
0.24256163721592
40
0.282361349455857
40
0.322162051885878
40
0.361962718144674
40
0.401761797787483
40
0.451504333017374
40
0.50124780957499
40
0.550991548816162
40
0.600734442257338
40
0.667055330047194
40
0.733376931216028
40
0.799698041598088
40
0.866465173256349
40
0.933232764745206
40
1
40
1
40
1
40
1
41
1
10
44.5204809539196
20
17.5434040467434
30
0
41
1
10
44.520482568793
20
17.5542411916548
30
0
41
1
10
44.5205540298498
20
17.580370441887
30
0
41
1
10
44.5209427918288
20
17.6218462914521
30
0
41
1
10
44.5216690717799
20
17.6678309573043
30
0
41
1
10
44.522762678296
20
17.7193171014741
30
0
41
1
10
44.5242771854261
20
17.7763147130297
30
0
41
1
10
44.5262764982684
20
17.8388330978947
30
0
41
1
10
44.5286574045458
20
17.9040318921023
30
0
41
1
10
44.5314012125651
20
17.9719088920965
30
0
41
1
10
44.5345071688049
20
18.0424639639858
30
0
41
1
10
44.5378341413187
20
18.1130600904801
30
0
41
1
10
44.5413468635471
20
18.1836900284891
30
0
41
1
10
44.5453138701302
20
18.2602329969337
30
0
41
1
10
44.5497414584045
20
18.3426943137033
30
0
41
1
10
44.5546401306709
20
18.4310790324911
30
0
41
1
10
44.5596567077787
20
18.5194955948862
30
0
41
1
10
44.5653217334281
20
18.6177653001976
30
0
41
1
10
44.5716221063459
20
18.7258966694204
30
0
41
1
10
44.578527236725
20
18.8438968555046
30
0
41
1
10
44.5854226308377
20
18.9621978994484
30
0
41
1
10
44.5922512692656
20
19.0807967903221
30
0
41
1
10
44.5989728591785
20
19.1996914896174
30
0
41
1
10
44.6033298983846
20
19.2789736480995
30
0
41
1
10
44.6054809471617
20
19.3186194999244
30
0
0
SPLINE
5
17A
100
AcDbEntity
8
1
62
256
6
ByLayer
370
18
48
1
60
0
100
AcDbSpline
70
4
71
3
72
29
73
25
40
0
40
0
40
0
40
0
40
0.0077973475066705
40
0.0405662793744264
40
0.0750462898468169
40
0.109531297612103
40
0.144013196600527
40
0.186232105784445
40
0.228461425623618
40
0.270697383126506
40
0.312932618847874
40
0.355156491018863
40
0.407897765663211
40
0.460646941808933
40
0.513397637380268
40
0.566140984268157
40
0.61887181886894
40
0.671608314565326
40
0.724345281982459
40
0.77707675990684
40
0.83280460011257
40
0.888538545604846
40
0.944272350939429
40
1
40
1
40
1
40
1
41
1
10
44.5204809498914
20
29.2582581967162
30
0
41
1
10
44.5204804504624
20
29.2569064944858
30
0
41
1
10
44.5204946085096
20
29.2498671596796
30
0
41
1
10
44.5206997260354
20
29.236767337516
30
0
41
1
10
44.5212911030192
20
29.2188850039137
30
0
41
1
10
44.5222007674244
20
29.2005876376514
30
0
41
1
10
44.523473843671
20
29.1808205241473
30
0
41
1
10
44.5251464721881
20
29.1595769614351
30
0
41
1
10
44.5272632841708
20
29.136850293328
30
0
41
1
10
44.529690367018
20
29.1140376830083
30
0
41
1
10
44.5324017042149
20
29.0911564804726
30
0
41
1
10
44.5356175689553
20
29.0663154318256
30
0
41
1
10
44.5393903223325
20
29.0395069058015
30
0
41
1
10
44.5437843589018
20
29.0107244764046
30
0
41
1
10
44.5485092794415
20
28.9818897873292
30
0
41
1
10
44.5535441759612
20
28.9530166358639
30
0
41
1
10
44.5588703570227
20
28.9241128971576
30
0
41
1
10
44.5644810369703
20
28.8951841481493
30
0
41
1
10
44.5703681749615
20
28.866235808104
30
0
41
1
10
44.5766404554561
20
28.8367266647454
30
0
41
1
10
44.5833080191662
20
28.8066608756061
30
0
41
1
10
44.5903896482176
20
28.7760439406721
30
0
41
1
10
44.5977640479964
20
28.7454317871111
30
0
41
1
10
44.6028761340785
20
28.7250337802603
30
0
41
1
10
44.6054809471617
20
28.7148372207045
30
0
0
SPLINE
5
17B
100
AcDbEntity
8
1
62
256
6
ByLayer
370
18
48
1
60
0
100
AcDbSpline
70
4
71
3
72
38
73
34
40
0
40
0
40
0
40
0
40
0.0616115698766097
40
0.117038818417617
40
0.172517176326847
40
0.227989995424709
40
0.283424233598651
40
0.338814446723891
40
0.373747881086833
40
0.408776214709634
40
0.443815634020256
40
0.478808799276408
40
0.513730266449345
40
0.54859229897479
40
0.57172846008725
40
0.594905040040182
40
0.618062327619404
40
0.641172130944423
40
0.66461931635556
40
0.688173975047673
40
0.711689438362551
40
0.735082913701733
40
0.757834235627479
40
0.780660499746627
40
0.803414042612067
40
0.826065629088777
40
0.848782181877222
40
0.871456255956783
40
0.899529333961063
40
0.927697979313531
40
0.955912275998562
40
0.984047798905354
40
1
40
1
40
1
40
1
41
1
10
44.5204809475907
20
12.7417017204433
30
0
41
1
10
44.5204784478934
20
12.7368892246211
30
0
41
1
10
44.5205646607812
20
12.727790275961
30
0
41
1
10
44.5209322130514
20
12.7144884685892
30
0
41
1
10
44.5215469022713
20
12.7017895907093
30
0
41
1
10
44.5224683357597
20
12.6892527012723
30
0
41
1
10
44.5237406185924
20
12.6769234876016
30
0
41
1
10
44.525206094158
20
12.6663340527181
30
0
41
1
10
44.5267337067895
20
12.6574087576496
30
0
41
1
10
44.5282164456898
20
12.6500774004499
30
0
41
1
10
44.5299416426114
20
12.6429258118681
30
0
41
1
10
44.5319428602614
20
12.6360088465764
30
0
41
1
10
44.534255293113
20
12.6293830987048
30
0
41
1
10
44.5366133706456
20
12.623804678808
30
0
41
1
10
44.5389229556304
20
12.6191990783324
30
0
41
1
10
44.5410963459841
20
12.6154832829465
30
0
41
1
10
44.5434836224169
20
12.6120368590973
30
0
41
1
10
44.5461111611872
20
12.6088924027903
30
0
41
1
10
44.5490118889345
20
12.6061217812245
30
0
41
1
10
44.5521961647107
20
12.6037940471036
30
0
41
1
10
44.5556391715877
20
12.6019859199087
30
0
41
1
10
44.5592946303631
20
12.6007872647594
30
0
41
1
10
44.563140314641
20
12.6002644184404
30
0
41
1
10
44.5671126782751
20
12.6003763998041
30
0
41
1
10
44.5711924019173
20
12.6011137753108
30
0
41
1
10
44.5753263295721
20
12.6024722421033
30
0
41
1
10
44.5794642110369
20
12.6043613456296
30
0
41
1
10
44.5839018264891
20
12.6069122544826
30
0
41
1
10
44.5885973838388
20
12.6101895664143
30
0
41
1
10
44.593505939752
20
12.6142088274701
30
0
41
1
10
44.5982866738693
20
12.6186496821087
30
0
41
1
10
44.6022610806586
20
12.6227397918445
30
0
41
1
10
44.6046306731507
20
12.6253419759258
30
0
41
1
10
44.6054809471617
20
12.6262992479855
30
0
0
SPLINE
5
17C
100
AcDbEntity
8
1
62
256
6
ByLayer
370
18
48
1
60
0
100
AcDbSpline
70
4
71
3
72
27
73
23
40
0
40
0
40
0
40
0
40
0.0003404751262155
40
0.0408926924559315
40
0.0814772949488794
40
0.122086229355733
40
0.162695933935248
40
0.203269222482861
40
0.255050945549239
40
0.306853743500511
40
0.358662382698119
40
0.410452074178419
40
0.469003780441623
40
0.527579743958998
40
0.586167715975905
40
0.64475103181646
40
0.703308907161096
40
0.762633273648725
40
0.821978397010685
40
0.881330465133478
40
0.940675612974445
40
1
40
1
40
1
40
1
41
1
10
44.5204809471678
20
10.0478368736345
30
0
41
1
10
44.5204809478174
20
10.0478768512733
30
0
41
1
10
44.5204817100966
20
10.0526787319493
30
0
41
1
10
44.5206548504512
20
10.0623449600412
30
0
41
1
10
44.521375500545
20
10.0770277910347
30
0
41
1
10
44.5225128893241
20
10.0919166305566
30
0
41
1
10
44.5240221229171
20
10.1069673438056
30
0
41
1
10
44.5260266499855
20
10.1235433121484
30
0
41
1
10
44.5285920724609
20
10.1416624353113
30
0
41
1
10
44.5318012773243
20
10.1613435261177
30
0
41
1
10
44.5354159353369
20
10.1811484185459
30
0
41
1
10
44.5395738900303
20
10.2019178249445
30
0
41
1
10
44.5442949483342
20
10.2236480775147
30
0
41
1
10
44.5496151555798
20
10.2463376521376
30
0
41
1
10
44.555324832194
20
10.2690990957674
30
0
41
1
10
44.561402654238
20
10.2919107385106
30
0
41
1
10
44.5678567156615
20
10.3148570400417
30
0
41
1
10
44.5746760511549
20
10.3379298303468
30
0
41
1
10
44.5818645585863
20
10.3611228521504
30
0
41
1
10
44.5893887440001
20
10.384324048379
30
0
41
1
10
44.5972440524127
20
10.4075181858968
30
0
41
1
10
44.602699060413
20
10.4229662996729
30
0
41
1
10
44.6054809471617
20
10.4306865739586
30
0
0
SPLINE
5
17D
100
AcDbEntity
8
1
62
256
6
ByLayer
370
18
48
1
60
0
100
AcDbSpline
70
4
71
3
72
35
73
31
40
0
40
0
40
0
40
0
40
0.0230240023043449
40
0.0973236558136146
40
0.146202260710127
40
0.19516640821345
40
0.244124681729076
40
0.293021546724877
40
0.341843628529297
40
0.375664034599067
40
0.40957765737776
40
0.443489097630415
40
0.47733747756605
40
0.511103021293691
40
0.540607492614963
40
0.570201156280743
40
0.599767796320804
40
0.629235299560316
40
0.658973123367112
40
0.688850362139507
40
0.718723436189075
40
0.748455554053989
40
0.77430738076613
40
0.800235091480811
40
0.826178552943662
40
0.852051918565314
40
0.888956565644939
40
0.925973116433533
40
0.963034308092468
40
1
40
1
40
1
40
1
41
1
10
44.5204809499641
20
31.9521188154647
30
0
41
1
10
44.5204754886012
20
31.9535390211023
30
0
41
1
10
44.5204917657457
20
31.9595186646919
30
0
41
1
10
44.5207862972086
20
31.9683477324631
30
0
41
1
10
44.5214662810636
20
31.9785266505985
30
0
41
1
10
44.5223346623736
20
31.9870128054159
30
0
41
1
10
44.5235259817515
20
31.9952662741426
30
0
41
1
10
44.5250823354042
20
32.0032270409534
30
0
41
1
10
44.526841874936
20
32.0100609797118
30
0
41
1
10
44.5287043274356
20
32.0158386144469
30
0
41
1
10
44.53057249091
20
32.0206403995584
30
0
41
1
10
44.5327084964325
20
32.0251656854017
30
0
41
1
10
44.5351336244759
20
32.0293572007194
30
0
41
1
10
44.5377530003423
20
32.0330035010095
30
0
41
1
10
44.5405492256248
20
32.0361019032651
30
0
41
1
10
44.5434880870018
20
32.0386695959041
30
0
41
1
10
44.5466973136579
20
32.0408014508106
30
0
41
1
10
44.5501848677479
20
32.0424505548476
30
0
41
1
10
44.5539638276056
20
32.043539364618
30
0
41
1
10
44.5580041476056
20
32.0440552092821
30
0
41
1
10
44.5622495536335
20
32.0439953641989
30
0
41
1
10
44.5664685591111
20
32.0433734013951
30
0
41
1
10
44.5706044521319
20
32.042270028681
30
0
41
1
10
44.5746123432811
20
32.0408153239977
30
0
41
1
10
44.5786596066748
20
32.0389889885325
30
0
41
1
10
44.5832960810892
20
32.0365133389089
30
0
41
1
10
44.5885068356792
20
32.0332394049708
30
0
41
1
10
44.5942511607148
20
32.0290697261964
30
0
41
1
10
44.5999230935877
20
32.0244443796918
30
0
41
1
10
44.603639855356
20
32.0211235306526
30
0
41
1
10
44.6054809471617
20
32.0194006791821
30
0
0
SPLINE
5
17E
100
AcDbEntity
8
1
62
256
6
ByLayer
370
18
48
1
60
0
100
AcDbSpline
70
4
71
3
72
26
73
22
40
0
40
0
40
0
40
0
40
0.0052676203949764
40
0.0439533013603224
40
0.082659523436315
40
0.121353187559656
40
0.167795319358946
40
0.214276091518063
40
0.26078220516747
40
0.307286157168115
40
0.353747747075558
40
0.413184611768356
40
0.47265180622245
40
0.532125270599567
40
0.591570689385723
40
0.659588637211875
40
0.727666043030517
40
0.795776460118509
40
0.863890541507202
40
0.931976407206698
40
1
40
1
40
1
40
1
41
1
10
44.5204809478335
20
33.9305634774664
30
0
41
1
10
44.5204810526324
20
33.9300926185052
30
0
41
1
10
44.5204932161328
20
33.9261565221755
30
0
41
1
10
44.5207023518023
20
33.9186302061503
30
0
41
1
10
44.5214085072126
20
33.9078099527633
30
0
41
1
10
44.5225580976365
20
33.8960421584779
30
0
41
1
10
44.5241881038569
20
33.8833197521342
30
0
41
1
10
44.5263454194405
20
33.869633458041
30
0
41
1
10
44.5288987747677
20
33.8557653902275
30
0
41
1
10
44.5318115372465
20
33.8417527544204
30
0
41
1
10
44.5353497428884
20
33.8263086982074
30
0
41
1
10
44.5395898944456
20
33.8094139285393
30
0
41
1
10
44.5446203278797
20
33.7910531358033
30
0
41
1
10
44.5500752362795
20
33.7725809314933
30
0
41
1
10
44.556205999109
20
33.7531312123
30
0
41
1
10
44.5630482193594
20
33.7327059467869
30
0
41
1
10
44.5706536997449
20
33.7113091034621
30
0
41
1
10
44.5787094969419
20
33.6898564664788
30
0
41
1
10
44.5871984089224
20
33.6683779040988
30
0
41
1
10
44.5961049133934
20
33.646900784925
30
0
41
1
10
44.6023109906724
20
33.6325989163214
30
0
41
1
10
44.6054809471617
20
33.6254528336146
30
0
0
SPLINE
5
17F
100
AcDbEntity
8
1
62
256
6
ByLayer
370
18
48
1
60
0
100
AcDbSpline
70
4
71
3
72
34
73
30
40
0
40
0
40
0
40
0
40
0.0100923053728233
40
0.0721133336101562
40
0.124673933339327
40
0.177313434390555
40
0.229916770245194
40
0.282427973521296
40
0.317880271046123
40
0.353495647725716
40
0.389152215257411
40
0.424757361477418
40
0.460253823494527
40
0.495626523508198
40
0.529130407417709
40
0.562747699837297
40
0.596349275865371
40
0.62983165391239
40
0.663380176213315
40
0.697052132860406
40
0.730736863083775
40
0.764302866746947
40
0.797380165882833
40
0.830559208153399
40
0.863801430272262
40
0.897034199660316
40
0.930156704560737
40
0.965077026233046
40
1
40
1
40
1
40
1
41
1
10
44.5204809482046
20
8.0694408345915
30
0
41
1
10
44.5204799424549
20
8.06891481629166
30
0
41
1
10
44.5204871692513
20
8.06516620485168
30
0
41
1
10
44.5206803777974
20
8.05880498589246
30
0
41
1
10
44.5213123822215
20
8.05054519714118
30
0
41
1
10
44.5222872407397
20
8.04304242234402
30
0
41
1
10
44.5236840727516
20
8.03589259025081
30
0
41
1
10
44.5253456254406
20
8.02989373388051
30
0
41
1
10
44.5271505271871
20
8.02495489896413
30
0
41
1
10
44.528969543695
20
8.02095742065824
30
0
41
1
10
44.5310655219793
20
8.01725492324424
30
0
41
1
10
44.5334502825918
20
8.01389732744457
30
0
41
1
10
44.5361355589588
20
8.01093486387626
30
0
41
1
10
44.5390816360997
20
8.00845773450772
30
0
41
1
10
44.5422893121743
20
8.00649349401243
30
0
41
1
10
44.545730023714
20
8.0050339738332
30
0
41
1
10
44.5494434128433
20
8.00406723037153
30
0
41
1
10
44.5534144390308
20
8.00362346667908
30
0
41
1
10
44.5576332482249
20
8.00374041265413
30
0
41
1
10
44.5620602043014
20
8.00439012743123
30
0
41
1
10
44.5666489066591
20
8.00554702125726
30
0
41
1
10
44.5713373884701
20
8.00718518450523
30
0
41
1
10
44.5760946747115
20
8.00927908975394
30
0
41
1
10
44.5808931301201
20
8.0117699165049
30
0
41
1
10
44.5857296219919
20
8.01462822116189
30
0
41
1
10
44.5905724664347
20
8.01780962439121
30
0
41
1
10
44.5954883366563
20
8.02134202164151
30
0
41
1
10
44.6004635235709
20
8.02521361737983
30
0
41
1
10
44.6038122056071
20
8.02800015336337
30
0
41
1
10
44.6054809471617
20
8.02943646665925
30
0
0
SPLINE
5
180
100
AcDbEntity
8
1
62
256
6
ByLayer
370
18
48
1
60
0
100
AcDbSpline
70
4
71
3
72
26
73
22
40
0
40
0
40
0
40
0
40
0.0284599624188235
40
0.0614560633037785
40
0.0944228110556346
40
0.139468844660388
40
0.184540534422992
40
0.229595588546201
40
0.278446051913386
40
0.327338107183382
40
0.376254612172718
40
0.425166392985395
40
0.474033414975629
40
0.53665359626886
40
0.599311047881878
40
0.661974330017458
40
0.724602466620201
40
0.793431653001466
40
0.862299614137709
40
0.931168944900644
40
1
40
1
40
1
40
1
41
1
10
44.5204809476223
20
6.51036276047212
30
0
41
1
10
44.5204824826153
20
6.51238792504198
30
0
41
1
10
44.5205680328185
20
6.5168185769879
30
0
41
1
10
44.5209845283883
20
6.52383045506988
30
0
41
1
10
44.521789754841
20
6.53228294122772
30
0
41
1
10
44.5230638050349
20
6.54189633966741
30
0
41
1
10
44.524900829503
20
6.55270932060622
30
0
41
1
10
44.5271969436867
20
6.56404743206726
30
0
41
1
10
44.529946526171
20
6.57589376809448
30
0
41
1
10
44.5331553299422
20
6.58823867198825
30
0
41
1
10
44.5367222518586
20
6.60074022642228
30
0
41
1
10
44.5406178718607
20
6.61336734121923
30
0
41
1
10
44.5452087234275
20
6.62729072166047
30
0
41
1
10
44.5505732432551
20
6.6425290637096
30
0
41
1
10
44.5567974260675
20
6.6590942346704
30
0
41
1
10
44.5634298966623
20
6.67575513761051
30
0
41
1
10
44.5706761985065
20
6.69303839432818
30
0
41
1
10
44.5785584639585
20
6.71093437686418
30
0
41
1
10
44.5871078762038
20
6.72942985636376
30
0
41
1
10
44.5960663556873
20
6.74794817467629
30
0
41
1
10
44.6022992047244
20
6.76028848951253
30
0
41
1
10
44.6054809471617
20
6.76645749612001
30
0
0
SPLINE
5
181
100
AcDbEntity
8
1
62
256
6
ByLayer
370
18
48
1
60
0
100
AcDbSpline
70
4
71
3
72
32
73
28
40
0
40
0
40
0
40
0
40
0.0234720916718199
40
0.077149009364925
40
0.130753067645078
40
0.179214798605678
40
0.227780811405662
40
0.27630789045792
40
0.324716407811043
40
0.363896559159381
40
0.403258513936374
40
0.442647911093177
40
0.481943551189727
40
0.521067832926867
40
0.555476911685444
40
0.590035123861023
40
0.624649673021769
40
0.659218293423685
40
0.693636139700326
40
0.731595929112716
40
0.769657144710268
40
0.807740162396781
40
0.845729758203133
40
0.884257597759972
40
0.922845874921922
40
0.961450218713873
40
1
40
1
40
1
40
1
41
1
10
44.5204809496749
20
35.4896216629351
30
0
41
1
10
44.5204794335244
20
35.4906793986209
30
0
41
1
10
44.5205151829572
20
35.4941243014358
30
0
41
1
10
44.5207948651059
20
35.4997980964516
30
0
41
1
10
44.5215224272086
20
35.5062352929899
30
0
41
1
10
44.522627061384
20
35.5121135278913
30
0
41
1
10
44.5240970114929
20
35.517422195528
30
0
41
1
10
44.5260041308536
20
35.5222970868288
30
0
41
1
10
44.5282284175632
20
35.5263923115903
30
0
41
1
10
44.5307130709626
20
35.5297419240593
30
0
41
1
10
44.5333709752932
20
35.5324252544271
30
0
41
1
10
44.5363797797094
20
35.5346532397574
30
0
41
1
10
44.5397338776059
20
35.5363785806422
30
0
41
1
10
44.543284165446
20
35.5375110014402
30
0
41
1
10
44.5469902423288
20
35.538078338667
30
0
41
1
10
44.5507847845562
20
35.5381695608951
30
0
41
1
10
44.5548005882826
20
35.537819126728
30
0
41
1
10
44.5590014796381
20
35.5370351094053
30
0
41
1
10
44.563512531864
20
35.5357774221047
30
0
41
1
10
44.5683320660005
20
35.5340010941919
30
0
41
1
10
44.5734395022879
20
35.5317080768486
30
0
41
1
10
44.5786430172952
20
35.5289954033104
30
0
41
1
10
44.5839337196379
20
35.5258865978702
30
0
41
1
10
44.5892889141665
20
35.52240885076
30
0
41
1
10
44.5946910363531
20
35.5185984627412
30
0
41
1
10
44.6000961781075
20
35.5145043356707
30
0
41
1
10
44.6036880411898
20
35.5116150365149
30
0
41
1
10
44.6054809471617
20
35.5101290627099
30
0
0
SPLINE
5
182
100
AcDbEntity
8
1
62
256
6
ByLayer
370
18
48
1
60
0
100
AcDbSpline
70
4
71
3
72
32
73
28
40
0
40
0
40
0
40
0
40
0.0151188494428453
40
0.0621073499832506
40
0.109076077958475
40
0.155972745539487
40
0.194758274794658
40
0.233657018999787
40
0.27257058342755
40
0.311424265710714
40
0.350171894212393
40
0.389272126481507
40
0.428547381115484
40
0.467869003833951
40
0.507118874164503
40
0.54619772213628
40
0.58919937811052
40
0.632350484411782
40
0.675521086871348
40
0.718549418665969
40
0.762681634860092
40
0.806949791043758
40
0.85130095221462
40
0.895638286423243
40
0.93982870870533
40
0.96991404553745
40
1
40
1
40
1
40
1
41
1
10
44.5204809483638
20
5.24565329693568
30
0
41
1
10
44.5204807173152
20
5.24506211404697
30
0
41
1
10
44.5205028113068
20
5.24265279804743
30
0
41
1
10
44.5207013165525
20
5.23855082935885
30
0
41
1
10
44.521299322368
20
5.2335489196215
30
0
41
1
10
44.5222073826075
20
5.2291514577113
30
0
41
1
10
44.5233831640219
20
5.22533259513509
30
0
41
1
10
44.5247711119565
20
5.22204873084704
30
0
41
1
10
44.5264577351832
20
5.21907917813032
30
0
41
1
10
44.5284532739858
20
5.2164614762926
30
0
41
1
10
44.5307742084437
20
5.2142202546769
30
0
41
1
10
44.5334493046109
20
5.21240486443404
30
0
41
1
10
44.5364757210258
20
5.21103394867874
30
0
41
1
10
44.5398283471405
20
5.21012314006563
30
0
41
1
10
44.5434856744448
20
5.20969066882746
30
0
41
1
10
44.5475669904714
20
5.20975843126943
30
0
41
1
10
44.552098800002
20
5.21040657772162
30
0
41
1
10
44.5570646927155
20
5.21165314698489
30
0
41
1
10
44.5622731328908
20
5.21344455496688
30
0
41
1
10
44.5677252066338
20
5.21577233931214
30
0
41
1
10
44.5733934712773
20
5.21862724923809
30
0
41
1
10
44.5792456068031
20
5.2219666683824
30
0
41
1
10
44.58519806883
20
5.22571996339408
30
0
41
1
10
44.5912080112481
20
5.22983492994905
30
0
41
1
10
44.5966052651508
20
5.23379991816672
30
0
41
1
10
44.6013643014985
20
5.23748213699213
30
0
41
1
10
44.6041084300422
20
5.23968466879843
30
0
41
1
10
44.6054809471617
20
5.2408067319241
30
0
0
SPLINE
5
183
100
AcDbEntity
8
1
62
256
6
ByLayer
370
18
48
1
60
0
100
AcDbSpline
70
4
71
3
72
28
73
24
40
0
40
0
40
0
40
0
40
0.000907731346673
40
0.0309269860717533
40
0.0670227425826699
40
0.103154462838549
40
0.139295746645604
40
0.1754045567235
40
0.22478241861632
40
0.274190047616588
40
0.323577418098834
40
0.372926068373249
40
0.422317237478492
40
0.471731411892331
40
0.521139051580315
40
0.570501528162444
40
0.633827726853282
40
0.697195566054659
40
0.760568566909093
40
0.823901808741244
40
0.88259632378266
40
0.941304981108854
40
1
40
1
40
1
40
1
41
1
10
44.5204809471908
20
36.754359705032
30
0
41
1
10
44.5204812158423
20
36.7543072332776
30
0
41
1
10
44.5204915567286
20
36.7525185626411
30
0
41
1
10
44.5205848173235
20
36.7485867817201
30
0
41
1
10
44.5210697107725
20
36.7423231604911
30
0
41
1
10
44.5219099612934
20
36.7354487829125
30
0
41
1
10
44.5230614362431
20
36.7283592802301
30
0
41
1
10
44.524670977887
20
36.7201968643688
30
0
41
1
10
44.5268397097487
20
36.7109065048977
30
0
41
1
10
44.5296646073859
20
36.7004480843536
30
0
41
1
10
44.5328913182047
20
36.6897776631128
30
0
41
1
10
44.5364811314624
20
36.6789292772565
30
0
41
1
10
44.5404092996953
20
36.6679251664051
30
0
41
1
10
44.5446540480734
20
36.6567849541937
30
0
41
1
10
44.5491911391546
20
36.6455349034292
30
0
41
1
10
44.5544523272322
20
36.6331254406824
30
0
41
1
10
44.5605122559289
20
36.6195389694651
30
0
41
1
10
44.5674498216704
20
36.6047659936731
30
0
41
1
10
44.5747602073388
20
36.5899100789757
30
0
41
1
10
44.5822336288783
20
36.5753593585378
30
0
41
1
10
44.5898239412978
20
36.561136107672
30
0
41
1
10
44.5974973798264
20
36.5472538231766
30
0
41
1
10
44.6027900304666
20
36.537995038438
30
0
41
1
10
44.6054809471617
20
36.5333642578061
30
0
0
SPLINE
5
184
100
AcDbEntity
8
1
62
256
6
ByLayer
370
18
48
1
60
0
100
AcDbSpline
70
4
71
3
72
30
73
26
40
0
40
0
40
0
40
0
40
0.0396566763685476
40
0.0899052433767522
40
0.131548641680555
40
0.173323555199324
40
0.215118231789151
40
0.256845633791895
40
0.298449061430299
40
0.340397787771694
40
0.382535941224383
40
0.424729091409194
40
0.466848931433492
40
0.508782229281339
40
0.55457954890019
40
0.600528423431454
40
0.646498370270464
40
0.692324517483498
40
0.740587920424941
40
0.789000293542742
40
0.837502679030692
40
0.885989103655709
40
0.934314813443179
40
0.967157081282322
40
1
40
1
40
1
40
1
41
1
10
44.5204809482201
20
37.791352741021
30
0
41
1
10
44.5204790323008
20
37.7926947387897
30
0
41
1
10
44.5205738387323
20
37.7956475928199
30
0
41
1
10
44.5210270493764
20
37.7996920642043
30
0
41
1
10
44.5218559118072
20
37.8034540128897
30
0
41
1
10
44.5229572282466
20
37.8066589982711
30
0
41
1
10
44.5243951215635
20
37.8095205097499
30
0
41
1
10
44.5261807859168
20
37.81200080379
30
0
41
1
10
44.5283308664537
20
37.8140736517752
30
0
41
1
10
44.5308756782392
20
37.8156895568445
30
0
41
1
10
44.5338093451806
20
37.8168351160319
30
0
41
1
10
44.5371057190982
20
37.8175001319068
30
0
41
1
10
44.5407415242139
20
37.8176717723973
30
0
41
1
10
44.5448248122879
20
37.8173241671351
30
0
41
1
10
44.5493811403354
20
37.8163872494602
30
0
41
1
10
44.5543928060898
20
37.814851542689
30
0
41
1
10
44.5596783960487
20
37.812779399093
30
0
41
1
10
44.5652900974691
20
37.8101563382864
30
0
41
1
10
44.5712083499298
20
37.8069774895217
30
0
41
1
10
44.5774034496781
20
37.8032709900861
30
0
41
1
10
44.5837341524114
20
37.7991400683138
30
0
41
1
10
44.5901529794325
20
37.794639317795
30
0
41
1
10
44.5959372568139
20
37.7903256374267
30
0
41
1
10
44.6010500797084
20
37.7863351784963
30
0
41
1
10
44.6040025402512
20
37.7839552338887
30
0
41
1
10
44.6054809471617
20
37.782744099361
30
0
0
SPLINE
5
185
100
AcDbEntity
8
1
62
256
6
ByLayer
370
18
48
1
60
0
100
AcDbSpline
70
4
71
3
72
27
73
23
40
0
40
0
40
0
40
0
40
0.0300151594988794
40
0.0632338243829551
40
0.0963462544717829
40
0.134527401766767
40
0.172746445111774
40
0.210974548484293
40
0.249168062087745
40
0.301429293770234
40
0.353723474783617
40
0.405994346836011
40
0.467267241571905
40
0.528599234297349
40
0.589943297603254
40
0.651232667503606
40
0.714172073409983
40
0.77715557524381
40
0.840143666753433
40
0.903089335610044
40
0.95154462461158
40
1
40
1
40
1
40
1
41
1
10
44.5204809474221
20
4.20864128010814
30
0
41
1
10
44.5204848023659
20
4.21004920728509
30
0
41
1
10
44.5205783421384
20
4.2130851085772
30
0
41
1
10
44.5210008400838
20
4.21794396143967
30
0
41
1
10
44.5217586006777
20
4.22344954934021
30
0
41
1
10
44.5228663737189
20
4.22945549920318
30
0
41
1
10
44.5243482413979
20
4.23597284993469
30
0
41
1
10
44.5261289969047
20
4.24269467678536
30
0
41
1
10
44.5284370354199
20
4.25044029082836
30
0
41
1
10
44.5313725678703
20
4.25926467267977
30
0
41
1
10
44.5350313127076
20
4.26920837887034
30
0
41
1
10
44.5393184242696
20
4.27994692968305
30
0
41
1
10
44.5442746935977
20
4.29148696401687
30
0
41
1
10
44.5499412811937
20
4.30382986954281
30
0
41
1
10
44.5560252922767
20
4.31634327600529
30
0
41
1
10
44.5625488642612
20
4.32910585423528
30
0
41
1
10
44.5694947949648
20
4.34209722498223
30
0
41
1
10
44.5768548962185
20
4.35530185416961
30
0
41
1
10
44.5845458884914
20
4.36858097442733
30
0
41
1
10
44.5919329585844
20
4.38088901726349
30
0
41
1
10
44.5989257640079
20
4.39219893891697
30
0
41
1
10
44.6032769653014
20
4.39906319582541
30
0
41
1
10
44.6054809471617
20
4.40249783486629
30
0
0
SPLINE
5
186
100
AcDbEntity
8
1
62
256
6
ByLayer
370
18
48
1
60
0
100
AcDbSpline
70
4
71
3
72
30
73
26
40
0
40
0
40
0
40
0
40
0.002203351359314
40
0.0496461686715142
40
0.0921182769225812
40
0.134729531805441
40
0.177365762404796
40
0.219934552725322
40
0.26237093163017
40
0.305081983146166
40
0.347974894729586
40
0.390926117301786
40
0.433812085541922
40
0.476517288885892
40
0.524365409983461
40
0.572363445774321
40
0.62038380336948
40
0.668262456019119
40
0.720303768740202
40
0.772505817345087
40
0.824804399167493
40
0.877085258542789
40
0.929192882578363
40
0.964596101621384
40
1
40
1
40
1
40
1
41
1
10
44.5204809472149
20
3.35914263128017
30
0
41
1
10
44.5204813942663
20
3.35907962044327
30
0
41
1
10
44.5204943746647
20
3.35766252064382
30
0
41
1
10
44.5206131566096
20
3.35511635751636
30
0
41
1
10
44.5211739800759
20
3.35182100107426
30
0
41
1
10
44.5220524427933
20
3.3489763122797
30
0
41
1
10
44.5232856593276
20
3.34649039072202
30
0
41
1
10
44.5248813827114
20
3.3443948201638
30
0
41
1
10
44.5268542874294
20
3.3427150794452
30
0
41
1
10
44.529230642227
20
3.34149372918981
30
0
41
1
10
44.5320003902793
20
3.34073565426059
30
0
41
1
10
44.5351385317528
20
3.34044350637496
30
0
41
1
10
44.5386213630923
20
3.3406221935958
30
0
41
1
10
44.5425877173382
20
3.34130652676545
30
0
41
1
10
44.547074310627
20
3.34257280182079
30
0
41
1
10
44.5520751270371
20
3.34444314938023
30
0
41
1
10
44.5573742372549
20
3.34683305305918
30
0
41
1
10
44.5630871119961
20
3.34979191179377
30
0
41
1
10
44.5692056990584
20
3.35334090824113
30
0
41
1
10
44.5757066294904
20
3.3574687735021
30
0
41
1
10
44.582378530886
20
3.36202716663755
30
0
41
1
10
44.5891695669907
20
3.36695888800998
30
0
41
1
10
44.5953106196706
20
3.37165880814114
30
0
41
1
10
44.6007533888974
20
3.37598932830993
30
0
41
1
10
44.6039024497084
20
3.37856520908027
30
0
41
1
10
44.6054809471617
20
3.37987438896338
30
0
0
SPLINE
5
187
100
AcDbEntity
8
1
62
256
6
ByLayer
370
18
48
1
60
0
100
AcDbSpline
70
4
71
3
72
26
73
22
40
0
40
0
40
0
40
0
40
0.0306795055601343
40
0.0707310307782098
40
0.110649963271386
40
0.159511647543105
40
0.208493511370358
40
0.257574919911632
40
0.306700213899765
40
0.355783498021784
40
0.40471298525266
40
0.460851669811367
40
0.517044753883324
40
0.573248645709027
40
0.629402081875516
40
0.687072879346379
40
0.744783949038709
40
0.80249988489974
40
0.86017732258659
40
0.930088279967729
40
1
40
1
40
1
40
1
41
1
10
44.5204809484386
20
38.6408487377063
30
0
41
1
10
44.520486467073
20
38.6396853303744
30
0
41
1
10
44.5205941193332
20
38.6369214613338
30
0
41
1
10
44.5211103123181
20
38.6322923063884
30
0
41
1
10
44.522149460089
20
38.6265401899902
30
0
41
1
10
44.52373916364
20
38.6200089562631
30
0
41
1
10
44.5259403064939
20
38.612664039699
30
0
41
1
10
44.5286092189627
20
38.6049763127679
30
0
41
1
10
44.5317015746883
20
38.5970000423664
30
0
41
1
10
44.5351739303927
20
38.588788675562
30
0
41
1
10
44.5391774925562
20
38.5799668192223
30
0
41
1
10
44.5437418754688
20
38.5705255084272
30
0
41
1
10
44.5488974450303
20
38.5604564280524
30
0
41
1
10
44.5544076941295
20
38.5502148037666
30
0
41
1
10
44.5602946250717
20
38.5397373551289
30
0
41
1
10
44.5665434592302
20
38.5290415369149
30
0
41
1
10
44.5731452271737
20
38.5181408313167
30
0
41
1
10
44.5800242801103
20
38.5071509501031
30
0
41
1
10
44.5876651664257
20
38.495310630279
30
0
41
1
10
44.5961184092385
20
38.482618153952
30
0
41
1
10
44.6023223741962
20
38.4735994387966
30
0
41
1
10
44.6054809471617
20
38.4690798577815
30
0
0
SPLINE
5
188
100
AcDbEntity
8
1
62
256
6
ByLayer
370
18
48
1
60
0
100
AcDbSpline
70
4
71
3
72
27
73
23
40
0
40
0
40
0
40
0
40
0.0332943854182615
40
0.075208044679704
40
0.11710487116128
40
0.15886201415347
40
0.208318622204596
40
0.257900185973336
40
0.307581605054127
40
0.357304570455857
40
0.406982150640132
40
0.456502951839175
40
0.511399225076946
40
0.566348589530706
40
0.621307721556132
40
0.676217326657334
40
0.73262683963915
40
0.789076666574112
40
0.845531200491372
40
0.901947136574726
40
0.950973449909621
40
1
40
1
40
1
40
1
41
1
10
44.5204809479214
20
2.67106974964773
30
0
41
1
10
44.5204867021153
20
2.67207145224777
30
0
41
1
10
44.5206077463838
20
2.67443119390102
30
0
41
1
10
44.5211860743498
20
2.67846176278627
30
0
41
1
10
44.5222392264114
20
2.68315910002668
30
0
41
1
10
44.5237869422686
20
2.68849980358676
30
0
41
1
10
44.5258868061237
20
2.69452152600233
30
0
41
1
10
44.5285812692654
20
2.70124791140286
30
0
41
1
10
44.5317176794721
20
2.70830672801959
30
0
41
1
10
44.5352538970289
20
2.71564794963808
30
0
41
1
10
44.5391485543673
20
2.72322222777993
30
0
41
1
10
44.543521251044
20
2.73127631471571
30
0
41
1
10
44.5483861913689
20
2.73981156877374
30
0
41
1
10
44.5537576668335
20
2.74882972437362
30
0
41
1
10
44.5594427178937
20
2.75801341640118
30
0
41
1
10
44.565468377651
20
2.76742034903493
30
0
41
1
10
44.5718217856048
20
2.77703508384272
30
0
41
1
10
44.5784940601541
20
2.78684522504324
30
0
41
1
10
44.5854091014358
20
2.79674512365713
30
0
41
1
10
44.5922367958599
20
2.80628088969749
30
0
41
1
10
44.5989318618745
20
2.81542977156201
30
0
41
1
10
44.6032809642912
20
2.82125930051049
30
0
41
1
10
44.6054809471617
20
2.82418023764875
30
0
0
SPLINE
5
189
100
AcDbEntity
8
1
62
256
6
ByLayer
370
18
48
1
60
0
100
AcDbSpline
70
4
71
3
72
30
73
26
40
0
40
0
40
0
40
0
40
0.0142581537646706
40
0.0570011125123297
40
0.0998869622692025
40
0.142802400517623
40
0.185652202540228
40
0.228364828618588
40
0.271281603841165
40
0.314369880437231
40
0.35751748496066
40
0.400607590895922
40
0.443525906539204
40
0.493011153676149
40
0.54264468927324
40
0.592301520406061
40
0.641818626596689
40
0.68782972937461
40
0.733964071008309
40
0.780190134573978
40
0.826449543439379
40
0.872660952193659
40
0.918723584839061
40
0.9593613188041
40
1
40
1
40
1
40
1
41
1
10
44.5204809482594
20
39.3289289227777
30
0
41
1
10
44.5204805977911
20
39.3292714886739
30
0
41
1
10
44.5205051307279
20
39.3306161897678
30
0
41
1
10
44.5207274177068
20
39.3328042484293
30
0
41
1
10
44.5213708665163
20
39.3352701180406
30
0
41
1
10
44.522378136155
20
39.3373707863471
30
0
41
1
10
44.5237577224976
20
39.3390774202209
30
0
41
1
10
44.525521372703
20
39.3403675130531
30
0
41
1
10
44.5276914395854
20
39.3412055701654
30
0
41
1
10
44.5302545052413
20
39.3415938819459
30
0
41
1
10
44.5331872783849
20
39.3415355543601
30
0
41
1
10
44.5364663960788
20
39.3410320292462
30
0
41
1
10
44.5402616237638
20
39.3400321771059
30
0
41
1
10
44.544622988784
20
39.3384515264831
30
0
41
1
10
44.5495584842446
20
39.3362541258437
30
0
41
1
10
44.5548171805383
20
39.3335526266567
30
0
41
1
10
44.5602234897354
20
39.3304578065083
30
0
41
1
10
44.5657246269074
20
39.3270338651087
30
0
41
1
10
44.5712748124109
20
39.3233497945523
30
0
41
1
10
44.5769833307097
20
39.3193510378707
30
0
41
1
10
44.5828178595042
20
39.3150719768288
30
0
41
1
10
44.5887462913823
20
39.3105466731025
30
0
41
1
10
44.5945126343405
20
39.305985914927
30
0
41
1
10
44.6000939550513
20
39.3014366530696
30
0
41
1
10
44.6036806776624
20
39.2984395872155
30
0
41
1
10
44.6054809471617
20
39.2969165050502
30
0
0
SPLINE
5
18A
100
AcDbEntity
8
1
62
256
6
ByLayer
370
18
48
1
60
0
100
AcDbSpline
70
4
71
3
72
27
73
23
40
0
40
0
40
0
40
0
40
0.0328989725308533
40
0.0774404924408745
40
0.122005079278834
40
0.166465661491239
40
0.213448693067775
40
0.260554372101848
40
0.307754611125889
40
0.354991738913355
40
0.402182672931036
40
0.449222706522161
40
0.499978773276757
40
0.550784123021857
40
0.601598391793227
40
0.652366632274413
40
0.704524901807051
40
0.75672031392716
40
0.808920520864196
40
0.861085333329739
40
0.930541959502849
40
1
40
1
40
1
40
1
41
1
10
44.5204809478526
20
39.8732546567526
30
0
41
1
10
44.520483837573
20
39.872497136974
30
0
41
1
10
44.520600454498
20
39.8706117321897
30
0
41
1
10
44.5212050904704
20
39.8672432903326
30
0
41
1
10
44.5223500974013
20
39.8631187871498
30
0
41
1
10
44.5239802040317
20
39.8585111460672
30
0
41
1
10
44.5260955756904
20
39.8534312541715
30
0
41
1
10
44.5286853041726
20
39.8478965354056
30
0
41
1
10
44.5316770324358
20
39.84203769201
30
0
41
1
10
44.5350339191913
20
39.835898281098
30
0
41
1
10
44.5387193921296
20
39.8295216025097
30
0
41
1
10
44.5428101415942
20
39.8227645754013
30
0
41
1
10
44.5473099197517
20
39.8156304469839
30
0
41
1
10
44.5522213033955
20
39.8081222446684
30
0
41
1
10
44.5574065666329
20
39.800444329258
30
0
41
1
10
44.5628911273259
20
39.7925495822156
30
0
41
1
10
44.5686635354006
20
39.784451444776
30
0
41
1
10
44.574714858084
20
39.7761610011469
30
0
41
1
10
44.5809756284082
20
39.7677685319224
30
0
41
1
10
44.5881412527323
20
39.7583548239733
30
0
41
1
10
44.5962769322938
20
39.7478989517372
30
0
41
1
10
44.6023800479458
20
39.7402345130294
30
0
41
1
10
44.6054809471617
20
39.7363843093967
30
0
0
SPLINE
5
18B
100
AcDbEntity
8
1
62
256
6
ByLayer
370
18
48
1
60
0
100
AcDbSpline
70
4
71
3
72
30
73
26
40
0
40
0
40
0
40
0
40
0.0246093289498881
40
0.0674319692533644
40
0.110288223210187
40
0.153081543851501
40
0.195735108062025
40
0.238528291305396
40
0.281482201674187
40
0.324495224411002
40
0.367457621979976
40
0.410257950365281
40
0.45086611181698
40
0.491580610911649
40
0.532345835599306
40
0.573088196453274
40
0.613719788280994
40
0.662028003311167
40
0.710465782160785
40
0.758999609046225
40
0.807568063004691
40
0.856085871385885
40
0.904447597087985
40
0.95222305280671
40
1
40
1
40
1
40
1
41
1
10
44.5204809477443
20
2.12674494501848
30
0
41
1
10
44.5204821145144
20
2.12627112971888
30
0
41
1
10
44.5205405214327
20
2.12502722696306
30
0
41
1
10
44.5208808275641
20
2.12323057764822
30
0
41
1
10
44.5216496261542
20
2.1215124470785
30
0
41
1
10
44.5227964869483
20
2.12018806089924
30
0
41
1
10
44.524331661764
20
2.11927769154557
30
0
41
1
10
44.5262735590361
20
2.11880978118316
30
0
41
1
10
44.5286061448318
20
2.11877627323076
30
0
41
1
10
44.5313078153586
20
2.11916963395888
30
0
41
1
10
44.5343558485925
20
2.11998334425052
30
0
41
1
10
44.537678486977
20
2.12119430138689
30
0
41
1
10
44.5412454252428
20
2.12277513148318
30
0
41
1
10
44.5450114698948
20
2.12467418976696
30
0
41
1
10
44.5490154482185
20
2.12689900724288
30
0
41
1
10
44.5532276469113
20
2.12942539910898
30
0
41
1
10
44.5579036428495
20
2.13241225508723
30
0
41
1
10
44.5630706498018
20
2.13590898964925
30
0
41
1
10
44.5687413584706
20
2.13994716027076
30
0
41
1
10
44.5745984231121
20
2.14430018571798
30
0
41
1
10
44.5806073780128
20
2.1489323651766
30
0
41
1
10
44.5867340810985
20
2.15380835609722
30
0
41
1
10
44.5929310161161
20
2.15888213614603
30
0
41
1
10
44.5991817627249
20
2.16413153996978
30
0
41
1
10
44.6033734517732
20
2.16773032273376
30
0
41
1
10
44.6054809471617
20
2.16955973332412
30
0
0
SPLINE
5
18C
100
AcDbEntity
8
1
62
256
6
ByLayer
370
18
48
1
60
0
100
AcDbSpline
70
4
71
3
72
29
73
25
40
0
40
0
40
0
40
0
40
0.0406438103291151
40
0.0839535605520195
40
0.127121504140377
40
0.170427804122157
40
0.213896807317824
40
0.257425359041763
40
0.30090240364212
40
0.344215473463815
40
0.385314718816559
40
0.42652273567159
40
0.467782094293874
40
0.509017580846452
40
0.550139927481514
40
0.598396860892512
40
0.646784352268213
40
0.69526720802161
40
0.743783348854435
40
0.792247768602876
40
0.840556139811698
40
0.893690802226654
40
0.946858146682814
40
1
40
1
40
1
40
1
41
1
10
44.5204809472326
20
40.2860020458511
30
0
41
1
10
44.5204861497361
20
40.2865907169301
30
0
41
1
10
44.5206136470048
20
40.2876891581578
30
0
41
1
10
44.5211592054442
20
40.2890013431294
30
0
41
1
10
44.5221260132876
20
40.2899208798347
30
0
41
1
10
44.5235165707028
20
40.2903989801728
30
0
41
1
10
44.525318387056
20
40.290441563051
30
0
41
1
10
44.5275126219893
20
40.2900564344038
30
0
41
1
10
44.5300803925032
20
40.2892496795616
30
0
41
1
10
44.5329604969033
20
40.288044093502
30
0
41
1
10
44.5361230297312
20
40.2864666402869
30
0
41
1
10
44.5395204486437
20
40.2845686450773
30
0
41
1
10
44.5431848048625
20
40.2823425121114
30
0
41
1
10
44.5470871668821
20
40.2798122000708
30
0
41
1
10
44.5514447717141
20
40.2768326746698
30
0
41
1
10
44.5562876640408
20
40.2733588279475
30
0
41
1
10
44.5616306642358
20
40.2693631806499
30
0
41
1
10
44.5671938112281
20
40.2650559356184
30
0
41
1
10
44.5729423156242
20
40.2604718388068
30
0
41
1
10
44.5788415202293
20
40.255645533454
30
0
41
1
10
44.5850693422804
20
40.2504332565031
30
0
41
1
10
44.5916228250156
20
40.2448308547396
30
0
41
1
10
44.5984984258445
20
40.2388363025937
30
0
41
1
10
44.603142799257
20
40.2347158789787
30
0
41
1
10
44.6054809471617
20
40.2326235256898
30
0
0
SPLINE
5
18D
100
AcDbEntity
8
1
62
256
6
ByLayer
370
18
48
1
60
0
100
AcDbSpline
70
4
71
3
72
29
73
25
40
0
40
0
40
0
40
0
40
0.0271263542711008
40
0.0642009500636858
40
0.101363390801665
40
0.138569707900059
40
0.175758924193204
40
0.212856031387557
40
0.260077820478815
40
0.30742483023406
40
0.35486608084333
40
0.402342396762595
40
0.449770448136555
40
0.497046423513976
40
0.547019095636256
40
0.597040242632915
40
0.647069759025582
40
0.697053854681335
40
0.74841477329919
40
0.799812730103911
40
0.851215404938633
40
0.902582761765309
40
0.951291178843038
40
1
40
1
40
1
40
1
41
1
10
44.5204809473884
20
1.71399869684259
30
0
41
1
10
44.5204815047486
20
1.71444915522152
30
0
41
1
10
44.5205580850567
20
1.71558777478549
30
0
41
1
10
44.520966288932
20
1.71766495885798
30
0
41
1
10
44.5217592623468
20
1.72027429607183
30
0
41
1
10
44.5228779679007
20
1.72318803102542
30
0
41
1
10
44.5243030984028
20
1.72637930738628
30
0
41
1
10
44.5261749071004
20
1.73014114246387
30
0
41
1
10
44.5285755741472
20
1.7345425740422
30
0
41
1
10
44.5315721728345
20
1.73963544452564
30
0
41
1
10
44.5349477303159
20
1.74504600375933
30
0
41
1
10
44.5386664804141
20
1.75073365276512
30
0
41
1
10
44.5426928647713
20
1.75665804066056
30
0
41
1
10
44.5470822129247
20
1.76290765197804
30
0
41
1
10
44.5518309869367
20
1.76947515430595
30
0
41
1
10
44.5569347143922
20
1.77635373958748
30
0
41
1
10
44.5622830480788
20
1.78339926658439
30
0
41
1
10
44.5679046342662
20
1.79065523521907
30
0
41
1
10
44.5737888102063
20
1.79810941667948
30
0
41
1
10
44.579926705412
20
1.80575143382854
30
0
41
1
10
44.5862482415758
20
1.81349720648744
30
0
41
1
10
44.5926251399508
20
1.82119553670296
30
0
41
1
10
44.5990357961686
20
1.82882995088745
30
0
41
1
10
44.6033179315162
20
1.83386630500427
30
0
41
1
10
44.6054809471617
20
1.83639465170142
30
0
0
SPLINE
5
18E
100
AcDbEntity
8
1
62
256
6
ByLayer
370
18
48
1
60
0
100
AcDbSpline
70
4
71
3
72
29
73
25
40
0
40
0
40
0
40
0
40
0.0300825407329084
40
0.0714649231057353
40
0.112747553004777
40
0.153856387807397
40
0.19596663702204
40
0.238216347930118
40
0.280524210443056
40
0.322794428538875
40
0.364921934944167
40
0.40726250621635
40
0.449703458191092
40
0.492194314377631
40
0.534665426434898
40
0.577031354646985
40
0.630641089211416
40
0.684394109461438
40
0.738253518394334
40
0.792151416054449
40
0.84599339043332
40
0.899662602458466
40
0.949830683736598
40
1
40
1
40
1
40
1
41
1
10
44.5204809473913
20
1.42450847704076
30
0
41
1
10
44.5204924962028
20
1.42422363632478
30
0
41
1
10
44.5205918475076
20
1.42361965668012
30
0
41
1
10
44.5209979876573
20
1.42291700869275
30
0
41
1
10
44.5218302768169
20
1.42254037883259
30
0
41
1
10
44.5230485175906
20
1.42255619627423
30
0
41
1
10
44.5246762517438
20
1.42299267005302
30
0
41
1
10
44.5266975763846
20
1.4238368740079
30
0
41
1
10
44.5290805959704
20
1.42507122542633
30
0
41
1
10
44.5318015649414
20
1.42667859295397
30
0
41
1
10
44.5348500111512
20
1.4286513727983
30
0
41
1
10
44.5382148725306
20
1.43098144308184
30
0
41
1
10
44.5418698607274
20
1.43364212346385
30
0
41
1
10
44.5457847324541
20
1.43660639894081
30
0
41
1
10
44.5499299619265
20
1.43984705184192
30
0
41
1
10
44.5546687334534
20
1.44365266167644
30
0
41
1
10
44.5600526134499
20
1.44808956444608
30
0
41
1
10
44.56611668585
20
1.45320731079708
30
0
41
1
10
44.5724234810459
20
1.45863808109005
30
0
41
1
10
44.5789335990896
20
1.46434181982267
30
0
41
1
10
44.58560800377
20
1.47027886256802
30
0
41
1
10
44.5922725455061
20
1.47628780699163
30
0
41
1
10
44.5988996141939
20
1.48233407071395
30
0
41
1
10
44.603276453383
20
1.48636810262513
30
0
41
1
10
44.6054809471617
20
1.48841024608737
30
0
0
SPLINE
5
18F
100
AcDbEntity
8
1
62
256
6
ByLayer
370
18
48
1
60
0
100
AcDbSpline
70
4
71
3
72
28
73
24
40
0
40
0
40
0
40
0
40
0.0277029670313968
40
0.0656379467123836
40
0.103672244421594
40
0.14175354418019
40
0.179813162758171
40
0.217769436008679
40
0.262531786212567
40
0.307415451527117
40
0.352387420034446
40
0.397389966599538
40
0.442344303888704
40
0.48715390868274
40
0.533529331296033
40
0.579949883121165
40
0.626378074947431
40
0.672763925568052
40
0.736326225705977
40
0.79993299818248
40
0.8635047009839
40
0.931751308227475
40
1
40
1
40
1
40
1
41
1
10
44.5204809472948
20
40.5754919456873
30
0
41
1
10
44.5204812350437
20
40.5751947333627
30
0
41
1
10
44.5205588590007
20
40.5744148310745
30
0
41
1
10
44.520974563404
20
40.5728927038509
30
0
41
1
10
44.52178713335
20
40.5708729126529
30
0
41
1
10
44.522937075752
20
40.568527978374
30
0
41
1
10
44.524406334726
20
40.5658817620378
30
0
41
1
10
44.5262864835286
20
40.5627774716324
30
0
41
1
10
44.5286306983029
20
40.5591685687346
30
0
41
1
10
44.5314747444649
20
40.5550260614228
30
0
41
1
10
44.534665250077
20
40.5505729707302
30
0
41
1
10
44.5381705489731
20
40.5458444081113
30
0
41
1
10
44.5419590837967
20
40.5408753436344
30
0
41
1
10
44.5460550906801
20
40.5356297503673
30
0
41
1
10
44.5504494660869
20
40.5301183109635
30
0
41
1
10
44.5551316499682
20
40.5243518710323
30
0
41
1
10
44.5600309275837
20
40.5184143609549
30
0
41
1
10
44.5657559020685
20
40.5115749788768
30
0
41
1
10
44.572378785314
20
40.5037827718113
30
0
41
1
10
44.5799604935001
20
40.4950011346823
30
0
41
1
10
44.5880044532238
20
40.4858140985894
30
0
41
1
10
44.5965039107228
20
40.4762351669935
30
0
41
1
10
44.6024606378831
20
40.469605247095
30
0
41
1
10
44.6054809471617
20
40.4662642256101
30
0
0
SPLINE
5
190
100
AcDbEntity
8
1
62
256
6
ByLayer
370
18
48
1
60
0
100
AcDbSpline
70
4
71
3
72
28
73
24
40
0
40
0
40
0
40
0
40
0.0195704098523577
40
0.0614698831479427
40
0.100619567620216
40
0.139877012718067
40
0.179184016066891
40
0.218466190887491
40
0.257636674533612
40
0.3020642047569
40
0.346613542346807
40
0.391249899350913
40
0.43591509487629
40
0.480531084574395
40
0.525003182341057
40
0.585542459732467
40
0.646139959085704
40
0.706693902656957
40
0.768923215844078
40
0.831196339001237
40
0.893434973539181
40
0.946717036082436
40
1
40
1
40
1
40
1
41
1
10
44.5204809472415
20
1.25285059403129
30
0
41
1
10
44.5204844502459
20
1.25295619688653
30
0
41
1
10
44.5205426913243
20
1.25333511059182
30
0
41
1
10
44.5208641922062
20
1.25418235762505
30
0
41
1
10
44.5216701197012
20
1.25561457653216
30
0
41
1
10
44.5228145136252
20
1.25736718657703
30
0
41
1
10
44.5243031300737
20
1.25945788508341
30
0
41
1
10
44.5261150642037
20
1.26186268432615
30
0
41
1
10
44.5283308009655
20
1.2646859548489
30
0
41
1
10
44.530987602459
20
1.26796196134347
30
0
41
1
10
44.5341050448126
20
1.27170750474657
30
0
41
1
10
44.5375470045122
20
1.27575987316141
30
0
41
1
10
44.5412827037001
20
1.28008647080993
30
0
41
1
10
44.5452814461837
20
1.28465481162596
30
0
41
1
10
44.5500316053
20
1.29001823473148
30
0
41
1
10
44.5556208689665
20
1.29625441923728
30
0
41
1
10
44.5621173212468
20
1.30342022559654
30
0
41
1
10
44.5690004902942
20
1.31093800052756
30
0
41
1
10
44.5762416166368
20
1.31877762960928
30
0
41
1
10
44.5838144553946
20
1.32691187044058
30
0
41
1
10
44.591247246639
20
1.33483898770974
30
0
41
1
10
44.5984785607798
20
1.34250446639673
30
0
41
1
10
44.6031314132831
20
1.34741116831992
30
0
41
1
10
44.6054809471617
20
1.34988254851391
30
0
0
SPLINE
5
191
100
AcDbEntity
8
1
62
256
6
ByLayer
370
18
48
1
60
0
100
AcDbSpline
70
4
71
3
72
28
73
24
40
0
40
0
40
0
40
0
40
0.0418202092425438
40
0.0882252465318568
40
0.134431354821234
40
0.175494650244547
40
0.216682499632185
40
0.257924715169384
40
0.299135563296738
40
0.340218207337514
40
0.38327535907312
40
0.426430581755404
40
0.469635465554993
40
0.512821874593802
40
0.555905243695142
40
0.611857017923797
40
0.667958131707762
40
0.724170165236978
40
0.780422356421897
40
0.836616281339528
40
0.892630111708213
40
0.946314376806344
40
1
40
1
40
1
40
1
41
1
10
44.5204809471654
20
40.747149492938
30
0
41
1
10
44.5204916108592
20
40.7473481654264
30
0
41
1
10
44.520648063253
20
40.7476314001339
30
0
41
1
10
44.5213003232452
20
40.7476447999481
30
0
41
1
10
44.5224315810786
20
40.7471651574867
30
0
41
1
10
44.5239521350528
20
40.7462579505321
30
0
41
1
10
44.5257795675439
20
40.7450066197709
30
0
41
1
10
44.5279553787242
20
40.7433922198629
30
0
41
1
10
44.5304570412683
20
40.7414344906592
30
0
41
1
10
44.5333138887146
20
40.7391105919698
30
0
41
1
10
44.5365300737705
20
40.7364143201198
30
0
41
1
10
44.5400940049911
20
40.7333565194304
30
0
41
1
10
44.5439307245327
20
40.7300035396943
30
0
41
1
10
44.5480105950516
20
40.7263840792805
30
0
41
1
10
44.5527394119237
20
40.7221353986994
30
0
41
1
10
44.5581815971901
20
40.7171849419023
30
0
41
1
10
44.5643848857231
20
40.7114767317119
30
0
41
1
10
44.5708624057734
20
40.7054577793583
30
0
41
1
10
44.5775723235401
20
40.6991704296509
30
0
41
1
10
44.584473216378
20
40.69265659327
30
0
41
1
10
44.5914390965981
20
40.6860385123642
30
0
41
1
10
44.5984433788032
20
40.679345572252
30
0
41
1
10
44.6031215755667
20
40.6748529193174
30
0
41
1
10
44.6054809471617
20
40.6725814719131
30
0
0
SPLINE
5
192
100
AcDbEntity
8
1
62
256
6
ByLayer
370
18
48
1
60
0
100
AcDbSpline
70
4
71
2
72
6
73
3
40
0
40
0
40
0
40
1
40
1
40
1
41
0.500005443239456
10
45.3245190528383
20
36.2365998497609
30
0
41
0.499994556760544
10
45.3245190528383
20
36.3115053922832
30
0
41
0.500005443239456
10
45.3245190528383
20
36.3850774567956
30
0
0
SPLINE
5
193
100
AcDbEntity
8
1
62
256
6
ByLayer
370
18
48
1
60
0
100
AcDbSpline
70
4
71
2
72
6
73
3
40
0
40
0
40
0
40
1
40
1
40
1
41
0.50000479843448
10
45.3245190528383
20
37.2467561030828
30
0
41
0.49999520156552
10
45.3245190528383
20
37.3077913724011
30
0
41
0.50000479843448
10
45.3245190528383
20
37.3675746358547
30
0
0
SPLINE
5
194
100
AcDbEntity
8
1
62
256
6
ByLayer
370
18
48
1
60
0
100
AcDbSpline
70
4
71
2
72
6
73
3
40
0
40
0
40
0
40
1
40
1
40
1
41
0.500004356131372
10
45.3245190528383
20
38.0663467902296
30
0
41
0.499995643868628
10
45.3245190528383
20
38.1156459631015
30
0
41
0.500004356131372
10
45.3245190528383
20
38.1637522287218
30
0
0
SPLINE
5
195
100
AcDbEntity
8
1
62
256
6
ByLayer
370
18
48
1
60
0
100
AcDbSpline
70
4
71
2
72
6
73
3
40
0
40
0
40
0
40
1
40
1
40
1
41
0.500004045391814
10
45.3245190528383
20
38.7218312162063
30
0
41
0.499995954608186
10
45.3245190528383
20
38.7608061217543
30
0
41
0.500004045391814
10
45.3245190528383
20
38.7986314551885
30
0
0
SPLINE
5
196
100
AcDbEntity
8
1
62
256
6
ByLayer
370
18
48
1
60
0
100
AcDbSpline
70
4
71
2
72
6
73
3
40
0
40
0
40
0
40
1
40
1
40
1
41
0.500003826997353
10
45.3245190528383
20
39.2309190812485
30
0
41
0.499996173002647
10
45.3245190528383
20
39.2605275055252
30
0
41
0.500003826997353
10
45.3245190528383
20
39.2890178190711
30
0
0
SPLINE
5
197
100
AcDbEntity
8
1
62
256
6
ByLayer
370
18
48
1
60
0
100
AcDbSpline
70
4
71
2
72
6
73
3
40
0
40
0
40
0
40
1
40
1
40
1
41
0.500003678074472
10
45.3245190528383
20
39.6056313904784
30
0
41
0.499996321925528
10
45.3245190528383
20
39.6265212759722
30
0
41
0.500003678074472
10
45.3245190528383
20
39.6463150218744
30
0
0
SPLINE
5
198
100
AcDbEntity
8
1
62
256
6
ByLayer
370
18
48
1
60
0
100
AcDbSpline
70
4
71
2
72
6
73
3
40
0
40
0
40
0
40
1
40
1
40
1
41
0.500003585068969
10
45.3245190528383
20
39.853981763269
30
0
41
0.499996414931031
10
45.3245190528383
20
39.8665726465817
30
0
41
0.500003585068969
10
45.3245190528383
20
39.878081337987
30
0
0
SPLINE
5
199
100
AcDbEntity
8
1
62
256
6
ByLayer
370
18
48
1
60
0
100
AcDbSpline
70
4
71
2
72
6
73
3
40
0
40
0
40
0
40
1
40
1
40
1
41
0.50000354030808
10
45.3245190528383
20
39.9809308839425
30
0
41
0.49999645969192
10
45.3245190528383
20
39.9854600336903
30
0
41
0.50000354030808
10
45.3245190528383
20
39.9889137686264
30
0
0
SPLINE
5
19A
100
AcDbEntity
8
1
62
256
6
ByLayer
370
18
48
1
60
0
100
AcDbSpline
70
4
71
2
72
6
73
3
40
0
40
0
40
0
40
1
40
1
40
1
41
0.50000354030808
10
45.3245190528383
20
2.01108623137361
30
0
41
0.49999645969192
10
45.3245190528383
20
2.01453996630972
30
0
41
0.50000354030808
10
45.3245190528383
20
2.01906911605745
30
0
0
SPLINE
5
19B
100
AcDbEntity
8
1
62
256
6
ByLayer
370
18
48
1
60
0
100
AcDbSpline
70
4
71
2
72
6
73
3
40
0
40
0
40
0
40
1
40
1
40
1
41
0.500003585068969
10
45.3245190528383
20
2.12191866201299
30
0
41
0.499996414931031
10
45.3245190528383
20
2.13342735341836
30
0
41
0.500003585068969
10
45.3245190528383
20
2.14601823673101
30
0
0
SPLINE
5
19C
100
AcDbEntity
8
1
62
256
6
ByLayer
370
18
48
1
60
0
100
AcDbSpline
70
4
71
2
72
6
73
3
40
0
40
0
40
0
40
1
40
1
40
1
41
0.500003678074472
10
45.3245190528383
20
2.35368497812563
30
0
41
0.499996321925528
10
45.3245190528383
20
2.37347872402768
30
0
41
0.500003678074472
10
45.3245190528383
20
2.3943686095216
30
0
0
SPLINE
5
19D
100
AcDbEntity
8
1
62
256
6
ByLayer
370
18
48
1
60
0
100
AcDbSpline
70
4
71
2
72
6
73
3
40
0
40
0
40
0
40
1
40
1
40
1
41
0.500003826997353
10
45.3245190528383
20
2.71098218092884
30
0
41
0.499996173002647
10
45.3245190528383
20
2.73947249447485
30
0
41
0.500003826997353
10
45.3245190528383
20
2.76908091875149
30
0
0
SPLINE
5
19E
100
AcDbEntity
8
1
62
256
6
ByLayer
370
18
48
1
60
0
100
AcDbSpline
70
4
71
2
72
6
73
3
40
0
40
0
40
0
40
1
40
1
40
1
41
0.500004045391814
10
45.3245190528383
20
3.20136854481146
30
0
41
0.499995954608186
10
45.3245190528383
20
3.23919387824593
30
0
41
0.500004045391814
10
45.3245190528383
20
3.27816878379364
30
0
0
SPLINE
5
19F
100
AcDbEntity
8
1
62
256
6
ByLayer
370
18
48
1
60
0
100
AcDbSpline
70
4
71
2
72
6
73
3
40
0
40
0
40
0
40
1
40
1
40
1
41
0.500004356131372
10
45.3245190528383
20
3.83624777127823
30
0
41
0.499995643868628
10
45.3245190528383
20
3.88435403689865
30
0
41
0.500004356131372
10
45.3245190528383
20
3.93365320977035
30
0
0
SPLINE
5
1A0
100
AcDbEntity
8
1
62
256
6
ByLayer
370
18
48
1
60
0
100
AcDbSpline
70
4
71
2
72
6
73
3
40
0
40
0
40
0
40
1
40
1
40
1
41
0.50000479843448
10
45.3245190528383
20
4.63242536414524
30
0
41
0.49999520156552
10
45.3245190528383
20
4.69220862759928
30
0
41
0.50000479843448
10
45.3245190528383
20
4.75324389691724
30
0
0
SPLINE
5
1A1
100
AcDbEntity
8
1
62
256
6
ByLayer
370
18
48
1
60
0
100
AcDbSpline
70
4
71
2
72
6
73
3
40
0
40
0
40
0
40
1
40
1
40
1
41
0.500005443239456
10
45.3245190528383
20
5.61492254320438
30
0
41
0.499994556760544
10
45.3245190528383
20
5.6884946077165
30
0
41
0.500005443239456
10
45.3245190528383
20
5.76340015023913
30
0
0
SPLINE
5
1A2
100
AcDbEntity
8
SK1
62
256
6
ByLayer
370
18
48
1
60
0
100
AcDbSpline
70
4
71
3
72
21
73
17
40
0
40
0
40
0
40
0
40
0.0516512852812926
40
0.0935350199252282
40
0.130231157575614
40
0.191789079216958
40
0.275258802016462
40
0.349809170369445
40
0.462727739307038
40
0.593133413578286
40
0.710538474857416
40
0.823987933643521
40
0.875952285318454
40
0.914499432865537
40
0.956509970244687
40
1
40
1
40
1
40
1
41
1
10
-2.09186392960638
20
22.0183271962844
30
0
41
1
10
-2.07954853506493
20
21.9776191706807
30
0
41
1
10
-2.04474289382461
20
21.920906530306
30
0
41
1
10
-1.9543727429629
20
21.8693482121739
30
0
41
1
10
-1.84958947683287
20
21.8838651990787
30
0
41
1
10
-1.71620595499288
20
21.8816457007454
30
0
41
1
10
-1.55389065250599
20
21.8815187360382
30
0
41
1
10
-1.35439023756634
20
21.8934132880981
30
0
41
1
10
-1.11993134115308
20
21.8997558613863
30
0
41
1
10
-0.853715996233151
20
21.9004232530316
30
0
41
1
10
-0.58774573048104
20
21.9170978309203
30
0
41
1
10
-0.378403980349103
20
21.9119701866265
30
0
41
1
10
-0.229135530022753
20
21.9249399429851
30
0
41
1
10
-0.129426210953036
20
21.9227191289627
30
0
41
1
10
-0.0474859940065474
20
21.9755395609382
30
0
41
1
10
-0.0130249002769405
20
22.0264281695365
30
0
41
1
10
-2.62105502697E-05
20
22.058248563293
30
0
0
SPLINE
5
1A3
100
AcDbEntity
8
SK1
62
256
6
ByLayer
370
18
48
1
60
0
100
AcDbSpline
70
4
71
3
72
21
73
17
40
0
40
0
40
0
40
0
40
0.0516512852812926
40
0.0935350199252282
40
0.130231157575614
40
0.191789079216958
40
0.275258802016462
40
0.349809170369445
40
0.462727739307038
40
0.593133413578286
40
0.710538474857416
40
0.823987933643521
40
0.875952285318454
40
0.914499432865537
40
0.956509970244687
40
1
40
1
40
1
40
1
41
1
10
-2.09186392960638
20
-22.0183271962844
30
0
41
1
10
-2.07954853506493
20
-21.9776191706807
30
0
41
1
10
-2.04474289382461
20
-21.920906530306
30
0
41
1
10
-1.9543727429629
20
-21.8693482121739
30
0
41
1
10
-1.84958947683287
20
-21.8838651990787
30
0
41
1
10
-1.71620595499288
20
-21.8816457007455
30
0
41
1
10
-1.55389065250599
20
-21.8815187360382
30
0
41
1
10
-1.35439023756634
20
-21.8934132880981
30
0
41
1
10
-1.11993134115308
20
-21.8997558613863
30
0
41
1
10
-0.853715996233151
20
-21.9004232530315
30
0
41
1
10
-0.58774573048104
20
-21.9170978309203
30
0
41
1
10
-0.378403980349103
20
-21.9119701866265
30
0
41
1
10
-0.229135530022753
20
-21.9249399429851
30
0
41
1
10
-0.129426210953036
20
-21.9227191289627
30
0
41
1
10
-0.0474859940065474
20
-21.9755395609382
30
0
41
1
10
-0.0130249002769405
20
-22.0264281695365
30
0
41
1
10
-2.62105502697E-05
20
-22.058248563293
30
0
0
SPLINE
5
1A4
100
AcDbEntity
8
1
62
256
6
ByLayer
370
18
48
1
60
0
100
AcDbSpline
70
4
71
3
72
12
73
8
40
0
40
0
40
0
40
0
40
0.572625769168314
40
0.572625769168314
40
0.961304022014957
40
0.961304022014957
40
1
40
1
40
1
40
1
41
1
10
10.25
20
-30.0805856895312
30
0
41
1
10
8.74004435261178
20
-28.4126131172084
30
0
41
1
10
7.96314503905199
20
-24.9790137307284
30
0
41
1
10
8.37720331697552
20
-17.5890512557807
30
0
41
1
10
8.99589154344229
20
-14.0490050657315
30
0
41
1
10
10.0491801140302
20
-10.0734255326476
30
0
41
1
10
10.1479626596711
20
-9.71189903534956
30
0
41
1
10
10.25
20
-9.34924406434925
30
0
0
SPLINE
5
1A5
100
AcDbEntity
8
1
62
256
6
ByLayer
370
18
48
1
60
0
100
AcDbSpline
70
4
71
3
72
12
73
8
40
0
40
0
40
0
40
0
40
0.572625769168314
40
0.572625769168314
40
0.961304022014957
40
0.961304022014957
40
1
40
1
40
1
40
1
41
1
10
10.25
20
9.34924406434931
30
0
41
1
10
8.74004435261178
20
14.7158375070071
30
0
41
1
10
7.96314503905199
20
20.052443793227
30
0
41
1
10
8.37720331697552
20
26.4281747634865
30
0
41
1
10
8.99589154344229
20
28.4527504887667
30
0
41
1
10
10.0491801140302
20
29.8483104720045
30
0
41
1
10
10.1479626596711
20
29.9678701370474
30
0
41
1
10
10.25
20
30.0805856895312
30
0
0
SPLINE
5
1A6
100
AcDbEntity
8
1
62
256
6
ByLayer
370
18
48
1
60
0
100
AcDbSpline
70
4
71
3
72
12
73
8
40
0
40
0
40
0
40
0
40
0.0238069036086083
40
0.0238069036086083
40
0.412781952217015
40
0.412781952217015
40
1
40
1
40
1
40
1
41
1
10
13.75
20
-9.34924406434723
30
0
41
1
10
13.8127287161885
20
-9.57219069032656
30
0
41
1
10
13.8742247248165
20
-9.7947005087937
30
0
41
1
10
14.9184698304633
20
-13.6434259207234
30
0
41
1
10
15.5689245664743
20
-17.2069737328843
30
0
41
1
10
16.0711357802983
20
-24.7953579571968
30
0
41
1
10
15.2972585123096
20
-28.3714065058317
30
0
41
1
10
13.75
20
-30.0805856895312
30
0
0
SPLINE
5
1A7
100
AcDbEntity
8
1
62
256
6
ByLayer
370
18
48
1
60
0
100
AcDbSpline
70
4
71
3
72
12
73
8
40
0
40
0
40
0
40
0
40
0.0238069036086083
40
0.0238069036086083
40
0.412781952217015
40
0.412781952217015
40
1
40
1
40
1
40
1
41
1
10
13.75
20
30.0805856895325
30
0
41
1
10
13.8127287161885
20
30.0112924104349
30
0
41
1
10
13.8742247248165
20
29.9394164342885
30
0
41
1
10
14.9184698304633
20
28.648558697592
30
0
41
1
10
15.5689245664743
20
26.6782930894712
30
0
41
1
10
16.0711357802983
20
20.3200700821315
30
0
41
1
10
15.2972585123096
20
14.8484171033851
30
0
41
1
10
13.75
20
9.34924406434931
30
0
0
LINE
5
70
100
AcDbEntity
8
1
62
256
6
ByLayer
370
18
48
1
60
0
100
AcDbLine
10
44.324519
20
41
30
0
11
44.520545
21
40.803974
31
0
39
0
210
0
220
0
230
1
0
LINE
5
72
100
AcDbEntity
8
1
62
256
6
ByLayer
370
18
48
1
60
0
100
AcDbLine
10
44.520545
20
1.196026
30
0
11
44.324519
21
1
31
0
39
0
210
0
220
0
230
1
0
LINE
5
73
100
AcDbEntity
8
1
62
256
6
ByLayer
370
18
48
1
60
0
100
AcDbLine
10
44.605481
20
24.782927
30
0
11
44.605481
21
22.681381
31
0
39
0
210
0
220
0
230
1
0
LINE
5
74
100
AcDbEntity
8
1
62
256
6
ByLayer
370
18
48
1
60
0
100
AcDbLine
10
44.605481
20
19.318619
30
0
11
44.605481
21
17.217073
31
0
39
0
210
0
220
0
230
1
0
LINE
5
75
100
AcDbEntity
8
1
62
256
6
ByLayer
370
18
48
1
60
0
100
AcDbLine
10
45.249519
20
22.891967
30
0
11
45.249519
21
19.108033
31
0
39
0
210
0
220
0
230
1
0
LINE
5
76
100
AcDbEntity
8
1
62
256
6
ByLayer
370
18
48
1
60
0
100
AcDbLine
10
44.605481
20
29.373701
30
0
11
44.605481
21
28.714837
31
0
39
0
210
0
220
0
230
1
0
LINE
5
77
100
AcDbEntity
8
1
62
256
6
ByLayer
370
18
48
1
60
0
100
AcDbLine
10
44.605481
20
13.285163
30
0
11
44.605481
21
12.626299
31
0
39
0
210
0
220
0
230
1
0
LINE
5
78
100
AcDbEntity
8
1
62
256
6
ByLayer
370
18
48
1
60
0
100
AcDbLine
10
45.249519
20
28.633633
30
0
11
45.249519
21
25.571657
31
0
39
0
210
0
220
0
230
1
0
LINE
5
79
100
AcDbEntity
8
1
62
256
6
ByLayer
370
18
48
1
60
0
100
AcDbLine
10
45.249519
20
16.428343
30
0
11
45.249519
21
13.366367
31
0
39
0
210
0
220
0
230
1
0
LINE
5
7A
100
AcDbEntity
8
1
62
256
6
ByLayer
370
18
48
1
60
0
100
AcDbLine
10
44.605481
20
32.019401
30
0
11
44.605481
21
31.569313
31
0
39
0
210
0
220
0
230
1
0
LINE
5
7B
100
AcDbEntity
8
1
62
256
6
ByLayer
370
18
48
1
60
0
100
AcDbLine
10
44.605481
20
10.430687
30
0
11
44.605481
21
9.980599
31
0
39
0
210
0
220
0
230
1
0
LINE
5
7C
100
AcDbEntity
8
1
62
256
6
ByLayer
370
18
48
1
60
0
100
AcDbLine
10
45.249519
20
31.414662
30
0
11
45.249519
21
29.614362
31
0
39
0
210
0
220
0
230
1
0
LINE
5
7D
100
AcDbEntity
8
1
62
256
6
ByLayer
370
18
48
1
60
0
100
AcDbLine
10
45.249519
20
12.385638
30
0
11
45.249519
21
10.585338
31
0
39
0
210
0
220
0
230
1
0
LINE
5
7E
100
AcDbEntity
8
1
62
256
6
ByLayer
370
18
48
1
60
0
100
AcDbLine
10
44.605481
20
33.970564
30
0
11
44.605481
21
33.625453
31
0
39
0
210
0
220
0
230
1
0
LINE
5
7F
100
AcDbEntity
8
1
62
256
6
ByLayer
370
18
48
1
60
0
100
AcDbLine
10
44.605481
20
8.374547
30
0
11
44.605481
21
8.029436
31
0
39
0
210
0
220
0
230
1
0
LINE
5
80
100
AcDbEntity
8
1
62
256
6
ByLayer
370
18
48
1
60
0
100
AcDbLine
10
45.249519
20
33.416038
30
0
11
45.249519
21
32.091186
31
0
39
0
210
0
220
0
230
1
0
LINE
5
81
100
AcDbEntity
8
1
62
256
6
ByLayer
370
18
48
1
60
0
100
AcDbLine
10
45.249519
20
9.908814
30
0
11
45.249519
21
8.583962
31
0
39
0
210
0
220
0
230
1
0
LINE
5
82
100
AcDbEntity
8
1
62
256
6
ByLayer
370
18
48
1
60
0
100
AcDbLine
10
45.249519
20
8.064716
30
0
11
45.249519
21
7.023204
31
0
39
0
210
0
220
0
230
1
0
LINE
5
83
100
AcDbEntity
8
1
62
256
6
ByLayer
370
18
48
1
60
0
100
AcDbLine
10
45.249519
20
34.976796
30
0
11
45.249519
21
33.935284
31
0
39
0
210
0
220
0
230
1
0
LINE
5
84
100
AcDbEntity
8
1
62
256
6
ByLayer
370
18
48
1
60
0
100
AcDbLine
10
44.605481
20
35.510129
30
0
11
44.605481
21
35.233543
31
0
39
0
210
0
220
0
230
1
0
LINE
5
85
100
AcDbEntity
8
1
62
256
6
ByLayer
370
18
48
1
60
0
100
AcDbLine
10
44.605481
20
6.766457
30
0
11
44.605481
21
6.489871
31
0
39
0
210
0
220
0
230
1
0
LINE
5
86
100
AcDbEntity
8
1
62
256
6
ByLayer
370
18
48
1
60
0
100
AcDbLine
10
44.605481
20
5.466636
30
0
11
44.605481
21
5.240807
31
0
39
0
210
0
220
0
230
1
0
LINE
5
87
100
AcDbEntity
8
1
62
256
6
ByLayer
370
18
48
1
60
0
100
AcDbLine
10
44.605481
20
36.759193
30
0
11
44.605481
21
36.533364
31
0
39
0
210
0
220
0
230
1
0
LINE
5
88
100
AcDbEntity
8
1
62
256
6
ByLayer
370
18
48
1
60
0
100
AcDbLine
10
45.249519
20
36.232979
30
0
11
45.249519
21
35.391969
31
0
39
0
210
0
220
0
230
1
0
LINE
5
89
100
AcDbEntity
8
1
62
256
6
ByLayer
370
18
48
1
60
0
100
AcDbLine
10
45.249519
20
6.608031
30
0
11
45.249519
21
5.767021
31
0
39
0
210
0
220
0
230
1
0
LINE
5
8A
100
AcDbEntity
8
1
62
256
6
ByLayer
370
18
48
1
60
0
100
AcDbLine
10
44.605481
20
37.782744
30
0
11
44.605481
21
37.597502
31
0
39
0
210
0
220
0
230
1
0
LINE
5
8B
100
AcDbEntity
8
1
62
256
6
ByLayer
370
18
48
1
60
0
100
AcDbLine
10
44.605481
20
4.402498
30
0
11
44.605481
21
4.217256
31
0
39
0
210
0
220
0
230
1
0
LINE
5
8C
100
AcDbEntity
8
1
62
256
6
ByLayer
370
18
48
1
60
0
100
AcDbLine
10
45.249519
20
5.429645
30
0
11
45.249519
21
4.744648
31
0
39
0
210
0
220
0
230
1
0
LINE
5
8D
100
AcDbEntity
8
1
62
256
6
ByLayer
370
18
48
1
60
0
100
AcDbLine
10
45.249519
20
37.255352
30
0
11
45.249519
21
36.570355
31
0
39
0
210
0
220
0
230
1
0
LINE
5
8E
100
AcDbEntity
8
1
62
256
6
ByLayer
370
18
48
1
60
0
100
AcDbLine
10
45.324519
20
5.614923
30
0
11
45.324519
21
4.753244
31
0
39
0
210
0
220
0
230
1
0
LINE
5
8F
100
AcDbEntity
8
1
62
256
6
ByLayer
370
18
48
1
60
0
100
AcDbLine
10
45.324519
20
37.246756
30
0
11
45.324519
21
36.385077
31
0
39
0
210
0
220
0
230
1
0
LINE
5
90
100
AcDbEntity
8
1
62
256
6
ByLayer
370
18
48
1
60
0
100
AcDbLine
10
44.605481
20
3.53092
30
0
11
44.605481
21
3.379874
31
0
39
0
210
0
220
0
230
1
0
LINE
5
91
100
AcDbEntity
8
1
62
256
6
ByLayer
370
18
48
1
60
0
100
AcDbLine
10
44.605481
20
38.620126
30
0
11
44.605481
21
38.46908
31
0
39
0
210
0
220
0
230
1
0
LINE
5
92
100
AcDbEntity
8
1
62
256
6
ByLayer
370
18
48
1
60
0
100
AcDbLine
10
45.249519
20
38.085938
30
0
11
45.249519
21
37.530067
31
0
39
0
210
0
220
0
230
1
0
LINE
5
93
100
AcDbEntity
8
1
62
256
6
ByLayer
370
18
48
1
60
0
100
AcDbLine
10
45.249519
20
4.469933
30
0
11
45.249519
21
3.914062
31
0
39
0
210
0
220
0
230
1
0
LINE
5
94
100
AcDbEntity
8
1
62
256
6
ByLayer
370
18
48
1
60
0
100
AcDbLine
10
45.324519
20
4.632425
30
0
11
45.324519
21
3.933653
31
0
39
0
210
0
220
0
230
1
0
LINE
5
95
100
AcDbEntity
8
1
62
256
6
ByLayer
370
18
48
1
60
0
100
AcDbLine
10
45.324519
20
38.066347
30
0
11
45.324519
21
37.367575
31
0
39
0
210
0
220
0
230
1
0
LINE
5
96
100
AcDbEntity
8
1
62
256
6
ByLayer
370
18
48
1
60
0
100
AcDbLine
10
44.605481
20
2.82418
30
0
11
44.605481
21
2.703083
31
0
39
0
210
0
220
0
230
1
0
LINE
5
97
100
AcDbEntity
8
1
62
256
6
ByLayer
370
18
48
1
60
0
100
AcDbLine
10
44.605481
20
39.296917
30
0
11
44.605481
21
39.17582
31
0
39
0
210
0
220
0
230
1
0
LINE
5
98
100
AcDbEntity
8
1
62
256
6
ByLayer
370
18
48
1
60
0
100
AcDbLine
10
45.249519
20
38.751679
30
0
11
45.249519
21
38.307522
31
0
39
0
210
0
220
0
230
1
0
LINE
5
99
100
AcDbEntity
8
1
62
256
6
ByLayer
370
18
48
1
60
0
100
AcDbLine
10
45.249519
20
3.692478
30
0
11
45.249519
21
3.248321
31
0
39
0
210
0
220
0
230
1
0
LINE
5
9A
100
AcDbEntity
8
1
62
256
6
ByLayer
370
18
48
1
60
0
100
AcDbLine
10
45.324519
20
38.721831
30
0
11
45.324519
21
38.163752
31
0
39
0
210
0
220
0
230
1
0
LINE
5
9B
100
AcDbEntity
8
1
62
256
6
ByLayer
370
18
48
1
60
0
100
AcDbLine
10
45.324519
20
3.836248
30
0
11
45.324519
21
3.278169
31
0
39
0
210
0
220
0
230
1
0
LINE
5
9C
100
AcDbEntity
8
1
62
256
6
ByLayer
370
18
48
1
60
0
100
AcDbLine
10
44.605481
20
39.83044
30
0
11
44.605481
21
39.736384
31
0
39
0
210
0
220
0
230
1
0
LINE
5
9D
100
AcDbEntity
8
1
62
256
6
ByLayer
370
18
48
1
60
0
100
AcDbLine
10
44.605481
20
2.263616
30
0
11
44.605481
21
2.16956
31
0
39
0
210
0
220
0
230
1
0
LINE
5
9E
100
AcDbEntity
8
1
62
256
6
ByLayer
370
18
48
1
60
0
100
AcDbLine
10
45.249519
20
3.073554
30
0
11
45.249519
21
2.729397
31
0
39
0
210
0
220
0
230
1
0
LINE
5
9F
100
AcDbEntity
8
1
62
256
6
ByLayer
370
18
48
1
60
0
100
AcDbLine
10
45.249519
20
39.270603
30
0
11
45.249519
21
38.926446
31
0
39
0
210
0
220
0
230
1
0
LINE
5
A0
100
AcDbEntity
8
1
62
256
6
ByLayer
370
18
48
1
60
0
100
AcDbLine
10
45.324519
20
3.201369
30
0
11
45.324519
21
2.769081
31
0
39
0
210
0
220
0
230
1
0
LINE
5
A1
100
AcDbEntity
8
1
62
256
6
ByLayer
370
18
48
1
60
0
100
AcDbLine
10
45.324519
20
39.230919
30
0
11
45.324519
21
38.798631
31
0
39
0
210
0
220
0
230
1
0
LINE
5
A2
100
AcDbEntity
8
1
62
256
6
ByLayer
370
18
48
1
60
0
100
AcDbLine
10
44.605481
20
40.232624
30
0
11
44.605481
21
40.163605
31
0
39
0
210
0
220
0
230
1
0
LINE
5
A3
100
AcDbEntity
8
1
62
256
6
ByLayer
370
18
48
1
60
0
100
AcDbLine
10
44.605481
20
1.836395
30
0
11
44.605481
21
1.767376
31
0
39
0
210
0
220
0
230
1
0
LINE
5
A4
100
AcDbEntity
8
1
62
256
6
ByLayer
370
18
48
1
60
0
100
AcDbLine
10
45.249519
20
2.597156
30
0
11
45.249519
21
2.345034
31
0
39
0
210
0
220
0
230
1
0
LINE
5
A5
100
AcDbEntity
8
1
62
256
6
ByLayer
370
18
48
1
60
0
100
AcDbLine
10
45.249519
20
39.654966
30
0
11
45.249519
21
39.402844
31
0
39
0
210
0
220
0
230
1
0
LINE
5
A6
100
AcDbEntity
8
1
62
256
6
ByLayer
370
18
48
1
60
0
100
AcDbLine
10
45.324519
20
2.710982
30
0
11
45.324519
21
2.394369
31
0
39
0
210
0
220
0
230
1
0
LINE
5
A7
100
AcDbEntity
8
1
62
256
6
ByLayer
370
18
48
1
60
0
100
AcDbLine
10
45.324519
20
39.605631
30
0
11
45.324519
21
39.289018
31
0
39
0
210
0
220
0
230
1
0
LINE
5
A8
100
AcDbEntity
8
1
62
256
6
ByLayer
370
18
48
1
60
0
100
AcDbLine
10
44.605481
20
1.533736
30
0
11
44.605481
21
1.48841
31
0
39
0
210
0
220
0
230
1
0
LINE
5
A9
100
AcDbEntity
8
1
62
256
6
ByLayer
370
18
48
1
60
0
100
AcDbLine
10
44.605481
20
40.51159
30
0
11
44.605481
21
40.466264
31
0
39
0
210
0
220
0
230
1
0
LINE
5
AA
100
AcDbEntity
8
1
62
256
6
ByLayer
370
18
48
1
60
0
100
AcDbLine
10
45.249519
20
2.252418
30
0
11
45.249519
21
2.087027
31
0
39
0
210
0
220
0
230
1
0
LINE
5
AB
100
AcDbEntity
8
1
62
256
6
ByLayer
370
18
48
1
60
0
100
AcDbLine
10
45.249519
20
39.912973
30
0
11
45.249519
21
39.747582
31
0
39
0
210
0
220
0
230
1
0
LINE
5
AC
100
AcDbEntity
8
1
62
256
6
ByLayer
370
18
48
1
60
0
100
AcDbLine
10
45.324519
20
2.353685
30
0
11
45.324519
21
2.146018
31
0
39
0
210
0
220
0
230
1
0
LINE
5
AD
100
AcDbEntity
8
1
62
256
6
ByLayer
370
18
48
1
60
0
100
AcDbLine
10
45.324519
20
39.853982
30
0
11
45.324519
21
39.646315
31
0
39
0
210
0
220
0
230
1
0
LINE
5
AE
100
AcDbEntity
8
1
62
256
6
ByLayer
370
18
48
1
60
0
100
AcDbLine
10
44.605481
20
1.349883
30
0
11
44.605481
21
1.327419
31
0
39
0
210
0
220
0
230
1
0
LINE
5
AF
100
AcDbEntity
8
1
62
256
6
ByLayer
370
18
48
1
60
0
100
AcDbLine
10
44.605481
20
40.672581
30
0
11
44.605481
21
40.650117
31
0
39
0
210
0
220
0
230
1
0
LINE
5
B0
100
AcDbEntity
8
1
62
256
6
ByLayer
370
18
48
1
60
0
100
AcDbLine
10
45.249519
20
2.032158
30
0
11
45.249519
21
1.950239
31
0
39
0
210
0
220
0
230
1
0
LINE
5
B1
100
AcDbEntity
8
1
62
256
6
ByLayer
370
18
48
1
60
0
100
AcDbLine
10
45.249519
20
40.049761
30
0
11
45.249519
21
39.967842
31
0
39
0
210
0
220
0
230
1
0
LINE
5
B2
100
AcDbEntity
8
1
62
256
6
ByLayer
370
18
48
1
60
0
100
AcDbLine
10
45.324519
20
39.980931
30
0
11
45.324519
21
39.878081
31
0
39
0
210
0
220
0
230
1
0
LINE
5
B3
100
AcDbEntity
8
1
62
256
6
ByLayer
370
18
48
1
60
0
100
AcDbLine
10
45.324519
20
2.121919
30
0
11
45.324519
21
2.019069
31
0
39
0
210
0
220
0
230
1
0
LINE
5
B4
100
AcDbEntity
8
1
62
256
6
ByLayer
370
18
48
1
60
0
100
AcDbLine
10
44.520481
20
1.195962
30
0
11
44.52231
21
1.197807
31
0
39
0
210
0
220
0
230
1
0
LINE
5
B5
100
AcDbEntity
8
1
62
256
6
ByLayer
370
18
48
1
60
0
100
AcDbLine
10
44.324519
20
1
30
0
11
44.324519
21
41
31
0
39
0
210
0
220
0
230
1
0
LINE
5
B6
100
AcDbEntity
8
1
62
256
6
ByLayer
370
18
48
1
60
0
100
AcDbLine
10
56
20
26.3995
30
0
11
56
21
35.3995
31
0
39
0
210
0
220
0
230
1
0
LINE
5
B7
100
AcDbEntity
8
1
62
256
6
ByLayer
370
18
48
1
60
0
100
AcDbLine
10
55.5
20
25.8995
30
0
11
55.5
21
35.8995
31
0
39
0
210
0
220
0
230
1
0
LINE
5
B8
100
AcDbEntity
8
1
62
256
6
ByLayer
370
18
48
1
60
0
100
AcDbLine
10
55.5
20
6.1005
30
0
11
55.5
21
16.1005
31
0
39
0
210
0
220
0
230
1
0
LINE
5
B9
100
AcDbEntity
8
1
62
256
6
ByLayer
370
18
48
1
60
0
100
AcDbLine
10
50
20
25.8995
30
0
11
50
21
35.8995
31
0
39
0
210
0
220
0
230
1
0
LINE
5
BA
100
AcDbEntity
8
1
62
256
6
ByLayer
370
18
48
1
60
0
100
AcDbLine
10
50
20
6.1005
30
0
11
50
21
16.1005
31
0
39
0
210
0
220
0
230
1
0
LINE
5
BB
100
AcDbEntity
8
1
62
256
6
ByLayer
370
18
48
1
60
0
100
AcDbLine
10
56
20
6.6005
30
0
11
56
21
15.6005
31
0
39
0
210
0
220
0
230
1
0
LINE
5
BC
100
AcDbEntity
8
1
62
256
6
ByLayer
370
18
48
1
60
0
100
AcDbLine
10
45.324519
20
5.7634
30
0
11
45.324519
21
36.2366
31
0
39
0
210
0
220
0
230
1
0
LINE
5
BD
100
AcDbEntity
8
1
62
256
6
ByLayer
370
18
48
1
60
0
100
AcDbLine
10
55.5
20
6.1005
30
0
11
56
21
6.6005
31
0
39
0
210
0
220
0
230
1
0
LINE
5
BE
100
AcDbEntity
8
1
62
256
6
ByLayer
370
18
48
1
60
0
100
AcDbLine
10
55.5
20
25.8995
30
0
11
56
21
26.3995
31
0
39
0
210
0
220
0
230
1
0
LINE
5
BF
100
AcDbEntity
8
1
62
256
6
ByLayer
370
18
48
1
60
0
100
AcDbLine
10
45.324519
20
8.1005
30
0
11
50
21
8.1005
31
0
39
0
210
0
220
0
230
1
0
LINE
5
C0
100
AcDbEntity
8
1
62
256
6
ByLayer
370
18
48
1
60
0
100
AcDbLine
10
50
20
6.1005
30
0
11
55.5
21
6.1005
31
0
39
0
210
0
220
0
230
1
0
LINE
5
C1
100
AcDbEntity
8
1
62
256
6
ByLayer
370
18
48
1
60
0
100
AcDbLine
10
50
20
16.1005
30
0
11
55.5
21
16.1005
31
0
39
0
210
0
220
0
230
1
0
LINE
5
C2
100
AcDbEntity
8
1
62
256
6
ByLayer
370
18
48
1
60
0
100
AcDbLine
10
45.324519
20
33.8995
30
0
11
50
21
33.8995
31
0
39
0
210
0
220
0
230
1
0
LINE
5
C3
100
AcDbEntity
8
1
62
256
6
ByLayer
370
18
48
1
60
0
100
AcDbLine
10
45.324519
20
27.8995
30
0
11
50
21
27.8995
31
0
39
0
210
0
220
0
230
1
0
LINE
5
C4
100
AcDbEntity
8
1
62
256
6
ByLayer
370
18
48
1
60
0
100
AcDbLine
10
50
20
25.8995
30
0
11
55.5
21
25.8995
31
0
39
0
210
0
220
0
230
1
0
LINE
5
C5
100
AcDbEntity
8
1
62
256
6
ByLayer
370
18
48
1
60
0
100
AcDbLine
10
50
20
35.8995
30
0
11
55.5
21
35.8995
31
0
39
0
210
0
220
0
230
1
0
LINE
5
C6
100
AcDbEntity
8
1
62
256
6
ByLayer
370
18
48
1
60
0
100
AcDbLine
10
45.324519
20
14.1005
30
0
11
50
21
14.1005
31
0
39
0
210
0
220
0
230
1
0
LINE
5
C7
100
AcDbEntity
8
1
62
256
6
ByLayer
370
18
48
1
60
0
100
AcDbLine
10
55.5
20
16.1005
30
0
11
56
21
15.6005
31
0
39
0
210
0
220
0
230
1
0
LINE
5
C8
100
AcDbEntity
8
1
62
256
6
ByLayer
370
18
48
1
60
0
100
AcDbLine
10
55.5
20
35.8995
30
0
11
56
21
35.3995
31
0
39
0
210
0
220
0
230
1
0
LINE
5
C9
100
AcDbEntity
8
1
62
256
6
ByLayer
370
18
48
1
60
0
100
AcDbLine
10
44.824519
20
5.7634
30
0
11
44.824519
21
36.2366
31
0
39
0
210
0
220
0
230
1
0
LINE
5
CA
100
AcDbEntity
8
81
62
256
6
ByLayer
370
18
48
1
60
0
100
AcDbLine
10
45
20
21
30
0
11
50
21
21
31
0
39
0
210
0
220
0
230
1
0
LINE
5
CB
100
AcDbEntity
8
1
62
256
6
ByLayer
370
18
48
1
60
0
100
AcDbLine
10
0
20
-31.2
30
0
11
0
21
31.2
31
0
39
0
210
0
220
0
230
1
0
LINE
5
CC
100
AcDbEntity
8
SK1
62
256
6
ByLayer
370
18
48
1
60
0
100
AcDbLine
10
-38
20
-20.279849
30
0
11
-38
21
20.279849
31
0
39
0
210
0
220
0
230
1
0
LINE
5
CE
100
AcDbEntity
8
SK1
62
256
6
ByLayer
370
18
48
1
60
0
100
AcDbLine
10
-2.1
20
-22.022494
30
0
11
-2.1
21
22.022494
31
0
39
0
210
0
220
0
230
1
0
LINE
5
CF
100
AcDbEntity
8
1
62
256
6
ByLayer
370
18
48
1
60
0
100
AcDbLine
10
0
20
31.2
30
0
11
0.3
21
31.5
31
0
39
0
210
0
220
0
230
1
0
LINE
5
D0
100
AcDbEntity
8
1
62
256
6
ByLayer
370
18
48
1
60
0
100
AcDbLine
10
0
20
-31.2
30
0
11
0.3
21
-31.5
31
0
39
0
210
0
220
0
230
1
0
LINE
5
D1
100
AcDbEntity
8
SK1
62
256
6
ByLayer
370
18
48
1
60
0
100
AcDbLine
10
-2.1
20
22.022939
30
0
11
-36.5
21
21.145874
31
0
39
0
210
0
220
0
230
1
0
LINE
5
D2
100
AcDbEntity
8
SK1
62
256
6
ByLayer
370
18
48
1
60
0
100
AcDbLine
10
-2.1
20
-22.022939
30
0
11
-36.5
21
-21.145874
31
0
39
0
210
0
220
0
230
1
0
LINE
5
D3
100
AcDbEntity
8
SK1
62
256
6
ByLayer
370
18
48
1
60
0
100
AcDbLine
10
-36.5
20
-21.145874
30
0
11
-36.5
21
21.145874
31
0
39
0
210
0
220
0
230
1
0
LINE
5
D4
100
AcDbEntity
8
SK1
62
256
6
ByLayer
370
18
48
1
60
0
100
AcDbLine
10
-38
20
20.279849
30
0
11
-36.5
21
21.145874
31
0
39
0
210
0
220
0
230
1
0
LINE
5
D5
100
AcDbEntity
8
SK1
62
256
6
ByLayer
370
18
48
1
60
0
100
AcDbLine
10
-38
20
-20.279849
30
0
11
-36.5
21
-21.145874
31
0
39
0
210
0
220
0
230
1
0
LINE
5
D6
100
AcDbEntity
8
1
62
256
6
ByLayer
370
18
48
1
60
0
100
AcDbLine
10
10.25
20
-9.349244
30
0
11
10.25
21
-30.080586
31
0
39
0
210
0
220
0
230
1
0
LINE
5
D7
100
AcDbEntity
8
1
62
256
6
ByLayer
370
18
48
1
60
0
100
AcDbLine
10
13.75
20
-30.080586
30
0
11
10.25
21
-30.080586
31
0
39
0
210
0
220
0
230
1
0
LINE
5
D8
100
AcDbEntity
8
1
62
256
6
ByLayer
370
18
48
1
60
0
100
AcDbLine
10
10.25
20
30.080586
30
0
11
10.25
21
9.349244
31
0
39
0
210
0
220
0
230
1
0
LINE
5
D9
100
AcDbEntity
8
1
62
256
6
ByLayer
370
18
48
1
60
0
100
AcDbLine
10
13.75
20
9.349244
30
0
11
10.25
21
9.349244
31
0
39
0
210
0
220
0
230
1
0
LINE
5
DA
100
AcDbEntity
8
1
62
256
6
ByLayer
370
18
48
1
60
0
100
AcDbLine
10
13.75
20
-9.349244
30
0
11
10.25
21
-9.349244
31
0
39
0
210
0
220
0
230
1
0
LINE
5
DB
100
AcDbEntity
8
1
62
256
6
ByLayer
370
18
48
1
60
0
100
AcDbLine
10
13.75
20
-9.349244
30
0
11
13.75
21
-30.080586
31
0
39
0
210
0
220
0
230
1
0
LINE
5
DC
100
AcDbEntity
8
1
62
256
6
ByLayer
370
18
48
1
60
0
100
AcDbLine
10
13.75
20
30.080586
30
0
11
13.75
21
9.349244
31
0
39
0
210
0
220
0
230
1
0
LINE
5
DD
100
AcDbEntity
8
1
62
256
6
ByLayer
370
18
48
1
60
0
100
AcDbLine
10
13.75
20
30.080586
30
0
11
10.25
21
30.080586
31
0
39
0
210
0
220
0
230
1
0
LINE
5
DE
100
AcDbEntity
8
80
62
256
6
ByLayer
370
13
48
1
60
0
100
AcDbLine
10
0
20
0
30
0
11
-7
21
0
31
0
39
0
210
0
220
0
230
1
0
LINE
5
DF
100
AcDbEntity
8
1
62
256
6
ByLayer
370
18
48
0.05
60
1
100
AcDbLine
10
44.324519
20
31.5
30
0
11
0.3
21
31.5
31
0
39
0
210
0
220
0
230
1
0
LINE
5
E0
100
AcDbEntity
8
1
62
256
6
ByLayer
370
18
48
0.05
60
1
100
AcDbLine
10
17.826276
20
-31.5
30
0
11
0.3
21
-31.5
31
0
39
0
210
0
220
0
230
1
0
LINE
5
E1
100
AcDbEntity
8
1
62
256
6
ByLayer
370
18
48
0.05
60
1
100
AcDbLine
10
22.718075
20
-13.243558
30
0
11
22.718075
21
24.939443
31
0
39
0
210
0
220
0
230
1
0
LINE
5
E2
100
AcDbEntity
8
1
62
256
6
ByLayer
370
18
48
1
60
0
100
AcDbLine
10
44.324519
20
1
30
0
11
28.9
21
1
31
0
39
0
210
0
220
0
230
1
0
LINE
5
E3
100
AcDbEntity
8
SK4
62
256
6
ByLayer
370
13
48
0.05
60
0
100
AcDbLine
10
49.258573
20
0
30
0
11
-40.515079
21
0
31
0
39
0
210
0
220
0
230
1
0
LINE
5
E5
100
AcDbEntity
8
4
62
256
6
ByLayer
370
13
48
0.05
60
0
100
AcDbLine
10
0
20
0
30
0
11
45.324519
21
0
31
0
39
0
210
0
220
0
230
1
0
LINE
5
E7
100
AcDbEntity
8
1
62
256
6
ByLayer
370
18
48
0.05
60
1
100
AcDbLine
10
44.324519
20
41
30
0
11
28.9
21
41
31
0
39
0
210
0
220
0
230
1
0
LINE
5
E8
100
AcDbEntity
8
1
62
256
6
ByLayer
370
18
48
0.05
60
1
100
AcDbLine
10
33
20
-31.2
30
0
11
33
21
31.2
31
0
39
0
210
0
220
0
230
1
0
LINE
5
E9
100
AcDbEntity
8
1
62
256
6
ByLayer
370
18
48
0.05
60
1
100
AcDbLine
10
33
20
41
30
0
11
33
21
-31.2
31
0
39
0
210
0
220
0
230
1
0
LINE
5
EA
100
AcDbEntity
8
1
62
256
6
ByLayer
370
18
48
1
60
0
100
AcDbLine
10
33
20
41
30
0
11
44.324519
21
41
31
0
39
0
210
0
220
0
230
1
0
LINE
5
EB
100
AcDbEntity
8
1
62
256
6
ByLayer
370
18
48
0.05
60
1
100
AcDbLine
10
33
20
41
30
0
11
20.380301
21
30.365291
31
0
39
0
210
0
220
0
230
1
0
LINE
5
EC
100
AcDbEntity
8
1
62
256
6
ByLayer
370
18
48
1
60
0
100
AcDbLine
10
21.726805
20
31.5
30
0
11
33
21
41
31
0
39
0
210
0
220
0
230
1
0
LINE
5
ED
100
AcDbEntity
8
1
62
256
6
ByLayer
370
18
48
1
60
0
100
AcDbLine
10
21.726805
20
31.5
30
0
11
0.3
21
31.5
31
0
39
0
210
0
220
0
230
1
0
LINE
5
EE
100
AcDbEntity
8
1
62
256
6
ByLayer
370
18
48
0.05
60
1
100
AcDbLine
10
22.718075
20
31.5
30
0
11
22.718075
21
-13.243558
31
0
39
0
210
0
220
0
230
1
0
LINE
5
EF
100
AcDbEntity
8
1
62
256
6
ByLayer
370
18
48
0.05
60
1
100
AcDbLine
10
22.718075
20
32.33535
30
0
11
22.718075
21
-13.243558
31
0
39
0
210
0
220
0
230
1
0
LINE
5
F0
100
AcDbEntity
8
1
62
256
6
ByLayer
370
18
48
1
60
0
100
AcDbLine
10
22.718075
20
-31.5
30
0
11
22.718075
21
32.33535
31
0
39
0
210
0
220
0
230
1
0
LINE
5
F1
100
AcDbEntity
8
1
62
256
6
ByLayer
370
18
48
1
60
0
100
AcDbLine
10
22.718075
20
-31.5
30
0
11
0.3
21
-31.5
31
0
39
0
210
0
220
0
230
1
0
MTEXT
5
1A8
100
AcDbEntity
8
SK6
62
256
6
ByLayer
370
18
48
1
60
0
100
AcDbMText
10
10.139854
20
-41.693348
30
0
210
0
220
0
230
1
1
\W0.7173;C6-570-40-RG
40
3.5
41
0
44
1.084337
50
0
71
7
72
5
7
iso_b_vert
0
DIMENSION
5
1B6
100
AcDbEntity
8
2
62
256
6
ByLayer
370
13
48
1
60
0
100
AcDbDimension
2
DimnDraft3D1
10
45
20
59.067281
30
0
11
20.589469
21
59.067281
31
0
70
32
71
5
72
1
41
1
210
0
220
0
230
1
3
Standard
100
AcDbAlignedDimension
13
0
23
1.5875
33
0
14
45
24
22.5875
34
0
50
0
100
AcDbRotatedDimension
1001
ACAD
1000
DSTYLE
1002
{
1070
   279
1070
     0
1070
   172
1070
     1
1070
   173
1070
     1
1070
   340
1005
1A9
1070
   271
1070
     5
1070
    77
1070
     1
1070
    73
1070
     0
1070
   171
1070
     3
1070
   274
1070
     4
1070
   177
1070
   254
1070
   176
1070
   254
1070
   178
1070
   254
1070
    78
1070
     8
1070
    41
1041
3.175
1070
   147
1041
1.500003
1070
    42
1041
1.5875
1070
    44
1041
3.175
1070
   140
1041
3.000007
1070
   343
1005
0
1070
   344
1005
0
1002
}
0
DIMENSION
5
1C1
100
AcDbEntity
8
SK2
62
256
6
ByLayer
370
13
48
1
60
0
100
AcDbDimension
2
DimnDraft3D2
10
-38
20
70.840445
30
0
11
1.747365
21
70.840445
31
0
70
32
71
5
72
1
41
1
210
0
220
0
230
1
3
Standard
100
AcDbAlignedDimension
13
45
23
22.5875
33
0
14
-38
24
21.867349
34
0
50
0
100
AcDbRotatedDimension
1001
ACAD
1000
DSTYLE
1002
{
1070
   279
1070
     0
1070
   172
1070
     1
1070
   173
1070
     1
1070
   340
1005
1A9
1070
   271
1070
     5
1070
    77
1070
     1
1070
    73
1070
     0
1070
   171
1070
     3
1070
   274
1070
     4
1070
   177
1070
   254
1070
   176
1070
   254
1070
   178
1070
   254
1070
    78
1070
     8
1070
    41
1041
3.175
1070
   147
1041
1.500003
1070
    42
1041
1.5875
1070
    44
1041
3.175
1070
   140
1041
3.000007
1070
   343
1005
0
1070
   344
1005
0
1002
}
0
DIMENSION
5
1CB
100
AcDbEntity
8
SK2
62
256
6
ByLayer
370
13
48
1
60
0
100
AcDbDimension
2
DimnDraft3D3
10
70.493315
20
1
30
0
11
70.493315
21
16.768412
31
0
70
32
71
5
72
1
41
1
210
0
220
0
230
1
3
Standard
100
AcDbAlignedDimension
13
45.912019
23
41
33
0
14
45.912019
24
1
34
0
50
90
100
AcDbRotatedDimension
1001
ACAD
1000
DSTYLE
1002
{
1070
    74
1070
     0
1070
   279
1070
     0
1070
   172
1070
     1
1070
   173
1070
     1
1070
   340
1005
1A9
1070
    77
1070
     1
1070
    73
1070
     0
1070
   171
1070
     3
1070
   274
1070
     4
1070
   177
1070
   254
1070
   176
1070
   254
1070
   178
1070
   254
1070
    78
1070
     8
1070
    41
1041
3.175
1070
   147
1041
1.500003
1070
    42
1041
1.5875
1070
    44
1041
3.175
1070
   140
1041
3.000007
1070
   343
1005
0
1070
   344
1005
0
1002
}
0
DIMENSION
5
1D9
100
AcDbEntity
8
SK2
62
256
6
ByLayer
370
13
48
1
60
0
100
AcDbDimension
2
DimnDraft3D4
10
-46.756937
20
-31.5
30
0
11
-46.756937
21
-4.073684
31
0
70
32
71
5
72
1
41
1
210
0
220
0
230
1
3
Standard
100
AcDbAlignedDimension
13
-1.2
23
31.5
33
0
14
-1.2
24
-31.5
34
0
50
90
100
AcDbRotatedDimension
1001
ACAD
1000
DSTYLE
1002
{
1070
    74
1070
     0
1070
   279
1070
     0
1070
   173
1070
     1
1070
   340
1005
1A9
1070
   271
1070
     0
1070
   272
1070
     2
1070
    77
1070
     1
1070
    73
1070
     0
1070
   171
1070
     4
1070
   274
1070
     4
1070
   177
1070
   254
1070
   176
1070
   254
1070
   178
1070
   254
1070
    41
1041
3.0
1070
   147
1041
1.5
1070
    42
1041
1.5
1070
    44
1041
3.0
1070
   140
1041
3.0
1070
   343
1005
1DA
1070
   344
1005
1DA
1002
}
0
DIMENSION
5
1EE
100
AcDbEntity
8
SK2
62
256
6
ByLayer
370
18
48
1
60
0
100
AcDbDimension
2
DimnDraft3D5
10
20.380301
20
30.365291
30
0
11
58.719248
21
50.391826
31
0
70
34
71
5
72
1
41
1
210
0
220
0
230
1
3
Standard
100
AcDb2LineAngularDimension
13
33
23
41
33
0
14
44.324519
24
41
34
0
15
33
25
41
35
0
16
55.901256
26
49.362788
36
0
40
0
0
DIMENSION
5
1FC
100
AcDbEntity
8
SK2
62
256
6
ByLayer
370
18
48
1
60
0
100
AcDbDimension
2
DimnDraft3D6
10
33
20
46.558557
30
0
11
14.747368
21
46.558557
31
0
70
32
71
5
72
1
41
1
210
0
220
0
230
1
3
Standard
100
AcDbAlignedDimension
13
0
23
33.2
33
0
14
33
24
43
34
0
50
0
100
AcDbRotatedDimension
1001
ACAD
1000
DSTYLE
1002
{
1070
   279
1070
     0
1070
   172
1070
     1
1070
   173
1070
     1
1070
   340
1005
1A9
1070
    77
1070
     1
1070
    73
1070
     0
1070
   171
1070
     3
1070
   274
1070
     4
1070
   177
1070
   254
1070
   176
1070
   254
1070
   178
1070
   254
1070
    78
1070
     8
1070
    41
1041
3.175
1070
   147
1041
1.5
1070
    42
1041
2.0
1070
    44
1041
2.0
1070
   140
1041
3.0
1070
   343
1005
1DA
1070
   344
1005
1DA
1002
}
0
ENDSEC
0
SECTION
2
OBJECTS
0
DICTIONARY
5
267
330
0
100
AcDbDictionary
280
0
281
1
3
ACAD_GROUP
350
268
3
ACAD_MLINESTYLE
350
269
0
DICTIONARY
5
268
330
0
100
AcDbDictionary
280
0
281
1
0
DICTIONARY
5
269
330
0
100
AcDbDictionary
280
0
281
1
3
Standard
350
18
0
MLINESTYLE
5
18
330
269
100
AcDbMlineStyle
2
Standard
70
0
3

62
256
51
90
52
90
71
2
49
-0.5
62
256
6
ByLayer
49
0.5
62
256
6
ByLayer
0
RASTERVARIABLES
5
255
330

100
AcDbRasterVariables
90
0
70
1
71
1
72
1
0
ENDSEC
0
EOF
