0
SECTION
2
HEADER
9
$ACADVER
1
AC1015
9
$DWGCODEPAGE
3
ANSI_1252
9
$HANDSEED
5
234
9
$ANGBASE
50
0
9
$ANGDIR
70
0
9
$ATTMODE
70
1
9
$AUNITS
70
0
9
$AUPREC
70
0
9
$CECOLOR
62
256
9
$CELTSCALE
40
1
9
$CELTYPE
6
ByLayer
9
$CELWEIGHT
370
18
9
$CLAYER
8
0
9
$CMLJUST
70
0
9
$CMLSCALE
40
1
9
$CMLSTYLE
2
Standard
9
$DIMSTYLE
2
Standard
9
$TEXTSIZE
40
0.2
9
$TEXTSTYLE
7
Standard
9
$LUNITS
70
2
9
$LUPREC
70
4
9
$EXTNAMES
290
1
9
$INSUNITS
70
4
9
$LTSCALE
40
1
9
$LWDISPLAY
290
1
9
$PDMODE
70
0
9
$PDSIZE
40
0
9
$PLINEGEN
70
0
0
ENDSEC
0
SECTION
2
CLASSES
0
CLASS
1
RASTERVARIABLES
2
AcDbRasterVariables
3
ISM
90
0
280
0
281
0
0
ENDSEC
0
SECTION
2
TABLES
0
TABLE
2
VPORT
5
22a
100
AcDbSymbolTable
0
VPORT
5
1
100
AcDbSymbolTableRecord
100
AcDbViewportTableRecord
2
*Active
70
0
10
0
20
0
11
1
21
1
12
-1
22
1
13
0
23
0
14
0.5
24
0.5
15
10
25
10
16
0
26
0
36
1
17
0
27
0
37
0
0
ENDTAB
0
TABLE
2
LTYPE
5
22b
100
AcDbSymbolTable
0
LTYPE
5
14
100
AcDbSymbolTableRecord
100
AcDbLinetypeTableRecord
70
0
2
ByBlock
3

72
65
73
0
40
0
0
LTYPE
5
15
100
AcDbSymbolTableRecord
100
AcDbLinetypeTableRecord
70
0
2
ByLayer
3

72
65
73
0
40
0
0
LTYPE
5
16
100
AcDbSymbolTableRecord
100
AcDbLinetypeTableRecord
70
0
2
CONTINUOUS
3
Solid line
72
65
73
0
40
0
0
LTYPE
5
6A
100
AcDbSymbolTableRecord
100
AcDbLinetypeTableRecord
70
0
2
CENTER
3
____ _ ____ _ ____ _ ____
72
65
73
4
40
47.5
49
22
74
0
49
-8.5
74
0
49
8.5
74
0
49
-8.5
74
0
0
LTYPE
5
6B
100
AcDbSymbolTableRecord
100
AcDbLinetypeTableRecord
70
0
2
DASHED
3
__ __ __ __ __ __ __ __ __
72
65
73
2
40
25.72
49
12.86
74
0
49
-12.86
74
0
0
ENDTAB
0
TABLE
2
LAYER
5
22c
100
AcDbSymbolTable
0
LAYER
5
10
100
AcDbSymbolTableRecord
100
AcDbLayerTableRecord
2
0
70
0
62
7
6
CONTINUOUS
290
1
370
-3
390
0
0
LAYER
5
6D
100
AcDbSymbolTableRecord
100
AcDbLayerTableRecord
2
80
70
0
62
-6
6
CONTINUOUS
290
1
370
-3
390
0
0
LAYER
5
6F
100
AcDbSymbolTableRecord
100
AcDbLayerTableRecord
2
81
70
0
62
-3
6
CONTINUOUS
290
1
370
-3
390
0
0
LAYER
5
72
100
AcDbSymbolTableRecord
100
AcDbLayerTableRecord
2
4
70
0
62
-2
6
CENTER
290
1
370
-3
390
0
0
LAYER
5
77
100
AcDbSymbolTableRecord
100
AcDbLayerTableRecord
2
1
70
0
62
4
6
CONTINUOUS
290
1
370
-3
390
0
0
LAYER
5
181
100
AcDbSymbolTableRecord
100
AcDbLayerTableRecord
2
2
70
0
62
7
6
CONTINUOUS
290
1
370
-3
390
0
0
LAYER
5
216
100
AcDbSymbolTableRecord
100
AcDbLayerTableRecord
2
SK4
70
0
62
2
6
CENTER
290
1
370
-3
390
0
0
LAYER
5
217
100
AcDbSymbolTableRecord
100
AcDbLayerTableRecord
2
SK1
70
0
62
4
6
CONTINUOUS
290
1
370
-3
390
0
0
LAYER
5
218
100
AcDbSymbolTableRecord
100
AcDbLayerTableRecord
2
SK6
70
0
62
5
6
CONTINUOUS
290
1
370
-3
390
0
0
LAYER
5
219
100
AcDbSymbolTableRecord
100
AcDbLayerTableRecord
2
SK2
70
0
62
7
6
CONTINUOUS
290
1
370
-3
390
0
0
ENDTAB
0
TABLE
2
STYLE
5
22d
100
AcDbSymbolTable
0
STYLE
5
11
100
AcDbSymbolTableRecord
100
AcDbTextStyleTableRecord
2
Standard
3
txt
70
0
71
0
40
0
41
1
42
0
50
0
0
STYLE
5
17C
100
AcDbSymbolTableRecord
100
AcDbTextStyleTableRecord
2
iso_b_vert
3
simplex.shx
70
0
71
0
40
0
41
1
42
0
50
0
0
STYLE
5
17D
100
AcDbSymbolTableRecord
100
AcDbTextStyleTableRecord
2
DWGDirectTextStyle
3
simplex
70
0
71
0
40
0
41
1
42
0
50
0
0
ENDTAB
0
TABLE
2
DIMSTYLE
5
22e
100
AcDbSymbolTable
100
AcDbDimStyleTable
0
DIMSTYLE
105
27
100
AcDbSymbolTableRecord
100
AcDbDimStyleTableRecord
2
Standard
70
0
3
<>
41
0.18
42
0.0625
44
0.18
140
0.18
147
0.09
73
0
74
0
77
1
271
2
275
0
278
52
280
0
340
11
0
ENDTAB
0
TABLE
2
VIEW
5
22f
100
AcDbSymbolTable
0
ENDTAB
0
TABLE
2
UCS
5
230
100
AcDbSymbolTable
0
ENDTAB
0
TABLE
2
APPID
5
231
100
AcDbSymbolTable
0
APPID
5
12
100
AcDbSymbolTableRecord
100
AcDbRegAppTableRecord
2
ACAD
70
0
0
ENDTAB
0
TABLE
2
BLOCK_RECORD
5
232
100
AcDbSymbolTable
0
BLOCK_RECORD
5
1F
100
AcDbSymbolTableRecord
100
AcDbBlockTableRecord
2
*Model_Space
340
0
70
0
0
BLOCK_RECORD
5
1B
100
AcDbSymbolTableRecord
100
AcDbBlockTableRecord
2
*Paper_Space
340
0
70
0
0
BLOCK_RECORD
5
23
100
AcDbSymbolTableRecord
100
AcDbBlockTableRecord
2
*Paper_Space0
340
0
70
0
0
BLOCK_RECORD
5
17F
100
AcDbSymbolTableRecord
100
AcDbBlockTableRecord
2
DimnDraft3D1
340
0
70
0
0
BLOCK_RECORD
5
18A
100
AcDbSymbolTableRecord
100
AcDbBlockTableRecord
2
DimnDraft3D2
340
0
70
0
0
BLOCK_RECORD
5
195
100
AcDbSymbolTableRecord
100
AcDbBlockTableRecord
2
DimnDraft3D3
340
0
70
0
0
BLOCK_RECORD
5
19D
100
AcDbSymbolTableRecord
100
AcDbBlockTableRecord
2
DimnDraft3D4
340
0
70
0
0
BLOCK_RECORD
5
1A8
100
AcDbSymbolTableRecord
100
AcDbBlockTableRecord
2
DimnDraft3D5
340
0
70
0
0
BLOCK_RECORD
5
1B3
100
AcDbSymbolTableRecord
100
AcDbBlockTableRecord
2
DimnDraft3D66
340
0
70
0
0
ENDTAB
0
ENDSEC
0
SECTION
2
BLOCKS
0
BLOCK
5
20
100
AcDbEntity
8
0
100
AcDbBlockBegin
2
*Model_Space
70
0
10
0
20
0
30
0
3
*Model_Space
0
ENDBLK
5
21
100
AcDbEntity
8
0
100
AcDbBlockEnd
0
BLOCK
5
1C
100
AcDbEntity
8
0
100
AcDbBlockBegin
2
*Paper_Space
70
0
10
0
20
0
30
0
3
*Paper_Space
0
ENDBLK
5
1D
100
AcDbEntity
8
0
100
AcDbBlockEnd
0
BLOCK
5
24
100
AcDbEntity
8
0
100
AcDbBlockBegin
2
*Paper_Space0
70
0
10
0
20
0
30
0
3
*Paper_Space0
0
ENDBLK
5
25
100
AcDbEntity
8
0
100
AcDbBlockEnd
0
BLOCK
5
187
100
AcDbEntity
8
0
100
AcDbBlockBegin
2
DimnDraft3D1
70
0
10
0
20
0
30
0
3
DimnDraft3D1
0
MTEXT
5
180
100
AcDbEntity
8
2
62
256
6
ByLayer
370
13
48
1
60
0
100
AcDbMText
10
77.607533
20
59.039847
30
0
210
0
220
0
230
1
1
\W0.6328;159
40
3.175
41
0
44
1.084337
50
0
71
7
72
5
7
iso_b_vert
0
LINE
5
182
100
AcDbEntity
8
2
62
256
6
ByLayer
370
13
48
1
60
0
100
AcDbLine
10
0
20
1.5875
30
0
11
0
21
61.421097
31
0
39
0
210
0
220
0
230
1
0
LINE
5
183
100
AcDbEntity
8
2
62
256
6
ByLayer
370
13
48
1
60
0
100
AcDbLine
10
159
20
1.5875
30
0
11
159
21
61.421097
31
0
39
0
210
0
220
0
230
1
0
LINE
5
184
100
AcDbEntity
8
2
62
256
6
ByLayer
370
13
48
1
60
0
100
AcDbLine
10
0
20
58.246097
30
0
11
159
21
58.246097
31
0
39
0
210
0
220
0
230
1
0
SOLID
5
185
100
AcDbEntity
8
2
62
256
6
ByLayer
370
13
48
1
60
0
100
AcDbTrace
10
0
20
58.246097
30
0
11
3.174998
21
58.664093
31
0
12
3.175002
22
57.8281
32
0
13
0
23
58.246097
33
0
39
0
210
0
220
0
230
1
0
SOLID
5
186
100
AcDbEntity
8
2
62
256
6
ByLayer
370
13
48
1
60
0
100
AcDbTrace
10
159
20
58.246097
30
0
11
155.825002
21
57.8281
31
0
12
155.824998
22
58.664093
32
0
13
159
23
58.246097
33
0
39
0
210
0
220
0
230
1
0
ENDBLK
5
188
100
AcDbEntity
8
0
100
AcDbBlockEnd
0
BLOCK
5
192
100
AcDbEntity
8
0
100
AcDbBlockBegin
2
DimnDraft3D2
70
0
10
0
20
0
30
0
3
DimnDraft3D2
0
MTEXT
5
18B
100
AcDbEntity
8
SK2
62
256
6
ByLayer
370
13
48
1
60
0
100
AcDbMText
10
9.897105
20
-44.255747
30
0
210
0
220
0
230
1
1
\W0.6740;22
40
3.175
41
0
44
1.084337
50
0
71
7
72
5
7
iso_b_vert
0
LINE
5
18D
100
AcDbEntity
8
SK2
62
256
6
ByLayer
370
13
48
1
60
0
100
AcDbLine
10
0
20
-32.7875
30
0
11
0
21
-48.224497
31
0
39
0
210
0
220
0
230
1
0
LINE
5
18E
100
AcDbEntity
8
SK2
62
256
6
ByLayer
370
13
48
1
60
0
100
AcDbLine
10
22
20
-33.0875
30
0
11
22
21
-48.224497
31
0
39
0
210
0
220
0
230
1
0
LINE
5
18F
100
AcDbEntity
8
SK2
62
256
6
ByLayer
370
13
48
1
60
0
100
AcDbLine
10
0
20
-45.049497
30
0
11
22
21
-45.049497
31
0
39
0
210
0
220
0
230
1
0
SOLID
5
190
100
AcDbEntity
8
SK2
62
256
6
ByLayer
370
13
48
1
60
0
100
AcDbTrace
10
0
20
-45.049497
30
0
11
3.174998
21
-44.631501
31
0
12
3.175002
22
-45.467494
32
0
13
0
23
-45.049497
33
0
39
0
210
0
220
0
230
1
0
SOLID
5
191
100
AcDbEntity
8
SK2
62
256
6
ByLayer
370
13
48
1
60
0
100
AcDbTrace
10
22
20
-45.049497
30
0
11
18.825002
21
-45.467494
31
0
12
18.824998
22
-44.631501
32
0
13
22
23
-45.049497
33
0
39
0
210
0
220
0
230
1
0
ENDBLK
5
193
100
AcDbEntity
8
0
100
AcDbBlockEnd
0
BLOCK
5
19A
100
AcDbEntity
8
0
100
AcDbBlockBegin
2
DimnDraft3D3
70
0
10
0
20
0
30
0
3
DimnDraft3D3
0
MTEXT
5
196
100
AcDbEntity
8
SK2
62
256
6
ByLayer
370
13
48
1
60
0
100
AcDbMText
10
46.847345
20
35.963019
30
0
210
0
220
0
230
1
1
\W0.5404;6
40
3.175
41
0
44
1.084337
50
38.8161454296295
71
7
72
5
7
iso_b_vert
0
MTEXT
5
197
100
AcDbEntity
8
SK2
62
256
6
ByLayer
370
13
48
1
60
0
100
AcDbMText
10
43.624846
20
33.370569
30
0
210
0
220
0
230
1
1
\W0.6380;R
40
3.175
41
0
44
1.084337
50
38.8161454296295
71
7
72
5
7
iso_b_vert
0
LINE
5
198
100
AcDbEntity
8
SK2
62
256
6
ByLayer
370
13
48
1
60
0
100
AcDbLine
10
26.082206
20
18.23906
30
0
11
47.833143
21
35.737356
31
0
39
0
210
0
220
0
230
1
0
SOLID
5
199
100
AcDbEntity
8
SK2
62
256
6
ByLayer
370
13
48
1
60
0
100
AcDbTrace
10
26.082206
20
18.23906
30
0
11
28.294032
21
20.55491
31
0
12
28.818055
22
19.903538
32
0
13
26.082206
23
18.23906
33
0
39
0
210
0
220
0
230
1
0
ENDBLK
5
19B
100
AcDbEntity
8
0
100
AcDbBlockEnd
0
BLOCK
5
1A5
100
AcDbEntity
8
0
100
AcDbBlockBegin
2
DimnDraft3D4
70
0
10
0
20
0
30
0
3
DimnDraft3D4
0
MTEXT
5
19E
100
AcDbEntity
8
SK2
62
256
6
ByLayer
370
13
48
1
60
0
100
AcDbMText
10
193.669157
20
25.364218
30
0
210
0
220
0
230
1
1
%%c
40
3.175
41
0
44
1.084337
50
90
71
7
72
5
7
iso_b_vert
0
MTEXT
5
19F
100
AcDbEntity
8
SK2
62
256
6
ByLayer
370
13
48
1
60
0
100
AcDbMText
10
193.669157
20
33.276913
30
0
210
0
220
0
230
1
1
\W0.6740;32
40
3.175
41
0
44
1.084337
50
90
71
7
72
5
7
iso_b_vert
0
LINE
5
1A0
100
AcDbEntity
8
SK2
62
256
6
ByLayer
370
13
48
1
60
0
100
AcDbLine
10
159.9125
20
16
30
0
11
198.431657
21
16
31
0
39
0
210
0
220
0
230
1
0
LINE
5
1A1
100
AcDbEntity
8
SK2
62
256
6
ByLayer
370
13
48
1
60
0
100
AcDbLine
10
159.9125
20
-16
30
0
11
198.431657
21
-16
31
0
39
0
210
0
220
0
230
1
0
LINE
5
1A2
100
AcDbEntity
8
SK2
62
256
6
ByLayer
370
13
48
1
60
0
100
AcDbLine
10
195.256657
20
-16
30
0
11
195.256657
21
36.276453
31
0
39
0
210
0
220
0
230
1
0
SOLID
5
1A3
100
AcDbEntity
8
SK2
62
256
6
ByLayer
370
13
48
1
60
0
100
AcDbTrace
10
195.256657
20
16
30
0
11
195.674654
21
12.825002
31
0
12
194.838661
22
12.824998
32
0
13
195.256657
23
16
33
0
39
0
210
0
220
0
230
1
0
SOLID
5
1A4
100
AcDbEntity
8
SK2
62
256
6
ByLayer
370
13
48
1
60
0
100
AcDbTrace
10
195.256657
20
-16
30
0
11
194.838661
21
-12.825002
31
0
12
195.674654
22
-12.824998
32
0
13
195.256657
23
-16
33
0
39
0
210
0
220
0
230
1
0
ENDBLK
5
1A6
100
AcDbEntity
8
0
100
AcDbBlockEnd
0
BLOCK
5
1B0
100
AcDbEntity
8
0
100
AcDbBlockBegin
2
DimnDraft3D5
70
0
10
0
20
0
30
0
3
DimnDraft3D5
0
MTEXT
5
1A9
100
AcDbEntity
8
SK2
62
256
6
ByLayer
370
13
48
1
60
0
100
AcDbMText
10
-59.954289
20
-4.25309
30
0
210
0
220
0
230
1
1
%%c
40
3.175
41
0
44
1.084337
50
90
71
7
72
5
7
iso_b_vert
0
MTEXT
5
1AA
100
AcDbEntity
8
SK2
62
256
6
ByLayer
370
13
48
1
60
0
100
AcDbMText
10
-59.954289
20
3.659605
30
0
210
0
220
0
230
1
1
\W0.6740;63
40
3.175
41
0
44
1.084337
50
90
71
7
72
5
7
iso_b_vert
0
LINE
5
1AB
100
AcDbEntity
8
SK2
62
256
6
ByLayer
370
13
48
1
60
0
100
AcDbLine
10
-1.2875
20
31.5
30
0
11
-61.541789
21
31.5
31
0
39
0
210
0
220
0
230
1
0
LINE
5
1AC
100
AcDbEntity
8
SK2
62
256
6
ByLayer
370
13
48
1
60
0
100
AcDbLine
10
-1.2875
20
-31.5
30
0
11
-61.541789
21
-31.5
31
0
39
0
210
0
220
0
230
1
0
LINE
5
1AD
100
AcDbEntity
8
SK2
62
256
6
ByLayer
370
13
48
1
60
0
100
AcDbLine
10
-58.366789
20
31.5
30
0
11
-58.366789
21
-31.5
31
0
39
0
210
0
220
0
230
1
0
SOLID
5
1AE
100
AcDbEntity
8
SK2
62
256
6
ByLayer
370
13
48
1
60
0
100
AcDbTrace
10
-58.366789
20
31.5
30
0
11
-57.948792
21
28.325002
31
0
12
-58.784786
22
28.324998
32
0
13
-58.366789
23
31.5
33
0
39
0
210
0
220
0
230
1
0
SOLID
5
1AF
100
AcDbEntity
8
SK2
62
256
6
ByLayer
370
13
48
1
60
0
100
AcDbTrace
10
-58.366789
20
-31.5
30
0
11
-58.784786
21
-28.325002
31
0
12
-57.948792
22
-28.324998
32
0
13
-58.366789
23
-31.5
33
0
39
0
210
0
220
0
230
1
0
ENDBLK
5
1B1
100
AcDbEntity
8
0
100
AcDbBlockEnd
0
BLOCK
5
1B4
100
AcDbEntity
8
0
100
AcDbBlockBegin
2
DimnDraft3D66
70
0
10
0
20
0
30
0
3
DimnDraft3D66
0
LINE
5
1B6
100
AcDbEntity
8
SK2
62
256
6
ByLayer
370
25
48
1
60
0
100
AcDbLine
10
159
20
-1.5875
30
0
11
159
21
-48.137251
31
0
39
0
210
0
220
0
230
1
0
LINE
5
1B7
100
AcDbEntity
8
SK2
62
256
6
ByLayer
370
25
48
1
60
0
100
AcDbLine
10
30.757174
20
-17.5875
30
0
11
30.757174
21
-48.137251
31
0
39
0
210
0
220
0
230
1
0
LINE
5
1B8
100
AcDbEntity
8
SK2
62
256
6
ByLayer
370
25
48
1
60
0
100
AcDbLine
10
159
20
-44.962251
30
0
11
30.757174
21
-44.962251
31
0
39
0
210
0
220
0
230
1
0
SOLID
5
1B9
100
AcDbEntity
8
SK2
62
256
6
ByLayer
370
25
48
1
60
0
100
AcDbTrace
10
159
20
-44.962251
30
0
11
155.825002
21
-45.380248
31
0
12
155.824998
22
-44.544255
32
0
13
159
23
-44.962251
33
0
39
0
210
0
220
0
230
1
0
SOLID
5
1BA
100
AcDbEntity
8
SK2
62
256
6
ByLayer
370
25
48
1
60
0
100
AcDbTrace
10
30.757174
20
-44.962251
30
0
11
33.932173
21
-44.544255
31
0
12
33.932176
22
-45.380248
32
0
13
30.757174
23
-44.962251
33
0
39
0
210
0
220
0
230
1
0
MTEXT
5
1BB
100
AcDbEntity
8
SK2
62
256
6
ByLayer
370
13
48
1
60
0
100
AcDbMText
10
91.23987
20
-44.168501
30
0
210
0
220
0
230
1
1
\W0.6713;128,2
40
3.175
41
0
44
1.084337
50
0
71
7
72
5
7
iso_b_vert
0
ENDBLK
5
1B5
100
AcDbEntity
8
0
100
AcDbBlockEnd
0
ENDSEC
0
SECTION
2
ENTITIES
0
ARC
5
F9
100
AcDbEntity
8
1
62
256
6
ByLayer
370
18
48
1
60
0
100
AcDbCircle
39
0
10
-30.757174
20
22
30
0
40
6
210
0
220
0
230
-1
100
AcDbArc
50
270
51
345
0
ARC
5
FA
100
AcDbEntity
8
1
62
256
6
ByLayer
370
18
48
1
60
0
100
AcDbCircle
39
0
10
-30.757174
20
-22
30
0
40
6
210
0
220
0
230
-1
100
AcDbArc
50
15
51
90
0
ARC
5
FB
100
AcDbEntity
8
1
62
256
6
ByLayer
370
18
48
1
60
0
100
AcDbCircle
39
0
10
156.7
20
-15.7
30
0
40
0.3
210
0
220
0
230
1
100
AcDbArc
50
270
51
0
0
ARC
5
FC
100
AcDbEntity
8
1
62
256
6
ByLayer
370
18
48
1
60
0
100
AcDbCircle
39
0
10
156.7
20
15.7
30
0
40
0.3
210
0
220
0
230
1
100
AcDbArc
50
0
51
90
0
ARC
5
FD
100
AcDbEntity
8
1
62
256
6
ByLayer
370
18
48
1
60
0
100
AcDbCircle
39
0
10
157.3
20
-15.7
30
0
40
0.3
210
0
220
0
230
1
100
AcDbArc
50
180
51
270
0
ARC
5
FE
100
AcDbEntity
8
1
62
256
6
ByLayer
370
18
48
1
60
0
100
AcDbCircle
39
0
10
157.3
20
15.7
30
0
40
0.3
210
0
220
0
230
1
100
AcDbArc
50
90
51
180
0
CIRCLE
5
FF
100
AcDbEntity
8
1
62
256
6
ByLayer
370
18
48
1
60
0
100
AcDbCircle
10
152
20
0
30
0
40
1
39
0
210
0
220
0
230
1
0
ELLIPSE
5
100
100
AcDbEntity
8
1
62
256
6
ByLayer
370
18
48
1
60
0
100
AcDbEllipse
10
-2.347154
20
0
30
0
11
14.7536831606549
21
31.0932549155795
31
0
210
0
220
0
230
1
40
0.341999
41
-1.09123958575287
42
-0.157806186645432
0
ELLIPSE
5
101
100
AcDbEntity
8
1
62
256
6
ByLayer
370
18
48
1
60
0
100
AcDbEllipse
10
26.347154
20
0
30
0
11
-14.7536831606557
21
31.0932549155804
31
0
210
0
220
0
230
1
40
0.341999
41
0.157806186645432
42
1.09123958575284
0
ELLIPSE
5
102
100
AcDbEntity
8
1
62
256
6
ByLayer
370
18
48
1
60
0
100
AcDbEllipse
10
-2.347154
20
0
30
0
11
-14.7536831606554
21
31.0932549155799
31
0
210
0
220
0
230
1
40
0.341999
41
-2.98378646694436
42
-2.05035306783694
0
ELLIPSE
5
103
100
AcDbEntity
8
1
62
256
6
ByLayer
370
18
48
1
60
0
100
AcDbEllipse
10
26.347154
20
0
30
0
11
14.7536831606575
21
31.0932549155826
31
0
210
0
220
0
230
1
40
0.341999
41
2.050353067837
42
2.98378646694437
0
POINT
5
6C
100
AcDbEntity
8
80
62
256
6
ByLayer
370
18
48
1
60
0
100
AcDbPoint
10
0
20
0
30
0
39
0
210
0
220
0
230
1
50
360
0
POINT
5
6E
100
AcDbEntity
8
81
62
256
6
ByLayer
370
18
48
1
60
0
100
AcDbPoint
10
159
20
0
30
0
39
0
210
0
220
0
230
1
50
360
0
SPLINE
5
104
100
AcDbEntity
8
1
62
256
6
ByLayer
370
18
48
1
60
0
100
AcDbSpline
70
4
71
3
72
12
73
8
40
0
40
0
40
0
40
0
40
0.268812720709515
40
0.597605301872777
40
0.761234284787711
40
0.896143503604592
40
1
40
1
40
1
40
1
41
1
10
13.8943375672974
20
29.9139548464691
30
0
41
1
10
13.8789102783285
20
29.9344364341763
30
0
41
1
10
13.831605345163
20
29.9775637976282
30
0
41
1
10
13.7433941200963
20
30.0291632435093
30
0
41
1
10
13.634722007306
20
30.0627691562056
30
0
41
1
10
13.5458378558719
20
30.0777080286646
30
0
41
1
10
13.4878204468283
20
30.0803887582689
30
0
41
1
10
13.4613248654052
20
30.080592760317
30
0
0
SPLINE
5
105
100
AcDbEntity
8
1
62
256
6
ByLayer
370
18
48
1
60
0
100
AcDbSpline
70
4
71
3
72
13
73
9
40
0
40
0
40
0
40
0
40
0.0049544420437586
40
0.113866519425948
40
0.253452115449271
40
0.473535455387175
40
0.894568595884783
40
1
40
1
40
1
40
1
41
1
10
10.5386751345948
20
30.0805927603169
30
0
41
1
10
10.537450872409
20
30.0805926868535
30
0
41
1
10
10.5093477717048
20
30.0805290593978
30
0
41
1
10
10.4465510164428
20
30.0768838316286
30
0
41
1
10
10.3457330197466
20
30.058773313866
30
0
41
1
10
10.2197164028837
20
30.013815703074
30
0
41
1
10
10.1481083506258
20
29.9607825352996
30
0
41
1
10
10.1120558984644
20
29.9218822348292
30
0
41
1
10
10.1056624327026
20
29.9139548464691
30
0
0
SPLINE
5
106
100
AcDbEntity
8
1
62
256
6
ByLayer
370
18
48
1
60
0
100
AcDbSpline
70
4
71
3
72
12
73
8
40
0
40
0
40
0
40
0
40
0.268812720709377
40
0.597605301872741
40
0.761234284787674
40
0.89614350360459
40
1
40
1
40
1
40
1
41
1
10
10.1056624327026
20
9.86941261896613
30
0
41
1
10
10.1210897216714
20
9.80723406842817
30
0
41
1
10
10.168394654837
20
9.67528895226031
30
0
41
1
10
10.2566058799036
20
9.51348309748259
30
0
41
1
10
10.365277992694
20
9.40646168968887
30
0
41
1
10
10.454162144128
20
9.35849990178995
30
0
41
1
10
10.5121795531717
20
9.34989401091092
30
0
41
1
10
10.5386751345948
20
9.349221314525
30
0
0
SPLINE
5
107
100
AcDbEntity
8
1
62
256
6
ByLayer
370
18
48
1
60
0
100
AcDbSpline
70
4
71
3
72
13
73
9
40
0
40
0
40
0
40
0
40
0.0049544420437877
40
0.113866519426003
40
0.253452115449331
40
0.473535455387237
40
0.894568595884835
40
1
40
1
40
1
40
1
41
1
10
13.4613248654052
20
9.34922131452502
30
0
41
1
10
13.462549127591
20
9.34922155870898
30
0
41
1
10
13.4906522282952
20
9.34942610523151
30
0
41
1
10
13.5534489835572
20
9.36116231186524
30
0
41
1
10
13.6542669802534
20
9.41926340653962
30
0
41
1
10
13.7802835971163
20
9.56214647013261
30
0
41
1
10
13.8518916493741
20
9.72702906428665
30
0
41
1
10
13.8879441015356
20
9.84537467551148
30
0
41
1
10
13.8943375672974
20
9.8694126189661
30
0
0
SPLINE
5
108
100
AcDbEntity
8
1
62
256
6
ByLayer
370
18
48
1
60
0
100
AcDbSpline
70
4
71
3
72
12
73
8
40
0
40
0
40
0
40
0
40
0.268812720709501
40
0.597605301872746
40
0.76123428478768
40
0.896143503604592
40
1
40
1
40
1
40
1
41
1
10
13.8943375672974
20
-9.8694126189661
30
0
41
1
10
13.8789102783285
20
-9.80723406842812
30
0
41
1
10
13.831605345163
20
-9.67528895226027
30
0
41
1
10
13.7433941200963
20
-9.51348309748256
30
0
41
1
10
13.634722007306
20
-9.40646168968885
30
0
41
1
10
13.5458378558719
20
-9.35849990178995
30
0
41
1
10
13.4878204468283
20
-9.34989401091092
30
0
41
1
10
13.4613248654052
20
-9.34922131452502
30
0
0
SPLINE
5
109
100
AcDbEntity
8
1
62
256
6
ByLayer
370
18
48
1
60
0
100
AcDbSpline
70
4
71
3
72
13
73
9
40
0
40
0
40
0
40
0
40
0.0049544420438113
40
0.113866519426002
40
0.253452115449338
40
0.473535455387304
40
0.894568595884991
40
1
40
1
40
1
40
1
41
1
10
10.5386751345948
20
-9.34922131452503
30
0
41
1
10
10.537450872409
20
-9.34922155870898
30
0
41
1
10
10.5093477717048
20
-9.34942610523135
30
0
41
1
10
10.4465510164428
20
-9.36116231186533
30
0
41
1
10
10.3457330197465
20
-9.4192634065396
30
0
41
1
10
10.2197164028837
20
-9.56214647013267
30
0
41
1
10
10.1481083506258
20
-9.72702906428669
30
0
41
1
10
10.1120558984644
20
-9.84537467551155
30
0
41
1
10
10.1056624327026
20
-9.86941261896613
30
0
0
SPLINE
5
10A
100
AcDbEntity
8
1
62
256
6
ByLayer
370
18
48
1
60
0
100
AcDbSpline
70
4
71
3
72
12
73
8
40
0
40
0
40
0
40
0
40
0.268812720709649
40
0.597605301872837
40
0.761234284787778
40
0.896143503604649
40
1
40
1
40
1
40
1
41
1
10
10.1056624327026
20
-29.9139548464691
30
0
41
1
10
10.1210897216715
20
-29.9344364341763
30
0
41
1
10
10.168394654837
20
-29.9775637976282
30
0
41
1
10
10.2566058799037
20
-30.0291632435093
30
0
41
1
10
10.365277992694
20
-30.0627691562057
30
0
41
1
10
10.4541621441281
20
-30.0777080286645
30
0
41
1
10
10.5121795531717
20
-30.0803887582689
30
0
41
1
10
10.5386751345948
20
-30.080592760317
30
0
0
SPLINE
5
10B
100
AcDbEntity
8
1
62
256
6
ByLayer
370
18
48
1
60
0
100
AcDbSpline
70
4
71
3
72
13
73
9
40
0
40
0
40
0
40
0
40
0.0049544420438141
40
0.113866519426005
40
0.253452115449327
40
0.473535455387254
40
0.894568595884904
40
1
40
1
40
1
40
1
41
1
10
13.4613248654052
20
-30.080592760317
30
0
41
1
10
13.462549127591
20
-30.0805926868535
30
0
41
1
10
13.4906522282952
20
-30.0805290593975
30
0
41
1
10
13.5534489835572
20
-30.0768838316287
30
0
41
1
10
13.6542669802534
20
-30.0587733138659
30
0
41
1
10
13.7802835971163
20
-30.013815703074
30
0
41
1
10
13.8518916493742
20
-29.9607825352996
30
0
41
1
10
13.8879441015356
20
-29.9218822348292
30
0
41
1
10
13.8943375672974
20
-29.9139548464691
30
0
0
SPLINE
5
10C
100
AcDbEntity
8
SK1
62
256
6
ByLayer
370
18
48
1
60
0
100
AcDbSpline
70
4
71
2
72
6
73
3
40
0
40
0
40
0
40
1
40
1
40
1
41
1
10
-0.200000000000089
20
-7.06635637915041
30
0
41
1
10
-0.0908774378592295
20
-6.8482871594545
30
0
41
1
10
-0.0226473140816548
20
-6.61412663688556
30
0
0
SPLINE
5
10D
100
AcDbEntity
8
SK1
62
256
6
ByLayer
370
18
48
1
60
0
100
AcDbSpline
70
4
71
1
72
4
73
2
40
0
40
0
40
1
40
1
41
1
10
-0.0226473140816548
20
-6.61412663688556
30
0
41
1
10
-2.26E-14
20
-6.53762631735264
30
0
0
SPLINE
5
10E
100
AcDbEntity
8
SK1
62
256
6
ByLayer
370
18
48
1
60
0
100
AcDbSpline
70
4
71
3
72
17
73
13
40
0
40
0
40
0
40
0
40
0.0298547527790953
40
0.052578198006911
40
0.0702552594573891
40
0.0879570282206643
40
0.111562258438715
40
0.153224651801843
40
0.282447345849141
40
0.553767947019242
40
0.826225344353765
40
1
40
1
40
1
40
1
41
1
10
-0.400000000000049
20
-6.10423156158008
30
0
41
1
10
-0.394253616263358
20
-6.09797454756709
30
0
41
1
10
-0.382913537569244
20
-6.08923142505258
30
0
41
1
10
-0.364786670968268
20
-6.08123431234803
30
0
41
1
10
-0.348123200226276
20
-6.0804818862395
30
0
41
1
10
-0.331686692288052
20
-6.08578067628336
30
0
41
1
10
-0.312103115453588
20
-6.10063829425719
30
0
41
1
10
-0.278950759627469
20
-6.14757789301996
30
0
41
1
10
-0.240075114125955
20
-6.2708407343505
30
0
41
1
10
-0.210538570778164
20
-6.46014710085136
30
0
41
1
10
-0.20220707679149
20
-6.66173364401414
30
0
41
1
10
-0.199932550514476
20
-6.78606967214937
30
0
41
1
10
-0.200000000000062
20
-6.83438537300094
30
0
0
SPLINE
5
10F
100
AcDbEntity
8
SK1
62
256
6
ByLayer
370
18
48
1
60
0
100
AcDbSpline
70
4
71
3
72
17
73
13
40
0
40
0
40
0
40
0
40
0.360388834701791
40
0.519640600666497
40
0.67839891772967
40
0.772241509152276
40
0.823699029242447
40
0.861599276791073
40
0.892054497062475
40
0.922526976554756
40
0.965050194969286
40
1
40
1
40
1
40
1
41
1
10
-1.30710678118655
20
-4.69591747913022
30
0
41
1
10
-1.26951009656687
20
-4.92964404310758
30
0
41
1
10
-1.19176340545647
20
-5.2579422153627
30
0
41
1
10
-1.05845153787931
20
-5.67455265875979
30
0
41
1
10
-0.945912591166129
20
-5.91604105281958
30
0
41
1
10
-0.831518990177396
20
-6.07946520186086
30
0
41
1
10
-0.738555650587858
20
-6.16058876265616
30
0
41
1
10
-0.663094378710056
20
-6.19662231403712
30
0
41
1
10
-0.593007090783791
20
-6.20557486895366
30
0
41
1
10
-0.520694131435162
20
-6.19149467219484
30
0
41
1
10
-0.455543672786569
20
-6.15430434256451
30
0
41
1
10
-0.41620534051347
20
-6.12122792076277
30
0
41
1
10
-0.400000000000049
20
-6.10423156158008
30
0
0
SPLINE
5
110
100
AcDbEntity
8
SK1
62
256
6
ByLayer
370
18
48
1
60
0
100
AcDbSpline
70
4
71
3
72
17
73
13
40
0
40
0
40
0
40
0
40
0.0428240807904635
40
0.0860264986202464
40
0.116365121966661
40
0.146702344469371
40
0.190290998791686
40
0.271171318917586
40
0.405589755792736
40
0.540658493132764
40
0.770235905399022
40
1
40
1
40
1
40
1
41
1
10
-0.40000000000005
20
6.10423197315534
30
0
41
1
10
-0.41981193980787
20
6.12545634712005
30
0
41
1
10
-0.464215810549309
20
6.16118054942612
30
0
41
1
10
-0.537404296379805
20
6.19762954520598
30
0
41
1
10
-0.611358310763094
20
6.20533675022222
30
0
41
1
10
-0.683800317523165
20
6.18970784507662
30
0
41
1
10
-0.776263428667177
20
6.13544055421006
30
0
41
1
10
-0.890570771917318
20
6.00617655880065
30
0
41
1
10
-1.00159332888065
20
5.80742857092608
30
0
41
1
10
-1.1159204496703
20
5.50690539843637
30
0
41
1
10
-1.2209539259083
20
5.13705997602487
30
0
41
1
10
-1.28227297420907
20
4.84440881641285
30
0
41
1
10
-1.30710678118655
20
4.69591515673877
30
0
0
SPLINE
5
111
100
AcDbEntity
8
SK1
62
256
6
ByLayer
370
18
48
1
60
0
100
AcDbSpline
70
4
71
3
72
17
73
13
40
0
40
0
40
0
40
0
40
0.457633424849974
40
0.67027448296458
40
0.777135339777238
40
0.855324815689425
40
0.882088585193544
40
0.909057217927397
40
0.9270273315596
40
0.945054321714209
40
0.967246413769247
40
1
40
1
40
1
40
1
41
1
10
-0.200000000000049
20
6.83438539664966
30
0
41
1
10
-0.19628855547743
20
6.70659076258015
30
0
41
1
10
-0.206710872223509
20
6.51939672024762
30
0
41
1
10
-0.235891573374867
20
6.29989326841263
30
0
41
1
10
-0.264954443748576
20
6.18942720275304
30
0
41
1
10
-0.289286076797238
20
6.13229386341347
30
0
41
1
10
-0.312333470522282
20
6.10132427523637
30
0
41
1
10
-0.328516525282539
20
6.08745968733143
30
0
41
1
10
-0.34576018447529
20
6.08083833453206
30
0
41
1
10
-0.362547690295123
20
6.08071787621869
30
0
41
1
10
-0.38172696305778
20
6.08831704427054
30
0
41
1
10
-0.39369162359809
20
6.09726577368612
30
0
41
1
10
-0.400000000000049
20
6.10423197315534
30
0
0
SPLINE
5
112
100
AcDbEntity
8
SK1
62
256
6
ByLayer
370
18
48
1
60
0
100
AcDbSpline
70
4
71
2
72
6
73
3
40
0
40
0
40
0
40
1
40
1
40
1
41
1
10
-2.51E-14
20
6.5376264469174
30
0
41
1
10
-0.0701685688190141
20
6.81436012170808
30
0
41
1
10
-0.200000000000397
20
7.0663565904932
30
0
0
SPLINE
5
113
100
AcDbEntity
8
SK1
62
256
6
ByLayer
370
18
48
1
60
0
100
AcDbSpline
70
4
71
2
72
6
73
3
40
0
40
0
40
0
40
1
40
1
40
1
41
1
10
-3
20
22.0000004375346
30
0
41
1
10
-19.7502365839533
20
21.5791761834949
30
0
41
1
10
-36.5004731679067
20
21.1583519294552
30
0
0
SPLINE
5
114
100
AcDbEntity
8
SK1
62
256
6
ByLayer
370
18
48
1
60
0
100
AcDbSpline
70
4
71
2
72
6
73
3
40
0
40
0
40
0
40
1
40
1
40
1
41
1
10
-36.5004731679067
20
-21.1583519212895
30
0
41
1
10
-19.7502365839533
20
-21.5791761751668
30
0
41
1
10
-3
20
-22.0000004290441
30
0
0
SPLINE
5
115
100
AcDbEntity
8
SK1
62
256
6
ByLayer
370
18
48
1
60
0
100
AcDbSpline
70
4
71
3
72
17
73
13
40
0
40
0
40
0
40
0
40
0.05802250217143
40
0.118348646683329
40
0.23904560972145
40
0.359733865206065
40
0.420057338372256
40
0.540737215820521
40
0.661413456711566
40
0.782087095625332
40
0.890936363871378
40
1
40
1
40
1
40
1
41
1
10
-2.1999369715594
20
22.0201008059928
30
0
41
1
10
-2.19994111039233
20
22.0199534703522
30
0
41
1
10
-2.19994895187911
20
22.0110355150373
30
0
41
1
10
-2.19996201027101
20
21.95673198262
30
0
41
1
10
-2.19997487537822
20
21.8226368730382
30
0
41
1
10
-2.1999836282154
20
21.6082265291292
30
0
41
1
10
-2.19999009564896
20
21.3379022147511
30
0
41
1
10
-2.19999459160162
20
21.0133951954851
30
0
41
1
10
-2.19999774021868
20
20.5423530489728
30
0
41
1
10
-2.19999929933425
20
20.0117273492259
30
0
41
1
10
-2.19999990715402
20
19.4326140671218
30
0
41
1
10
-2.20000002952678
20
19.02140556981
30
0
41
1
10
-2.2
20
18.8057993596818
30
0
0
SPLINE
5
116
100
AcDbEntity
8
SK1
62
256
6
ByLayer
370
18
48
1
60
0
100
AcDbSpline
70
4
71
1
72
4
73
2
40
0
40
0
40
1
40
1
41
1
10
-2.1949248885741
20
22.0202267269672
30
0
41
1
10
-2.20680206555644
20
22.0199283309345
30
0
0
SPLINE
5
117
100
AcDbEntity
8
SK1
62
256
6
ByLayer
370
18
48
1
60
0
100
AcDbSpline
70
4
71
2
72
6
73
3
40
0
40
0
40
0
40
1
40
1
40
1
41
1
10
-2.20680206555644
20
22.0199283309345
30
0
41
1
10
-2.60340103277822
20
22.0099643842345
30
0
41
1
10
-3
20
22.0000004375346
30
0
0
SPLINE
5
118
100
AcDbEntity
8
SK1
62
256
6
ByLayer
370
18
48
1
60
0
100
AcDbSpline
70
4
71
2
72
6
73
3
40
0
40
0
40
0
40
1
40
1
40
1
41
1
10
-3
20
-22.0000004290441
30
0
41
1
10
-2.59746244428705
20
-22.0101135737565
30
0
41
1
10
-2.1949248885741
20
-22.0202267184689
30
0
0
SPLINE
5
119
100
AcDbEntity
8
SK1
62
256
6
ByLayer
370
18
48
1
60
0
100
AcDbSpline
70
4
71
3
72
17
73
13
40
0
40
0
40
0
40
0
40
0.110687715864243
40
0.221598832441259
40
0.401505980701359
40
0.491413086613026
40
0.581321307758235
40
0.671230942573734
40
0.761142395498122
40
0.851056195500553
40
0.940973208109431
40
1
40
1
40
1
40
1
41
1
10
-2.2
20
-18.8057994981525
30
0
41
1
10
-2.20000003103069
20
-19.0246237171162
30
0
41
1
10
-2.19999990450804
20
-19.4425012451433
30
0
41
1
10
-2.19999916418251
20
-20.1274238366396
30
0
41
1
10
-2.19999717995272
20
-20.6829072947467
30
0
41
1
10
-2.19999322568005
20
-21.1192240035044
30
0
41
1
10
-2.19998888045221
20
-21.4003821399875
30
0
41
1
10
-2.1999827900086
20
-21.6334064688807
30
0
41
1
10
-2.19997446616065
20
-21.8158350479727
30
0
41
1
10
-2.1999635375559
20
-21.9447098349005
30
0
41
1
10
-2.19995101539095
20
-22.0085414008449
30
0
41
1
10
-2.19994116247006
20
-22.019913752436
30
0
41
1
10
-2.19993697064149
20
-22.020100797442
30
0
0
SPLINE
5
11A
100
AcDbEntity
8
SK1
62
256
6
ByLayer
370
18
48
1
60
0
100
AcDbSpline
70
4
71
3
72
13
73
9
40
0
40
0
40
0
40
0
40
0.239458034039705
40
0.368362242523276
40
0.500001719408241
40
0.631640907399708
40
0.760544321541671
40
1
40
1
40
1
40
1
41
1
10
-2
20
21.8251283317571
30
0
41
1
10
-2.02607218220657
20
21.8253815759776
30
0
41
1
10
-2.06363558166034
20
21.832499461233
30
0
41
1
10
-2.11047835037541
20
21.8567272581279
30
0
41
1
10
-2.14242263587786
20
21.8827049843058
30
0
41
1
10
-2.16840067179329
20
21.9146489043199
30
0
41
1
10
-2.19262875645049
20
21.9614911190379
30
0
41
1
10
-2.19974671976325
20
21.9990541435572
30
0
41
1
10
-2.2
20
22.0251260837645
30
0
0
SPLINE
5
11B
100
AcDbEntity
8
SK1
62
256
6
ByLayer
370
18
48
1
60
0
100
AcDbSpline
70
4
71
3
72
13
73
9
40
0
40
0
40
0
40
0
40
0.239455673358913
40
0.368359087136628
40
0.499998275767228
40
0.631637753936906
40
0.760541963956603
40
1
40
1
40
1
40
1
41
1
10
-2.2
20
-22.0251260775077
30
0
41
1
10
-2.19974671959666
20
-21.9990541369822
30
0
41
1
10
-2.19262875626099
20
-21.9614911120955
30
0
41
1
10
-2.16840067169747
20
-21.9146488976998
30
0
41
1
10
-2.14242263580763
20
-21.8827049776713
30
0
41
1
10
-2.11047835033027
20
-21.8567272514908
30
0
41
1
10
-2.06363558177699
20
-21.8324994546095
30
0
41
1
10
-2.02607218225584
20
-21.8253815693237
30
0
41
1
10
-2
20
-21.8251283250689
30
0
0
SPLINE
5
11C
100
AcDbEntity
8
SK1
62
256
6
ByLayer
370
18
48
1
60
0
100
AcDbSpline
70
4
71
3
72
17
73
13
40
0
40
0
40
0
40
0
40
0.1108399387763
40
0.221798620680357
40
0.332502574207399
40
0.41528024062845
40
0.498045904316249
40
0.583244939513293
40
0.668457156829096
40
0.778842693346869
40
0.889480192587658
40
1
40
1
40
1
40
1
41
1
10
-1.30710678118655
20
-4.69591747913022
30
0
41
1
10
-1.36744590597297
20
-4.36687980815827
30
0
41
1
10
-1.47908278988144
20
-3.69972235478329
30
0
41
1
10
-1.62394340584629
20
-2.67262911885806
30
0
41
1
10
-1.72276568290907
20
-1.70964199762076
30
0
41
1
10
-1.7771939379894
20
-0.822454261569741
30
0
41
1
10
-1.79522418379451
20
-0.0111380909610164
30
0
41
1
10
-1.77807721001981
20
0.808226806299925
30
0
41
1
10
-1.72285346891032
20
1.71011336766923
30
0
41
1
10
-1.6231654795016
20
2.6786129876435
30
0
41
1
10
-1.47860524254129
20
3.70262769388858
30
0
41
1
10
-1.36726529396593
20
4.36782937909764
30
0
41
1
10
-1.30710678118656
20
4.69591515673877
30
0
0
SPLINE
5
11D
100
AcDbEntity
8
SK1
62
256
6
ByLayer
370
18
48
1
60
0
100
AcDbSpline
70
4
71
2
72
6
73
3
40
0
40
0
40
0
40
1
40
1
40
1
41
1
10
-2
20
-21.8251283250689
30
0
41
1
10
-1.20000000000001
20
-21.8251283250689
30
0
41
1
10
-0.400000000000019
20
-21.8251283250689
30
0
0
SPLINE
5
11E
100
AcDbEntity
8
SK1
62
256
6
ByLayer
370
18
48
1
60
0
100
AcDbSpline
70
4
71
2
72
6
73
3
40
0
40
0
40
0
40
1
40
1
40
1
41
1
10
-0.400000000000019
20
21.8251283317571
30
0
41
1
10
-1.20000000000001
20
21.8251283317571
30
0
41
1
10
-2
20
21.8251283317571
30
0
0
SPLINE
5
11F
100
AcDbEntity
8
SK1
62
256
6
ByLayer
370
18
48
1
60
0
100
AcDbSpline
70
4
71
2
72
6
73
3
40
0
40
0
40
0
40
1
40
1
40
1
41
1
10
-36.5004321682704
20
21.1581061531923
30
0
41
1
10
-37.250216097561
20
20.6997323883077
30
0
41
1
10
-38
20
20.2413583528791
30
0
0
SPLINE
5
120
100
AcDbEntity
8
SK1
62
256
6
ByLayer
370
18
48
1
60
0
100
AcDbSpline
70
4
71
2
72
6
73
3
40
0
40
0
40
0
40
1
40
1
40
1
41
1
10
-38
20
-20.2397162883162
30
0
41
1
10
-37.2502068935606
20
-20.6982812567361
30
0
41
1
10
-36.500413873027
20
-21.1568446673342
30
0
0
SPLINE
5
121
100
AcDbEntity
8
SK1
62
256
6
ByLayer
370
18
48
1
60
0
100
AcDbSpline
70
4
71
3
72
16
73
12
40
0
40
0
40
0
40
0
40
0.364843755239059
40
0.438264665950732
40
0.502559692640952
40
0.561145902141926
40
0.590896276431408
40
0.622649211855402
40
0.697422389592585
40
0.795291806319464
40
1
40
1
40
1
40
1
41
1
10
-0.400000000000019
20
-21.8251283250689
30
0
41
1
10
-0.390604659320629
20
-21.8244677899363
30
0
41
1
10
-0.375777355945149
20
-21.8259169458727
30
0
41
1
10
-0.354943834900732
20
-21.8301137134804
30
0
41
1
10
-0.345440387493047
20
-21.8325381240732
30
0
41
1
10
-0.33713251305207
20
-21.8351212638499
30
0
41
1
10
-0.330841808626839
20
-21.8373542026795
30
0
41
1
10
-0.324198727790458
20
-21.8399060929045
30
0
41
1
10
-0.315890408366848
20
-21.8435145006078
30
0
41
1
10
-0.304746465369965
20
-21.8490940953945
30
0
41
1
10
-0.298006277518849
20
-21.8528581494286
30
0
41
1
10
-0.294864998971673
20
-21.8549890547624
30
0
0
SPLINE
5
122
100
AcDbEntity
8
SK1
62
256
6
ByLayer
370
18
48
1
60
0
100
AcDbSpline
70
4
71
3
72
11
73
7
40
0
40
0
40
0
40
0
40
0.0552291375986852
40
0.213689577879209
40
0.62289648225362
40
1
40
1
40
1
40
1
41
1
10
-0.294864998971673
20
-21.8549890547624
30
0
41
1
10
-0.290216631084812
20
-21.8579922290321
30
0
41
1
10
-0.273526490458734
20
-21.8691065112696
30
0
41
1
10
-0.247141487646985
20
-21.8930299449347
30
0
41
1
10
-0.224354955877282
20
-21.9214181070131
30
0
41
1
10
-0.212635390757692
20
-21.9394382286858
30
0
41
1
10
-0.209674875085744
20
-21.946515511193
30
0
0
SPLINE
5
123
100
AcDbEntity
8
SK1
62
256
6
ByLayer
370
18
48
1
60
0
100
AcDbSpline
70
4
71
1
72
4
73
2
40
0
40
0
40
1
40
1
41
1
10
-2.49E-14
20
-7.47795498707187
30
0
41
1
10
-0.2
20
-7.45410184860193
30
0
0
SPLINE
5
124
100
AcDbEntity
8
SK1
62
256
6
ByLayer
370
18
48
1
60
0
100
AcDbSpline
70
4
71
1
72
4
73
2
40
0
40
0
40
1
40
1
41
1
10
-0.20000000000006
20
-7.06635637915059
30
0
41
1
10
-0.20000000000006
20
-7.45410184860193
30
0
0
SPLINE
5
125
100
AcDbEntity
8
SK1
62
256
6
ByLayer
370
18
48
1
60
0
100
AcDbSpline
70
4
71
1
72
4
73
2
40
0
40
0
40
1
40
1
41
1
10
-0.20000000000006
20
7.45410255809306
30
0
41
1
10
-0.20000000000006
20
7.0663565904932
30
0
0
SPLINE
5
126
100
AcDbEntity
8
SK1
62
256
6
ByLayer
370
18
48
1
60
0
100
AcDbSpline
70
4
71
1
72
4
73
2
40
0
40
0
40
1
40
1
41
1
10
-0.2
20
7.45410255809307
30
0
41
1
10
-2.49E-14
20
7.47795571927755
30
0
0
SPLINE
5
127
100
AcDbEntity
8
SK1
62
256
6
ByLayer
370
18
48
1
60
0
100
AcDbSpline
70
4
71
3
72
21
73
17
40
0
40
0
40
0
40
0
40
0.266740665119978
40
0.542753416939952
40
0.704987784238329
40
0.746297078147175
40
0.758903451773549
40
0.763634932558066
40
0.767610447081355
40
0.771174217202555
40
0.774735301839256
40
0.778655368518831
40
0.783170941611854
40
0.808636104145112
40
0.892207370419724
40
1
40
1
40
1
40
1
41
1
10
-0.205098628252128
20
21.9656846630301
30
0
41
1
10
-0.206603667099119
20
21.9618491696173
30
0
41
1
10
-0.213128118682537
20
21.9492549735724
30
0
41
1
10
-0.227068092150019
20
21.9237182270559
30
0
41
1
10
-0.245556112415675
20
21.8956337197254
30
0
41
1
10
-0.267822434158461
20
21.8729537743078
30
0
41
1
10
-0.279672291563407
20
21.8632984802186
30
0
41
1
10
-0.285884984066638
20
21.8587638747809
30
0
41
1
10
-0.290271368274116
20
21.8557616121883
30
0
41
1
10
-0.294839670826391
20
21.8528389024438
30
0
41
1
10
-0.299438538169337
20
21.8500967243401
30
0
41
1
10
-0.303963380400936
20
21.8475818371075
30
0
41
1
10
-0.315037133435257
20
21.8418614936857
30
0
41
1
10
-0.339272370101872
20
21.8323057882051
30
0
41
1
10
-0.366934076937239
20
21.8269525193025
30
0
41
1
10
-0.390048069436675
20
21.8242656569877
30
0
41
1
10
-0.400000000000019
20
21.8251283317571
30
0
0
SPLINE
5
128
100
AcDbEntity
8
1
62
256
6
ByLayer
370
18
48
1
60
0
100
AcDbSpline
70
4
71
3
72
12
73
8
40
0
40
0
40
0
40
0
40
0.0808708751432936
40
0.282038329412632
40
0.495199376874005
40
0.830211183043358
40
1
40
1
40
1
40
1
41
1
10
158.555
20
-15.77
30
0
41
1
10
158.555015319704
20
-15.7699843509512
30
0
41
1
10
158.556066808903
20
-15.7689195232193
30
0
41
1
10
158.56470010548
20
-15.760174527767
30
0
41
1
10
158.589244029227
20
-15.7353381492093
30
0
41
1
10
158.622493669363
20
-15.7017549802954
30
0
41
1
10
158.648172210506
20
-15.6758884391968
30
0
41
1
10
158.657250000006
20
-15.666749020611
30
0
0
SPLINE
5
129
100
AcDbEntity
8
1
62
256
6
ByLayer
370
18
48
1
60
0
100
AcDbSpline
70
4
71
3
72
11
73
7
40
0
40
0
40
0
40
0
40
0.363578969377351
40
0.63286185493968
40
0.855904512839019
40
1
40
1
40
1
40
1
41
1
10
158.65725
20
15.6667490206169
30
0
41
1
10
158.637125012204
20
15.6870195713516
30
0
41
1
10
158.606533602044
20
15.7178584549805
30
0
41
1
10
158.572592398456
20
15.7521840190522
30
0
41
1
10
158.557502883861
20
15.767464893308
30
0
41
1
10
158.555089954309
20
15.7699081702943
30
0
41
1
10
158.555
20
15.77
30
0
0
SPLINE
5
12A
100
AcDbEntity
8
1
62
256
6
ByLayer
370
18
48
1
60
0
100
AcDbSpline
70
4
71
1
72
4
73
2
40
0
40
0
40
1
40
1
41
1
10
159.325
20
14.989444616685
30
0
41
1
10
158.65725
20
15.6667490206169
30
0
0
SPLINE
5
12B
100
AcDbEntity
8
1
62
256
6
ByLayer
370
18
48
1
60
0
100
AcDbSpline
70
4
71
1
72
4
73
2
40
0
40
0
40
1
40
1
41
1
10
158.65725
20
15.6118010319188
30
0
41
1
10
159.325
20
14.9706824636902
30
0
0
SPLINE
5
12C
100
AcDbEntity
8
1
62
256
6
ByLayer
370
18
48
1
60
0
100
AcDbSpline
70
4
71
3
72
11
73
7
40
0
40
0
40
0
40
0
40
0.350543250870101
40
0.638577219282386
40
0.868698664699086
40
1
40
1
40
1
40
1
41
1
10
158.65725
20
15.5777314872795
30
0
41
1
10
158.637922937838
20
15.5983192929337
30
0
41
1
10
158.607010737924
20
15.632133039613
30
0
41
1
10
158.572571643515
20
15.6720428421825
30
0
41
1
10
158.557359765722
20
15.69222102332
30
0
41
1
10
158.555107367993
20
15.6973193503362
30
0
41
1
10
158.555000062035
20
15.6984846452879
30
0
0
SPLINE
5
12D
100
AcDbEntity
8
1
62
256
6
ByLayer
370
18
48
1
60
0
100
AcDbSpline
70
4
71
1
72
4
73
2
40
0
40
0
40
1
40
1
41
1
10
159.325
20
14.8575087549929
30
0
41
1
10
158.65725
20
15.5777314872795
30
0
0
SPLINE
5
12E
100
AcDbEntity
8
1
62
256
6
ByLayer
370
18
48
1
60
0
100
AcDbSpline
70
4
71
1
72
4
73
2
40
0
40
0
40
1
40
1
41
1
10
158.65725
20
15.4113477037358
30
0
41
1
10
159.325
20
14.800649206728
30
0
0
SPLINE
5
12F
100
AcDbEntity
8
1
62
256
6
ByLayer
370
18
48
1
60
0
100
AcDbSpline
70
4
71
3
72
11
73
7
40
0
40
0
40
0
40
0
40
0.335425084384284
40
0.644374219271855
40
0.881647369579588
40
1
40
1
40
1
40
1
41
1
10
158.65725
20
15.3422427208201
30
0
41
1
10
158.638788317287
20
15.3632029078342
30
0
41
1
10
158.607476410272
20
15.40044393676
30
0
41
1
10
158.572490845072
20
15.4464812272089
30
0
41
1
10
158.557178349874
20
15.4720597398652
30
0
41
1
10
158.555110551384
20
15.4798939549681
30
0
41
1
10
158.555000143883
20
15.4819714470496
30
0
0
SPLINE
5
130
100
AcDbEntity
8
1
62
256
6
ByLayer
370
18
48
1
60
0
100
AcDbSpline
70
4
71
1
72
4
73
2
40
0
40
0
40
1
40
1
41
1
10
159.325
20
14.5707818216016
30
0
41
1
10
158.65725
20
15.3422427208201
30
0
0
SPLINE
5
131
100
AcDbEntity
8
1
62
256
6
ByLayer
370
18
48
1
60
0
100
AcDbSpline
70
4
71
1
72
4
73
2
40
0
40
0
40
1
40
1
41
1
10
158.65725
20
15.0595798291541
30
0
41
1
10
159.325
20
14.4740146625805
30
0
0
SPLINE
5
132
100
AcDbEntity
8
1
62
256
6
ByLayer
370
18
48
1
60
0
100
AcDbSpline
70
4
71
3
72
11
73
7
40
0
40
0
40
0
40
0
40
0.436398724975303
40
0.727487434092848
40
0.95514308287277
40
1
40
1
40
1
40
1
41
1
10
158.65725
20
14.9533643411553
30
0
41
1
10
158.632672448326
20
14.9832589395575
30
0
41
1
10
158.598586137248
20
15.0285892297748
30
0
41
1
10
158.565106074362
20
15.0820186342503
30
0
41
1
10
158.555683027035
20
15.1054295238238
30
0
41
1
10
158.55501969209
20
15.1130432435525
30
0
41
1
10
158.555000339311
20
15.1142163670995
30
0
0
SPLINE
5
133
100
AcDbEntity
8
1
62
256
6
ByLayer
370
18
48
1
60
0
100
AcDbSpline
70
4
71
1
72
4
73
2
40
0
40
0
40
1
40
1
41
1
10
159.325
20
14.1198370876133
30
0
41
1
10
158.65725
20
14.9533643411553
30
0
0
SPLINE
5
134
100
AcDbEntity
8
1
62
256
6
ByLayer
370
18
48
1
60
0
100
AcDbSpline
70
4
71
1
72
4
73
2
40
0
40
0
40
1
40
1
41
1
10
158.65725
20
14.5455234081104
30
0
41
1
10
159.325
20
13.9798062920975
30
0
0
SPLINE
5
135
100
AcDbEntity
8
1
62
256
6
ByLayer
370
18
48
1
60
0
100
AcDbSpline
70
4
71
3
72
11
73
7
40
0
40
0
40
0
40
0
40
0.470820745489559
40
0.76252703923765
40
0.988895960790978
40
1
40
1
40
1
40
1
41
1
10
158.65725
20
14.3986734991149
30
0
41
1
10
158.630438630342
20
14.4340000228696
30
0
41
1
10
158.595185313404
20
14.4865320199931
30
0
41
1
10
158.56248145399
20
14.5488855051814
30
0
41
1
10
158.55515794928
20
14.5748185392747
30
0
41
1
10
158.555001636105
20
14.5835254796849
30
0
41
1
10
158.55500006462
20
14.5839276968501
30
0
0
SPLINE
5
136
100
AcDbEntity
8
1
62
256
6
ByLayer
370
18
48
1
60
0
100
AcDbSpline
70
4
71
1
72
4
73
2
40
0
40
0
40
1
40
1
41
1
10
159.325
20
13.4882139614095
30
0
41
1
10
158.65725
20
14.3986734991149
30
0
0
SPLINE
5
137
100
AcDbEntity
8
1
62
256
6
ByLayer
370
18
48
1
60
0
100
AcDbSpline
70
4
71
1
72
4
73
2
40
0
40
0
40
1
40
1
41
1
10
158.65725
20
13.8511211748764
30
0
41
1
10
159.325
20
13.2993559045747
30
0
0
SPLINE
5
138
100
AcDbEntity
8
1
62
256
6
ByLayer
370
18
48
1
60
0
100
AcDbSpline
70
4
71
3
72
10
73
6
40
0
40
0
40
0
40
0
40
0.511473752737902
40
0.797853586510545
40
1
40
1
40
1
40
1
41
1
10
158.65725
20
13.6579827188678
30
0
41
1
10
158.627783127297
20
13.700564943516
30
0
41
1
10
158.591759261431
20
13.7618065575538
30
0
41
1
10
158.560378444441
20
13.8342802198638
30
0
41
1
10
158.555585421846
20
13.861780152969
30
0
41
1
10
158.55500019818
20
13.872224880247
30
0
0
SPLINE
5
139
100
AcDbEntity
8
1
62
256
6
ByLayer
370
18
48
1
60
0
100
AcDbSpline
70
4
71
1
72
4
73
2
40
0
40
0
40
1
40
1
41
1
10
159.325
20
12.6488747466637
30
0
41
1
10
158.65725
20
13.6579827188678
30
0
0
SPLINE
5
13A
100
AcDbEntity
8
1
62
256
6
ByLayer
370
18
48
1
60
0
100
AcDbSpline
70
4
71
1
72
4
73
2
40
0
40
0
40
1
40
1
41
1
10
158.65725
20
12.9473883229913
30
0
41
1
10
159.325
20
12.4020462419926
30
0
0
SPLINE
5
13B
100
AcDbEntity
8
1
62
256
6
ByLayer
370
18
48
1
60
0
100
AcDbSpline
70
4
71
3
72
10
73
6
40
0
40
0
40
0
40
0
40
0.564559165450934
40
0.833679780141691
40
1
40
1
40
1
40
1
41
1
10
158.65725
20
12.6987867673913
30
0
41
1
10
158.624442247881
20
12.7516786044386
30
0
41
1
10
158.587797552176
20
12.8243683780209
30
0
41
1
10
158.559317818936
20
12.9073886960659
30
0
41
1
10
158.555496597614
20
12.9375384740065
30
0
41
1
10
158.555006815614
20
12.9484605100656
30
0
0
SPLINE
5
13C
100
AcDbEntity
8
1
62
256
6
ByLayer
370
18
48
1
60
0
100
AcDbSpline
70
4
71
1
72
4
73
2
40
0
40
0
40
1
40
1
41
1
10
159.325
20
11.5566495510079
30
0
41
1
10
158.65725
20
12.6987867673913
30
0
0
SPLINE
5
13D
100
AcDbEntity
8
1
62
256
6
ByLayer
370
18
48
1
60
0
100
AcDbSpline
70
4
71
1
72
4
73
2
40
0
40
0
40
1
40
1
41
1
10
158.65725
20
11.7862704436795
30
0
41
1
10
159.325
20
11.2360417630275
30
0
0
SPLINE
5
13E
100
AcDbEntity
8
1
62
256
6
ByLayer
370
18
48
1
60
0
100
AcDbSpline
70
4
71
3
72
10
73
6
40
0
40
0
40
0
40
0
40
0.502468664270304
40
0.799113764679292
40
1
40
1
40
1
40
1
41
1
10
158.65725
20
11.4663803695172
30
0
41
1
10
158.628437656016
20
11.5201878917496
30
0
41
1
10
158.592278738028
20
11.6023379821241
30
0
41
1
10
158.56102030905
20
11.7031512167938
30
0
41
1
10
158.55579969744
20
11.7471707976408
30
0
41
1
10
158.555010865472
20
11.7642799984961
30
0
0
SPLINE
5
13F
100
AcDbEntity
8
1
62
256
6
ByLayer
370
18
48
1
60
0
100
AcDbSpline
70
4
71
1
72
4
73
2
40
0
40
0
40
1
40
1
41
1
10
159.325
20
10.1300673903403
30
0
41
1
10
158.65725
20
11.4663803695172
30
0
0
SPLINE
5
140
100
AcDbEntity
8
1
62
256
6
ByLayer
370
18
48
1
60
0
100
AcDbSpline
70
4
71
1
72
4
73
2
40
0
40
0
40
1
40
1
41
1
10
158.65725
20
10.280927854857
30
0
41
1
10
159.325
20
9.70497388005107
30
0
0
SPLINE
5
141
100
AcDbEntity
8
1
62
256
6
ByLayer
370
18
48
1
60
0
100
AcDbSpline
70
4
71
2
72
6
73
3
40
0
40
0
40
0
40
1
40
1
40
1
41
1
10
158.65725
20
9.85883219216296
30
0
41
1
10
158.564368541533
20
10.059692618832
30
0
41
1
10
158.555001999236
20
10.2308911596919
30
0
0
SPLINE
5
142
100
AcDbEntity
8
1
62
256
6
ByLayer
370
18
48
1
60
0
100
AcDbSpline
70
4
71
1
72
4
73
2
40
0
40
0
40
1
40
1
41
1
10
159.325
20
8.19636393901953
30
0
41
1
10
158.65725
20
9.85883219216296
30
0
0
SPLINE
5
143
100
AcDbEntity
8
1
62
256
6
ByLayer
370
18
48
1
60
0
100
AcDbSpline
70
4
71
1
72
4
73
2
40
0
40
0
40
1
40
1
41
1
10
158.65725
20
8.24492475053567
30
0
41
1
10
159.325
20
7.59107380575695
30
0
0
SPLINE
5
144
100
AcDbEntity
8
1
62
256
6
ByLayer
370
18
48
1
60
0
100
AcDbSpline
70
4
71
3
72
10
73
6
40
0
40
0
40
0
40
0
40
0.691793682195287
40
0.953700703658519
40
1
40
1
40
1
40
1
41
1
10
158.65725
20
7.64298800260787
30
0
41
1
10
158.615500100971
20
7.76421834547184
30
0
41
1
10
158.576768087846
20
7.92583896396979
30
0
41
1
10
158.556099364626
20
8.0924649650571
30
0
41
1
10
158.555074987852
20
8.14117077355684
30
0
41
1
10
158.555006914843
20
8.14845219122414
30
0
0
SPLINE
5
145
100
AcDbEntity
8
1
62
256
6
ByLayer
370
18
48
1
60
0
100
AcDbSpline
70
4
71
2
72
6
73
3
40
0
40
0
40
0
40
1
40
1
40
1
41
1
10
159.325
20
5.2194346733036
30
0
41
1
10
159.045378433028
20
6.45113981071764
30
0
41
1
10
158.65725
20
7.64298800260787
30
0
0
SPLINE
5
146
100
AcDbEntity
8
1
62
256
6
ByLayer
370
18
48
1
60
0
100
AcDbSpline
70
4
71
1
72
4
73
2
40
0
40
0
40
1
40
1
41
1
10
158.65725
20
5.07543995405497
30
0
41
1
10
159.325
20
4.06967873872439
30
0
0
SPLINE
5
147
100
AcDbEntity
8
1
62
256
6
ByLayer
370
18
48
1
60
0
100
AcDbSpline
70
4
71
3
72
10
73
6
40
0
40
0
40
0
40
0
40
0.347465612418247
40
0.888848738615243
40
1
40
1
40
1
40
1
41
1
10
158.65725
20
3.89023894160583
30
0
41
1
10
158.63866903701
20
4.00314884738808
30
0
41
1
10
158.59817379307
20
4.29071670221284
30
0
41
1
10
158.560746532789
20
4.61534473172477
30
0
41
1
10
158.555556970587
20
4.82169983096195
30
0
41
1
10
158.555029244808
20
4.85676999500984
30
0
0
SPLINE
5
148
100
AcDbEntity
8
1
62
256
6
ByLayer
370
18
48
1
60
0
100
AcDbSpline
70
4
71
3
72
11
73
7
40
0
40
0
40
0
40
0
40
0.244811255350474
40
0.491567663268503
40
0.744677633371495
40
1
40
1
40
1
40
1
41
1
10
158.65725
20
-3.89023894160583
30
0
41
1
10
158.758164284421
20
-3.26074630092458
30
0
41
1
10
158.911206130757
20
-1.99213894738969
30
0
41
1
10
158.99492140588
20
-0.0495686524285586
30
0
41
1
10
158.918694319849
20
1.9211550236208
30
0
41
1
10
158.762555078912
20
3.2335608753998
30
0
41
1
10
158.65725
20
3.89023894160583
30
0
0
SPLINE
5
149
100
AcDbEntity
8
1
62
256
6
ByLayer
370
18
48
1
60
0
100
AcDbSpline
70
4
71
3
72
15
73
11
40
0
40
0
40
0
40
0
40
0.0839441107734292
40
0.134028681517199
40
0.184579985654935
40
0.229616264100839
40
0.286342810069779
40
0.385404388322701
40
0.686841981346505
40
1
40
1
40
1
40
1
41
1
10
158.65725
20
-5.07543995405505
30
0
41
1
10
158.651389084165
20
-5.08426950832666
30
0
41
1
10
158.641210840153
20
-5.09598908996086
30
0
41
1
10
158.625294913341
20
-5.10850764653029
30
0
41
1
10
158.611815063431
20
-5.11273937890495
30
0
41
1
10
158.598949555034
20
-5.10945568106226
30
0
41
1
10
158.585722032547
20
-5.09661106273904
30
0
41
1
10
158.566561479004
20
-5.05313557877881
30
0
41
1
10
158.557227579104
20
-4.96931836735309
30
0
41
1
10
158.553706850376
20
-4.89685076007187
30
0
41
1
10
158.555022641011
20
-4.8580744715685
30
0
0
SPLINE
5
14A
100
AcDbEntity
8
1
62
256
6
ByLayer
370
18
48
1
60
0
100
AcDbSpline
70
4
71
1
72
4
73
2
40
0
40
0
40
1
40
1
41
1
10
159.325
20
-4.06967873872439
30
0
41
1
10
158.65725
20
-5.07543995405497
30
0
0
SPLINE
5
14B
100
AcDbEntity
8
1
62
256
6
ByLayer
370
18
48
1
60
0
100
AcDbSpline
70
4
71
2
72
6
73
3
40
0
40
0
40
0
40
1
40
1
40
1
41
1
10
158.65725
20
-7.64298800260787
30
0
41
1
10
159.045373471135
20
-6.45114275179284
30
0
41
1
10
159.325
20
-5.2194346733036
30
0
0
SPLINE
5
14C
100
AcDbEntity
8
1
62
256
6
ByLayer
370
18
48
1
60
0
100
AcDbSpline
70
4
71
3
72
14
73
10
40
0
40
0
40
0
40
0
40
0.0692363263382018
40
0.1960529008412
40
0.289107914011776
40
0.382179745470565
40
0.50973376316872
40
0.727412208466125
40
1
40
1
40
1
40
1
41
1
10
158.657250000013
20
-8.24492475052782
30
0
41
1
10
158.65290720485
20
-8.24922579968659
30
0
41
1
10
158.640491932154
20
-8.2600996314206
30
0
41
1
10
158.62088618578
20
-8.27250797402739
30
0
41
1
10
158.60057644735
20
-8.27590082765082
30
0
41
1
10
158.583601234565
20
-8.26952921924051
30
0
41
1
10
158.567228734446
20
-8.24839317962815
30
0
41
1
10
158.55673911481
20
-8.20520822662039
30
0
41
1
10
158.554008157092
20
-8.16778309708034
30
0
41
1
10
158.55503554698
20
-8.14486455910578
30
0
0
SPLINE
5
14D
100
AcDbEntity
8
1
62
256
6
ByLayer
370
18
48
1
60
0
100
AcDbSpline
70
4
71
1
72
4
73
2
40
0
40
0
40
1
40
1
41
1
10
159.325
20
-7.59107380575695
30
0
41
1
10
158.65725
20
-8.24492475053567
30
0
0
SPLINE
5
14E
100
AcDbEntity
8
1
62
256
6
ByLayer
370
18
48
1
60
0
100
AcDbSpline
70
4
71
1
72
4
73
2
40
0
40
0
40
1
40
1
41
1
10
158.65725
20
-9.85883219216296
30
0
41
1
10
159.325
20
-8.19636393901953
30
0
0
SPLINE
5
14F
100
AcDbEntity
8
1
62
256
6
ByLayer
370
18
48
1
60
0
100
AcDbSpline
70
4
71
3
72
13
73
9
40
0
40
0
40
0
40
0
40
0.109815341689418
40
0.281661077429857
40
0.411300046918824
40
0.54071675543759
40
0.731132699874375
40
1
40
1
40
1
40
1
41
1
10
158.657250000004
20
-10.2809278548553
30
0
41
1
10
158.650824219489
20
-10.2865896349837
30
0
41
1
10
158.63452073831
20
-10.2990684517944
30
0
41
1
10
158.609880142434
20
-10.3117840267762
30
0
41
1
10
158.587566844409
20
-10.3125839409717
30
0
41
1
10
158.57012122277
20
-10.3022429628086
30
0
41
1
10
158.55752857514
20
-10.2751941317946
30
0
41
1
10
158.554212537579
20
-10.2489623938217
30
0
41
1
10
158.555002180032
20
-10.2308439578287
30
0
0
SPLINE
5
150
100
AcDbEntity
8
1
62
256
6
ByLayer
370
18
48
1
60
0
100
AcDbSpline
70
4
71
1
72
4
73
2
40
0
40
0
40
1
40
1
41
1
10
159.325
20
-9.70497388005107
30
0
41
1
10
158.65725
20
-10.280927854857
30
0
0
SPLINE
5
151
100
AcDbEntity
8
1
62
256
6
ByLayer
370
18
48
1
60
0
100
AcDbSpline
70
4
71
1
72
4
73
2
40
0
40
0
40
1
40
1
41
1
10
158.65725
20
-11.4663803695172
30
0
41
1
10
159.325
20
-10.1300673903403
30
0
0
SPLINE
5
152
100
AcDbEntity
8
1
62
256
6
ByLayer
370
18
48
1
60
0
100
AcDbSpline
70
4
71
3
72
13
73
9
40
0
40
0
40
0
40
0
40
0.145707763476185
40
0.355689716314544
40
0.53749383170086
40
0.692805978487555
40
0.934750606327421
40
1
40
1
40
1
40
1
41
1
10
158.657250000001
20
-11.786270443679
30
0
41
1
10
158.648959540505
20
-11.793257468915
30
0
41
1
10
158.629301885864
20
-11.8076256330826
30
0
41
1
10
158.599525215823
20
-11.8220631845059
30
0
41
1
10
158.575817733141
20
-11.8206262209754
30
0
41
1
10
158.560093579864
20
-11.8055181957874
30
0
41
1
10
158.555459739101
20
-11.7846099197191
30
0
41
1
10
158.554961550913
20
-11.7688934377708
30
0
41
1
10
158.555001749851
20
-11.7654187542591
30
0
0
SPLINE
5
153
100
AcDbEntity
8
1
62
256
6
ByLayer
370
18
48
1
60
0
100
AcDbSpline
70
4
71
1
72
4
73
2
40
0
40
0
40
1
40
1
41
1
10
159.325
20
-11.2360417630275
30
0
41
1
10
158.65725
20
-11.7862704436795
30
0
0
SPLINE
5
154
100
AcDbEntity
8
1
62
256
6
ByLayer
370
18
48
1
60
0
100
AcDbSpline
70
4
71
1
72
4
73
2
40
0
40
0
40
1
40
1
41
1
10
158.65725
20
-12.6987867673913
30
0
41
1
10
159.325
20
-11.5566495510079
30
0
0
SPLINE
5
155
100
AcDbEntity
8
1
62
256
6
ByLayer
370
18
48
1
60
0
100
AcDbSpline
70
4
71
3
72
12
73
8
40
0
40
0
40
0
40
0
40
0.179230167484954
40
0.381544012992393
40
0.585196504024825
40
0.760944314470112
40
1
40
1
40
1
40
1
41
1
10
158.657250000001
20
-12.9473883229911
30
0
41
1
10
158.6472792261
20
-12.9556860553768
30
0
41
1
10
158.626884447
20
-12.9705680463781
30
0
41
1
10
158.596570048645
20
-12.9863706715297
30
0
41
1
10
158.572789868212
20
-12.9883600165958
30
0
41
1
10
158.558004589973
20
-12.9757743423688
30
0
41
1
10
158.554645370598
20
-12.9607910917792
30
0
41
1
10
158.555000021334
20
-12.9495643905384
30
0
0
SPLINE
5
156
100
AcDbEntity
8
1
62
256
6
ByLayer
370
18
48
1
60
0
100
AcDbSpline
70
4
71
1
72
4
73
2
40
0
40
0
40
1
40
1
41
1
10
159.325
20
-12.4020462419926
30
0
41
1
10
158.65725
20
-12.9473883229913
30
0
0
SPLINE
5
157
100
AcDbEntity
8
1
62
256
6
ByLayer
370
18
48
1
60
0
100
AcDbSpline
70
4
71
1
72
4
73
2
40
0
40
0
40
1
40
1
41
1
10
158.65725
20
-13.6579827188678
30
0
41
1
10
159.325
20
-12.6488747466637
30
0
0
SPLINE
5
158
100
AcDbEntity
8
1
62
256
6
ByLayer
370
18
48
1
60
0
100
AcDbSpline
70
4
71
3
72
12
73
8
40
0
40
0
40
0
40
0
40
0.209155254886066
40
0.428242584532213
40
0.64880446323447
40
0.83864510303922
40
1
40
1
40
1
40
1
41
1
10
158.65725
20
-13.8511211748763
30
0
41
1
10
158.64568421386
20
-13.8608294446369
30
0
41
1
10
158.623255582744
20
-13.8775872603551
30
0
41
1
10
158.591155768353
20
-13.895532913778
30
0
41
1
10
158.56778188102
20
-13.8989544901756
30
0
41
1
10
158.556795753814
20
-13.8889273985982
30
0
41
1
10
158.554842859109
20
-13.8780888885181
30
0
41
1
10
158.555001480327
20
-13.8719566383921
30
0
0
SPLINE
5
159
100
AcDbEntity
8
1
62
256
6
ByLayer
370
18
48
1
60
0
100
AcDbSpline
70
4
71
1
72
4
73
2
40
0
40
0
40
1
40
1
41
1
10
159.325
20
-13.2993559045747
30
0
41
1
10
158.65725
20
-13.8511211748764
30
0
0
SPLINE
5
15A
100
AcDbEntity
8
1
62
256
6
ByLayer
370
18
48
1
60
0
100
AcDbSpline
70
4
71
1
72
4
73
2
40
0
40
0
40
1
40
1
41
1
10
158.65725
20
-14.3986734991149
30
0
41
1
10
159.325
20
-13.4882139614095
30
0
0
SPLINE
5
15B
100
AcDbEntity
8
1
62
256
6
ByLayer
370
18
48
1
60
0
100
AcDbSpline
70
4
71
3
72
12
73
8
40
0
40
0
40
0
40
0
40
0.238446189618254
40
0.472536138168403
40
0.708281469955404
40
0.909626749361425
40
1
40
1
40
1
40
1
41
1
10
158.65725
20
-14.5455234081103
30
0
41
1
10
158.644150588114
20
-14.55675446328
30
0
41
1
10
158.619906672539
20
-14.57561407731
30
0
41
1
10
158.586416192945
20
-14.5962162430477
30
0
41
1
10
158.563755921652
20
-14.6016189057095
30
0
41
1
10
158.555903878388
20
-14.593962452966
30
0
41
1
10
158.554957167571
20
-14.5864528020332
30
0
41
1
10
158.555000735559
20
-14.5837681891278
30
0
0
SPLINE
5
15C
100
AcDbEntity
8
1
62
256
6
ByLayer
370
18
48
1
60
0
100
AcDbSpline
70
4
71
1
72
4
73
2
40
0
40
0
40
1
40
1
41
1
10
159.325
20
-13.9798062920975
30
0
41
1
10
158.65725
20
-14.5455234081104
30
0
0
SPLINE
5
15D
100
AcDbEntity
8
1
62
256
6
ByLayer
370
18
48
1
60
0
100
AcDbSpline
70
4
71
1
72
4
73
2
40
0
40
0
40
1
40
1
41
1
10
158.65725
20
-14.9533643411553
30
0
41
1
10
159.325
20
-14.1198370876133
30
0
0
SPLINE
5
15E
100
AcDbEntity
8
1
62
256
6
ByLayer
370
18
48
1
60
0
100
AcDbSpline
70
4
71
3
72
12
73
8
40
0
40
0
40
0
40
0
40
0.266587403552641
40
0.51332308273384
40
0.723189296348936
40
0.933422438650517
40
1
40
1
40
1
40
1
41
1
10
158.65725
20
-15.0595798291541
30
0
41
1
10
158.642647485915
20
-15.0724840820605
30
0
41
1
10
158.616755469921
20
-15.0937099933848
30
0
41
1
10
158.583948386254
20
-15.1162475644618
30
0
41
1
10
158.562688709869
20
-15.1247758117844
30
0
41
1
10
158.555696215958
20
-15.1210533451289
30
0
41
1
10
158.554984290279
20
-15.1157264662602
30
0
41
1
10
158.555000180052
20
-15.1142466541857
30
0
0
SPLINE
5
15F
100
AcDbEntity
8
1
62
256
6
ByLayer
370
18
48
1
60
0
100
AcDbSpline
70
4
71
1
72
4
73
2
40
0
40
0
40
1
40
1
41
1
10
159.325
20
-14.4740146625805
30
0
41
1
10
158.65725
20
-15.0595798291541
30
0
0
SPLINE
5
160
100
AcDbEntity
8
1
62
256
6
ByLayer
370
18
48
1
60
0
100
AcDbSpline
70
4
71
1
72
4
73
2
40
0
40
0
40
1
40
1
41
1
10
158.65725
20
-15.3422427208201
30
0
41
1
10
159.325
20
-14.5707818216016
30
0
0
SPLINE
5
161
100
AcDbEntity
8
1
62
256
6
ByLayer
370
18
48
1
60
0
100
AcDbSpline
70
4
71
3
72
12
73
8
40
0
40
0
40
0
40
0
40
0.294153510240048
40
0.551723063447479
40
0.768220933165703
40
0.985308388173556
40
1
40
1
40
1
40
1
41
1
10
158.65725
20
-15.4113477037358
30
0
41
1
10
158.641148488631
20
-15.4261193838951
30
0
41
1
10
158.613734030583
20
-15.4500146000013
30
0
41
1
10
158.580256317671
20
-15.4759893783787
30
0
41
1
10
158.560036946568
20
-15.4872664205176
30
0
41
1
10
158.55514009894
20
-15.4854991219622
30
0
41
1
10
158.554999537867
20
-15.4822291856871
30
0
41
1
10
158.555000002708
20
-15.4820121509128
30
0
0
SPLINE
5
162
100
AcDbEntity
8
1
62
256
6
ByLayer
370
18
48
1
60
0
100
AcDbSpline
70
4
71
1
72
4
73
2
40
0
40
0
40
1
40
1
41
1
10
159.325
20
-14.800649206728
30
0
41
1
10
158.65725
20
-15.4113477037358
30
0
0
SPLINE
5
163
100
AcDbEntity
8
1
62
256
6
ByLayer
370
18
48
1
60
0
100
AcDbSpline
70
4
71
1
72
4
73
2
40
0
40
0
40
1
40
1
41
1
10
158.65725
20
-15.5777314872795
30
0
41
1
10
159.325
20
-14.8575087549929
30
0
0
SPLINE
5
164
100
AcDbEntity
8
1
62
256
6
ByLayer
370
18
48
1
60
0
100
AcDbSpline
70
4
71
3
72
11
73
7
40
0
40
0
40
0
40
0
40
0.374905131140362
40
0.627189141385274
40
0.881388716262849
40
1
40
1
40
1
40
1
41
1
10
158.65725
20
-15.6118010319188
30
0
41
1
10
158.636376066301
20
-15.6318234862362
30
0
41
1
10
158.606047720447
20
-15.6600155147313
30
0
41
1
10
158.571058634398
20
-15.6904233624892
30
0
41
1
10
158.556933215959
20
-15.7002067055556
30
0
41
1
10
158.555023131955
20
-15.6993651118391
30
0
41
1
10
158.555000073645
20
-15.6984832702223
30
0
0
SPLINE
5
165
100
AcDbEntity
8
1
62
256
6
ByLayer
370
18
48
1
60
0
100
AcDbSpline
70
4
71
1
72
4
73
2
40
0
40
0
40
1
40
1
41
1
10
159.325
20
-14.9706824636902
30
0
41
1
10
158.65725
20
-15.6118010319188
30
0
0
SPLINE
5
166
100
AcDbEntity
8
1
62
256
6
ByLayer
370
18
48
1
60
0
100
AcDbSpline
70
4
71
1
72
4
73
2
40
0
40
0
40
1
40
1
41
1
10
158.65725
20
-15.6667490206169
30
0
41
1
10
159.325
20
-14.989444616685
30
0
0
SPLINE
5
167
100
AcDbEntity
8
1
62
256
6
ByLayer
370
18
48
1
60
0
100
AcDbSpline
70
4
71
3
72
16
73
12
40
0
40
0
40
0
40
0
40
0.31844026804829
40
0.622120945561546
40
0.70344792489091
40
0.762063789612648
40
0.805979694407126
40
0.850040121473251
40
0.903849105004346
40
0.994262706517768
40
1
40
1
40
1
40
1
41
1
10
158.555029244808
20
4.85676999500984
30
0
41
1
10
158.553605856968
20
4.89639109781707
30
0
41
1
10
158.557259603187
20
4.96985565960344
30
0
41
1
10
158.56656684004
20
5.05306125713379
30
0
41
1
10
158.58521031514
20
5.0950654732457
30
0
41
1
10
158.596691276593
20
5.10790783022575
30
0
41
1
10
158.608629960391
20
5.11248516138866
30
0
41
1
10
158.621647450909
20
5.11030774566828
30
0
41
1
10
158.638453205518
20
5.09922350344058
30
0
41
1
10
158.650039815067
20
5.08543240623505
30
0
41
1
10
158.656846326545
20
5.07600708967397
30
0
41
1
10
158.65725
20
5.07543995405505
30
0
0
SPLINE
5
168
100
AcDbEntity
8
1
62
256
6
ByLayer
370
18
48
1
60
0
100
AcDbSpline
70
4
71
3
72
10
73
6
40
0
40
0
40
0
40
0
40
0.114852010976743
40
0.351349684798295
40
1
40
1
40
1
40
1
41
1
10
158.555022641011
20
-4.8580744715685
30
0
41
1
10
158.554966155735
20
-4.82193994132285
30
0
41
1
10
158.556672457452
20
-4.71092849545198
30
0
41
1
10
158.586149172536
20
-4.38835269291439
30
0
41
1
10
158.621362632105
20
-4.10204805744241
30
0
41
1
10
158.65725
20
-3.89023894160583
30
0
0
SPLINE
5
169
100
AcDbEntity
8
1
62
256
6
ByLayer
370
18
48
1
60
0
100
AcDbSpline
70
4
71
3
72
14
73
10
40
0
40
0
40
0
40
0
40
0.3170305835119
40
0.45913691604144
40
0.602313064805076
40
0.699753417129837
40
0.797511721728961
40
0.913486262661502
40
1
40
1
40
1
40
1
41
1
10
158.555006914843
20
8.14845219122414
30
0
41
1
10
158.553894824123
20
8.17481689364489
30
0
41
1
10
158.557076340046
20
8.20907085131895
30
0
41
1
10
158.56848436881
20
8.24887033824509
30
0
41
1
10
158.581713093676
20
8.26824408046301
30
0
41
1
10
158.599348861511
20
8.27588055432026
30
0
41
1
10
158.619170446955
20
8.27306319173057
30
0
41
1
10
158.639198533621
20
8.26110025032817
30
0
41
1
10
158.651886024151
20
8.25026694305
30
0
41
1
10
158.65725
20
8.24492475053573
30
0
0
SPLINE
5
16A
100
AcDbEntity
8
1
62
256
6
ByLayer
370
18
48
1
60
0
100
AcDbSpline
70
4
71
2
72
6
73
3
40
0
40
0
40
0
40
1
40
1
40
1
41
1
10
158.55503554698
20
-8.14486455910578
30
0
41
1
10
158.563187014574
20
-7.90717817951065
30
0
41
1
10
158.65725
20
-7.64298800260787
30
0
0
SPLINE
5
16B
100
AcDbEntity
8
1
62
256
6
ByLayer
370
18
48
1
60
0
100
AcDbSpline
70
4
71
3
72
14
73
10
40
0
40
0
40
0
40
0
40
0.0570207991383824
40
0.263961614176369
40
0.472632180512071
40
0.60786128715602
40
0.743539272551639
40
0.873270914085314
40
1
40
1
40
1
40
1
41
1
10
158.555001999236
20
10.2308911596919
30
0
41
1
10
158.554974013076
20
10.2345182945579
30
0
41
1
10
158.555272493571
20
10.2509749422988
30
0
41
1
10
158.558547088363
20
10.2786107088628
30
0
41
1
10
158.570764727009
20
10.3035385854928
30
0
41
1
10
158.590225156296
20
10.3133120870529
30
0
41
1
10
158.611732326913
20
10.3106834540282
30
0
41
1
10
158.634918282148
20
10.2986604797642
30
0
41
1
10
158.649818903659
20
10.28748026499
30
0
41
1
10
158.65725
20
10.280927854857
30
0
0
SPLINE
5
16C
100
AcDbEntity
8
1
62
256
6
ByLayer
370
18
48
1
60
0
100
AcDbSpline
70
4
71
3
72
10
73
6
40
0
40
0
40
0
40
0
40
0.0313950439724201
40
0.409106482677429
40
1
40
1
40
1
40
1
41
1
10
158.555002180032
20
-10.2308439578287
30
0
41
1
10
158.555032140104
20
-10.2274083003614
30
0
41
1
10
158.555905591469
20
-10.1823992524632
30
0
41
1
10
158.580632605378
20
-10.0582360897642
30
0
41
1
10
158.621968748872
20
-9.93670107993417
30
0
41
1
10
158.65725
20
-9.85883219216296
30
0
0
SPLINE
5
16D
100
AcDbEntity
8
1
62
256
6
ByLayer
370
18
48
1
60
0
100
AcDbSpline
70
4
71
3
72
13
73
9
40
0
40
0
40
0
40
0
40
0.153003490220145
40
0.341855264139561
40
0.532340067717492
40
0.70075719368008
40
0.855961860769121
40
1
40
1
40
1
40
1
41
1
10
158.555010865472
20
11.7642799984961
30
0
41
1
10
158.554763911784
20
11.7726893366041
30
0
41
1
10
158.556118217465
20
11.7896327586414
30
0
41
1
10
158.563770759756
20
11.8114801755506
30
0
41
1
10
158.581465762499
20
11.8227346802581
30
0
41
1
10
158.606304011127
20
11.8191251315851
30
0
41
1
10
158.632285612308
20
11.805427642142
30
0
41
1
10
158.64901984543
20
11.7931828654578
30
0
41
1
10
158.65725
20
11.7862704436795
30
0
0
SPLINE
5
16E
100
AcDbEntity
8
1
62
256
6
ByLayer
370
18
48
1
60
0
100
AcDbSpline
70
4
71
3
72
10
73
6
40
0
40
0
40
0
40
0
40
0.217572190450039
40
0.691645712711581
40
1
40
1
40
1
40
1
41
1
10
158.555001749851
20
-11.7654187542591
30
0
41
1
10
158.555949698682
20
-11.7466991141743
30
0
41
1
10
158.563356602447
20
-11.6852146180713
30
0
41
1
10
158.601571567374
20
-11.5802208098777
30
0
41
1
10
158.639902017015
20
-11.499090237355
30
0
41
1
10
158.65725
20
-11.4663803695172
30
0
0
SPLINE
5
16F
100
AcDbEntity
8
1
62
256
6
ByLayer
370
18
48
1
60
0
100
AcDbSpline
70
4
71
3
72
13
73
9
40
0
40
0
40
0
40
0
40
0.150964821983275
40
0.345506690992577
40
0.541280972025064
40
0.716506534493552
40
0.949390305839561
40
1
40
1
40
1
40
1
41
1
10
158.555006815614
20
12.9484605100656
30
0
41
1
10
158.554793999666
20
12.9554290791048
30
0
41
1
10
158.556347989575
20
12.9692474572525
30
0
41
1
10
158.565322128444
20
12.9850263828511
30
0
41
1
10
158.584968310909
20
12.9887893588075
30
0
41
1
10
158.613840131215
20
12.978701179018
30
0
41
1
10
158.638998517422
20
12.9619426371367
30
0
41
1
10
158.654469529282
20
12.9496690752399
30
0
41
1
10
158.65725
20
12.9473883229912
30
0
0
SPLINE
5
170
100
AcDbEntity
8
1
62
256
6
ByLayer
370
18
48
1
60
0
100
AcDbSpline
70
4
71
3
72
11
73
7
40
0
40
0
40
0
40
0
40
0.0038806264270876
40
0.266110408093516
40
0.706109209318641
40
1
40
1
40
1
40
1
41
1
10
158.555000021334
20
-12.9495643905384
30
0
41
1
10
158.55500033404
20
-12.9493202838164
30
0
41
1
10
158.555068584321
20
-12.93254688327
30
0
41
1
10
158.566164163195
20
-12.8789991823453
30
0
41
1
10
158.604464719229
20
-12.7912019513021
30
0
41
1
10
158.640824857324
20
-12.7256777804562
30
0
41
1
10
158.65725
20
-12.6987867673913
30
0
0
SPLINE
5
171
100
AcDbEntity
8
1
62
256
6
ByLayer
370
18
48
1
60
0
100
AcDbSpline
70
4
71
3
72
13
73
9
40
0
40
0
40
0
40
0
40
0.0316467329731589
40
0.247953033205149
40
0.465658269207536
40
0.656082193056792
40
0.905285723914659
40
1
40
1
40
1
40
1
41
1
10
158.55500019818
20
13.872224880247
30
0
41
1
10
158.554993303941
20
13.8733784563274
30
0
41
1
10
158.555243334421
20
13.8821107648866
30
0
41
1
10
158.559658832774
20
13.8950908538812
30
0
41
1
10
158.577501262407
20
13.8990142072381
30
0
41
1
10
158.605978274093
20
13.8884385694065
30
0
41
1
10
158.633883819865
20
13.8698318398498
30
0
41
1
10
158.652134674244
20
13.8553729355459
30
0
41
1
10
158.657250000005
20
13.8511211748747
30
0
0
SPLINE
5
172
100
AcDbEntity
8
1
62
256
6
ByLayer
370
18
48
1
60
0
100
AcDbSpline
70
4
71
3
72
11
73
7
40
0
40
0
40
0
40
0
40
0.0678328292522641
40
0.345194292779782
40
0.782280401492448
40
1
40
1
40
1
40
1
41
1
10
158.555001480327
20
-13.8719566383921
30
0
41
1
10
158.555073554164
20
-13.8686143955396
30
0
41
1
10
158.556401762629
20
-13.8508853215756
30
0
41
1
10
158.573326695281
20
-13.7991067656449
30
0
41
1
10
158.612161563374
20
-13.7270029364371
30
0
41
1
10
158.645308120585
20
-13.6754715408638
30
0
41
1
10
158.657249999999
20
-13.6579827188678
30
0
0
SPLINE
5
173
100
AcDbEntity
8
1
62
256
6
ByLayer
370
18
48
1
60
0
100
AcDbSpline
70
4
71
3
72
11
73
7
40
0
40
0
40
0
40
0
40
0.129925738040846
40
0.414393514086553
40
0.842521180391786
40
1
40
1
40
1
40
1
41
1
10
158.555000735559
20
-14.5837681891278
30
0
41
1
10
158.55521837351
20
-14.5788171004692
30
0
41
1
10
158.55797784648
20
-14.5614100141145
30
0
41
1
10
158.58017688089
20
-14.511905399438
30
0
41
1
10
158.618618393238
20
-14.4515808831509
30
0
41
1
10
158.648717291089
20
-14.4100393607564
30
0
41
1
10
158.65725
20
-14.3986734991149
30
0
0
SPLINE
5
174
100
AcDbEntity
8
1
62
256
6
ByLayer
370
18
48
1
60
0
100
AcDbSpline
70
4
71
3
72
12
73
8
40
0
40
0
40
0
40
0
40
0.203909305538622
40
0.4225375751085
40
0.620621181424576
40
0.889563649497833
40
1
40
1
40
1
40
1
41
1
10
158.55500006462
20
14.5839276968501
30
0
41
1
10
158.55489722557
20
14.5901578709605
30
0
41
1
10
158.558171190867
20
14.5990547487475
30
0
41
1
10
158.574210240404
20
14.6003820075661
30
0
41
1
10
158.602194524323
20
14.5875413988447
30
0
41
1
10
158.631480055287
20
14.5667658287614
30
0
41
1
10
158.651333150623
20
14.5505559271693
30
0
41
1
10
158.657250000007
20
14.5455234081077
30
0
0
SPLINE
5
175
100
AcDbEntity
8
1
62
256
6
ByLayer
370
18
48
1
60
0
100
AcDbSpline
70
4
71
3
72
12
73
8
40
0
40
0
40
0
40
0
40
0.163694215286415
40
0.380159134767569
40
0.583338143107347
40
0.868065820968462
40
1
40
1
40
1
40
1
41
1
10
158.555000339311
20
15.1142163670995
30
0
41
1
10
158.55495500721
20
15.1179393145092
30
0
41
1
10
158.557413915113
20
15.1237367982327
30
0
41
1
10
158.57097196141
20
15.1224878826465
30
0
41
1
10
158.598007553038
20
15.1074346127982
30
0
41
1
10
158.628607656369
20
15.084109475487
30
0
41
1
10
158.650194818144
20
15.0657778997347
30
0
41
1
10
158.657250000013
20
15.0595798291486
30
0
0
SPLINE
5
176
100
AcDbEntity
8
1
62
256
6
ByLayer
370
18
48
1
60
0
100
AcDbSpline
70
4
71
3
72
11
73
7
40
0
40
0
40
0
40
0
40
0.118390271290265
40
0.377029769009241
40
0.750112275091675
40
1
40
1
40
1
40
1
41
1
10
158.555000180052
20
-15.1142466541857
30
0
41
1
10
158.555138843389
20
-15.1110319892323
30
0
41
1
10
158.557375576907
20
-15.0992567118334
30
0
41
1
10
158.575569952472
20
-15.0632988083935
30
0
41
1
10
158.612547162924
20
-15.0098531241828
30
0
41
1
10
158.643629062905
20
-14.9700200127624
30
0
41
1
10
158.65725
20
-14.9533643411547
30
0
0
SPLINE
5
177
100
AcDbEntity
8
1
62
256
6
ByLayer
370
18
48
1
60
0
100
AcDbSpline
70
4
71
3
72
11
73
7
40
0
40
0
40
0
40
0
40
0.171984954810267
40
0.432268023587687
40
0.797919176781485
40
1
40
1
40
1
40
1
41
1
10
158.555000002708
20
-15.4820121509128
30
0
41
1
10
158.555269673015
20
-15.4788542463461
30
0
41
1
10
158.558796949562
20
-15.4683563881702
30
0
41
1
10
158.581173921823
20
-15.4341201383481
30
0
41
1
10
158.6176570447
20
-15.3881714625812
30
0
41
1
10
158.646345886059
20
-15.354651084431
30
0
41
1
10
158.65725
20
-15.342242720817
30
0
0
SPLINE
5
178
100
AcDbEntity
8
1
62
256
6
ByLayer
370
18
48
1
60
0
100
AcDbSpline
70
4
71
3
72
12
73
8
40
0
40
0
40
0
40
0
40
0.086189448575471
40
0.303723852816754
40
0.509191504298517
40
0.795485245746934
40
1
40
1
40
1
40
1
41
1
10
158.555000143883
20
15.4819714470496
30
0
41
1
10
158.554988712237
20
15.4832675118198
30
0
41
1
10
158.55606642218
20
15.4866459812621
30
0
41
1
10
158.564917416711
20
15.4851765366456
30
0
41
1
10
158.588870494627
20
15.4698043665341
30
0
41
1
10
158.621317389901
20
15.4434731342726
30
0
41
1
10
158.64623875025
20
15.4214238420894
30
0
41
1
10
158.65725
20
15.4113477037358
30
0
0
SPLINE
5
179
100
AcDbEntity
8
1
62
256
6
ByLayer
370
18
48
1
60
0
100
AcDbSpline
70
4
71
3
72
12
73
8
40
0
40
0
40
0
40
0
40
0.0941508455462865
40
0.289889332262206
40
0.572509325602255
40
0.966989265767987
40
1
40
1
40
1
40
1
41
1
10
158.555000073645
20
-15.6984832702223
30
0
41
1
10
158.55504291129
20
-15.6976880198622
30
0
41
1
10
158.556360709931
20
-15.6940834986305
30
0
41
1
10
158.567102576772
20
-15.6788757361525
30
0
41
1
10
158.598163157722
20
-15.6419560755432
30
0
41
1
10
158.633088231275
20
-15.603582533273
30
0
41
1
10
158.655504226588
20
-15.5795955704073
30
0
41
1
10
158.65725
20
-15.5777314872795
30
0
0
SPLINE
5
17A
100
AcDbEntity
8
1
62
256
6
ByLayer
370
18
48
1
60
0
100
AcDbSpline
70
4
71
3
72
12
73
8
40
0
40
0
40
0
40
0
40
0.106825144771993
40
0.31572586137759
40
0.526328162313761
40
0.845761088623672
40
1
40
1
40
1
40
1
41
1
10
158.555000062035
20
15.6984846452879
30
0
41
1
10
158.555010324262
20
15.699287567001
30
0
41
1
10
158.556481680304
20
15.7001552974596
30
0
41
1
10
158.566746704078
20
15.6936093593332
30
0
41
1
10
158.592394443878
20
15.6722068580406
30
0
41
1
10
158.624797922366
20
15.6425727315407
30
0
41
1
10
158.64902047667
20
15.6196694966357
30
0
41
1
10
158.657250000008
20
15.6118010319132
30
0
0
INSERT
5
1BC
100
AcDbEntity
8
SK2
62
256
6
ByLayer
370
25
48
1
60
0
100
AcDbBlockReference
2
DimnDraft3D66
10
0
20
0
30
0
41
1
42
1
43
1
50
0
210
0
220
0
230
1
0
LINE
5
70
100
AcDbEntity
8
81
62
256
6
ByLayer
370
18
48
1
60
0
100
AcDbLine
10
159
20
0
30
0
11
174.9
21
0
31
0
39
0
210
0
220
0
230
1
0
LINE
5
71
100
AcDbEntity
8
4
62
256
6
ByLayer
370
18
48
0.05
60
0
100
AcDbLine
10
0
20
0
30
0
11
159
21
0
31
0
39
0
210
0
220
0
230
1
0
LINE
5
73
100
AcDbEntity
8
SK4
62
256
6
ByLayer
370
18
48
0.05
60
0
100
AcDbLine
10
-45
20
0
30
0
11
165
21
0
31
0
39
0
210
0
220
0
230
1
0
LINE
5
75
100
AcDbEntity
8
80
62
256
6
ByLayer
370
18
48
1
60
0
100
AcDbLine
10
0
20
0
30
0
11
-15.9
21
0
31
0
39
0
210
0
220
0
230
1
0
LINE
5
76
100
AcDbEntity
8
1
62
256
6
ByLayer
370
18
48
1
60
0
100
AcDbLine
10
22
20
-31.5
30
0
11
24.961619
21
-20.447086
31
0
39
0
210
0
220
0
230
1
0
LINE
5
78
100
AcDbEntity
8
1
62
256
6
ByLayer
370
18
48
1
60
0
100
AcDbLine
10
24.961619
20
20.447086
30
0
11
22
21
31.5
31
0
39
0
210
0
220
0
230
1
0
LINE
5
79
100
AcDbEntity
8
1
62
256
6
ByLayer
370
18
48
1
60
0
100
AcDbLine
10
22
20
31.5
30
0
11
0.3
21
31.5
31
0
39
0
210
0
220
0
230
1
0
LINE
5
7A
100
AcDbEntity
8
1
62
256
6
ByLayer
370
18
48
1
60
0
100
AcDbLine
10
0.3
20
-31.5
30
0
11
22
21
-31.5
31
0
39
0
210
0
220
0
230
1
0
LINE
5
7B
100
AcDbEntity
8
1
62
256
6
ByLayer
370
18
48
1
60
0
100
AcDbLine
10
10.538675
20
30.080593
30
0
11
13.461325
21
30.080593
31
0
39
0
210
0
220
0
230
1
0
LINE
5
7C
100
AcDbEntity
8
1
62
256
6
ByLayer
370
18
48
1
60
0
100
AcDbLine
10
13.461325
20
9.349221
30
0
11
10.538675
21
9.349221
31
0
39
0
210
0
220
0
230
1
0
LINE
5
7D
100
AcDbEntity
8
1
62
256
6
ByLayer
370
18
48
1
60
0
100
AcDbLine
10
10.538675
20
-9.349221
30
0
11
13.461325
21
-9.349221
31
0
39
0
210
0
220
0
230
1
0
LINE
5
7E
100
AcDbEntity
8
1
62
256
6
ByLayer
370
18
48
1
60
0
100
AcDbLine
10
13.461325
20
-30.080593
30
0
11
10.538675
21
-30.080593
31
0
39
0
210
0
220
0
230
1
0
LINE
5
7F
100
AcDbEntity
8
1
62
256
6
ByLayer
370
18
48
1
60
0
100
AcDbLine
10
0.3
20
31.5
30
0
11
0
21
31.2
31
0
39
0
210
0
220
0
230
1
0
LINE
5
80
100
AcDbEntity
8
1
62
256
6
ByLayer
370
18
48
1
60
0
100
AcDbLine
10
0
20
-31.2
30
0
11
0.3
21
-31.5
31
0
39
0
210
0
220
0
230
1
0
LINE
5
81
100
AcDbEntity
8
1
62
256
6
ByLayer
370
18
48
1
60
0
100
AcDbLine
10
13.461325
20
9.349221
30
0
11
13.461325
21
30.080593
31
0
39
0
210
0
220
0
230
1
0
LINE
5
82
100
AcDbEntity
8
1
62
256
6
ByLayer
370
18
48
1
60
0
100
AcDbLine
10
13.894338
20
9.869413
30
0
11
13.894338
21
29.913955
31
0
39
0
210
0
220
0
230
1
0
LINE
5
83
100
AcDbEntity
8
1
62
256
6
ByLayer
370
18
48
1
60
0
100
AcDbLine
10
10.105662
20
-29.913955
30
0
11
10.105662
21
-9.869413
31
0
39
0
210
0
220
0
230
1
0
LINE
5
84
100
AcDbEntity
8
1
62
256
6
ByLayer
370
18
48
1
60
0
100
AcDbLine
10
10.538675
20
-30.080593
30
0
11
10.538675
21
-9.349221
31
0
39
0
210
0
220
0
230
1
0
LINE
5
85
100
AcDbEntity
8
1
62
256
6
ByLayer
370
18
48
1
60
0
100
AcDbLine
10
10.105662
20
9.869413
30
0
11
10.105662
21
29.913955
31
0
39
0
210
0
220
0
230
1
0
LINE
5
86
100
AcDbEntity
8
1
62
256
6
ByLayer
370
18
48
1
60
0
100
AcDbLine
10
10.538675
20
9.349221
30
0
11
10.538675
21
30.080593
31
0
39
0
210
0
220
0
230
1
0
LINE
5
87
100
AcDbEntity
8
1
62
256
6
ByLayer
370
18
48
1
60
0
100
AcDbLine
10
13.461325
20
-30.080593
30
0
11
13.461325
21
-9.349221
31
0
39
0
210
0
220
0
230
1
0
LINE
5
88
100
AcDbEntity
8
1
62
256
6
ByLayer
370
18
48
1
60
0
100
AcDbLine
10
13.894338
20
-29.913955
30
0
11
13.894338
21
-9.869413
31
0
39
0
210
0
220
0
230
1
0
LINE
5
89
100
AcDbEntity
8
SK1
62
256
6
ByLayer
370
18
48
1
60
0
100
AcDbLine
10
-0.2
20
-22.45
30
0
11
0
21
-22.45
31
0
39
0
210
0
220
0
230
1
0
LINE
5
8B
100
AcDbEntity
8
SK1
62
256
6
ByLayer
370
18
48
1
60
0
100
AcDbLine
10
0
20
22.45
30
0
11
-0.2
21
22.45
31
0
39
0
210
0
220
0
230
1
0
LINE
5
8C
100
AcDbEntity
8
1
62
256
6
ByLayer
370
18
48
1
60
0
100
AcDbLine
10
156.7
20
16
30
0
11
30.757174
21
16
31
0
39
0
210
0
220
0
230
1
0
LINE
5
8D
100
AcDbEntity
8
1
62
256
6
ByLayer
370
18
48
1
60
0
100
AcDbLine
10
30.757174
20
-16
30
0
11
156.7
21
-16
31
0
39
0
210
0
220
0
230
1
0
LINE
5
8E
100
AcDbEntity
8
1
62
256
6
ByLayer
370
18
48
1
60
0
100
AcDbLine
10
158.325
20
-16
30
0
11
158.556675
21
-15.768325
31
0
39
0
210
0
220
0
230
1
0
LINE
5
8F
100
AcDbEntity
8
1
62
256
6
ByLayer
370
18
48
1
60
0
100
AcDbLine
10
158.556675
20
15.768325
30
0
11
158.325
21
16
31
0
39
0
210
0
220
0
230
1
0
LINE
5
90
100
AcDbEntity
8
1
62
256
6
ByLayer
370
18
48
1
60
0
100
AcDbLine
10
158.325
20
16
30
0
11
157.3
21
16
31
0
39
0
210
0
220
0
230
1
0
LINE
5
91
100
AcDbEntity
8
1
62
256
6
ByLayer
370
18
48
1
60
0
100
AcDbLine
10
157.3
20
-16
30
0
11
158.325
21
-16
31
0
39
0
210
0
220
0
230
1
0
LINE
5
92
100
AcDbEntity
8
1
62
256
6
ByLayer
370
18
48
1
60
0
100
AcDbLine
10
158.65725
20
5.07544
30
0
11
158.65725
21
3.890239
31
0
39
0
210
0
220
0
230
1
0
LINE
5
93
100
AcDbEntity
8
1
62
256
6
ByLayer
370
18
48
1
60
0
100
AcDbLine
10
158.65725
20
-3.890239
30
0
11
158.65725
21
-5.07544
31
0
39
0
210
0
220
0
230
1
0
LINE
5
94
100
AcDbEntity
8
1
62
256
6
ByLayer
370
18
48
1
60
0
100
AcDbLine
10
159.325
20
4.069679
30
0
11
159.325
21
-4.069679
31
0
39
0
210
0
220
0
230
1
0
LINE
5
95
100
AcDbEntity
8
1
62
256
6
ByLayer
370
18
48
1
60
0
100
AcDbLine
10
158.65725
20
8.244925
30
0
11
158.65725
21
7.642988
31
0
39
0
210
0
220
0
230
1
0
LINE
5
96
100
AcDbEntity
8
1
62
256
6
ByLayer
370
18
48
1
60
0
100
AcDbLine
10
158.65725
20
-7.642988
30
0
11
158.65725
21
-8.244925
31
0
39
0
210
0
220
0
230
1
0
LINE
5
97
100
AcDbEntity
8
1
62
256
6
ByLayer
370
18
48
1
60
0
100
AcDbLine
10
159.325
20
7.591074
30
0
11
159.325
21
5.219435
31
0
39
0
210
0
220
0
230
1
0
LINE
5
98
100
AcDbEntity
8
1
62
256
6
ByLayer
370
18
48
1
60
0
100
AcDbLine
10
159.325
20
-5.219435
30
0
11
159.325
21
-7.591074
31
0
39
0
210
0
220
0
230
1
0
LINE
5
99
100
AcDbEntity
8
1
62
256
6
ByLayer
370
18
48
1
60
0
100
AcDbLine
10
158.65725
20
10.280928
30
0
11
158.65725
21
9.858832
31
0
39
0
210
0
220
0
230
1
0
LINE
5
9A
100
AcDbEntity
8
1
62
256
6
ByLayer
370
18
48
1
60
0
100
AcDbLine
10
158.65725
20
-9.858832
30
0
11
158.65725
21
-10.280928
31
0
39
0
210
0
220
0
230
1
0
LINE
5
9B
100
AcDbEntity
8
1
62
256
6
ByLayer
370
18
48
1
60
0
100
AcDbLine
10
159.325
20
9.704974
30
0
11
159.325
21
8.196364
31
0
39
0
210
0
220
0
230
1
0
LINE
5
9C
100
AcDbEntity
8
1
62
256
6
ByLayer
370
18
48
1
60
0
100
AcDbLine
10
159.325
20
-8.196364
30
0
11
159.325
21
-9.704974
31
0
39
0
210
0
220
0
230
1
0
LINE
5
9D
100
AcDbEntity
8
1
62
256
6
ByLayer
370
18
48
1
60
0
100
AcDbLine
10
158.65725
20
11.78627
30
0
11
158.65725
21
11.46638
31
0
39
0
210
0
220
0
230
1
0
LINE
5
9E
100
AcDbEntity
8
1
62
256
6
ByLayer
370
18
48
1
60
0
100
AcDbLine
10
158.65725
20
-11.46638
30
0
11
158.65725
21
-11.78627
31
0
39
0
210
0
220
0
230
1
0
LINE
5
9F
100
AcDbEntity
8
1
62
256
6
ByLayer
370
18
48
1
60
0
100
AcDbLine
10
159.325
20
-10.130067
30
0
11
159.325
21
-11.236042
31
0
39
0
210
0
220
0
230
1
0
LINE
5
A0
100
AcDbEntity
8
1
62
256
6
ByLayer
370
18
48
1
60
0
100
AcDbLine
10
159.325
20
11.236042
30
0
11
159.325
21
10.130067
31
0
39
0
210
0
220
0
230
1
0
LINE
5
A1
100
AcDbEntity
8
1
62
256
6
ByLayer
370
18
48
1
60
0
100
AcDbLine
10
158.65725
20
12.947388
30
0
11
158.65725
21
12.698787
31
0
39
0
210
0
220
0
230
1
0
LINE
5
A2
100
AcDbEntity
8
1
62
256
6
ByLayer
370
18
48
1
60
0
100
AcDbLine
10
158.65725
20
-12.698787
30
0
11
158.65725
21
-12.947388
31
0
39
0
210
0
220
0
230
1
0
LINE
5
A3
100
AcDbEntity
8
1
62
256
6
ByLayer
370
18
48
1
60
0
100
AcDbLine
10
159.325
20
12.402046
30
0
11
159.325
21
11.55665
31
0
39
0
210
0
220
0
230
1
0
LINE
5
A4
100
AcDbEntity
8
1
62
256
6
ByLayer
370
18
48
1
60
0
100
AcDbLine
10
159.325
20
-11.55665
30
0
11
159.325
21
-12.402046
31
0
39
0
210
0
220
0
230
1
0
LINE
5
A5
100
AcDbEntity
8
1
62
256
6
ByLayer
370
18
48
1
60
0
100
AcDbLine
10
158.65725
20
13.851121
30
0
11
158.65725
21
13.657983
31
0
39
0
210
0
220
0
230
1
0
LINE
5
A6
100
AcDbEntity
8
1
62
256
6
ByLayer
370
18
48
1
60
0
100
AcDbLine
10
158.65725
20
-13.657983
30
0
11
158.65725
21
-13.851121
31
0
39
0
210
0
220
0
230
1
0
LINE
5
A7
100
AcDbEntity
8
1
62
256
6
ByLayer
370
18
48
1
60
0
100
AcDbLine
10
159.325
20
13.299356
30
0
11
159.325
21
12.648875
31
0
39
0
210
0
220
0
230
1
0
LINE
5
A8
100
AcDbEntity
8
1
62
256
6
ByLayer
370
18
48
1
60
0
100
AcDbLine
10
159.325
20
-12.648875
30
0
11
159.325
21
-13.299356
31
0
39
0
210
0
220
0
230
1
0
LINE
5
A9
100
AcDbEntity
8
1
62
256
6
ByLayer
370
18
48
1
60
0
100
AcDbLine
10
158.65725
20
-14.398673
30
0
11
158.65725
21
-14.545523
31
0
39
0
210
0
220
0
230
1
0
LINE
5
AA
100
AcDbEntity
8
1
62
256
6
ByLayer
370
18
48
1
60
0
100
AcDbLine
10
158.65725
20
14.545523
30
0
11
158.65725
21
14.398673
31
0
39
0
210
0
220
0
230
1
0
LINE
5
AB
100
AcDbEntity
8
1
62
256
6
ByLayer
370
18
48
1
60
0
100
AcDbLine
10
159.325
20
13.979806
30
0
11
159.325
21
13.488214
31
0
39
0
210
0
220
0
230
1
0
LINE
5
AC
100
AcDbEntity
8
1
62
256
6
ByLayer
370
18
48
1
60
0
100
AcDbLine
10
159.325
20
-13.488214
30
0
11
159.325
21
-13.979806
31
0
39
0
210
0
220
0
230
1
0
LINE
5
AD
100
AcDbEntity
8
1
62
256
6
ByLayer
370
18
48
1
60
0
100
AcDbLine
10
158.65725
20
15.05958
30
0
11
158.65725
21
14.953364
31
0
39
0
210
0
220
0
230
1
0
LINE
5
AE
100
AcDbEntity
8
1
62
256
6
ByLayer
370
18
48
1
60
0
100
AcDbLine
10
158.65725
20
-14.953364
30
0
11
158.65725
21
-15.05958
31
0
39
0
210
0
220
0
230
1
0
LINE
5
AF
100
AcDbEntity
8
1
62
256
6
ByLayer
370
18
48
1
60
0
100
AcDbLine
10
159.325
20
-14.119837
30
0
11
159.325
21
-14.474015
31
0
39
0
210
0
220
0
230
1
0
LINE
5
B0
100
AcDbEntity
8
1
62
256
6
ByLayer
370
18
48
1
60
0
100
AcDbLine
10
159.325
20
14.474015
30
0
11
159.325
21
14.119837
31
0
39
0
210
0
220
0
230
1
0
LINE
5
B1
100
AcDbEntity
8
1
62
256
6
ByLayer
370
18
48
1
60
0
100
AcDbLine
10
158.65725
20
-15.342243
30
0
11
158.65725
21
-15.411348
31
0
39
0
210
0
220
0
230
1
0
LINE
5
B2
100
AcDbEntity
8
1
62
256
6
ByLayer
370
18
48
1
60
0
100
AcDbLine
10
158.65725
20
15.411348
30
0
11
158.65725
21
15.342243
31
0
39
0
210
0
220
0
230
1
0
LINE
5
B3
100
AcDbEntity
8
1
62
256
6
ByLayer
370
18
48
1
60
0
100
AcDbLine
10
159.325
20
14.800649
30
0
11
159.325
21
14.570782
31
0
39
0
210
0
220
0
230
1
0
LINE
5
B4
100
AcDbEntity
8
1
62
256
6
ByLayer
370
18
48
1
60
0
100
AcDbLine
10
159.325
20
-14.570782
30
0
11
159.325
21
-14.800649
31
0
39
0
210
0
220
0
230
1
0
LINE
5
B5
100
AcDbEntity
8
1
62
256
6
ByLayer
370
18
48
1
60
0
100
AcDbLine
10
158.65725
20
-15.577731
30
0
11
158.65725
21
-15.611801
31
0
39
0
210
0
220
0
230
1
0
LINE
5
B6
100
AcDbEntity
8
1
62
256
6
ByLayer
370
18
48
1
60
0
100
AcDbLine
10
158.65725
20
15.611801
30
0
11
158.65725
21
15.577731
31
0
39
0
210
0
220
0
230
1
0
LINE
5
B7
100
AcDbEntity
8
1
62
256
6
ByLayer
370
18
48
1
60
0
100
AcDbLine
10
159.325
20
14.970682
30
0
11
159.325
21
14.857509
31
0
39
0
210
0
220
0
230
1
0
LINE
5
B8
100
AcDbEntity
8
1
62
256
6
ByLayer
370
18
48
1
60
0
100
AcDbLine
10
159.325
20
-14.857509
30
0
11
159.325
21
-14.970682
31
0
39
0
210
0
220
0
230
1
0
LINE
5
B9
100
AcDbEntity
8
SK1
62
256
6
ByLayer
370
18
48
1
60
0
100
AcDbLine
10
168.325
20
12.028175
30
0
11
163.325
21
12.028175
31
0
39
0
210
0
220
0
230
1
0
LINE
5
BA
100
AcDbEntity
8
SK1
62
256
6
ByLayer
370
18
48
1
60
0
100
AcDbLine
10
163.325
20
3.528175
30
0
11
168.325
21
3.528175
31
0
39
0
210
0
220
0
230
1
0
LINE
5
BB
100
AcDbEntity
8
SK1
62
256
6
ByLayer
370
18
48
1
60
0
100
AcDbLine
10
163.325
20
10.278175
30
0
11
159.325
21
10.278175
31
0
39
0
210
0
220
0
230
1
0
LINE
5
BC
100
AcDbEntity
8
SK1
62
256
6
ByLayer
370
18
48
1
60
0
100
AcDbLine
10
159.325
20
5.278175
30
0
11
163.325
21
5.278175
31
0
39
0
210
0
220
0
230
1
0
LINE
5
BD
100
AcDbEntity
8
SK1
62
256
6
ByLayer
370
18
48
1
60
0
100
AcDbLine
10
168.325
20
-3.528175
30
0
11
163.325
21
-3.528175
31
0
39
0
210
0
220
0
230
1
0
LINE
5
BE
100
AcDbEntity
8
SK1
62
256
6
ByLayer
370
18
48
1
60
0
100
AcDbLine
10
163.325
20
-12.028175
30
0
11
168.325
21
-12.028175
31
0
39
0
210
0
220
0
230
1
0
LINE
5
BF
100
AcDbEntity
8
SK1
62
256
6
ByLayer
370
18
48
1
60
0
100
AcDbLine
10
163.325
20
-5.278175
30
0
11
159.325
21
-5.278175
31
0
39
0
210
0
220
0
230
1
0
LINE
5
C0
100
AcDbEntity
8
SK1
62
256
6
ByLayer
370
18
48
1
60
0
100
AcDbLine
10
159.325
20
-10.278175
30
0
11
163.325
21
-10.278175
31
0
39
0
210
0
220
0
230
1
0
LINE
5
C1
100
AcDbEntity
8
1
62
256
6
ByLayer
370
18
48
1
60
0
100
AcDbLine
10
22
20
31.5
30
0
11
22
21
-31.5
31
0
39
0
210
0
220
0
230
1
0
LINE
5
C2
100
AcDbEntity
8
1
62
256
6
ByLayer
370
18
48
1
60
0
100
AcDbLine
10
24.961619
20
20.447086
30
0
11
24.961619
21
-20.447086
31
0
39
0
210
0
220
0
230
1
0
LINE
5
C3
100
AcDbEntity
8
1
62
256
6
ByLayer
370
18
48
1
60
0
100
AcDbLine
10
0.3
20
31.5
30
0
11
0.3
21
-31.5
31
0
39
0
210
0
220
0
230
1
0
LINE
5
C4
100
AcDbEntity
8
1
62
256
6
ByLayer
370
18
48
1
60
0
100
AcDbLine
10
0
20
-31.2
30
0
11
0
21
31.2
31
0
39
0
210
0
220
0
230
1
0
LINE
5
C5
100
AcDbEntity
8
SK1
62
256
6
ByLayer
370
18
48
1
60
0
100
AcDbLine
10
-0.2
20
-7.066356
30
0
11
-0.2
21
-6.834385
31
0
39
0
210
0
220
0
230
1
0
LINE
5
C6
100
AcDbEntity
8
SK1
62
256
6
ByLayer
370
18
48
1
60
0
100
AcDbLine
10
-1.307107
20
4.695915
30
0
11
-1.307107
21
-4.695917
31
0
39
0
210
0
220
0
230
1
0
LINE
5
C7
100
AcDbEntity
8
SK1
62
256
6
ByLayer
370
18
48
1
60
0
100
AcDbLine
10
-0.2
20
6.834385
30
0
11
-0.2
21
7.066357
31
0
39
0
210
0
220
0
230
1
0
LINE
5
C8
100
AcDbEntity
8
SK1
62
256
6
ByLayer
370
18
48
1
60
0
100
AcDbLine
10
-0.2
20
-22.45
30
0
11
-0.2
21
-7.454102
31
0
39
0
210
0
220
0
230
1
0
LINE
5
C9
100
AcDbEntity
8
SK1
62
256
6
ByLayer
370
18
48
1
60
0
100
AcDbLine
10
-0.2
20
7.454103
30
0
11
-0.2
21
22.45
31
0
39
0
210
0
220
0
230
1
0
LINE
5
CA
100
AcDbEntity
8
1
62
256
6
ByLayer
370
18
48
1
60
0
100
AcDbLine
10
30.757174
20
16
30
0
11
30.757174
21
-16
31
0
39
0
210
0
220
0
230
1
0
LINE
5
CB
100
AcDbEntity
8
1
62
256
6
ByLayer
370
18
48
1
60
0
100
AcDbLine
10
156.7
20
-16
30
0
11
156.7
21
0
31
0
39
0
210
0
220
0
230
1
0
LINE
5
CC
100
AcDbEntity
8
1
62
256
6
ByLayer
370
18
48
1
60
0
100
AcDbLine
10
157
20
15.7
30
0
11
157
21
0
31
0
39
0
210
0
220
0
230
1
0
LINE
5
CD
100
AcDbEntity
8
1
62
256
6
ByLayer
370
18
48
1
60
0
100
AcDbLine
10
157
20
0
30
0
11
157
21
-15.7
31
0
39
0
210
0
220
0
230
1
0
LINE
5
CE
100
AcDbEntity
8
1
62
256
6
ByLayer
370
18
48
1
60
0
100
AcDbLine
10
156.7
20
0
30
0
11
156.7
21
16
31
0
39
0
210
0
220
0
230
1
0
LINE
5
CF
100
AcDbEntity
8
1
62
256
6
ByLayer
370
18
48
1
60
0
100
AcDbLine
10
158.325
20
16
30
0
11
158.325
21
-16
31
0
39
0
210
0
220
0
230
1
0
LINE
5
D0
100
AcDbEntity
8
1
62
256
6
ByLayer
370
18
48
1
60
0
100
AcDbLine
10
159.325
20
14.989445
30
0
11
159.325
21
14.970682
31
0
39
0
210
0
220
0
230
1
0
LINE
5
D1
100
AcDbEntity
8
1
62
256
6
ByLayer
370
18
48
1
60
0
100
AcDbLine
10
159.325
20
14.857509
30
0
11
159.325
21
14.800649
31
0
39
0
210
0
220
0
230
1
0
LINE
5
D2
100
AcDbEntity
8
1
62
256
6
ByLayer
370
18
48
1
60
0
100
AcDbLine
10
159.325
20
14.570782
30
0
11
159.325
21
14.474015
31
0
39
0
210
0
220
0
230
1
0
LINE
5
D3
100
AcDbEntity
8
1
62
256
6
ByLayer
370
18
48
1
60
0
100
AcDbLine
10
159.325
20
14.119837
30
0
11
159.325
21
13.979806
31
0
39
0
210
0
220
0
230
1
0
LINE
5
D4
100
AcDbEntity
8
1
62
256
6
ByLayer
370
18
48
1
60
0
100
AcDbLine
10
159.325
20
13.488214
30
0
11
159.325
21
13.299356
31
0
39
0
210
0
220
0
230
1
0
LINE
5
D5
100
AcDbEntity
8
1
62
256
6
ByLayer
370
18
48
1
60
0
100
AcDbLine
10
159.325
20
12.648875
30
0
11
159.325
21
12.402046
31
0
39
0
210
0
220
0
230
1
0
LINE
5
D6
100
AcDbEntity
8
1
62
256
6
ByLayer
370
18
48
1
60
0
100
AcDbLine
10
159.325
20
11.55665
30
0
11
159.325
21
11.236042
31
0
39
0
210
0
220
0
230
1
0
LINE
5
D7
100
AcDbEntity
8
1
62
256
6
ByLayer
370
18
48
1
60
0
100
AcDbLine
10
159.325
20
10.130067
30
0
11
159.325
21
9.704974
31
0
39
0
210
0
220
0
230
1
0
LINE
5
D8
100
AcDbEntity
8
1
62
256
6
ByLayer
370
18
48
1
60
0
100
AcDbLine
10
159.325
20
8.196364
30
0
11
159.325
21
7.591074
31
0
39
0
210
0
220
0
230
1
0
LINE
5
D9
100
AcDbEntity
8
1
62
256
6
ByLayer
370
18
48
1
60
0
100
AcDbLine
10
159.325
20
5.219435
30
0
11
159.325
21
4.069679
31
0
39
0
210
0
220
0
230
1
0
LINE
5
DA
100
AcDbEntity
8
1
62
256
6
ByLayer
370
18
48
1
60
0
100
AcDbLine
10
159.325
20
-4.069679
30
0
11
159.325
21
-5.219435
31
0
39
0
210
0
220
0
230
1
0
LINE
5
DB
100
AcDbEntity
8
1
62
256
6
ByLayer
370
18
48
1
60
0
100
AcDbLine
10
159.325
20
-7.591074
30
0
11
159.325
21
-8.196364
31
0
39
0
210
0
220
0
230
1
0
LINE
5
DC
100
AcDbEntity
8
1
62
256
6
ByLayer
370
18
48
1
60
0
100
AcDbLine
10
159.325
20
-9.704974
30
0
11
159.325
21
-10.130067
31
0
39
0
210
0
220
0
230
1
0
LINE
5
DD
100
AcDbEntity
8
1
62
256
6
ByLayer
370
18
48
1
60
0
100
AcDbLine
10
159.325
20
-11.236042
30
0
11
159.325
21
-11.55665
31
0
39
0
210
0
220
0
230
1
0
LINE
5
DE
100
AcDbEntity
8
1
62
256
6
ByLayer
370
18
48
1
60
0
100
AcDbLine
10
159.325
20
-12.402046
30
0
11
159.325
21
-12.648875
31
0
39
0
210
0
220
0
230
1
0
LINE
5
DF
100
AcDbEntity
8
1
62
256
6
ByLayer
370
18
48
1
60
0
100
AcDbLine
10
159.325
20
-13.299356
30
0
11
159.325
21
-13.488214
31
0
39
0
210
0
220
0
230
1
0
LINE
5
E0
100
AcDbEntity
8
1
62
256
6
ByLayer
370
18
48
1
60
0
100
AcDbLine
10
159.325
20
-13.979806
30
0
11
159.325
21
-14.119837
31
0
39
0
210
0
220
0
230
1
0
LINE
5
E1
100
AcDbEntity
8
1
62
256
6
ByLayer
370
18
48
1
60
0
100
AcDbLine
10
159.325
20
-14.474015
30
0
11
159.325
21
-14.570782
31
0
39
0
210
0
220
0
230
1
0
LINE
5
E2
100
AcDbEntity
8
1
62
256
6
ByLayer
370
18
48
1
60
0
100
AcDbLine
10
159.325
20
-14.800649
30
0
11
159.325
21
-14.857509
31
0
39
0
210
0
220
0
230
1
0
LINE
5
E3
100
AcDbEntity
8
1
62
256
6
ByLayer
370
18
48
1
60
0
100
AcDbLine
10
159.325
20
-14.970682
30
0
11
159.325
21
-14.989445
31
0
39
0
210
0
220
0
230
1
0
LINE
5
E4
100
AcDbEntity
8
1
62
256
6
ByLayer
370
18
48
1
60
0
100
AcDbLine
10
157.3
20
16
30
0
11
157.3
21
0
31
0
39
0
210
0
220
0
230
1
0
LINE
5
E5
100
AcDbEntity
8
1
62
256
6
ByLayer
370
18
48
1
60
0
100
AcDbLine
10
157
20
-15.7
30
0
11
157
21
0
31
0
39
0
210
0
220
0
230
1
0
LINE
5
E6
100
AcDbEntity
8
1
62
256
6
ByLayer
370
18
48
1
60
0
100
AcDbLine
10
157.3
20
0
30
0
11
157.3
21
-16
31
0
39
0
210
0
220
0
230
1
0
LINE
5
E7
100
AcDbEntity
8
1
62
256
6
ByLayer
370
18
48
1
60
0
100
AcDbLine
10
157
20
0
30
0
11
157
21
15.7
31
0
39
0
210
0
220
0
230
1
0
LINE
5
E8
100
AcDbEntity
8
SK1
62
256
6
ByLayer
370
18
48
1
60
0
100
AcDbLine
10
168.325
20
12.028175
30
0
11
168.325
21
7.778175
31
0
39
0
210
0
220
0
230
1
0
LINE
5
E9
100
AcDbEntity
8
SK1
62
256
6
ByLayer
370
18
48
1
60
0
100
AcDbLine
10
163.325
20
12.028175
30
0
11
163.325
21
7.778175
31
0
39
0
210
0
220
0
230
1
0
LINE
5
EA
100
AcDbEntity
8
SK1
62
256
6
ByLayer
370
18
48
1
60
0
100
AcDbLine
10
168.325
20
7.778175
30
0
11
168.325
21
3.528175
31
0
39
0
210
0
220
0
230
1
0
LINE
5
EB
100
AcDbEntity
8
SK1
62
256
6
ByLayer
370
18
48
1
60
0
100
AcDbLine
10
163.325
20
7.778175
30
0
11
163.325
21
3.528175
31
0
39
0
210
0
220
0
230
1
0
LINE
5
EC
100
AcDbEntity
8
SK1
62
256
6
ByLayer
370
18
48
1
60
0
100
AcDbLine
10
168.325
20
-3.528175
30
0
11
168.325
21
-7.778175
31
0
39
0
210
0
220
0
230
1
0
LINE
5
ED
100
AcDbEntity
8
SK1
62
256
6
ByLayer
370
18
48
1
60
0
100
AcDbLine
10
163.325
20
-3.528175
30
0
11
163.325
21
-7.778175
31
0
39
0
210
0
220
0
230
1
0
LINE
5
EE
100
AcDbEntity
8
SK1
62
256
6
ByLayer
370
18
48
1
60
0
100
AcDbLine
10
168.325
20
-7.778175
30
0
11
168.325
21
-12.028175
31
0
39
0
210
0
220
0
230
1
0
LINE
5
EF
100
AcDbEntity
8
SK1
62
256
6
ByLayer
370
18
48
1
60
0
100
AcDbLine
10
163.325
20
-7.778175
30
0
11
163.325
21
-12.028175
31
0
39
0
210
0
220
0
230
1
0
LINE
5
F0
100
AcDbEntity
8
SK1
62
256
6
ByLayer
370
18
48
1
60
0
100
AcDbLine
10
-3
20
-22
30
0
11
-3
21
22
31
0
39
0
210
0
220
0
230
1
0
LINE
5
F1
100
AcDbEntity
8
SK1
62
256
6
ByLayer
370
18
48
1
60
0
100
AcDbLine
10
-2.2
20
-13.01722
30
0
11
-2.2
21
-18.805799
31
0
39
0
210
0
220
0
230
1
0
LINE
5
F2
100
AcDbEntity
8
SK1
62
256
6
ByLayer
370
18
48
1
60
0
100
AcDbLine
10
-2.2
20
18.805799
30
0
11
-2.2
21
13.017221
31
0
39
0
210
0
220
0
230
1
0
LINE
5
F3
100
AcDbEntity
8
SK1
62
256
6
ByLayer
370
18
48
1
60
0
100
AcDbLine
10
-2.2
20
13.017221
30
0
11
-2.2
21
-13.01722
31
0
39
0
210
0
220
0
230
1
0
LINE
5
F4
100
AcDbEntity
8
SK1
62
256
6
ByLayer
370
18
48
1
60
0
100
AcDbLine
10
-2
20
21.825128
30
0
11
-2
21
-21.825128
31
0
39
0
210
0
220
0
230
1
0
LINE
5
F5
100
AcDbEntity
8
SK1
62
256
6
ByLayer
370
18
48
1
60
0
100
AcDbLine
10
-0.4
20
21.825128
30
0
11
-0.4
21
6.104232
31
0
39
0
210
0
220
0
230
1
0
LINE
5
F6
100
AcDbEntity
8
SK1
62
256
6
ByLayer
370
18
48
1
60
0
100
AcDbLine
10
-0.4
20
-6.104232
30
0
11
-0.4
21
-21.825128
31
0
39
0
210
0
220
0
230
1
0
LINE
5
F7
100
AcDbEntity
8
SK1
62
256
6
ByLayer
370
18
48
1
60
0
100
AcDbLine
10
-36.500473
20
21.157872
30
0
11
-36.500473
21
-21.157996
31
0
39
0
210
0
220
0
230
1
0
LINE
5
F8
100
AcDbEntity
8
SK1
62
256
6
ByLayer
370
18
48
1
60
0
100
AcDbLine
10
-38
20
-20.239988
30
0
11
-38
21
20.247289
31
0
39
0
210
0
220
0
230
1
0
MTEXT
5
17B
100
AcDbEntity
8
SK6
62
256
6
ByLayer
370
13
48
1
60
0
100
AcDbMText
10
0.160671
20
72.748496
30
0
210
0
220
0
230
1
1
\W0.7027;C6-570-3C 32 159
40
3.175
41
0
44
1.084337
50
0
71
7
72
5
7
iso_b_vert
0
DIMENSION
5
189
100
AcDbEntity
8
2
62
256
6
ByLayer
370
13
48
1
60
0
100
AcDbDimension
2
DimnDraft3D1
10
159
20
58.246097
30
0
11
76.813783
21
58.246097
31
0
70
32
71
5
72
1
41
1
210
0
220
0
230
1
3
Standard
100
AcDbAlignedDimension
13
0
23
1.5875
33
0
14
159
24
1.5875
34
0
50
0
100
AcDbRotatedDimension
1001
ACAD
1000
DSTYLE
1002
{
1070
   279
1070
     0
1070
   173
1070
     1
1070
   340
1005
17C
1070
   271
1070
     1
1070
   272
1070
     2
1070
    77
1070
     1
1070
    73
1070
     0
1070
   171
1070
     3
1070
   274
1070
     4
1070
   177
1070
     7
1070
   176
1070
     7
1070
   178
1070
     7
1070
    78
1070
     8
1070
    48
1040
-0.005
1070
    41
1041
3.175
1070
   147
1041
1.5875
1070
    42
1041
1.5875
1070
    44
1041
3.175
1070
   140
1041
3.175
1070
   343
1005
0
1070
   344
1005
0
1002
}
0
DIMENSION
5
194
100
AcDbEntity
8
SK2
62
256
6
ByLayer
370
13
48
1
60
0
100
AcDbDimension
2
DimnDraft3D2
10
22
20
-45.049497
30
0
11
9.103355
21
-45.049497
31
0
70
32
71
5
72
1
41
1
210
0
220
0
230
1
3
Standard
100
AcDbAlignedDimension
13
0
23
-32.7875
33
0
14
22
24
-33.0875
34
0
50
0
100
AcDbRotatedDimension
1001
ACAD
1000
DSTYLE
1002
{
1070
   279
1070
     0
1070
   173
1070
     1
1070
   340
1005
17C
1070
   271
1070
     1
1070
   272
1070
     2
1070
    77
1070
     1
1070
    73
1070
     0
1070
   171
1070
     3
1070
   274
1070
     4
1070
   177
1070
     7
1070
   176
1070
     7
1070
   178
1070
     7
1070
    78
1070
     8
1070
    48
1040
-0.005
1070
    41
1041
3.175
1070
   147
1041
1.5875
1070
    42
1041
1.5875
1070
    44
1041
3.175
1070
   140
1041
3.175
1070
   343
1005
0
1070
   344
1005
0
1002
}
0
DIMENSION
5
19C
100
AcDbEntity
8
SK2
62
256
6
ByLayer
370
13
48
1
60
0
100
AcDbDimension
2
DimnDraft3D3
10
30.757174
20
22
30
0
11
45.731344
21
36.083938
31
0
70
36
71
5
72
1
41
1
210
0
220
0
230
1
3
Standard
100
AcDbRadialDimension
15
0
25
0
35
0
40
0
1001
ACAD
1000
DSTYLE
1002
{
1070
   279
1070
     0
1070
   173
1070
     1
1070
   340
1005
17C
1070
    75
1070
     1
1070
    76
1070
     1
1070
   271
1070
     1
1070
   272
1070
     2
1070
    77
1070
     1
1070
    73
1070
     0
1070
   171
1070
     3
1070
   274
1070
     4
1070
   177
1070
     7
1070
   176
1070
     7
1070
   178
1070
     7
1070
    78
1070
     8
1070
    48
1040
-0.005
1070
    41
1041
3.175
1070
   147
1041
1.5875
1070
    42
1041
1.5875
1070
    44
1041
3.175
1070
   140
1041
3.175
1070
   343
1005
0
1070
   344
1005
0
1002
}
0
DIMENSION
5
1A7
100
AcDbEntity
8
SK2
62
256
6
ByLayer
370
13
48
1
60
0
100
AcDbDimension
2
DimnDraft3D4
10
195.256657
20
-16
30
0
11
195.256657
21
22.958163
31
0
70
32
71
5
72
1
41
1
210
0
220
0
230
1
3
Standard
100
AcDbAlignedDimension
13
159.9125
23
16
33
0
14
159.9125
24
-16
34
0
50
90
100
AcDbRotatedDimension
1001
ACAD
1000
DSTYLE
1002
{
1070
    74
1070
     0
1070
   279
1070
     0
1070
   173
1070
     1
1070
   340
1005
17C
1070
   271
1070
     1
1070
   272
1070
     2
1070
    77
1070
     1
1070
    73
1070
     0
1070
   171
1070
     3
1070
   274
1070
     4
1070
   177
1070
     7
1070
   176
1070
     7
1070
   178
1070
     7
1070
    78
1070
     8
1070
    48
1040
-0.005
1070
    41
1041
3.175
1070
   147
1041
1.5875
1070
    42
1041
1.5875
1070
    44
1041
3.175
1070
   140
1041
3.175
1070
   343
1005
0
1070
   344
1005
0
1002
}
0
DIMENSION
5
1B2
100
AcDbEntity
8
SK2
62
256
6
ByLayer
370
13
48
1
60
0
100
AcDbDimension
2
DimnDraft3D5
10
-58.366789
20
-31.5
30
0
11
-58.366789
21
-6.659145
31
0
70
32
71
5
72
1
41
1
210
0
220
0
230
1
3
Standard
100
AcDbAlignedDimension
13
-1.2875
23
31.5
33
0
14
-1.2875
24
-31.5
34
0
50
90
100
AcDbRotatedDimension
1001
ACAD
1000
DSTYLE
1002
{
1070
    74
1070
     0
1070
   279
1070
     0
1070
   173
1070
     1
1070
   340
1005
17C
1070
   271
1070
     1
1070
   272
1070
     2
1070
    77
1070
     1
1070
    73
1070
     0
1070
   171
1070
     3
1070
   274
1070
     4
1070
   177
1070
     7
1070
   176
1070
     7
1070
   178
1070
     7
1070
    78
1070
     8
1070
    48
1040
-0.005
1070
    41
1041
3.175
1070
   147
1041
1.5875
1070
    42
1041
1.5875
1070
    44
1041
3.175
1070
   140
1041
3.175
1070
   343
1005
0
1070
   344
1005
0
1002
}
0
ENDSEC
0
SECTION
2
OBJECTS
0
DICTIONARY
5
227
330
0
100
AcDbDictionary
280
0
281
1
3
ACAD_GROUP
350
228
3
ACAD_MLINESTYLE
350
229
0
DICTIONARY
5
228
330
0
100
AcDbDictionary
280
0
281
1
0
DICTIONARY
5
229
330
0
100
AcDbDictionary
280
0
281
1
3
Standard
350
18
0
MLINESTYLE
5
18
330
229
100
AcDbMlineStyle
2
Standard
70
0
3

62
256
51
90
52
90
71
2
49
-0.5
62
256
6
ByLayer
49
0.5
62
256
6
ByLayer
0
RASTERVARIABLES
5
215
330

100
AcDbRasterVariables
90
0
70
1
71
1
72
1
0
ENDSEC
0
EOF
