0
SECTION
2
HEADER
9
$ACADVER
1
AC1015
9
$DWGCODEPAGE
3
ANSI_1252
9
$HANDSEED
5
29f
9
$ANGBASE
50
0
9
$ANGDIR
70
0
9
$ATTMODE
70
1
9
$AUNITS
70
0
9
$AUPREC
70
0
9
$CECOLOR
62
256
9
$CELTSCALE
40
1
9
$CELTYPE
6
ByLayer
9
$CELWEIGHT
370
18
9
$CLAYER
8
0
9
$CMLJUST
70
0
9
$CMLSCALE
40
1
9
$CMLSTYLE
2
Standard
9
$DIMSTYLE
2
Standard
9
$TEXTSIZE
40
0.2
9
$TEXTSTYLE
7
Standard
9
$LUNITS
70
2
9
$LUPREC
70
4
9
$EXTNAMES
290
1
9
$INSUNITS
70
4
9
$LTSCALE
40
1
9
$LWDISPLAY
290
1
9
$PDMODE
70
0
9
$PDSIZE
40
0
9
$PLINEGEN
70
0
0
ENDSEC
0
SECTION
2
CLASSES
0
CLASS
1
RASTERVARIABLES
2
AcDbRasterVariables
3
ISM
90
0
280
0
281
0
0
ENDSEC
0
SECTION
2
TABLES
0
TABLE
2
VPORT
5
295
100
AcDbSymbolTable
0
VPORT
5
1
100
AcDbSymbolTableRecord
100
AcDbViewportTableRecord
2
*Active
70
0
10
0
20
0
11
1
21
1
12
-1
22
1
13
0
23
0
14
0.5
24
0.5
15
10
25
10
16
0
26
0
36
1
17
0
27
0
37
0
0
ENDTAB
0
TABLE
2
LTYPE
5
296
100
AcDbSymbolTable
0
LTYPE
5
14
100
AcDbSymbolTableRecord
100
AcDbLinetypeTableRecord
70
0
2
ByBlock
3

72
65
73
0
40
0
0
LTYPE
5
15
100
AcDbSymbolTableRecord
100
AcDbLinetypeTableRecord
70
0
2
ByLayer
3

72
65
73
0
40
0
0
LTYPE
5
16
100
AcDbSymbolTableRecord
100
AcDbLinetypeTableRecord
70
0
2
CONTINUOUS
3
Solid line
72
65
73
0
40
0
0
LTYPE
5
6A
100
AcDbSymbolTableRecord
100
AcDbLinetypeTableRecord
70
0
2
CENTER
3
____ _ ____ _ ____ _ ____
72
65
73
4
40
47.5
49
22
74
0
49
-8.5
74
0
49
8.5
74
0
49
-8.5
74
0
0
LTYPE
5
6B
100
AcDbSymbolTableRecord
100
AcDbLinetypeTableRecord
70
0
2
DASHED
3
__ __ __ __ __ __ __ __ __
72
65
73
2
40
25.72
49
12.86
74
0
49
-12.86
74
0
0
ENDTAB
0
TABLE
2
LAYER
5
297
100
AcDbSymbolTable
0
LAYER
5
10
100
AcDbSymbolTableRecord
100
AcDbLayerTableRecord
2
0
70
0
62
7
6
CONTINUOUS
290
1
370
-3
390
0
0
LAYER
5
6D
100
AcDbSymbolTableRecord
100
AcDbLayerTableRecord
2
80
70
0
62
-6
6
CONTINUOUS
290
1
370
-3
390
0
0
LAYER
5
6F
100
AcDbSymbolTableRecord
100
AcDbLayerTableRecord
2
81
70
0
62
-3
6
CONTINUOUS
290
1
370
-3
390
0
0
LAYER
5
76
100
AcDbSymbolTableRecord
100
AcDbLayerTableRecord
2
1
70
0
62
4
6
CONTINUOUS
290
1
370
-3
390
0
0
LAYER
5
98
100
AcDbSymbolTableRecord
100
AcDbLayerTableRecord
2
4
70
0
62
-2
6
CENTER
290
1
370
-3
390
0
0
LAYER
5
1FE
100
AcDbSymbolTableRecord
100
AcDbLayerTableRecord
2
2
70
0
62
7
6
CONTINUOUS
290
1
370
-3
390
0
0
LAYER
5
281
100
AcDbSymbolTableRecord
100
AcDbLayerTableRecord
2
SK2
70
0
62
7
6
CONTINUOUS
290
1
370
-3
390
0
0
LAYER
5
282
100
AcDbSymbolTableRecord
100
AcDbLayerTableRecord
2
SK1
70
0
62
4
6
CONTINUOUS
290
1
370
-3
390
0
0
LAYER
5
283
100
AcDbSymbolTableRecord
100
AcDbLayerTableRecord
2
SK4
70
0
62
2
6
CENTER
290
1
370
-3
390
0
0
LAYER
5
284
100
AcDbSymbolTableRecord
100
AcDbLayerTableRecord
2
SK6
70
0
62
5
6
CONTINUOUS
290
1
370
-3
390
0
0
ENDTAB
0
TABLE
2
STYLE
5
298
100
AcDbSymbolTable
0
STYLE
5
11
100
AcDbSymbolTableRecord
100
AcDbTextStyleTableRecord
2
Standard
3
txt
70
0
71
0
40
0
41
1
42
0
50
0
0
STYLE
5
1E5
100
AcDbSymbolTableRecord
100
AcDbTextStyleTableRecord
2
iso_b_vert
3
simplex.shx
70
0
71
0
40
0
41
1
42
0
50
0
0
STYLE
5
1E6
100
AcDbSymbolTableRecord
100
AcDbTextStyleTableRecord
2
DWGDirectTextStyle
3
simplex
70
0
71
0
40
0
41
1
42
0
50
0
0
ENDTAB
0
TABLE
2
DIMSTYLE
5
299
100
AcDbSymbolTable
100
AcDbDimStyleTable
0
DIMSTYLE
105
27
100
AcDbSymbolTableRecord
100
AcDbDimStyleTableRecord
2
Standard
70
0
3
<>
41
0.18
42
0.0625
44
0.18
140
0.18
147
0.09
73
0
74
0
77
1
271
2
275
0
278
52
280
0
340
11
0
ENDTAB
0
TABLE
2
VIEW
5
29a
100
AcDbSymbolTable
0
ENDTAB
0
TABLE
2
UCS
5
29b
100
AcDbSymbolTable
0
ENDTAB
0
TABLE
2
APPID
5
29c
100
AcDbSymbolTable
0
APPID
5
12
100
AcDbSymbolTableRecord
100
AcDbRegAppTableRecord
2
ACAD
70
0
0
ENDTAB
0
TABLE
2
BLOCK_RECORD
5
29d
100
AcDbSymbolTable
0
BLOCK_RECORD
5
1F
100
AcDbSymbolTableRecord
100
AcDbBlockTableRecord
2
*Model_Space
340
0
70
0
0
BLOCK_RECORD
5
1B
100
AcDbSymbolTableRecord
100
AcDbBlockTableRecord
2
*Paper_Space
340
0
70
0
0
BLOCK_RECORD
5
23
100
AcDbSymbolTableRecord
100
AcDbBlockTableRecord
2
*Paper_Space0
340
0
70
0
0
BLOCK_RECORD
5
1E8
100
AcDbSymbolTableRecord
100
AcDbBlockTableRecord
2
DimnDraft3D1
340
0
70
0
0
BLOCK_RECORD
5
1F2
100
AcDbSymbolTableRecord
100
AcDbBlockTableRecord
2
DimnDraft3D2
340
0
70
0
0
BLOCK_RECORD
5
1FC
100
AcDbSymbolTableRecord
100
AcDbBlockTableRecord
2
DimnDraft3D3
340
0
70
0
0
BLOCK_RECORD
5
207
100
AcDbSymbolTableRecord
100
AcDbBlockTableRecord
2
DimnDraft3D4
340
0
70
0
0
BLOCK_RECORD
5
212
100
AcDbSymbolTableRecord
100
AcDbBlockTableRecord
2
DimnDraft3D5
340
0
70
0
0
BLOCK_RECORD
5
21D
100
AcDbSymbolTableRecord
100
AcDbBlockTableRecord
2
DimnDraft3D6
340
0
70
0
0
ENDTAB
0
ENDSEC
0
SECTION
2
BLOCKS
0
BLOCK
5
20
100
AcDbEntity
8
0
100
AcDbBlockBegin
2
*Model_Space
70
0
10
0
20
0
30
0
3
*Model_Space
0
ENDBLK
5
21
100
AcDbEntity
8
0
100
AcDbBlockEnd
0
BLOCK
5
1C
100
AcDbEntity
8
0
100
AcDbBlockBegin
2
*Paper_Space
70
0
10
0
20
0
30
0
3
*Paper_Space
0
ENDBLK
5
1D
100
AcDbEntity
8
0
100
AcDbBlockEnd
0
BLOCK
5
24
100
AcDbEntity
8
0
100
AcDbBlockBegin
2
*Paper_Space0
70
0
10
0
20
0
30
0
3
*Paper_Space0
0
ENDBLK
5
25
100
AcDbEntity
8
0
100
AcDbBlockEnd
0
BLOCK
5
1EF
100
AcDbEntity
8
0
100
AcDbBlockBegin
2
DimnDraft3D1
70
0
10
0
20
0
30
0
3
DimnDraft3D1
0
MTEXT
5
1E9
100
AcDbEntity
8
SK2
62
256
6
ByLayer
370
18
48
1
60
0
100
AcDbMText
10
64.367801
20
38.975134
30
0
210
0
220
0
230
1
1
\W0.7346;88.8
40
3.5
41
0
44
1.084337
50
0
71
7
72
5
7
iso_b_vert
0
LINE
5
1EA
100
AcDbEntity
8
SK2
62
256
6
ByLayer
370
13
48
1
60
0
100
AcDbLine
10
23.2
20
31.5875
30
0
11
23.2
21
40.1
31
0
39
0
210
0
220
0
230
1
0
LINE
5
1EB
100
AcDbEntity
8
SK2
62
256
6
ByLayer
370
13
48
1
60
0
100
AcDbLine
10
112
20
11.5875
30
0
11
112
21
40.1
31
0
39
0
210
0
220
0
230
1
0
LINE
5
1EC
100
AcDbEntity
8
SK2
62
256
6
ByLayer
370
13
48
1
60
0
100
AcDbLine
10
23.2
20
38.1
30
0
11
112
21
38.1
31
0
39
0
210
0
220
0
230
1
0
SOLID
5
1ED
100
AcDbEntity
8
SK2
62
256
6
ByLayer
370
13
48
1
60
0
100
AcDbTrace
10
23.2
20
38.1
30
0
11
26.699998
21
38.560784
31
0
12
26.700002
22
37.639216
32
0
13
23.2
23
38.1
33
0
39
0
210
0
220
0
230
1
0
SOLID
5
1EE
100
AcDbEntity
8
SK2
62
256
6
ByLayer
370
13
48
1
60
0
100
AcDbTrace
10
112
20
38.1
30
0
11
108.500002
21
37.639216
31
0
12
108.499998
22
38.560784
32
0
13
112
23
38.1
33
0
39
0
210
0
220
0
230
1
0
ENDBLK
5
1F0
100
AcDbEntity
8
0
100
AcDbBlockEnd
0
BLOCK
5
1F9
100
AcDbEntity
8
0
100
AcDbBlockBegin
2
DimnDraft3D2
70
0
10
0
20
0
30
0
3
DimnDraft3D2
0
MTEXT
5
1F3
100
AcDbEntity
8
SK2
62
256
6
ByLayer
370
18
48
1
60
0
100
AcDbMText
10
132.013077
20
10.875
30
0
210
0
220
0
230
1
1
\W0.6563;10.0
40
3.5
41
0
44
1.084337
50
90
71
7
72
5
7
iso_b_vert
0
LINE
5
1F4
100
AcDbEntity
8
SK2
62
256
6
ByLayer
370
13
48
1
60
0
100
AcDbLine
10
113.5875
20
-10
30
0
11
134.888211
21
-10
31
0
39
0
210
0
220
0
230
1
0
LINE
5
1F5
100
AcDbEntity
8
SK2
62
256
6
ByLayer
370
13
48
1
60
0
100
AcDbLine
10
113.5875
20
0
30
0
11
134.888211
21
0
31
0
39
0
210
0
220
0
230
1
0
LINE
5
1F6
100
AcDbEntity
8
SK2
62
256
6
ByLayer
370
13
48
1
60
0
100
AcDbLine
10
132.888211
20
-10
30
0
11
132.888211
21
17.339532
31
0
39
0
210
0
220
0
230
1
0
SOLID
5
1F7
100
AcDbEntity
8
SK2
62
256
6
ByLayer
370
13
48
1
60
0
100
AcDbTrace
10
132.888211
20
-10
30
0
11
132.427427
21
-6.500002
31
0
12
133.348994
22
-6.499998
32
0
13
132.888211
23
-10
33
0
39
0
210
0
220
0
230
1
0
SOLID
5
1F8
100
AcDbEntity
8
SK2
62
256
6
ByLayer
370
13
48
1
60
0
100
AcDbTrace
10
132.888211
20
0
30
0
11
133.348994
21
-3.499998
31
0
12
132.427427
22
-3.500002
32
0
13
132.888211
23
0
33
0
39
0
210
0
220
0
230
1
0
ENDBLK
5
1FA
100
AcDbEntity
8
0
100
AcDbBlockEnd
0
BLOCK
5
204
100
AcDbEntity
8
0
100
AcDbBlockBegin
2
DimnDraft3D3
70
0
10
0
20
0
30
0
3
DimnDraft3D3
0
MTEXT
5
1FD
100
AcDbEntity
8
2
62
256
6
ByLayer
370
18
48
1
60
0
100
AcDbMText
10
52.334934
20
48.975134
30
0
210
0
220
0
230
1
1
\W0.6261;112.0
40
3.5
41
0
44
1.084337
50
0
71
7
72
5
7
iso_b_vert
0
LINE
5
1FF
100
AcDbEntity
8
2
62
256
6
ByLayer
370
13
48
1
60
0
100
AcDbLine
10
0
20
33.0875
30
0
11
0
21
50.1
31
0
39
0
210
0
220
0
230
1
0
LINE
5
200
100
AcDbEntity
8
2
62
256
6
ByLayer
370
13
48
1
60
0
100
AcDbLine
10
112
20
11.5875
30
0
11
112
21
50.1
31
0
39
0
210
0
220
0
230
1
0
LINE
5
201
100
AcDbEntity
8
2
62
256
6
ByLayer
370
13
48
1
60
0
100
AcDbLine
10
0
20
48.1
30
0
11
112
21
48.1
31
0
39
0
210
0
220
0
230
1
0
SOLID
5
202
100
AcDbEntity
8
2
62
256
6
ByLayer
370
13
48
1
60
0
100
AcDbTrace
10
0
20
48.1
30
0
11
3.499998
21
48.560784
31
0
12
3.500002
22
47.639216
32
0
13
0
23
48.1
33
0
39
0
210
0
220
0
230
1
0
SOLID
5
203
100
AcDbEntity
8
2
62
256
6
ByLayer
370
13
48
1
60
0
100
AcDbTrace
10
112
20
48.1
30
0
11
108.500002
21
47.639216
31
0
12
108.499998
22
48.560784
32
0
13
112
23
48.1
33
0
39
0
210
0
220
0
230
1
0
ENDBLK
5
205
100
AcDbEntity
8
0
100
AcDbBlockEnd
0
BLOCK
5
20F
100
AcDbEntity
8
0
100
AcDbBlockBegin
2
DimnDraft3D4
70
0
10
0
20
0
30
0
3
DimnDraft3D4
0
MTEXT
5
208
100
AcDbEntity
8
SK2
62
256
6
ByLayer
370
18
48
1
60
0
100
AcDbMText
10
-61.350134
20
3.159534
30
0
210
0
220
0
230
1
1
\W0.6740;63
40
3.5
41
0
44
1.084337
50
90
71
7
72
5
7
iso_b_vert
0
MTEXT
5
209
100
AcDbEntity
8
SK2
62
256
6
ByLayer
370
18
48
1
60
0
100
AcDbMText
10
-61.350134
20
-3.813122
30
0
210
0
220
0
230
1
1
%%c
40
3.5
41
0
44
1.084337
50
90
71
7
72
5
7
iso_b_vert
0
LINE
5
20A
100
AcDbEntity
8
SK2
62
256
6
ByLayer
370
13
48
1
60
0
100
AcDbLine
10
-1.5875
20
31.5
30
0
11
-61.6
21
31.5
31
0
39
0
210
0
220
0
230
1
0
LINE
5
20B
100
AcDbEntity
8
SK2
62
256
6
ByLayer
370
13
48
1
60
0
100
AcDbLine
10
-1.5875
20
-31.5
30
0
11
-61.6
21
-31.5
31
0
39
0
210
0
220
0
230
1
0
LINE
5
20C
100
AcDbEntity
8
SK2
62
256
6
ByLayer
370
13
48
1
60
0
100
AcDbLine
10
-59.6
20
31.5
30
0
11
-59.6
21
-31.5
31
0
39
0
210
0
220
0
230
1
0
SOLID
5
20D
100
AcDbEntity
8
SK2
62
256
6
ByLayer
370
13
48
1
60
0
100
AcDbTrace
10
-59.6
20
31.5
30
0
11
-59.139216
21
28.000002
31
0
12
-60.060784
22
27.999998
32
0
13
-59.6
23
31.5
33
0
39
0
210
0
220
0
230
1
0
SOLID
5
20E
100
AcDbEntity
8
SK2
62
256
6
ByLayer
370
13
48
1
60
0
100
AcDbTrace
10
-59.6
20
-31.5
30
0
11
-60.060784
21
-28.000002
31
0
12
-59.139216
22
-27.999998
32
0
13
-59.6
23
-31.5
33
0
39
0
210
0
220
0
230
1
0
ENDBLK
5
210
100
AcDbEntity
8
0
100
AcDbBlockEnd
0
BLOCK
5
21A
100
AcDbEntity
8
0
100
AcDbBlockBegin
2
DimnDraft3D5
70
0
10
0
20
0
30
0
3
DimnDraft3D5
0
MTEXT
5
213
100
AcDbEntity
8
SK2
62
256
6
ByLayer
370
18
48
1
60
0
100
AcDbMText
10
141.138077
20
-7.024733
30
0
210
0
220
0
230
1
1
\W0.7361;40
40
3.5
41
0
44
1.084337
50
90
71
7
72
5
7
iso_b_vert
0
MTEXT
5
214
100
AcDbEntity
8
SK2
62
256
6
ByLayer
370
18
48
1
60
0
100
AcDbMText
10
141.138077
20
-13.997389
30
0
210
0
220
0
230
1
1
%%c
40
3.5
41
0
44
1.084337
50
90
71
7
72
5
7
iso_b_vert
0
LINE
5
215
100
AcDbEntity
8
SK2
62
256
6
ByLayer
370
13
48
1
60
0
100
AcDbLine
10
113.5875
20
10
30
0
11
144.888211
21
10
31
0
39
0
210
0
220
0
230
1
0
LINE
5
216
100
AcDbEntity
8
SK2
62
256
6
ByLayer
370
13
48
1
60
0
100
AcDbLine
10
113.5875
20
-30
30
0
11
144.888211
21
-30
31
0
39
0
210
0
220
0
230
1
0
LINE
5
217
100
AcDbEntity
8
SK2
62
256
6
ByLayer
370
13
48
1
60
0
100
AcDbLine
10
142.888211
20
10
30
0
11
142.888211
21
-30
31
0
39
0
210
0
220
0
230
1
0
SOLID
5
218
100
AcDbEntity
8
SK2
62
256
6
ByLayer
370
13
48
1
60
0
100
AcDbTrace
10
142.888211
20
10
30
0
11
143.348994
21
6.500002
31
0
12
142.427427
22
6.499998
32
0
13
142.888211
23
10
33
0
39
0
210
0
220
0
230
1
0
SOLID
5
219
100
AcDbEntity
8
SK2
62
256
6
ByLayer
370
13
48
1
60
0
100
AcDbTrace
10
142.888211
20
-30
30
0
11
142.427427
21
-26.500002
31
0
12
143.348994
22
-26.499998
32
0
13
142.888211
23
-30
33
0
39
0
210
0
220
0
230
1
0
ENDBLK
5
21B
100
AcDbEntity
8
0
100
AcDbBlockEnd
0
BLOCK
5
225
100
AcDbEntity
8
0
100
AcDbBlockBegin
2
DimnDraft3D6
70
0
10
0
20
0
30
0
3
DimnDraft3D6
0
MTEXT
5
21E
100
AcDbEntity
8
SK2
62
256
6
ByLayer
370
18
48
1
60
0
100
AcDbMText
10
151.138077
20
3.159534
30
0
210
0
220
0
230
1
1
\W0.6740;60
40
3.5
41
0
44
1.084337
50
90
71
7
72
5
7
iso_b_vert
0
MTEXT
5
21F
100
AcDbEntity
8
SK2
62
256
6
ByLayer
370
18
48
1
60
0
100
AcDbMText
10
151.138077
20
-3.813122
30
0
210
0
220
0
230
1
1
%%c
40
3.5
41
0
44
1.084337
50
90
71
7
72
5
7
iso_b_vert
0
LINE
5
220
100
AcDbEntity
8
SK2
62
256
6
ByLayer
370
13
48
1
60
0
100
AcDbLine
10
113.5875
20
-30
30
0
11
154.888211
21
-30
31
0
39
0
210
0
220
0
230
1
0
LINE
5
221
100
AcDbEntity
8
SK2
62
256
6
ByLayer
370
13
48
1
60
0
100
AcDbLine
10
104.028516
20
30
30
0
11
154.888211
21
30
31
0
39
0
210
0
220
0
230
1
0
LINE
5
222
100
AcDbEntity
8
SK2
62
256
6
ByLayer
370
13
48
1
60
0
100
AcDbLine
10
152.888211
20
-30
30
0
11
152.888211
21
30
31
0
39
0
210
0
220
0
230
1
0
SOLID
5
223
100
AcDbEntity
8
SK2
62
256
6
ByLayer
370
13
48
1
60
0
100
AcDbTrace
10
152.888211
20
-30
30
0
11
152.427427
21
-26.500002
31
0
12
153.348994
22
-26.499998
32
0
13
152.888211
23
-30
33
0
39
0
210
0
220
0
230
1
0
SOLID
5
224
100
AcDbEntity
8
SK2
62
256
6
ByLayer
370
13
48
1
60
0
100
AcDbTrace
10
152.888211
20
30
30
0
11
153.348994
21
26.500002
31
0
12
152.427427
22
26.499998
32
0
13
152.888211
23
30
33
0
39
0
210
0
220
0
230
1
0
ENDBLK
5
226
100
AcDbEntity
8
0
100
AcDbBlockEnd
0
ENDSEC
0
SECTION
2
ENTITIES
0
ARC
5
125
100
AcDbEntity
8
1
62
256
6
ByLayer
370
18
48
1
60
0
100
AcDbCircle
39
0
10
121.9255
20
-15.499495
30
0
40
0.6
210
0
220
0
230
1
100
AcDbArc
50
0
51
90
0
ARC
5
126
100
AcDbEntity
8
1
62
256
6
ByLayer
370
18
48
1
60
0
100
AcDbCircle
39
0
10
-116.4255
20
-3.350505
30
0
40
0.25
210
0
220
0
230
-1
100
AcDbArc
50
90
51
180
0
ARC
5
127
100
AcDbEntity
8
1
62
256
6
ByLayer
370
18
48
1
60
0
100
AcDbCircle
39
0
10
121.9255
20
-4.500505
30
0
40
0.6
210
0
220
0
230
1
100
AcDbArc
50
270
51
0
0
ARC
5
128
100
AcDbEntity
8
1
62
256
6
ByLayer
370
18
48
1
60
0
100
AcDbCircle
39
0
10
-116.4255
20
3.149495
30
0
40
0.25
210
0
220
0
230
-1
100
AcDbArc
50
180
51
270
0
ARC
5
129
100
AcDbEntity
8
1
62
256
6
ByLayer
370
18
48
1
60
0
100
AcDbCircle
39
0
10
121.9255
20
-24.299495
30
0
40
0.6
210
0
220
0
230
1
100
AcDbArc
50
270
51
0
0
ARC
5
12A
100
AcDbEntity
8
1
62
256
6
ByLayer
370
18
48
1
60
0
100
AcDbCircle
39
0
10
121.9255
20
4.299495
30
0
40
0.6
210
0
220
0
230
1
100
AcDbArc
50
0
51
90
0
ARC
5
12B
100
AcDbEntity
8
1
62
256
6
ByLayer
370
18
48
1
60
0
100
AcDbCircle
39
0
10
-116.4255
20
-16.649495
30
0
40
0.25
210
0
220
0
230
-1
100
AcDbArc
50
180
51
270
0
ARC
5
12C
100
AcDbEntity
8
1
62
256
6
ByLayer
370
18
48
1
60
0
100
AcDbCircle
39
0
10
121.9255
20
4.299495
30
0
40
0.6
210
0
220
0
230
1
100
AcDbArc
50
0
51
90
0
ARC
5
12D
100
AcDbEntity
8
1
62
256
6
ByLayer
370
18
48
1
60
0
100
AcDbCircle
39
0
10
121.9255
20
-4.500505
30
0
40
0.6
210
0
220
0
230
1
100
AcDbArc
50
270
51
0
0
ARC
5
12E
100
AcDbEntity
8
1
62
256
6
ByLayer
370
18
48
1
60
0
100
AcDbCircle
39
0
10
-116.4255
20
3.149495
30
0
40
0.25
210
0
220
0
230
-1
100
AcDbArc
50
180
51
270
0
ARC
5
12F
100
AcDbEntity
8
1
62
256
6
ByLayer
370
18
48
1
60
0
100
AcDbCircle
39
0
10
-23.2
20
31
30
0
40
1
210
0
220
0
230
-1
100
AcDbArc
50
270
51
342.904728
0
ARC
5
130
100
AcDbEntity
8
1
62
256
6
ByLayer
370
18
48
1
60
0
100
AcDbCircle
39
0
10
-23.2
20
-31
30
0
40
1
210
0
220
0
230
-1
100
AcDbArc
50
17.095272
51
90
0
ARC
5
131
100
AcDbEntity
8
1
62
256
6
ByLayer
370
18
48
1
60
0
100
AcDbCircle
39
0
10
-107.8
20
11
30
0
40
1
210
0
220
0
230
-1
100
AcDbArc
50
270
51
345
0
ARC
5
132
100
AcDbEntity
8
1
62
256
6
ByLayer
370
18
48
1
60
0
100
AcDbCircle
39
0
10
-116.4255
20
-23.149495
30
0
40
0.25
210
0
220
0
230
-1
100
AcDbArc
50
90
51
180
0
ARC
5
133
100
AcDbEntity
8
1
62
256
6
ByLayer
370
18
48
1
60
0
100
AcDbCircle
39
0
10
-116.4255
20
-3.350505
30
0
40
0.25
210
0
220
0
230
-1
100
AcDbArc
50
90
51
180
0
ELLIPSE
5
134
100
AcDbEntity
8
1
62
256
6
ByLayer
370
18
48
1
60
0
100
AcDbEllipse
10
26.347154
20
0
30
0
11
14.7536831606573
21
31.0932549155822
31
0
210
0
220
0
230
-1
40
0.341999
41
-2.98378646694437
42
-2.050353067837
0
ELLIPSE
5
135
100
AcDbEntity
8
1
62
256
6
ByLayer
370
18
48
1
60
0
100
AcDbEllipse
10
-2.347154
20
0
30
0
11
14.7536831606583
21
31.0932549155838
31
0
210
0
220
0
230
-1
40
0.341999
41
0.157806186645423
42
1.09123958575276
0
ELLIPSE
5
136
100
AcDbEntity
8
1
62
256
6
ByLayer
370
18
48
1
60
0
100
AcDbEllipse
10
26.347154
20
0
30
0
11
14.753683160657
21
-31.0932549155818
31
0
210
0
220
0
230
-1
40
0.341999
41
2.05035306783699
42
2.98378646694437
0
ELLIPSE
5
137
100
AcDbEntity
8
1
62
256
6
ByLayer
370
18
48
1
60
0
100
AcDbEllipse
10
-2.347154
20
0
30
0
11
14.7536831606583
21
-31.0932549155838
31
0
210
0
220
0
230
-1
40
0.341999
41
-1.09123958575276
42
-0.15780618664542
0
POINT
5
6C
100
AcDbEntity
8
80
62
256
6
ByLayer
370
18
48
1
60
0
100
AcDbPoint
10
0
20
0
30
0
39
0
210
0
220
0
230
1
50
360
0
POINT
5
6E
100
AcDbEntity
8
81
62
256
6
ByLayer
370
18
48
1
60
0
100
AcDbPoint
10
112
20
-10
30
0
39
0
210
0
220
0
230
1
50
360
0
POINT
5
70
100
AcDbEntity
8
SK2
62
256
6
ByLayer
370
18
48
1
60
1
100
AcDbPoint
10
0
20
31.5
30
0
39
0
210
0
220
0
230
1
50
360
0
POINT
5
72
100
AcDbEntity
8
SK2
62
256
6
ByLayer
370
18
48
1
60
1
100
AcDbPoint
10
0
20
-31.5
30
0
39
0
210
0
220
0
230
1
50
360
0
POINT
5
73
100
AcDbEntity
8
SK2
62
256
6
ByLayer
370
18
48
1
60
1
100
AcDbPoint
10
112
20
10
30
0
39
0
210
0
220
0
230
1
50
360
0
POINT
5
74
100
AcDbEntity
8
SK2
62
256
6
ByLayer
370
18
48
1
60
1
100
AcDbPoint
10
112
20
-30
30
0
39
0
210
0
220
0
230
1
50
360
0
SPLINE
5
138
100
AcDbEntity
8
SK1
62
256
6
ByLayer
370
18
48
1
60
0
100
AcDbSpline
70
4
71
2
72
6
73
3
40
0
40
0
40
0
40
1
40
1
40
1
41
1
10
-36.5
20
-21.152454254977
30
0
41
1
10
-19.3500000008244
20
-21.5830602558515
30
0
41
1
10
-2.19999999999999
20
-22.0136645469338
30
0
0
SPLINE
5
139
100
AcDbEntity
8
SK1
62
256
6
ByLayer
370
18
48
1
60
0
100
AcDbSpline
70
4
71
2
72
6
73
3
40
0
40
0
40
0
40
1
40
1
40
1
41
1
10
-0.394913799811292
20
21.8654705382346
30
0
41
1
10
-1.19497688887515
20
21.8453761190377
30
0
41
1
10
-1.99503997793928
20
21.8252816998361
30
0
0
SPLINE
5
13A
100
AcDbEntity
8
SK1
62
256
6
ByLayer
370
18
48
1
60
0
100
AcDbSpline
70
4
71
3
72
13
73
9
40
0
40
0
40
0
40
0
40
0.239488446613183
40
0.368403116187316
40
0.500046645745301
40
0.631682415479715
40
0.760575689762896
40
1
40
1
40
1
40
1
41
1
10
-1.99503997793928
20
21.825286524797
30
0
41
1
10
-2.02110964951223
20
21.8248845959364
30
0
41
1
10
-2.05883938576716
20
21.8310551084546
30
0
41
1
10
-2.10627619976853
20
21.8540920367489
30
0
41
1
10
-2.13886292183542
20
21.8792518859041
30
0
41
1
10
-2.16563526915772
20
21.9105242864784
30
0
41
1
10
-2.19103234710852
20
21.9567296167895
30
0
41
1
10
-2.19909149085342
20
21.9940920912339
30
0
41
1
10
-2.19999999999999
20
22.0201427571469
30
0
0
SPLINE
5
13B
100
AcDbEntity
8
SK1
62
256
6
ByLayer
370
18
48
1
60
0
100
AcDbSpline
70
4
71
2
72
6
73
3
40
0
40
0
40
0
40
1
40
1
40
1
41
1
10
-38
20
-20.2900295032223
30
0
41
1
10
-37.2500000202654
20
-20.7228363958853
30
0
41
1
10
-36.5
20
-21.1556411516461
30
0
0
SPLINE
5
13C
100
AcDbEntity
8
SK1
62
256
6
ByLayer
370
18
48
1
60
0
100
AcDbSpline
70
4
71
2
72
6
73
3
40
0
40
0
40
0
40
1
40
1
40
1
41
1
10
-2.19999999999999
20
22.0136642719968
30
0
41
1
10
-19.3500000008246
20
21.5830599810351
30
0
41
1
10
-36.5
20
21.1524539804128
30
0
0
SPLINE
5
13D
100
AcDbEntity
8
SK1
62
256
6
ByLayer
370
18
48
1
60
0
100
AcDbSpline
70
4
71
2
72
6
73
3
40
0
40
0
40
0
40
1
40
1
40
1
41
1
10
-1.99503997793928
20
-21.8252817664983
30
0
41
1
10
-1.19497688887515
20
-21.8453761856051
30
0
41
1
10
-0.394913799811292
20
-21.8654706047072
30
0
0
SPLINE
5
13E
100
AcDbEntity
8
SK1
62
256
6
ByLayer
370
18
48
1
60
0
100
AcDbSpline
70
4
71
3
72
13
73
9
40
0
40
0
40
0
40
0
40
0.239424309708974
40
0.368317583820914
40
0.499953353497707
40
0.631596883124514
40
0.760511552875588
40
1
40
1
40
1
40
1
41
1
10
-2.19999999999999
20
-22.0201428284389
30
0
41
1
10
-2.19909149084521
20
-21.994092162624
30
0
41
1
10
-2.19103234710033
20
-21.9567296883261
30
0
41
1
10
-2.16563526914683
20
-21.910524358218
30
0
41
1
10
-2.13886292182102
20
-21.8792519577777
30
0
41
1
10
-2.10627619975313
20
-21.854092108733
30
0
41
1
10
-2.05883938574672
20
-21.8310551805396
30
0
41
1
10
-2.02110964950145
20
-21.8248846680468
30
0
41
1
10
-1.99503997793928
20
-21.8252865969123
30
0
0
SPLINE
5
13F
100
AcDbEntity
8
SK1
62
256
6
ByLayer
370
18
48
1
60
0
100
AcDbSpline
70
4
71
2
72
6
73
3
40
0
40
0
40
0
40
1
40
1
40
1
41
1
10
-36.5
20
21.1556411500792
30
0
41
1
10
-37.2500000202692
20
20.7228363924584
30
0
41
1
10
-38
20
20.2900294978113
30
0
0
SPLINE
5
140
100
AcDbEntity
8
SK1
62
256
6
ByLayer
370
18
48
1
60
0
100
AcDbSpline
70
4
71
3
72
11
73
7
40
0
40
0
40
0
40
0
40
0.238951655662017
40
0.497426891855135
40
0.757350231106678
40
1
40
1
40
1
40
1
41
1
10
-0.394913799811292
20
-21.8654754627471
30
0
41
1
10
-0.369687531346841
20
-21.8663994433358
30
0
41
1
10
-0.321131332200991
20
-21.8764453257208
30
0
41
1
10
-0.255172538244239
20
-21.9196711806814
30
0
41
1
10
-0.211244315154573
20
-21.9856609122028
30
0
41
1
10
-0.200954685769119
20
-22.0346807004484
30
0
41
1
10
-0.200000000000017
20
-22.0603316944383
30
0
0
SPLINE
5
141
100
AcDbEntity
8
SK1
62
256
6
ByLayer
370
18
48
1
60
0
100
AcDbSpline
70
4
71
3
72
11
73
7
40
0
40
0
40
0
40
0
40
0.242683451557236
40
0.502591507400088
40
0.761074756885805
40
1
40
1
40
1
40
1
41
1
10
-0.200000000000017
20
22.060331623316
30
0
41
1
10
-0.200952962174824
20
22.034682367515
30
0
41
1
10
-0.211240739082683
20
21.9856690515798
30
0
41
1
10
-0.255176498314313
20
21.9196668868322
30
0
41
1
10
-0.321125379120303
20
21.8764480552956
30
0
41
1
10
-0.369686289021757
20
21.8664005871852
30
0
41
1
10
-0.394913799811292
20
21.8654753908017
30
0
0
SPLINE
5
142
100
AcDbEntity
8
1
62
256
6
ByLayer
370
18
48
1
60
0
100
AcDbSpline
70
4
71
3
72
22
73
18
40
0
40
0
40
0
40
0
40
0.25000000000001
40
0.25000000000001
40
0.375000000000013
40
0.375000000000013
40
0.500000000000016
40
0.500000000000016
40
0.625000000000018
40
0.625000000000018
40
0.750000000000021
40
0.750000000000021
40
0.812500000000016
40
0.812500000000016
40
0.875000000000011
40
0.875000000000011
40
1
40
1
40
1
40
1
41
1
10
10.1056624327026
20
-9.86941261896618
30
0
41
1
10
10.1212498345488
20
-9.81243201498802
30
0
41
1
10
10.1399018475136
20
-9.7565502308297
30
0
41
1
10
10.1740902691451
20
-9.67499387250786
30
0
41
1
10
10.1865318440058
20
-9.64819007031198
30
0
41
1
10
10.2140339430554
20
-9.59554701961162
30
0
41
1
10
10.2291686648069
20
-9.56958483867112
30
0
41
1
10
10.2625095528537
20
-9.51963294536122
30
0
41
1
10
10.2806617049328
20
-9.49566900868385
30
0
41
1
10
10.3210597058744
20
-9.45055053780223
30
0
41
1
10
10.3431560434001
20
-9.42959825985622
30
0
41
1
10
10.3794828926306
20
-9.40232505361249
30
0
41
1
10
10.392156025832
20
-9.39389972204376
30
0
41
1
10
10.4189050579785
20
-9.37870617320448
30
0
41
1
10
10.4329857409659
20
-9.37196693550717
30
0
41
1
10
10.4761894743047
20
-9.35548920253851
30
0
41
1
10
10.5072412025891
20
-9.34922131452501
30
0
41
1
10
10.5386751345948
20
-9.34922131452501
30
0
0
SPLINE
5
143
100
AcDbEntity
8
SK1
62
256
6
ByLayer
370
18
48
1
60
0
100
AcDbSpline
70
4
71
3
72
21
73
17
40
0
40
0
40
0
40
0
40
0.0510243316702948
40
0.121003843083247
40
0.1909833544962
40
0.260962865909153
40
0.330942377322105
40
0.400921888735058
40
0.540880911560963
40
0.610860422973916
40
0.680839934386868
40
0.750819445799821
40
0.820798957212774
40
0.890778468625726
40
0.960757980038679
40
1
40
1
40
1
40
1
41
1
10
-0.200000000000017
20
22.0703747091505
30
0
41
1
10
-0.200000000000017
20
22.0704400051746
30
0
41
1
10
-0.200000000000017
20
22.0258027790696
30
0
41
1
10
-0.200000000000017
20
21.8047317906834
30
0
41
1
10
-0.200000000000017
20
21.3905988480801
30
0
41
1
10
-0.200000000000017
20
20.8206087930611
30
0
41
1
10
-0.200000000000017
20
20.1057890164235
30
0
41
1
10
-0.200000000000017
20
18.9715633847268
30
0
41
1
10
-0.200000000000017
20
17.5796130177247
30
0
41
1
10
-0.200000000000017
20
15.9502921104789
30
0
41
1
10
-0.200000000000017
20
14.6127449675204
30
0
41
1
10
-0.200000000000017
20
13.1620360272524
30
0
41
1
10
-0.200000000000017
20
11.6002667684726
30
0
41
1
10
-0.200000000000017
20
9.92892534938241
30
0
41
1
10
-0.200000000000017
20
8.40948876069857
30
0
41
1
10
-0.200000000000017
20
7.43948702371975
30
0
41
1
10
-0.200000000000017
20
7.08540004766849
30
0
0
SPLINE
5
144
100
AcDbEntity
8
1
62
256
6
ByLayer
370
18
48
1
60
0
100
AcDbSpline
70
4
71
3
72
22
73
18
40
0
40
0
40
0
40
0
40
0.250000000000007
40
0.250000000000007
40
0.375000000000006
40
0.375000000000006
40
0.500000000000006
40
0.500000000000006
40
0.625000000000005
40
0.625000000000005
40
0.750000000000005
40
0.750000000000005
40
0.812500000000003
40
0.812500000000003
40
0.875000000000002
40
0.875000000000002
40
1
40
1
40
1
40
1
41
1
10
10.1056624327026
20
29.9139548464691
30
0
41
1
10
10.1212498345488
20
29.9327542695084
30
0
41
1
10
10.1399018475136
20
29.9510098933135
30
0
41
1
10
10.1740902691451
20
29.977413331973
30
0
41
1
10
10.1865318440058
20
29.9860499646858
30
0
41
1
10
10.2140339430554
20
30.0029372147449
30
0
41
1
10
10.2291686648069
20
30.011226780568
30
0
41
1
10
10.2625095528537
20
30.0271090091071
30
0
41
1
10
10.2806617049328
20
30.0346937657148
30
0
41
1
10
10.3210597058744
20
30.048921013161
30
0
41
1
10
10.3431560434001
20
30.0554993245996
30
0
41
1
10
10.3794828926306
20
30.0640378913834
30
0
41
1
10
10.392156025832
20
30.0666711051738
30
0
41
1
10
10.4189050579785
20
30.0714138984386
30
0
41
1
10
10.432985740966
20
30.073514408101
30
0
41
1
10
10.4761894743047
20
30.0786461490401
30
0
41
1
10
10.5072412025891
20
30.0805927603169
30
0
41
1
10
10.5386751345948
20
30.0805927603169
30
0
0
SPLINE
5
145
100
AcDbEntity
8
1
62
256
6
ByLayer
370
18
48
1
60
0
100
AcDbSpline
70
4
71
3
72
20
73
16
40
0
40
0
40
0
40
0
40
0.0625000000000004
40
0.0625000000000004
40
0.125000000000001
40
0.125000000000001
40
0.25
40
0.25
40
0.375
40
0.375
40
0.499999999999999
40
0.499999999999999
40
0.75
40
0.75
40
1
40
1
40
1
40
1
41
1
10
10.5386751345949
20
9.34922131452512
30
0
41
1
10
10.5229355536388
20
9.34922131452512
30
0
41
1
10
10.5074817098165
20
9.35074113394288
30
0
41
1
10
10.477095146981
20
9.35655221855276
30
0
41
1
10
10.4620456032698
20
9.36089212483333
30
0
41
1
10
10.4184736929998
20
9.37748487924964
30
0
41
1
10
10.3920418953325
20
9.39290424748307
30
0
41
1
10
10.3428384525281
20
9.42982857023335
30
0
41
1
10
10.3209123403485
20
9.45071431640773
30
0
41
1
10
10.2807959636714
20
9.49551986864822
30
0
41
1
10
10.2625062023862
20
9.51963835126782
30
0
41
1
10
10.2125137122669
20
9.594536803469
30
0
41
1
10
10.1857347330744
20
9.64728479257934
30
0
41
1
10
10.1400559187761
20
9.75611455014877
30
0
41
1
10
10.1212556944726
20
9.81241059371428
30
0
41
1
10
10.1056624327026
20
9.86941261896618
30
0
0
SPLINE
5
146
100
AcDbEntity
8
1
62
256
6
ByLayer
370
18
48
1
60
0
100
AcDbSpline
70
4
71
3
72
22
73
18
40
0
40
0
40
0
40
0
40
0.250000000000005
40
0.250000000000005
40
0.375000000000005
40
0.375000000000005
40
0.500000000000005
40
0.500000000000005
40
0.625000000000006
40
0.625000000000006
40
0.750000000000006
40
0.750000000000006
40
0.812500000000005
40
0.812500000000005
40
0.875000000000004
40
0.875000000000004
40
1
40
1
40
1
40
1
41
1
10
13.8943375672973
20
9.86941261896624
30
0
41
1
10
13.8787501654511
20
9.8124320149881
30
0
41
1
10
13.8600981524864
20
9.75655023082976
30
0
41
1
10
13.8259097308548
20
9.67499387250794
30
0
41
1
10
13.8134681559942
20
9.64819007031204
30
0
41
1
10
13.7859660569446
20
9.59554701961167
30
0
41
1
10
13.7708313351931
20
9.5695848386712
30
0
41
1
10
13.7374904471463
20
9.51963294536131
30
0
41
1
10
13.7193382950672
20
9.49566900868393
30
0
41
1
10
13.6789402941255
20
9.45055053780234
30
0
41
1
10
13.6568439565999
20
9.42959825985633
30
0
41
1
10
13.6205171073694
20
9.40232505361257
30
0
41
1
10
13.6078439741679
20
9.39389972204384
30
0
41
1
10
13.5810949420214
20
9.37870617320456
30
0
41
1
10
13.567014259034
20
9.37196693550729
30
0
41
1
10
13.5238105256953
20
9.35548920253859
30
0
41
1
10
13.4927587974109
20
9.3492213145251
30
0
41
1
10
13.4613248654052
20
9.3492213145251
30
0
0
SPLINE
5
147
100
AcDbEntity
8
1
62
256
6
ByLayer
370
18
48
1
60
0
100
AcDbSpline
70
4
71
3
72
20
73
16
40
0
40
0
40
0
40
0
40
0.0624999999999974
40
0.0624999999999974
40
0.124999999999995
40
0.124999999999995
40
0.249999999999994
40
0.249999999999994
40
0.374999999999994
40
0.374999999999994
40
0.499999999999994
40
0.499999999999994
40
0.749999999999997
40
0.749999999999997
40
1
40
1
40
1
40
1
41
1
10
13.4613248654051
20
30.0805927603169
30
0
41
1
10
13.4770644463612
20
30.0805927603169
30
0
41
1
10
13.4925182901835
20
30.0801205034908
30
0
41
1
10
13.522904853019
20
30.0783134473998
30
0
41
1
10
13.5379543967302
20
30.0769634801343
30
0
41
1
10
13.5815263070002
20
30.0717959485601
30
0
41
1
10
13.6079581046675
20
30.0669872793661
30
0
41
1
10
13.6571615474718
20
30.055427253592
30
0
41
1
10
13.6790876596515
20
30.048869374708
30
0
41
1
10
13.7192040363286
20
30.0347407881727
30
0
41
1
10
13.7374937976137
20
30.027107286276
30
0
41
1
10
13.7874862877331
20
30.0032932993814
30
0
41
1
10
13.8142652669256
20
29.9863830332716
30
0
41
1
10
13.8599440812238
20
29.9511519005795
30
0
41
1
10
13.8787443055273
20
29.9327613369587
30
0
41
1
10
13.8943375672974
20
29.9139548464691
30
0
0
SPLINE
5
148
100
AcDbEntity
8
1
62
256
6
ByLayer
370
18
48
1
60
0
100
AcDbSpline
70
4
71
3
72
22
73
18
40
0
40
0
40
0
40
0
40
0.249999999999996
40
0.249999999999996
40
0.374999999999995
40
0.374999999999995
40
0.499999999999994
40
0.499999999999994
40
0.624999999999993
40
0.624999999999993
40
0.749999999999992
40
0.749999999999992
40
0.812499999999995
40
0.812499999999995
40
0.874999999999997
40
0.874999999999997
40
1
40
1
40
1
40
1
41
1
10
13.8943375672973
20
-29.9139548464691
30
0
41
1
10
13.8787501654511
20
-29.9327542695084
30
0
41
1
10
13.8600981524863
20
-29.9510098933136
30
0
41
1
10
13.8259097308548
20
-29.977413331973
30
0
41
1
10
13.8134681559941
20
-29.9860499646858
30
0
41
1
10
13.7859660569446
20
-30.0029372147449
30
0
41
1
10
13.7708313351931
20
-30.011226780568
30
0
41
1
10
13.7374904471463
20
-30.0271090091071
30
0
41
1
10
13.7193382950672
20
-30.0346937657148
30
0
41
1
10
13.6789402941255
20
-30.048921013161
30
0
41
1
10
13.6568439565998
20
-30.0554993245996
30
0
41
1
10
13.6205171073693
20
-30.0640378913834
30
0
41
1
10
13.6078439741679
20
-30.0666711051738
30
0
41
1
10
13.5810949420214
20
-30.0714138984386
30
0
41
1
10
13.567014259034
20
-30.073514408101
30
0
41
1
10
13.5238105256953
20
-30.0786461490401
30
0
41
1
10
13.4927587974109
20
-30.0805927603169
30
0
41
1
10
13.4613248654052
20
-30.0805927603169
30
0
0
SPLINE
5
149
100
AcDbEntity
8
1
62
256
6
ByLayer
370
18
48
1
60
0
100
AcDbSpline
70
4
71
3
72
20
73
16
40
0
40
0
40
0
40
0
40
0.0625000000000026
40
0.0625000000000026
40
0.125000000000005
40
0.125000000000005
40
0.250000000000006
40
0.250000000000006
40
0.375000000000006
40
0.375000000000006
40
0.500000000000006
40
0.500000000000006
40
0.750000000000003
40
0.750000000000003
40
1
40
1
40
1
40
1
41
1
10
13.4613248654051
20
-9.34922131452515
30
0
41
1
10
13.4770644463612
20
-9.34922131452515
30
0
41
1
10
13.4925182901835
20
-9.3507411339429
30
0
41
1
10
13.522904853019
20
-9.35655221855279
30
0
41
1
10
13.5379543967302
20
-9.36089212483338
30
0
41
1
10
13.5815263070002
20
-9.37748487924966
30
0
41
1
10
13.6079581046675
20
-9.39290424748313
30
0
41
1
10
13.6571615474718
20
-9.42982857023338
30
0
41
1
10
13.6790876596514
20
-9.45071431640775
30
0
41
1
10
13.7192040363286
20
-9.49551986864822
30
0
41
1
10
13.7374937976137
20
-9.51963835126784
30
0
41
1
10
13.7874862877331
20
-9.594536803469
30
0
41
1
10
13.8142652669256
20
-9.64728479257931
30
0
41
1
10
13.8599440812238
20
-9.75611455014874
30
0
41
1
10
13.8787443055273
20
-9.81241059371428
30
0
41
1
10
13.8943375672974
20
-9.86941261896615
30
0
0
SPLINE
5
14A
100
AcDbEntity
8
1
62
256
6
ByLayer
370
18
48
1
60
0
100
AcDbSpline
70
4
71
3
72
20
73
16
40
0
40
0
40
0
40
0
40
0.0624999999999991
40
0.0624999999999991
40
0.124999999999998
40
0.124999999999998
40
0.249999999999998
40
0.249999999999998
40
0.374999999999998
40
0.374999999999998
40
0.499999999999998
40
0.499999999999998
40
0.749999999999999
40
0.749999999999999
40
1
40
1
40
1
40
1
41
1
10
10.5386751345949
20
-30.0805927603169
30
0
41
1
10
10.5229355536388
20
-30.0805927603169
30
0
41
1
10
10.5074817098165
20
-30.0801205034908
30
0
41
1
10
10.4770951469809
20
-30.0783134473999
30
0
41
1
10
10.4620456032698
20
-30.0769634801343
30
0
41
1
10
10.4184736929998
20
-30.0717959485601
30
0
41
1
10
10.3920418953325
20
-30.0669872793662
30
0
41
1
10
10.3428384525281
20
-30.055427253592
30
0
41
1
10
10.3209123403485
20
-30.048869374708
30
0
41
1
10
10.2807959636713
20
-30.0347407881727
30
0
41
1
10
10.2625062023862
20
-30.027107286276
30
0
41
1
10
10.2125137122669
20
-30.0032932993814
30
0
41
1
10
10.1857347330744
20
-29.9863830332716
30
0
41
1
10
10.1400559187761
20
-29.9511519005795
30
0
41
1
10
10.1212556944726
20
-29.9327613369587
30
0
41
1
10
10.1056624327026
20
-29.9139548464691
30
0
0
SPLINE
5
14B
100
AcDbEntity
8
SK1
62
256
6
ByLayer
370
18
48
1
60
0
100
AcDbSpline
70
4
71
3
72
21
73
17
40
0
40
0
40
0
40
0
40
0.0392402238165656
40
0.109216367708709
40
0.179192511600853
40
0.249168655492996
40
0.31914479938514
40
0.389120943277283
40
0.459097087169427
40
0.599049374953714
40
0.669025518845857
40
0.739001662738001
40
0.808977806630145
40
0.878953950522288
40
0.948930094414432
40
1
40
1
40
1
40
1
41
1
10
-0.200000000000017
20
-7.08539735388831
30
0
41
1
10
-0.200000000000017
20
-7.4394852386969
30
0
41
1
10
-0.200000000000017
20
-8.40948806464002
30
0
41
1
10
-0.200000000000017
20
-9.9289251834638
30
0
41
1
10
-0.200000000000017
20
-11.6002663989664
30
0
41
1
10
-0.200000000000017
20
-13.162036332288
30
0
41
1
10
-0.200000000000017
20
-14.6127447816534
30
0
41
1
10
-0.200000000000017
20
-15.9502919017891
30
0
41
1
10
-0.200000000000017
20
-17.5796134899866
30
0
41
1
10
-0.200000000000017
20
-18.9715631674393
30
0
41
1
10
-0.200000000000017
20
-20.105789193882
30
0
41
1
10
-0.200000000000017
20
-20.8206095145274
30
0
41
1
10
-0.200000000000017
20
-21.3905986807661
30
0
41
1
10
-0.200000000000017
20
-21.8047322024479
30
0
41
1
10
-0.200000000000017
20
-22.0258590899298
30
0
41
1
10
-0.200000000000046
20
-22.0704755433838
30
0
41
1
10
-0.200000000000017
20
-22.0703745452488
30
0
0
SPLINE
5
14C
100
AcDbEntity
8
SK1
62
256
6
ByLayer
370
18
48
1
60
0
100
AcDbSpline
70
4
71
3
72
32
73
28
40
0
40
0
40
0
40
0
40
0.0312500000000005
40
0.0312500000000005
40
0.062500000000001
40
0.062500000000001
40
0.0937500000000015
40
0.0937500000000015
40
0.125000000000002
40
0.125000000000002
40
0.156250000000002
40
0.156250000000002
40
0.187500000000003
40
0.187500000000003
40
0.250000000000003
40
0.250000000000003
40
0.312500000000004
40
0.312500000000004
40
0.375000000000004
40
0.375000000000004
40
0.500000000000004
40
0.500000000000004
40
0.625000000000004
40
0.625000000000004
40
0.750000000000003
40
0.750000000000003
40
1
40
1
40
1
40
1
41
1
10
-0.394913799811292
20
-6.32721828439907
30
0
41
1
10
-0.411169702827039
20
-6.34154884003183
30
0
41
1
10
-0.428432689769153
20
-6.35475565889098
30
0
41
1
10
-0.465972582494885
20
-6.37782646793315
30
0
41
1
10
-0.486169045069261
20
-6.38756903357609
30
0
41
1
10
-0.528834802002649
20
-6.40107546113694
30
0
41
1
10
-0.551911827630931
20
-6.40484674033527
30
0
41
1
10
-0.59759647995736
20
-6.4044468991618
30
0
41
1
10
-0.620666657453
20
-6.40029767867216
30
0
41
1
10
-0.663770142860585
20
-6.38592912502901
30
0
41
1
10
-0.684186273479156
20
-6.37571954267724
30
0
41
1
10
-0.72165089236654
20
-6.35216508603165
30
0
41
1
10
-0.739125153205379
20
-6.33860938748939
30
0
41
1
10
-0.788099585621694
20
-6.29500212833881
30
0
41
1
10
-0.815900527777785
20
-6.26261583511771
30
0
41
1
10
-0.866746075133221
20
-6.19452170639306
30
0
41
1
10
-0.889657313576322
20
-6.15866825589436
30
0
41
1
10
-0.931589886782092
20
-6.08609644673814
30
0
41
1
10
-0.950735693127655
20
-6.04915001273997
30
0
41
1
10
-1.00449108222139
20
-5.93690912819588
30
0
41
1
10
-1.03548744556028
20
-5.86023563385643
30
0
41
1
10
-1.09190951976356
20
-5.70451929766094
30
0
41
1
10
-1.11725974479188
20
-5.62540226977166
30
0
41
1
10
-1.1639578554223
20
-5.46549802550047
30
0
41
1
10
-1.18522246232581
20
-5.38492681950908
30
0
41
1
10
-1.24438554784462
20
-5.14161561829974
30
0
41
1
10
-1.27772950254064
20
-4.97729333579235
30
0
41
1
10
-1.30710678118655
20
-4.81115156937966
30
0
0
SPLINE
5
14D
100
AcDbEntity
8
SK1
62
256
6
ByLayer
370
18
48
1
60
0
100
AcDbSpline
70
4
71
3
72
26
73
22
40
0
40
0
40
0
40
0
40
0.250000000000003
40
0.250000000000003
40
0.500000000000005
40
0.500000000000005
40
0.625000000000005
40
0.625000000000005
40
0.750000000000005
40
0.750000000000005
40
0.812500000000005
40
0.812500000000005
40
0.875000000000005
40
0.875000000000005
40
0.906250000000004
40
0.906250000000004
40
0.937500000000002
40
0.937500000000002
40
0.968750000000001
40
0.968750000000001
40
1
40
1
40
1
40
1
41
1
10
-0.200000000000017
20
-7.03415845154649
30
0
41
1
10
-0.200331074104781
20
-6.96758473110336
30
0
41
1
10
-0.201942367211302
20
-6.90082001004905
30
0
41
1
10
-0.208808543904695
20
-6.76684756093874
30
0
41
1
10
-0.213983771375126
20
-6.69957538529093
30
0
41
1
10
-0.226629907857188
20
-6.59846295366884
30
0
41
1
10
-0.231660540619856
20
-6.5647925271341
30
0
41
1
10
-0.244399284272816
20
-6.49761038234263
30
0
41
1
10
-0.252034596555262
20
-6.46403779666735
30
0
41
1
10
-0.267439101060745
20
-6.41481626716131
30
0
41
1
10
-0.273236212730978
20
-6.39857720931931
30
0
41
1
10
-0.287365755981511
20
-6.36675955901481
30
0
41
1
10
-0.295589616969494
20
-6.35108461281911
30
0
41
1
10
-0.312078412290106
20
-6.33025774259011
30
0
41
1
10
-0.318222328461729
20
-6.32386838427428
30
0
41
1
10
-0.332669805034271
20
-6.31363504737973
30
0
41
1
10
-0.34096760945684
20
-6.31005507464133
30
0
41
1
10
-0.357929669282612
20
-6.30825311318185
30
0
41
1
10
-0.366577726601548
20
-6.31005499812113
30
0
41
1
10
-0.381850124236138
20
-6.31686284615012
30
0
41
1
10
-0.388651860853372
20
-6.32169800880939
30
0
41
1
10
-0.394913799811292
20
-6.32721828439907
30
0
0
SPLINE
5
14E
100
AcDbEntity
8
SK1
62
256
6
ByLayer
370
18
48
1
60
0
100
AcDbSpline
70
4
71
3
72
26
73
22
40
0
40
0
40
0
40
0
40
0.0312499999999993
40
0.0312499999999993
40
0.0624999999999985
40
0.0624999999999985
40
0.0937499999999978
40
0.0937499999999978
40
0.124999999999997
40
0.124999999999997
40
0.187499999999996
40
0.187499999999996
40
0.249999999999994
40
0.249999999999994
40
0.374999999999993
40
0.374999999999993
40
0.499999999999992
40
0.499999999999992
40
0.749999999999996
40
0.749999999999996
40
1
40
1
40
1
40
1
41
1
10
-0.394913799811292
20
6.32722135061283
30
0
41
1
10
-0.388622933830277
20
6.3216755700586
30
0
41
1
10
-0.381718055746631
20
6.31678135987394
30
0
41
1
10
-0.366393862507692
20
6.31000229927824
30
0
41
1
10
-0.357848061635252
20
6.30823128443399
30
0
41
1
10
-0.340711445902173
20
6.31011955599649
30
0
41
1
10
-0.33229375517368
20
6.31383663914289
30
0
41
1
10
-0.317887705763468
20
6.32417971455038
30
0
41
1
10
-0.311700702543959
20
6.33067859325854
30
0
41
1
10
-0.295298997789331
20
6.35157922031652
30
0
41
1
10
-0.287085973884672
20
6.36730565066384
30
0
41
1
10
-0.272955344086341
20
6.39930333387281
30
0
41
1
10
-0.267171029982904
20
6.41559723945602
30
0
41
1
10
-0.251809441444351
20
6.4649237465031
30
0
41
1
10
-0.244218821653675
20
6.49843170227936
30
0
41
1
10
-0.231491141946464
20
6.56582630636504
30
0
41
1
10
-0.226489017484681
20
6.59947291062286
30
0
41
1
10
-0.213927703741945
20
6.70027098060299
30
0
41
1
10
-0.20878121269368
20
6.76728109810057
30
0
41
1
10
-0.201940349251345
20
6.90096555412316
30
0
41
1
10
-0.200330815103399
20
6.96763966545905
30
0
41
1
10
-0.200000000000017
20
7.0341612160729
30
0
0
SPLINE
5
14F
100
AcDbEntity
8
SK1
62
256
6
ByLayer
370
18
48
1
60
0
100
AcDbSpline
70
4
71
3
72
32
73
28
40
0
40
0
40
0
40
0
40
0.250000000000002
40
0.250000000000002
40
0.375000000000002
40
0.375000000000002
40
0.500000000000002
40
0.500000000000002
40
0.625000000000002
40
0.625000000000002
40
0.687500000000001
40
0.687500000000001
40
0.75
40
0.75
40
0.812499999999999
40
0.812499999999999
40
0.843749999999999
40
0.843749999999999
40
0.874999999999999
40
0.874999999999999
40
0.906249999999999
40
0.906249999999999
40
0.9375
40
0.9375
40
0.96875
40
0.96875
40
1
40
1
40
1
40
1
41
1
10
-1.30710678118655
20
4.81115177825137
30
0
41
1
10
-1.27776094215346
20
4.97711562958051
30
0
41
1
10
-1.24445474088378
20
5.14127607213072
30
0
41
1
10
-1.18536324259091
20
5.38437609466135
30
0
41
1
10
-1.16411410166916
20
5.46491938757273
30
0
41
1
10
-1.11750013847299
20
5.62462479791699
30
0
41
1
10
-1.09222933922737
20
5.70354894528955
30
0
41
1
10
-1.03597558707773
20
5.85897875620597
30
0
41
1
10
-1.00507947149296
20
5.93551305897702
30
0
41
1
10
-0.951537336733935
20
6.04756122695201
30
0
41
1
10
-0.932473247849941
20
6.0844461354001
30
0
41
1
10
-0.890745707221811
20
6.15690597798803
30
0
41
1
10
-0.867964363687918
20
6.19272059446288
30
0
41
1
10
-0.81712123483328
20
6.26114842409615
30
0
41
1
10
-0.789394425858006
20
6.29356478838167
30
0
41
1
10
-0.74105353006513
20
6.33702795492954
30
0
41
1
10
-0.723634935305967
20
6.35074513132108
30
0
41
1
10
-0.685806402556381
20
6.3748637181028
30
0
41
1
10
-0.665603370023774
20
6.38514303600903
30
0
41
1
10
-0.622102468665389
20
6.39998734213981
30
0
41
1
10
-0.599687731218722
20
6.40423336369167
30
0
41
1
10
-0.553245972254786
20
6.40502240224978
30
0
41
1
10
-0.530471361560558
20
6.40147524378972
30
0
41
1
10
-0.486753113655226
20
6.38787241492469
30
0
41
1
10
-0.466607865993751
20
6.37816775067614
30
0
41
1
10
-0.428885771233183
20
6.35508794642672
30
0
41
1
10
-0.411293294227562
20
6.34166087006349
30
0
41
1
10
-0.394913799811292
20
6.32722135062437
30
0
0
SPLINE
5
150
100
AcDbEntity
8
SK1
62
256
6
ByLayer
370
18
48
1
60
0
100
AcDbSpline
70
4
71
3
72
31
73
27
40
0
40
0
40
0
40
0
40
0.125
40
0.125
40
0.25
40
0.25
40
0.3125
40
0.3125
40
0.34375
40
0.34375
40
0.375
40
0.375
40
0.4375
40
0.4375
40
0.5
40
0.5625
40
0.5625
40
0.625
40
0.625
40
0.6875
40
0.6875
40
0.75
40
0.75
40
0.875
40
0.875
40
1
40
1
40
1
40
1
41
1
10
-1.30710678118655
20
-4.81115156937963
30
0
41
1
10
-1.37464191770107
20
-4.42920989906065
30
0
41
1
10
-1.43848245106358
20
-4.04286538655003
30
0
41
1
10
-1.55492025426076
20
-3.25980613133493
30
0
41
1
10
-1.60753025207398
20
-2.86309861159856
30
0
41
1
10
-1.67414509281366
20
-2.25856982386534
30
0
41
1
10
-1.69427910225542
20
-2.05547235697082
30
0
41
1
10
-1.720809668903
20
-1.74818388274395
30
0
41
1
10
-1.72904283683667
20
-1.64528138410392
30
0
41
1
10
-1.74411754427723
20
-1.43972015377184
30
0
41
1
10
-1.75097190728465
20
-1.33692150334679
30
0
41
1
10
-1.76938952483024
20
-1.02847005779316
30
0
41
1
10
-1.77881369580271
20
-0.822761881301403
30
0
41
1
10
-1.79137807494828
20
-0.411189125581387
30
0
41
1
10
-1.79754609551321
20
0.0005418097730967
30
0
41
1
10
-1.79135312802683
20
0.41258213473958
30
0
41
1
10
-1.7787347782095
20
0.824781359776097
30
0
41
1
10
-1.76926982289669
20
1.03095952328064
30
0
41
1
10
-1.74458111668804
20
1.44346492154577
30
0
41
1
10
-1.72931046442918
20
1.65009418594534
30
0
41
1
10
-1.69395938565037
20
2.05879746438538
30
0
41
1
10
-1.67384597566203
20
2.26145078101041
30
0
41
1
10
-1.60730494401747
20
2.86481056040481
30
0
41
1
10
-1.55475828557684
20
3.26095452027206
30
0
41
1
10
-1.43842306954181
20
4.04321174825225
30
0
41
1
10
-1.37462279329503
20
4.42931851789504
30
0
41
1
10
-1.3071067811866
20
4.81115177825134
30
0
0
SPLINE
5
151
100
AcDbEntity
8
SK1
62
256
6
ByLayer
370
13
48
1
60
0
100
AcDbSpline
70
4
71
3
72
49
73
45
40
0
40
0
40
0
40
0
40
0.0208873676185147
40
0.0490706940174628
40
0.0772540204164108
40
0.105437346815359
40
0.133620673214307
40
0.161803999613255
40
0.218170652411151
40
0.246353978810099
40
0.274537305209047
40
0.302720631607995
40
0.330903958006944
40
0.359087284405891
40
0.38727061080484
40
0.415453937203788
40
0.429545600403262
40
0.443637263602736
40
0.45772892680221
40
0.471820590001684
40
0.485912253201158
40
0.492958084800895
40
0.500003916400632
40
0.507049748000369
40
0.514095579600106
40
0.52818724279958
40
0.542278905999054
40
0.556370569198528
40
0.570462232398002
40
0.584553895597476
40
0.612737221996424
40
0.640920548395372
40
0.66910387479432
40
0.697287201193268
40
0.725470527592217
40
0.753653853991165
40
0.781837180390113
40
0.838203833188009
40
0.866387159586957
40
0.894570485985905
40
0.922753812384853
40
0.950937138783801
40
0.979120465182749
40
1
40
1
40
1
40
1
41
1
10
-1.99503997793928
20
21.825268204819
30
0
41
1
10
-1.99503997793931
20
21.825955271099
30
0
41
1
10
-1.99503997793931
20
21.7821406301875
30
0
41
1
10
-1.99503997793928
20
21.5622159608078
30
0
41
1
10
-1.99503997793928
20
21.1516905297669
30
0
41
1
10
-1.99503997793928
20
20.5863476884834
30
0
41
1
10
-1.99503997793928
20
19.8770915138249
30
0
41
1
10
-1.99503997793928
20
18.7508484467722
30
0
41
1
10
-1.99503997793928
20
17.370463175446
30
0
41
1
10
-1.99503997793928
20
15.752471971849
30
0
41
1
10
-1.99503997793928
20
14.4250897201646
30
0
41
1
10
-1.99503997793928
20
12.985830725026
30
0
41
1
10
-1.99503997793928
20
11.4370507512064
30
0
41
1
10
-1.99503997793928
20
9.78067154978811
30
0
41
1
10
-1.99503997793928
20
8.01821733349291
30
0
41
1
10
-1.99503997793928
20
6.46319635117558
30
0
41
1
10
-1.99503997793928
20
5.16749918372619
30
0
41
1
10
-1.99503997793928
20
4.17226659327741
30
0
41
1
10
-1.99503997793928
20
3.15436880408234
30
0
41
1
10
-1.99503997793928
20
2.11640247274801
30
0
41
1
10
-1.99503997793928
20
1.23881045451827
30
0
41
1
10
-1.99503997793928
20
0.531269482892839
30
0
41
1
10
-1.99503997793928
20
7.43625606E-08
30
0
41
1
10
-1.99503997793928
20
-0.531269371094965
30
0
41
1
10
-1.99503997793928
20
-1.23881043770962
30
0
41
1
10
-1.99503997793928
20
-2.11640245296419
30
0
41
1
10
-1.99503997793928
20
-3.15436853749512
30
0
41
1
10
-1.99503997793928
20
-4.17226658860133
30
0
41
1
10
-1.99503997793928
20
-5.16749921349111
30
0
41
1
10
-1.99503997793928
20
-6.46319592062628
30
0
41
1
10
-1.99503997793928
20
-8.01821749841281
30
0
41
1
10
-1.99503997793928
20
-9.78067134571356
30
0
41
1
10
-1.99503997793928
20
-11.4370504129057
30
0
41
1
10
-1.99503997793928
20
-12.9858310385528
30
0
41
1
10
-1.99503997793928
20
-14.4250895103889
30
0
41
1
10
-1.99503997793928
20
-15.7524717843982
30
0
41
1
10
-1.99503997793928
20
-17.370463645283
30
0
41
1
10
-1.99503997793928
20
-18.7508482253859
30
0
41
1
10
-1.99503997793928
20
-19.8770917100388
30
0
41
1
10
-1.99503997793928
20
-20.5863484011186
30
0
41
1
10
-1.99503997793928
20
-21.1516903613971
30
0
41
1
10
-1.99503997793928
20
-21.5622163798915
30
0
41
1
10
-1.99503997793928
20
-21.7821190393401
30
0
41
1
10
-1.99503997793928
20
-21.8259413905576
30
0
41
1
10
-1.99503997793928
20
-21.8252690394632
30
0
0
SPLINE
5
152
100
AcDbEntity
8
SK1
62
256
6
ByLayer
370
18
48
1
60
0
100
AcDbSpline
70
4
71
3
72
49
73
45
40
0
40
0
40
0
40
0
40
0.0160124143833927
40
0.0444830924877737
40
0.0729537705921547
40
0.101424448696536
40
0.129895126800917
40
0.158365804905298
40
0.21530716111406
40
0.243777839218441
40
0.272248517322822
40
0.300719195427203
40
0.329189873531584
40
0.357660551635965
40
0.386131229740346
40
0.414601907844727
40
0.428837246896917
40
0.443072585949108
40
0.457307925001298
40
0.471543264053489
40
0.485778603105679
40
0.492896272631775
40
0.50001394215787
40
0.507131611683965
40
0.51424928121006
40
0.528484620262251
40
0.542719959314442
40
0.556955298366632
40
0.571190637418822
40
0.585425976471013
40
0.613896654575394
40
0.642367332679775
40
0.670838010784156
40
0.699308688888537
40
0.727779366992918
40
0.756250045097299
40
0.78472072320168
40
0.841662079410442
40
0.870132757514823
40
0.898603435619204
40
0.927074113723585
40
0.955544791827966
40
0.984015469932347
40
1
40
1
40
1
40
1
41
1
10
-36.5
20
21.1558714105102
30
0
41
1
10
-36.5
20
21.1495818088761
30
0
41
1
10
-36.5
20
21.1027904755372
30
0
41
1
10
-36.5
20
20.9025884164263
30
0
41
1
10
-36.5
20
20.5018751860753
30
0
41
1
10
-36.5
20
19.9491724688865
30
0
41
1
10
-36.5
20
19.2550489357272
30
0
41
1
10
-36.5
20
18.1505179338899
30
0
41
1
10
-36.5
20
16.8015889830236
30
0
41
1
10
-36.5
20
15.2144138486304
30
0
41
1
10
-36.5
20
13.9146794509994
30
0
41
1
10
-36.5
20
12.5065635742002
30
0
41
1
10
-36.5
20
10.9931136245939
30
0
41
1
10
-36.5
20
9.37743069816284
30
0
41
1
10
-36.5
20
7.66285826183417
30
0
41
1
10
-36.5
20
6.15816931379928
30
0
41
1
10
-36.5
20
4.9049974336175
30
0
41
1
10
-36.5
20
3.94891719908253
30
0
41
1
10
-36.5
20
2.9762147707124
30
0
41
1
10
-36.5
20
1.99071870036127
30
0
41
1
10
-36.5
20
1.16514681856441
30
0
41
1
10
-36.5
20
0.49809871324851
30
0
41
1
10
-36.5
20
2.384194602E-07
30
0
41
1
10
-36.5
20
-0.498098462230757
30
0
41
1
10
-36.5
20
-1.16514702467009
30
0
41
1
10
-36.5
20
-1.99071854296866
30
0
41
1
10
-36.5
20
-2.97621435827224
30
0
41
1
10
-36.5
20
-3.94891745941499
30
0
41
1
10
-36.5
20
-4.90499731091177
30
0
41
1
10
-36.5
20
-6.15816884754437
30
0
41
1
10
-36.5
20
-7.66285852360605
30
0
41
1
10
-36.5
20
-9.37743039030656
30
0
41
1
10
-36.5
20
-10.99311337117
30
0
41
1
10
-36.5
20
-12.5065639108223
30
0
41
1
10
-36.5
20
-13.9146791761935
30
0
41
1
10
-36.5
20
-15.2144137189483
30
0
41
1
10
-36.5
20
-16.8015894462653
30
0
41
1
10
-36.5
20
-18.1505177013547
30
0
41
1
10
-36.5
20
-19.2550491829544
30
0
41
1
10
-36.5
20
-19.9491731575017
30
0
41
1
10
-36.5
20
-20.5018750148337
30
0
41
1
10
-36.5
20
-20.9025888554179
30
0
41
1
10
-36.5
20
-21.1027146285658
30
0
41
1
10
-36.5
20
-21.1495233398958
30
0
41
1
10
-36.5
20
-21.1558385886549
30
0
0
SPLINE
5
153
100
AcDbEntity
8
SK1
62
256
6
ByLayer
370
18
48
1
60
0
100
AcDbSpline
70
4
71
3
72
49
73
45
40
0
40
0
40
0
40
0
40
0.0136745478007302
40
0.0422819410250798
40
0.0708893342494294
40
0.099496727473779
40
0.128104120698128
40
0.156711513922478
40
0.213926300371177
40
0.242533693595527
40
0.271141086819876
40
0.299748480044226
40
0.328355873268576
40
0.356963266492925
40
0.385570659717275
40
0.414178052941625
40
0.428481749553799
40
0.442785446165974
40
0.457089142778149
40
0.471392839390324
40
0.485696536002499
40
0.492848384308586
40
0.500000232614673
40
0.507152080920761
40
0.514303929226848
40
0.528607625839023
40
0.542911322451198
40
0.557215019063372
40
0.571518715675547
40
0.585822412287722
40
0.614429805512072
40
0.643037198736421
40
0.671644591960771
40
0.70025198518512
40
0.72885937840947
40
0.75746677163382
40
0.786074164858169
40
0.843288951306868
40
0.871896344531218
40
0.900503737755568
40
0.929111130979917
40
0.957718524204267
40
0.986325917428616
40
1
40
1
40
1
40
1
41
1
10
-2.19999999999999
20
22.0135803362386
30
0
41
1
10
-2.20000000000002
20
22.0052602891076
30
0
41
1
10
-2.20000000000002
20
21.9553633685694
30
0
41
1
10
-2.19999999999999
20
21.7550269215783
30
0
41
1
10
-2.19999999999999
20
21.3416333570605
30
0
41
1
10
-2.19999999999999
20
20.7725957724454
30
0
41
1
10
-2.19999999999999
20
20.0589162847047
30
0
41
1
10
-2.19999999999999
20
18.9263267207688
30
0
41
1
10
-2.19999999999999
20
17.5367466797247
30
0
41
1
10
-2.19999999999999
20
15.9097478536278
30
0
41
1
10
-2.19999999999999
20
14.5742840575192
30
0
41
1
10
-2.19999999999999
20
13.1259218425112
30
0
41
1
10
-2.19999999999999
20
11.5668148046225
30
0
41
1
10
-2.19999999999999
20
9.89853996914991
30
0
41
1
10
-2.19999999999999
20
8.12208977576526
30
0
41
1
10
-2.19999999999999
20
6.55235660022586
30
0
41
1
10
-2.19999999999999
20
5.24422917335971
30
0
41
1
10
-2.19999999999999
20
4.2375522406841
30
0
41
1
10
-2.19999999999999
20
3.20644372216566
30
0
41
1
10
-2.19999999999999
20
2.15314018801408
30
0
41
1
10
-2.19999999999999
20
1.26034253962158
30
0
41
1
10
-2.19999999999999
20
0.540965390862567
30
0
41
1
10
-2.19999999999999
20
2.64082871E-08
30
0
41
1
10
-2.19999999999999
20
-0.540965319759067
30
0
41
1
10
-2.19999999999999
20
-1.26034245765445
30
0
41
1
10
-2.19999999999999
20
-2.15314020845369
30
0
41
1
10
-2.19999999999999
20
-3.20644349821168
30
0
41
1
10
-2.19999999999999
20
-4.23755215854527
30
0
41
1
10
-2.19999999999999
20
-5.24422924769226
30
0
41
1
10
-2.19999999999999
20
-6.55235618011341
30
0
41
1
10
-2.19999999999999
20
-8.12208991237509
30
0
41
1
10
-2.19999999999999
20
-9.89853979541107
30
0
41
1
10
-2.19999999999999
20
-11.566814441512
30
0
41
1
10
-2.19999999999999
20
-13.1259221492872
30
0
41
1
10
-2.19999999999999
20
-14.574283866752
30
0
41
1
10
-2.19999999999999
20
-15.9097476492909
30
0
41
1
10
-2.19999999999999
20
-17.5367471514895
30
0
41
1
10
-2.19999999999999
20
-18.9263265026412
30
0
41
1
10
-2.19999999999999
20
-20.0589164660072
30
0
41
1
10
-2.19999999999999
20
-20.7725964921017
30
0
41
1
10
-2.19999999999999
20
-21.3416331895302
30
0
41
1
10
-2.19999999999999
20
-21.7550273348429
30
0
41
1
10
-2.19999999999999
20
-21.955362737417
30
0
41
1
10
-2.19999999999999
20
-22.005259464111
30
0
41
1
10
-2.19999999999999
20
-22.013579664317
30
0
0
SPLINE
5
154
100
AcDbEntity
8
SK1
62
256
6
ByLayer
370
13
48
1
60
0
100
AcDbSpline
70
4
71
3
72
21
73
17
40
0
40
0
40
0
40
0
40
0.0502202382711232
40
0.118505743618008
40
0.186791248964893
40
0.255076754311778
40
0.323362259658663
40
0.391647765005548
40
0.528218775699318
40
0.596504281046203
40
0.664789786393088
40
0.733075291739973
40
0.801360797086858
40
0.869646302433743
40
0.937931807780628
40
1
40
1
40
1
40
1
41
1
10
-0.394913799811292
20
21.8654694310119
30
0
41
1
10
-0.394913799811263
20
21.8658585487807
30
0
41
1
10
-0.394913799811292
20
21.8217984976617
30
0
41
1
10
-0.394913799811292
20
21.6019829919256
30
0
41
1
10
-0.394913799811292
20
21.1908660117695
30
0
41
1
10
-0.394913799811292
20
20.6247611340725
30
0
41
1
10
-0.394913799811292
20
19.9145926563567
30
0
41
1
10
-0.394913799811292
20
18.7870406318774
30
0
41
1
10
-0.394913799811292
20
17.4047589502432
30
0
41
1
10
-0.394913799811292
20
15.7849099352292
30
0
41
1
10
-0.394913799811292
20
14.4558608746283
30
0
41
1
10
-0.394913799811292
20
13.014724351229
30
0
41
1
10
-0.394913799811292
20
11.4638144327396
30
0
41
1
10
-0.394913799811292
20
9.80498177095927
30
0
41
1
10
-0.394913799811292
20
8.09321828866484
30
0
41
1
10
-0.394913799811292
20
6.90653972901183
30
0
41
1
10
-0.394913799811292
20
6.32722135061283
30
0
0
SPLINE
5
155
100
AcDbEntity
8
SK1
62
256
6
ByLayer
370
13
48
1
60
0
100
AcDbSpline
70
4
71
3
72
21
73
17
40
0
40
0
40
0
40
0
40
0.0620686612866094
40
0.130354571925119
40
0.198640482563629
40
0.266926393202138
40
0.335212303840648
40
0.403498214479157
40
0.471784125117667
40
0.608355946394686
40
0.676641857033196
40
0.744927767671705
40
0.813213678310215
40
0.881499588948725
40
0.949785499587234
40
1
40
1
40
1
40
1
41
1
10
-0.394913799811292
20
-6.32721828439907
30
0
41
1
10
-0.394913799811292
20
-6.90653762641452
30
0
41
1
10
-0.394913799811292
20
-8.09321756934099
30
0
41
1
10
-0.394913799811292
20
-9.80498157314145
30
0
41
1
10
-0.394913799811292
20
-11.4638140893219
30
0
41
1
10
-0.394913799811292
20
-13.0147246633635
30
0
41
1
10
-0.394913799811292
20
-14.4558606687731
30
0
41
1
10
-0.394913799811292
20
-15.7849097442956
30
0
41
1
10
-0.394913799811292
20
-17.4047594204778
30
0
41
1
10
-0.394913799811292
20
-18.7870404111631
30
0
41
1
10
-0.394913799811292
20
-19.9145928494951
30
0
41
1
10
-0.394913799811292
20
-20.6247618481558
30
0
41
1
10
-0.394913799811292
20
-21.1908658435729
30
0
41
1
10
-0.394913799811292
20
-21.6019834098091
30
0
41
1
10
-0.394913799811263
20
-21.8217921024319
30
0
41
1
10
-0.394913799811292
20
-21.8658541734606
30
0
41
1
10
-0.394913799811292
20
-21.8654696410804
30
0
0
SPLINE
5
156
100
AcDbEntity
8
SK1
62
256
6
ByLayer
370
18
48
1
60
0
100
AcDbSpline
70
4
71
3
72
10
73
6
40
0
40
0
40
0
40
0
40
0.5
40
0.5
40
1
40
1
40
1
40
1
41
1
10
-0.200000000000017
20
7.08540004767101
30
0
41
1
10
-0.156583385644495
20
6.99642670418811
30
0
41
1
10
-0.120283283599946
20
6.90513296551012
30
0
41
1
10
-0.0550209890645874
20
6.71973937652893
30
0
41
1
10
-0.0262457922467547
20
6.62558864937205
30
0
41
1
10
1.99E-13
20
6.53032573994014
30
0
0
SPLINE
5
157
100
AcDbEntity
8
SK1
62
256
6
ByLayer
370
18
48
1
60
0
100
AcDbSpline
70
4
71
3
72
10
73
6
40
0
40
0
40
0
40
0
40
0.5
40
0.5
40
1
40
1
40
1
40
1
41
1
10
0
20
-6.53032259051451
30
0
41
1
10
-0.026245814054306
20
-6.62558556045749
30
0
41
1
10
-0.0550210228789467
20
-6.71973635662815
30
0
41
1
10
-0.120283318990403
20
-6.90513009808126
30
0
41
1
10
-0.156583410983217
20
-6.99642392008917
30
0
41
1
10
-0.199999999995868
20
-7.08539735389175
30
0
0
SPLINE
5
158
100
AcDbEntity
8
SK1
62
256
6
ByLayer
370
18
48
1
60
0
100
AcDbSpline
70
4
71
3
72
49
73
45
40
0
40
0
40
0
40
0
40
0.0205324788553934
40
0.0487330564408596
40
0.0769336340263259
40
0.105134211611792
40
0.133334789197259
40
0.161535366782725
40
0.217936521953658
40
0.246137099539124
40
0.27433767712459
40
0.302538254710057
40
0.330738832295523
40
0.358939409880989
40
0.387139987466456
40
0.415340565051922
40
0.429440853844655
40
0.443541142637388
40
0.457641431430121
40
0.471741720222854
40
0.485842009015588
40
0.492892153411954
40
0.499942297808321
40
0.506992442204687
40
0.514042586601054
40
0.528142875393787
40
0.54224316418652
40
0.556343452979253
40
0.570443741771987
40
0.58454403056472
40
0.612744608150186
40
0.640945185735652
40
0.669145763321119
40
0.697346340906585
40
0.725546918492051
40
0.753747496077517
40
0.781948073662984
40
0.838349228833916
40
0.866549806419383
40
0.894750384004849
40
0.922950961590315
40
0.951151539175782
40
0.979352116761248
40
1
40
1
40
1
40
1
41
1
10
-38
20
-20.2928923500002
30
0
41
1
10
-38
20
-20.2928749486276
30
0
41
1
10
-38
20
-20.2516073002075
30
0
41
1
10
-38
20
-20.0459066437045
30
0
41
1
10
-38
20
-19.6579362347721
30
0
41
1
10
-38
20
-19.1216505379956
30
0
41
1
10
-38
20
-18.4471799717542
30
0
41
1
10
-38
20
-17.3708466567051
30
0
41
1
10
-38
20
-16.0627718728323
30
0
41
1
10
-38
20
-14.5156181768617
30
0
41
1
10
-38
20
-13.2517907463501
30
0
41
1
10
-38
20
-11.8841222937699
30
0
41
1
10
-38
20
-10.4165562193454
30
0
41
1
10
-38
20
-8.853726723139
30
0
41
1
10
-38
20
-7.20134092284707
30
0
41
1
10
-38
20
-5.76201911469511
30
0
41
1
10
-38
20
-4.56407656073523
30
0
41
1
10
-38
20
-3.65884583736087
30
0
41
1
10
-38
20
-2.74483905839463
30
0
41
1
10
-38
20
-1.82748828650284
30
0
41
1
10
-38
20
-1.0694776760397
30
0
41
1
10
-38
20
-0.455018198724417
30
0
41
1
10
-38
20
4.514861303E-07
30
0
41
1
10
-38
20
0.455018630552104
30
0
41
1
10
-38
20
1.06947718042707
30
0
41
1
10
-38
20
1.82748862261295
30
0
41
1
10
-38
20
2.74483966025932
30
0
41
1
10
-38
20
3.65884523285217
30
0
41
1
10
-38
20
4.56407688146012
30
0
41
1
10
-38
20
5.76201962732216
30
0
41
1
10
-38
20
7.20134053529
30
0
41
1
10
-38
20
8.85372716578041
30
0
41
1
10
-38
20
10.4165563625368
30
0
41
1
10
-38
20
11.884121927153
30
0
41
1
10
-38
20
13.2517911056129
30
0
41
1
10
-38
20
14.5156182315173
30
0
41
1
10
-38
20
16.0627714181563
30
0
41
1
10
-38
20
17.3708469037194
30
0
41
1
10
-38
20
18.4471796582741
30
0
41
1
10
-38
20
19.121649880576
30
0
41
1
10
-38
20
19.6579364097435
30
0
41
1
10
-38
20
20.0459061788578
30
0
41
1
10
-38
20
20.2519151937032
30
0
41
1
10
-38
20
20.2930697807637
30
0
41
1
10
-38
20
20.2928909190321
30
0
0
SPLINE
5
159
100
AcDbEntity
8
SK1
62
256
6
ByLayer
370
18
48
1
60
0
100
AcDbSpline
70
4
71
3
72
8
73
4
40
0
40
0
40
0
40
0
40
1
40
1
40
1
40
1
41
0.980125716641416
10
-0.200000000000002
20
-7.05390045164615
30
0
41
0.980125716641416
10
-0.200000000000002
20
-7.04732170563537
30
0
41
0.980125716641416
10
-0.200000000000002
20
-7.04074103874897
30
0
41
0.980125716641416
10
-0.200000000000002
20
-7.03415845155804
30
0
0
SPLINE
5
15A
100
AcDbEntity
8
1
62
256
6
ByLayer
370
18
48
1
60
0
100
AcDbSpline
70
4
71
3
72
18
73
14
40
0
40
0
40
0
40
0
40
0.125
40
0.125
40
0.1875
40
0.1875
40
0.25
40
0.25
40
0.5
40
0.5
40
0.75
40
0.75
40
1
40
1
40
1
40
1
41
1
10
107.8
20
-30
30
0
41
1
10
107.748537593789
20
-30
30
0
41
1
10
107.697052018357
20
-29.9920500106883
30
0
41
1
10
107.620586140771
20
-29.9682118361542
30
0
41
1
10
107.595217833979
20
-29.9582796041561
30
0
41
1
10
107.544835329198
20
-29.9344361977308
30
0
41
1
10
107.519816581324
20
-29.9205196573998
30
0
41
1
10
107.396157562808
20
-29.8411494168288
30
0
41
1
10
107.301575325203
20
-29.7463078995864
30
0
41
1
10
107.128709341309
20
-29.4946688883634
30
0
41
1
10
107.050357066727
20
-29.3378738960571
30
0
41
1
10
106.919408175779
20
-28.9616102248127
30
0
41
1
10
106.866627449136
20
-28.7421562283284
30
0
41
1
10
106.83407417371
20
-28.4901706298053
30
0
0
SPLINE
5
15B
100
AcDbEntity
8
1
62
256
6
ByLayer
370
18
48
1
60
0
100
AcDbSpline
70
4
71
3
72
103
73
99
40
0
40
0
40
0
40
0
40
0.031249899885831
40
0.031249899885831
40
0.0624997997716621
40
0.0624997997716621
40
0.0703122747431198
40
0.0703122747431198
40
0.0781247497145775
40
0.0781247497145775
40
0.0937496996574929
40
0.0937496996574929
40
0.124999599543324
40
0.124999599543324
40
0.156249499429155
40
0.156249499429155
40
0.187499399314986
40
0.187499399314986
40
0.195311874286443
40
0.195311874286443
40
0.203124349257901
40
0.203124349257901
40
0.218749299200817
40
0.218749299200817
40
0.249999199086648
40
0.249999199086648
40
0.281249098972479
40
0.281249098972479
40
0.31249899885831
40
0.31249899885831
40
0.320311473829767
40
0.320311473829767
40
0.328123948801225
40
0.328123948801225
40
0.343748898744141
40
0.343748898744141
40
0.374998798629971
40
0.406248698515802
40
0.406248698515802
40
0.421873648458718
40
0.421873648458718
40
0.429686123430176
40
0.429686123430176
40
0.437498598401633
40
0.437498598401633
40
0.468748498287464
40
0.468748498287464
40
0.499998398173295
40
0.499998398173295
40
0.531248298059126
40
0.531248298059126
40
0.546873248002041
40
0.546873248002041
40
0.554685722973499
40
0.554685722973499
40
0.562498197944957
40
0.562498197944957
40
0.593748097830788
40
0.593748097830788
40
0.624997997716619
40
0.624997997716619
40
0.65624789760245
40
0.65624789760245
40
0.671872847545366
40
0.671872847545366
40
0.679685322516824
40
0.679685322516824
40
0.687497797488281
40
0.687497797488281
40
0.718747697374112
40
0.718747697374112
40
0.749997597259943
40
0.749997597259943
40
0.781247497145774
40
0.781247497145774
40
0.789059972117232
40
0.789059972117232
40
0.79687244708869
40
0.79687244708869
40
0.812497397031605
40
0.812497397031605
40
0.843747296917437
40
0.843747296917437
40
0.874997196803268
40
0.874997196803268
40
0.906247096689099
40
0.906247096689099
40
0.914059571660557
40
0.914059571660557
40
0.921872046632015
40
0.921872046632015
40
0.937496996574931
40
0.937496996574931
40
0.968746896460762
40
0.968746896460762
40
0.999996796346594
40
0.999996796346594
40
1
40
1
40
1
40
1
41
1
10
106.834074173711
20
-28.4901706298076
30
0
41
1
10
106.798446544757
20
-28.2143873395476
30
0
41
1
10
106.758496861385
20
-27.90251828811
30
0
41
1
10
106.670509179236
20
-27.2067772268734
30
0
41
1
10
106.622471595677
20
-26.822907851238
30
0
41
1
10
106.557620037407
20
-26.2971108891807
30
0
41
1
10
106.544409096368
20
-26.1896491546736
30
0
41
1
10
106.517510560777
20
-25.9700791540889
30
0
41
1
10
106.503806999698
20
-25.8578394814604
30
0
41
1
10
106.462108401898
20
-25.5150738177361
30
0
41
1
10
106.43357730254
20
-25.2789306226718
30
0
41
1
10
106.34593251203
20
-24.5480409556814
30
0
41
1
10
106.284773526021
20
-24.0308781576205
30
0
41
1
10
106.157606778809
20
-22.9379624413883
30
0
41
1
10
106.091598200416
20
-22.3622073828
30
0
41
1
10
105.955150734966
20
-21.1519356740348
30
0
41
1
10
105.884711526677
20
-20.517422285202
30
0
41
1
10
105.794048019745
20
-19.6865793616677
30
0
41
1
10
105.775780321307
20
-19.5184864402337
30
0
41
1
10
105.739000672216
20
-19.1786299400288
30
0
41
1
10
105.720549906192
20
-19.0074319546347
30
0
41
1
10
105.665023539852
20
-18.4900687698358
30
0
41
1
10
105.627774149542
20
-18.1401362850614
30
0
41
1
10
105.515389903816
20
-17.0755146697755
30
0
41
1
10
105.439622638692
20
-16.3460296664559
30
0
41
1
10
105.286617329808
20
-14.8481858777948
30
0
41
1
10
105.209378655812
20
-14.0798264719393
30
0
41
1
10
105.05353685858
20
-12.5039303962759
30
0
41
1
10
104.974933514301
20
-11.6963966871395
30
0
41
1
10
104.8758323764
20
-10.6617226281291
30
0
41
1
10
104.855977325842
20
-10.4536009970074
30
0
41
1
10
104.816379436587
20
-10.0368956198108
30
0
41
1
10
104.796612255611
20
-9.82805822960523
30
0
41
1
10
104.737405072706
20
-9.20010561604758
30
0
41
1
10
104.698059483272
20
-8.77955066971347
30
0
41
1
10
104.580390818624
20
-7.51220864567622
30
0
41
1
10
104.424482314513
20
-5.80730144406712
30
0
41
1
10
104.270401404325
20
-4.07250317962331
30
0
41
1
10
104.15545870258
20
-2.76006679780207
30
0
41
1
10
104.117247312935
20
-2.32069571769202
30
0
41
1
10
104.060074687764
20
-1.65875945400325
30
0
41
1
10
104.041041212813
20
-1.43763391138717
30
0
41
1
10
104.003020640938
20
-0.99441346343886
30
0
41
1
10
103.984009760655
20
-0.772038769000886
30
0
41
1
10
103.889428079913
20
0.338036984724965
30
0
41
1
10
103.81525622744
20
1.22051291354353
30
0
41
1
10
103.669648470209
20
2.97461867014593
30
0
41
1
10
103.598212922343
20
3.84624770433604
30
0
41
1
10
103.457879648775
20
5.57872047770056
30
0
41
1
10
103.388982130759
20
6.43956442066738
30
0
41
1
10
103.287423258715
20
7.72259934104116
30
0
41
1
10
103.253868523879
20
8.14890383772098
30
0
41
1
10
103.203972017833
20
8.78626327180487
30
0
41
1
10
103.187412467432
20
8.99836672847459
30
0
41
1
10
103.154436872599
20
9.42186646243965
30
0
41
1
10
103.138072890682
20
9.63259439260597
30
0
41
1
10
103.056934809247
20
10.6801829265394
30
0
41
1
10
102.994120610534
20
11.4999685839254
30
0
41
1
10
102.87236803431
20
13.1039210986975
30
0
41
1
10
102.813430243178
20
13.8880858838365
30
0
41
1
10
102.699214154797
20
15.4208989052587
30
0
41
1
10
102.643936094885
20
16.1695483066432
30
0
41
1
10
102.5636661026
20
17.2653427109294
30
0
41
1
10
102.537351275697
20
17.6260709948939
30
0
41
1
10
102.498535470614
20
18.1602276857373
30
0
41
1
10
102.485700921307
20
18.3371989528547
30
0
41
1
10
102.460376199525
20
18.6870562652049
30
0
41
1
10
102.447870082007
20
18.8601613172041
30
0
41
1
10
102.386105744924
20
19.7166543983011
30
0
41
1
10
102.339140919765
20
20.3730001845169
30
0
41
1
10
102.249810964364
20
21.6292972638947
30
0
41
1
10
102.207446393452
20
22.2292460917874
30
0
41
1
10
102.12715045243
20
23.3727160351456
30
0
41
1
10
102.089219169935
20
23.9162398361914
30
0
41
1
10
102.044543908717
20
24.5595289423218
30
0
41
1
10
102.035746082601
20
24.686377570586
30
0
41
1
10
102.018425234263
20
24.936421084472
30
0
41
1
10
102.009891886652
20
25.0597654884394
30
0
41
1
10
101.984790606934
20
25.4230208442417
30
0
41
1
10
101.968732383512
20
25.6559924742161
30
0
41
1
10
101.922522935938
20
26.3278184561659
30
0
41
1
10
101.89433245404
20
26.7396363921282
30
0
41
1
10
101.842965470712
20
27.4925047639828
30
0
41
1
10
101.819789350156
20
27.8335531522114
30
0
41
1
10
101.778373936126
20
28.4445777010375
30
0
41
1
10
101.760134476392
20
28.7145583520684
30
0
41
1
10
101.740457099441
20
29.006368462265
30
0
41
1
10
101.736677787861
20
29.0624469348693
30
0
41
1
10
101.729435501344
20
29.1699624079621
30
0
41
1
10
101.725985747097
20
29.2212031100044
30
0
41
1
10
101.716143823033
20
29.3674534405106
30
0
41
1
10
101.710258678661
20
29.4549951739571
30
0
41
1
10
101.694588807224
20
29.6882340581124
30
0
41
1
10
101.686785110931
20
29.8046015127414
30
0
41
1
10
101.67635007377
20
29.9602633620716
30
0
41
1
10
101.673718858332
20
29.9995567080086
30
0
41
1
10
101.673689473599
20
29.9999953692699
30
0
41
1
10
101.673689406755
20
29.9999963671336
30
0
41
1
10
101.673689339911
20
29.9999973649973
30
0
0
SPLINE
5
15C
100
AcDbEntity
8
SK1
62
256
6
ByLayer
370
18
48
1
60
0
100
AcDbSpline
70
4
71
3
72
8
73
4
40
0
40
0
40
0
40
0
40
1
40
1
40
1
40
1
41
0.980125716641413
10
-0.200000000000031
20
7.0341612160761
30
0
41
0.980125716641413
10
-0.200000000000002
20
7.06207342499976
30
0
41
0.980125716641413
10
-0.200000000000002
20
7.08995110616729
30
0
41
0.980125716641413
10
-0.200000000000002
20
7.11779421607614
30
0
0
SPLINE
5
15D
100
AcDbEntity
8
1
62
256
6
ByLayer
370
18
48
1
60
0
100
AcDbSpline
70
4
71
3
72
29
73
25
40
0
40
0
40
0
40
0
40
0.250000000000006
40
0.250000000000006
40
0.500000000000011
40
0.625000000000017
40
0.625000000000017
40
0.750000000000024
40
0.750000000000024
40
0.812500000000022
40
0.812500000000022
40
0.843750000000012
40
0.843750000000012
40
0.85937500000001
40
0.85937500000001
40
0.875000000000007
40
0.875000000000007
40
0.890625000000005
40
0.890625000000005
40
0.906250000000003
40
0.906250000000003
40
0.937500000000006
40
0.937500000000006
40
1
40
1
40
1
40
1
41
1
10
112.3245
20
-12.374363297151
30
0
41
1
10
112.3245
20
-12.3194064105506
30
0
41
1
10
112.324032399932
20
-12.2644963145756
30
0
41
1
10
112.321844723872
20
-12.1548254136152
30
0
41
1
10
112.319316428687
20
-12.072675121827
30
0
41
1
10
112.314310421224
20
-11.9908802734116
30
0
41
1
10
112.309978969288
20
-11.9365071281183
30
0
41
1
10
112.307406823544
20
-11.9093996053921
30
0
41
1
10
112.301580753402
20
-11.8694840950604
30
0
41
1
10
112.299363093008
20
-11.856255515201
30
0
41
1
10
112.294437082563
20
-11.8370685365961
30
0
41
1
10
112.29259372161
20
-11.830824934588
30
0
41
1
10
112.288543171497
20
-11.8224385863282
30
0
41
1
10
112.286963273436
20
-11.8197740482066
30
0
41
1
10
112.282840776615
20
-11.8162227658109
30
0
41
1
10
112.280153150168
20
-11.8157990354512
30
0
41
1
10
112.275457159849
20
-11.8184796529825
30
0
41
1
10
112.273463656978
20
-11.8210448559286
30
0
41
1
10
112.270073900227
20
-11.8264303864619
30
0
41
1
10
112.268601361044
20
-11.8294023405475
30
0
41
1
10
112.264535543431
20
-11.8385750160013
30
0
41
1
10
112.262285393521
20
-11.8450450665825
30
0
41
1
10
112.256068674689
20
-11.8646952642612
30
0
41
1
10
112.252660481926
20
-11.8781861599639
30
0
41
1
10
112.2495
20
-11.8917458747699
30
0
0
SPLINE
5
15E
100
AcDbEntity
8
1
62
256
6
ByLayer
370
18
48
1
60
0
100
AcDbSpline
70
4
71
3
72
12
73
8
40
0
40
0
40
0
40
0
40
0.499999999999998
40
0.499999999999998
40
0.749999999999999
40
0.749999999999999
40
1
40
1
40
1
40
1
41
1
10
112.2495
20
-14.5717458978612
30
0
41
1
10
112.273449874967
20
-14.4158065123883
30
0
41
1
10
112.291067937376
20
-14.2597896270774
30
0
41
1
10
112.310080956516
20
-14.0255811011769
30
0
41
1
10
112.315133100644
20
-13.9474823744189
30
0
41
1
10
112.322320194146
20
-13.79123244662
30
0
41
1
10
112.3245
20
-13.7132381575278
30
0
41
1
10
112.3245
20
-13.6355155582359
30
0
0
SPLINE
5
15F
100
AcDbEntity
8
1
62
256
6
ByLayer
370
18
48
1
60
0
100
AcDbSpline
70
4
71
3
72
8
73
4
40
0
40
0
40
0
40
0
40
1
40
1
40
1
40
1
41
1
10
112.2495
20
-14.5717458978613
30
0
41
1
10
112.086430061288
20
-15.6335061812585
30
0
41
1
10
111.869706220596
20
-16.6806088261537
30
0
41
1
10
111.6055
20
-17.7147398224981
30
0
0
SPLINE
5
160
100
AcDbEntity
8
1
62
256
6
ByLayer
370
18
48
1
60
0
100
AcDbSpline
70
4
71
3
72
28
73
24
40
0
40
0
40
0
40
0
40
0.25000000000002
40
0.25000000000002
40
0.50000000000004
40
0.50000000000004
40
0.625000000000043
40
0.625000000000043
40
0.750000000000045
40
0.750000000000045
40
0.812500000000036
40
0.812500000000036
40
0.84375000000003
40
0.84375000000003
40
0.875000000000024
40
0.875000000000024
40
0.906250000000018
40
0.906250000000018
40
0.937500000000012
40
0.937500000000012
40
0.968750000000006
40
0.968750000000006
40
1
40
1
40
1
40
1
41
1
10
111.6055
20
-17.7147398224981
30
0
41
1
10
111.588576985242
20
-17.7809782860478
30
0
41
1
10
111.573778640626
20
-17.8469679361492
30
0
41
1
10
111.548417493048
20
-17.9784405235402
30
0
41
1
10
111.537797636014
20
-18.043928444733
30
0
41
1
10
111.526574325012
20
-18.1416448640676
30
0
41
1
10
111.523621888495
20
-18.1741963552595
30
0
41
1
10
111.520256070083
20
-18.2387663711832
30
0
41
1
10
111.51977379898
20
-18.2704500628858
30
0
41
1
10
111.522833074229
20
-18.3161490613548
30
0
41
1
10
111.524493209776
20
-18.3311487893483
30
0
41
1
10
111.528800694706
20
-18.352539766648
30
0
41
1
10
111.53053112703
20
-18.3594094946836
30
0
41
1
10
111.53487591584
20
-18.3723716083382
30
0
41
1
10
111.53751759955
20
-18.3785400595506
30
0
41
1
10
111.544135407032
20
-18.3891873548662
30
0
41
1
10
111.548160280846
20
-18.3937178346545
30
0
41
1
10
111.557970832039
20
-18.399343450182
30
0
41
1
10
111.563796586259
20
-18.4002822552636
30
0
41
1
10
111.576048721416
20
-18.3977088883858
30
0
41
1
10
111.582429655099
20
-18.3942878530465
30
0
41
1
10
111.594489804997
20
-18.385188912308
30
0
41
1
10
111.600109447799
20
-18.3796698412629
30
0
41
1
10
111.6055
20
-18.373611017426
30
0
0
SPLINE
5
161
100
AcDbEntity
8
1
62
256
6
ByLayer
370
18
48
1
60
0
100
AcDbSpline
70
4
71
3
72
8
73
4
40
0
40
0
40
0
40
0
40
1
40
1
40
1
40
1
41
1
10
111.6055
20
-18.373611017426
30
0
41
1
10
111.822529300301
20
-18.1296763983232
30
0
41
1
10
112.037366545293
20
-17.8831983032507
30
0
41
1
10
112.2495
20
-17.6335829581342
30
0
0
SPLINE
5
162
100
AcDbEntity
8
1
62
256
6
ByLayer
370
18
48
1
60
0
100
AcDbSpline
70
4
71
3
72
18
73
14
40
0
40
0
40
0
40
0
40
0.249999999999978
40
0.249999999999978
40
0.499999999999956
40
0.499999999999956
40
0.624999999999967
40
0.624999999999967
40
0.749999999999978
40
0.749999999999978
40
0.874999999999989
40
0.874999999999989
40
1
40
1
40
1
40
1
41
1
10
112.3245
20
-17.7421428531869
30
0
41
1
10
112.3245
20
-17.7245176993834
30
0
41
1
10
112.32391229198
20
-17.7071717485018
30
0
41
1
10
112.32075290832
20
-17.6734413846411
30
0
41
1
10
112.31823321225
20
-17.6567428508799
30
0
41
1
10
112.311139893004
20
-17.6345466094667
30
0
41
1
10
112.30817714617
20
-17.6275421986265
30
0
41
1
10
112.300230880857
20
-17.6160961548193
30
0
41
1
10
112.295135545578
20
-17.6116545852137
30
0
41
1
10
112.282451033099
20
-17.6091667968875
30
0
41
1
10
112.275264485858
20
-17.6114358989537
30
0
41
1
10
112.261672465469
20
-17.6203894104479
30
0
41
1
10
112.255362671196
20
-17.6266844107272
30
0
41
1
10
112.2495
20
-17.6335829581342
30
0
0
SPLINE
5
163
100
AcDbEntity
8
1
62
256
6
ByLayer
370
18
48
1
60
0
100
AcDbSpline
70
4
71
3
72
12
73
8
40
0
40
0
40
0
40
0
40
0.499999999999982
40
0.499999999999982
40
0.749999999999991
40
0.749999999999991
40
1
40
1
40
1
40
1
41
1
10
112.2495
20
-18.614405042173
30
0
41
1
10
112.27125461873
20
-18.541419263068
30
0
41
1
10
112.288718680672
20
-18.4683926299572
30
0
41
1
10
112.308511489959
20
-18.3587664318821
30
0
41
1
10
112.313971523825
20
-18.3223883770074
30
0
41
1
10
112.321917021225
20
-18.2505240515008
30
0
41
1
10
112.3245
20
-18.2149528282922
30
0
41
1
10
112.3245
20
-18.1800854813311
30
0
0
SPLINE
5
164
100
AcDbEntity
8
1
62
256
6
ByLayer
370
18
48
1
60
0
100
AcDbSpline
70
4
71
3
72
8
73
4
40
0
40
0
40
0
40
0
40
1
40
1
40
1
40
1
41
1
10
112.2495
20
-18.614405042173
30
0
41
1
10
112.052909503293
20
-19.2739574225088
30
0
41
1
10
111.837557523584
20
-19.9252688291729
30
0
41
1
10
111.6055
20
-20.5692423325784
30
0
0
SPLINE
5
165
100
AcDbEntity
8
1
62
256
6
ByLayer
370
18
48
1
60
0
100
AcDbSpline
70
4
71
3
72
26
73
22
40
0
40
0
40
0
40
0
40
0.250000000000003
40
0.250000000000003
40
0.500000000000005
40
0.500000000000005
40
0.624999999999999
40
0.624999999999999
40
0.687499999999992
40
0.687499999999992
40
0.749999999999985
40
0.749999999999985
40
0.812499999999978
40
0.812499999999978
40
0.843749999999969
40
0.843749999999969
40
0.874999999999961
40
0.874999999999961
40
0.937499999999981
40
0.937499999999981
40
1
40
1
40
1
40
1
41
1
10
111.6055
20
-20.5692423325784
30
0
41
1
10
111.587643156855
20
-20.6187961400231
30
0
41
1
10
111.572015153518
20
-20.6685126312753
30
0
41
1
10
111.545768365898
20
-20.766660157988
30
0
41
1
10
111.534984812796
20
-20.815302279654
30
0
41
1
10
111.524406680009
20
-20.8872728105715
30
0
41
1
10
111.521852859371
20
-20.911043650543
30
0
41
1
10
111.520418804176
20
-20.9452806611475
30
0
41
1
10
111.520340103259
20
-20.956485071097
30
0
41
1
10
111.521316572032
20
-20.9783092712762
30
0
41
1
10
111.522379144929
20
-20.9889959860531
30
0
41
1
10
111.526211670088
20
-21.00878926678
30
0
41
1
10
111.528987116134
20
-21.0180751916216
30
0
41
1
10
111.535310298849
20
-21.0297189979099
30
0
41
1
10
111.537755477579
20
-21.0331628737238
30
0
41
1
10
111.543557893523
20
-21.0388720525553
30
0
41
1
10
111.546935275676
20
-21.0411137199878
30
0
41
1
10
111.558257275307
20
-21.045142446326
30
0
41
1
10
111.567713171199
20
-21.0439723663317
30
0
41
1
10
111.586740793639
20
-21.0351534278306
30
0
41
1
10
111.596375598404
20
-21.0278428099312
30
0
41
1
10
111.605500000001
20
-21.0193324895504
30
0
0
SPLINE
5
166
100
AcDbEntity
8
1
62
256
6
ByLayer
370
18
48
1
60
0
100
AcDbSpline
70
4
71
3
72
8
73
4
40
0
40
0
40
0
40
0
40
1
40
1
40
1
40
1
41
1
10
111.6055
20
-21.0193324895489
30
0
41
1
10
111.820739969169
20
-20.8185783823276
30
0
41
1
10
112.035436607666
20
-20.6170527580396
30
0
41
1
10
112.2495
20
-20.4146279387558
30
0
0
SPLINE
5
167
100
AcDbEntity
8
1
62
256
6
ByLayer
370
18
48
1
60
0
100
AcDbSpline
70
4
71
3
72
20
73
16
40
0
40
0
40
0
40
0
40
0.250000000000025
40
0.250000000000025
40
0.37500000000002
40
0.37500000000002
40
0.500000000000016
40
0.500000000000016
40
0.625000000000012
40
0.625000000000012
40
0.750000000000008
40
0.750000000000008
40
0.875000000000004
40
0.875000000000004
40
1
40
1
40
1
40
1
41
1
10
112.32450000001
20
-20.4758747057857
30
0
41
1
10
112.324500000011
20
-20.4622480685125
30
0
41
1
10
112.323720006666
20
-20.4489518311853
30
0
41
1
10
112.32056082149
20
-20.4305545407478
30
0
41
1
10
112.319177438201
20
-20.424704653761
30
0
41
1
10
112.315460180535
20
-20.4138219207664
30
0
41
1
10
112.313094294282
20
-20.4087403605801
30
0
41
1
10
112.307107301193
20
-20.4003169334064
30
0
41
1
10
112.30339385025
20
-20.3968847392199
30
0
41
1
10
112.294518318095
20
-20.3929059165862
30
0
41
1
10
112.289273781814
20
-20.3923980908057
30
0
41
1
10
112.278148020212
20
-20.394641860152
30
0
41
1
10
112.272240259158
20
-20.3973541368363
30
0
41
1
10
112.26073610745
20
-20.4047199434933
30
0
41
1
10
112.254995241478
20
-20.4094314721798
30
0
41
1
10
112.2495
20
-20.4146279387546
30
0
0
SPLINE
5
168
100
AcDbEntity
8
1
62
256
6
ByLayer
370
18
48
1
60
0
100
AcDbSpline
70
4
71
3
72
12
73
8
40
0
40
0
40
0
40
0
40
0.499999999999987
40
0.499999999999987
40
0.749999999999993
40
0.749999999999993
40
1
40
1
40
1
40
1
41
1
10
112.2495
20
-21.0912167009134
30
0
41
1
10
112.270749376286
20
-21.037505318721
30
0
41
1
10
112.288114006892
20
-20.9840923527969
30
0
41
1
10
112.308033340519
20
-20.9044186364488
30
0
41
1
10
112.313647104952
20
-20.8778062422474
30
0
41
1
10
112.321857566803
20
-20.8254042330729
30
0
41
1
10
112.3245
20
-20.7998432734029
30
0
41
1
10
112.3245
20
-20.7754639616859
30
0
0
SPLINE
5
169
100
AcDbEntity
8
1
62
256
6
ByLayer
370
18
48
1
60
0
100
AcDbSpline
70
4
71
3
72
8
73
4
40
0
40
0
40
0
40
0
40
1
40
1
40
1
40
1
41
1
10
112.2495
20
-21.0912167009134
30
0
41
1
10
112.044943589855
20
-21.6082675252431
30
0
41
1
10
111.829910422179
20
-22.1194546037457
30
0
41
1
10
111.6055
20
-22.6253933182574
30
0
0
SPLINE
5
16A
100
AcDbEntity
8
1
62
256
6
ByLayer
370
18
48
1
60
0
100
AcDbSpline
70
4
71
3
72
24
73
20
40
0
40
0
40
0
40
0
40
0.249999999999972
40
0.249999999999972
40
0.499999999999943
40
0.499999999999943
40
0.624999999999942
40
0.624999999999942
40
0.687499999999952
40
0.687499999999952
40
0.749999999999962
40
0.749999999999962
40
0.812499999999971
40
0.812499999999971
40
0.874999999999981
40
0.874999999999981
40
0.93749999999999
40
0.93749999999999
40
1
40
1
40
1
40
1
41
1
10
111.6055
20
-22.6253933182574
30
0
41
1
10
111.587105291382
20
-22.6668646329223
30
0
41
1
10
111.571091296136
20
-22.7081105915473
30
0
41
1
10
111.54408524399
20
-22.7901074712467
30
0
41
1
10
111.532951748391
20
-22.831233525782
30
0
41
1
10
111.523038409465
20
-22.8895338130815
30
0
41
1
10
111.520831971449
20
-22.9086042462075
30
0
41
1
10
111.520383997625
20
-22.935547051479
30
0
41
1
10
111.520719822513
20
-22.9441587757889
30
0
41
1
10
111.522734725193
20
-22.9603661394202
30
0
41
1
10
111.524438115292
20
-22.9680544303652
30
0
41
1
10
111.529778126137
20
-22.9813298323849
30
0
41
1
10
111.533454559674
20
-22.987003316287
30
0
41
1
10
111.543404949431
20
-22.9947235523582
30
0
41
1
10
111.549750260255
20
-22.9966617979703
30
0
41
1
10
111.564259028938
20
-22.9956830047328
30
0
41
1
10
111.572454592052
20
-22.9927821279149
30
0
41
1
10
111.588892883095
20
-22.9837225694705
30
0
41
1
10
111.59733722664
20
-22.9775187338987
30
0
41
1
10
111.6055
20
-22.97050560153
30
0
0
SPLINE
5
16B
100
AcDbEntity
8
1
62
256
6
ByLayer
370
18
48
1
60
0
100
AcDbSpline
70
4
71
3
72
8
73
4
40
0
40
0
40
0
40
0
40
1
40
1
40
1
40
1
41
1
10
111.6055
20
-22.9705056015292
30
0
41
1
10
111.820331960648
20
-22.7859304687195
30
0
41
1
10
112.035005737834
20
-22.6011103791873
30
0
41
1
10
112.2495
20
-22.4160122997164
30
0
0
SPLINE
5
16C
100
AcDbEntity
8
1
62
256
6
ByLayer
370
18
48
1
60
0
100
AcDbSpline
70
4
71
3
72
16
73
12
40
0
40
0
40
0
40
0
40
0.250000000000008
40
0.250000000000008
40
0.500000000000016
40
0.500000000000016
40
0.625000000000017
40
0.625000000000017
40
0.750000000000018
40
0.750000000000018
40
1
40
1
40
1
40
1
41
1
10
112.324500000002
20
-22.4517920695657
30
0
41
1
10
112.324500000002
20
-22.440367383973
30
0
41
1
10
112.323574330635
20
-22.429625754431
30
0
41
1
10
112.318509386911
20
-22.4105343684028
30
0
41
1
10
112.314345247719
20
-22.4023667097376
30
0
41
1
10
112.304383043625
20
-22.3952686195636
30
0
41
1
10
112.300413994865
20
-22.3938031093932
30
0
41
1
10
112.291511208776
20
-22.3931584348767
30
0
41
1
10
112.286527021205
20
-22.3939796046377
30
0
41
1
10
112.271023676201
20
-22.3994427929495
30
0
41
1
10
112.260027379858
20
-22.4069276847059
30
0
41
1
10
112.2495
20
-22.4160122997158
30
0
0
SPLINE
5
16D
100
AcDbEntity
8
1
62
256
6
ByLayer
370
18
48
1
60
0
100
AcDbSpline
70
4
71
3
72
12
73
8
40
0
40
0
40
0
40
0
40
0.500000000000019
40
0.500000000000019
40
0.750000000000009
40
0.750000000000009
40
1
40
1
40
1
40
1
41
1
10
112.2495
20
-22.9353083296312
30
0
41
1
10
112.270400739195
20
-22.891409105862
30
0
41
1
10
112.287982247592
20
-22.8472681461817
30
0
41
1
10
112.307957251677
20
-22.782864662175
30
0
41
1
10
112.313571379324
20
-22.7616176300328
30
0
41
1
10
112.3218661042
20
-22.7197509393173
30
0
41
1
10
112.3245
20
-22.6996254052808
30
0
41
1
10
112.3245
20
-22.6809876861899
30
0
0
SPLINE
5
16E
100
AcDbEntity
8
1
62
256
6
ByLayer
370
18
48
1
60
0
100
AcDbSpline
70
4
71
3
72
8
73
4
40
0
40
0
40
0
40
0
40
1
40
1
40
1
40
1
41
1
10
112.2495
20
-22.9353083296312
30
0
41
1
10
112.04140572646
20
-23.3723826835176
30
0
41
1
10
111.826510348702
20
-23.8049585330932
30
0
41
1
10
111.6055
20
-24.2334897125276
30
0
0
SPLINE
5
16F
100
AcDbEntity
8
1
62
256
6
ByLayer
370
18
48
1
60
0
100
AcDbSpline
70
4
71
3
72
20
73
16
40
0
40
0
40
0
40
0
40
0.249999999999998
40
0.249999999999998
40
0.499999999999996
40
0.499999999999996
40
0.62499999999999
40
0.62499999999999
40
0.749999999999984
40
0.749999999999984
40
0.812499999999977
40
0.812499999999977
40
0.87499999999997
40
0.87499999999997
40
1
40
1
40
1
40
1
41
1
10
111.6055
20
-24.2334897125276
30
0
41
1
10
111.58665178262
20
-24.2700357334336
30
0
41
1
10
111.570003929807
20
-24.3067132975129
30
0
41
1
10
111.54235401958
20
-24.3786299644915
30
0
41
1
10
111.531260620271
20
-24.4137052273499
30
0
41
1
10
111.521945970035
20
-24.463435638372
30
0
41
1
10
111.520163421698
20
-24.4791290996216
30
0
41
1
10
111.520937540741
20
-24.5076437025055
30
0
41
1
10
111.523531889678
20
-24.520413368311
30
0
41
1
10
111.533361056321
20
-24.5329477804307
30
0
41
1
10
111.53766255767
20
-24.5359341976592
30
0
41
1
10
111.548184540343
20
-24.538597526839
30
0
41
1
10
111.554395521324
20
-24.538278325242
30
0
41
1
10
111.574973031665
20
-24.5324844686063
30
0
41
1
10
111.590454765483
20
-24.5225299905646
30
0
41
1
10
111.6055
20
-24.5100772776503
30
0
0
SPLINE
5
170
100
AcDbEntity
8
1
62
256
6
ByLayer
370
18
48
1
60
0
100
AcDbSpline
70
4
71
3
72
8
73
4
40
0
40
0
40
0
40
0
40
1
40
1
40
1
40
1
41
1
10
111.6055
20
-24.5100772776498
30
0
41
1
10
111.820203979195
20
-24.3323700434185
30
0
41
1
10
112.034872069188
20
-24.1546049768551
30
0
41
1
10
112.2495
20
-23.9767752987127
30
0
0
SPLINE
5
171
100
AcDbEntity
8
1
62
256
6
ByLayer
370
18
48
1
60
0
100
AcDbSpline
70
4
71
3
72
16
73
12
40
0
40
0
40
0
40
0
40
0.249999999999916
40
0.249999999999916
40
0.499999999999831
40
0.499999999999831
40
0.624999999999832
40
0.624999999999832
40
0.749999999999834
40
0.749999999999834
40
1
40
1
40
1
40
1
41
1
10
112.3245
20
-23.9946525728947
30
0
41
1
10
112.3245
20
-23.984793931125
30
0
41
1
10
112.323364700352
20
-23.9757224015114
30
0
41
1
10
112.317618439847
20
-23.9610733983106
30
0
41
1
10
112.312832257615
20
-23.9554349467432
30
0
41
1
10
112.302386234609
20
-23.9521189582845
30
0
41
1
10
112.298459762373
20
-23.9518627336725
30
0
41
1
10
112.289703529877
20
-23.9530805456519
30
0
41
1
10
112.284909287438
20
-23.9545789497623
30
0
41
1
10
112.270258456793
20
-23.961106001764
30
0
41
1
10
112.25972922897
20
-23.968299885058
30
0
41
1
10
112.2495
20
-23.9767752987124
30
0
0
SPLINE
5
172
100
AcDbEntity
8
1
62
256
6
ByLayer
370
18
48
1
60
0
100
AcDbSpline
70
4
71
3
72
12
73
8
40
0
40
0
40
0
40
0
40
0.5
40
0.5
40
0.75
40
0.75
40
1
40
1
40
1
40
1
41
1
10
112.2495
20
-24.3919878841886
30
0
41
1
10
112.27010032095
20
-24.354338633359
30
0
41
1
10
112.287778739477
20
-24.3163913811337
30
0
41
1
10
112.307880398042
20
-24.2617098394658
30
0
41
1
10
112.313525962551
20
-24.2438253173232
30
0
41
1
10
112.321860478618
20
-24.2090213858311
30
0
41
1
10
112.3245
20
-24.1924069066608
30
0
41
1
10
112.3245
20
-24.1775976034378
30
0
0
SPLINE
5
173
100
AcDbEntity
8
1
62
256
6
ByLayer
370
18
48
1
60
0
100
AcDbSpline
70
4
71
3
72
8
73
4
40
0
40
0
40
0
40
0
40
1
40
1
40
1
40
1
41
1
10
112.2495
20
-24.3919878841886
30
0
41
1
10
112.039439331602
20
-24.7758958248991
30
0
41
1
10
111.824618246661
20
-25.1562223165521
30
0
41
1
10
111.6055
20
-25.5333158840139
30
0
0
SPLINE
5
174
100
AcDbEntity
8
1
62
256
6
ByLayer
370
18
48
1
60
0
100
AcDbSpline
70
4
71
3
72
26
73
22
40
0
40
0
40
0
40
0
40
0.124999999999993
40
0.124999999999993
40
0.249999999999986
40
0.249999999999986
40
0.374999999999979
40
0.374999999999979
40
0.499999999999972
40
0.499999999999972
40
0.624999999999965
40
0.624999999999965
40
0.687499999999959
40
0.687499999999959
40
0.749999999999954
40
0.749999999999954
40
0.812499999999948
40
0.812499999999948
40
0.874999999999942
40
0.874999999999942
40
1
40
1
40
1
40
1
41
1
10
111.6055
20
-25.5333158840139
30
0
41
1
10
111.595891848487
20
-25.5498511209733
30
0
41
1
10
111.586867923903
20
-25.5663315893323
30
0
41
1
10
111.570018960149
20
-25.5991763737715
30
0
41
1
10
111.562162348524
20
-25.615616498999
30
0
41
1
10
111.54808217205
20
-25.6477765695351
30
0
41
1
10
111.541826548599
20
-25.663540203776
30
0
41
1
10
111.531248218515
20
-25.6942882460049
30
0
41
1
10
111.526880540947
20
-25.7094347697568
30
0
41
1
10
111.521184962534
20
-25.7376553641793
30
0
41
1
10
111.519788361478
20
-25.7508866646789
30
0
41
1
10
111.521376195424
20
-25.7677676580936
30
0
41
1
10
111.522519045604
20
-25.7728014149721
30
0
41
1
10
111.526402372343
20
-25.7813297714473
30
0
41
1
10
111.529173651342
20
-25.7847936570811
30
0
41
1
10
111.536453758024
20
-25.789331006793
30
0
41
1
10
111.541055609124
20
-25.7904205302319
30
0
41
1
10
111.551571459623
20
-25.7899479027122
30
0
41
1
10
111.557659690864
20
-25.7883850305745
30
0
41
1
10
111.576989835237
20
-25.7803707613262
30
0
41
1
10
111.591355988743
20
-25.7707017605909
30
0
41
1
10
111.6055
20
-25.7591455874819
30
0
0
SPLINE
5
175
100
AcDbEntity
8
1
62
256
6
ByLayer
370
18
48
1
60
0
100
AcDbSpline
70
4
71
3
72
8
73
4
40
0
40
0
40
0
40
0
40
1
40
1
40
1
40
1
41
1
10
111.6055
20
-25.7591455874816
30
0
41
1
10
111.820168300833
20
-25.5837537555398
30
0
41
1
10
112.034835023948
20
-25.4083593488627
30
0
41
1
10
112.2495
20
-25.2329620912908
30
0
0
SPLINE
5
176
100
AcDbEntity
8
1
62
256
6
ByLayer
370
18
48
1
60
0
100
AcDbSpline
70
4
71
3
72
14
73
10
40
0
40
0
40
0
40
0
40
0.25
40
0.25
40
0.5
40
0.5
40
0.75
40
0.75
40
1
40
1
40
1
40
1
41
1
10
112.3245
20
-25.2365834598287
30
0
41
1
10
112.3245
20
-25.2280574715485
30
0
41
1
10
112.323226579452
20
-25.2206332405457
30
0
41
1
10
112.31687672309
20
-25.2094874469187
30
0
41
1
10
112.311677177387
20
-25.2060071462587
30
0
41
1
10
112.297631713328
20
-25.2051536604223
30
0
41
1
10
112.28871910896
20
-25.207793710342
30
0
41
1
10
112.269715629015
20
-25.217628287636
30
0
41
1
10
112.259536321132
20
-25.2247616701736
30
0
41
1
10
112.2495
20
-25.2329620912906
30
0
0
SPLINE
5
177
100
AcDbEntity
8
1
62
256
6
ByLayer
370
18
48
1
60
0
100
AcDbSpline
70
4
71
3
72
14
73
10
40
0
40
0
40
0
40
0
40
0.25
40
0.25
40
0.5
40
0.5
40
0.75
40
0.75
40
1
40
1
40
1
40
1
41
1
10
112.2495
20
-25.5703702247132
30
0
41
1
10
112.259689218242
20
-25.5537244060085
30
0
41
1
10
112.269141071217
20
-25.5371479955473
30
0
41
1
10
112.286488561992
20
-25.5041362228495
30
0
41
1
10
112.294346422854
20
-25.4877581462691
30
0
41
1
10
112.307827214093
20
-25.4560122948547
30
0
41
1
10
112.313524884287
20
-25.4405314920262
30
0
41
1
10
112.321919534253
20
-25.4107737469565
30
0
41
1
10
112.3245
20
-25.397025683911
30
0
41
1
10
112.3245
20
-25.3850933995447
30
0
0
SPLINE
5
178
100
AcDbEntity
8
1
62
256
6
ByLayer
370
18
48
1
60
0
100
AcDbSpline
70
4
71
3
72
8
73
4
40
0
40
0
40
0
40
0
40
1
40
1
40
1
40
1
41
1
10
112.2495
20
-25.5703702247132
30
0
41
1
10
112.038207131738
20
-25.9155530145199
30
0
41
1
10
111.823431123556
20
-26.2578238253877
30
0
41
1
10
111.6055
20
-26.5974568928041
30
0
0
SPLINE
5
179
100
AcDbEntity
8
1
62
256
6
ByLayer
370
18
48
1
60
0
100
AcDbSpline
70
4
71
3
72
24
73
20
40
0
40
0
40
0
40
0
40
0.249999999999987
40
0.249999999999987
40
0.374999999999986
40
0.374999999999986
40
0.499999999999986
40
0.499999999999986
40
0.624999999999985
40
0.624999999999985
40
0.749999999999984
40
0.749999999999984
40
0.812499999999988
40
0.812499999999988
40
0.874999999999992
40
0.874999999999992
40
0.937499999999996
40
0.937499999999996
40
1
40
1
40
1
40
1
41
1
10
111.6055
20
-26.5974568928041
30
0
41
1
10
111.585930635048
20
-26.627954617671
30
0
41
1
10
111.568404377661
20
-26.6584924379041
30
0
41
1
10
111.546981041172
20
-26.7021612457542
30
0
41
1
10
111.540636798332
20
-26.7163852039587
30
0
41
1
10
111.530004961665
20
-26.7439749121277
30
0
41
1
10
111.525755068741
20
-26.7572748958537
30
0
41
1
10
111.520602301041
20
-26.7813697613153
30
0
41
1
10
111.519658004616
20
-26.7924512939753
30
0
41
1
10
111.523058586786
20
-26.8094781184495
30
0
41
1
10
111.527571821705
20
-26.8154965617001
30
0
41
1
10
111.53929320376
20
-26.8179133314042
30
0
41
1
10
111.543873715488
20
-26.817642095108
30
0
41
1
10
111.55432599517
20
-26.8150413247482
30
0
41
1
10
111.56020425055
20
-26.8126777169457
30
0
41
1
10
111.572428193163
20
-26.8063867311992
30
0
41
1
10
111.578926831088
20
-26.8023930464153
30
0
41
1
10
111.592111319828
20
-26.7932881819859
30
0
41
1
10
111.598776586911
20
-26.7882045166474
30
0
41
1
10
111.6055
20
-26.7826993267327
30
0
0
SPLINE
5
17A
100
AcDbEntity
8
1
62
256
6
ByLayer
370
18
48
1
60
0
100
AcDbSpline
70
4
71
3
72
8
73
4
40
0
40
0
40
0
40
0
40
1
40
1
40
1
40
1
41
1
10
111.6055
20
-26.7826993267326
30
0
41
1
10
111.820173237194
20
-26.6069229874504
30
0
41
1
10
112.034840117021
20
-26.4311362953957
30
0
41
1
10
112.2495
20
-26.2553382123749
30
0
0
SPLINE
5
17B
100
AcDbEntity
8
1
62
256
6
ByLayer
370
18
48
1
60
0
100
AcDbSpline
70
4
71
3
72
14
73
10
40
0
40
0
40
0
40
0
40
0.25
40
0.25
40
0.5
40
0.5
40
0.75
40
0.75
40
1
40
1
40
1
40
1
41
1
10
112.3245
20
-26.2467427634162
30
0
41
1
10
112.3245
20
-26.2394710002288
30
0
41
1
10
112.32305055261
20
-26.2333911075695
30
0
41
1
10
112.316255949266
20
-26.2254590605736
30
0
41
1
10
112.31080187969
20
-26.2237332697389
30
0
41
1
10
112.296702547042
20
-26.225613605279
30
0
41
1
10
112.287942439373
20
-26.2292077635721
30
0
41
1
10
112.269327473126
20
-26.2400317807444
30
0
41
1
10
112.259405815922
20
-26.2472257349727
30
0
41
1
10
112.2495
20
-26.2553382123748
30
0
0
SPLINE
5
17C
100
AcDbEntity
8
1
62
256
6
ByLayer
370
18
48
1
60
0
100
AcDbSpline
70
4
71
3
72
14
73
10
40
0
40
0
40
0
40
0
40
0.25
40
0.25
40
0.5
40
0.5
40
0.75
40
0.75
40
1
40
1
40
1
40
1
41
1
10
112.2495
20
-26.5300799335829
30
0
41
1
10
112.259575518723
20
-26.515103372745
30
0
41
1
10
112.26893994717
20
-26.500282137731
30
0
41
1
10
112.286161317257
20
-26.4709631921383
30
0
41
1
10
112.294078365003
20
-26.4563504489578
30
0
41
1
10
112.307745770548
20
-26.4280858342372
30
0
41
1
10
112.313467963412
20
-26.414541490867
30
0
41
1
10
112.321870739995
20
-26.3890624272171
30
0
41
1
10
112.324500000008
20
-26.3772185365104
30
0
41
1
10
112.324500000009
20
-26.3675876053921
30
0
0
SPLINE
5
17D
100
AcDbEntity
8
1
62
256
6
ByLayer
370
18
48
1
60
0
100
AcDbSpline
70
4
71
3
72
8
73
4
40
0
40
0
40
0
40
0
40
1
40
1
40
1
40
1
41
1
10
112.2495
20
-26.5300799335829
30
0
41
1
10
112.037374649206
20
-26.845389577551
30
0
41
1
10
111.822628100131
20
-27.1583021627902
30
0
41
1
10
111.6055
20
-27.4690368442115
30
0
0
SPLINE
5
17E
100
AcDbEntity
8
1
62
256
6
ByLayer
370
18
48
1
60
0
100
AcDbSpline
70
4
71
3
72
22
73
18
40
0
40
0
40
0
40
0
40
0.250000000000014
40
0.250000000000014
40
0.500000000000027
40
0.500000000000027
40
0.62500000000004
40
0.62500000000004
40
0.687500000000052
40
0.687500000000052
40
0.750000000000065
40
0.750000000000065
40
0.875000000000037
40
0.875000000000037
40
0.937500000000018
40
0.937500000000018
40
1
40
1
40
1
40
1
41
1
10
111.6055
20
-27.4690368442115
30
0
41
1
10
111.585591553727
20
-27.4975280653221
30
0
41
1
10
111.56769567603
20
-27.52586355086
30
0
41
1
10
111.53866727079
20
-27.5791828628332
30
0
41
1
10
111.527054952205
20
-27.6049237622154
30
0
41
1
10
111.520158147362
20
-27.6357460390406
30
0
41
1
10
111.519699948155
20
-27.6445659272814
30
0
41
1
10
111.523212287993
20
-27.6538000958584
30
0
41
1
10
111.525072332122
20
-27.6561404219928
30
0
41
1
10
111.53027554466
20
-27.6590961389691
30
0
41
1
10
111.533673850252
20
-27.6596962012999
30
0
41
1
10
111.545626844133
20
-27.6587096977065
30
0
41
1
10
111.556327295088
20
-27.6542651322379
30
0
41
1
10
111.573923678963
20
-27.6437607679609
30
0
41
1
10
111.580143203835
20
-27.6395811173996
30
0
41
1
10
111.592686016535
20
-27.630425455486
30
0
41
1
10
111.599053312079
20
-27.6254275627389
30
0
41
1
10
111.6055
20
-27.6200829661947
30
0
0
SPLINE
5
17F
100
AcDbEntity
8
1
62
256
6
ByLayer
370
18
48
1
60
0
100
AcDbSpline
70
4
71
3
72
8
73
4
40
0
40
0
40
0
40
0
40
1
40
1
40
1
40
1
41
1
10
111.6055
20
-27.6200829661946
30
0
41
1
10
111.820200946825
20
-27.4420861479081
30
0
41
1
10
112.034868684835
20
-27.2640359061465
30
0
41
1
10
112.2495
20
-27.0859271543189
30
0
0
SPLINE
5
180
100
AcDbEntity
8
1
62
256
6
ByLayer
370
18
48
1
60
0
100
AcDbSpline
70
4
71
3
72
14
73
10
40
0
40
0
40
0
40
0
40
0.25
40
0.25
40
0.5
40
0.5
40
0.75
40
0.75
40
1
40
1
40
1
40
1
41
1
10
112.3245
20
-27.0663360248446
30
0
41
1
10
112.3245
20
-27.0602063448816
30
0
41
1
10
112.322879088429
20
-27.0554417118855
30
0
41
1
10
112.315723768599
20
-27.050394459048
30
0
41
1
10
112.31012433525
20
-27.0501458087765
30
0
41
1
10
112.2959401497
20
-27.0543147310198
30
0
41
1
10
112.287363709046
20
-27.0586844662361
30
0
41
1
10
112.269011155193
20
-27.0704653043412
30
0
41
1
10
112.259309512901
20
-27.0777868692096
30
0
41
1
10
112.2495
20
-27.0859271543189
30
0
0
SPLINE
5
181
100
AcDbEntity
8
1
62
256
6
ByLayer
370
18
48
1
60
0
100
AcDbSpline
70
4
71
3
72
12
73
8
40
0
40
0
40
0
40
0
40
0.5
40
0.5
40
0.75
40
0.75
40
1
40
1
40
1
40
1
41
1
10
112.2495
20
-27.3075317791603
30
0
41
1
10
112.269569104578
20
-27.2800446718393
30
0
41
1
10
112.287037981678
20
-27.253389227797
30
0
41
1
10
112.307741596853
20
-27.2153783121061
30
0
41
1
10
112.313491339927
20
-27.2034216639816
30
0
41
1
10
112.321898093649
20
-27.1814239866425
30
0
41
1
10
112.324500000003
20
-27.1714323312695
30
0
41
1
10
112.324500000003
20
-27.1637626739603
30
0
0
SPLINE
5
182
100
AcDbEntity
8
1
62
256
6
ByLayer
370
18
48
1
60
0
100
AcDbSpline
70
4
71
3
72
8
73
4
40
0
40
0
40
0
40
0
40
1
40
1
40
1
40
1
41
1
10
112.2495
20
-27.3075317791603
30
0
41
1
10
112.036782319601
20
-27.5988748078191
30
0
41
1
10
111.822056039247
20
-27.8882313992869
30
0
41
1
10
111.6055
20
-28.1757784213043
30
0
0
SPLINE
5
183
100
AcDbEntity
8
1
62
256
6
ByLayer
370
18
48
1
60
0
100
AcDbSpline
70
4
71
3
72
22
73
18
40
0
40
0
40
0
40
0
40
0.250000000000031
40
0.250000000000031
40
0.375000000000026
40
0.375000000000026
40
0.500000000000021
40
0.500000000000021
40
0.625000000000015
40
0.625000000000015
40
0.75000000000001
40
0.75000000000001
40
0.812500000000007
40
0.812500000000007
40
0.875000000000003
40
0.875000000000003
40
1
40
1
40
1
40
1
41
1
10
111.6055
20
-28.1757784213043
30
0
41
1
10
111.585273555258
20
-28.2026354601184
30
0
41
1
10
111.566956451892
20
-28.2292229400243
30
0
41
1
10
111.544833531636
20
-28.2660678844065
30
0
41
1
10
111.538266574183
20
-28.2779981266209
30
0
41
1
10
111.527742828944
20
-28.3000981082553
30
0
41
1
10
111.523823971669
20
-28.3101313539303
30
0
41
1
10
111.519863891674
20
-28.3272662268364
30
0
41
1
10
111.519984207007
20
-28.3340533284695
30
0
41
1
10
111.525780981227
20
-28.3417522150087
30
0
41
1
10
111.531601008418
20
-28.3425395578433
30
0
41
1
10
111.54372645532
20
-28.3388915542783
30
0
41
1
10
111.548412658276
20
-28.3368666430987
30
0
41
1
10
111.558472329125
20
-28.3315512620657
30
0
41
1
10
111.563846554174
20
-28.3282779831857
30
0
41
1
10
111.580853219547
20
-28.3168828358453
30
0
41
1
10
111.593068792019
20
-28.3073886497742
30
0
41
1
10
111.6055
20
-28.2968754376165
30
0
0
SPLINE
5
184
100
AcDbEntity
8
1
62
256
6
ByLayer
370
18
48
1
60
0
100
AcDbSpline
70
4
71
3
72
8
73
4
40
0
40
0
40
0
40
0
40
1
40
1
40
1
40
1
41
1
10
111.6055
20
-28.2968754376164
30
0
41
1
10
111.820244754008
20
-28.11526338816
30
0
41
1
10
112.034913814811
20
-27.9335319303368
30
0
41
1
10
112.2495
20
-27.7516701480928
30
0
0
SPLINE
5
185
100
AcDbEntity
8
1
62
256
6
ByLayer
370
18
48
1
60
0
100
AcDbSpline
70
4
71
3
72
14
73
10
40
0
40
0
40
0
40
0
40
0.25
40
0.25
40
0.5
40
0.5
40
0.75
40
0.75
40
1
40
1
40
1
40
1
41
1
10
112.3245
20
-27.7218227111435
30
0
41
1
10
112.3245
20
-27.7167636827918
30
0
41
1
10
112.322749381051
20
-27.7133264469951
30
0
41
1
10
112.315245830478
20
-27.7108983856196
30
0
41
1
10
112.309604124007
20
-27.7119307814348
30
0
41
1
10
112.295315870072
20
-27.7181361744954
30
0
41
1
10
112.286939122699
20
-27.7231633913709
30
0
41
1
10
112.268758907568
20
-27.7359097762675
30
0
41
1
10
112.259245573468
20
-27.7434107750192
30
0
41
1
10
112.2495
20
-27.7516701480928
30
0
0
SPLINE
5
186
100
AcDbEntity
8
1
62
256
6
ByLayer
370
18
48
1
60
0
100
AcDbSpline
70
4
71
3
72
14
73
10
40
0
40
0
40
0
40
0
40
0.25
40
0.25
40
0.5
40
0.5
40
0.75
40
0.75
40
1
40
1
40
1
40
1
41
1
10
112.2495
20
-27.9264544727241
30
0
41
1
10
112.25944527166
20
-27.9137839384981
30
0
41
1
10
112.268857873782
20
-27.9012296925005
30
0
41
1
10
112.286063126254
20
-27.8769739480124
30
0
41
1
10
112.293918864435
20
-27.865200408821
30
0
41
1
10
112.307730134248
20
-27.8425488566719
30
0
41
1
10
112.313549981919
20
-27.831883452387
30
0
41
1
10
112.321938888577
20
-27.8129323227157
30
0
41
1
10
112.324500000001
20
-27.8045938255255
30
0
41
1
10
112.324500000001
20
-27.7986396737449
30
0
0
SPLINE
5
187
100
AcDbEntity
8
1
62
256
6
ByLayer
370
18
48
1
60
0
100
AcDbSpline
70
4
71
3
72
8
73
4
40
0
40
0
40
0
40
0
40
1
40
1
40
1
40
1
41
1
10
112.2495
20
-27.9264544727241
30
0
41
1
10
112.036344592726
20
-28.1980199940686
30
0
41
1
10
111.821632798019
20
-28.46793539229
30
0
41
1
10
111.6055
20
-28.7363442052146
30
0
0
SPLINE
5
188
100
AcDbEntity
8
1
62
256
6
ByLayer
370
18
48
1
60
0
100
AcDbSpline
70
4
71
3
72
24
73
20
40
0
40
0
40
0
40
0
40
0.249999999999982
40
0.249999999999982
40
0.374999999999971
40
0.374999999999971
40
0.49999999999996
40
0.49999999999996
40
0.624999999999949
40
0.624999999999949
40
0.687499999999956
40
0.687499999999956
40
0.749999999999963
40
0.749999999999963
40
0.812499999999971
40
0.812499999999971
40
0.874999999999978
40
0.874999999999978
40
1
40
1
40
1
40
1
41
1
10
111.6055
20
-28.7363442052146
30
0
41
1
10
111.584933659893
20
-28.7618849236291
30
0
41
1
10
111.566264229825
20
-28.7868862910127
30
0
41
1
10
111.543766769786
20
-28.8209469214415
30
0
41
1
10
111.537092163987
20
-28.8318990550104
30
0
41
1
10
111.526746101153
20
-28.8513838063828
30
0
41
1
10
111.522951087146
20
-28.8601468439844
30
0
41
1
10
111.519744344447
20
-28.8737149412441
30
0
41
1
10
111.520396419323
20
-28.8785001258787
30
0
41
1
10
111.525477759379
20
-28.8812221123845
30
0
41
1
10
111.527888375931
20
-28.8813989058138
30
0
41
1
10
111.533838386635
20
-28.8802752371659
30
0
41
1
10
111.537384868344
20
-28.8789999511004
30
0
41
1
10
111.545559270928
20
-28.8751024509132
30
0
41
1
10
111.550188285926
20
-28.8724678743436
30
0
41
1
10
111.559992242756
20
-28.866232942027
30
0
41
1
10
111.565218656667
20
-28.8626093330226
30
0
41
1
10
111.581754020229
20
-28.8504066896326
30
0
41
1
10
111.593447968638
20
-28.8408583968401
30
0
41
1
10
111.6055
20
-28.8304003628102
30
0
0
SPLINE
5
189
100
AcDbEntity
8
1
62
256
6
ByLayer
370
18
48
1
60
0
100
AcDbSpline
70
4
71
3
72
8
73
4
40
0
40
0
40
0
40
0
40
1
40
1
40
1
40
1
41
1
10
111.6055
20
-28.8304003628101
30
0
41
1
10
111.820302546545
20
-28.6440075237985
30
0
41
1
10
112.034973355329
20
-28.4574120577276
30
0
41
1
10
112.2495
20
-28.2705960321683
30
0
0
SPLINE
5
18A
100
AcDbEntity
8
1
62
256
6
ByLayer
370
18
48
1
60
0
100
AcDbSpline
70
4
71
3
72
14
73
10
40
0
40
0
40
0
40
0
40
0.25
40
0.25
40
0.5
40
0.5
40
0.75
40
0.75
40
1
40
1
40
1
40
1
41
1
10
112.3245
20
-28.2309126238238
30
0
41
1
10
112.3245
20
-28.2269178971008
30
0
41
1
10
112.322626132983
20
-28.2247594643014
30
0
41
1
10
112.314843542028
20
-28.2248115931792
30
0
41
1
10
112.309162894578
20
-28.226981040974
30
0
41
1
10
112.294854222523
20
-28.2350325359301
30
0
41
1
10
112.286589612437
20
-28.2407014516844
30
0
41
1
10
112.26861271811
20
-28.254375599661
30
0
41
1
10
112.259209704467
20
-28.2621405398416
30
0
41
1
10
112.2495
20
-28.2705960321683
30
0
0
SPLINE
5
18B
100
AcDbEntity
8
1
62
256
6
ByLayer
370
18
48
1
60
0
100
AcDbSpline
70
4
71
3
72
12
73
8
40
0
40
0
40
0
40
0
40
0.499999999999938
40
0.499999999999938
40
0.749999999999969
40
0.749999999999969
40
1
40
1
40
1
40
1
41
1
10
112.2495
20
-28.4028498781752
30
0
41
1
10
112.269213771312
20
-28.3793119136173
30
0
41
1
10
112.287076122895
20
-28.3563670284796
30
0
41
1
10
112.307711737403
20
-28.3260475722174
30
0
41
1
10
112.313626340585
20
-28.3165008078665
30
0
41
1
10
112.322002481336
20
-28.3002470594535
30
0
41
1
10
112.3245
20
-28.293440494456
30
0
41
1
10
112.3245
20
-28.2890240128755
30
0
0
SPLINE
5
18C
100
AcDbEntity
8
1
62
256
6
ByLayer
370
18
48
1
60
0
100
AcDbSpline
70
4
71
3
72
8
73
4
40
0
40
0
40
0
40
0
40
1
40
1
40
1
40
1
41
1
10
112.2495
20
-28.4028498781752
30
0
41
1
10
112.036011628907
20
-28.6577519784765
30
0
41
1
10
111.821310496289
20
-28.9112851613349
30
0
41
1
10
111.6055
20
-29.1635661381751
30
0
0
SPLINE
5
18D
100
AcDbEntity
8
1
62
256
6
ByLayer
370
18
48
1
60
0
100
AcDbSpline
70
4
71
3
72
22
73
18
40
0
40
0
40
0
40
0
40
0.249999999999959
40
0.249999999999959
40
0.37499999999994
40
0.37499999999994
40
0.499999999999922
40
0.499999999999922
40
0.624999999999903
40
0.624999999999903
40
0.687499999999905
40
0.687499999999905
40
0.749999999999907
40
0.749999999999907
40
0.874999999999954
40
0.874999999999954
40
1
40
1
40
1
40
1
41
1
10
111.6055
20
-29.1635661381751
30
0
41
1
10
111.58461800242
20
-29.1879770488517
30
0
41
1
10
111.565507179619
20
-29.2117045234637
30
0
41
1
10
111.542689990122
20
-29.2431162129388
30
0
41
1
10
111.5359677808
20
-29.2530413976178
30
0
41
1
10
111.525788698556
20
-29.2700761212655
30
0
41
1
10
111.522209442212
20
-29.2774045374631
30
0
41
1
10
111.519750506565
20
-29.2875719003495
30
0
41
1
10
111.520917187491
20
-29.290403795087
30
0
41
1
10
111.526613240173
20
-29.2903641595357
30
0
41
1
10
111.529188583589
20
-29.2896418406777
30
0
41
1
10
111.535367825739
20
-29.2869190401382
30
0
41
1
10
111.53899628437
20
-29.2849212703509
30
0
41
1
10
111.551354752463
20
-29.2771657902722
30
0
41
1
10
111.561088840106
20
-29.2699596696235
30
0
41
1
10
111.58248539173
20
-29.2527621693601
30
0
41
1
10
111.593773139625
20
-29.243075582227
30
0
41
1
10
111.6055
20
-29.2325844562761
30
0
0
SPLINE
5
18E
100
AcDbEntity
8
1
62
256
6
ByLayer
370
18
48
1
60
0
100
AcDbSpline
70
4
71
3
72
8
73
4
40
0
40
0
40
0
40
0
40
1
40
1
40
1
40
1
41
1
10
111.6055
20
-29.232584456276
30
0
41
1
10
111.820374683942
20
-29.0403524947096
30
0
41
1
10
112.035047370323
20
-28.8478202535533
30
0
41
1
10
112.2495
20
-28.654960886978
30
0
0
SPLINE
5
18F
100
AcDbEntity
8
1
62
256
6
ByLayer
370
18
48
1
60
0
100
AcDbSpline
70
4
71
3
72
14
73
10
40
0
40
0
40
0
40
0
40
0.250000000000006
40
0.250000000000006
40
0.500000000000004
40
0.500000000000004
40
0.750000000000002
40
0.750000000000002
40
1
40
1
40
1
40
1
41
1
10
112.3245
20
-28.6056268367875
30
0
41
1
10
112.3245
20
-28.6027236160964
30
0
41
1
10
112.322517994515
20
-28.6018009379686
30
0
41
1
10
112.314553010295
20
-28.6042057169859
30
0
41
1
10
112.308714308758
20
-28.6074938193305
30
0
41
1
10
112.294527150197
20
-28.6172106493221
30
0
41
1
10
112.286278550289
20
-28.6235597234354
30
0
41
1
10
112.268517881695
20
-28.6381579323393
30
0
41
1
10
112.259182938242
20
-28.646252925044
30
0
41
1
10
112.2495
20
-28.654960886978
30
0
0
SPLINE
5
190
100
AcDbEntity
8
1
62
256
6
ByLayer
370
18
48
1
60
0
100
AcDbSpline
70
4
71
3
72
12
73
8
40
0
40
0
40
0
40
0
40
0.499999999999987
40
0.499999999999987
40
0.749999999999993
40
0.749999999999993
40
1
40
1
40
1
40
1
41
1
10
112.2495
20
-28.7475864397169
30
0
41
1
10
112.269096039341
20
-28.7255245029813
30
0
41
1
10
112.287055571439
20
-28.7041980616753
30
0
41
1
10
112.307771252659
20
-28.6769230565227
30
0
41
1
10
112.313708424421
20
-28.6685026888432
30
0
41
1
10
112.322055283879
20
-28.6547549787377
30
0
41
1
10
112.3245
20
-28.6493424979474
30
0
41
1
10
112.3245
20
-28.6463193271823
30
0
0
SPLINE
5
191
100
AcDbEntity
8
1
62
256
6
ByLayer
370
18
48
1
60
0
100
AcDbSpline
70
4
71
3
72
8
73
4
40
0
40
0
40
0
40
0
40
1
40
1
40
1
40
1
41
1
10
112.2495
20
-28.7475864397169
30
0
41
1
10
112.03575253422
20
-28.9882311427327
30
0
41
1
10
111.821059437748
20
-29.2277459581948
30
0
41
1
10
111.6055
20
-29.4662256251216
30
0
0
SPLINE
5
192
100
AcDbEntity
8
1
62
256
6
ByLayer
370
18
48
1
60
0
100
AcDbSpline
70
4
71
3
72
20
73
16
40
0
40
0
40
0
40
0
40
0.249999999999954
40
0.249999999999954
40
0.374999999999962
40
0.374999999999962
40
0.499999999999969
40
0.499999999999969
40
0.624999999999977
40
0.624999999999977
40
0.749999999999985
40
0.749999999999985
40
0.874999999999992
40
0.874999999999992
40
1
40
1
40
1
40
1
41
1
10
111.6055
20
-29.4662256251216
30
0
41
1
10
111.584252717749
20
-29.4897321106051
30
0
41
1
10
111.564759178412
20
-29.512245602338
30
0
41
1
10
111.541538810157
20
-29.5412455910611
30
0
41
1
10
111.534819153131
20
-29.5501143780702
30
0
41
1
10
111.524848890269
20
-29.5647104400403
30
0
41
1
10
111.52154227505
20
-29.5705386140865
30
0
41
1
10
111.519879790056
20
-29.5773439817586
30
0
41
1
10
111.521526851207
20
-29.5782810305198
30
0
41
1
10
111.529927354216
20
-29.5747851907473
30
0
41
1
10
111.536474905501
20
-29.5704541370686
30
0
41
1
10
111.552728930923
20
-29.5580671841504
30
0
41
1
10
111.562321241512
20
-29.5501066098877
30
0
41
1
10
111.583076711062
20
-29.5320647148509
30
0
41
1
10
111.594055349581
20
-29.5221514838591
30
0
41
1
10
111.6055
20
-29.5115512430934
30
0
0
SPLINE
5
193
100
AcDbEntity
8
1
62
256
6
ByLayer
370
18
48
1
60
0
100
AcDbSpline
70
4
71
3
72
8
73
4
40
0
40
0
40
0
40
0
40
1
40
1
40
1
40
1
41
1
10
111.6055
20
-29.5115512430934
30
0
41
1
10
111.820462678659
20
-29.31244894935
30
0
41
1
10
112.035137860735
20
-29.1129342405493
30
0
41
1
10
112.2495
20
-28.9129704705177
30
0
0
SPLINE
5
194
100
AcDbEntity
8
1
62
256
6
ByLayer
370
18
48
1
60
0
100
AcDbSpline
70
4
71
3
72
14
73
10
40
0
40
0
40
0
40
0
40
0.25
40
0.25
40
0.5
40
0.5
40
0.75
40
0.75
40
1
40
1
40
1
40
1
41
1
10
112.3245
20
-28.8539790198802
30
0
41
1
10
112.3245
20
-28.852185749926
30
0
41
1
10
112.322387809429
20
-28.8524939229067
30
0
41
1
10
112.31432502053
20
-28.8571560020603
30
0
41
1
10
112.308413901572
20
-28.8614855289318
30
0
41
1
10
112.294315803534
20
-28.8728206174963
30
0
41
1
10
112.286083471685
20
-28.879854510313
30
0
41
1
10
112.268476646095
20
-28.8954524968059
30
0
41
1
10
112.25918196488
20
-28.9039388280576
30
0
41
1
10
112.2495
20
-28.9129704705177
30
0
0
SPLINE
5
195
100
AcDbEntity
8
1
62
256
6
ByLayer
370
18
48
1
60
0
100
AcDbSpline
70
4
71
3
72
14
73
10
40
0
40
0
40
0
40
0
40
0.25
40
0.25
40
0.5
40
0.5
40
0.75
40
0.75
40
1
40
1
40
1
40
1
41
1
10
112.2495
20
-28.9678441313361
30
0
41
1
10
112.259249604116
20
-28.9574402745057
30
0
41
1
10
112.268519251578
20
-28.9473921852377
30
0
41
1
10
112.285911691607
20
-28.9281390396628
30
0
41
1
10
112.293983863503
20
-28.918985371031
30
0
41
1
10
112.307857926255
20
-28.9026525202925
30
0
41
1
10
112.313812257457
20
-28.8952874257051
30
0
41
1
10
112.322116596227
20
-28.883899953024
30
0
41
1
10
112.3245
20
-28.8798131548509
30
0
41
1
10
112.3245
20
-28.8780838423543
30
0
0
SPLINE
5
196
100
AcDbEntity
8
1
62
256
6
ByLayer
370
18
48
1
60
0
100
AcDbSpline
70
4
71
3
72
8
73
4
40
0
40
0
40
0
40
0
40
1
40
1
40
1
40
1
41
1
10
112.2495
20
-28.9678441313361
30
0
41
1
10
112.035547222369
20
-29.1961543314658
30
0
41
1
10
111.820860303431
20
-29.4235405354009
30
0
41
1
10
111.6055
20
-29.6500792121577
30
0
0
SPLINE
5
197
100
AcDbEntity
8
1
62
256
6
ByLayer
370
18
48
1
60
0
100
AcDbSpline
70
4
71
3
72
16
73
12
40
0
40
0
40
0
40
0
40
0.244870256117896
40
0.244870256117896
40
0.489740512235793
40
0.489740512235793
40
0.734610768353689
40
0.734610768353689
40
0.979481024471586
40
0.979481024471586
40
1
40
1
40
1
40
1
41
1
10
111.6055
20
-29.6500792121577
30
0
41
1
10
111.594645499765
20
-29.6614971201053
30
0
41
1
10
111.584309331155
20
-29.6724989869337
30
0
41
1
10
111.56505550703
20
-29.6932971537009
30
0
41
1
10
111.555990486057
20
-29.7032556166844
30
0
41
1
10
111.54029226655
20
-29.7209485260459
30
0
41
1
10
111.533596073865
20
-29.7287511946129
30
0
41
1
10
111.523858984405
20
-29.740889765792
30
0
41
1
10
111.520927423352
20
-29.7451121254574
30
0
41
1
10
111.52051236312
20
-29.7469103574359
30
0
41
1
10
111.520498569531
20
-29.7470311500924
30
0
41
1
10
111.520502839793
20
-29.747133853093
30
0
0
SPLINE
5
198
100
AcDbEntity
8
1
62
256
6
ByLayer
370
18
48
1
60
0
100
AcDbSpline
70
4
71
3
72
14
73
10
40
0
40
0
40
0
40
0
40
0.137563763813559
40
0.137563763813559
40
0.425042509209039
40
0.425042509209039
40
0.712521254604519
40
0.712521254604519
40
1
40
1
40
1
40
1
41
1
10
111.522014959552
20
-29.7472840728837
30
0
41
1
10
111.523080566017
20
-29.7468148993608
30
0
41
1
10
111.524695456824
20
-29.7457814913062
30
0
41
1
10
111.531247893089
20
-29.7409318597074
30
0
41
1
10
111.537981591735
20
-29.7352591146847
30
0
41
1
10
111.554046439389
20
-29.721005839838
30
0
41
1
10
111.563557694582
20
-29.7122726293567
30
0
41
1
10
111.583646628483
20
-29.6934639928731
30
0
41
1
10
111.594317921063
20
-29.6833078186817
30
0
41
1
10
111.6055
20
-29.67254327625
30
0
0
SPLINE
5
199
100
AcDbEntity
8
1
62
256
6
ByLayer
370
18
48
1
60
0
100
AcDbSpline
70
4
71
3
72
8
73
4
40
0
40
0
40
0
40
0
40
1
40
1
40
1
40
1
41
1
10
111.6055
20
-29.67254327625
30
0
41
1
10
111.820569637573
20
-29.4655042942751
30
0
41
1
10
112.035247896482
20
-29.2579256967411
30
0
41
1
10
112.2495
20
-29.0497595350354
30
0
0
SPLINE
5
19A
100
AcDbEntity
8
1
62
256
6
ByLayer
370
18
48
1
60
0
100
AcDbSpline
70
4
71
3
72
14
73
10
40
0
40
0
40
0
40
0
40
0.25
40
0.25
40
0.5
40
0.5
40
0.75
40
0.75
40
1
40
1
40
1
40
1
41
1
10
112.3245
20
-28.9809298975149
30
0
41
1
10
112.3245
20
-28.9802749397073
30
0
41
1
10
112.322268657052
20
-28.9818256856907
30
0
41
1
10
112.314108956146
20
-28.9887118861319
30
0
41
1
10
112.308141619218
20
-28.9940733211362
30
0
41
1
10
112.294092745741
20
-29.0070547541498
30
0
41
1
10
112.285840184445
20
-29.0148307852947
30
0
41
1
10
112.268427871024
20
-29.0314404543229
30
0
41
1
10
112.259184127082
20
-29.0403504905921
30
0
41
1
10
112.2495
20
-29.0497595350354
30
0
0
SPLINE
5
19B
100
AcDbEntity
8
1
62
256
6
ByLayer
370
18
48
1
60
0
100
AcDbSpline
70
4
71
3
72
14
73
10
40
0
40
0
40
0
40
0
40
0.25
40
0.25
40
0.5
40
0.5
40
0.75
40
0.75
40
1
40
1
40
1
40
1
41
1
10
112.2495
20
-29.0679370847155
30
0
41
1
10
112.259211278108
20
-29.0580695895894
30
0
41
1
10
112.268463174683
20
-29.0486275483862
30
0
41
1
10
112.285857479136
20
-29.0307635373025
30
0
41
1
10
112.294025317656
20
-29.0223134800282
30
0
41
1
10
112.307974433677
20
-29.0077038595556
30
0
41
1
10
112.313940209129
20
-29.0013494349122
30
0
41
1
10
112.322186827721
20
-28.9922305495165
30
0
41
1
10
112.3245
20
-28.9894242585628
30
0
41
1
10
112.3245
20
-28.988914520495
30
0
0
SPLINE
5
19C
100
AcDbEntity
8
1
62
256
6
ByLayer
370
18
48
1
60
0
100
AcDbSpline
70
4
71
3
72
8
73
4
40
0
40
0
40
0
40
0
40
1
40
1
40
1
40
1
41
1
10
112.2495
20
-29.0679370847154
30
0
41
1
10
112.035382142102
20
-29.2854992733109
30
0
41
1
10
111.820700052471
20
-29.5023166855204
30
0
41
1
10
111.6055
20
-29.7184503955052
30
0
0
SPLINE
5
19D
100
AcDbEntity
8
1
62
256
6
ByLayer
370
18
48
1
60
0
100
AcDbSpline
70
4
71
3
72
18
73
14
40
0
40
0
40
0
40
0
40
0.249968095614629
40
0.249968095614629
40
0.499936191229259
40
0.499936191229259
40
0.749904286843889
40
0.749904286843889
40
0.874888334651196
40
0.874888334651196
40
0.999872382458504
40
0.999872382458504
40
1
40
1
40
1
40
1
41
1
10
111.6055
20
-29.7184503955052
30
0
41
1
10
111.594473615081
20
-29.7295246190149
30
0
41
1
10
111.583803369287
20
-29.7402505448278
30
0
41
1
10
111.564083431371
20
-29.760087248044
30
0
41
1
10
111.555014921523
20
-29.7692168101359
30
0
41
1
10
111.538999468337
20
-29.7853486325378
30
0
41
1
10
111.53232660182
20
-29.7920748098037
30
0
41
1
10
111.52533432643
20
-29.7991246202076
30
0
41
1
10
111.523536304035
20
-29.8009378239266
30
0
41
1
10
111.521100737935
20
-29.8033940774064
30
0
41
1
10
111.520483021234
20
-29.8040171245136
30
0
41
1
10
111.520499697022
20
-29.8040003055791
30
0
41
1
10
111.52050040117
20
-29.8039995953858
30
0
41
1
10
111.520501105316
20
-29.8039988851888
30
0
0
SPLINE
5
19E
100
AcDbEntity
8
1
62
256
6
ByLayer
370
18
48
1
60
0
100
AcDbSpline
70
4
71
3
72
14
73
10
40
0
40
0
40
0
40
0
40
0.249137037202548
40
0.249137037202548
40
0.499424691468365
40
0.499424691468365
40
0.749712345734183
40
0.749712345734183
40
1
40
1
40
1
40
1
41
1
10
111.520501007096
20
9.80399898423588
30
0
41
1
10
111.520559199611
20
9.80394028887292
30
0
41
1
10
111.523178205281
20
9.80129844450659
30
0
41
1
10
111.532509978376
20
9.79188996415206
30
0
41
1
10
111.539284482808
20
9.78506146533888
30
0
41
1
10
111.555149357874
20
9.76908148095185
30
0
41
1
10
111.564434787015
20
9.75973365726327
30
0
41
1
10
111.584091600717
20
9.73996076654049
30
0
41
1
10
111.59453851892
20
9.72945943358698
30
0
41
1
10
111.6055
20
9.71845039550522
30
0
0
SPLINE
5
19F
100
AcDbEntity
8
1
62
256
6
ByLayer
370
18
48
1
60
0
100
AcDbSpline
70
4
71
3
72
8
73
4
40
0
40
0
40
0
40
0
40
1
40
1
40
1
40
1
41
1
10
111.6055
20
9.71845039550519
30
0
41
1
10
111.820700052471
20
9.50231668552041
30
0
41
1
10
112.035382142102
20
9.28549927331085
30
0
41
1
10
112.2495
20
9.06793708471542
30
0
0
SPLINE
5
1A0
100
AcDbEntity
8
1
62
256
6
ByLayer
370
18
48
1
60
0
100
AcDbSpline
70
4
71
3
72
14
73
10
40
0
40
0
40
0
40
0
40
0.25
40
0.25
40
0.5
40
0.5
40
0.75
40
0.75
40
1
40
1
40
1
40
1
41
1
10
112.3245
20
8.98891452049503
30
0
41
1
10
112.3245
20
8.98942474550319
30
0
41
1
10
112.322179475846
20
8.99223881587236
30
0
41
1
10
112.313940423871
20
9.00134906048473
30
0
41
1
10
112.307976181869
20
9.00770212838873
30
0
41
1
10
112.294003407622
20
9.02233632757569
30
0
41
1
10
112.285821046889
20
9.03080106470526
30
0
41
1
10
112.268451733647
20
9.04863918670358
30
0
41
1
10
112.259208205955
20
9.05807271116109
30
0
41
1
10
112.2495
20
9.06793708471545
30
0
0
SPLINE
5
1A1
100
AcDbEntity
8
1
62
256
6
ByLayer
370
18
48
1
60
0
100
AcDbSpline
70
4
71
3
72
14
73
10
40
0
40
0
40
0
40
0
40
0.25
40
0.25
40
0.5
40
0.5
40
0.75
40
0.75
40
1
40
1
40
1
40
1
41
1
10
112.249500000001
20
9.04975953503467
30
0
41
1
10
112.259250762044
20
9.0402857484307
30
0
41
1
10
112.268531564471
20
9.03134075159363
30
0
41
1
10
112.285956831417
20
9.0147203145367
30
0
41
1
10
112.294181236189
20
9.00697211835796
30
0
41
1
10
112.308177764175
20
8.99404079915149
30
0
41
1
10
112.314130113209
20
8.98869333734447
30
0
41
1
10
112.322274316532
20
8.98182160553154
30
0
41
1
10
112.3245
20
8.9802755671428
30
0
41
1
10
112.3245
20
8.98092989751487
30
0
0
SPLINE
5
1A2
100
AcDbEntity
8
1
62
256
6
ByLayer
370
18
48
1
60
0
100
AcDbSpline
70
4
71
3
72
8
73
4
40
0
40
0
40
0
40
0
40
1
40
1
40
1
40
1
41
1
10
112.2495
20
9.04975953503538
30
0
41
1
10
112.035247896482
20
9.25792569674107
30
0
41
1
10
111.820569637573
20
9.46550429427512
30
0
41
1
10
111.6055
20
9.67254327625002
30
0
0
SPLINE
5
1A3
100
AcDbEntity
8
1
62
256
6
ByLayer
370
18
48
1
60
0
100
AcDbSpline
70
4
71
3
72
12
73
8
40
0
40
0
40
0
40
0
40
0.56729100279638
40
0.56729100279638
40
0.850936504194571
40
0.850936504194571
40
1
40
1
40
1
40
1
41
1
10
111.6055
20
9.67254327625002
30
0
41
1
10
111.582995531699
20
9.69420743237885
30
0
41
1
10
111.561880388332
20
9.71406742094379
30
0
41
1
10
111.537703837473
20
9.73549934259793
30
0
41
1
10
111.531044068949
20
9.74110008243713
30
0
41
1
10
111.524328360077
20
9.74604353116098
30
0
41
1
10
111.522644752756
20
9.74708299905834
30
0
41
1
10
111.52163204422
20
9.74743770720687
30
0
0
SPLINE
5
1A4
100
AcDbEntity
8
1
62
256
6
ByLayer
370
18
48
1
60
0
100
AcDbSpline
70
4
71
3
72
16
73
12
40
0
40
0
40
0
40
0
40
0.0197386846697759
40
0.0197386846697759
40
0.264804013502332
40
0.264804013502332
40
0.509869342334888
40
0.509869342334888
40
0.754934671167444
40
0.754934671167444
40
1
40
1
40
1
40
1
41
1
10
111.520502875857
20
9.74707214759766
30
0
41
1
10
111.520505348206
20
9.74696734363195
30
0
41
1
10
111.520524302163
20
9.74684608029384
30
0
41
1
10
111.521001668514
20
9.74499743643668
30
0
41
1
10
111.523988903455
20
9.74071942935163
30
0
41
1
10
111.533694886272
20
9.72863658740957
30
0
41
1
10
111.540469432587
20
9.72074546461485
30
0
41
1
10
111.556128818467
20
9.70310315990702
30
0
41
1
10
111.565209562342
20
9.69312889686523
30
0
41
1
10
111.584481683939
20
9.67231468612229
30
0
41
1
10
111.594730817489
20
9.66140737392584
30
0
41
1
10
111.6055
20
9.65007921215766
30
0
0
SPLINE
5
1A5
100
AcDbEntity
8
1
62
256
6
ByLayer
370
18
48
1
60
0
100
AcDbSpline
70
4
71
3
72
8
73
4
40
0
40
0
40
0
40
0
40
1
40
1
40
1
40
1
41
1
10
111.6055
20
9.65007921215764
30
0
41
1
10
111.820860303431
20
9.42354053540089
30
0
41
1
10
112.035547222369
20
9.19615433146583
30
0
41
1
10
112.2495
20
8.96784413133611
30
0
0
SPLINE
5
1A6
100
AcDbEntity
8
1
62
256
6
ByLayer
370
18
48
1
60
0
100
AcDbSpline
70
4
71
3
72
14
73
10
40
0
40
0
40
0
40
0
40
0.25
40
0.25
40
0.5
40
0.5
40
0.75
40
0.75
40
1
40
1
40
1
40
1
41
1
10
112.3245
20
8.87808384235433
30
0
41
1
10
112.3245
20
8.87981739553464
30
0
41
1
10
112.322101363894
20
8.88392236969085
30
0
41
1
10
112.313803229543
20
8.89529827185439
30
0
41
1
10
112.307850216532
20
8.90266227384552
30
0
41
1
10
112.293951093776
20
8.91902326879722
30
0
41
1
10
112.285833579189
20
8.92822636360802
30
0
41
1
10
112.268493944553
20
8.94741933980359
30
0
41
1
10
112.259242453395
20
8.95744790507987
30
0
41
1
10
112.2495
20
8.96784413133614
30
0
0
SPLINE
5
1A7
100
AcDbEntity
8
1
62
256
6
ByLayer
370
18
48
1
60
0
100
AcDbSpline
70
4
71
3
72
14
73
10
40
0
40
0
40
0
40
0
40
0.25
40
0.25
40
0.5
40
0.5
40
0.75
40
0.75
40
1
40
1
40
1
40
1
41
1
10
112.2495
20
8.91297047051773
30
0
41
1
10
112.259218158141
20
8.90390506584203
30
0
41
1
10
112.268664569286
20
8.89528357265905
30
0
41
1
10
112.286149535274
20
8.87979846184439
30
0
41
1
10
112.294375221403
20
8.87277050371881
30
0
41
1
10
112.308474637326
20
8.8614390573629
30
0
41
1
10
112.314381647126
20
8.85711984670587
30
0
41
1
10
112.322377751326
20
8.85250317126412
30
0
41
1
10
112.3245
20
8.85220492600413
30
0
41
1
10
112.3245
20
8.85397901988017
30
0
0
SPLINE
5
1A8
100
AcDbEntity
8
1
62
256
6
ByLayer
370
18
48
1
60
0
100
AcDbSpline
70
4
71
3
72
8
73
4
40
0
40
0
40
0
40
0
40
1
40
1
40
1
40
1
41
1
10
112.2495
20
8.91297047051773
30
0
41
1
10
112.035137860735
20
9.11293424054929
30
0
41
1
10
111.820462678659
20
9.31244894934997
30
0
41
1
10
111.6055
20
9.51155124309341
30
0
0
SPLINE
5
1A9
100
AcDbEntity
8
1
62
256
6
ByLayer
370
18
48
1
60
0
100
AcDbSpline
70
4
71
3
72
22
73
18
40
0
40
0
40
0
40
0
40
0.250000000000103
40
0.250000000000103
40
0.312500000000106
40
0.312500000000106
40
0.375000000000108
40
0.375000000000108
40
0.500000000000086
40
0.500000000000086
40
0.625000000000065
40
0.625000000000065
40
0.750000000000043
40
0.750000000000043
40
0.875000000000022
40
0.875000000000022
40
1
40
1
40
1
40
1
41
1
10
111.6055
20
9.51155124309344
30
0
41
1
10
111.582537997433
20
9.53281906227286
30
0
41
1
10
111.560753547666
20
9.55196541200752
30
0
41
1
10
111.54040488847
20
9.56745567058795
30
0
41
1
10
111.536759223766
20
9.57006690541934
30
0
41
1
10
111.530414457453
20
9.57420040903696
30
0
41
1
10
111.527719044753
20
9.57571233608289
30
0
41
1
10
111.521544858164
20
9.57825680810976
30
0
41
1
10
111.519876109205
20
9.57730081109338
30
0
41
1
10
111.521565633523
20
9.57050192465755
30
0
41
1
10
111.5248695786
20
9.56467591383725
30
0
41
1
10
111.534864493797
20
9.55005226861431
30
0
41
1
10
111.541609733461
20
9.54115485215706
30
0
41
1
10
111.557055124618
20
9.521869396227
30
0
41
1
10
111.565941228382
20
9.51124728325493
30
0
41
1
10
111.584848961551
20
9.48931031715259
30
0
41
1
10
111.594911439579
20
9.47794005706086
30
0
41
1
10
111.6055
20
9.46622562512158
30
0
0
SPLINE
5
1AA
100
AcDbEntity
8
1
62
256
6
ByLayer
370
18
48
1
60
0
100
AcDbSpline
70
4
71
3
72
8
73
4
40
0
40
0
40
0
40
0
40
1
40
1
40
1
40
1
41
1
10
111.6055
20
9.46622562512158
30
0
41
1
10
111.821059437748
20
9.22774595819482
30
0
41
1
10
112.03575253422
20
8.98823114273273
30
0
41
1
10
112.2495
20
8.74758643971691
30
0
0
SPLINE
5
1AB
100
AcDbEntity
8
1
62
256
6
ByLayer
370
18
48
1
60
0
100
AcDbSpline
70
4
71
3
72
14
73
10
40
0
40
0
40
0
40
0
40
0.25
40
0.25
40
0.5
40
0.5
40
0.75
40
0.75
40
1
40
1
40
1
40
1
41
1
10
112.3245
20
8.64631932718228
30
0
41
1
10
112.3245
20
8.64935367646831
30
0
41
1
10
112.322034011465
20
8.65479381530321
30
0
41
1
10
112.313694135752
20
8.66852240697773
30
0
41
1
10
112.307759088246
20
8.67694025434218
30
0
41
1
10
112.293931735253
20
8.69514347376548
30
0
41
1
10
112.285875277587
20
8.70515156811149
30
0
41
1
10
112.268553746702
20
8.72585835466157
30
0
41
1
10
112.259286714282
20
8.73656819936858
30
0
41
1
10
112.2495
20
8.74758643971691
30
0
0
SPLINE
5
1AC
100
AcDbEntity
8
1
62
256
6
ByLayer
370
18
48
1
60
0
100
AcDbSpline
70
4
71
3
72
14
73
10
40
0
40
0
40
0
40
0
40
0.249999999999998
40
0.249999999999998
40
0.499999999999996
40
0.499999999999996
40
0.749999999999994
40
0.749999999999994
40
1
40
1
40
1
40
1
41
1
10
112.2495
20
8.65496088697802
30
0
41
1
10
112.259215998502
20
8.64622319362596
30
0
41
1
10
112.268726165071
20
8.63798232113166
30
0
41
1
10
112.286346638797
20
8.62350824320936
30
0
41
1
10
112.294625799941
20
8.6171378972796
30
0
41
1
10
112.308773781988
20
8.60745833069129
30
0
41
1
10
112.314644882502
20
8.60417064940884
30
0
41
1
10
112.322485000347
20
8.60181828433934
30
0
41
1
10
112.3245
20
8.60275922961935
30
0
41
1
10
112.3245
20
8.60562683678754
30
0
0
SPLINE
5
1AD
100
AcDbEntity
8
1
62
256
6
ByLayer
370
18
48
1
60
0
100
AcDbSpline
70
4
71
3
72
8
73
4
40
0
40
0
40
0
40
0
40
1
40
1
40
1
40
1
41
1
10
112.2495
20
8.65496088697802
30
0
41
1
10
112.035047370323
20
8.84782025355332
30
0
41
1
10
111.820374683942
20
9.04035249470957
30
0
41
1
10
111.6055
20
9.23258445627602
30
0
0
SPLINE
5
1AE
100
AcDbEntity
8
1
62
256
6
ByLayer
370
18
48
1
60
0
100
AcDbSpline
70
4
71
3
72
22
73
18
40
0
40
0
40
0
40
0
40
0.125
40
0.125
40
0.25
40
0.25
40
0.375
40
0.375
40
0.5
40
0.5
40
0.625
40
0.625
40
0.75
40
0.75
40
0.875
40
0.875
40
1
40
1
40
1
40
1
41
1
10
111.6055
20
9.23258445627604
30
0
41
1
10
111.593739100244
20
9.2431060346604
30
0
41
1
10
111.582242551691
20
9.25296370347738
30
0
41
1
10
111.561004489412
20
9.27002101685434
30
0
41
1
10
111.551171313917
20
9.27728989099882
30
0
41
1
10
111.534859454679
20
9.28750821602497
30
0
41
1
10
111.528448239208
20
9.29036525070629
30
0
41
1
10
111.520922723968
20
9.29038978936515
30
0
41
1
10
111.519748598788
20
9.28755438362342
30
0
41
1
10
111.522224174389
20
9.27736915943501
30
0
41
1
10
111.52578250787
20
9.27008353188975
30
0
41
1
10
111.536008302682
20
9.25297654355967
30
0
41
1
10
111.542700715944
20
9.24310037543862
30
0
41
1
10
111.55792775034
20
9.22213995371615
30
0
41
1
10
111.566628668
20
9.21082853025769
30
0
41
1
10
111.585192455251
20
9.18765238214132
30
0
41
1
10
111.595079721552
20
9.17574737157662
30
0
41
1
10
111.6055
20
9.16356613817507
30
0
0
SPLINE
5
1AF
100
AcDbEntity
8
1
62
256
6
ByLayer
370
18
48
1
60
0
100
AcDbSpline
70
4
71
3
72
8
73
4
40
0
40
0
40
0
40
0
40
1
40
1
40
1
40
1
41
1
10
111.6055
20
9.16356613817504
30
0
41
1
10
111.821310496289
20
8.91128516133492
30
0
41
1
10
112.036011628907
20
8.65775197847643
30
0
41
1
10
112.2495
20
8.4028498781752
30
0
0
SPLINE
5
1B0
100
AcDbEntity
8
1
62
256
6
ByLayer
370
18
48
1
60
0
100
AcDbSpline
70
4
71
3
72
14
73
10
40
0
40
0
40
0
40
0
40
0.25
40
0.25
40
0.5
40
0.5
40
0.75
40
0.75
40
1
40
1
40
1
40
1
41
1
10
112.3245
20
8.28902401287573
30
0
41
1
10
112.3245
20
8.29349187352133
30
0
41
1
10
112.321992346342
20
8.30028110476505
30
0
41
1
10
112.313542185526
20
8.31664956906329
30
0
41
1
10
112.307671738472
20
8.32611351765701
30
0
41
1
10
112.293819783589
20
8.34645144844137
30
0
41
1
10
112.285784157645
20
8.35739078057958
30
0
41
1
10
112.268585224205
20
8.37965666075539
30
0
41
1
10
112.259332829839
20
8.39110961820163
30
0
41
1
10
112.2495
20
8.4028498781752
30
0
0
SPLINE
5
1B1
100
AcDbEntity
8
1
62
256
6
ByLayer
370
18
48
1
60
0
100
AcDbSpline
70
4
71
3
72
14
73
10
40
0
40
0
40
0
40
0
40
0.25
40
0.25
40
0.5
40
0.5
40
0.75
40
0.75
40
1
40
1
40
1
40
1
41
1
10
112.2495
20
8.2705960321683
30
0
41
1
10
112.259229511984
20
8.26212329088165
30
0
41
1
10
112.268802577543
20
8.25422654473331
30
0
41
1
10
112.286601863368
20
8.24069682404462
30
0
41
1
10
112.29495424747
20
8.23497251374758
30
0
41
1
10
112.309141149508
20
8.22699703571573
30
0
41
1
10
112.314957231867
20
8.22479444119614
30
0
41
1
10
112.322603033857
20
8.22477620447438
30
0
41
1
10
112.3245
20
8.22696516034989
30
0
41
1
10
112.3245
20
8.23091262382374
30
0
0
SPLINE
5
1B2
100
AcDbEntity
8
1
62
256
6
ByLayer
370
18
48
1
60
0
100
AcDbSpline
70
4
71
3
72
8
73
4
40
0
40
0
40
0
40
0
40
1
40
1
40
1
40
1
41
1
10
112.2495
20
8.2705960321683
30
0
41
1
10
112.034973355329
20
8.45741205772757
30
0
41
1
10
111.820302546545
20
8.64400752379848
30
0
41
1
10
111.6055
20
8.83040036281014
30
0
0
SPLINE
5
1B3
100
AcDbEntity
8
1
62
256
6
ByLayer
370
18
48
1
60
0
100
AcDbSpline
70
4
71
3
72
22
73
18
40
0
40
0
40
0
40
0
40
0.124999999999943
40
0.124999999999943
40
0.249999999999886
40
0.249999999999886
40
0.312499999999885
40
0.312499999999885
40
0.374999999999883
40
0.374999999999883
40
0.499999999999906
40
0.499999999999906
40
0.624999999999929
40
0.624999999999929
40
0.749999999999951
40
0.749999999999951
40
1
40
1
40
1
40
1
41
1
10
111.6055
20
8.83040036281014
30
0
41
1
10
111.593380808039
20
8.84091667480254
30
0
41
1
10
111.581502968404
20
8.85059935131903
30
0
41
1
10
111.559693945803
20
8.86667893532831
30
0
41
1
10
111.549522162378
20
8.8732288666946
30
0
41
1
10
111.537271537993
20
8.87904586658067
30
0
41
1
10
111.533636580047
20
8.88033784711848
30
0
41
1
10
111.527722419873
20
8.88140418316769
30
0
41
1
10
111.525390108167
20
8.88121054825484
30
0
41
1
10
111.520318726839
20
8.8783850311454
30
0
41
1
10
111.51974863245
20
8.87356099969642
30
0
41
1
10
111.523039271001
20
8.85991344898434
30
0
41
1
10
111.526840175741
20
8.8511757274978
30
0
41
1
10
111.537301085598
20
8.83153741215176
30
0
41
1
10
111.54386990924
20
8.82077623836781
30
0
41
1
10
111.56664699131
20
8.78633643567849
30
0
41
1
10
111.58502283321
20
8.76177418197292
30
0
41
1
10
111.6055
20
8.73634420521464
30
0
0
SPLINE
5
1B4
100
AcDbEntity
8
1
62
256
6
ByLayer
370
18
48
1
60
0
100
AcDbSpline
70
4
71
3
72
8
73
4
40
0
40
0
40
0
40
0
40
1
40
1
40
1
40
1
41
1
10
111.6055
20
8.73634420521464
30
0
41
1
10
111.821632798019
20
8.46793539229
30
0
41
1
10
112.036344592726
20
8.19801999406857
30
0
41
1
10
112.2495
20
7.92645447272406
30
0
0
SPLINE
5
1B5
100
AcDbEntity
8
1
62
256
6
ByLayer
370
18
48
1
60
0
100
AcDbSpline
70
4
71
3
72
14
73
10
40
0
40
0
40
0
40
0
40
0.25
40
0.25
40
0.5
40
0.5
40
0.75
40
0.75
40
1
40
1
40
1
40
1
41
1
10
112.3245
20
7.79863967374578
30
0
41
1
10
112.3245
20
7.80466776026992
30
0
41
1
10
112.321958595129
20
7.81290384120251
30
0
41
1
10
112.31345050483
20
7.83209198985247
30
0
41
1
10
112.30764570247
20
7.84269750940911
30
0
41
1
10
112.293816071692
20
7.86535867994149
30
0
41
1
10
112.285845445367
20
7.8772918268094
30
0
41
1
10
112.268672225887
20
7.90148015992656
30
0
41
1
10
112.259398489399
20
7.91384354031371
30
0
41
1
10
112.2495
20
7.92645447272406
30
0
0
SPLINE
5
1B6
100
AcDbEntity
8
1
62
256
6
ByLayer
370
18
48
1
60
0
100
AcDbSpline
70
4
71
3
72
14
73
10
40
0
40
0
40
0
40
0
40
0.25
40
0.25
40
0.5
40
0.5
40
0.75
40
0.75
40
1
40
1
40
1
40
1
41
1
10
112.2495
20
7.75167014809276
30
0
41
1
10
112.259247241143
20
7.74340936166513
30
0
41
1
10
112.268784239155
20
7.7358911180699
30
0
41
1
10
112.286942676012
20
7.72316179941987
30
0
41
1
10
112.295401197738
20
7.71809384066771
30
0
41
1
10
112.309600369956
20
7.71193771820109
30
0
41
1
10
112.31533264485
20
7.7109091615286
30
0
41
1
10
112.322732668699
20
7.71333851984272
30
0
41
1
10
112.3245
20
7.71679606928106
30
0
41
1
10
112.3245
20
7.72182271114352
30
0
0
SPLINE
5
1B7
100
AcDbEntity
8
1
62
256
6
ByLayer
370
18
48
1
60
0
100
AcDbSpline
70
4
71
3
72
8
73
4
40
0
40
0
40
0
40
0
40
1
40
1
40
1
40
1
41
1
10
112.2495
20
7.75167014809279
30
0
41
1
10
112.034913814811
20
7.93353193033676
30
0
41
1
10
111.820244754008
20
8.11526338815997
30
0
41
1
10
111.6055
20
8.29687543761639
30
0
0
SPLINE
5
1B8
100
AcDbEntity
8
1
62
256
6
ByLayer
370
18
48
1
60
0
100
AcDbSpline
70
4
71
3
72
22
73
18
40
0
40
0
40
0
40
0
40
0.125000000000004
40
0.125000000000004
40
0.250000000000007
40
0.250000000000007
40
0.312500000000009
40
0.312500000000009
40
0.375000000000011
40
0.375000000000011
40
0.500000000000014
40
0.500000000000014
40
0.625000000000018
40
0.625000000000018
40
0.750000000000022
40
0.750000000000022
40
1
40
1
40
1
40
1
41
1
10
111.6055
20
8.29687543761639
30
0
41
1
10
111.592993500049
20
8.30745232503844
30
0
41
1
10
111.580706276432
20
8.31698846620574
30
0
41
1
10
111.558138730979
20
8.33209522158563
30
0
41
1
10
111.547727595054
20
8.33771691680317
30
0
41
1
10
111.535443493164
20
8.34136856986839
30
0
41
1
10
111.531968282765
20
8.3417770780818
30
0
41
1
10
111.526382198925
20
8.34098173669651
30
0
41
1
10
111.52422997549
20
8.33975167244822
30
0
41
1
10
111.519946272536
20
8.33387902343222
30
0
41
1
10
111.519899733555
20
8.32701352330849
30
0
41
1
10
111.523871617955
20
8.31002490213962
30
0
41
1
10
111.52788622281
20
8.29976128930505
30
0
41
1
10
111.538430599233
20
8.27769042151593
30
0
41
1
10
111.544991563262
20
8.26578149763367
30
0
41
1
10
111.567418182231
20
8.228501555755
30
0
41
1
10
111.585340647127
20
8.20254637432345
30
0
41
1
10
111.6055
20
8.17577842130424
30
0
0
SPLINE
5
1B9
100
AcDbEntity
8
1
62
256
6
ByLayer
370
18
48
1
60
0
100
AcDbSpline
70
4
71
3
72
8
73
4
40
0
40
0
40
0
40
0
40
1
40
1
40
1
40
1
41
1
10
111.6055
20
8.17577842130424
30
0
41
1
10
111.822056039247
20
7.88823139928687
30
0
41
1
10
112.036782319601
20
7.59887480781904
30
0
41
1
10
112.2495
20
7.30753177916031
30
0
0
SPLINE
5
1BA
100
AcDbEntity
8
1
62
256
6
ByLayer
370
18
48
1
60
0
100
AcDbSpline
70
4
71
3
72
12
73
8
40
0
40
0
40
0
40
0
40
0.250000000000024
40
0.250000000000024
40
0.500000000000048
40
0.500000000000048
40
1
40
1
40
1
40
1
41
1
10
112.324500000001
20
7.16376267396177
30
0
41
1
10
112.324500000001
20
7.17153739588585
30
0
41
1
10
112.321911983203
20
7.18139889670175
30
0
41
1
10
112.313432961461
20
7.2035631073316
30
0
41
1
10
112.307648294226
20
7.21556336461742
30
0
41
1
10
112.28692603742
20
7.25356694673084
30
0
41
1
10
112.26945325247
20
7.28020334555143
30
0
41
1
10
112.2495
20
7.30753177916031
30
0
0
SPLINE
5
1BB
100
AcDbEntity
8
1
62
256
6
ByLayer
370
18
48
1
60
0
100
AcDbSpline
70
4
71
3
72
14
73
10
40
0
40
0
40
0
40
0
40
0.25
40
0.25
40
0.5
40
0.5
40
0.75
40
0.75
40
1
40
1
40
1
40
1
41
1
10
112.2495
20
7.08592715431885
30
0
41
1
10
112.259305222304
20
7.07779042970063
30
0
41
1
10
112.268941650508
20
7.07051235663704
30
0
41
1
10
112.287372796518
20
7.05867620482167
30
0
41
1
10
112.295964745964
20
7.05430300918746
30
0
41
1
10
112.310152692604
20
7.05014198362548
30
0
41
1
10
112.315769240382
20
7.05041433485331
30
0
41
1
10
112.322871011082
20
7.05544827789001
30
0
41
1
10
112.3245
20
7.06021071691811
30
0
41
1
10
112.3245
20
7.06633602484456
30
0
0
SPLINE
5
1BC
100
AcDbEntity
8
1
62
256
6
ByLayer
370
18
48
1
60
0
100
AcDbSpline
70
4
71
3
72
8
73
4
40
0
40
0
40
0
40
0
40
1
40
1
40
1
40
1
41
1
10
112.2495
20
7.08592715431894
30
0
41
1
10
112.034868684835
20
7.26403590614652
30
0
41
1
10
111.820200946825
20
7.44208614790807
30
0
41
1
10
111.6055
20
7.62008296619456
30
0
0
SPLINE
5
1BD
100
AcDbEntity
8
1
62
256
6
ByLayer
370
18
48
1
60
0
100
AcDbSpline
70
4
71
3
72
22
73
18
40
0
40
0
40
0
40
0
40
0.125000000000016
40
0.125000000000016
40
0.250000000000032
40
0.250000000000032
40
0.312500000000035
40
0.312500000000035
40
0.375000000000038
40
0.375000000000038
40
0.500000000000032
40
0.500000000000032
40
0.625000000000025
40
0.625000000000025
40
0.750000000000019
40
0.750000000000019
40
1
40
1
40
1
40
1
41
1
10
111.6055
20
7.62008296619459
30
0
41
1
10
111.592533498862
20
7.63083278346807
30
0
41
1
10
111.579753193094
20
7.64028644673158
30
0
41
1
10
111.556254451705
20
7.654302916153
30
0
41
1
10
111.545490827475
20
7.65876874346162
30
0
41
1
10
111.533489226953
20
7.65968676742025
30
0
41
1
10
111.530205563054
20
7.65907665489542
30
0
41
1
10
111.525017733385
20
7.6560886458349
30
0
41
1
10
111.523156119715
20
7.65369745191302
30
0
41
1
10
111.519717166478
20
7.64451925885609
30
0
41
1
10
111.520181417857
20
7.63558334444573
30
0
41
1
10
111.524792588522
20
7.6150938819369
30
0
41
1
10
111.528964218601
20
7.60331527336891
30
0
41
1
10
111.539577226902
20
7.57862464283093
30
0
41
1
10
111.546127538049
20
7.5654512705205
30
0
41
1
10
111.568108475269
20
7.52516413271087
30
0
41
1
10
111.585654455034
20
7.4974380464925
30
0
41
1
10
111.6055
20
7.4690368442115
30
0
0
SPLINE
5
1BE
100
AcDbEntity
8
1
62
256
6
ByLayer
370
18
48
1
60
0
100
AcDbSpline
70
4
71
3
72
8
73
4
40
0
40
0
40
0
40
0
40
1
40
1
40
1
40
1
41
1
10
111.6055
20
7.4690368442115
30
0
41
1
10
111.822628100131
20
7.15830216279019
30
0
41
1
10
112.037374649206
20
6.84538957755095
30
0
41
1
10
112.2495
20
6.53007993358287
30
0
0
SPLINE
5
1BF
100
AcDbEntity
8
1
62
256
6
ByLayer
370
18
48
1
60
0
100
AcDbSpline
70
4
71
3
72
12
73
8
40
0
40
0
40
0
40
0
40
0.250000000000018
40
0.250000000000018
40
0.500000000000037
40
0.500000000000037
40
1
40
1
40
1
40
1
41
1
10
112.324500000009
20
6.36758760539217
30
0
41
1
10
112.324500000008
20
6.37722215763813
30
0
41
1
10
112.321873699401
20
6.38905831594784
30
0
41
1
10
112.313449392423
20
6.41459293084259
30
0
41
1
10
112.307670540604
20
6.42826162136313
30
0
41
1
10
112.287041271642
20
6.47086243065388
30
0
41
1
10
112.269646391906
20
6.50013371718083
30
0
41
1
10
112.2495
20
6.53007993358287
30
0
0
SPLINE
5
1C0
100
AcDbEntity
8
1
62
256
6
ByLayer
370
18
48
1
60
0
100
AcDbSpline
70
4
71
3
72
14
73
10
40
0
40
0
40
0
40
0
40
0.25
40
0.25
40
0.5
40
0.5
40
0.75
40
0.75
40
1
40
1
40
1
40
1
41
1
10
112.2495
20
6.2553382123748
30
0
41
1
10
112.259398868046
20
6.24723142501256
30
0
41
1
10
112.269223229739
20
6.24009611034816
30
0
41
1
10
112.287974418792
20
6.22918546748556
30
0
41
1
10
112.296731434281
20
6.22560106474529
30
0
41
1
10
112.310852246407
20
6.22373528956976
30
0
41
1
10
112.316292465155
20
6.22549911054423
30
0
41
1
10
112.323020110113
20
6.2333581500304
30
0
41
1
10
112.3245
20
6.23948059924248
30
0
41
1
10
112.3245
20
6.24674276341591
30
0
0
SPLINE
5
1C1
100
AcDbEntity
8
1
62
256
6
ByLayer
370
18
48
1
60
0
100
AcDbSpline
70
4
71
3
72
8
73
4
40
0
40
0
40
0
40
0
40
1
40
1
40
1
40
1
41
1
10
112.2495
20
6.25533821237494
30
0
41
1
10
112.034840117021
20
6.43113629539568
30
0
41
1
10
111.820173237194
20
6.60692298745033
30
0
41
1
10
111.6055
20
6.78269932673257
30
0
0
SPLINE
5
1C2
100
AcDbEntity
8
1
62
256
6
ByLayer
370
18
48
1
60
0
100
AcDbSpline
70
4
71
3
72
22
73
18
40
0
40
0
40
0
40
0
40
0.124999999999956
40
0.124999999999956
40
0.187499999999965
40
0.187499999999965
40
0.249999999999973
40
0.249999999999973
40
0.312499999999982
40
0.312499999999982
40
0.37499999999999
40
0.37499999999999
40
0.499999999999988
40
0.499999999999988
40
0.749999999999994
40
0.749999999999994
40
1
40
1
40
1
40
1
41
1
10
111.6055
20
6.78269932673257
30
0
41
1
10
111.591974522899
20
6.79377410663
30
0
41
1
10
111.578572891949
20
6.80323518915063
30
0
41
1
10
111.560072832448
20
6.81273990315114
30
0
41
1
10
111.554246459773
20
6.81507060913481
30
0
41
1
10
111.543782254935
20
6.81765520217786
30
0
41
1
10
111.539080357025
20
6.8178985994964
30
0
41
1
10
111.531404308881
20
6.81625649801748
30
0
41
1
10
111.52830691468
20
6.81437692570697
30
0
41
1
10
111.523684963868
20
6.80878984755873
30
0
41
1
10
111.522185737906
20
6.80516548294014
30
0
41
1
10
111.519647436547
20
6.79228096462896
30
0
41
1
10
111.52060442944
20
6.78130130560839
30
0
41
1
10
111.528430006134
20
6.74488478713891
30
0
41
1
10
111.540081448102
20
6.71614743412735
30
0
41
1
10
111.568801388406
20
6.65776270743689
30
0
41
1
10
111.585973014625
20
6.62788857154703
30
0
41
1
10
111.6055
20
6.59745689280405
30
0
0
SPLINE
5
1C3
100
AcDbEntity
8
1
62
256
6
ByLayer
370
18
48
1
60
0
100
AcDbSpline
70
4
71
3
72
8
73
4
40
0
40
0
40
0
40
0
40
1
40
1
40
1
40
1
41
1
10
111.6055
20
6.59745689280405
30
0
41
1
10
111.823431123556
20
6.25782382538762
30
0
41
1
10
112.038207131738
20
5.9155530145199
30
0
41
1
10
112.2495
20
5.57037022471317
30
0
0
SPLINE
5
1C4
100
AcDbEntity
8
1
62
256
6
ByLayer
370
18
48
1
60
0
100
AcDbSpline
70
4
71
3
72
12
73
8
40
0
40
0
40
0
40
0
40
0.249999999999985
40
0.249999999999985
40
0.49999999999997
40
0.49999999999997
40
1
40
1
40
1
40
1
41
1
10
112.324500000003
20
5.38509339954209
30
0
41
1
10
112.324500000003
20
5.39707872648719
30
0
41
1
10
112.321814823682
20
5.41121917572954
30
0
41
1
10
112.313432917887
20
5.44078148387496
30
0
41
1
10
112.307644159211
20
5.45649661947829
30
0
41
1
10
112.287203970073
20
5.5044683083614
30
0
41
1
10
112.269842865355
20
5.53713669878556
30
0
41
1
10
112.2495
20
5.57037022471317
30
0
0
SPLINE
5
1C5
100
AcDbEntity
8
1
62
256
6
ByLayer
370
18
48
1
60
0
100
AcDbSpline
70
4
71
3
72
14
73
10
40
0
40
0
40
0
40
0
40
0.25
40
0.25
40
0.5
40
0.5
40
0.75
40
0.75
40
1
40
1
40
1
40
1
41
1
10
112.2495
20
5.23296209129074
30
0
41
1
10
112.259575474705
20
5.22472967879199
30
0
41
1
10
112.26966349178
20
5.21765769355628
30
0
41
1
10
112.288734068695
20
5.20778354904022
30
0
41
1
10
112.297672368402
20
5.20513602383477
30
0
41
1
10
112.31177716259
20
5.20603353031223
30
0
41
1
10
112.316905532375
20
5.20953735969817
30
0
41
1
10
112.323198953868
20
5.22058540561935
30
0
41
1
10
112.324500000001
20
5.22812780838595
30
0
41
1
10
112.324500000001
20
5.2365834598277
30
0
0
SPLINE
5
1C6
100
AcDbEntity
8
1
62
256
6
ByLayer
370
18
48
1
60
0
100
AcDbSpline
70
4
71
3
72
8
73
4
40
0
40
0
40
0
40
0
40
1
40
1
40
1
40
1
41
1
10
112.2495
20
5.23296209129074
30
0
41
1
10
112.034835023948
20
5.40835934886272
30
0
41
1
10
111.820168300833
20
5.58375375553973
30
0
41
1
10
111.6055
20
5.75914558748156
30
0
0
SPLINE
5
1C7
100
AcDbEntity
8
1
62
256
6
ByLayer
370
18
48
1
60
0
100
AcDbSpline
70
4
71
3
72
20
73
16
40
0
40
0
40
0
40
0
40
0.124999999999961
40
0.124999999999961
40
0.187499999999945
40
0.187499999999945
40
0.249999999999929
40
0.249999999999929
40
0.374999999999937
40
0.374999999999937
40
0.499999999999945
40
0.499999999999945
40
0.749999999999973
40
0.749999999999973
40
1
40
1
40
1
40
1
41
1
10
111.6055
20
5.75914558748158
30
0
41
1
10
111.591241209992
20
5.77079553901672
30
0
41
1
10
111.576882009736
20
5.78045317295832
30
0
41
1
10
111.557418433899
20
5.78846577025695
30
0
41
1
10
111.55141786387
20
5.78999196767168
30
0
41
1
10
111.540736957698
20
5.79039601351153
30
0
41
1
10
111.536294750605
20
5.789278403277
30
0
41
1
10
111.525397558399
20
5.78234423940683
30
0
41
1
10
111.521806464736
20
5.77297526137005
30
0
41
1
10
111.519817784919
20
5.75054432101211
30
0
41
1
10
111.521200723363
20
5.73750405087756
30
0
41
1
10
111.529841545333
20
5.69491181501922
30
0
41
1
10
111.541334881166
20
5.66310396360504
30
0
41
1
10
111.569508859252
20
5.59892225297597
30
0
41
1
10
111.586315553106
20
5.56633153482991
30
0
41
1
10
111.6055
20
5.53331588401389
30
0
0
SPLINE
5
1C8
100
AcDbEntity
8
1
62
256
6
ByLayer
370
18
48
1
60
0
100
AcDbSpline
70
4
71
3
72
8
73
4
40
0
40
0
40
0
40
0
40
1
40
1
40
1
40
1
41
1
10
111.6055
20
5.53331588401389
30
0
41
1
10
111.824618246661
20
5.15622231655206
30
0
41
1
10
112.039439331602
20
4.77589582489912
30
0
41
1
10
112.2495
20
4.39198788418855
30
0
0
SPLINE
5
1C9
100
AcDbEntity
8
1
62
256
6
ByLayer
370
18
48
1
60
0
100
AcDbSpline
70
4
71
3
72
12
73
8
40
0
40
0
40
0
40
0
40
0.250000000000009
40
0.250000000000009
40
0.500000000000019
40
0.500000000000019
40
1
40
1
40
1
40
1
41
1
10
112.324500000007
20
4.17759760343307
30
0
41
1
10
112.324500000006
20
4.19243785106642
30
0
41
1
10
112.321810105843
20
4.20926595337372
30
0
41
1
10
112.313502648554
20
4.24388815157209
30
0
41
1
10
112.307829005166
20
4.26188470172517
30
0
41
1
10
112.287476650065
20
4.3171419602466
30
0
41
1
10
112.270072992639
20
4.35438857871981
30
0
41
1
10
112.2495
20
4.39198788418855
30
0
0
SPLINE
5
1CA
100
AcDbEntity
8
1
62
256
6
ByLayer
370
18
48
1
60
0
100
AcDbSpline
70
4
71
3
72
14
73
10
40
0
40
0
40
0
40
0
40
0.25
40
0.25
40
0.5
40
0.5
40
0.75
40
0.75
40
1
40
1
40
1
40
1
41
1
10
112.2495
20
3.97677529871234
30
0
41
1
10
112.259733022903
20
3.96829674160008
30
0
41
1
10
112.270234663605
20
3.9611039699823
30
0
41
1
10
112.289965723692
20
3.95233899806033
30
0
41
1
10
112.299095384783
20
3.95102521335383
30
0
41
1
10
112.31290217886
20
3.95550717491071
30
0
41
1
10
112.317639435507
20
3.9611014471509
30
0
41
1
10
112.323378773838
20
3.97578391081888
30
0
41
1
10
112.324500000004
20
3.98486364456062
30
0
41
1
10
112.324500000004
20
3.99465257289151
30
0
0
SPLINE
5
1CB
100
AcDbEntity
8
1
62
256
6
ByLayer
370
18
48
1
60
0
100
AcDbSpline
70
4
71
3
72
8
73
4
40
0
40
0
40
0
40
0
40
1
40
1
40
1
40
1
41
1
10
112.2495
20
3.97677529871268
30
0
41
1
10
112.034872069188
20
4.1546049768551
30
0
41
1
10
111.820203979195
20
4.33237004341845
30
0
41
1
10
111.6055
20
4.51007727764983
30
0
0
SPLINE
5
1CC
100
AcDbEntity
8
1
62
256
6
ByLayer
370
18
48
1
60
0
100
AcDbSpline
70
4
71
3
72
22
73
18
40
0
40
0
40
0
40
0
40
0.0624999999999876
40
0.0624999999999876
40
0.124999999999975
40
0.124999999999975
40
0.187499999999963
40
0.187499999999963
40
0.24999999999995
40
0.24999999999995
40
0.374999999999959
40
0.374999999999959
40
0.499999999999967
40
0.499999999999967
40
0.749999999999983
40
0.749999999999983
40
1
40
1
40
1
40
1
41
1
10
111.6055
20
4.5100772776504
30
0
41
1
10
111.597953135099
20
4.51632370351425
30
0
41
1
10
111.590330974831
20
4.52192824566362
30
0
41
1
10
111.575215001469
20
4.5310758420371
30
0
41
1
10
111.567808263291
20
4.53454137094894
30
0
41
1
10
111.554107443175
20
4.5383181156671
30
0
41
1
10
111.547904073597
20
4.5385925023582
30
0
41
1
10
111.537369962298
20
4.53579049075933
30
0
41
1
10
111.533213831342
20
4.532825207766
30
0
41
1
10
111.52342445853
20
4.52014194121997
30
0
41
1
10
111.520891479662
20
4.50720783722633
30
0
41
1
10
111.520192653502
20
4.47891574267823
30
0
41
1
10
111.521965579882
20
4.46331662379927
30
0
41
1
10
111.53125227634
20
4.41377848404915
30
0
41
1
10
111.542520094208
20
4.37813662761644
30
0
41
1
10
111.570215633343
20
4.30622488762313
30
0
41
1
10
111.586679720459
20
4.26998156296008
30
0
41
1
10
111.6055
20
4.23348971252759
30
0
0
SPLINE
5
1CD
100
AcDbEntity
8
1
62
256
6
ByLayer
370
18
48
1
60
0
100
AcDbSpline
70
4
71
3
72
8
73
4
40
0
40
0
40
0
40
0
40
1
40
1
40
1
40
1
41
1
10
111.6055
20
4.23348971252759
30
0
41
1
10
111.826510348702
20
3.80495853309316
30
0
41
1
10
112.04140572646
20
3.37238268351754
30
0
41
1
10
112.2495
20
2.93530832963117
30
0
0
SPLINE
5
1CE
100
AcDbEntity
8
1
62
256
6
ByLayer
370
18
48
1
60
0
100
AcDbSpline
70
4
71
3
72
12
73
8
40
0
40
0
40
0
40
0
40
0.249999999999991
40
0.249999999999991
40
0.499999999999981
40
0.499999999999981
40
1
40
1
40
1
40
1
41
1
10
112.3245
20
2.68098768618987
30
0
41
1
10
112.3245
20
2.69970714527065
30
0
41
1
10
112.321855324873
20
2.71979491474599
30
0
41
1
10
112.313599942066
20
2.76148387237248
30
0
41
1
10
112.30788129739
20
2.78314743733995
30
0
41
1
10
112.287783443018
20
2.84783236502619
30
0
41
1
10
112.270417001908
20
2.89137494819531
30
0
41
1
10
112.2495
20
2.93530832963117
30
0
0
SPLINE
5
1CF
100
AcDbEntity
8
1
62
256
6
ByLayer
370
18
48
1
60
0
100
AcDbSpline
70
4
71
3
72
14
73
10
40
0
40
0
40
0
40
0
40
0.25
40
0.25
40
0.5
40
0.5
40
0.75
40
0.75
40
1
40
1
40
1
40
1
41
1
10
112.2495
20
2.41601229971621
30
0
41
1
10
112.260085369069
20
2.4068776428476
30
0
41
1
10
112.27112172787
20
2.39936506515716
30
0
41
1
10
112.291967553371
20
2.39210637772575
30
0
41
1
10
112.301175936096
20
2.39293743059261
30
0
41
1
10
112.31440749166
20
2.40245779349976
30
0
41
1
10
112.318609915423
20
2.41080188705763
30
0
41
1
10
112.323586945423
20
2.42978726006578
30
0
41
1
10
112.3245
20
2.44045271787033
30
0
41
1
10
112.3245
20
2.45179206956729
30
0
0
SPLINE
5
1D0
100
AcDbEntity
8
1
62
256
6
ByLayer
370
18
48
1
60
0
100
AcDbSpline
70
4
71
3
72
8
73
4
40
0
40
0
40
0
40
0
40
1
40
1
40
1
40
1
41
1
10
112.2495
20
2.41601229971638
30
0
41
1
10
112.035005737834
20
2.60111037918728
30
0
41
1
10
111.820331960648
20
2.78593046871947
30
0
41
1
10
111.6055
20
2.97050560152917
30
0
0
SPLINE
5
1D1
100
AcDbEntity
8
1
62
256
6
ByLayer
370
18
48
1
60
0
100
AcDbSpline
70
4
71
3
72
24
73
20
40
0
40
0
40
0
40
0
40
0.0624999999999908
40
0.0624999999999908
40
0.124999999999982
40
0.124999999999982
40
0.187499999999972
40
0.187499999999972
40
0.249999999999963
40
0.249999999999963
40
0.37499999999997
40
0.37499999999997
40
0.499999999999976
40
0.499999999999976
40
0.624999999999982
40
0.624999999999982
40
0.749999999999989
40
0.749999999999989
40
1
40
1
40
1
40
1
41
1
10
111.6055
20
2.97050560152917
30
0
41
1
10
111.597228437567
20
2.97761220117152
30
0
41
1
10
111.588914419841
20
2.98372808901576
30
0
41
1
10
111.57215708379
20
2.99292841463929
30
0
41
1
10
111.563911018039
20
2.99578434456313
30
0
41
1
10
111.549332527511
20
2.99660792687305
30
0
41
1
10
111.543058514406
20
2.99456982870348
30
0
41
1
10
111.533175608736
20
2.98666433318866
30
0
41
1
10
111.529511798149
20
2.98085776016836
30
0
41
1
10
111.521618643724
20
2.96063958687648
30
0
41
1
10
111.520184061725
20
2.94339496214931
30
0
41
1
10
111.520919902298
20
2.90773484786382
30
0
41
1
10
111.523123853493
20
2.88887377785326
30
0
41
1
10
111.529813307373
20
2.8498542855238
30
0
41
1
10
111.534358710199
20
2.82963060680694
30
0
41
1
10
111.544946601497
20
2.78929386474891
30
0
41
1
10
111.551022507126
20
2.76901608512077
30
0
41
1
10
111.571175868445
20
2.70791114649731
30
0
41
1
10
111.58712561472
20
2.66681881346406
30
0
41
1
10
111.6055
20
2.62539331825738
30
0
0
SPLINE
5
1D2
100
AcDbEntity
8
1
62
256
6
ByLayer
370
18
48
1
60
0
100
AcDbSpline
70
4
71
3
72
8
73
4
40
0
40
0
40
0
40
0
40
1
40
1
40
1
40
1
41
1
10
111.6055
20
2.62539331825738
30
0
41
1
10
111.829910422179
20
2.11945460374568
30
0
41
1
10
112.044943589855
20
1.60826752524304
30
0
41
1
10
112.2495
20
1.09121670091341
30
0
0
SPLINE
5
1D3
100
AcDbEntity
8
1
62
256
6
ByLayer
370
18
48
1
60
0
100
AcDbSpline
70
4
71
3
72
12
73
8
40
0
40
0
40
0
40
0
40
0.25
40
0.25
40
0.5
40
0.5
40
1
40
1
40
1
40
1
41
1
10
112.3245
20
0.775463961685858
30
0
41
1
10
112.3245
20
0.799909119855812
30
0
41
1
10
112.321817981306
20
0.825750945884096
30
0
41
1
10
112.313562475329
20
0.878250884231392
30
0
41
1
10
112.307981564277
20
0.90464219629331
30
0
41
1
10
112.288101027238
20
0.984111195255025
30
0
41
1
10
112.270762412543
20
1.0374723673838
30
0
41
1
10
112.2495
20
1.09121670091338
30
0
0
SPLINE
5
1D4
100
AcDbEntity
8
1
62
256
6
ByLayer
370
18
48
1
60
0
100
AcDbSpline
70
4
71
3
72
18
73
14
40
0
40
0
40
0
40
0
40
0.125000000000019
40
0.125000000000019
40
0.250000000000039
40
0.250000000000039
40
0.375000000000058
40
0.375000000000058
40
0.500000000000077
40
0.500000000000077
40
0.750000000000039
40
0.750000000000039
40
1
40
1
40
1
40
1
41
1
10
112.2495
20
0.41462793875499
30
0
41
1
10
112.25500497881
20
0.40942226426435
30
0
41
1
10
112.260747198982
20
0.404710284050651
30
0
41
1
10
112.272271983717
20
0.397336391777458
30
0
41
1
10
112.278205664729
20
0.394621772585936
30
0
41
1
10
112.2893124648
20
0.392398825376745
30
0
41
1
10
112.294555762787
20
0.392912597401875
30
0
41
1
10
112.303434328157
20
0.396913079465861
30
0
41
1
10
112.307128635141
20
0.400340444178539
30
0
41
1
10
112.316095454751
20
0.41297592211825
30
0
41
1
10
112.319554238696
20
0.424595108976348
30
0
41
1
10
112.323742183536
20
0.449180254645796
30
0
41
1
10
112.3245
20
0.462296657263266
30
0
41
1
10
112.3245
20
0.475874705791654
30
0
0
SPLINE
5
1D5
100
AcDbEntity
8
1
62
256
6
ByLayer
370
18
48
1
60
0
100
AcDbSpline
70
4
71
3
72
8
73
4
40
0
40
0
40
0
40
0
40
1
40
1
40
1
40
1
41
1
10
112.2495
20
0.414627938755785
30
0
41
1
10
112.035436607666
20
0.617052758039591
30
0
41
1
10
111.820739969169
20
0.818578382327587
30
0
41
1
10
111.6055
20
1.01933248954893
30
0
0
SPLINE
5
1D6
100
AcDbEntity
8
1
62
256
6
ByLayer
370
18
48
1
60
0
100
AcDbSpline
70
4
71
3
72
24
73
20
40
0
40
0
40
0
40
0
40
0.0625000000000231
40
0.0625000000000231
40
0.093750000000012
40
0.093750000000012
40
0.125000000000001
40
0.125000000000001
40
0.187499999999992
40
0.187499999999992
40
0.249999999999983
40
0.249999999999983
40
0.374999999999985
40
0.374999999999985
40
0.499999999999988
40
0.499999999999988
40
0.749999999999994
40
0.749999999999994
40
1
40
1
40
1
40
1
41
1
10
111.605500000001
20
1.01933248955064
30
0
41
1
10
111.596351499941
20
1.02786528654411
30
0
41
1
10
111.586687669786
20
1.03519990669915
30
0
41
1
10
111.572333089937
20
1.04182000623797
30
0
41
1
10
111.567554778791
20
1.04327231683038
30
0
41
1
10
111.558641496353
20
1.04425085338187
30
0
41
1
10
111.554365500145
20
1.0437754546187
30
0
41
1
10
111.543093981622
20
1.03971048768659
30
0
41
1
10
111.537346922296
20
1.03351139340859
30
0
41
1
10
111.5289338815
20
1.01793447612997
30
0
41
1
10
111.526157472395
20
1.00858243147923
30
0
41
1
10
111.520450088133
20
0.978884780053306
30
0
41
1
10
111.519936430234
20
0.956366845207299
30
0
41
1
10
111.521890124223
20
0.910591499711188
30
0
41
1
10
111.524441710891
20
0.886949325659572
30
0
41
1
10
111.53512134905
20
0.814546117304047
30
0
41
1
10
111.545959817937
20
0.765863347473356
30
0
41
1
10
111.572183989675
20
0.667963296349399
30
0
41
1
10
111.58766472211
20
0.618736295150683
30
0
41
1
10
111.6055
20
0.569242332578398
30
0
0
SPLINE
5
1D7
100
AcDbEntity
8
1
62
256
6
ByLayer
370
18
48
1
60
0
100
AcDbSpline
70
4
71
3
72
8
73
4
40
0
40
0
40
0
40
0
40
1
40
1
40
1
40
1
41
1
10
111.6055
20
0.569242332578398
30
0
41
1
10
111.837557523584
20
-0.0747311708271639
30
0
41
1
10
112.052909503293
20
-0.726042577491228
30
0
41
1
10
112.2495
20
-1.38559495782701
30
0
0
SPLINE
5
1D8
100
AcDbEntity
8
1
62
256
6
ByLayer
370
18
48
1
60
0
100
AcDbSpline
70
4
71
3
72
12
73
8
40
0
40
0
40
0
40
0
40
0.25
40
0.25
40
0.500000000000001
40
0.500000000000001
40
1
40
1
40
1
40
1
41
1
10
112.3245
20
-1.81991451866898
30
0
41
1
10
112.3245
20
-1.78506084915875
30
0
41
1
10
112.321916951756
20
-1.74945408288909
30
0
41
1
10
112.313952554405
20
-1.67746133915966
30
0
41
1
10
112.308463266611
20
-1.64094096674231
30
0
41
1
10
112.288693751875
20
-1.53152054748989
30
0
41
1
10
112.271251087085
20
-1.45856888841988
30
0
41
1
10
112.2495
20
-1.38559495782701
30
0
0
SPLINE
5
1D9
100
AcDbEntity
8
1
62
256
6
ByLayer
370
18
48
1
60
0
100
AcDbSpline
70
4
71
3
72
18
73
14
40
0
40
0
40
0
40
0
40
0.125000000000012
40
0.125000000000012
40
0.250000000000024
40
0.250000000000024
40
0.375000000000036
40
0.375000000000036
40
0.500000000000048
40
0.500000000000048
40
0.750000000000024
40
0.750000000000024
40
1
40
1
40
1
40
1
41
1
10
112.249499999998
20
-2.36641704186863
30
0
41
1
10
112.255413958302
20
-2.37337593830981
30
0
41
1
10
112.261770458563
20
-2.37969027627199
30
0
41
1
10
112.275305680587
20
-2.3885759455226
30
0
41
1
10
112.282553982376
20
-2.39082271175749
30
0
41
1
10
112.295087758634
20
-2.38834504448502
30
0
41
1
10
112.300230069096
20
-2.38390052293417
30
0
41
1
10
112.308159051547
20
-2.37248834626402
30
0
41
1
10
112.31112797194
20
-2.36548292040797
30
0
41
1
10
112.318222409956
20
-2.34330644103159
30
0
41
1
10
112.32074518818
20
-2.32662197331169
30
0
41
1
10
112.323912195392
20
-2.29284829986182
30
0
41
1
10
112.3245
20
-2.27548930406996
30
0
41
1
10
112.3245
20
-2.25785714681314
30
0
0
SPLINE
5
1DA
100
AcDbEntity
8
1
62
256
6
ByLayer
370
18
48
1
60
0
100
AcDbSpline
70
4
71
3
72
8
73
4
40
0
40
0
40
0
40
0
40
1
40
1
40
1
40
1
41
1
10
112.2495
20
-2.36641704186579
30
0
41
1
10
112.037366545293
20
-2.11680169674935
30
0
41
1
10
111.822529300301
20
-1.87032360167677
30
0
41
1
10
111.6055
20
-1.62638898257399
30
0
0
SPLINE
5
1DB
100
AcDbEntity
8
1
62
256
6
ByLayer
370
18
48
1
60
0
100
AcDbSpline
70
4
71
3
72
28
73
24
40
0
40
0
40
0
40
0
40
0.0312499999999996
40
0.0312499999999996
40
0.0624999999999992
40
0.0624999999999992
40
0.0937499999999988
40
0.0937499999999988
40
0.124999999999998
40
0.124999999999998
40
0.156249999999998
40
0.156249999999998
40
0.187499999999998
40
0.187499999999998
40
0.249999999999997
40
0.249999999999997
40
0.374999999999998
40
0.374999999999998
40
0.499999999999999
40
0.499999999999999
40
0.75
40
0.75
40
1
40
1
40
1
40
1
41
1
10
111.6055
20
-1.6263889825735
30
0
41
1
10
111.600004737356
20
-1.62021246724538
30
0
41
1
10
111.594211799427
20
-1.61455999580099
30
0
41
1
10
111.582136331548
20
-1.60553419400958
30
0
41
1
10
111.57576477563
20
-1.60214875066237
30
0
41
1
10
111.563317296278
20
-1.5997050240737
30
0
41
1
10
111.557514772273
20
-1.60080351646084
30
0
41
1
10
111.547823371798
20
-1.60659965116295
30
0
41
1
10
111.543809077888
20
-1.61122373865399
30
0
41
1
10
111.537237166688
20
-1.62203604467746
30
0
41
1
10
111.534613239458
20
-1.62828872288122
30
0
41
1
10
111.530308572924
20
-1.64139245269439
30
0
41
1
10
111.528603869242
20
-1.64830449814949
30
0
41
1
10
111.524370352316
20
-1.66975344455028
30
0
41
1
10
111.52272221291
20
-1.68499231794525
30
0
41
1
10
111.519763477303
20
-1.73079544504077
30
0
41
1
10
111.520294258414
20
-1.76213647892934
30
0
41
1
10
111.523619220996
20
-1.82558039376849
30
0
41
1
10
111.526514159926
20
-1.85771444620201
30
0
41
1
10
111.537644146478
20
-1.95496465684801
30
0
41
1
10
111.548337322641
20
-2.02112194700138
30
0
41
1
10
111.573783904193
20
-2.15308121064655
30
0
41
1
10
111.588606152318
20
-2.21913587696298
30
0
41
1
10
111.6055
20
-2.28526017750198
30
0
0
SPLINE
5
1DC
100
AcDbEntity
8
1
62
256
6
ByLayer
370
18
48
1
60
0
100
AcDbSpline
70
4
71
3
72
8
73
4
40
0
40
0
40
0
40
0
40
1
40
1
40
1
40
1
41
1
10
111.6055
20
-2.28526017750195
30
0
41
1
10
111.869706220596
20
-3.31939117384627
30
0
41
1
10
112.086430061288
20
-4.3664938187415
30
0
41
1
10
112.2495
20
-5.42825410213871
30
0
0
SPLINE
5
1DD
100
AcDbEntity
8
1
62
256
6
ByLayer
370
18
48
1
60
0
100
AcDbSpline
70
4
71
3
72
12
73
8
40
0
40
0
40
0
40
0
40
0.250000000000001
40
0.250000000000001
40
0.500000000000002
40
0.500000000000002
40
1
40
1
40
1
40
1
41
1
10
112.3245
20
-6.36448444176412
30
0
41
1
10
112.3245
20
-6.28674675504115
30
0
41
1
10
112.322321213052
20
-6.20886639586894
30
0
41
1
10
112.315157628452
20
-6.05297445046278
30
0
41
1
10
112.310118654055
20
-5.97495744460099
30
0
41
1
10
112.29112293735
20
-5.74074029062345
30
0
41
1
10
112.273453541426
20
-5.58421736019474
30
0
41
1
10
112.2495
20
-5.42825410213879
30
0
0
SPLINE
5
1DE
100
AcDbEntity
8
1
62
256
6
ByLayer
370
18
48
1
60
0
100
AcDbSpline
70
4
71
3
72
30
73
26
40
0
40
0
40
0
40
0
40
0.062499999999991
40
0.062499999999991
40
0.0937499999999921
40
0.0937499999999921
40
0.109374999999996
40
0.109374999999996
40
0.125
40
0.125
40
0.140625000000004
40
0.140625000000004
40
0.156250000000008
40
0.156250000000008
40
0.187500000000016
40
0.187500000000016
40
0.250000000000017
40
0.250000000000017
40
0.375000000000015
40
0.375000000000015
40
0.500000000000013
40
0.500000000000013
40
0.750000000000008
40
0.750000000000008
40
1
40
1
40
1
40
1
41
1
10
112.2495
20
-8.10825412522701
30
0
41
1
10
112.252585251602
20
-8.12149107225608
30
0
41
1
10
112.255899597279
20
-8.13461822570352
30
0
41
1
10
112.261905380729
20
-8.15382130104661
30
0
41
1
10
112.264083682185
20
-8.16018089993236
30
0
41
1
10
112.267983901483
20
-8.16928402610031
30
0
41
1
10
112.269379755249
20
-8.17222382143433
30
0
41
1
10
112.272581160924
20
-8.17769975868697
30
0
41
1
10
112.27439750269
20
-8.18031703502072
30
0
41
1
10
112.27884813873
20
-8.18380218965922
30
0
41
1
10
112.281541189178
20
-8.18418828591291
30
0
41
1
10
112.285946402378
20
-8.18151404328762
30
0
41
1
10
112.287666132916
20
-8.17899993628674
30
0
41
1
10
112.291963767712
20
-8.17098731134519
30
0
41
1
10
112.293902185556
20
-8.16470908171442
30
0
41
1
10
112.298993106347
20
-8.14568324825518
30
0
41
1
10
112.301268828837
20
-8.13238512588836
30
0
41
1
10
112.307234219055
20
-8.09226820422165
30
0
41
1
10
112.30983512522
20
-8.06504702247582
30
0
41
1
10
112.314214938181
20
-8.0105564627232
30
0
41
1
10
112.315900690146
20
-7.98321235596131
30
0
41
1
10
112.320121868679
20
-7.90102945045697
30
0
41
1
10
112.321822727285
20
-7.84602940069095
30
0
41
1
10
112.324029349182
20
-7.73590172154044
30
0
41
1
10
112.324500000005
20
-7.68078491158349
30
0
41
1
10
112.324500000005
20
-7.62563670288426
30
0
0
SPLINE
5
1DF
100
AcDbEntity
8
1
62
256
6
ByLayer
370
18
48
1
60
0
100
AcDbSpline
70
4
71
3
72
10
73
6
40
0
40
0
40
0
40
0
40
0.5
40
0.5
40
1
40
1
40
1
40
1
41
1
10
112.2495
20
-8.10825412522701
30
0
41
1
10
112.172800078505
20
-7.77918119088349
30
0
41
1
10
112.078711071859
20
-7.45800381228975
30
0
41
1
10
111.862125005522
20
-6.82854779960775
30
0
41
1
10
111.739622539874
20
-6.52027162010725
30
0
41
1
10
111.605500000001
20
-6.21727156313187
30
0
0
SPLINE
5
1E0
100
AcDbEntity
8
1
62
256
6
ByLayer
370
18
48
1
60
0
100
AcDbSpline
70
4
71
3
72
34
73
30
40
0
40
0
40
0
40
0
40
0.015624999999995
40
0.015624999999995
40
0.0234374999999926
40
0.0234374999999926
40
0.0312499999999902
40
0.0312499999999902
40
0.0390624999999878
40
0.0390624999999878
40
0.0468749999999855
40
0.0468749999999855
40
0.0624999999999873
40
0.0624999999999873
40
0.0937499999999887
40
0.0937499999999887
40
0.12499999999999
40
0.12499999999999
40
0.187499999999992
40
0.187499999999992
40
0.249999999999993
40
0.249999999999993
40
0.374999999999995
40
0.374999999999995
40
0.499999999999997
40
0.499999999999997
40
0.749999999999998
40
0.749999999999998
40
1
40
1
40
1
40
1
41
1
10
111.6055
20
-6.21727156313221
30
0
41
1
10
111.600770565557
20
-6.2065871628285
30
0
41
1
10
111.595549054338
20
-6.19606105002833
30
0
41
1
10
111.585900390277
20
-6.18252492849243
30
0
41
1
10
111.582318343786
20
-6.17834473370866
30
0
41
1
10
111.574314046877
20
-6.17262767042428
30
0
41
1
10
111.56971601516
20
-6.17137772101427
30
0
41
1
10
111.561718660099
20
-6.17386904609862
30
0
41
1
10
111.558300967182
20
-6.17726719122641
30
0
41
1
10
111.552786193003
20
-6.1852864462021
30
0
41
1
10
111.550603107456
20
-6.1898810173067
30
0
41
1
10
111.544820911684
20
-6.20444895895912
30
0
41
1
10
111.542027970043
20
-6.21519006895693
30
0
41
1
10
111.534988669662
20
-6.2479339123725
30
0
41
1
10
111.532125846609
20
-6.2704042107772
30
0
41
1
10
111.527546360837
20
-6.31540899894651
30
0
41
1
10
111.525936675823
20
-6.33807227650942
30
0
41
1
10
111.522187937599
20
-6.4063294679928
30
0
41
1
10
111.521123714516
20
-6.45218951034173
30
0
41
1
10
111.520277547574
20
-6.54426412244305
30
0
41
1
10
111.520544772605
20
-6.59048972200696
30
0
41
1
10
111.522565645691
20
-6.72954059363633
30
0
41
1
10
111.525520224338
20
-6.82280694025636
30
0
41
1
10
111.532835222886
20
-7.00930133326528
30
0
41
1
10
111.537238897876
20
-7.10261776087518
30
0
41
1
10
111.551541689553
20
-7.38274582032932
30
0
41
1
10
111.562501630545
20
-7.56973539008706
30
0
41
1
10
111.584379308983
20
-7.94411855831896
30
0
41
1
10
111.595352138883
20
-8.13154196308162
30
0
41
1
10
111.6055
20
-8.31906645791494
30
0
0
SPLINE
5
1E1
100
AcDbEntity
8
1
62
256
6
ByLayer
370
18
48
1
60
0
100
AcDbSpline
70
4
71
3
72
8
73
4
40
0
40
0
40
0
40
0
40
1
40
1
40
1
40
1
41
1
10
111.6055
20
-8.31906645791494
30
0
41
1
10
111.666142318209
20
-9.43968881930499
30
0
41
1
10
111.666142318209
20
-10.560311180695
30
0
41
1
10
111.6055
20
-11.6809335420851
30
0
0
SPLINE
5
1E2
100
AcDbEntity
8
1
62
256
6
ByLayer
370
18
48
1
60
0
100
AcDbSpline
70
4
71
3
72
34
73
30
40
0
40
0
40
0
40
0
40
0.250000000000005
40
0.250000000000005
40
0.50000000000001
40
0.50000000000001
40
0.625000000000013
40
0.625000000000013
40
0.750000000000017
40
0.750000000000017
40
0.812500000000018
40
0.812500000000018
40
0.87500000000002
40
0.87500000000002
40
0.906250000000021
40
0.906250000000021
40
0.937500000000022
40
0.937500000000022
40
0.953125000000023
40
0.953125000000023
40
0.960937500000021
40
0.960937500000021
40
0.968750000000019
40
0.968750000000019
40
0.976562500000016
40
0.976562500000016
40
0.984375000000014
40
0.984375000000014
40
1
40
1
40
1
40
1
41
1
10
111.6055
20
-11.6809335420851
30
0
41
1
10
111.595346533292
20
-11.8685616238312
30
0
41
1
10
111.584370807237
20
-12.0560262286993
30
0
41
1
10
111.562481488741
20
-12.4306099884009
30
0
41
1
10
111.551513851723
20
-12.6177298429037
30
0
41
1
10
111.537202736881
20
-12.8981254329405
30
0
41
1
10
111.532796830085
20
-12.991543154279
30
0
41
1
10
111.525483149715
20
-13.1782739904482
30
0
41
1
10
111.522535167938
20
-13.2715458172691
30
0
41
1
10
111.520533676288
20
-13.4107891039479
30
0
41
1
10
111.520274752555
20
-13.4571062118801
30
0
41
1
10
111.52115465809
20
-13.5494477281142
30
0
41
1
10
111.522240748443
20
-13.595481036449
30
0
41
1
10
111.52608172868
20
-13.6641151207607
30
0
41
1
10
111.527736744004
20
-13.6869313967421
30
0
41
1
10
111.532408665708
20
-13.7318553676975
30
0
41
1
10
111.535313860698
20
-13.7540525787307
30
0
41
1
10
111.542369992768
20
-13.7861374829186
30
0
41
1
10
111.545178365622
20
-13.7967125716022
30
0
41
1
10
111.551015675626
20
-13.8110070008819
30
0
41
1
10
111.553273328892
20
-13.815595055817
30
0
41
1
10
111.55884924938
20
-13.823321377842
30
0
41
1
10
111.562256999408
20
-13.8265123816615
30
0
41
1
10
111.570382070726
20
-13.8285817210433
30
0
41
1
10
111.574817602389
20
-13.8271291906218
30
0
41
1
10
111.582709235835
20
-13.8212455239888
30
0
41
1
10
111.586129694689
20
-13.8171872080589
30
0
41
1
10
111.595657580156
20
-13.803715928319
30
0
41
1
10
111.600811615614
20
-13.7933200998164
30
0
41
1
10
111.6055
20
-13.7827284368678
30
0
0
SPLINE
5
1E3
100
AcDbEntity
8
1
62
256
6
ByLayer
370
18
48
1
60
0
100
AcDbSpline
70
4
71
3
72
10
73
6
40
0
40
0
40
0
40
0
40
0.5
40
0.5
40
1
40
1
40
1
40
1
41
1
10
111.605500000001
20
-13.7827284368681
30
0
41
1
10
111.739622539874
20
-13.4797283798924
30
0
41
1
10
111.862125005522
20
-13.1714522003914
30
0
41
1
10
112.07871107186
20
-12.5419961877085
30
0
41
1
10
112.172800078506
20
-12.2208188091143
30
0
41
1
10
112.249500000001
20
-11.8917458747703
30
0
0
LINE
5
75
100
AcDbEntity
8
1
62
256
6
ByLayer
370
18
48
1
60
0
100
AcDbLine
10
23.2
20
-30
30
0
11
107.8
21
-30
31
0
39
0
210
0
220
0
230
1
0
LINE
5
77
100
AcDbEntity
8
1
62
256
6
ByLayer
370
18
48
1
60
0
100
AcDbLine
10
116.4255
20
-16.899495
30
0
11
112.324484
21
-16.899495
31
0
39
0
210
0
220
0
230
1
0
LINE
5
78
100
AcDbEntity
8
1
62
256
6
ByLayer
370
18
48
1
60
0
100
AcDbLine
10
112.324484
20
-22.899495
30
0
11
116.4255
21
-22.899495
31
0
39
0
210
0
220
0
230
1
0
LINE
5
79
100
AcDbEntity
8
1
62
256
6
ByLayer
370
18
48
1
60
0
100
AcDbLine
10
121.9255
20
4.899495
30
0
11
116.6755
21
4.899495
31
0
39
0
210
0
220
0
230
1
0
LINE
5
7A
100
AcDbEntity
8
1
62
256
6
ByLayer
370
18
48
1
60
0
100
AcDbLine
10
121.9255
20
-14.899495
30
0
11
116.6755
21
-14.899495
31
0
39
0
210
0
220
0
230
1
0
LINE
5
7B
100
AcDbEntity
8
1
62
256
6
ByLayer
370
18
48
1
60
0
100
AcDbLine
10
116.6755
20
-24.899495
30
0
11
121.9255
21
-24.899495
31
0
39
0
210
0
220
0
230
1
0
LINE
5
7C
100
AcDbEntity
8
1
62
256
6
ByLayer
370
18
48
1
60
0
100
AcDbLine
10
116.6755
20
-5.100505
30
0
11
121.9255
21
-5.100505
31
0
39
0
210
0
220
0
230
1
0
LINE
5
7D
100
AcDbEntity
8
1
62
256
6
ByLayer
370
18
48
1
60
0
100
AcDbLine
10
106.834074
20
10.741181
30
0
11
101.673689
21
30
31
0
39
0
210
0
220
0
230
1
0
LINE
5
7E
100
AcDbEntity
8
1
62
256
6
ByLayer
370
18
48
1
60
0
100
AcDbLine
10
0
20
-31.2
30
0
11
0.3
21
-31.5
31
0
39
0
210
0
220
0
230
1
0
LINE
5
7F
100
AcDbEntity
8
1
62
256
6
ByLayer
370
18
48
1
60
0
100
AcDbLine
10
0.3
20
31.5
30
0
11
0
21
31.2
31
0
39
0
210
0
220
0
230
1
0
LINE
5
80
100
AcDbEntity
8
1
62
256
6
ByLayer
370
18
48
1
60
0
100
AcDbLine
10
22
20
31.5
30
0
11
0.3
21
31.5
31
0
39
0
210
0
220
0
230
1
0
LINE
5
81
100
AcDbEntity
8
1
62
256
6
ByLayer
370
18
48
1
60
0
100
AcDbLine
10
0.3
20
-31.5
30
0
11
22
21
-31.5
31
0
39
0
210
0
220
0
230
1
0
LINE
5
82
100
AcDbEntity
8
1
62
256
6
ByLayer
370
18
48
1
60
0
100
AcDbLine
10
22.244183
20
30.706039
30
0
11
22
21
31.5
31
0
39
0
210
0
220
0
230
1
0
LINE
5
83
100
AcDbEntity
8
1
62
256
6
ByLayer
370
18
48
1
60
0
100
AcDbLine
10
22
20
-31.5
30
0
11
22.244183
21
-30.706039
31
0
39
0
210
0
220
0
230
1
0
LINE
5
84
100
AcDbEntity
8
1
62
256
6
ByLayer
370
18
48
1
60
0
100
AcDbLine
10
112.324484
20
-3.100505
30
0
11
116.4255
21
-3.100505
31
0
39
0
210
0
220
0
230
1
0
LINE
5
85
100
AcDbEntity
8
1
62
256
6
ByLayer
370
18
48
1
60
0
100
AcDbLine
10
116.4255
20
2.899495
30
0
11
112.324484
21
2.899495
31
0
39
0
210
0
220
0
230
1
0
LINE
5
86
100
AcDbEntity
8
1
62
256
6
ByLayer
370
18
48
1
60
0
100
AcDbLine
10
101.674225
20
30
30
0
11
23.2
21
30
31
0
39
0
210
0
220
0
230
1
0
LINE
5
87
100
AcDbEntity
8
SK1
62
256
6
ByLayer
370
18
48
1
60
0
100
AcDbLine
10
-0.2
20
-22.070375
30
0
11
0
21
-22.070375
31
0
39
0
210
0
220
0
230
1
0
LINE
5
89
100
AcDbEntity
8
1
62
256
6
ByLayer
370
18
48
1
60
0
100
AcDbLine
10
107.8
20
-30
30
0
11
111.3245
21
-30
31
0
39
0
210
0
220
0
230
1
0
LINE
5
8A
100
AcDbEntity
8
1
62
256
6
ByLayer
370
18
48
1
60
0
100
AcDbLine
10
111.3245
20
10
30
0
11
107.8
21
10
31
0
39
0
210
0
220
0
230
1
0
LINE
5
8B
100
AcDbEntity
8
1
62
256
6
ByLayer
370
18
48
1
60
0
100
AcDbLine
10
111.3245
20
-30
30
0
11
111.521897
21
-29.802603
31
0
39
0
210
0
220
0
230
1
0
LINE
5
8C
100
AcDbEntity
8
1
62
256
6
ByLayer
370
18
48
1
60
0
100
AcDbLine
10
111.521897
20
9.802603
30
0
11
111.3245
21
10
31
0
39
0
210
0
220
0
230
1
0
LINE
5
8D
100
AcDbEntity
8
1
62
256
6
ByLayer
370
18
48
1
60
0
100
AcDbLine
10
121.9255
20
4.899495
30
0
11
116.6755
21
4.899495
31
0
39
0
210
0
220
0
230
1
0
LINE
5
8E
100
AcDbEntity
8
1
62
256
6
ByLayer
370
18
48
1
60
0
100
AcDbLine
10
116.6755
20
-5.100505
30
0
11
121.9255
21
-5.100505
31
0
39
0
210
0
220
0
230
1
0
LINE
5
8F
100
AcDbEntity
8
SK1
62
256
6
ByLayer
370
18
48
1
60
0
100
AcDbLine
10
0
20
22.070375
30
0
11
-0.2
21
22.070375
31
0
39
0
210
0
220
0
230
1
0
LINE
5
90
100
AcDbEntity
8
1
62
256
6
ByLayer
370
18
48
1
60
0
100
AcDbLine
10
116.4255
20
2.899495
30
0
11
112.324484
21
2.899495
31
0
39
0
210
0
220
0
230
1
0
LINE
5
91
100
AcDbEntity
8
1
62
256
6
ByLayer
370
18
48
1
60
0
100
AcDbLine
10
112.324484
20
-3.100505
30
0
11
116.4255
21
-3.100505
31
0
39
0
210
0
220
0
230
1
0
LINE
5
92
100
AcDbEntity
8
1
62
256
6
ByLayer
370
13
48
1
60
0
100
AcDbLine
10
112.324383
20
2.285995
30
0
11
116.4255
21
2.285995
31
0
39
0
210
0
220
0
230
1
0
LINE
5
93
100
AcDbEntity
8
1
62
256
6
ByLayer
370
13
48
1
60
0
100
AcDbLine
10
112.324383
20
-2.487005
30
0
11
116.4255
21
-2.487005
31
0
39
0
210
0
220
0
230
1
0
LINE
5
94
100
AcDbEntity
8
1
62
256
6
ByLayer
370
18
48
1
60
0
100
AcDbLine
10
116.4255
20
-3.099943
30
0
11
116.4255
21
-3.100505
31
0
39
0
210
0
220
0
230
1
0
LINE
5
95
100
AcDbEntity
8
80
62
256
6
ByLayer
370
18
48
1
60
0
100
AcDbLine
10
0
20
0
30
0
11
-5
21
0
31
0
39
0
210
0
220
0
230
1
0
LINE
5
96
100
AcDbEntity
8
81
62
256
6
ByLayer
370
18
48
1
60
0
100
AcDbLine
10
112
20
-10
30
0
11
117
21
-10
31
0
39
0
210
0
220
0
230
1
0
LINE
5
97
100
AcDbEntity
8
4
62
256
6
ByLayer
370
18
48
0.05
60
0
100
AcDbLine
10
0
20
0
30
0
11
112
21
0
31
0
39
0
210
0
220
0
230
1
0
LINE
5
99
100
AcDbEntity
8
SK4
62
256
6
ByLayer
370
18
48
0.05
60
0
100
AcDbLine
10
-43
20
0
30
0
11
117
21
0
31
0
39
0
210
0
220
0
230
1
0
LINE
5
9B
100
AcDbEntity
8
1
62
256
6
ByLayer
370
18
48
1
60
0
100
AcDbLine
10
112.3245
20
-2.257857
30
0
11
112.3245
21
-6.36458
31
0
39
0
210
0
220
0
230
1
0
LINE
5
9C
100
AcDbEntity
8
1
62
256
6
ByLayer
370
18
48
1
60
0
100
AcDbLine
10
112.3245
20
-13.63542
30
0
11
112.3245
21
-17.742143
31
0
39
0
210
0
220
0
230
1
0
LINE
5
9D
100
AcDbEntity
8
1
62
256
6
ByLayer
370
18
48
1
60
0
100
AcDbLine
10
112.3245
20
-28.646315
30
0
11
112.3245
21
-28.853979
31
0
39
0
210
0
220
0
230
1
0
LINE
5
9E
100
AcDbEntity
8
1
62
256
6
ByLayer
370
18
48
1
60
0
100
AcDbLine
10
112.3245
20
8.98093
30
0
11
112.3245
21
8.877899
31
0
39
0
210
0
220
0
230
1
0
LINE
5
9F
100
AcDbEntity
8
1
62
256
6
ByLayer
370
18
48
1
60
0
100
AcDbLine
10
112.3245
20
-28.877899
30
0
11
112.3245
21
-28.98093
31
0
39
0
210
0
220
0
230
1
0
LINE
5
A0
100
AcDbEntity
8
1
62
256
6
ByLayer
370
13
48
1
60
0
100
AcDbLine
10
22.244183
20
30.706039
30
0
11
22.244183
21
-30.706039
31
0
39
0
210
0
220
0
230
1
0
LINE
5
A1
100
AcDbEntity
8
1
62
256
6
ByLayer
370
18
48
1
60
0
100
AcDbLine
10
10.538675
20
30.080593
30
0
11
13.461325
21
30.080593
31
0
39
0
210
0
220
0
230
1
0
LINE
5
A2
100
AcDbEntity
8
1
62
256
6
ByLayer
370
18
48
1
60
0
100
AcDbLine
10
13.461325
20
9.349221
30
0
11
10.538675
21
9.349221
31
0
39
0
210
0
220
0
230
1
0
LINE
5
A3
100
AcDbEntity
8
1
62
256
6
ByLayer
370
18
48
1
60
0
100
AcDbLine
10
0.3
20
-31.5
30
0
11
0.3
21
31.5
31
0
39
0
210
0
220
0
230
1
0
LINE
5
A4
100
AcDbEntity
8
1
62
256
6
ByLayer
370
18
48
1
60
0
100
AcDbLine
10
22
20
31.5
30
0
11
22
21
-31.5
31
0
39
0
210
0
220
0
230
1
0
LINE
5
A5
100
AcDbEntity
8
1
62
256
6
ByLayer
370
18
48
1
60
0
100
AcDbLine
10
13.461325
20
-30.080593
30
0
11
10.538675
21
-30.080593
31
0
39
0
210
0
220
0
230
1
0
LINE
5
A6
100
AcDbEntity
8
1
62
256
6
ByLayer
370
18
48
1
60
0
100
AcDbLine
10
10.538675
20
-9.349221
30
0
11
13.461325
21
-9.349221
31
0
39
0
210
0
220
0
230
1
0
LINE
5
A7
100
AcDbEntity
8
1
62
256
6
ByLayer
370
13
48
1
60
0
100
AcDbLine
10
23.2
20
30
30
0
11
23.2
21
-30
31
0
39
0
210
0
220
0
230
1
0
LINE
5
A8
100
AcDbEntity
8
1
62
256
6
ByLayer
370
13
48
1
60
0
100
AcDbLine
10
13.894338
20
29.913955
30
0
11
13.894338
21
9.869413
31
0
39
0
210
0
220
0
230
1
0
LINE
5
A9
100
AcDbEntity
8
1
62
256
6
ByLayer
370
13
48
1
60
0
100
AcDbLine
10
13.461325
20
30.080593
30
0
11
13.461325
21
9.349221
31
0
39
0
210
0
220
0
230
1
0
LINE
5
AA
100
AcDbEntity
8
1
62
256
6
ByLayer
370
13
48
1
60
0
100
AcDbLine
10
10.538675
20
-9.349221
30
0
11
10.538675
21
-30.080593
31
0
39
0
210
0
220
0
230
1
0
LINE
5
AB
100
AcDbEntity
8
1
62
256
6
ByLayer
370
13
48
1
60
0
100
AcDbLine
10
10.105662
20
-9.869413
30
0
11
10.105662
21
-29.913955
31
0
39
0
210
0
220
0
230
1
0
LINE
5
AC
100
AcDbEntity
8
1
62
256
6
ByLayer
370
13
48
1
60
0
100
AcDbLine
10
10.538675
20
30.080593
30
0
11
10.538675
21
9.349221
31
0
39
0
210
0
220
0
230
1
0
LINE
5
AD
100
AcDbEntity
8
1
62
256
6
ByLayer
370
13
48
1
60
0
100
AcDbLine
10
10.105662
20
29.913955
30
0
11
10.105662
21
9.869413
31
0
39
0
210
0
220
0
230
1
0
LINE
5
AE
100
AcDbEntity
8
1
62
256
6
ByLayer
370
13
48
1
60
0
100
AcDbLine
10
13.894338
20
-9.869413
30
0
11
13.894338
21
-29.913955
31
0
39
0
210
0
220
0
230
1
0
LINE
5
AF
100
AcDbEntity
8
1
62
256
6
ByLayer
370
13
48
1
60
0
100
AcDbLine
10
13.461325
20
-9.349221
30
0
11
13.461325
21
-30.080593
31
0
39
0
210
0
220
0
230
1
0
LINE
5
B0
100
AcDbEntity
8
1
62
256
6
ByLayer
370
13
48
1
60
0
100
AcDbLine
10
106.834074
20
10.741181
30
0
11
106.834074
21
-28.490171
31
0
39
0
210
0
220
0
230
1
0
LINE
5
B1
100
AcDbEntity
8
1
62
256
6
ByLayer
370
18
48
1
60
0
100
AcDbLine
10
0
20
-31.2
30
0
11
0
21
31.2
31
0
39
0
210
0
220
0
230
1
0
LINE
5
B2
100
AcDbEntity
8
SK1
62
256
6
ByLayer
370
13
48
1
60
0
100
AcDbLine
10
-1.307107
20
4.811152
30
0
11
-1.307107
21
-4.811152
31
0
39
0
210
0
220
0
230
1
0
LINE
5
B3
100
AcDbEntity
8
SK1
62
256
6
ByLayer
370
18
48
1
60
0
100
AcDbLine
10
-0.2
20
-7.034158
30
0
11
-0.2
21
-7.085397
31
0
39
0
210
0
220
0
230
1
0
LINE
5
B4
100
AcDbEntity
8
1
62
256
6
ByLayer
370
18
48
1
60
0
100
AcDbLine
10
112.3245
20
0.475875
30
0
11
112.3245
21
-1.819979
31
0
39
0
210
0
220
0
230
1
0
LINE
5
B5
100
AcDbEntity
8
1
62
256
6
ByLayer
370
18
48
1
60
0
100
AcDbLine
10
112.3245
20
-18.180021
30
0
11
112.3245
21
-20.475875
31
0
39
0
210
0
220
0
230
1
0
LINE
5
B6
100
AcDbEntity
8
SK1
62
256
6
ByLayer
370
18
48
1
60
0
100
AcDbLine
10
-0.2
20
7.0854
30
0
11
-0.2
21
7.034161
31
0
39
0
210
0
220
0
230
1
0
LINE
5
B7
100
AcDbEntity
8
1
62
256
6
ByLayer
370
18
48
1
60
0
100
AcDbLine
10
112.3245
20
2.451792
30
0
11
112.3245
21
0.77508
31
0
39
0
210
0
220
0
230
1
0
LINE
5
B8
100
AcDbEntity
8
1
62
256
6
ByLayer
370
18
48
1
60
0
100
AcDbLine
10
112.3245
20
-20.77508
30
0
11
112.3245
21
-22.451792
31
0
39
0
210
0
220
0
230
1
0
LINE
5
B9
100
AcDbEntity
8
1
62
256
6
ByLayer
370
13
48
1
60
0
100
AcDbLine
10
107.8
20
10
30
0
11
107.8
21
-30
31
0
39
0
210
0
220
0
230
1
0
LINE
5
BA
100
AcDbEntity
8
1
62
256
6
ByLayer
370
18
48
1
60
0
100
AcDbLine
10
111.3245
20
10
30
0
11
111.3245
21
-30
31
0
39
0
210
0
220
0
230
1
0
LINE
5
BB
100
AcDbEntity
8
1
62
256
6
ByLayer
370
18
48
1
60
0
100
AcDbLine
10
112.3245
20
-12.374363
30
0
11
112.3245
21
-13.635516
31
0
39
0
210
0
220
0
230
1
0
LINE
5
BC
100
AcDbEntity
8
1
62
256
6
ByLayer
370
18
48
1
60
0
100
AcDbLine
10
112.3245
20
-17.742143
30
0
11
112.3245
21
-18.180085
31
0
39
0
210
0
220
0
230
1
0
LINE
5
BD
100
AcDbEntity
8
1
62
256
6
ByLayer
370
18
48
1
60
0
100
AcDbLine
10
112.3245
20
-20.475875
30
0
11
112.3245
21
-20.775464
31
0
39
0
210
0
220
0
230
1
0
LINE
5
BE
100
AcDbEntity
8
1
62
256
6
ByLayer
370
18
48
1
60
0
100
AcDbLine
10
112.3245
20
-22.451792
30
0
11
112.3245
21
-22.680988
31
0
39
0
210
0
220
0
230
1
0
LINE
5
BF
100
AcDbEntity
8
1
62
256
6
ByLayer
370
18
48
1
60
0
100
AcDbLine
10
112.3245
20
-23.994653
30
0
11
112.3245
21
-24.177598
31
0
39
0
210
0
220
0
230
1
0
LINE
5
C0
100
AcDbEntity
8
1
62
256
6
ByLayer
370
18
48
1
60
0
100
AcDbLine
10
112.3245
20
-25.236583
30
0
11
112.3245
21
-25.385093
31
0
39
0
210
0
220
0
230
1
0
LINE
5
C1
100
AcDbEntity
8
1
62
256
6
ByLayer
370
18
48
1
60
0
100
AcDbLine
10
112.3245
20
-26.246743
30
0
11
112.3245
21
-26.367588
31
0
39
0
210
0
220
0
230
1
0
LINE
5
C2
100
AcDbEntity
8
1
62
256
6
ByLayer
370
18
48
1
60
0
100
AcDbLine
10
112.3245
20
-27.066336
30
0
11
112.3245
21
-27.163763
31
0
39
0
210
0
220
0
230
1
0
LINE
5
C3
100
AcDbEntity
8
1
62
256
6
ByLayer
370
18
48
1
60
0
100
AcDbLine
10
112.3245
20
-27.721823
30
0
11
112.3245
21
-27.79864
31
0
39
0
210
0
220
0
230
1
0
LINE
5
C4
100
AcDbEntity
8
1
62
256
6
ByLayer
370
18
48
1
60
0
100
AcDbLine
10
112.3245
20
-28.230913
30
0
11
112.3245
21
-28.289024
31
0
39
0
210
0
220
0
230
1
0
LINE
5
C5
100
AcDbEntity
8
1
62
256
6
ByLayer
370
18
48
1
60
0
100
AcDbLine
10
112.3245
20
-28.605627
30
0
11
112.3245
21
-28.646319
31
0
39
0
210
0
220
0
230
1
0
LINE
5
C6
100
AcDbEntity
8
1
62
256
6
ByLayer
370
18
48
1
60
0
100
AcDbLine
10
112.3245
20
-28.853979
30
0
11
112.3245
21
-28.878084
31
0
39
0
210
0
220
0
230
1
0
LINE
5
C7
100
AcDbEntity
8
1
62
256
6
ByLayer
370
18
48
1
60
0
100
AcDbLine
10
112.3245
20
-28.98093
30
0
11
112.3245
21
-28.988915
31
0
39
0
210
0
220
0
230
1
0
LINE
5
C8
100
AcDbEntity
8
1
62
256
6
ByLayer
370
18
48
1
60
0
100
AcDbLine
10
112.3245
20
8.988915
30
0
11
112.3245
21
8.98093
31
0
39
0
210
0
220
0
230
1
0
LINE
5
C9
100
AcDbEntity
8
1
62
256
6
ByLayer
370
18
48
1
60
0
100
AcDbLine
10
112.3245
20
8.878084
30
0
11
112.3245
21
8.853979
31
0
39
0
210
0
220
0
230
1
0
LINE
5
CA
100
AcDbEntity
8
1
62
256
6
ByLayer
370
18
48
1
60
0
100
AcDbLine
10
112.3245
20
8.646319
30
0
11
112.3245
21
8.605627
31
0
39
0
210
0
220
0
230
1
0
LINE
5
CB
100
AcDbEntity
8
1
62
256
6
ByLayer
370
18
48
1
60
0
100
AcDbLine
10
112.3245
20
8.289024
30
0
11
112.3245
21
8.230913
31
0
39
0
210
0
220
0
230
1
0
LINE
5
CC
100
AcDbEntity
8
1
62
256
6
ByLayer
370
18
48
1
60
0
100
AcDbLine
10
112.3245
20
7.79864
30
0
11
112.3245
21
7.721823
31
0
39
0
210
0
220
0
230
1
0
LINE
5
CD
100
AcDbEntity
8
1
62
256
6
ByLayer
370
18
48
1
60
0
100
AcDbLine
10
112.3245
20
7.163763
30
0
11
112.3245
21
7.066336
31
0
39
0
210
0
220
0
230
1
0
LINE
5
CE
100
AcDbEntity
8
1
62
256
6
ByLayer
370
18
48
1
60
0
100
AcDbLine
10
112.3245
20
6.367588
30
0
11
112.3245
21
6.246743
31
0
39
0
210
0
220
0
230
1
0
LINE
5
CF
100
AcDbEntity
8
1
62
256
6
ByLayer
370
18
48
1
60
0
100
AcDbLine
10
112.3245
20
5.385093
30
0
11
112.3245
21
5.236583
31
0
39
0
210
0
220
0
230
1
0
LINE
5
D0
100
AcDbEntity
8
1
62
256
6
ByLayer
370
18
48
1
60
0
100
AcDbLine
10
112.3245
20
4.177598
30
0
11
112.3245
21
3.994653
31
0
39
0
210
0
220
0
230
1
0
LINE
5
D1
100
AcDbEntity
8
1
62
256
6
ByLayer
370
18
48
1
60
0
100
AcDbLine
10
112.3245
20
2.680988
30
0
11
112.3245
21
2.451792
31
0
39
0
210
0
220
0
230
1
0
LINE
5
D2
100
AcDbEntity
8
1
62
256
6
ByLayer
370
18
48
1
60
0
100
AcDbLine
10
112.3245
20
0.775464
30
0
11
112.3245
21
0.475875
31
0
39
0
210
0
220
0
230
1
0
LINE
5
D3
100
AcDbEntity
8
1
62
256
6
ByLayer
370
18
48
1
60
0
100
AcDbLine
10
112.3245
20
-1.819915
30
0
11
112.3245
21
-2.257857
31
0
39
0
210
0
220
0
230
1
0
LINE
5
D4
100
AcDbEntity
8
1
62
256
6
ByLayer
370
18
48
1
60
0
100
AcDbLine
10
112.3245
20
-6.364484
30
0
11
112.3245
21
-7.625637
31
0
39
0
210
0
220
0
230
1
0
LINE
5
D5
100
AcDbEntity
8
1
62
256
6
ByLayer
370
13
48
1
60
0
100
AcDbLine
10
111.6055
20
-6.217272
30
0
11
111.6055
21
-8.319168
31
0
39
0
210
0
220
0
230
1
0
LINE
5
D6
100
AcDbEntity
8
1
62
256
6
ByLayer
370
13
48
1
60
0
100
AcDbLine
10
111.6055
20
-11.680832
30
0
11
111.6055
21
-13.782728
31
0
39
0
210
0
220
0
230
1
0
LINE
5
D7
100
AcDbEntity
8
1
62
256
6
ByLayer
370
13
48
1
60
0
100
AcDbLine
10
112.2495
20
-11.891746
30
0
11
112.2495
21
-8.108254
31
0
39
0
210
0
220
0
230
1
0
LINE
5
D8
100
AcDbEntity
8
1
62
256
6
ByLayer
370
13
48
1
60
0
100
AcDbLine
10
111.6055
20
-1.626389
30
0
11
111.6055
21
-2.285287
31
0
39
0
210
0
220
0
230
1
0
LINE
5
D9
100
AcDbEntity
8
1
62
256
6
ByLayer
370
13
48
1
60
0
100
AcDbLine
10
111.6055
20
-17.714713
30
0
11
111.6055
21
-18.373611
31
0
39
0
210
0
220
0
230
1
0
LINE
5
DA
100
AcDbEntity
8
1
62
256
6
ByLayer
370
13
48
1
60
0
100
AcDbLine
10
112.2495
20
-17.633583
30
0
11
112.2495
21
-14.571562
31
0
39
0
210
0
220
0
230
1
0
LINE
5
DB
100
AcDbEntity
8
1
62
256
6
ByLayer
370
13
48
1
60
0
100
AcDbLine
10
112.2495
20
-5.428438
30
0
11
112.2495
21
-2.366417
31
0
39
0
210
0
220
0
230
1
0
LINE
5
DC
100
AcDbEntity
8
1
62
256
6
ByLayer
370
13
48
1
60
0
100
AcDbLine
10
111.6055
20
1.019332
30
0
11
111.6055
21
0.568917
31
0
39
0
210
0
220
0
230
1
0
LINE
5
DD
100
AcDbEntity
8
1
62
256
6
ByLayer
370
13
48
1
60
0
100
AcDbLine
10
111.6055
20
-20.568917
30
0
11
111.6055
21
-21.019332
31
0
39
0
210
0
220
0
230
1
0
LINE
5
DE
100
AcDbEntity
8
1
62
256
6
ByLayer
370
13
48
1
60
0
100
AcDbLine
10
112.2495
20
-20.414628
30
0
11
112.2495
21
-18.614199
31
0
39
0
210
0
220
0
230
1
0
LINE
5
DF
100
AcDbEntity
8
1
62
256
6
ByLayer
370
13
48
1
60
0
100
AcDbLine
10
112.2495
20
-1.385801
30
0
11
112.2495
21
0.414628
31
0
39
0
210
0
220
0
230
1
0
LINE
5
E0
100
AcDbEntity
8
1
62
256
6
ByLayer
370
13
48
1
60
0
100
AcDbLine
10
111.6055
20
2.970506
30
0
11
111.6055
21
2.625166
31
0
39
0
210
0
220
0
230
1
0
LINE
5
E1
100
AcDbEntity
8
1
62
256
6
ByLayer
370
13
48
1
60
0
100
AcDbLine
10
111.6055
20
-22.625166
30
0
11
111.6055
21
-22.970506
31
0
39
0
210
0
220
0
230
1
0
LINE
5
E2
100
AcDbEntity
8
1
62
256
6
ByLayer
370
13
48
1
60
0
100
AcDbLine
10
112.2495
20
-22.416012
30
0
11
112.2495
21
-21.090991
31
0
39
0
210
0
220
0
230
1
0
LINE
5
E3
100
AcDbEntity
8
1
62
256
6
ByLayer
370
13
48
1
60
0
100
AcDbLine
10
112.2495
20
1.090991
30
0
11
112.2495
21
2.416012
31
0
39
0
210
0
220
0
230
1
0
LINE
5
E4
100
AcDbEntity
8
1
62
256
6
ByLayer
370
13
48
1
60
0
100
AcDbLine
10
111.6055
20
4.510077
30
0
11
111.6055
21
4.233479
31
0
39
0
210
0
220
0
230
1
0
LINE
5
E5
100
AcDbEntity
8
1
62
256
6
ByLayer
370
13
48
1
60
0
100
AcDbLine
10
111.6055
20
-24.233479
30
0
11
111.6055
21
-24.510077
31
0
39
0
210
0
220
0
230
1
0
LINE
5
E6
100
AcDbEntity
8
1
62
256
6
ByLayer
370
13
48
1
60
0
100
AcDbLine
10
112.2495
20
-23.976775
30
0
11
112.2495
21
-22.935311
31
0
39
0
210
0
220
0
230
1
0
LINE
5
E7
100
AcDbEntity
8
1
62
256
6
ByLayer
370
13
48
1
60
0
100
AcDbLine
10
112.2495
20
2.935311
30
0
11
112.2495
21
3.976775
31
0
39
0
210
0
220
0
230
1
0
LINE
5
E8
100
AcDbEntity
8
1
62
256
6
ByLayer
370
18
48
1
60
0
100
AcDbLine
10
112.3245
20
-7.625637
30
0
11
112.3245
21
-12.374363
31
0
39
0
210
0
220
0
230
1
0
LINE
5
E9
100
AcDbEntity
8
1
62
256
6
ByLayer
370
13
48
1
60
0
100
AcDbLine
10
111.6055
20
5.759146
30
0
11
111.6055
21
5.533307
31
0
39
0
210
0
220
0
230
1
0
LINE
5
EA
100
AcDbEntity
8
1
62
256
6
ByLayer
370
13
48
1
60
0
100
AcDbLine
10
111.6055
20
-25.533307
30
0
11
111.6055
21
-25.759146
31
0
39
0
210
0
220
0
230
1
0
LINE
5
EB
100
AcDbEntity
8
1
62
256
6
ByLayer
370
13
48
1
60
0
100
AcDbLine
10
112.2495
20
-25.232962
30
0
11
112.2495
21
-24.391974
31
0
39
0
210
0
220
0
230
1
0
LINE
5
EC
100
AcDbEntity
8
1
62
256
6
ByLayer
370
13
48
1
60
0
100
AcDbLine
10
112.2495
20
4.391974
30
0
11
112.2495
21
5.232962
31
0
39
0
210
0
220
0
230
1
0
LINE
5
ED
100
AcDbEntity
8
1
62
256
6
ByLayer
370
13
48
1
60
0
100
AcDbLine
10
111.6055
20
6.782699
30
0
11
111.6055
21
6.597446
31
0
39
0
210
0
220
0
230
1
0
LINE
5
EE
100
AcDbEntity
8
1
62
256
6
ByLayer
370
13
48
1
60
0
100
AcDbLine
10
111.6055
20
-26.597446
30
0
11
111.6055
21
-26.782699
31
0
39
0
210
0
220
0
230
1
0
LINE
5
EF
100
AcDbEntity
8
1
62
256
6
ByLayer
370
13
48
1
60
0
100
AcDbLine
10
112.2495
20
-26.255338
30
0
11
112.2495
21
-25.570347
31
0
39
0
210
0
220
0
230
1
0
LINE
5
F0
100
AcDbEntity
8
1
62
256
6
ByLayer
370
13
48
1
60
0
100
AcDbLine
10
112.2495
20
5.570347
30
0
11
112.2495
21
6.255338
31
0
39
0
210
0
220
0
230
1
0
LINE
5
F1
100
AcDbEntity
8
1
62
256
6
ByLayer
370
18
48
1
60
0
100
AcDbLine
10
112.3245
20
3.994653
30
0
11
112.3245
21
2.681014
31
0
39
0
210
0
220
0
230
1
0
LINE
5
F2
100
AcDbEntity
8
1
62
256
6
ByLayer
370
18
48
1
60
0
100
AcDbLine
10
112.3245
20
-22.681014
30
0
11
112.3245
21
-23.994653
31
0
39
0
210
0
220
0
230
1
0
LINE
5
F3
100
AcDbEntity
8
1
62
256
6
ByLayer
370
13
48
1
60
0
100
AcDbLine
10
111.6055
20
7.620083
30
0
11
111.6055
21
7.468992
31
0
39
0
210
0
220
0
230
1
0
LINE
5
F4
100
AcDbEntity
8
1
62
256
6
ByLayer
370
13
48
1
60
0
100
AcDbLine
10
111.6055
20
-27.468992
30
0
11
111.6055
21
-27.620083
31
0
39
0
210
0
220
0
230
1
0
LINE
5
F5
100
AcDbEntity
8
1
62
256
6
ByLayer
370
13
48
1
60
0
100
AcDbLine
10
112.2495
20
-27.085927
30
0
11
112.2495
21
-26.530049
31
0
39
0
210
0
220
0
230
1
0
LINE
5
F6
100
AcDbEntity
8
1
62
256
6
ByLayer
370
13
48
1
60
0
100
AcDbLine
10
112.2495
20
6.530049
30
0
11
112.2495
21
7.085927
31
0
39
0
210
0
220
0
230
1
0
LINE
5
F7
100
AcDbEntity
8
1
62
256
6
ByLayer
370
18
48
1
60
0
100
AcDbLine
10
112.3245
20
-24.177621
30
0
11
112.3245
21
-25.236583
31
0
39
0
210
0
220
0
230
1
0
LINE
5
F8
100
AcDbEntity
8
1
62
256
6
ByLayer
370
18
48
1
60
0
100
AcDbLine
10
112.3245
20
5.236583
30
0
11
112.3245
21
4.177621
31
0
39
0
210
0
220
0
230
1
0
LINE
5
F9
100
AcDbEntity
8
1
62
256
6
ByLayer
370
13
48
1
60
0
100
AcDbLine
10
111.6055
20
-28.175685
30
0
11
111.6055
21
-28.296875
31
0
39
0
210
0
220
0
230
1
0
LINE
5
FA
100
AcDbEntity
8
1
62
256
6
ByLayer
370
13
48
1
60
0
100
AcDbLine
10
111.6055
20
8.296875
30
0
11
111.6055
21
8.175685
31
0
39
0
210
0
220
0
230
1
0
LINE
5
FB
100
AcDbEntity
8
1
62
256
6
ByLayer
370
13
48
1
60
0
100
AcDbLine
10
112.2495
20
-27.75167
30
0
11
112.2495
21
-27.30746
31
0
39
0
210
0
220
0
230
1
0
LINE
5
FC
100
AcDbEntity
8
1
62
256
6
ByLayer
370
13
48
1
60
0
100
AcDbLine
10
112.2495
20
7.30746
30
0
11
112.2495
21
7.75167
31
0
39
0
210
0
220
0
230
1
0
LINE
5
FD
100
AcDbEntity
8
1
62
256
6
ByLayer
370
18
48
1
60
0
100
AcDbLine
10
112.3245
20
-25.385072
30
0
11
112.3245
21
-26.246743
31
0
39
0
210
0
220
0
230
1
0
LINE
5
FE
100
AcDbEntity
8
1
62
256
6
ByLayer
370
18
48
1
60
0
100
AcDbLine
10
112.3245
20
6.246743
30
0
11
112.3245
21
5.385072
31
0
39
0
210
0
220
0
230
1
0
LINE
5
FF
100
AcDbEntity
8
1
62
256
6
ByLayer
370
13
48
1
60
0
100
AcDbLine
10
111.6055
20
8.8304
30
0
11
111.6055
21
8.736267
31
0
39
0
210
0
220
0
230
1
0
LINE
5
100
100
AcDbEntity
8
1
62
256
6
ByLayer
370
13
48
1
60
0
100
AcDbLine
10
111.6055
20
-28.736267
30
0
11
111.6055
21
-28.8304
31
0
39
0
210
0
220
0
230
1
0
LINE
5
101
100
AcDbEntity
8
1
62
256
6
ByLayer
370
13
48
1
60
0
100
AcDbLine
10
112.2495
20
7.926445
30
0
11
112.2495
21
8.270596
31
0
39
0
210
0
220
0
230
1
0
LINE
5
102
100
AcDbEntity
8
1
62
256
6
ByLayer
370
13
48
1
60
0
100
AcDbLine
10
112.2495
20
-28.270596
30
0
11
112.2495
21
-27.926445
31
0
39
0
210
0
220
0
230
1
0
LINE
5
103
100
AcDbEntity
8
1
62
256
6
ByLayer
370
18
48
1
60
0
100
AcDbLine
10
112.3245
20
-26.367557
30
0
11
112.3245
21
-27.066336
31
0
39
0
210
0
220
0
230
1
0
LINE
5
104
100
AcDbEntity
8
1
62
256
6
ByLayer
370
18
48
1
60
0
100
AcDbLine
10
112.3245
20
7.066336
30
0
11
112.3245
21
6.367557
31
0
39
0
210
0
220
0
230
1
0
LINE
5
105
100
AcDbEntity
8
1
62
256
6
ByLayer
370
13
48
1
60
0
100
AcDbLine
10
111.6055
20
9.232584
30
0
11
111.6055
21
9.163428
31
0
39
0
210
0
220
0
230
1
0
LINE
5
106
100
AcDbEntity
8
1
62
256
6
ByLayer
370
13
48
1
60
0
100
AcDbLine
10
111.6055
20
-29.163428
30
0
11
111.6055
21
-29.232584
31
0
39
0
210
0
220
0
230
1
0
LINE
5
107
100
AcDbEntity
8
1
62
256
6
ByLayer
370
13
48
1
60
0
100
AcDbLine
10
112.2495
20
8.402698
30
0
11
112.2495
21
8.654961
31
0
39
0
210
0
220
0
230
1
0
LINE
5
108
100
AcDbEntity
8
1
62
256
6
ByLayer
370
13
48
1
60
0
100
AcDbLine
10
112.2495
20
-28.654961
30
0
11
112.2495
21
-28.402698
31
0
39
0
210
0
220
0
230
1
0
LINE
5
109
100
AcDbEntity
8
1
62
256
6
ByLayer
370
18
48
1
60
0
100
AcDbLine
10
112.3245
20
-27.163684
30
0
11
112.3245
21
-27.721823
31
0
39
0
210
0
220
0
230
1
0
LINE
5
10A
100
AcDbEntity
8
1
62
256
6
ByLayer
370
18
48
1
60
0
100
AcDbLine
10
112.3245
20
8.230913
30
0
11
112.3245
21
7.798581
31
0
39
0
210
0
220
0
230
1
0
LINE
5
10B
100
AcDbEntity
8
1
62
256
6
ByLayer
370
13
48
1
60
0
100
AcDbLine
10
111.6055
20
9.511551
30
0
11
111.6055
21
9.466108
31
0
39
0
210
0
220
0
230
1
0
LINE
5
10C
100
AcDbEntity
8
1
62
256
6
ByLayer
370
13
48
1
60
0
100
AcDbLine
10
111.6055
20
-29.466108
30
0
11
111.6055
21
-29.511551
31
0
39
0
210
0
220
0
230
1
0
LINE
5
10D
100
AcDbEntity
8
1
62
256
6
ByLayer
370
13
48
1
60
0
100
AcDbLine
10
112.2495
20
-28.91297
30
0
11
112.2495
21
-28.747456
31
0
39
0
210
0
220
0
230
1
0
LINE
5
10E
100
AcDbEntity
8
1
62
256
6
ByLayer
370
13
48
1
60
0
100
AcDbLine
10
112.2495
20
8.747456
30
0
11
112.2495
21
8.91297
31
0
39
0
210
0
220
0
230
1
0
LINE
5
10F
100
AcDbEntity
8
1
62
256
6
ByLayer
370
18
48
1
60
0
100
AcDbLine
10
112.3245
20
7.721823
30
0
11
112.3245
21
7.163684
31
0
39
0
210
0
220
0
230
1
0
LINE
5
110
100
AcDbEntity
8
1
62
256
6
ByLayer
370
18
48
1
60
0
100
AcDbLine
10
112.3245
20
8.605627
30
0
11
112.3245
21
8.289015
31
0
39
0
210
0
220
0
230
1
0
LINE
5
111
100
AcDbEntity
8
1
62
256
6
ByLayer
370
13
48
1
60
0
100
AcDbLine
10
111.6055
20
-29.649908
30
0
11
111.6055
21
-29.672543
31
0
39
0
210
0
220
0
230
1
0
LINE
5
112
100
AcDbEntity
8
1
62
256
6
ByLayer
370
13
48
1
60
0
100
AcDbLine
10
111.6055
20
9.672543
30
0
11
111.6055
21
9.649908
31
0
39
0
210
0
220
0
230
1
0
LINE
5
113
100
AcDbEntity
8
1
62
256
6
ByLayer
370
13
48
1
60
0
100
AcDbLine
10
112.2495
20
8.967827
30
0
11
112.2495
21
9.04976
31
0
39
0
210
0
220
0
230
1
0
LINE
5
114
100
AcDbEntity
8
1
62
256
6
ByLayer
370
13
48
1
60
0
100
AcDbLine
10
112.2495
20
-29.04976
30
0
11
112.2495
21
-28.967827
31
0
39
0
210
0
220
0
230
1
0
LINE
5
115
100
AcDbEntity
8
1
62
256
6
ByLayer
370
18
48
1
60
0
100
AcDbLine
10
112.3245
20
-27.798581
30
0
11
112.3245
21
-28.230913
31
0
39
0
210
0
220
0
230
1
0
LINE
5
116
100
AcDbEntity
8
1
62
256
6
ByLayer
370
18
48
1
60
0
100
AcDbLine
10
112.3245
20
8.853979
30
0
11
112.3245
21
8.646315
31
0
39
0
210
0
220
0
230
1
0
LINE
5
117
100
AcDbEntity
8
1
62
256
6
ByLayer
370
18
48
1
60
0
100
AcDbLine
10
112.3245
20
-28.289015
30
0
11
112.3245
21
-28.605627
31
0
39
0
210
0
220
0
230
1
0
LINE
5
118
100
AcDbEntity
8
1
62
256
6
ByLayer
370
13
48
1
60
0
100
AcDbLine
10
121.9255
20
-14.899495
30
0
11
121.9255
21
-24.899495
31
0
39
0
210
0
220
0
230
1
0
LINE
5
119
100
AcDbEntity
8
1
62
256
6
ByLayer
370
18
48
1
60
0
100
AcDbLine
10
122.5255
20
4.299495
30
0
11
122.5255
21
-4.500505
31
0
39
0
210
0
220
0
230
1
0
LINE
5
11A
100
AcDbEntity
8
1
62
256
6
ByLayer
370
18
48
1
60
0
100
AcDbLine
10
116.6755
20
4.899495
30
0
11
116.6755
21
-5.100505
31
0
39
0
210
0
220
0
230
1
0
LINE
5
11B
100
AcDbEntity
8
1
62
256
6
ByLayer
370
18
48
1
60
0
100
AcDbLine
10
116.6755
20
-24.899495
30
0
11
116.6755
21
-14.899495
31
0
39
0
210
0
220
0
230
1
0
LINE
5
11C
100
AcDbEntity
8
1
62
256
6
ByLayer
370
13
48
1
60
0
100
AcDbLine
10
116.4255
20
-16.899495
30
0
11
116.4255
21
-22.899495
31
0
39
0
210
0
220
0
230
1
0
LINE
5
11D
100
AcDbEntity
8
1
62
256
6
ByLayer
370
18
48
1
60
0
100
AcDbLine
10
122.5255
20
-24.299495
30
0
11
122.5255
21
-15.499495
31
0
39
0
210
0
220
0
230
1
0
LINE
5
11E
100
AcDbEntity
8
1
62
256
6
ByLayer
370
13
48
1
60
0
100
AcDbLine
10
121.9255
20
4.899495
30
0
11
121.9255
21
-5.100505
31
0
39
0
210
0
220
0
230
1
0
LINE
5
11F
100
AcDbEntity
8
1
62
256
6
ByLayer
370
18
48
1
60
0
100
AcDbLine
10
116.6755
20
4.899495
30
0
11
116.6755
21
-5.100505
31
0
39
0
210
0
220
0
230
1
0
LINE
5
120
100
AcDbEntity
8
1
62
256
6
ByLayer
370
13
48
1
60
0
100
AcDbLine
10
116.4255
20
2.899495
30
0
11
116.4255
21
-3.100505
31
0
39
0
210
0
220
0
230
1
0
LINE
5
121
100
AcDbEntity
8
1
62
256
6
ByLayer
370
18
48
1
60
0
100
AcDbLine
10
122.5255
20
4.299495
30
0
11
122.5255
21
-4.500505
31
0
39
0
210
0
220
0
230
1
0
LINE
5
122
100
AcDbEntity
8
1
62
256
6
ByLayer
370
18
48
1
60
0
100
AcDbLine
10
122.5255
20
-19.899495
30
0
11
122.5255
21
-15.499495
31
0
39
0
210
0
220
0
230
1
0
LINE
5
123
100
AcDbEntity
8
1
62
256
6
ByLayer
370
13
48
1
60
0
100
AcDbLine
10
121.9255
20
4.899495
30
0
11
121.9255
21
-5.100505
31
0
39
0
210
0
220
0
230
1
0
LINE
5
124
100
AcDbEntity
8
1
62
256
6
ByLayer
370
13
48
1
60
0
100
AcDbLine
10
116.4255
20
2.899495
30
0
11
116.4255
21
-3.100505
31
0
39
0
210
0
220
0
230
1
0
MTEXT
5
1E4
100
AcDbEntity
8
SK6
62
256
6
ByLayer
370
18
48
1
60
0
100
AcDbMText
10
0.875
20
-42.374866
30
0
210
0
220
0
230
1
1
\W0.7109;C6-570-2C 60 112L40
40
3.5
41
0
44
1.084337
50
0
71
7
72
5
7
iso_b_vert
0
DIMENSION
5
1F1
100
AcDbEntity
8
SK2
62
256
6
ByLayer
370
13
48
1
60
0
100
AcDbDimension
2
DimnDraft3D1
10
112
20
38.1
30
0
11
63.492801
21
38.1
31
0
70
32
71
5
72
1
41
1
210
0
220
0
230
1
3
Standard
100
AcDbAlignedDimension
13
23.2
23
31.5875
33
0
14
112
24
11.5875
34
0
50
0
100
AcDbRotatedDimension
1001
ACAD
1000
DSTYLE
1002
{
1070
   279
1070
     0
1070
   172
1070
     1
1070
   173
1070
     1
1070
   340
1005
1E5
1070
   271
1070
     2
1070
   272
1070
     2
1070
    77
1070
     1
1070
    73
1070
     0
1070
   171
1070
     3
1070
   274
1070
     4
1070
   177
1070
     2
1070
   176
1070
     2
1070
   178
1070
     2
1070
    78
1070
     8
1070
    48
1040
-0.005
1070
    41
1041
3.5
1070
   147
1041
1.75
1070
    42
1041
1.5875
1070
    44
1041
2.0
1070
   140
1041
3.5
1070
   343
1005
0
1070
   344
1005
0
1002
}
0
DIMENSION
5
1FB
100
AcDbEntity
8
SK2
62
256
6
ByLayer
370
13
48
1
60
0
100
AcDbDimension
2
DimnDraft3D2
10
132.888211
20
0
30
0
11
132.888211
21
10
31
0
70
32
71
5
72
1
41
1
210
0
220
0
230
1
3
Standard
100
AcDbAlignedDimension
13
113.5875
23
-10
33
0
14
113.5875
24
0
34
0
50
90
100
AcDbRotatedDimension
1001
ACAD
1000
DSTYLE
1002
{
1070
    74
1070
     0
1070
   279
1070
     0
1070
   172
1070
     1
1070
   173
1070
     1
1070
   340
1005
1E5
1070
   271
1070
     2
1070
   272
1070
     2
1070
    77
1070
     1
1070
    73
1070
     0
1070
   171
1070
     3
1070
   274
1070
     4
1070
   177
1070
     2
1070
   176
1070
     2
1070
   178
1070
     2
1070
    78
1070
     8
1070
    48
1040
-0.005
1070
    41
1041
3.5
1070
   147
1041
1.75
1070
    42
1041
1.5875
1070
    44
1041
2.0
1070
   140
1041
3.5
1070
   343
1005
0
1070
   344
1005
0
1002
}
0
DIMENSION
5
206
100
AcDbEntity
8
2
62
256
6
ByLayer
370
13
48
1
60
0
100
AcDbDimension
2
DimnDraft3D3
10
112
20
48.1
30
0
11
51.459934
21
48.1
31
0
70
32
71
5
72
1
41
1
210
0
220
0
230
1
3
Standard
100
AcDbAlignedDimension
13
0
23
33.0875
33
0
14
112
24
11.5875
34
0
50
0
100
AcDbRotatedDimension
1001
ACAD
1000
DSTYLE
1002
{
1070
   279
1070
     0
1070
   172
1070
     1
1070
   173
1070
     1
1070
   340
1005
1E5
1070
   271
1070
     2
1070
   272
1070
     2
1070
    77
1070
     1
1070
    73
1070
     0
1070
   171
1070
     3
1070
   274
1070
     4
1070
   177
1070
     2
1070
   176
1070
     2
1070
   178
1070
     2
1070
    78
1070
     8
1070
    48
1040
-0.005
1070
    41
1041
3.5
1070
   147
1041
1.75
1070
    42
1041
1.5875
1070
    44
1041
2.0
1070
   140
1041
3.5
1070
   343
1005
0
1070
   344
1005
0
1002
}
0
DIMENSION
5
211
100
AcDbEntity
8
SK2
62
256
6
ByLayer
370
13
48
1
60
0
100
AcDbDimension
2
DimnDraft3D4
10
-61.6
20
-31.5
30
0
11
-62.225
21
2.284534
31
0
70
33
71
5
72
1
41
1
210
0
220
0
230
1
3
Standard
100
AcDbAlignedDimension
13
-1.5875
23
31.5
33
0
14
-1.5875
24
-31.5
34
0
1001
ACAD
1000
DSTYLE
1002
{
1070
   279
1070
     0
1070
    74
1070
     0
1070
   173
1070
     1
1070
   340
1005
1E5
1070
   271
1070
     2
1070
   272
1070
     2
1070
    77
1070
     1
1070
    73
1070
     0
1070
   171
1070
     3
1070
   274
1070
     4
1070
   177
1070
     2
1070
   176
1070
     2
1070
   178
1070
     2
1070
    78
1070
     8
1070
    48
1040
-0.005
1070
    41
1041
3.5
1070
   147
1041
1.75
1070
    42
1041
1.5875
1070
    44
1041
2.0
1070
   140
1041
3.5
1070
   343
1005
0
1070
   344
1005
0
1002
}
0
DIMENSION
5
21C
100
AcDbEntity
8
SK2
62
256
6
ByLayer
370
13
48
1
60
0
100
AcDbDimension
2
DimnDraft3D5
10
144.888211
20
-30
30
0
11
140.263211
21
-7.899733
31
0
70
33
71
5
72
1
41
1
210
0
220
0
230
1
3
Standard
100
AcDbAlignedDimension
13
113.5875
23
10
33
0
14
113.5875
24
-30
34
0
1001
ACAD
1000
DSTYLE
1002
{
1070
   279
1070
     0
1070
    74
1070
     0
1070
   173
1070
     1
1070
   340
1005
1E5
1070
   271
1070
     2
1070
   272
1070
     2
1070
    77
1070
     1
1070
    73
1070
     0
1070
   171
1070
     3
1070
   274
1070
     4
1070
   177
1070
     2
1070
   176
1070
     2
1070
   178
1070
     2
1070
    78
1070
     8
1070
    48
1040
-0.005
1070
    41
1041
3.5
1070
   147
1041
1.75
1070
    42
1041
1.5875
1070
    44
1041
2.0
1070
   140
1041
3.5
1070
   343
1005
0
1070
   344
1005
0
1002
}
0
DIMENSION
5
227
100
AcDbEntity
8
SK2
62
256
6
ByLayer
370
13
48
1
60
0
100
AcDbDimension
2
DimnDraft3D6
10
154.888211
20
30
30
0
11
150.263211
21
2.284534
31
0
70
33
71
5
72
1
41
1
210
0
220
0
230
1
3
Standard
100
AcDbAlignedDimension
13
113.5875
23
-30
33
0
14
104.028516
24
30
34
0
1001
ACAD
1000
DSTYLE
1002
{
1070
   279
1070
     0
1070
    74
1070
     0
1070
   173
1070
     1
1070
   340
1005
1E5
1070
   271
1070
     2
1070
   272
1070
     2
1070
    77
1070
     1
1070
    73
1070
     0
1070
   171
1070
     3
1070
   274
1070
     4
1070
   177
1070
     2
1070
   176
1070
     2
1070
   178
1070
     2
1070
    78
1070
     8
1070
    48
1040
-0.005
1070
    41
1041
3.5
1070
   147
1041
1.75
1070
    42
1041
1.5875
1070
    44
1041
2.0
1070
   140
1041
3.5
1070
   343
1005
0
1070
   344
1005
0
1002
}
0
ENDSEC
0
SECTION
2
OBJECTS
0
DICTIONARY
5
292
330
0
100
AcDbDictionary
280
0
281
1
3
ACAD_GROUP
350
293
3
ACAD_MLINESTYLE
350
294
0
DICTIONARY
5
293
330
0
100
AcDbDictionary
280
0
281
1
0
DICTIONARY
5
294
330
0
100
AcDbDictionary
280
0
281
1
3
Standard
350
18
0
MLINESTYLE
5
18
330
294
100
AcDbMlineStyle
2
Standard
70
0
3

62
256
51
90
52
90
71
2
49
-0.5
62
256
6
ByLayer
49
0.5
62
256
6
ByLayer
0
RASTERVARIABLES
5
280
330

100
AcDbRasterVariables
90
0
70
1
71
1
72
1
0
ENDSEC
0
EOF
