0
SECTION
2
HEADER
9
$ACADVER
1
AC1015
9
$DWGCODEPAGE
3
ANSI_1252
9
$HANDSEED
5
28e
9
$ANGBASE
50
0
9
$ANGDIR
70
0
9
$ATTMODE
70
1
9
$AUNITS
70
0
9
$AUPREC
70
0
9
$CECOLOR
62
256
9
$CELTSCALE
40
1
9
$CELTYPE
6
ByLayer
9
$CELWEIGHT
370
18
9
$CLAYER
8
0
9
$CMLJUST
70
0
9
$CMLSCALE
40
1
9
$CMLSTYLE
2
Standard
9
$DIMSTYLE
2
Standard
9
$TEXTSIZE
40
0.2
9
$TEXTSTYLE
7
Standard
9
$LUNITS
70
2
9
$LUPREC
70
4
9
$EXTNAMES
290
1
9
$INSUNITS
70
4
9
$LTSCALE
40
1
9
$LWDISPLAY
290
1
9
$PDMODE
70
0
9
$PDSIZE
40
0
9
$PLINEGEN
70
0
0
ENDSEC
0
SECTION
2
CLASSES
0
CLASS
1
RASTERVARIABLES
2
AcDbRasterVariables
3
ISM
90
0
280
0
281
0
0
ENDSEC
0
SECTION
2
TABLES
0
TABLE
2
VPORT
5
284
100
AcDbSymbolTable
0
VPORT
5
1
100
AcDbSymbolTableRecord
100
AcDbViewportTableRecord
2
*Active
70
0
10
0
20
0
11
1
21
1
12
-1
22
1
13
0
23
0
14
0.5
24
0.5
15
10
25
10
16
0
26
0
36
1
17
0
27
0
37
0
0
ENDTAB
0
TABLE
2
LTYPE
5
285
100
AcDbSymbolTable
0
LTYPE
5
14
100
AcDbSymbolTableRecord
100
AcDbLinetypeTableRecord
70
0
2
ByBlock
3

72
65
73
0
40
0
0
LTYPE
5
15
100
AcDbSymbolTableRecord
100
AcDbLinetypeTableRecord
70
0
2
ByLayer
3

72
65
73
0
40
0
0
LTYPE
5
16
100
AcDbSymbolTableRecord
100
AcDbLinetypeTableRecord
70
0
2
CONTINUOUS
3
Solid line
72
65
73
0
40
0
0
LTYPE
5
6A
100
AcDbSymbolTableRecord
100
AcDbLinetypeTableRecord
70
0
2
CENTER
3
____ _ ____ _ ____ _ ____
72
65
73
4
40
47.5
49
22
74
0
49
-8.5
74
0
49
8.5
74
0
49
-8.5
74
0
0
LTYPE
5
6B
100
AcDbSymbolTableRecord
100
AcDbLinetypeTableRecord
70
0
2
DASHED
3
__ __ __ __ __ __ __ __ __
72
65
73
2
40
25.72
49
12.86
74
0
49
-12.86
74
0
0
ENDTAB
0
TABLE
2
LAYER
5
286
100
AcDbSymbolTable
0
LAYER
5
10
100
AcDbSymbolTableRecord
100
AcDbLayerTableRecord
2
0
70
0
62
7
6
CONTINUOUS
290
1
370
-3
390
0
0
LAYER
5
6D
100
AcDbSymbolTableRecord
100
AcDbLayerTableRecord
2
80
70
0
62
-6
6
CONTINUOUS
290
1
370
-3
390
0
0
LAYER
5
6F
100
AcDbSymbolTableRecord
100
AcDbLayerTableRecord
2
81
70
0
62
-3
6
CONTINUOUS
290
1
370
-3
390
0
0
LAYER
5
76
100
AcDbSymbolTableRecord
100
AcDbLayerTableRecord
2
1
70
0
62
4
6
CONTINUOUS
290
1
370
-3
390
0
0
LAYER
5
95
100
AcDbSymbolTableRecord
100
AcDbLayerTableRecord
2
4
70
0
62
-2
6
CENTER
290
1
370
-3
390
0
0
LAYER
5
1F8
100
AcDbSymbolTableRecord
100
AcDbLayerTableRecord
2
2
70
0
62
7
6
CONTINUOUS
290
1
370
-3
390
0
0
LAYER
5
270
100
AcDbSymbolTableRecord
100
AcDbLayerTableRecord
2
SK2
70
0
62
7
6
CONTINUOUS
290
1
370
-3
390
0
0
LAYER
5
271
100
AcDbSymbolTableRecord
100
AcDbLayerTableRecord
2
SK1
70
0
62
4
6
CONTINUOUS
290
1
370
-3
390
0
0
LAYER
5
272
100
AcDbSymbolTableRecord
100
AcDbLayerTableRecord
2
SK4
70
0
62
2
6
CENTER
290
1
370
-3
390
0
0
LAYER
5
273
100
AcDbSymbolTableRecord
100
AcDbLayerTableRecord
2
SK6
70
0
62
5
6
CONTINUOUS
290
1
370
-3
390
0
0
ENDTAB
0
TABLE
2
STYLE
5
287
100
AcDbSymbolTable
0
STYLE
5
11
100
AcDbSymbolTableRecord
100
AcDbTextStyleTableRecord
2
Standard
3
txt
70
0
71
0
40
0
41
1
42
0
50
0
0
STYLE
5
1DF
100
AcDbSymbolTableRecord
100
AcDbTextStyleTableRecord
2
iso_b_vert
3
simplex.shx
70
0
71
0
40
0
41
1
42
0
50
0
0
STYLE
5
1E0
100
AcDbSymbolTableRecord
100
AcDbTextStyleTableRecord
2
DWGDirectTextStyle
3
simplex
70
0
71
0
40
0
41
1
42
0
50
0
0
ENDTAB
0
TABLE
2
DIMSTYLE
5
288
100
AcDbSymbolTable
100
AcDbDimStyleTable
0
DIMSTYLE
105
27
100
AcDbSymbolTableRecord
100
AcDbDimStyleTableRecord
2
Standard
70
0
3
<>
41
0.18
42
0.0625
44
0.18
140
0.18
147
0.09
73
0
74
0
77
1
271
2
275
0
278
52
280
0
340
11
0
ENDTAB
0
TABLE
2
VIEW
5
289
100
AcDbSymbolTable
0
ENDTAB
0
TABLE
2
UCS
5
28a
100
AcDbSymbolTable
0
ENDTAB
0
TABLE
2
APPID
5
28b
100
AcDbSymbolTable
0
APPID
5
12
100
AcDbSymbolTableRecord
100
AcDbRegAppTableRecord
2
ACAD
70
0
0
ENDTAB
0
TABLE
2
BLOCK_RECORD
5
28c
100
AcDbSymbolTable
0
BLOCK_RECORD
5
1F
100
AcDbSymbolTableRecord
100
AcDbBlockTableRecord
2
*Model_Space
340
0
70
0
0
BLOCK_RECORD
5
1B
100
AcDbSymbolTableRecord
100
AcDbBlockTableRecord
2
*Paper_Space
340
0
70
0
0
BLOCK_RECORD
5
23
100
AcDbSymbolTableRecord
100
AcDbBlockTableRecord
2
*Paper_Space0
340
0
70
0
0
BLOCK_RECORD
5
1E2
100
AcDbSymbolTableRecord
100
AcDbBlockTableRecord
2
DimnDraft3D1
340
0
70
0
0
BLOCK_RECORD
5
1EC
100
AcDbSymbolTableRecord
100
AcDbBlockTableRecord
2
DimnDraft3D2
340
0
70
0
0
BLOCK_RECORD
5
1F6
100
AcDbSymbolTableRecord
100
AcDbBlockTableRecord
2
DimnDraft3D3
340
0
70
0
0
BLOCK_RECORD
5
201
100
AcDbSymbolTableRecord
100
AcDbBlockTableRecord
2
DimnDraft3D4
340
0
70
0
0
BLOCK_RECORD
5
20C
100
AcDbSymbolTableRecord
100
AcDbBlockTableRecord
2
DimnDraft3D5
340
0
70
0
0
ENDTAB
0
ENDSEC
0
SECTION
2
BLOCKS
0
BLOCK
5
20
100
AcDbEntity
8
0
100
AcDbBlockBegin
2
*Model_Space
70
0
10
0
20
0
30
0
3
*Model_Space
0
ENDBLK
5
21
100
AcDbEntity
8
0
100
AcDbBlockEnd
0
BLOCK
5
1C
100
AcDbEntity
8
0
100
AcDbBlockBegin
2
*Paper_Space
70
0
10
0
20
0
30
0
3
*Paper_Space
0
ENDBLK
5
1D
100
AcDbEntity
8
0
100
AcDbBlockEnd
0
BLOCK
5
24
100
AcDbEntity
8
0
100
AcDbBlockBegin
2
*Paper_Space0
70
0
10
0
20
0
30
0
3
*Paper_Space0
0
ENDBLK
5
25
100
AcDbEntity
8
0
100
AcDbBlockEnd
0
BLOCK
5
1E9
100
AcDbEntity
8
0
100
AcDbBlockBegin
2
DimnDraft3D1
70
0
10
0
20
0
30
0
3
DimnDraft3D1
0
MTEXT
5
1E3
100
AcDbEntity
8
SK2
62
256
6
ByLayer
370
18
48
1
60
0
100
AcDbMText
10
51.467801
20
-40.724866
30
0
210
0
220
0
230
1
1
\W0.7346;50.6
40
3.5
41
0
44
1.084337
50
0
71
7
72
5
7
iso_b_vert
0
LINE
5
1E4
100
AcDbEntity
8
SK2
62
256
6
ByLayer
370
13
48
1
60
0
100
AcDbLine
10
29.4
20
-10.0875
30
0
11
29.4
21
-43.6
31
0
39
0
210
0
220
0
230
1
0
LINE
5
1E5
100
AcDbEntity
8
SK2
62
256
6
ByLayer
370
13
48
1
60
0
100
AcDbLine
10
80
20
-10.0875
30
0
11
80
21
-43.6
31
0
39
0
210
0
220
0
230
1
0
LINE
5
1E6
100
AcDbEntity
8
SK2
62
256
6
ByLayer
370
13
48
1
60
0
100
AcDbLine
10
29.4
20
-41.6
30
0
11
80
21
-41.6
31
0
39
0
210
0
220
0
230
1
0
SOLID
5
1E7
100
AcDbEntity
8
SK2
62
256
6
ByLayer
370
13
48
1
60
0
100
AcDbTrace
10
29.4
20
-41.6
30
0
11
32.899998
21
-41.139216
31
0
12
32.900002
22
-42.060784
32
0
13
29.4
23
-41.6
33
0
39
0
210
0
220
0
230
1
0
SOLID
5
1E8
100
AcDbEntity
8
SK2
62
256
6
ByLayer
370
13
48
1
60
0
100
AcDbTrace
10
80
20
-41.6
30
0
11
76.500002
21
-42.060784
31
0
12
76.499998
22
-41.139216
32
0
13
80
23
-41.6
33
0
39
0
210
0
220
0
230
1
0
ENDBLK
5
1EA
100
AcDbEntity
8
0
100
AcDbBlockEnd
0
BLOCK
5
1F3
100
AcDbEntity
8
0
100
AcDbBlockBegin
2
DimnDraft3D2
70
0
10
0
20
0
30
0
3
DimnDraft3D2
0
MTEXT
5
1ED
100
AcDbEntity
8
SK2
62
256
6
ByLayer
370
18
48
1
60
0
100
AcDbMText
10
100.013077
20
3.392667
30
0
210
0
220
0
230
1
1
\W0.5779;11.5
40
3.5
41
0
44
1.084337
50
90
71
7
72
5
7
iso_b_vert
0
LINE
5
1EE
100
AcDbEntity
8
SK2
62
256
6
ByLayer
370
13
48
1
60
0
100
AcDbLine
10
81.5875
20
11.5
30
0
11
102.888211
21
11.5
31
0
39
0
210
0
220
0
230
1
0
LINE
5
1EF
100
AcDbEntity
8
SK2
62
256
6
ByLayer
370
13
48
1
60
0
100
AcDbLine
10
81.5875
20
0
30
0
11
102.888211
21
0
31
0
39
0
210
0
220
0
230
1
0
LINE
5
1F0
100
AcDbEntity
8
SK2
62
256
6
ByLayer
370
13
48
1
60
0
100
AcDbLine
10
100.888211
20
20.25
30
0
11
100.888211
21
-8.75
31
0
39
0
210
0
220
0
230
1
0
SOLID
5
1F1
100
AcDbEntity
8
SK2
62
256
6
ByLayer
370
13
48
1
60
0
100
AcDbTrace
10
100.888211
20
11.5
30
0
11
100.427427
21
14.999998
31
0
12
101.348994
22
15.000002
32
0
13
100.888211
23
11.5
33
0
39
0
210
0
220
0
230
1
0
SOLID
5
1F2
100
AcDbEntity
8
SK2
62
256
6
ByLayer
370
13
48
1
60
0
100
AcDbTrace
10
100.888211
20
0
30
0
11
101.348994
21
-3.499998
31
0
12
100.427427
22
-3.500002
32
0
13
100.888211
23
0
33
0
39
0
210
0
220
0
230
1
0
ENDBLK
5
1F4
100
AcDbEntity
8
0
100
AcDbBlockEnd
0
BLOCK
5
1FE
100
AcDbEntity
8
0
100
AcDbBlockBegin
2
DimnDraft3D3
70
0
10
0
20
0
30
0
3
DimnDraft3D3
0
MTEXT
5
1F7
100
AcDbEntity
8
2
62
256
6
ByLayer
370
18
48
1
60
0
100
AcDbMText
10
36.767801
20
-50.724866
30
0
210
0
220
0
230
1
1
\W0.7346;80.0
40
3.5
41
0
44
1.084337
50
0
71
7
72
5
7
iso_b_vert
0
LINE
5
1F9
100
AcDbEntity
8
2
62
256
6
ByLayer
370
13
48
1
60
0
100
AcDbLine
10
0
20
-33.0875
30
0
11
0
21
-53.6
31
0
39
0
210
0
220
0
230
1
0
LINE
5
1FA
100
AcDbEntity
8
2
62
256
6
ByLayer
370
13
48
1
60
0
100
AcDbLine
10
80
20
-10.0875
30
0
11
80
21
-53.6
31
0
39
0
210
0
220
0
230
1
0
LINE
5
1FB
100
AcDbEntity
8
2
62
256
6
ByLayer
370
13
48
1
60
0
100
AcDbLine
10
0
20
-51.6
30
0
11
80
21
-51.6
31
0
39
0
210
0
220
0
230
1
0
SOLID
5
1FC
100
AcDbEntity
8
2
62
256
6
ByLayer
370
13
48
1
60
0
100
AcDbTrace
10
0
20
-51.6
30
0
11
3.499998
21
-51.139216
31
0
12
3.500002
22
-52.060784
32
0
13
0
23
-51.6
33
0
39
0
210
0
220
0
230
1
0
SOLID
5
1FD
100
AcDbEntity
8
2
62
256
6
ByLayer
370
13
48
1
60
0
100
AcDbTrace
10
80
20
-51.6
30
0
11
76.500002
21
-52.060784
31
0
12
76.499998
22
-51.139216
32
0
13
80
23
-51.6
33
0
39
0
210
0
220
0
230
1
0
ENDBLK
5
1FF
100
AcDbEntity
8
0
100
AcDbBlockEnd
0
BLOCK
5
209
100
AcDbEntity
8
0
100
AcDbBlockBegin
2
DimnDraft3D4
70
0
10
0
20
0
30
0
3
DimnDraft3D4
0
MTEXT
5
202
100
AcDbEntity
8
SK2
62
256
6
ByLayer
370
18
48
1
60
0
100
AcDbMText
10
-61.350134
20
3.159534
30
0
210
0
220
0
230
1
1
\W0.6740;63
40
3.5
41
0
44
1.084337
50
90
71
7
72
5
7
iso_b_vert
0
MTEXT
5
203
100
AcDbEntity
8
SK2
62
256
6
ByLayer
370
18
48
1
60
0
100
AcDbMText
10
-61.350134
20
-3.813122
30
0
210
0
220
0
230
1
1
%%c
40
3.5
41
0
44
1.084337
50
90
71
7
72
5
7
iso_b_vert
0
LINE
5
204
100
AcDbEntity
8
SK2
62
256
6
ByLayer
370
13
48
1
60
0
100
AcDbLine
10
-1.5875
20
31.5
30
0
11
-61.6
21
31.5
31
0
39
0
210
0
220
0
230
1
0
LINE
5
205
100
AcDbEntity
8
SK2
62
256
6
ByLayer
370
13
48
1
60
0
100
AcDbLine
10
-1.5875
20
-31.5
30
0
11
-61.6
21
-31.5
31
0
39
0
210
0
220
0
230
1
0
LINE
5
206
100
AcDbEntity
8
SK2
62
256
6
ByLayer
370
13
48
1
60
0
100
AcDbLine
10
-59.6
20
31.5
30
0
11
-59.6
21
-31.5
31
0
39
0
210
0
220
0
230
1
0
SOLID
5
207
100
AcDbEntity
8
SK2
62
256
6
ByLayer
370
13
48
1
60
0
100
AcDbTrace
10
-59.6
20
31.5
30
0
11
-59.139216
21
28.000002
31
0
12
-60.060784
22
27.999998
32
0
13
-59.6
23
31.5
33
0
39
0
210
0
220
0
230
1
0
SOLID
5
208
100
AcDbEntity
8
SK2
62
256
6
ByLayer
370
13
48
1
60
0
100
AcDbTrace
10
-59.6
20
-31.5
30
0
11
-60.060784
21
-28.000002
31
0
12
-59.139216
22
-27.999998
32
0
13
-59.6
23
-31.5
33
0
39
0
210
0
220
0
230
1
0
ENDBLK
5
20A
100
AcDbEntity
8
0
100
AcDbBlockEnd
0
BLOCK
5
214
100
AcDbEntity
8
0
100
AcDbBlockBegin
2
DimnDraft3D5
70
0
10
0
20
0
30
0
3
DimnDraft3D5
0
MTEXT
5
20D
100
AcDbEntity
8
SK2
62
256
6
ByLayer
370
18
48
1
60
0
100
AcDbMText
10
109.138077
20
14.475267
30
0
210
0
220
0
230
1
1
\W0.7361;40
40
3.5
41
0
44
1.084337
50
90
71
7
72
5
7
iso_b_vert
0
MTEXT
5
20E
100
AcDbEntity
8
SK2
62
256
6
ByLayer
370
18
48
1
60
0
100
AcDbMText
10
109.138077
20
7.502611
30
0
210
0
220
0
230
1
1
%%c
40
3.5
41
0
44
1.084337
50
90
71
7
72
5
7
iso_b_vert
0
LINE
5
20F
100
AcDbEntity
8
SK2
62
256
6
ByLayer
370
13
48
1
60
0
100
AcDbLine
10
81.5875
20
31.5
30
0
11
112.888211
21
31.5
31
0
39
0
210
0
220
0
230
1
0
LINE
5
210
100
AcDbEntity
8
SK2
62
256
6
ByLayer
370
13
48
1
60
0
100
AcDbLine
10
81.5875
20
-8.5
30
0
11
112.888211
21
-8.5
31
0
39
0
210
0
220
0
230
1
0
LINE
5
211
100
AcDbEntity
8
SK2
62
256
6
ByLayer
370
13
48
1
60
0
100
AcDbLine
10
110.888211
20
31.5
30
0
11
110.888211
21
-8.5
31
0
39
0
210
0
220
0
230
1
0
SOLID
5
212
100
AcDbEntity
8
SK2
62
256
6
ByLayer
370
13
48
1
60
0
100
AcDbTrace
10
110.888211
20
31.5
30
0
11
111.348994
21
28.000002
31
0
12
110.427427
22
27.999998
32
0
13
110.888211
23
31.5
33
0
39
0
210
0
220
0
230
1
0
SOLID
5
213
100
AcDbEntity
8
SK2
62
256
6
ByLayer
370
13
48
1
60
0
100
AcDbTrace
10
110.888211
20
-8.5
30
0
11
110.427427
21
-5.000002
31
0
12
111.348994
22
-4.999998
32
0
13
110.888211
23
-8.5
33
0
39
0
210
0
220
0
230
1
0
ENDBLK
5
215
100
AcDbEntity
8
0
100
AcDbBlockEnd
0
ENDSEC
0
SECTION
2
ENTITIES
0
ARC
5
11F
100
AcDbEntity
8
1
62
256
6
ByLayer
370
18
48
1
60
0
100
AcDbCircle
39
0
10
89.9255
20
25.799495
30
0
40
0.6
210
0
220
0
230
1
100
AcDbArc
50
0
51
90
0
ARC
5
120
100
AcDbEntity
8
1
62
256
6
ByLayer
370
18
48
1
60
0
100
AcDbCircle
39
0
10
89.9255
20
16.999495
30
0
40
0.6
210
0
220
0
230
1
100
AcDbArc
50
270
51
0
0
ARC
5
121
100
AcDbEntity
8
1
62
256
6
ByLayer
370
18
48
1
60
0
100
AcDbCircle
39
0
10
-84.4255
20
24.649495
30
0
40
0.25
210
0
220
0
230
-1
100
AcDbArc
50
180
51
270
0
ARC
5
122
100
AcDbEntity
8
1
62
256
6
ByLayer
370
18
48
1
60
0
100
AcDbCircle
39
0
10
-84.4255
20
-1.649495
30
0
40
0.25
210
0
220
0
230
-1
100
AcDbArc
50
90
51
180
0
ARC
5
123
100
AcDbEntity
8
1
62
256
6
ByLayer
370
18
48
1
60
0
100
AcDbCircle
39
0
10
-84.4255
20
4.850505
30
0
40
0.25
210
0
220
0
230
-1
100
AcDbArc
50
180
51
270
0
ARC
5
124
100
AcDbEntity
8
1
62
256
6
ByLayer
370
18
48
1
60
0
100
AcDbCircle
39
0
10
-84.4255
20
18.149495
30
0
40
0.25
210
0
220
0
230
-1
100
AcDbArc
50
90
51
180
0
ARC
5
125
100
AcDbEntity
8
1
62
256
6
ByLayer
370
18
48
1
60
0
100
AcDbCircle
39
0
10
-29.4
20
-12.5
30
0
40
4
210
0
220
0
230
-1
100
AcDbArc
50
9.966365
51
90
0
ARC
5
126
100
AcDbEntity
8
1
62
256
6
ByLayer
370
18
48
1
60
0
100
AcDbCircle
39
0
10
89.9255
20
25.799495
30
0
40
0.6
210
0
220
0
230
1
100
AcDbArc
50
0
51
90
0
ARC
5
127
100
AcDbEntity
8
1
62
256
6
ByLayer
370
18
48
1
60
0
100
AcDbCircle
39
0
10
89.9255
20
16.999495
30
0
40
0.6
210
0
220
0
230
1
100
AcDbArc
50
270
51
0
0
ARC
5
128
100
AcDbEntity
8
1
62
256
6
ByLayer
370
18
48
1
60
0
100
AcDbCircle
39
0
10
-84.4255
20
24.649495
30
0
40
0.25
210
0
220
0
230
-1
100
AcDbArc
50
180
51
270
0
ARC
5
129
100
AcDbEntity
8
1
62
256
6
ByLayer
370
18
48
1
60
0
100
AcDbCircle
39
0
10
89.9255
20
6.000505
30
0
40
0.6
210
0
220
0
230
1
100
AcDbArc
50
0
51
90
0
ARC
5
12A
100
AcDbEntity
8
1
62
256
6
ByLayer
370
18
48
1
60
0
100
AcDbCircle
39
0
10
89.9255
20
-2.799495
30
0
40
0.6
210
0
220
0
230
1
100
AcDbArc
50
270
51
0
0
ARC
5
12B
100
AcDbEntity
8
1
62
256
6
ByLayer
370
18
48
1
60
0
100
AcDbCircle
39
0
10
-84.4255
20
18.149495
30
0
40
0.25
210
0
220
0
230
-1
100
AcDbArc
50
90
51
180
0
ELLIPSE
5
12C
100
AcDbEntity
8
1
62
256
6
ByLayer
370
18
48
1
60
0
100
AcDbEllipse
10
26.347154
20
0
30
0
11
14.7536831606571
21
-31.093254915582
31
0
210
0
220
0
230
-1
40
0.341999
41
2.05035306783699
42
2.98378646694437
0
ELLIPSE
5
12D
100
AcDbEntity
8
1
62
256
6
ByLayer
370
18
48
1
60
0
100
AcDbEllipse
10
26.347154
20
0
30
0
11
14.7536831606572
21
31.0932549155821
31
0
210
0
220
0
230
-1
40
0.341999
41
-2.98378646694437
42
-2.05035306783699
0
ELLIPSE
5
12E
100
AcDbEntity
8
1
62
256
6
ByLayer
370
18
48
1
60
0
100
AcDbEllipse
10
-2.347154
20
0
30
0
11
14.7536831606583
21
31.0932549155838
31
0
210
0
220
0
230
-1
40
0.341999
41
0.157806186645423
42
1.09123958575276
0
ELLIPSE
5
12F
100
AcDbEntity
8
1
62
256
6
ByLayer
370
18
48
1
60
0
100
AcDbEllipse
10
-2.347154
20
0
30
0
11
14.7536831606582
21
-31.0932549155836
31
0
210
0
220
0
230
-1
40
0.341999
41
-1.09123958575277
42
-0.157806186645422
0
POINT
5
6C
100
AcDbEntity
8
80
62
256
6
ByLayer
370
18
48
1
60
0
100
AcDbPoint
10
0
20
0
30
0
39
0
210
0
220
0
230
1
50
360
0
POINT
5
6E
100
AcDbEntity
8
81
62
256
6
ByLayer
370
18
48
1
60
0
100
AcDbPoint
10
80
20
11.5
30
0
39
0
210
0
220
0
230
1
50
360
0
POINT
5
70
100
AcDbEntity
8
SK2
62
256
6
ByLayer
370
18
48
1
60
1
100
AcDbPoint
10
0
20
31.5
30
0
39
0
210
0
220
0
230
1
50
360
0
POINT
5
72
100
AcDbEntity
8
SK2
62
256
6
ByLayer
370
18
48
1
60
1
100
AcDbPoint
10
0
20
-31.5
30
0
39
0
210
0
220
0
230
1
50
360
0
POINT
5
73
100
AcDbEntity
8
SK2
62
256
6
ByLayer
370
18
48
1
60
1
100
AcDbPoint
10
80
20
31.5
30
0
39
0
210
0
220
0
230
1
50
360
0
POINT
5
74
100
AcDbEntity
8
SK2
62
256
6
ByLayer
370
18
48
1
60
1
100
AcDbPoint
10
80
20
-8.5
30
0
39
0
210
0
220
0
230
1
50
360
0
SPLINE
5
130
100
AcDbEntity
8
SK1
62
256
6
ByLayer
370
18
48
1
60
0
100
AcDbSpline
70
4
71
2
72
6
73
3
40
0
40
0
40
0
40
1
40
1
40
1
41
1
10
-36.5
20
-21.152454254977
30
0
41
1
10
-19.3500000008244
20
-21.5830602558515
30
0
41
1
10
-2.19999999999999
20
-22.0136645469338
30
0
0
SPLINE
5
131
100
AcDbEntity
8
SK1
62
256
6
ByLayer
370
18
48
1
60
0
100
AcDbSpline
70
4
71
2
72
6
73
3
40
0
40
0
40
0
40
1
40
1
40
1
41
1
10
-38
20
-20.2900295032223
30
0
41
1
10
-37.2500000202654
20
-20.7228363958853
30
0
41
1
10
-36.5
20
-21.1556411516461
30
0
0
SPLINE
5
132
100
AcDbEntity
8
SK1
62
256
6
ByLayer
370
18
48
1
60
0
100
AcDbSpline
70
4
71
2
72
6
73
3
40
0
40
0
40
0
40
1
40
1
40
1
41
1
10
-1.99503997793928
20
-21.8252817664983
30
0
41
1
10
-1.19497688887515
20
-21.8453761856051
30
0
41
1
10
-0.394913799811292
20
-21.8654706047072
30
0
0
SPLINE
5
133
100
AcDbEntity
8
SK1
62
256
6
ByLayer
370
18
48
1
60
0
100
AcDbSpline
70
4
71
2
72
6
73
3
40
0
40
0
40
0
40
1
40
1
40
1
41
1
10
-0.394913799811292
20
21.8654705382346
30
0
41
1
10
-1.19497688887515
20
21.8453761190377
30
0
41
1
10
-1.99503997793928
20
21.8252816998361
30
0
0
SPLINE
5
134
100
AcDbEntity
8
SK1
62
256
6
ByLayer
370
18
48
1
60
0
100
AcDbSpline
70
4
71
2
72
6
73
3
40
0
40
0
40
0
40
1
40
1
40
1
41
1
10
-2.19999999999999
20
22.0136642719968
30
0
41
1
10
-19.3500000008246
20
21.5830599810351
30
0
41
1
10
-36.5
20
21.1524539804128
30
0
0
SPLINE
5
135
100
AcDbEntity
8
SK1
62
256
6
ByLayer
370
18
48
1
60
0
100
AcDbSpline
70
4
71
3
72
13
73
9
40
0
40
0
40
0
40
0
40
0.239424309708974
40
0.368317583820914
40
0.499953353497707
40
0.631596883124514
40
0.760511552875588
40
1
40
1
40
1
40
1
41
1
10
-2.19999999999999
20
-22.0201428284389
30
0
41
1
10
-2.19909149084521
20
-21.994092162624
30
0
41
1
10
-2.19103234710033
20
-21.9567296883261
30
0
41
1
10
-2.16563526914683
20
-21.910524358218
30
0
41
1
10
-2.13886292182102
20
-21.8792519577777
30
0
41
1
10
-2.10627619975313
20
-21.854092108733
30
0
41
1
10
-2.05883938574672
20
-21.8310551805396
30
0
41
1
10
-2.02110964950145
20
-21.8248846680468
30
0
41
1
10
-1.99503997793928
20
-21.8252865969123
30
0
0
SPLINE
5
136
100
AcDbEntity
8
SK1
62
256
6
ByLayer
370
18
48
1
60
0
100
AcDbSpline
70
4
71
3
72
13
73
9
40
0
40
0
40
0
40
0
40
0.239488446613183
40
0.368403116187316
40
0.500046645745301
40
0.631682415479715
40
0.760575689762896
40
1
40
1
40
1
40
1
41
1
10
-1.99503997793928
20
21.825286524797
30
0
41
1
10
-2.02110964951223
20
21.8248845959364
30
0
41
1
10
-2.05883938576716
20
21.8310551084546
30
0
41
1
10
-2.10627619976853
20
21.8540920367489
30
0
41
1
10
-2.13886292183542
20
21.8792518859041
30
0
41
1
10
-2.16563526915772
20
21.9105242864784
30
0
41
1
10
-2.19103234710852
20
21.9567296167895
30
0
41
1
10
-2.19909149085342
20
21.9940920912339
30
0
41
1
10
-2.19999999999999
20
22.0201427571469
30
0
0
SPLINE
5
137
100
AcDbEntity
8
SK1
62
256
6
ByLayer
370
18
48
1
60
0
100
AcDbSpline
70
4
71
2
72
6
73
3
40
0
40
0
40
0
40
1
40
1
40
1
41
1
10
-36.5
20
21.1556411500792
30
0
41
1
10
-37.2500000202692
20
20.7228363924584
30
0
41
1
10
-38
20
20.2900294978113
30
0
0
SPLINE
5
138
100
AcDbEntity
8
SK1
62
256
6
ByLayer
370
18
48
1
60
0
100
AcDbSpline
70
4
71
3
72
11
73
7
40
0
40
0
40
0
40
0
40
0.238951655662017
40
0.497426891855135
40
0.757350231106678
40
1
40
1
40
1
40
1
41
1
10
-0.394913799811292
20
-21.8654754627471
30
0
41
1
10
-0.369687531346841
20
-21.8663994433358
30
0
41
1
10
-0.321131332200991
20
-21.8764453257208
30
0
41
1
10
-0.255172538244239
20
-21.9196711806814
30
0
41
1
10
-0.211244315154573
20
-21.9856609122028
30
0
41
1
10
-0.200954685769119
20
-22.0346807004484
30
0
41
1
10
-0.200000000000017
20
-22.0603316944383
30
0
0
SPLINE
5
139
100
AcDbEntity
8
SK1
62
256
6
ByLayer
370
18
48
1
60
0
100
AcDbSpline
70
4
71
3
72
11
73
7
40
0
40
0
40
0
40
0
40
0.242683451557236
40
0.502591507400088
40
0.761074756885805
40
1
40
1
40
1
40
1
41
1
10
-0.200000000000017
20
22.060331623316
30
0
41
1
10
-0.200952962174824
20
22.034682367515
30
0
41
1
10
-0.211240739082683
20
21.9856690515798
30
0
41
1
10
-0.255176498314313
20
21.9196668868322
30
0
41
1
10
-0.321125379120303
20
21.8764480552956
30
0
41
1
10
-0.369686289021757
20
21.8664005871852
30
0
41
1
10
-0.394913799811292
20
21.8654753908017
30
0
0
SPLINE
5
13A
100
AcDbEntity
8
SK1
62
256
6
ByLayer
370
18
48
1
60
0
100
AcDbSpline
70
4
71
3
72
49
73
45
40
0
40
0
40
0
40
0
40
0.0160124149809981
40
0.0444830930612946
40
0.0729537711415911
40
0.101424449221887
40
0.129895127302184
40
0.15836580538248
40
0.215307161543074
40
0.24377783962337
40
0.272248517703666
40
0.300719195783963
40
0.329189873864259
40
0.357660551944556
40
0.386131230024852
40
0.414601908105149
40
0.428837247145297
40
0.443072586185445
40
0.457307925225594
40
0.471543264265742
40
0.48577860330589
40
0.492896272825964
40
0.500013942346038
40
0.507131611866112
40
0.514249281386186
40
0.528484620426335
40
0.542719959466483
40
0.556955298506631
40
0.571190637546779
40
0.585425976586928
40
0.613896654667224
40
0.642367332747521
40
0.670838010827817
40
0.699308688908114
40
0.72777936698841
40
0.756250045068706
40
0.784720723149003
40
0.841662079309596
40
0.870132757389892
40
0.898603435470189
40
0.927074113550485
40
0.955544791630782
40
0.984015469711078
40
1
40
1
40
1
40
1
41
1
10
-36.5
20
21.1558714112304
30
0
41
1
10
-36.5
20
21.1495818101618
30
0
41
1
10
-36.5
20
21.1027904772144
30
0
41
1
10
-36.5
20
20.9025884164263
30
0
41
1
10
-36.5
20
20.5018751860753
30
0
41
1
10
-36.5
20
19.9491724688865
30
0
41
1
10
-36.5
20
19.2550489357272
30
0
41
1
10
-36.5
20
18.1505179338899
30
0
41
1
10
-36.5
20
16.8015889830236
30
0
41
1
10
-36.5
20
15.2144138486304
30
0
41
1
10
-36.5
20
13.9146794509994
30
0
41
1
10
-36.5
20
12.5065635742002
30
0
41
1
10
-36.5
20
10.9931136245939
30
0
41
1
10
-36.5
20
9.37743069816284
30
0
41
1
10
-36.5
20
7.66285826183417
30
0
41
1
10
-36.5
20
6.15816931379928
30
0
41
1
10
-36.5
20
4.9049974336175
30
0
41
1
10
-36.5
20
3.94891719908253
30
0
41
1
10
-36.5
20
2.9762147707124
30
0
41
1
10
-36.5
20
1.99071870036127
30
0
41
1
10
-36.5
20
1.16514681856441
30
0
41
1
10
-36.5
20
0.49809871324851
30
0
41
1
10
-36.5
20
2.384194602E-07
30
0
41
1
10
-36.5
20
-0.498098462230757
30
0
41
1
10
-36.5
20
-1.16514702467009
30
0
41
1
10
-36.5
20
-1.99071854296866
30
0
41
1
10
-36.5
20
-2.97621435827224
30
0
41
1
10
-36.5
20
-3.94891745941499
30
0
41
1
10
-36.5
20
-4.90499731091177
30
0
41
1
10
-36.5
20
-6.15816884754437
30
0
41
1
10
-36.5
20
-7.66285852360605
30
0
41
1
10
-36.5
20
-9.37743039030656
30
0
41
1
10
-36.5
20
-10.99311337117
30
0
41
1
10
-36.5
20
-12.5065639108223
30
0
41
1
10
-36.5
20
-13.9146791761935
30
0
41
1
10
-36.5
20
-15.2144137189483
30
0
41
1
10
-36.5
20
-16.8015894462653
30
0
41
1
10
-36.5
20
-18.1505177013547
30
0
41
1
10
-36.5
20
-19.2550491829544
30
0
41
1
10
-36.5
20
-19.9491731575017
30
0
41
1
10
-36.5
20
-20.5018750148337
30
0
41
1
10
-36.5
20
-20.9025888554179
30
0
41
1
10
-36.5
20
-21.1027146292102
30
0
41
1
10
-36.5
20
-21.1495233403902
30
0
41
1
10
-36.5
20
-21.1558385889332
30
0
0
SPLINE
5
13B
100
AcDbEntity
8
SK1
62
256
6
ByLayer
370
18
48
1
60
0
100
AcDbSpline
70
4
71
3
72
26
73
22
40
0
40
0
40
0
40
0
40
0.0312499999999993
40
0.0312499999999993
40
0.0624999999999985
40
0.0624999999999985
40
0.0937499999999978
40
0.0937499999999978
40
0.124999999999997
40
0.124999999999997
40
0.187499999999996
40
0.187499999999996
40
0.249999999999994
40
0.249999999999994
40
0.374999999999993
40
0.374999999999993
40
0.499999999999992
40
0.499999999999992
40
0.749999999999996
40
0.749999999999996
40
1
40
1
40
1
40
1
41
1
10
-0.394913799811292
20
6.32722135061283
30
0
41
1
10
-0.388622933830277
20
6.3216755700586
30
0
41
1
10
-0.381718055746631
20
6.31678135987394
30
0
41
1
10
-0.366393862507692
20
6.31000229927824
30
0
41
1
10
-0.357848061635252
20
6.30823128443399
30
0
41
1
10
-0.340711445902173
20
6.31011955599652
30
0
41
1
10
-0.33229375517368
20
6.31383663914289
30
0
41
1
10
-0.317887705763468
20
6.32417971455038
30
0
41
1
10
-0.311700702543959
20
6.33067859325854
30
0
41
1
10
-0.295298997789331
20
6.35157922031652
30
0
41
1
10
-0.287085973884672
20
6.36730565066384
30
0
41
1
10
-0.272955344086341
20
6.39930333387281
30
0
41
1
10
-0.267171029982904
20
6.41559723945602
30
0
41
1
10
-0.251809441444351
20
6.4649237465031
30
0
41
1
10
-0.244218821653675
20
6.49843170227936
30
0
41
1
10
-0.231491141946464
20
6.56582630636504
30
0
41
1
10
-0.226489017484681
20
6.59947291062286
30
0
41
1
10
-0.213927703741945
20
6.70027098060299
30
0
41
1
10
-0.20878121269368
20
6.76728109810057
30
0
41
1
10
-0.201940349251345
20
6.90096555412316
30
0
41
1
10
-0.200330815103399
20
6.96763966545905
30
0
41
1
10
-0.200000000000017
20
7.0341612160729
30
0
0
SPLINE
5
13C
100
AcDbEntity
8
SK1
62
256
6
ByLayer
370
18
48
1
60
0
100
AcDbSpline
70
4
71
3
72
26
73
22
40
0
40
0
40
0
40
0
40
0.250000000000003
40
0.250000000000003
40
0.500000000000005
40
0.500000000000005
40
0.625000000000005
40
0.625000000000005
40
0.750000000000005
40
0.750000000000005
40
0.812500000000005
40
0.812500000000005
40
0.875000000000005
40
0.875000000000005
40
0.906250000000004
40
0.906250000000004
40
0.937500000000002
40
0.937500000000002
40
0.968750000000001
40
0.968750000000001
40
1
40
1
40
1
40
1
41
1
10
-0.200000000000017
20
-7.03415845154649
30
0
41
1
10
-0.200331074104781
20
-6.96758473110336
30
0
41
1
10
-0.201942367211302
20
-6.90082001004905
30
0
41
1
10
-0.208808543904695
20
-6.76684756093874
30
0
41
1
10
-0.213983771375126
20
-6.69957538529093
30
0
41
1
10
-0.226629907857188
20
-6.59846295366884
30
0
41
1
10
-0.231660540619856
20
-6.56479252713407
30
0
41
1
10
-0.244399284272816
20
-6.49761038234263
30
0
41
1
10
-0.252034596555262
20
-6.46403779666735
30
0
41
1
10
-0.267439101060745
20
-6.41481626716131
30
0
41
1
10
-0.273236212730978
20
-6.39857720931931
30
0
41
1
10
-0.287365755981511
20
-6.36675955901481
30
0
41
1
10
-0.295589616969494
20
-6.35108461281911
30
0
41
1
10
-0.312078412290106
20
-6.33025774259011
30
0
41
1
10
-0.318222328461729
20
-6.32386838427428
30
0
41
1
10
-0.332669805034271
20
-6.31363504737973
30
0
41
1
10
-0.34096760945684
20
-6.31005507464133
30
0
41
1
10
-0.357929669282612
20
-6.30825311318185
30
0
41
1
10
-0.366577726601548
20
-6.31005499812113
30
0
41
1
10
-0.381850124236138
20
-6.31686284615012
30
0
41
1
10
-0.388651860853372
20
-6.32169800880939
30
0
41
1
10
-0.394913799811292
20
-6.32721828439904
30
0
0
SPLINE
5
13D
100
AcDbEntity
8
SK1
62
256
6
ByLayer
370
18
48
1
60
0
100
AcDbSpline
70
4
71
3
72
49
73
45
40
0
40
0
40
0
40
0
40
0.0136745485487856
40
0.0422819417816214
40
0.0708893350144571
40
0.0994967282472928
40
0.128104121480129
40
0.156711514712964
40
0.213926301178636
40
0.242533694411471
40
0.271141087644307
40
0.299748480877143
40
0.328355874109979
40
0.356963267342814
40
0.38557066057565
40
0.414178053808486
40
0.428481750424904
40
0.442785447041322
40
0.457089143657739
40
0.471392840274157
40
0.485696536890575
40
0.492848385198784
40
0.500000233506993
40
0.507152081815202
40
0.514303930123411
40
0.528607626739829
40
0.542911323356247
40
0.557215019972664
40
0.571518716589082
40
0.5858224132055
40
0.614429806438336
40
0.643037199671172
40
0.671644592904007
40
0.700251986136843
40
0.728859379369679
40
0.757466772602514
40
0.78607416583535
40
0.843288952301022
40
0.871896345533858
40
0.900503738766693
40
0.929111131999529
40
0.957718525232365
40
0.9863259184652
40
1
40
1
40
1
40
1
41
1
10
-2.19999999999999
20
22.0135803375966
30
0
41
1
10
-2.19999999999999
20
22.0052602908636
30
0
41
1
10
-2.20000000000002
20
21.955363370672
30
0
41
1
10
-2.19999999999999
20
21.7550269215783
30
0
41
1
10
-2.19999999999999
20
21.3416333570605
30
0
41
1
10
-2.19999999999999
20
20.7725957724454
30
0
41
1
10
-2.19999999999999
20
20.0589162847047
30
0
41
1
10
-2.19999999999999
20
18.9263267207688
30
0
41
1
10
-2.19999999999999
20
17.5367466797247
30
0
41
1
10
-2.19999999999999
20
15.9097478536278
30
0
41
1
10
-2.19999999999999
20
14.5742840575192
30
0
41
1
10
-2.19999999999999
20
13.1259218425112
30
0
41
1
10
-2.19999999999999
20
11.5668148046225
30
0
41
1
10
-2.19999999999999
20
9.89853996914994
30
0
41
1
10
-2.19999999999999
20
8.12208977576526
30
0
41
1
10
-2.19999999999999
20
6.55235660022586
30
0
41
1
10
-2.19999999999999
20
5.24422917335971
30
0
41
1
10
-2.19999999999999
20
4.2375522406841
30
0
41
1
10
-2.19999999999999
20
3.20644372216566
30
0
41
1
10
-2.19999999999999
20
2.15314018801408
30
0
41
1
10
-2.19999999999999
20
1.26034253962158
30
0
41
1
10
-2.19999999999999
20
0.540965390862567
30
0
41
1
10
-2.19999999999999
20
2.64082871E-08
30
0
41
1
10
-2.19999999999999
20
-0.540965319759067
30
0
41
1
10
-2.19999999999999
20
-1.26034245765445
30
0
41
1
10
-2.19999999999999
20
-2.15314020845369
30
0
41
1
10
-2.19999999999999
20
-3.20644349821168
30
0
41
1
10
-2.19999999999999
20
-4.23755215854527
30
0
41
1
10
-2.19999999999999
20
-5.24422924769226
30
0
41
1
10
-2.19999999999999
20
-6.55235618011341
30
0
41
1
10
-2.19999999999999
20
-8.12208991237509
30
0
41
1
10
-2.19999999999999
20
-9.89853979541107
30
0
41
1
10
-2.19999999999999
20
-11.566814441512
30
0
41
1
10
-2.19999999999999
20
-13.1259221492872
30
0
41
1
10
-2.19999999999999
20
-14.574283866752
30
0
41
1
10
-2.19999999999999
20
-15.9097476492909
30
0
41
1
10
-2.19999999999999
20
-17.5367471514895
30
0
41
1
10
-2.19999999999999
20
-18.9263265026412
30
0
41
1
10
-2.19999999999999
20
-20.0589164660072
30
0
41
1
10
-2.19999999999999
20
-20.7725964921017
30
0
41
1
10
-2.19999999999999
20
-21.3416331895302
30
0
41
1
10
-2.19999999999999
20
-21.7550273348429
30
0
41
1
10
-2.19999999999999
20
-21.9553627344761
30
0
41
1
10
-2.20000000000002
20
-22.0052594616549
30
0
41
1
10
-2.19999999999999
20
-22.0135796624175
30
0
0
SPLINE
5
13E
100
AcDbEntity
8
SK1
62
256
6
ByLayer
370
18
48
1
60
0
100
AcDbSpline
70
4
71
3
72
21
73
17
40
0
40
0
40
0
40
0
40
0.0510243012262696
40
0.12100381488423
40
0.190983328542191
40
0.260962842200152
40
0.330942355858112
40
0.400921869516073
40
0.540880896831994
40
0.610860410489955
40
0.680839924147916
40
0.750819437805876
40
0.820798951463837
40
0.890778465121797
40
0.960757978779758
40
1
40
1
40
1
40
1
41
1
10
-0.200000000000017
20
22.0703747092736
30
0
41
1
10
-0.199999999999989
20
22.0704399815059
30
0
41
1
10
-0.200000000000017
20
22.0258027419346
30
0
41
1
10
-0.200000000000017
20
21.8047317906834
30
0
41
1
10
-0.200000000000017
20
21.3905988480801
30
0
41
1
10
-0.200000000000017
20
20.8206087930611
30
0
41
1
10
-0.200000000000017
20
20.1057890164235
30
0
41
1
10
-0.200000000000017
20
18.9715633847268
30
0
41
1
10
-0.200000000000017
20
17.5796130177247
30
0
41
1
10
-0.200000000000017
20
15.9502921104789
30
0
41
1
10
-0.200000000000017
20
14.6127449675204
30
0
41
1
10
-0.200000000000017
20
13.1620360272524
30
0
41
1
10
-0.200000000000017
20
11.6002667684726
30
0
41
1
10
-0.200000000000017
20
9.92892534938241
30
0
41
1
10
-0.200000000000017
20
8.40948876069857
30
0
41
1
10
-0.200000000000017
20
7.43948702371975
30
0
41
1
10
-0.200000000000017
20
7.08540004766849
30
0
0
SPLINE
5
13F
100
AcDbEntity
8
SK1
62
256
6
ByLayer
370
18
48
1
60
0
100
AcDbSpline
70
4
71
3
72
10
73
6
40
0
40
0
40
0
40
0
40
0.5
40
0.5
40
1
40
1
40
1
40
1
41
1
10
0
20
-6.53032259051451
30
0
41
1
10
-0.026245814054306
20
-6.62558556045749
30
0
41
1
10
-0.0550210228789467
20
-6.71973635662815
30
0
41
1
10
-0.120283318990403
20
-6.90513009808126
30
0
41
1
10
-0.156583410983217
20
-6.99642392008917
30
0
41
1
10
-0.199999999995868
20
-7.08539735389175
30
0
0
SPLINE
5
140
100
AcDbEntity
8
SK1
62
256
6
ByLayer
370
18
48
1
60
0
100
AcDbSpline
70
4
71
3
72
31
73
27
40
0
40
0
40
0
40
0
40
0.125
40
0.125
40
0.25
40
0.25
40
0.3125
40
0.3125
40
0.34375
40
0.34375
40
0.375
40
0.375
40
0.4375
40
0.4375
40
0.5
40
0.5625
40
0.5625
40
0.625
40
0.625
40
0.6875
40
0.6875
40
0.75
40
0.75
40
0.875
40
0.875
40
1
40
1
40
1
40
1
41
1
10
-1.30710678118655
20
-4.81115156937963
30
0
41
1
10
-1.37464191770107
20
-4.42920989906068
30
0
41
1
10
-1.43848245106358
20
-4.04286538655003
30
0
41
1
10
-1.55492025426076
20
-3.25980613133493
30
0
41
1
10
-1.60753025207398
20
-2.86309861159856
30
0
41
1
10
-1.67414509281366
20
-2.25856982386534
30
0
41
1
10
-1.69427910225542
20
-2.05547235697082
30
0
41
1
10
-1.720809668903
20
-1.74818388274395
30
0
41
1
10
-1.72904283683667
20
-1.64528138410392
30
0
41
1
10
-1.74411754427723
20
-1.43972015377184
30
0
41
1
10
-1.75097190728465
20
-1.33692150334679
30
0
41
1
10
-1.76938952483024
20
-1.02847005779316
30
0
41
1
10
-1.77881369580271
20
-0.822761881301403
30
0
41
1
10
-1.79137807494828
20
-0.411189125581387
30
0
41
1
10
-1.79754609551321
20
0.0005418097730967
30
0
41
1
10
-1.79135312802683
20
0.41258213473958
30
0
41
1
10
-1.7787347782095
20
0.824781359776097
30
0
41
1
10
-1.76926982289669
20
1.03095952328064
30
0
41
1
10
-1.74458111668804
20
1.44346492154577
30
0
41
1
10
-1.72931046442918
20
1.65009418594534
30
0
41
1
10
-1.69395938565037
20
2.05879746438538
30
0
41
1
10
-1.67384597566203
20
2.26145078101041
30
0
41
1
10
-1.60730494401747
20
2.86481056040481
30
0
41
1
10
-1.55475828557684
20
3.26095452027206
30
0
41
1
10
-1.43842306954181
20
4.04321174825225
30
0
41
1
10
-1.37462279329503
20
4.42931851789504
30
0
41
1
10
-1.3071067811866
20
4.81115177825134
30
0
0
SPLINE
5
141
100
AcDbEntity
8
SK1
62
256
6
ByLayer
370
18
48
1
60
0
100
AcDbSpline
70
4
71
3
72
32
73
28
40
0
40
0
40
0
40
0
40
0.250000000000002
40
0.250000000000002
40
0.375000000000002
40
0.375000000000002
40
0.500000000000002
40
0.500000000000002
40
0.625000000000002
40
0.625000000000002
40
0.687500000000001
40
0.687500000000001
40
0.75
40
0.75
40
0.812499999999999
40
0.812499999999999
40
0.843749999999999
40
0.843749999999999
40
0.874999999999999
40
0.874999999999999
40
0.906249999999999
40
0.906249999999999
40
0.9375
40
0.9375
40
0.96875
40
0.96875
40
1
40
1
40
1
40
1
41
1
10
-1.30710678118655
20
4.81115177825137
30
0
41
1
10
-1.27776094215346
20
4.97711562958051
30
0
41
1
10
-1.24445474088378
20
5.14127607213072
30
0
41
1
10
-1.18536324259091
20
5.38437609466135
30
0
41
1
10
-1.16411410166916
20
5.46491938757273
30
0
41
1
10
-1.11750013847299
20
5.62462479791699
30
0
41
1
10
-1.09222933922737
20
5.70354894528955
30
0
41
1
10
-1.03597558707773
20
5.85897875620597
30
0
41
1
10
-1.00507947149296
20
5.93551305897702
30
0
41
1
10
-0.951537336733935
20
6.04756122695201
30
0
41
1
10
-0.932473247849941
20
6.0844461354001
30
0
41
1
10
-0.890745707221811
20
6.15690597798803
30
0
41
1
10
-0.867964363687918
20
6.19272059446288
30
0
41
1
10
-0.81712123483328
20
6.26114842409615
30
0
41
1
10
-0.789394425858006
20
6.29356478838167
30
0
41
1
10
-0.74105353006513
20
6.33702795492954
30
0
41
1
10
-0.723634935305967
20
6.35074513132108
30
0
41
1
10
-0.685806402556381
20
6.3748637181028
30
0
41
1
10
-0.665603370023774
20
6.38514303600903
30
0
41
1
10
-0.622102468665389
20
6.39998734213981
30
0
41
1
10
-0.599687731218722
20
6.40423336369167
30
0
41
1
10
-0.553245972254786
20
6.40502240224978
30
0
41
1
10
-0.530471361560558
20
6.40147524378972
30
0
41
1
10
-0.486753113655226
20
6.38787241492469
30
0
41
1
10
-0.466607865993751
20
6.37816775067614
30
0
41
1
10
-0.428885771233183
20
6.35508794642672
30
0
41
1
10
-0.411293294227562
20
6.34166087006349
30
0
41
1
10
-0.394913799811292
20
6.32722135062437
30
0
0
SPLINE
5
142
100
AcDbEntity
8
SK1
62
256
6
ByLayer
370
18
48
1
60
0
100
AcDbSpline
70
4
71
3
72
10
73
6
40
0
40
0
40
0
40
0
40
0.5
40
0.5
40
1
40
1
40
1
40
1
41
1
10
-0.200000000000017
20
7.08540004767101
30
0
41
1
10
-0.156583385644495
20
6.99642670418811
30
0
41
1
10
-0.120283283599946
20
6.90513296551012
30
0
41
1
10
-0.0550209890645874
20
6.71973937652893
30
0
41
1
10
-0.0262457922467547
20
6.62558864937205
30
0
41
1
10
1.99E-13
20
6.53032573994014
30
0
0
SPLINE
5
143
100
AcDbEntity
8
SK1
62
256
6
ByLayer
370
13
48
1
60
0
100
AcDbSpline
70
4
71
3
72
49
73
45
40
0
40
0
40
0
40
0
40
0.0208873842652973
40
0.0490707106785565
40
0.0772540370918156
40
0.105437363505075
40
0.133620689918334
40
0.161804016331593
40
0.218170669158112
40
0.246353995571371
40
0.27453732198463
40
0.302720648397889
40
0.330903974811148
40
0.359087301224407
40
0.387270627637666
40
0.415453954050926
40
0.429545617257555
40
0.443637280464185
40
0.457728943670814
40
0.471820606877444
40
0.485912270084073
40
0.492958101687388
40
0.500003933290703
40
0.507049764894018
40
0.514095596497333
40
0.528187259703962
40
0.542278922910592
40
0.556370586117221
40
0.570462249323851
40
0.584553912530481
40
0.61273723894374
40
0.640920565356999
40
0.669103891770258
40
0.697287218183517
40
0.725470544596776
40
0.753653871010035
40
0.781837197423295
40
0.838203850249813
40
0.866387176663072
40
0.894570503076331
40
0.92275382948959
40
0.95093715590285
40
0.979120482316109
40
1
40
1
40
1
40
1
41
1
10
-1.99503997793928
20
21.8252682031773
30
0
41
1
10
-1.99503997793926
20
21.8259553008075
30
0
41
1
10
-1.99503997793928
20
21.7821406775469
30
0
41
1
10
-1.99503997793928
20
21.5622159608078
30
0
41
1
10
-1.99503997793928
20
21.1516905297669
30
0
41
1
10
-1.99503997793928
20
20.5863476884834
30
0
41
1
10
-1.99503997793928
20
19.8770915138249
30
0
41
1
10
-1.99503997793928
20
18.7508484467722
30
0
41
1
10
-1.99503997793928
20
17.370463175446
30
0
41
1
10
-1.99503997793928
20
15.752471971849
30
0
41
1
10
-1.99503997793928
20
14.4250897201646
30
0
41
1
10
-1.99503997793928
20
12.985830725026
30
0
41
1
10
-1.99503997793928
20
11.4370507512064
30
0
41
1
10
-1.99503997793928
20
9.78067154978811
30
0
41
1
10
-1.99503997793928
20
8.01821733349291
30
0
41
1
10
-1.99503997793928
20
6.46319635117558
30
0
41
1
10
-1.99503997793928
20
5.16749918372619
30
0
41
1
10
-1.99503997793928
20
4.17226659327741
30
0
41
1
10
-1.99503997793928
20
3.15436880408234
30
0
41
1
10
-1.99503997793928
20
2.11640247274801
30
0
41
1
10
-1.99503997793928
20
1.23881045451827
30
0
41
1
10
-1.99503997793928
20
0.531269482892839
30
0
41
1
10
-1.99503997793928
20
7.43625606E-08
30
0
41
1
10
-1.99503997793928
20
-0.531269371094965
30
0
41
1
10
-1.99503997793928
20
-1.23881043770962
30
0
41
1
10
-1.99503997793928
20
-2.11640245296419
30
0
41
1
10
-1.99503997793928
20
-3.15436853749512
30
0
41
1
10
-1.99503997793928
20
-4.17226658860133
30
0
41
1
10
-1.99503997793928
20
-5.16749921349111
30
0
41
1
10
-1.99503997793928
20
-6.46319592062628
30
0
41
1
10
-1.99503997793928
20
-8.01821749841284
30
0
41
1
10
-1.99503997793928
20
-9.78067134571356
30
0
41
1
10
-1.99503997793928
20
-11.4370504129057
30
0
41
1
10
-1.99503997793928
20
-12.9858310385528
30
0
41
1
10
-1.99503997793928
20
-14.4250895103889
30
0
41
1
10
-1.99503997793928
20
-15.7524717843982
30
0
41
1
10
-1.99503997793928
20
-17.370463645283
30
0
41
1
10
-1.99503997793928
20
-18.7508482253859
30
0
41
1
10
-1.99503997793928
20
-19.8770917100388
30
0
41
1
10
-1.99503997793928
20
-20.5863484011186
30
0
41
1
10
-1.99503997793928
20
-21.1516903613971
30
0
41
1
10
-1.99503997793928
20
-21.5622163798915
30
0
41
1
10
-1.99503997793928
20
-21.7821189905351
30
0
41
1
10
-1.99503997793928
20
-21.825941359932
30
0
41
1
10
-1.99503997793928
20
-21.8252690411193
30
0
0
SPLINE
5
144
100
AcDbEntity
8
SK1
62
256
6
ByLayer
370
13
48
1
60
0
100
AcDbSpline
70
4
71
3
72
21
73
17
40
0
40
0
40
0
40
0
40
0.0620686614459542
40
0.13035457225977
40
0.198640483073585
40
0.266926393887401
40
0.335212304701216
40
0.403498215515032
40
0.471784126328847
40
0.608355947956478
40
0.676641858770294
40
0.744927769584109
40
0.813213680397925
40
0.88149959121174
40
0.949785502025556
40
1
40
1
40
1
40
1
41
1
10
-0.394913799811292
20
-6.32721828439904
30
0
41
1
10
-0.394913799811292
20
-6.90653762641452
30
0
41
1
10
-0.394913799811292
20
-8.09321756934099
30
0
41
1
10
-0.394913799811292
20
-9.80498157314145
30
0
41
1
10
-0.394913799811292
20
-11.4638140893219
30
0
41
1
10
-0.394913799811292
20
-13.0147246633635
30
0
41
1
10
-0.394913799811292
20
-14.4558606687731
30
0
41
1
10
-0.394913799811292
20
-15.7849097442956
30
0
41
1
10
-0.394913799811292
20
-17.4047594204778
30
0
41
1
10
-0.394913799811292
20
-18.7870404111631
30
0
41
1
10
-0.394913799811292
20
-19.9145928494951
30
0
41
1
10
-0.394913799811292
20
-20.6247618481558
30
0
41
1
10
-0.394913799811292
20
-21.1908658435729
30
0
41
1
10
-0.394913799811292
20
-21.6019834098091
30
0
41
1
10
-0.394913799811292
20
-21.8217920994108
30
0
41
1
10
-0.394913799811292
20
-21.8658541715515
30
0
41
1
10
-0.394913799811263
20
-21.8654696411395
30
0
0
SPLINE
5
145
100
AcDbEntity
8
SK1
62
256
6
ByLayer
370
18
48
1
60
0
100
AcDbSpline
70
4
71
3
72
21
73
17
40
0
40
0
40
0
40
0
40
0.039240224457858
40
0.109216369493603
40
0.179192514529348
40
0.249168659565093
40
0.319144804600838
40
0.389120949636583
40
0.459097094672328
40
0.599049384743817
40
0.669025529779562
40
0.739001674815307
40
0.808977819851052
40
0.878953964886797
40
0.948930109922542
40
1
40
1
40
1
40
1
41
1
10
-0.200000000000017
20
-7.08539735388831
30
0
41
1
10
-0.200000000000017
20
-7.4394852386969
30
0
41
1
10
-0.200000000000017
20
-8.40948806464002
30
0
41
1
10
-0.200000000000017
20
-9.9289251834638
30
0
41
1
10
-0.200000000000017
20
-11.6002663989664
30
0
41
1
10
-0.200000000000017
20
-13.162036332288
30
0
41
1
10
-0.200000000000017
20
-14.6127447816534
30
0
41
1
10
-0.200000000000017
20
-15.950291901789
30
0
41
1
10
-0.200000000000017
20
-17.5796134899866
30
0
41
1
10
-0.200000000000017
20
-18.9715631674393
30
0
41
1
10
-0.200000000000017
20
-20.105789193882
30
0
41
1
10
-0.200000000000017
20
-20.8206095145274
30
0
41
1
10
-0.200000000000017
20
-21.3905986807661
30
0
41
1
10
-0.200000000000017
20
-21.8047322024479
30
0
41
1
10
-0.200000000000017
20
-22.0258590710115
30
0
41
1
10
-0.200000000000017
20
-22.0704755313363
30
0
41
1
10
-0.200000000000017
20
-22.0703745453458
30
0
0
SPLINE
5
146
100
AcDbEntity
8
SK1
62
256
6
ByLayer
370
13
48
1
60
0
100
AcDbSpline
70
4
71
3
72
21
73
17
40
0
40
0
40
0
40
0
40
0.0502202387041858
40
0.118505744019935
40
0.186791249335685
40
0.255076754651434
40
0.323362259967184
40
0.391647765282933
40
0.528218775914432
40
0.596504281230182
40
0.664789786545931
40
0.733075291861681
40
0.80136079717743
40
0.869646302493179
40
0.937931807808929
40
1
40
1
40
1
40
1
41
1
10
-0.394913799811263
20
21.8654694310013
30
0
41
1
10
-0.394913799811263
20
21.8658585491198
30
0
41
1
10
-0.394913799811263
20
21.8217984981983
30
0
41
1
10
-0.394913799811292
20
21.6019829919255
30
0
41
1
10
-0.394913799811292
20
21.1908660117695
30
0
41
1
10
-0.394913799811292
20
20.6247611340725
30
0
41
1
10
-0.394913799811292
20
19.9145926563567
30
0
41
1
10
-0.394913799811292
20
18.7870406318774
30
0
41
1
10
-0.394913799811292
20
17.4047589502432
30
0
41
1
10
-0.394913799811292
20
15.7849099352292
30
0
41
1
10
-0.394913799811292
20
14.4558608746283
30
0
41
1
10
-0.394913799811292
20
13.014724351229
30
0
41
1
10
-0.394913799811292
20
11.4638144327396
30
0
41
1
10
-0.394913799811292
20
9.80498177095927
30
0
41
1
10
-0.394913799811292
20
8.09321828866484
30
0
41
1
10
-0.394913799811292
20
6.90653972901183
30
0
41
1
10
-0.394913799811292
20
6.32722135061283
30
0
0
SPLINE
5
147
100
AcDbEntity
8
SK1
62
256
6
ByLayer
370
18
48
1
60
0
100
AcDbSpline
70
4
71
3
72
8
73
4
40
0
40
0
40
0
40
0
40
1
40
1
40
1
40
1
41
0.980125716641413
10
-0.200000000000031
20
7.03416121607608
30
0
41
0.980125716641413
10
-0.200000000000002
20
7.06207342499979
30
0
41
0.980125716641413
10
-0.200000000000002
20
7.08995110616732
30
0
41
0.980125716641413
10
-0.200000000000002
20
7.11779421607617
30
0
0
SPLINE
5
148
100
AcDbEntity
8
SK1
62
256
6
ByLayer
370
18
48
1
60
0
100
AcDbSpline
70
4
71
3
72
49
73
45
40
0
40
0
40
0
40
0
40
0.020532913792097
40
0.0487334801386653
40
0.0769340464852337
40
0.105134612831802
40
0.133335179178371
40
0.161535745524939
40
0.217936878218076
40
0.246137444564644
40
0.274338010911213
40
0.302538577257781
40
0.330739143604349
40
0.358939709950918
40
0.387140276297486
40
0.415340842644055
40
0.429441125817339
40
0.443541408990623
40
0.457641692163907
40
0.471741975337191
40
0.485842258510476
40
0.492892400097118
40
0.49994254168376
40
0.506992683270402
40
0.514042824857044
40
0.528143108030328
40
0.542243391203613
40
0.556343674376897
40
0.570443957550181
40
0.584544240723465
40
0.612744807070033
40
0.640945373416602
40
0.66914593976317
40
0.697346506109739
40
0.725547072456307
40
0.753747638802875
40
0.781948205149444
40
0.838349337842581
40
0.866549904189149
40
0.894750470535717
40
0.922951036882286
40
0.951151603228855
40
0.979352169575423
40
1
40
1
40
1
40
1
41
1
10
-38
20
-20.2928923511026
30
0
41
1
10
-38
20
-20.2928756990969
30
0
41
1
10
-38
20
-20.2516084849953
30
0
41
1
10
-38
20
-20.0459066437045
30
0
41
1
10
-38
20
-19.6579362347721
30
0
41
1
10
-38
20
-19.1216505379956
30
0
41
1
10
-38
20
-18.4471799717542
30
0
41
1
10
-38
20
-17.3708466567051
30
0
41
1
10
-38
20
-16.0627718728323
30
0
41
1
10
-38
20
-14.5156181768617
30
0
41
1
10
-38
20
-13.2517907463501
30
0
41
1
10
-38
20
-11.8841222937699
30
0
41
1
10
-38
20
-10.4165562193454
30
0
41
1
10
-38
20
-8.853726723139
30
0
41
1
10
-38
20
-7.20134092284707
30
0
41
1
10
-38
20
-5.76201911469511
30
0
41
1
10
-38
20
-4.56407656073523
30
0
41
1
10
-38
20
-3.65884583736087
30
0
41
1
10
-38
20
-2.74483905839463
30
0
41
1
10
-38
20
-1.82748828650284
30
0
41
1
10
-38
20
-1.0694776760397
30
0
41
1
10
-38
20
-0.455018198724417
30
0
41
1
10
-38
20
4.514861303E-07
30
0
41
1
10
-38
20
0.455018630552104
30
0
41
1
10
-38
20
1.06947718042707
30
0
41
1
10
-38
20
1.82748862261295
30
0
41
1
10
-38
20
2.74483966025932
30
0
41
1
10
-38
20
3.65884523285217
30
0
41
1
10
-38
20
4.56407688146012
30
0
41
1
10
-38
20
5.76201962732216
30
0
41
1
10
-38
20
7.20134053529
30
0
41
1
10
-38
20
8.85372716578038
30
0
41
1
10
-38
20
10.4165563625368
30
0
41
1
10
-38
20
11.884121927153
30
0
41
1
10
-38
20
13.2517911056129
30
0
41
1
10
-38
20
14.5156182315173
30
0
41
1
10
-38
20
16.0627714181563
30
0
41
1
10
-38
20
17.3708469037194
30
0
41
1
10
-38
20
18.4471796582741
30
0
41
1
10
-38
20
19.121649880576
30
0
41
1
10
-38
20
19.6579364097435
30
0
41
1
10
-38
20
20.0459061788578
30
0
41
1
10
-38
20
20.2519150744937
30
0
41
1
10
-38
20
20.2930697056378
30
0
41
1
10
-38
20
20.2928909201906
30
0
0
SPLINE
5
149
100
AcDbEntity
8
SK1
62
256
6
ByLayer
370
18
48
1
60
0
100
AcDbSpline
70
4
71
3
72
32
73
28
40
0
40
0
40
0
40
0
40
0.0312500000000005
40
0.0312500000000005
40
0.062500000000001
40
0.062500000000001
40
0.0937500000000015
40
0.0937500000000015
40
0.125000000000002
40
0.125000000000002
40
0.156250000000002
40
0.156250000000002
40
0.187500000000003
40
0.187500000000003
40
0.250000000000003
40
0.250000000000003
40
0.312500000000004
40
0.312500000000004
40
0.375000000000004
40
0.375000000000004
40
0.500000000000004
40
0.500000000000004
40
0.625000000000004
40
0.625000000000004
40
0.750000000000003
40
0.750000000000003
40
1
40
1
40
1
40
1
41
1
10
-0.394913799811292
20
-6.32721828439907
30
0
41
1
10
-0.411169702827039
20
-6.34154884003183
30
0
41
1
10
-0.428432689769153
20
-6.35475565889098
30
0
41
1
10
-0.465972582494885
20
-6.37782646793315
30
0
41
1
10
-0.486169045069261
20
-6.38756903357609
30
0
41
1
10
-0.528834802002649
20
-6.40107546113694
30
0
41
1
10
-0.551911827630931
20
-6.40484674033527
30
0
41
1
10
-0.59759647995736
20
-6.4044468991618
30
0
41
1
10
-0.620666657453
20
-6.40029767867216
30
0
41
1
10
-0.663770142860585
20
-6.38592912502901
30
0
41
1
10
-0.684186273479156
20
-6.37571954267724
30
0
41
1
10
-0.72165089236654
20
-6.35216508603165
30
0
41
1
10
-0.739125153205379
20
-6.33860938748936
30
0
41
1
10
-0.788099585621694
20
-6.29500212833881
30
0
41
1
10
-0.815900527777785
20
-6.26261583511771
30
0
41
1
10
-0.866746075133221
20
-6.19452170639306
30
0
41
1
10
-0.889657313576322
20
-6.15866825589436
30
0
41
1
10
-0.931589886782092
20
-6.08609644673814
30
0
41
1
10
-0.950735693127655
20
-6.04915001273997
30
0
41
1
10
-1.00449108222139
20
-5.93690912819588
30
0
41
1
10
-1.03548744556028
20
-5.86023563385643
30
0
41
1
10
-1.09190951976356
20
-5.70451929766094
30
0
41
1
10
-1.11725974479188
20
-5.62540226977166
30
0
41
1
10
-1.1639578554223
20
-5.46549802550047
30
0
41
1
10
-1.18522246232581
20
-5.38492681950908
30
0
41
1
10
-1.24438554784462
20
-5.14161561829977
30
0
41
1
10
-1.27772950254064
20
-4.97729333579235
30
0
41
1
10
-1.30710678118655
20
-4.81115156937966
30
0
0
SPLINE
5
14A
100
AcDbEntity
8
SK1
62
256
6
ByLayer
370
18
48
1
60
0
100
AcDbSpline
70
4
71
3
72
8
73
4
40
0
40
0
40
0
40
0
40
1
40
1
40
1
40
1
41
0.980125716641416
10
-0.200000000000031
20
-7.0539004516485
30
0
41
0.980125716641416
10
-0.200000000000031
20
-7.04732170563697
30
0
41
0.980125716641416
10
-0.200000000000031
20
-7.04074103874976
30
0
41
0.980125716641416
10
-0.200000000000031
20
-7.03415845155804
30
0
0
SPLINE
5
14B
100
AcDbEntity
8
1
62
256
6
ByLayer
370
18
48
1
60
0
100
AcDbSpline
70
4
71
3
72
22
73
18
40
0
40
0
40
0
40
0
40
0.0625000000000074
40
0.0625000000000074
40
0.125000000000015
40
0.125000000000015
40
0.187500000000022
40
0.187500000000022
40
0.25000000000003
40
0.25000000000003
40
0.37500000000002
40
0.37500000000002
40
0.500000000000009
40
0.500000000000009
40
0.750000000000005
40
0.750000000000005
40
1
40
1
40
1
40
1
41
1
10
79.6055000000001
20
26.0100772776504
30
0
41
1
10
79.5979531350988
20
26.0163237035143
30
0
41
1
10
79.5903309748307
20
26.0219282456636
30
0
41
1
10
79.5752150014688
20
26.0310758420371
30
0
41
1
10
79.5678082632911
20
26.034541370949
30
0
41
1
10
79.5541074431752
20
26.0383181156671
30
0
41
1
10
79.5479040735976
20
26.0385925023582
30
0
41
1
10
79.5373699622982
20
26.0357904907594
30
0
41
1
10
79.5332138313418
20
26.032825207766
30
0
41
1
10
79.5234244585301
20
26.02014194122
30
0
41
1
10
79.5208914796619
20
26.0072078372264
30
0
41
1
10
79.5201926535017
20
25.9789157426783
30
0
41
1
10
79.5219655798816
20
25.9633166237993
30
0
41
1
10
79.5312522763401
20
25.9137784840492
30
0
41
1
10
79.5425200942079
20
25.8781366276165
30
0
41
1
10
79.5702156333429
20
25.8062248876232
30
0
41
1
10
79.5866797204592
20
25.7699815629601
30
0
41
1
10
79.6055
20
25.7334897125276
30
0
0
SPLINE
5
14C
100
AcDbEntity
8
1
62
256
6
ByLayer
370
18
48
1
60
0
100
AcDbSpline
70
4
71
3
72
8
73
4
40
0
40
0
40
0
40
0
40
1
40
1
40
1
40
1
41
1
10
79.6055
20
13.1809335420858
30
0
41
1
10
79.6661423182086
20
12.0603111806953
30
0
41
1
10
79.6661423182086
20
10.9396888193047
30
0
41
1
10
79.6055
20
9.81906645791415
30
0
0
SPLINE
5
14D
100
AcDbEntity
8
1
62
256
6
ByLayer
370
18
48
1
60
0
100
AcDbSpline
70
4
71
3
72
12
73
8
40
0
40
0
40
0
40
0
40
0.499999999999978
40
0.499999999999978
40
0.749999999999989
40
0.749999999999989
40
1
40
1
40
1
40
1
41
1
10
80.2495
20
-1.4353083296312
30
0
41
1
10
80.2704007391946
20
-1.39140910586207
30
0
41
1
10
80.2879822475922
20
-1.34726814618176
30
0
41
1
10
80.3079572516775
20
-1.282864662175
30
0
41
1
10
80.3135713793242
20
-1.26161763003282
30
0
41
1
10
80.3218661041996
20
-1.21975093931735
30
0
41
1
10
80.3245
20
-1.19962540528081
30
0
41
1
10
80.3245
20
-1.18098768618989
30
0
0
SPLINE
5
14E
100
AcDbEntity
8
1
62
256
6
ByLayer
370
18
48
1
60
0
100
AcDbSpline
70
4
71
3
72
8
73
4
40
0
40
0
40
0
40
0
40
1
40
1
40
1
40
1
41
1
10
80.2495
20
26.7329620912908
30
0
41
1
10
80.0348350239476
20
26.9083593488627
30
0
41
1
10
79.8201683008329
20
27.0837537555398
30
0
41
1
10
79.6055
20
27.2591455874816
30
0
0
SPLINE
5
14F
100
AcDbEntity
8
1
62
256
6
ByLayer
370
18
48
1
60
0
100
AcDbSpline
70
4
71
3
72
24
73
20
40
0
40
0
40
0
40
0
40
0.249999999999977
40
0.249999999999977
40
0.374999999999968
40
0.374999999999968
40
0.499999999999958
40
0.499999999999958
40
0.624999999999949
40
0.624999999999949
40
0.687499999999957
40
0.687499999999957
40
0.749999999999965
40
0.749999999999965
40
0.812499999999973
40
0.812499999999973
40
0.874999999999981
40
0.874999999999981
40
1
40
1
40
1
40
1
41
1
10
79.6055
20
-7.23634420521464
30
0
41
1
10
79.584933659893
20
-7.26188492362914
30
0
41
1
10
79.5662642298246
20
-7.28688629101268
30
0
41
1
10
79.543766769786
20
-7.32094692144148
30
0
41
1
10
79.5370921639868
20
-7.33189905501038
30
0
41
1
10
79.5267461011529
20
-7.35138380638276
30
0
41
1
10
79.5229510871462
20
-7.36014684398444
30
0
41
1
10
79.5197443444473
20
-7.37371494124406
30
0
41
1
10
79.5203964193229
20
-7.37850012587873
30
0
41
1
10
79.5254777593788
20
-7.38122211238451
30
0
41
1
10
79.5278883759314
20
-7.38139890581382
30
0
41
1
10
79.5338383866355
20
-7.38027523716585
30
0
41
1
10
79.5373848683436
20
-7.37899995110041
30
0
41
1
10
79.545559270928
20
-7.37510245091323
30
0
41
1
10
79.5501882859263
20
-7.37246787434364
30
0
41
1
10
79.559992242756
20
-7.36623294202704
30
0
41
1
10
79.5652186566671
20
-7.36260933302262
30
0
41
1
10
79.5817540202294
20
-7.35040668963256
30
0
41
1
10
79.5934479686377
20
-7.34085839684005
30
0
41
1
10
79.6055
20
-7.33040036281017
30
0
0
SPLINE
5
150
100
AcDbEntity
8
1
62
256
6
ByLayer
370
18
48
1
60
0
100
AcDbSpline
70
4
71
3
72
14
73
10
40
0
40
0
40
0
40
0
40
0.25
40
0.25
40
0.5
40
0.5
40
0.75
40
0.75
40
1
40
1
40
1
40
1
41
1
10
80.2495
20
26.7329620912908
30
0
41
1
10
80.2595754747045
20
26.724729678792
30
0
41
1
10
80.2696634917799
20
26.7176576935563
30
0
41
1
10
80.2887340686952
20
26.7077835490403
30
0
41
1
10
80.2976723684017
20
26.7051360238348
30
0
41
1
10
80.31177716259
20
26.7060335303123
30
0
41
1
10
80.3169055323747
20
26.7095373596982
30
0
41
1
10
80.3231989538685
20
26.7205854056194
30
0
41
1
10
80.3245000000012
20
26.728127808386
30
0
41
1
10
80.3245000000012
20
26.7365834598278
30
0
0
SPLINE
5
151
100
AcDbEntity
8
1
62
256
6
ByLayer
370
18
48
1
60
0
100
AcDbSpline
70
4
71
3
72
12
73
8
40
0
40
0
40
0
40
0
40
0.499999999999999
40
0.499999999999999
40
0.75
40
0.75
40
1
40
1
40
1
40
1
41
1
10
80.2495
20
6.92825410213854
30
0
41
1
10
80.2734498749667
20
7.08419348761149
30
0
41
1
10
80.2910679373763
20
7.24021037292238
30
0
41
1
10
80.310080956516
20
7.47441889882285
30
0
41
1
10
80.3151331006438
20
7.55251762558078
30
0
41
1
10
80.3223201941462
20
7.70876755337969
30
0
41
1
10
80.3245
20
7.78676184247195
30
0
41
1
10
80.3245
20
7.86448444176381
30
0
0
SPLINE
5
152
100
AcDbEntity
8
1
62
256
6
ByLayer
370
18
48
1
60
0
100
AcDbSpline
70
4
71
3
72
22
73
18
40
0
40
0
40
0
40
0
40
0.250000000000004
40
0.250000000000004
40
0.375000000000005
40
0.375000000000005
40
0.500000000000006
40
0.500000000000006
40
0.625000000000007
40
0.625000000000007
40
0.750000000000008
40
0.750000000000008
40
0.812500000000007
40
0.812500000000007
40
0.875000000000007
40
0.875000000000007
40
1
40
1
40
1
40
1
41
1
10
10.1056624327026
20
-9.86941261896615
30
0
41
1
10
10.1212498345488
20
-9.81243201498802
30
0
41
1
10
10.1399018475136
20
-9.75655023082965
30
0
41
1
10
10.1740902691451
20
-9.67499387250783
30
0
41
1
10
10.1865318440058
20
-9.64819007031196
30
0
41
1
10
10.2140339430554
20
-9.59554701961159
30
0
41
1
10
10.2291686648069
20
-9.56958483867112
30
0
41
1
10
10.2625095528537
20
-9.5196329453612
30
0
41
1
10
10.2806617049328
20
-9.49566900868382
30
0
41
1
10
10.3210597058744
20
-9.45055053780223
30
0
41
1
10
10.3431560434001
20
-9.42959825985622
30
0
41
1
10
10.3794828926306
20
-9.40232505361246
30
0
41
1
10
10.392156025832
20
-9.39389972204376
30
0
41
1
10
10.4189050579785
20
-9.37870617320448
30
0
41
1
10
10.4329857409659
20
-9.37196693550717
30
0
41
1
10
10.4761894743047
20
-9.35548920253848
30
0
41
1
10
10.5072412025891
20
-9.34922131452504
30
0
41
1
10
10.5386751345948
20
-9.34922131452501
30
0
0
SPLINE
5
153
100
AcDbEntity
8
1
62
256
6
ByLayer
370
18
48
1
60
0
100
AcDbSpline
70
4
71
3
72
12
73
8
40
0
40
0
40
0
40
0
40
0.5
40
0.5
40
0.75
40
0.75
40
1
40
1
40
1
40
1
41
1
10
80.2495
20
-5.80753177916031
30
0
41
1
10
80.269569104578
20
-5.78004467183931
30
0
41
1
10
80.2870379816785
20
-5.75338922779704
30
0
41
1
10
80.3077415968534
20
-5.71537831210608
30
0
41
1
10
80.3134913399265
20
-5.70342166398154
30
0
41
1
10
80.3218980936491
20
-5.68142398664253
30
0
41
1
10
80.3245000000031
20
-5.67143233126953
30
0
41
1
10
80.3245000000033
20
-5.66376267396035
30
0
0
SPLINE
5
154
100
AcDbEntity
8
1
62
256
6
ByLayer
370
18
48
1
60
0
100
AcDbSpline
70
4
71
3
72
22
73
18
40
0
40
0
40
0
40
0
40
0.125000000000023
40
0.125000000000023
40
0.250000000000046
40
0.250000000000046
40
0.312500000000052
40
0.312500000000052
40
0.375000000000057
40
0.375000000000057
40
0.500000000000046
40
0.500000000000046
40
0.625000000000034
40
0.625000000000034
40
0.750000000000023
40
0.750000000000023
40
1
40
1
40
1
40
1
41
1
10
79.6055
20
29.1200829661946
30
0
41
1
10
79.5925334988623
20
29.1308327834681
30
0
41
1
10
79.5797531930942
20
29.1402864467316
30
0
41
1
10
79.5562544517051
20
29.154302916153
30
0
41
1
10
79.5454908274749
20
29.1587687434616
30
0
41
1
10
79.5334892269528
20
29.1596867674203
30
0
41
1
10
79.530205563054
20
29.1590766548954
30
0
41
1
10
79.5250177333854
20
29.1560886458349
30
0
41
1
10
79.5231561197148
20
29.153697451913
30
0
41
1
10
79.519717166478
20
29.1445192588561
30
0
41
1
10
79.5201814178571
20
29.1355833444457
30
0
41
1
10
79.5247925885223
20
29.1150938819369
30
0
41
1
10
79.528964218601
20
29.1033152733689
30
0
41
1
10
79.5395772269019
20
29.0786246428309
30
0
41
1
10
79.546127538049
20
29.0654512705205
30
0
41
1
10
79.5681084752691
20
29.0251641327109
30
0
41
1
10
79.5856544550338
20
28.9974380464925
30
0
41
1
10
79.6055
20
28.9690368442115
30
0
0
SPLINE
5
155
100
AcDbEntity
8
1
62
256
6
ByLayer
370
18
48
1
60
0
100
AcDbSpline
70
4
71
3
72
8
73
4
40
0
40
0
40
0
40
0
40
1
40
1
40
1
40
1
41
1
10
79.6055000000001
20
19.2147398224982
30
0
41
1
10
79.8697062205963
20
18.1806088261539
30
0
41
1
10
80.0864300612877
20
17.1335061812587
30
0
41
1
10
80.2495000000003
20
16.0717458978616
30
0
0
SPLINE
5
156
100
AcDbEntity
8
1
62
256
6
ByLayer
370
18
48
1
60
0
100
AcDbSpline
70
4
71
3
72
20
73
16
40
0
40
0
40
0
40
0
40
0.25000000000002
40
0.25000000000002
40
0.375000000000017
40
0.375000000000017
40
0.500000000000014
40
0.500000000000014
40
0.62500000000001
40
0.62500000000001
40
0.750000000000007
40
0.750000000000007
40
0.875000000000003
40
0.875000000000003
40
1
40
1
40
1
40
1
41
1
10
80.3245000000103
20
1.0241252942142
30
0
41
1
10
80.3245000000108
20
1.03775193148744
30
0
41
1
10
80.3237200066662
20
1.05104816881453
30
0
41
1
10
80.3205608214897
20
1.06944545925214
30
0
41
1
10
80.3191774382013
20
1.0752953462389
30
0
41
1
10
80.3154601805354
20
1.08617807923349
30
0
41
1
10
80.3130942942823
20
1.09125963941975
30
0
41
1
10
80.3071073011926
20
1.09968306659343
30
0
41
1
10
80.3033938502503
20
1.10311526077996
30
0
41
1
10
80.294518318095
20
1.10709408341364
30
0
41
1
10
80.2892737818144
20
1.10760190919419
30
0
41
1
10
80.2781480202122
20
1.10535813984785
30
0
41
1
10
80.2722402591585
20
1.10264586316359
30
0
41
1
10
80.2607361074498
20
1.09528005650662
30
0
41
1
10
80.2549952414778
20
1.0905685278201
30
0
41
1
10
80.2494999999997
20
1.08537206124535
30
0
0
SPLINE
5
157
100
AcDbEntity
8
1
62
256
6
ByLayer
370
18
48
1
60
0
100
AcDbSpline
70
4
71
3
72
14
73
10
40
0
40
0
40
0
40
0
40
0.25
40
0.25
40
0.5
40
0.5
40
0.75
40
0.75
40
1
40
1
40
1
40
1
41
1
10
80.3245
20
-6.22182271114355
30
0
41
1
10
80.3245
20
-6.21676368279179
30
0
41
1
10
80.3227493810509
20
-6.21332644699513
30
0
41
1
10
80.3152458304778
20
-6.21089838561963
30
0
41
1
10
80.3096041240067
20
-6.2119307814348
30
0
41
1
10
80.2953158700719
20
-6.21813617449541
30
0
41
1
10
80.2869391226995
20
-6.22316339137086
30
0
41
1
10
80.2687589075684
20
-6.2359097762675
30
0
41
1
10
80.2592455734683
20
-6.24341077501916
30
0
41
1
10
80.2495
20
-6.25167014809276
30
0
0
SPLINE
5
158
100
AcDbEntity
8
1
62
256
6
ByLayer
370
18
48
1
60
0
100
AcDbSpline
70
4
71
3
72
14
73
10
40
0
40
0
40
0
40
0
40
0.25
40
0.25
40
0.5
40
0.5
40
0.75
40
0.75
40
1
40
1
40
1
40
1
41
1
10
80.2495
20
-5.0300799335829
30
0
41
1
10
80.2595755187232
20
-5.01510337274502
30
0
41
1
10
80.2689399471698
20
-5.00028213773103
30
0
41
1
10
80.2861613172573
20
-4.97096319213833
30
0
41
1
10
80.294078365003
20
-4.95635044895781
30
0
41
1
10
80.3077457705477
20
-4.92808583423721
30
0
41
1
10
80.3134679634117
20
-4.91454149086701
30
0
41
1
10
80.3218707399949
20
-4.88906242721706
30
0
41
1
10
80.3245000000085
20
-4.87721853651041
30
0
41
1
10
80.3245000000091
20
-4.86758760539206
30
0
0
SPLINE
5
159
100
AcDbEntity
8
1
62
256
6
ByLayer
370
18
48
1
60
0
100
AcDbSpline
70
4
71
3
72
29
73
25
40
0
40
0
40
0
40
0
40
0.249999999999966
40
0.249999999999966
40
0.499999999999933
40
0.62499999999991
40
0.62499999999991
40
0.749999999999886
40
0.749999999999886
40
0.812499999999874
40
0.812499999999874
40
0.843749999999875
40
0.843749999999875
40
0.859374999999888
40
0.859374999999888
40
0.874999999999901
40
0.874999999999901
40
0.890624999999914
40
0.890624999999914
40
0.906249999999927
40
0.906249999999927
40
0.937499999999955
40
0.937499999999955
40
1
40
1
40
1
40
1
41
1
10
80.3245000000001
20
9.1256367028482
30
0
41
1
10
80.3245000000001
20
9.18059358944862
30
0
41
1
10
80.3240323999323
20
9.23550368542357
30
0
41
1
10
80.321844723872
20
9.34517458638393
30
0
41
1
10
80.319316428687
20
9.42732487817216
30
0
41
1
10
80.3143104212239
20
9.50911972658747
30
0
41
1
10
80.3099789692881
20
9.56349287188081
30
0
41
1
10
80.3074068235438
20
9.59060039460698
30
0
41
1
10
80.3015807534019
20
9.63051590493862
30
0
41
1
10
80.2993630930082
20
9.64374448479805
30
0
41
1
10
80.294437082563
20
9.66293146340294
30
0
41
1
10
80.2925937216098
20
9.66917506541105
30
0
41
1
10
80.2885431714969
20
9.67756141367087
30
0
41
1
10
80.2869632734355
20
9.68022595179244
30
0
41
1
10
80.2828407766149
20
9.68377723418817
30
0
41
1
10
80.2801531501684
20
9.68420096454776
30
0
41
1
10
80.2754571598492
20
9.68152034701646
30
0
41
1
10
80.2734636569784
20
9.67895514407041
30
0
41
1
10
80.2700739002268
20
9.67356961353707
30
0
41
1
10
80.2686013610436
20
9.67059765945143
30
0
41
1
10
80.2645355434312
20
9.66142498399765
30
0
41
1
10
80.2622853935207
20
9.65495493341646
30
0
41
1
10
80.2560686746893
20
9.63530473573783
30
0
41
1
10
80.2526604819255
20
9.62181384003514
30
0
41
1
10
80.2495000000001
20
9.60825412522908
30
0
0
SPLINE
5
15A
100
AcDbEntity
8
1
62
256
6
ByLayer
370
18
48
1
60
0
100
AcDbSpline
70
4
71
3
72
14
73
10
40
0
40
0
40
0
40
0
40
0.25
40
0.25
40
0.5
40
0.5
40
0.75
40
0.75
40
1
40
1
40
1
40
1
41
1
10
80.2495000000009
20
30.5497595350347
30
0
41
1
10
80.2592507620438
20
30.5402857484307
30
0
41
1
10
80.2685315644711
20
30.5313407515936
30
0
41
1
10
80.2859568314169
20
30.5147203145367
30
0
41
1
10
80.2941812361887
20
30.506972118358
30
0
41
1
10
80.308177764175
20
30.4940407991515
30
0
41
1
10
80.314130113209
20
30.4886933373445
30
0
41
1
10
80.3222743165323
20
30.4818216055315
30
0
41
1
10
80.3245
20
30.4802755671428
30
0
41
1
10
80.3245
20
30.4809298975149
30
0
0
SPLINE
5
15B
100
AcDbEntity
8
1
62
256
6
ByLayer
370
18
48
1
60
0
100
AcDbSpline
70
4
71
3
72
26
73
22
40
0
40
0
40
0
40
0
40
0.125000000000005
40
0.125000000000005
40
0.250000000000011
40
0.250000000000011
40
0.375000000000016
40
0.375000000000016
40
0.500000000000021
40
0.500000000000021
40
0.625000000000027
40
0.625000000000027
40
0.68750000000003
40
0.68750000000003
40
0.750000000000033
40
0.750000000000033
40
0.812500000000037
40
0.812500000000037
40
0.87500000000004
40
0.87500000000004
40
1
40
1
40
1
40
1
41
1
10
79.6055
20
-4.03331588401392
30
0
41
1
10
79.5958918484872
20
-4.04985112097327
30
0
41
1
10
79.5868679239032
20
-4.06633158933232
30
0
41
1
10
79.5700189601487
20
-4.09917637377146
30
0
41
1
10
79.5621623485242
20
-4.11561649899906
30
0
41
1
10
79.5480821720497
20
-4.14777656953513
30
0
41
1
10
79.5418265485992
20
-4.16354020377597
30
0
41
1
10
79.531248218515
20
-4.19428824600496
30
0
41
1
10
79.526880540947
20
-4.2094347697568
30
0
41
1
10
79.5211849625344
20
-4.23765536417926
30
0
41
1
10
79.5197883614776
20
-4.25088666467894
30
0
41
1
10
79.5213761954244
20
-4.26776765809365
30
0
41
1
10
79.5225190456038
20
-4.27280141497209
30
0
41
1
10
79.5264023723426
20
-4.28132977144736
30
0
41
1
10
79.5291736513424
20
-4.28479365708117
30
0
41
1
10
79.5364537580244
20
-4.28933100679299
30
0
41
1
10
79.541055609124
20
-4.29042053023187
30
0
41
1
10
79.5515714596233
20
-4.28994790271219
30
0
41
1
10
79.557659690864
20
-4.28838503057452
30
0
41
1
10
79.5769898352368
20
-4.28037076132622
30
0
41
1
10
79.5913559887425
20
-4.27070176059095
30
0
41
1
10
79.6055
20
-4.25914558748187
30
0
0
SPLINE
5
15C
100
AcDbEntity
8
1
62
256
6
ByLayer
370
18
48
1
60
0
100
AcDbSpline
70
4
71
3
72
8
73
4
40
0
40
0
40
0
40
0
40
1
40
1
40
1
40
1
41
1
10
79.6055
20
-6.79687543761639
30
0
41
1
10
79.8202447540081
20
-6.61526338815997
30
0
41
1
10
80.0349138148107
20
-6.43353193033676
30
0
41
1
10
80.2495
20
-6.25167014809279
30
0
0
SPLINE
5
15D
100
AcDbEntity
8
1
62
256
6
ByLayer
370
18
48
1
60
0
100
AcDbSpline
70
4
71
3
72
12
73
8
40
0
40
0
40
0
40
0
40
0.249999999999991
40
0.249999999999991
40
0.499999999999981
40
0.499999999999981
40
1
40
1
40
1
40
1
41
1
10
80.3245
20
24.1809876861899
30
0
41
1
10
80.3245
20
24.1997071452707
30
0
41
1
10
80.3218553248734
20
24.2197949147461
30
0
41
1
10
80.3135999420662
20
24.2614838723725
30
0
41
1
10
80.3078812973899
20
24.28314743734
30
0
41
1
10
80.2877834430177
20
24.3478323650263
30
0
41
1
10
80.2704170019078
20
24.3913749481954
30
0
41
1
10
80.2495000000001
20
24.4353083296312
30
0
0
SPLINE
5
15E
100
AcDbEntity
8
1
62
256
6
ByLayer
370
18
48
1
60
0
100
AcDbSpline
70
4
71
3
72
20
73
16
40
0
40
0
40
0
40
0
40
0.249999999999974
40
0.249999999999974
40
0.499999999999948
40
0.499999999999948
40
0.624999999999944
40
0.624999999999944
40
0.74999999999994
40
0.74999999999994
40
0.812499999999942
40
0.812499999999942
40
0.874999999999944
40
0.874999999999944
40
1
40
1
40
1
40
1
41
1
10
79.6055
20
-2.73348971252761
30
0
41
1
10
79.58665178262
20
-2.77003573343365
30
0
41
1
10
79.5700039298075
20
-2.80671329751289
30
0
41
1
10
79.5423540195795
20
-2.8786299644915
30
0
41
1
10
79.5312606202711
20
-2.91370522734994
30
0
41
1
10
79.5219459700353
20
-2.96343563837198
30
0
41
1
10
79.520163421698
20
-2.97912909962162
30
0
41
1
10
79.520937540741
20
-3.0076437025055
30
0
41
1
10
79.5235318896775
20
-3.02041336831107
30
0
41
1
10
79.5333610563208
20
-3.03294778043079
30
0
41
1
10
79.53766255767
20
-3.03593419765926
30
0
41
1
10
79.548184540343
20
-3.038597526839
30
0
41
1
10
79.5543955213244
20
-3.03827832524206
30
0
41
1
10
79.5749730316655
20
-3.0324844686063
30
0
41
1
10
79.5904547654825
20
-3.02252999056463
30
0
41
1
10
79.6055
20
-3.01007727765034
30
0
0
SPLINE
5
15F
100
AcDbEntity
8
1
62
256
6
ByLayer
370
18
48
1
60
0
100
AcDbSpline
70
4
71
3
72
8
73
4
40
0
40
0
40
0
40
0
40
1
40
1
40
1
40
1
41
1
10
80.2495
20
-6.9028498781752
30
0
41
1
10
80.036011628907
20
-7.15775197847643
30
0
41
1
10
79.8213104962892
20
-7.41128516133492
30
0
41
1
10
79.6055
20
-7.66356613817504
30
0
0
SPLINE
5
160
100
AcDbEntity
8
1
62
256
6
ByLayer
370
18
48
1
60
0
100
AcDbSpline
70
4
71
3
72
8
73
4
40
0
40
0
40
0
40
0
40
1
40
1
40
1
40
1
41
1
10
80.2495
20
30.5497595350354
30
0
41
1
10
80.0352478964824
20
30.7579256967411
30
0
41
1
10
79.8205696375729
20
30.9655042942751
30
0
41
1
10
79.6055
20
31.17254327625
30
0
0
SPLINE
5
161
100
AcDbEntity
8
1
62
256
6
ByLayer
370
18
48
1
60
0
100
AcDbSpline
70
4
71
3
72
8
73
4
40
0
40
0
40
0
40
0
40
1
40
1
40
1
40
1
41
1
10
80.2495
20
27.755338212375
30
0
41
1
10
80.0348401170212
20
27.9311362953957
30
0
41
1
10
79.8201732371937
20
28.1069229874504
30
0
41
1
10
79.6055
20
28.2826993267326
30
0
0
SPLINE
5
162
100
AcDbEntity
8
1
62
256
6
ByLayer
370
18
48
1
60
0
100
AcDbSpline
70
4
71
3
72
14
73
10
40
0
40
0
40
0
40
0
40
0.25
40
0.25
40
0.5
40
0.5
40
0.75
40
0.75
40
1
40
1
40
1
40
1
41
1
10
80.2495
20
29.2516701480928
30
0
41
1
10
80.2592472411427
20
29.2434093616652
30
0
41
1
10
80.2687842391549
20
29.2358911180699
30
0
41
1
10
80.2869426760122
20
29.2231617994199
30
0
41
1
10
80.2954011977379
20
29.2180938406677
30
0
41
1
10
80.3096003699559
20
29.2119377182011
30
0
41
1
10
80.3153326448495
20
29.2109091615286
30
0
41
1
10
80.3227326686985
20
29.2133385198427
30
0
41
1
10
80.3245000000001
20
29.2167960692811
30
0
41
1
10
80.3245
20
29.2218227111435
30
0
0
SPLINE
5
163
100
AcDbEntity
8
1
62
256
6
ByLayer
370
18
48
1
60
0
100
AcDbSpline
70
4
71
3
72
8
73
4
40
0
40
0
40
0
40
0
40
1
40
1
40
1
40
1
41
1
10
79.6055
20
3.12638898257384
30
0
41
1
10
79.8225293003015
20
3.3703236016766
30
0
41
1
10
80.0373665452931
20
3.61680169674921
30
0
41
1
10
80.2495
20
3.86641704186562
30
0
0
SPLINE
5
164
100
AcDbEntity
8
1
62
256
6
ByLayer
370
18
48
1
60
0
100
AcDbSpline
70
4
71
3
72
22
73
18
40
0
40
0
40
0
40
0
40
0.249999999999964
40
0.249999999999964
40
0.499999999999929
40
0.499999999999929
40
0.624999999999917
40
0.624999999999917
40
0.687499999999916
40
0.687499999999916
40
0.749999999999915
40
0.749999999999915
40
0.874999999999954
40
0.874999999999954
40
0.937499999999977
40
0.937499999999977
40
1
40
1
40
1
40
1
41
1
10
79.6055
20
-5.9690368442115
30
0
41
1
10
79.5855915537272
20
-5.99752806532211
30
0
41
1
10
79.56769567603
20
-6.02586355086004
30
0
41
1
10
79.5386672707896
20
-6.07918286283316
30
0
41
1
10
79.5270549522047
20
-6.10492376221544
30
0
41
1
10
79.5201581473621
20
-6.13574603904058
30
0
41
1
10
79.5196999481555
20
-6.14456592728143
30
0
41
1
10
79.5232122879929
20
-6.15380009585837
30
0
41
1
10
79.5250723321223
20
-6.15614042199283
30
0
41
1
10
79.5302755446604
20
-6.15909613896906
30
0
41
1
10
79.533673850252
20
-6.15969620129988
30
0
41
1
10
79.5456268441332
20
-6.15870969770654
30
0
41
1
10
79.5563272950883
20
-6.15426513223795
30
0
41
1
10
79.5739236789625
20
-6.14376076796089
30
0
41
1
10
79.5801432038352
20
-6.13958111739967
30
0
41
1
10
79.5926860165345
20
-6.13042545548603
30
0
41
1
10
79.599053312079
20
-6.12542756273888
30
0
41
1
10
79.6055
20
-6.12008296619467
30
0
0
SPLINE
5
165
100
AcDbEntity
8
1
62
256
6
ByLayer
370
18
48
1
60
0
100
AcDbSpline
70
4
71
3
72
10
73
6
40
0
40
0
40
0
40
0
40
0.5
40
0.5
40
1
40
1
40
1
40
1
41
1
10
80.2495
20
13.3917458747739
30
0
41
1
10
80.1728000785054
20
13.7208188091173
30
0
41
1
10
80.078711071859
20
14.041996187711
30
0
41
1
10
79.8621250055218
20
14.6714522003928
30
0
41
1
10
79.7396225398738
20
14.9797283798932
30
0
41
1
10
79.6055000000008
20
15.2827284368685
30
0
0
SPLINE
5
166
100
AcDbEntity
8
1
62
256
6
ByLayer
370
18
48
1
60
0
100
AcDbSpline
70
4
71
3
72
12
73
8
40
0
40
0
40
0
40
0
40
0.500000000000004
40
0.500000000000004
40
0.750000000000002
40
0.750000000000002
40
1
40
1
40
1
40
1
41
1
10
80.2495
20
-7.24758643971691
30
0
41
1
10
80.2690960393408
20
-7.2255245029813
30
0
41
1
10
80.2870555714388
20
-7.20419806167527
30
0
41
1
10
80.3077712526587
20
-7.17692305652264
30
0
41
1
10
80.3137084244209
20
-7.16850268884318
30
0
41
1
10
80.3220552838793
20
-7.15475497873766
30
0
41
1
10
80.3245000000001
20
-7.14934249794735
30
0
41
1
10
80.3245000000001
20
-7.14631932718225
30
0
0
SPLINE
5
167
100
AcDbEntity
8
1
62
256
6
ByLayer
370
18
48
1
60
0
100
AcDbSpline
70
4
71
3
72
12
73
8
40
0
40
0
40
0
40
0
40
0.250000000000002
40
0.250000000000002
40
0.500000000000003
40
0.500000000000003
40
1
40
1
40
1
40
1
41
1
10
80.3245
20
15.1355155582362
30
0
41
1
10
80.3245
20
15.2132532449592
30
0
41
1
10
80.322321213052
20
15.2911336041314
30
0
41
1
10
80.3151576284524
20
15.4470255495375
30
0
41
1
10
80.3101186540553
20
15.5250425553993
30
0
41
1
10
80.2911229373505
20
15.7592597093769
30
0
41
1
10
80.2734535414259
20
15.9157826398055
30
0
41
1
10
80.2495000000001
20
16.0717458978615
30
0
0
SPLINE
5
168
100
AcDbEntity
8
1
62
256
6
ByLayer
370
18
48
1
60
0
100
AcDbSpline
70
4
71
3
72
22
73
18
40
0
40
0
40
0
40
0
40
0.250000000000005
40
0.250000000000005
40
0.375000000000005
40
0.375000000000005
40
0.500000000000005
40
0.500000000000005
40
0.625000000000006
40
0.625000000000006
40
0.750000000000006
40
0.750000000000006
40
0.812500000000005
40
0.812500000000005
40
0.875000000000004
40
0.875000000000004
40
1
40
1
40
1
40
1
41
1
10
13.8943375672973
20
9.86941261896624
30
0
41
1
10
13.8787501654511
20
9.8124320149881
30
0
41
1
10
13.8600981524864
20
9.75655023082976
30
0
41
1
10
13.8259097308548
20
9.67499387250794
30
0
41
1
10
13.8134681559942
20
9.64819007031204
30
0
41
1
10
13.7859660569446
20
9.59554701961167
30
0
41
1
10
13.7708313351931
20
9.5695848386712
30
0
41
1
10
13.7374904471463
20
9.51963294536131
30
0
41
1
10
13.7193382950672
20
9.49566900868393
30
0
41
1
10
13.6789402941256
20
9.45055053780234
30
0
41
1
10
13.6568439565999
20
9.42959825985633
30
0
41
1
10
13.6205171073694
20
9.40232505361257
30
0
41
1
10
13.6078439741679
20
9.39389972204384
30
0
41
1
10
13.5810949420214
20
9.37870617320456
30
0
41
1
10
13.567014259034
20
9.37196693550729
30
0
41
1
10
13.5238105256953
20
9.35548920253859
30
0
41
1
10
13.4927587974109
20
9.3492213145251
30
0
41
1
10
13.4613248654052
20
9.3492213145251
30
0
0
SPLINE
5
169
100
AcDbEntity
8
1
62
256
6
ByLayer
370
18
48
1
60
0
100
AcDbSpline
70
4
71
3
72
16
73
12
40
0
40
0
40
0
40
0
40
0.249999999999984
40
0.249999999999984
40
0.499999999999968
40
0.499999999999968
40
0.625000000000018
40
0.625000000000018
40
0.750000000000067
40
0.750000000000067
40
1
40
1
40
1
40
1
41
1
10
80.3245000000002
20
-2.49465257289472
30
0
41
1
10
80.3245000000003
20
-2.48479393112504
30
0
41
1
10
80.323364700352
20
-2.47572240151141
30
0
41
1
10
80.3176184398475
20
-2.4610733983107
30
0
41
1
10
80.3128322576153
20
-2.45543494674328
30
0
41
1
10
80.3023862346089
20
-2.45211895828456
30
0
41
1
10
80.2984597623733
20
-2.45186273367253
30
0
41
1
10
80.2897035298766
20
-2.45308054565192
30
0
41
1
10
80.2849092874382
20
-2.45457894976238
30
0
41
1
10
80.2702584567929
20
-2.46110600176408
30
0
41
1
10
80.2597292289702
20
-2.46829988505806
30
0
41
1
10
80.2495
20
-2.4767752987124
30
0
0
SPLINE
5
16A
100
AcDbEntity
8
1
62
256
6
ByLayer
370
18
48
1
60
0
100
AcDbSpline
70
4
71
3
72
34
73
30
40
0
40
0
40
0
40
0
40
0.125000000000001
40
0.125000000000001
40
0.250000000000002
40
0.250000000000002
40
0.375000000000003
40
0.375000000000003
40
0.406250000000003
40
0.406250000000003
40
0.437500000000003
40
0.437500000000003
40
0.500000000000002
40
0.500000000000002
40
0.625000000000002
40
0.625000000000002
40
0.750000000000001
40
0.750000000000001
40
0.875000000000001
40
0.875000000000001
40
0.906250000000001
40
0.906250000000001
40
0.937500000000001
40
0.937500000000001
40
0.96875
40
0.984375
40
0.9921875
40
0.9921875
40
1
40
1
40
1
40
1
41
1
10
25.4603619117292
20
25.2717475194927
30
0
41
1
10
25.5050569430269
20
25.7872558373068
30
0
41
1
10
25.5728745849295
20
26.2698765675723
30
0
41
1
10
25.7472164696037
20
27.1723305084436
30
0
41
1
10
25.8537921067083
20
27.5921518703285
30
0
41
1
10
26.1005665900971
20
28.3703464238415
30
0
41
1
10
26.2407925732137
20
28.7287159964522
30
0
41
1
10
26.4346415308706
20
29.1382453044427
30
0
41
1
10
26.4743855969898
20
29.2183068654927
30
0
41
1
10
26.5553721143346
20
29.3739921526323
30
0
41
1
10
26.5966285947742
20
29.4496548098657
30
0
41
1
10
26.7225642507393
20
29.6702022363433
30
0
41
1
10
26.8094080886356
20
29.8086500669343
30
0
41
1
10
27.0776779503415
20
30.1989000540414
30
0
41
1
10
27.2668289725494
20
30.4256584403657
30
0
41
1
10
27.6612981557865
20
30.8145670285148
30
0
41
1
10
27.8666266682946
20
30.9767126692137
30
0
41
1
10
28.2893446704564
20
31.23704658484
30
0
41
1
10
28.5067414665892
20
31.3352361358372
30
0
41
1
10
28.7834896811213
20
31.4174759835897
30
0
41
1
10
28.8390892788705
20
31.4318953386484
30
0
41
1
10
28.9507237435358
20
31.456648304449
30
0
41
1
10
29.0067642931376
20
31.466979681246
30
0
41
1
10
29.1189436335171
20
31.4834939840479
30
0
41
1
10
29.203201923161
20
31.4927809645916
30
0
41
1
10
29.3016298900108
20
31.4981972908193
30
0
41
1
10
29.3438308045285
20
31.4993571311197
30
0
41
1
10
29.3719675650864
20
31.4998722003804
30
0
41
1
10
29.3860529724639
20
31.5
30
0
41
1
10
29.4
20
31.5
30
0
0
SPLINE
5
16B
100
AcDbEntity
8
1
62
256
6
ByLayer
370
18
48
1
60
0
100
AcDbSpline
70
4
71
3
72
8
73
4
40
0
40
0
40
0
40
0
40
1
40
1
40
1
40
1
41
1
10
80.2495
20
19.1335829581344
30
0
41
1
10
80.0373665452931
20
19.3831983032508
30
0
41
1
10
79.8225293003015
20
19.6296763983234
30
0
41
1
10
79.6055
20
19.8736110174262
30
0
0
SPLINE
5
16C
100
AcDbEntity
8
1
62
256
6
ByLayer
370
18
48
1
60
0
100
AcDbSpline
70
4
71
3
72
22
73
18
40
0
40
0
40
0
40
0
40
0.25000000000009
40
0.25000000000009
40
0.312500000000093
40
0.312500000000093
40
0.375000000000096
40
0.375000000000096
40
0.500000000000077
40
0.500000000000077
40
0.625000000000058
40
0.625000000000058
40
0.750000000000038
40
0.750000000000038
40
0.875000000000019
40
0.875000000000019
40
1
40
1
40
1
40
1
41
1
10
79.6055
20
31.0115512430934
30
0
41
1
10
79.582537997433
20
31.0328190622729
30
0
41
1
10
79.5607535476664
20
31.0519654120075
30
0
41
1
10
79.5404048884699
20
31.0674556705879
30
0
41
1
10
79.5367592237662
20
31.0700669054193
30
0
41
1
10
79.5304144574532
20
31.074200409037
30
0
41
1
10
79.5277190447527
20
31.0757123360829
30
0
41
1
10
79.521544858164
20
31.0782568081098
30
0
41
1
10
79.5198761092045
20
31.0773008110934
30
0
41
1
10
79.521565633523
20
31.0705019246575
30
0
41
1
10
79.5248695785995
20
31.0646759138372
30
0
41
1
10
79.5348644937965
20
31.0500522686143
30
0
41
1
10
79.5416097334609
20
31.0411548521571
30
0
41
1
10
79.5570551246182
20
31.021869396227
30
0
41
1
10
79.5659412283818
20
31.0112472832549
30
0
41
1
10
79.5848489615514
20
30.9893103171526
30
0
41
1
10
79.5949114395793
20
30.9779400570609
30
0
41
1
10
79.6055
20
30.9662256251216
30
0
0
SPLINE
5
16D
100
AcDbEntity
8
1
62
256
6
ByLayer
370
18
48
1
60
0
100
AcDbSpline
70
4
71
3
72
8
73
4
40
0
40
0
40
0
40
0
40
1
40
1
40
1
40
1
41
1
10
80.2495
20
21.9146279387559
30
0
41
1
10
80.035436607666
20
22.1170527580397
30
0
41
1
10
79.8207399691693
20
22.3185783823277
30
0
41
1
10
79.6055
20
22.519332489549
30
0
0
SPLINE
5
16E
100
AcDbEntity
8
1
62
256
6
ByLayer
370
18
48
1
60
0
100
AcDbSpline
70
4
71
3
72
8
73
4
40
0
40
0
40
0
40
0
40
1
40
1
40
1
40
1
41
1
10
80.2495
20
-6.42645447272406
30
0
41
1
10
80.036344592726
20
-6.69801999406857
30
0
41
1
10
79.821632798019
20
-6.96793539229
30
0
41
1
10
79.6055
20
-7.23634420521461
30
0
0
SPLINE
5
16F
100
AcDbEntity
8
1
62
256
6
ByLayer
370
18
48
1
60
0
100
AcDbSpline
70
4
71
3
72
8
73
4
40
0
40
0
40
0
40
0
40
1
40
1
40
1
40
1
41
1
10
79.6055
20
30.6635661381751
30
0
41
1
10
79.8213104962892
20
30.4112851613349
30
0
41
1
10
80.036011628907
20
30.1577519784765
30
0
41
1
10
80.2495
20
29.9028498781752
30
0
0
SPLINE
5
170
100
AcDbEntity
8
1
62
256
6
ByLayer
370
18
48
1
60
0
100
AcDbSpline
70
4
71
3
72
8
73
4
40
0
40
0
40
0
40
0
40
1
40
1
40
1
40
1
41
1
10
79.6055
20
-6.12008296619459
30
0
41
1
10
79.8202009468255
20
-5.9420861479081
30
0
41
1
10
80.0348686848346
20
-5.76403590614652
30
0
41
1
10
80.2495
20
-5.58592715431894
30
0
0
SPLINE
5
171
100
AcDbEntity
8
1
62
256
6
ByLayer
370
18
48
1
60
0
100
AcDbSpline
70
4
71
3
72
8
73
4
40
0
40
0
40
0
40
0
40
1
40
1
40
1
40
1
41
1
10
80.2495
20
29.7705960321683
30
0
41
1
10
80.0349733553288
20
29.9574120577276
30
0
41
1
10
79.8203025465448
20
30.1440075237985
30
0
41
1
10
79.6055
20
30.3304003628101
30
0
0
SPLINE
5
172
100
AcDbEntity
8
1
62
256
6
ByLayer
370
18
48
1
60
0
100
AcDbSpline
70
4
71
3
72
8
73
4
40
0
40
0
40
0
40
0
40
1
40
1
40
1
40
1
41
1
10
80.2495000000003
20
6.92825410213845
30
0
41
1
10
80.0864300612877
20
5.8664938187413
30
0
41
1
10
79.8697062205963
20
4.8193911738461
30
0
41
1
10
79.6055000000001
20
3.78526017750181
30
0
0
SPLINE
5
173
100
AcDbEntity
8
1
62
256
6
ByLayer
370
18
48
1
60
0
100
AcDbSpline
70
4
71
3
72
14
73
10
40
0
40
0
40
0
40
0
40
0.249137036088393
40
0.249137036088393
40
0.499424690725596
40
0.499424690725596
40
0.749712345362798
40
0.749712345362798
40
1
40
1
40
1
40
1
41
1
10
79.520501007097
20
31.3039989842348
30
0
41
1
10
79.5205591996423
20
31.3039402888415
30
0
41
1
10
79.5231782053089
20
31.3012984444787
30
0
41
1
10
79.5325099783761
20
31.2918899641521
30
0
41
1
10
79.5392844828076
20
31.2850614653389
30
0
41
1
10
79.5551493578736
20
31.2690814809519
30
0
41
1
10
79.5644347870153
20
31.2597336572633
30
0
41
1
10
79.5840916007173
20
31.2399607665405
30
0
41
1
10
79.5945385189195
20
31.229459433587
30
0
41
1
10
79.6055
20
31.2184503955052
30
0
0
SPLINE
5
174
100
AcDbEntity
8
1
62
256
6
ByLayer
370
18
48
1
60
0
100
AcDbSpline
70
4
71
3
72
12
73
8
40
0
40
0
40
0
40
0
40
0.250000000000014
40
0.250000000000014
40
0.500000000000028
40
0.500000000000028
40
1
40
1
40
1
40
1
41
1
10
80.3245000000034
20
26.8850933995421
30
0
41
1
10
80.3245000000031
20
26.8970787264872
30
0
41
1
10
80.3218148236824
20
26.9112191757296
30
0
41
1
10
80.3134329178871
20
26.940781483875
30
0
41
1
10
80.307644159211
20
26.9564966194783
30
0
41
1
10
80.2872039700729
20
27.0044683083614
30
0
41
1
10
80.2698428653545
20
27.0371366987856
30
0
41
1
10
80.2495
20
27.0703702247132
30
0
0
SPLINE
5
175
100
AcDbEntity
8
1
62
256
6
ByLayer
370
18
48
1
60
0
100
AcDbSpline
70
4
71
3
72
22
73
18
40
0
40
0
40
0
40
0
40
0.125
40
0.125
40
0.25
40
0.25
40
0.375
40
0.375
40
0.5
40
0.5
40
0.625
40
0.625
40
0.75
40
0.75
40
0.875
40
0.875
40
1
40
1
40
1
40
1
41
1
10
79.6055
20
30.732584456276
30
0
41
1
10
79.5937391002438
20
30.7431060346604
30
0
41
1
10
79.5822425516907
20
30.7529637034773
30
0
41
1
10
79.561004489412
20
30.7700210168543
30
0
41
1
10
79.551171313917
20
30.7772898909988
30
0
41
1
10
79.5348594546792
20
30.787508216025
30
0
41
1
10
79.5284482392082
20
30.7903652507063
30
0
41
1
10
79.5209227239677
20
30.7903897893652
30
0
41
1
10
79.5197485987882
20
30.7875543836234
30
0
41
1
10
79.5222241743892
20
30.777369159435
30
0
41
1
10
79.5257825078704
20
30.7700835318898
30
0
41
1
10
79.5360083026821
20
30.7529765435597
30
0
41
1
10
79.542700715944
20
30.7431003754386
30
0
41
1
10
79.5579277503396
20
30.7221399537162
30
0
41
1
10
79.566628668
20
30.7108285302577
30
0
41
1
10
79.5851924552514
20
30.6876523821414
30
0
41
1
10
79.595079721552
20
30.6757473715766
30
0
41
1
10
79.6055
20
30.6635661381751
30
0
0
SPLINE
5
176
100
AcDbEntity
8
1
62
256
6
ByLayer
370
18
48
1
60
0
100
AcDbSpline
70
4
71
3
72
24
73
20
40
0
40
0
40
0
40
0
40
0.0625000000000423
40
0.0625000000000423
40
0.0937500000000359
40
0.0937500000000359
40
0.125000000000029
40
0.125000000000029
40
0.187500000000017
40
0.187500000000017
40
0.250000000000004
40
0.250000000000004
40
0.374999999999998
40
0.374999999999998
40
0.499999999999992
40
0.499999999999992
40
0.749999999999996
40
0.749999999999996
40
1
40
1
40
1
40
1
41
1
10
79.6055000000005
20
22.5193324895507
30
0
41
1
10
79.5963514999414
20
22.5278652865442
30
0
41
1
10
79.5866876697863
20
22.5351999066992
30
0
41
1
10
79.5723330899366
20
22.5418200062381
30
0
41
1
10
79.5675547787909
20
22.5432723168304
30
0
41
1
10
79.5586414963532
20
22.544250853382
30
0
41
1
10
79.5543655001453
20
22.5437754546188
30
0
41
1
10
79.5430939816221
20
22.5397104876867
30
0
41
1
10
79.5373469222962
20
22.5335113934086
30
0
41
1
10
79.5289338815004
20
22.51793447613
30
0
41
1
10
79.5261574723945
20
22.5085824314793
30
0
41
1
10
79.5204500881332
20
22.4788847800534
30
0
41
1
10
79.5199364302341
20
22.4563668452074
30
0
41
1
10
79.5218901242229
20
22.4105914997113
30
0
41
1
10
79.5244417108911
20
22.3869493256597
30
0
41
1
10
79.5351213490498
20
22.3145461173042
30
0
41
1
10
79.5459598179365
20
22.2658633474735
30
0
41
1
10
79.5721839896752
20
22.1679632963495
30
0
41
1
10
79.5876647221102
20
22.1187362951508
30
0
41
1
10
79.6054999999999
20
22.0692423325785
30
0
0
SPLINE
5
177
100
AcDbEntity
8
1
62
256
6
ByLayer
370
18
48
1
60
0
100
AcDbSpline
70
4
71
3
72
22
73
18
40
0
40
0
40
0
40
0
40
0.250000000000027
40
0.250000000000027
40
0.375000000000022
40
0.375000000000022
40
0.500000000000017
40
0.500000000000017
40
0.625000000000012
40
0.625000000000012
40
0.750000000000007
40
0.750000000000007
40
0.812500000000005
40
0.812500000000005
40
0.875000000000003
40
0.875000000000003
40
1
40
1
40
1
40
1
41
1
10
79.6055
20
-6.67577842130424
30
0
41
1
10
79.5852735552583
20
-6.70263546011836
30
0
41
1
10
79.5669564518919
20
-6.72922294002424
30
0
41
1
10
79.5448335316356
20
-6.76606788440651
30
0
41
1
10
79.5382665741827
20
-6.77799812662093
30
0
41
1
10
79.5277428289439
20
-6.80009810825527
30
0
41
1
10
79.5238239716692
20
-6.8101313539303
30
0
41
1
10
79.5198638916738
20
-6.82726622683643
30
0
41
1
10
79.519984207007
20
-6.83405332846945
30
0
41
1
10
79.5257809812265
20
-6.84175221500868
30
0
41
1
10
79.5316010084182
20
-6.84253955784334
30
0
41
1
10
79.5437264553199
20
-6.83889155427826
30
0
41
1
10
79.548412658276
20
-6.83686664309874
30
0
41
1
10
79.5584723291246
20
-6.83155126206574
30
0
41
1
10
79.5638465541738
20
-6.8282779831857
30
0
41
1
10
79.5808532195466
20
-6.81688283584526
30
0
41
1
10
79.593068792019
20
-6.8073886497742
30
0
41
1
10
79.6055
20
-6.79687543761645
30
0
0
SPLINE
5
178
100
AcDbEntity
8
1
62
256
6
ByLayer
370
18
48
1
60
0
100
AcDbSpline
70
4
71
3
72
34
73
30
40
0
40
0
40
0
40
0
40
0.250000000000004
40
0.250000000000004
40
0.500000000000009
40
0.500000000000009
40
0.625000000000011
40
0.625000000000011
40
0.750000000000013
40
0.750000000000013
40
0.812500000000014
40
0.812500000000014
40
0.875000000000015
40
0.875000000000015
40
0.906250000000013
40
0.906250000000013
40
0.937500000000011
40
0.937500000000011
40
0.953125000000011
40
0.953125000000011
40
0.960937500000008
40
0.960937500000008
40
0.968750000000004
40
0.968750000000004
40
0.976562500000001
40
0.976562500000001
40
0.984374999999998
40
0.984374999999998
40
1
40
1
40
1
40
1
41
1
10
79.6055
20
9.81906645791415
30
0
41
1
10
79.5953465332925
20
9.63143837616803
30
0
41
1
10
79.5843708072372
20
9.44397377130005
30
0
41
1
10
79.5624814887404
20
9.06939001159853
30
0
41
1
10
79.5515138517231
20
8.88227015709566
30
0
41
1
10
79.5372027368807
20
8.60187456705896
30
0
41
1
10
79.5327968300852
20
8.50845684572045
30
0
41
1
10
79.5254831497148
20
8.3217260095513
30
0
41
1
10
79.522535167938
20
8.22845418273039
30
0
41
1
10
79.520533676288
20
8.08921089605167
30
0
41
1
10
79.5202747525548
20
8.04289378811944
30
0
41
1
10
79.5211546580904
20
7.95055227188536
30
0
41
1
10
79.522240748443
20
7.9045189635506
30
0
41
1
10
79.5260817286805
20
7.83588487923888
30
0
41
1
10
79.5277367440043
20
7.81306860325748
30
0
41
1
10
79.532408665708
20
7.76814463230215
30
0
41
1
10
79.5353138606984
20
7.74594742126891
30
0
41
1
10
79.5423699927684
20
7.713862517081
30
0
41
1
10
79.5451783656224
20
7.70328742839746
30
0
41
1
10
79.5510156756257
20
7.68899299911774
30
0
41
1
10
79.5532733288921
20
7.68440494418263
30
0
41
1
10
79.5588492493796
20
7.67667862215765
30
0
41
1
10
79.5622569994082
20
7.67348761833816
30
0
41
1
10
79.5703820707258
20
7.67141827895639
30
0
41
1
10
79.5748176023891
20
7.67287080937791
30
0
41
1
10
79.5827092358347
20
7.67875447601082
30
0
41
1
10
79.5861296946894
20
7.68281279194073
30
0
41
1
10
79.5956575801558
20
7.69628407168059
30
0
41
1
10
79.6008116156138
20
7.70667990018327
30
0
41
1
10
79.6055
20
7.71727156313185
30
0
0
SPLINE
5
179
100
AcDbEntity
8
1
62
256
6
ByLayer
370
18
48
1
60
0
100
AcDbSpline
70
4
71
3
72
8
73
4
40
0
40
0
40
0
40
0
40
1
40
1
40
1
40
1
41
1
10
80.2495
20
-7.56793708471542
30
0
41
1
10
80.0353821421022
20
-7.78549927331085
30
0
41
1
10
79.8207000524708
20
-8.00231668552041
30
0
41
1
10
79.6055
20
-8.21845039550522
30
0
0
SPLINE
5
17A
100
AcDbEntity
8
1
62
256
6
ByLayer
370
18
48
1
60
0
100
AcDbSpline
70
4
71
3
72
20
73
16
40
0
40
0
40
0
40
0
40
0.0624999999999974
40
0.0624999999999974
40
0.124999999999995
40
0.124999999999995
40
0.249999999999994
40
0.249999999999994
40
0.374999999999994
40
0.374999999999994
40
0.499999999999994
40
0.499999999999994
40
0.749999999999997
40
0.749999999999997
40
1
40
1
40
1
40
1
41
1
10
13.4613248654051
20
30.0805927603169
30
0
41
1
10
13.4770644463612
20
30.0805927603169
30
0
41
1
10
13.4925182901835
20
30.0801205034908
30
0
41
1
10
13.522904853019
20
30.0783134473998
30
0
41
1
10
13.5379543967302
20
30.0769634801343
30
0
41
1
10
13.5815263070002
20
30.0717959485601
30
0
41
1
10
13.6079581046675
20
30.0669872793661
30
0
41
1
10
13.6571615474719
20
30.055427253592
30
0
41
1
10
13.6790876596515
20
30.048869374708
30
0
41
1
10
13.7192040363286
20
30.0347407881727
30
0
41
1
10
13.7374937976137
20
30.027107286276
30
0
41
1
10
13.7874862877331
20
30.0032932993814
30
0
41
1
10
13.8142652669256
20
29.9863830332716
30
0
41
1
10
13.8599440812238
20
29.9511519005795
30
0
41
1
10
13.8787443055273
20
29.9327613369587
30
0
41
1
10
13.8943375672974
20
29.9139548464691
30
0
0
SPLINE
5
17B
100
AcDbEntity
8
1
62
256
6
ByLayer
370
18
48
1
60
0
100
AcDbSpline
70
4
71
3
72
16
73
12
40
0
40
0
40
0
40
0
40
0.244870256114793
40
0.244870256114793
40
0.489740512229586
40
0.489740512229586
40
0.734610768344379
40
0.734610768344379
40
0.979481024459172
40
0.979481024459172
40
1
40
1
40
1
40
1
41
1
10
79.6055
20
-8.15007921215764
30
0
41
1
10
79.5946454997647
20
-8.16149712010528
30
0
41
1
10
79.5843093311552
20
-8.17249898693368
30
0
41
1
10
79.5650555070299
20
-8.19329715370091
30
0
41
1
10
79.5559904860575
20
-8.2032556166844
30
0
41
1
10
79.5402922665504
20
-8.22094852604585
30
0
41
1
10
79.5335960738648
20
-8.22875119461287
30
0
41
1
10
79.5238589844054
20
-8.24088976579196
30
0
41
1
10
79.5209274233516
20
-8.24511212545741
30
0
41
1
10
79.5205123631196
20
-8.24691035743595
30
0
41
1
10
79.5204985695314
20
-8.24703115009257
30
0
41
1
10
79.520502839793
20
-8.24713385309317
30
0
0
SPLINE
5
17C
100
AcDbEntity
8
1
62
256
6
ByLayer
370
18
48
1
60
0
100
AcDbSpline
70
4
71
3
72
14
73
10
40
0
40
0
40
0
40
0
40
0.137563763852992
40
0.137563763852992
40
0.425042509235328
40
0.425042509235328
40
0.712521254617664
40
0.712521254617664
40
1
40
1
40
1
40
1
41
1
10
79.5220149595514
20
-8.24728407288421
30
0
41
1
10
79.5230805660156
20
-8.24681489936151
30
0
41
1
10
79.5246954568228
20
-8.2457814913067
30
0
41
1
10
79.5312478930886
20
-8.24093185970744
30
0
41
1
10
79.5379815917346
20
-8.23525911468465
30
0
41
1
10
79.5540464393891
20
-8.22100583983797
30
0
41
1
10
79.5635576945821
20
-8.21227262935665
30
0
41
1
10
79.5836466284833
20
-8.19346399287309
30
0
41
1
10
79.5943179210633
20
-8.1833078186817
30
0
41
1
10
79.6055
20
-8.17254327625002
30
0
0
SPLINE
5
17D
100
AcDbEntity
8
1
62
256
6
ByLayer
370
18
48
1
60
0
100
AcDbSpline
70
4
71
3
72
14
73
10
40
0
40
0
40
0
40
0
40
0.25
40
0.25
40
0.5
40
0.5
40
0.75
40
0.75
40
1
40
1
40
1
40
1
41
1
10
80.2495
20
28.5859271543189
30
0
41
1
10
80.259305222304
20
28.5777904297007
30
0
41
1
10
80.2689416505081
20
28.5705123566371
30
0
41
1
10
80.2873727965176
20
28.5586762048217
30
0
41
1
10
80.2959647459642
20
28.5543030091875
30
0
41
1
10
80.3101526926038
20
28.5501419836255
30
0
41
1
10
80.3157692403822
20
28.5504143348533
30
0
41
1
10
80.3228710110819
20
28.5554482778901
30
0
41
1
10
80.3245000000001
20
28.5602107169181
30
0
41
1
10
80.3245000000001
20
28.5663360248446
30
0
0
SPLINE
5
17E
100
AcDbEntity
8
1
62
256
6
ByLayer
370
18
48
1
60
0
100
AcDbSpline
70
4
71
3
72
12
73
8
40
0
40
0
40
0
40
0
40
0.5672910028026
40
0.5672910028026
40
0.850936504203887
40
0.850936504203887
40
1
40
1
40
1
40
1
41
1
10
79.6055
20
31.17254327625
30
0
41
1
10
79.5829955316989
20
31.1942074323789
30
0
41
1
10
79.561880388332
20
31.2140674209438
30
0
41
1
10
79.5377038374728
20
31.2354993425979
30
0
41
1
10
79.5310440689488
20
31.2411000824371
30
0
41
1
10
79.5243283600776
20
31.2460435311609
30
0
41
1
10
79.5226447527561
20
31.2470829990582
30
0
41
1
10
79.5216320442198
20
31.2474377072067
30
0
0
SPLINE
5
17F
100
AcDbEntity
8
1
62
256
6
ByLayer
370
18
48
1
60
0
100
AcDbSpline
70
4
71
3
72
16
73
12
40
0
40
0
40
0
40
0
40
0.0197386845651191
40
0.0197386845651191
40
0.264804013423839
40
0.264804013423839
40
0.50986934228256
40
0.50986934228256
40
0.75493467114128
40
0.75493467114128
40
1
40
1
40
1
40
1
41
1
10
79.5205028758574
20
31.2470721475959
30
0
41
1
10
79.5205053482065
20
31.2469673436306
30
0
41
1
10
79.5205243021631
20
31.2468460802931
30
0
41
1
10
79.5210016685143
20
31.2449974364367
30
0
41
1
10
79.5239889034552
20
31.2407194293516
30
0
41
1
10
79.5336948862717
20
31.2286365874095
30
0
41
1
10
79.5404694325865
20
31.2207454646148
30
0
41
1
10
79.5561288184669
20
31.203103159907
30
0
41
1
10
79.5652095623421
20
31.1931288968652
30
0
41
1
10
79.5844816839385
20
31.1723146861223
30
0
41
1
10
79.5947308174894
20
31.1614073739258
30
0
41
1
10
79.6055
20
31.1500792121576
30
0
0
SPLINE
5
180
100
AcDbEntity
8
1
62
256
6
ByLayer
370
18
48
1
60
0
100
AcDbSpline
70
4
71
3
72
22
73
18
40
0
40
0
40
0
40
0
40
0.249999999999997
40
0.249999999999997
40
0.374999999999994
40
0.374999999999994
40
0.49999999999999
40
0.49999999999999
40
0.624999999999987
40
0.624999999999987
40
0.749999999999984
40
0.749999999999984
40
0.812499999999988
40
0.812499999999988
40
0.874999999999993
40
0.874999999999993
40
1
40
1
40
1
40
1
41
1
10
13.8943375672973
20
-29.9139548464691
30
0
41
1
10
13.8787501654511
20
-29.9327542695084
30
0
41
1
10
13.8600981524863
20
-29.9510098933136
30
0
41
1
10
13.8259097308548
20
-29.977413331973
30
0
41
1
10
13.8134681559941
20
-29.9860499646858
30
0
41
1
10
13.7859660569446
20
-30.0029372147449
30
0
41
1
10
13.7708313351931
20
-30.011226780568
30
0
41
1
10
13.7374904471463
20
-30.0271090091071
30
0
41
1
10
13.7193382950672
20
-30.0346937657148
30
0
41
1
10
13.6789402941255
20
-30.048921013161
30
0
41
1
10
13.6568439565998
20
-30.0554993245996
30
0
41
1
10
13.6205171073693
20
-30.0640378913834
30
0
41
1
10
13.6078439741679
20
-30.0666711051738
30
0
41
1
10
13.5810949420214
20
-30.0714138984386
30
0
41
1
10
13.567014259034
20
-30.073514408101
30
0
41
1
10
13.5238105256953
20
-30.0786461490401
30
0
41
1
10
13.4927587974109
20
-30.0805927603169
30
0
41
1
10
13.4613248654052
20
-30.0805927603169
30
0
0
SPLINE
5
181
100
AcDbEntity
8
1
62
256
6
ByLayer
370
18
48
1
60
0
100
AcDbSpline
70
4
71
3
72
22
73
18
40
0
40
0
40
0
40
0
40
0.249999999999961
40
0.249999999999961
40
0.374999999999944
40
0.374999999999944
40
0.499999999999926
40
0.499999999999926
40
0.624999999999909
40
0.624999999999909
40
0.687499999999908
40
0.687499999999908
40
0.749999999999907
40
0.749999999999907
40
0.874999999999954
40
0.874999999999954
40
1
40
1
40
1
40
1
41
1
10
79.6055
20
-7.66356613817504
30
0
41
1
10
79.5846180024195
20
-7.68797704885165
30
0
41
1
10
79.5655071796185
20
-7.71170452346368
30
0
41
1
10
79.5426899901217
20
-7.74311621293879
30
0
41
1
10
79.5359677807996
20
-7.75304139761775
30
0
41
1
10
79.5257886985559
20
-7.77007612126545
30
0
41
1
10
79.5222094422121
20
-7.77740453746307
30
0
41
1
10
79.5197505065652
20
-7.78757190034952
30
0
41
1
10
79.520917187491
20
-7.79040379508697
30
0
41
1
10
79.5266132401732
20
-7.7903641595357
30
0
41
1
10
79.5291885835889
20
-7.78964184067766
30
0
41
1
10
79.5353678257385
20
-7.78691904013823
30
0
41
1
10
79.5389962843699
20
-7.78492127035091
30
0
41
1
10
79.5513547524627
20
-7.77716579027216
30
0
41
1
10
79.561088840106
20
-7.76995966962352
30
0
41
1
10
79.5824853917302
20
-7.75276216936012
30
0
41
1
10
79.593773139625
20
-7.74307558222694
30
0
41
1
10
79.6055
20
-7.73258445627604
30
0
0
SPLINE
5
182
100
AcDbEntity
8
1
62
256
6
ByLayer
370
18
48
1
60
0
100
AcDbSpline
70
4
71
3
72
8
73
4
40
0
40
0
40
0
40
0
40
1
40
1
40
1
40
1
41
1
10
80.2495
20
2.8855949578269
30
0
41
1
10
80.0529095032927
20
2.22604257749111
30
0
41
1
10
79.8375575235841
20
1.57473117082708
30
0
41
1
10
79.6055
20
0.930757667421517
30
0
0
SPLINE
5
183
100
AcDbEntity
8
1
62
256
6
ByLayer
370
18
48
1
60
0
100
AcDbSpline
70
4
71
3
72
26
73
22
40
0
40
0
40
0
40
0
40
0.249999999999976
40
0.249999999999976
40
0.499999999999952
40
0.499999999999952
40
0.62499999999994
40
0.62499999999994
40
0.687499999999938
40
0.687499999999938
40
0.749999999999936
40
0.749999999999936
40
0.812499999999935
40
0.812499999999935
40
0.843749999999934
40
0.843749999999934
40
0.874999999999933
40
0.874999999999933
40
0.937499999999966
40
0.937499999999966
40
1
40
1
40
1
40
1
41
1
10
79.6055
20
0.930757667421517
30
0
41
1
10
79.5876431568551
20
0.881203859976779
30
0
41
1
10
79.5720151535184
20
0.831487368724652
30
0
41
1
10
79.5457683658979
20
0.733339842011929
30
0
41
1
10
79.5349848127961
20
0.684697720345923
30
0
41
1
10
79.5244066800093
20
0.612727189428369
30
0
41
1
10
79.5218528593706
20
0.588956349456964
30
0
41
1
10
79.5204188041757
20
0.554719338852436
30
0
41
1
10
79.5203401032587
20
0.543514928902937
30
0
41
1
10
79.521316572032
20
0.52169072872374
30
0
41
1
10
79.522379144929
20
0.511004013946831
30
0
41
1
10
79.5262116700882
20
0.491210733219958
30
0
41
1
10
79.528987116134
20
0.481924808378352
30
0
41
1
10
79.5353102988491
20
0.470281002090047
30
0
41
1
10
79.5377554775792
20
0.46683712627609
30
0
41
1
10
79.5435578935233
20
0.461127947444595
30
0
41
1
10
79.5469352756757
20
0.458886280012166
30
0
41
1
10
79.5582572753071
20
0.454857553673946
30
0
41
1
10
79.567713171199
20
0.456027633668242
30
0
41
1
10
79.5867407936386
20
0.464846572169364
30
0
41
1
10
79.5963755984043
20
0.472157190068714
30
0
41
1
10
79.6055000000005
20
0.480667510449507
30
0
0
SPLINE
5
184
100
AcDbEntity
8
1
62
256
6
ByLayer
370
18
48
1
60
0
100
AcDbSpline
70
4
71
3
72
14
73
10
40
0
40
0
40
0
40
0
40
0.25
40
0.25
40
0.5
40
0.5
40
0.75
40
0.75
40
1
40
1
40
1
40
1
41
1
10
80.3245
20
-3.73658345982872
30
0
41
1
10
80.3245
20
-3.72805747154854
30
0
41
1
10
80.3232265794519
20
-3.72063324054574
30
0
41
1
10
80.31687672309
20
-3.7094874469187
30
0
41
1
10
80.3116771773875
20
-3.70600714625877
30
0
41
1
10
80.2976317133279
20
-3.7051536604223
30
0
41
1
10
80.2887191089604
20
-3.70779371034206
30
0
41
1
10
80.2697156290152
20
-3.71762828763599
30
0
41
1
10
80.2595363211322
20
-3.72476167017362
30
0
41
1
10
80.2495
20
-3.7329620912906
30
0
0
SPLINE
5
185
100
AcDbEntity
8
1
62
256
6
ByLayer
370
18
48
1
60
0
100
AcDbSpline
70
4
71
3
72
8
73
4
40
0
40
0
40
0
40
0
40
1
40
1
40
1
40
1
41
1
10
80.2495
20
-5.80753177916031
30
0
41
1
10
80.0367823196005
20
-6.09887480781904
30
0
41
1
10
79.8220560392467
20
-6.38823139928687
30
0
41
1
10
79.6055
20
-6.67577842130427
30
0
0
SPLINE
5
186
100
AcDbEntity
8
1
62
256
6
ByLayer
370
18
48
1
60
0
100
AcDbSpline
70
4
71
3
72
8
73
4
40
0
40
0
40
0
40
0
40
1
40
1
40
1
40
1
41
1
10
79.6055
20
25.7334897125276
30
0
41
1
10
79.8265103487022
20
25.3049585330932
30
0
41
1
10
80.0414057264598
20
24.8723826835176
30
0
41
1
10
80.2495
20
24.4353083296312
30
0
0
SPLINE
5
187
100
AcDbEntity
8
1
62
256
6
ByLayer
370
18
48
1
60
0
100
AcDbSpline
70
4
71
3
72
14
73
10
40
0
40
0
40
0
40
0
40
0.25
40
0.25
40
0.5
40
0.5
40
0.75
40
0.75
40
1
40
1
40
1
40
1
41
1
10
80.2495
20
25.4767752987124
30
0
41
1
10
80.259733022903
20
25.4682967416001
30
0
41
1
10
80.2702346636054
20
25.4611039699824
30
0
41
1
10
80.289965723692
20
25.4523389980604
30
0
41
1
10
80.2990953847832
20
25.4510252133539
30
0
41
1
10
80.31290217886
20
25.4555071749108
30
0
41
1
10
80.3176394355067
20
25.4611014471509
30
0
41
1
10
80.3233787738377
20
25.475783910819
30
0
41
1
10
80.3245000000044
20
25.4848636445607
30
0
41
1
10
80.3245000000043
20
25.4946525728916
30
0
0
SPLINE
5
188
100
AcDbEntity
8
1
62
256
6
ByLayer
370
18
48
1
60
0
100
AcDbSpline
70
4
71
3
72
8
73
4
40
0
40
0
40
0
40
0
40
1
40
1
40
1
40
1
41
1
10
79.6055
20
29.6757784213043
30
0
41
1
10
79.8220560392467
20
29.3882313992869
30
0
41
1
10
80.0367823196005
20
29.0988748078191
30
0
41
1
10
80.2495
20
28.8075317791603
30
0
0
SPLINE
5
189
100
AcDbEntity
8
1
62
256
6
ByLayer
370
18
48
1
60
0
100
AcDbSpline
70
4
71
3
72
14
73
10
40
0
40
0
40
0
40
0
40
0.25
40
0.25
40
0.5
40
0.5
40
0.75
40
0.75
40
1
40
1
40
1
40
1
41
1
10
80.2495
20
-4.0703702247132
30
0
41
1
10
80.2596892182419
20
-4.05372440600854
30
0
41
1
10
80.2691410712168
20
-4.03714799554734
30
0
41
1
10
80.286488561992
20
-4.0041362228495
30
0
41
1
10
80.2943464228541
20
-3.98775814626916
30
0
41
1
10
80.3078272140934
20
-3.9560122948547
30
0
41
1
10
80.313524884287
20
-3.94053149202622
30
0
41
1
10
80.3219195342536
20
-3.91077374695647
30
0
41
1
10
80.3245
20
-3.89702568391101
30
0
41
1
10
80.3245
20
-3.88509339954473
30
0
0
SPLINE
5
18A
100
AcDbEntity
8
1
62
256
6
ByLayer
370
18
48
1
60
0
100
AcDbSpline
70
4
71
3
72
12
73
8
40
0
40
0
40
0
40
0
40
0.500000000000003
40
0.500000000000003
40
0.750000000000001
40
0.750000000000001
40
1
40
1
40
1
40
1
41
1
10
80.2495
20
-2.89198788418858
30
0
41
1
10
80.2701003209502
20
-2.85433863335896
30
0
41
1
10
80.2877787394772
20
-2.81639138113371
30
0
41
1
10
80.3078803980417
20
-2.76170983946585
30
0
41
1
10
80.3135259625514
20
-2.74382531732323
30
0
41
1
10
80.3218604786181
20
-2.70902138583114
30
0
41
1
10
80.3245
20
-2.69240690666081
30
0
41
1
10
80.3245
20
-2.67759760343787
30
0
0
SPLINE
5
18B
100
AcDbEntity
8
1
62
256
6
ByLayer
370
18
48
1
60
0
100
AcDbSpline
70
4
71
3
72
18
73
14
40
0
40
0
40
0
40
0
40
0.24996809602925
40
0.24996809602925
40
0.4999361920585
40
0.4999361920585
40
0.749904288087749
40
0.749904288087749
40
0.87488833610237
40
0.87488833610237
40
0.999872384116992
40
0.999872384116992
40
1
40
1
40
1
40
1
41
1
10
79.6055
20
-8.21845039550522
30
0
41
1
10
79.5944736150805
20
-8.22952461901497
30
0
41
1
10
79.5838033692869
20
-8.24025054482786
30
0
41
1
10
79.5640834313705
20
-8.26008724804402
30
0
41
1
10
79.5550149215231
20
-8.26921681013596
30
0
41
1
10
79.5389994683375
20
-8.28534863253779
30
0
41
1
10
79.5323266018195
20
-8.29207480980369
30
0
41
1
10
79.5253343264305
20
-8.29912462020758
30
0
41
1
10
79.5235363040347
20
-8.30093782392666
30
0
41
1
10
79.5211007379348
20
-8.30339407740647
30
0
41
1
10
79.5204830212339
20
-8.30401712451365
30
0
41
1
10
79.5204996970212
20
-8.30400030557961
30
0
41
1
10
79.52050040117
20
-8.3039995953863
30
0
41
1
10
79.5205011053155
20
-8.30399888518978
30
0
0
SPLINE
5
18C
100
AcDbEntity
8
1
62
256
6
ByLayer
370
18
48
1
60
0
100
AcDbSpline
70
4
71
3
72
12
73
8
40
0
40
0
40
0
40
0
40
0.500000000000003
40
0.500000000000003
40
0.750000000000001
40
0.750000000000001
40
1
40
1
40
1
40
1
41
1
10
80.2495000000002
20
0.408783299086565
30
0
41
1
10
80.2707493762863
20
0.46249468127894
30
0
41
1
10
80.288114006892
20
0.515907647203022
30
0
41
1
10
80.308033340519
20
0.595581363551133
30
0
41
1
10
80.3136471049518
20
0.622193757752513
30
0
41
1
10
80.3218575668025
20
0.674595766927098
30
0
41
1
10
80.3245
20
0.700156726597072
30
0
41
1
10
80.3245
20
0.724536038314056
30
0
0
SPLINE
5
18D
100
AcDbEntity
8
1
62
256
6
ByLayer
370
18
48
1
60
0
100
AcDbSpline
70
4
71
3
72
8
73
4
40
0
40
0
40
0
40
0
40
1
40
1
40
1
40
1
41
1
10
79.6055
20
31.1500792121576
30
0
41
1
10
79.8208603034311
20
30.9235405354009
30
0
41
1
10
80.0355472223686
20
30.6961543314658
30
0
41
1
10
80.2495
20
30.4678441313361
30
0
0
SPLINE
5
18E
100
AcDbEntity
8
1
62
256
6
ByLayer
370
18
48
1
60
0
100
AcDbSpline
70
4
71
3
72
8
73
4
40
0
40
0
40
0
40
0
40
1
40
1
40
1
40
1
41
1
10
80.2495
20
29.2516701480928
30
0
41
1
10
80.0349138148107
20
29.4335319303368
30
0
41
1
10
79.8202447540081
20
29.61526338816
30
0
41
1
10
79.6055
20
29.7968754376164
30
0
0
SPLINE
5
18F
100
AcDbEntity
8
1
62
256
6
ByLayer
370
18
48
1
60
0
100
AcDbSpline
70
4
71
3
72
8
73
4
40
0
40
0
40
0
40
0
40
1
40
1
40
1
40
1
41
1
10
80.2495
20
23.9160122997165
30
0
41
1
10
80.0350057378338
20
24.1011103791873
30
0
41
1
10
79.8203319606478
20
24.2859304687195
30
0
41
1
10
79.6055
20
24.4705056015292
30
0
0
SPLINE
5
190
100
AcDbEntity
8
1
62
256
6
ByLayer
370
18
48
1
60
0
100
AcDbSpline
70
4
71
3
72
34
73
30
40
0
40
0
40
0
40
0
40
0.0156250000000032
40
0.0156250000000032
40
0.023437500000004
40
0.023437500000004
40
0.0312500000000047
40
0.0312500000000047
40
0.0390625000000054
40
0.0390625000000054
40
0.0468750000000061
40
0.0468750000000061
40
0.0625000000000058
40
0.0625000000000058
40
0.0937500000000048
40
0.0937500000000048
40
0.125000000000004
40
0.125000000000004
40
0.187500000000004
40
0.187500000000004
40
0.250000000000004
40
0.250000000000004
40
0.375000000000004
40
0.375000000000004
40
0.500000000000003
40
0.500000000000003
40
0.750000000000002
40
0.750000000000002
40
1
40
1
40
1
40
1
41
1
10
79.6055
20
15.2827284368681
30
0
41
1
10
79.6007705655568
20
15.2934128371719
30
0
41
1
10
79.5955490543377
20
15.3039389499721
30
0
41
1
10
79.5859003902771
20
15.317475071508
30
0
41
1
10
79.5823183437861
20
15.3216552662917
30
0
41
1
10
79.5743140468773
20
15.3273723295761
30
0
41
1
10
79.5697160151603
20
15.3286222789861
30
0
41
1
10
79.561718660099
20
15.3261309539017
30
0
41
1
10
79.558300967182
20
15.3227328087739
30
0
41
1
10
79.552786193003
20
15.3147135537982
30
0
41
1
10
79.5506031074559
20
15.3101189826936
30
0
41
1
10
79.5448209116843
20
15.2955510410412
30
0
41
1
10
79.5420279700429
20
15.2848099310434
30
0
41
1
10
79.5349886696623
20
15.2520660876278
30
0
41
1
10
79.532125846609
20
15.2295957892231
30
0
41
1
10
79.5275463608367
20
15.1845910010538
30
0
41
1
10
79.5259366758227
20
15.1619277234909
30
0
41
1
10
79.5221879375994
20
15.0936705320076
30
0
41
1
10
79.5211237145157
20
15.0478104896587
30
0
41
1
10
79.5202775475736
20
14.9557358775573
30
0
41
1
10
79.5205447726049
20
14.9095102779935
30
0
41
1
10
79.5225656456907
20
14.7704594063641
30
0
41
1
10
79.5255202243384
20
14.6771930597441
30
0
41
1
10
79.5328352228856
20
14.4906986667352
30
0
41
1
10
79.5372388978757
20
14.3973822391253
30
0
41
1
10
79.5515416895533
20
14.1172541796713
30
0
41
1
10
79.5625016305453
20
13.9302646099136
30
0
41
1
10
79.5843793089832
20
13.5558814416818
30
0
41
1
10
79.5953521388834
20
13.3684580369192
30
0
41
1
10
79.6055
20
13.1809335420858
30
0
0
SPLINE
5
191
100
AcDbEntity
8
1
62
256
6
ByLayer
370
18
48
1
60
0
100
AcDbSpline
70
4
71
3
72
8
73
4
40
0
40
0
40
0
40
0
40
1
40
1
40
1
40
1
41
1
10
80.2495
20
25.4767752987127
30
0
41
1
10
80.0348720691877
20
25.6546049768552
30
0
41
1
10
79.8202039791954
20
25.8323700434185
30
0
41
1
10
79.6055
20
26.0100772776499
30
0
0
SPLINE
5
192
100
AcDbEntity
8
1
62
256
6
ByLayer
370
18
48
1
60
0
100
AcDbSpline
70
4
71
3
72
8
73
4
40
0
40
0
40
0
40
0
40
1
40
1
40
1
40
1
41
1
10
79.6055
20
-8.17254327625002
30
0
41
1
10
79.8205696375729
20
-7.96550429427509
30
0
41
1
10
80.0352478964824
20
-7.75792569674104
30
0
41
1
10
80.2495
20
-7.54975953503535
30
0
0
SPLINE
5
193
100
AcDbEntity
8
1
62
256
6
ByLayer
370
18
48
1
60
0
100
AcDbSpline
70
4
71
3
72
8
73
4
40
0
40
0
40
0
40
0
40
1
40
1
40
1
40
1
41
1
10
79.6055
20
-4.25914558748158
30
0
41
1
10
79.8201683008329
20
-4.08375375553976
30
0
41
1
10
80.0348350239476
20
-3.90835934886275
30
0
41
1
10
80.2495
20
-3.73296209129077
30
0
0
SPLINE
5
194
100
AcDbEntity
8
1
62
256
6
ByLayer
370
18
48
1
60
0
100
AcDbSpline
70
4
71
3
72
14
73
10
40
0
40
0
40
0
40
0
40
0.25
40
0.25
40
0.5
40
0.5
40
0.75
40
0.75
40
1
40
1
40
1
40
1
41
1
10
80.2495
20
30.154960886978
30
0
41
1
10
80.2592159985016
20
30.146223193626
30
0
41
1
10
80.2687261650705
20
30.1379823211317
30
0
41
1
10
80.2863466387967
20
30.1235082432094
30
0
41
1
10
80.2946257999411
20
30.1171378972796
30
0
41
1
10
80.3087737819881
20
30.1074583306913
30
0
41
1
10
80.3146448825017
20
30.1041706494088
30
0
41
1
10
80.3224850003474
20
30.1018182843393
30
0
41
1
10
80.3245
20
30.1027592296193
30
0
41
1
10
80.3245
20
30.1056268367875
30
0
0
SPLINE
5
195
100
AcDbEntity
8
1
62
256
6
ByLayer
370
18
48
1
60
0
100
AcDbSpline
70
4
71
3
72
14
73
10
40
0
40
0
40
0
40
0
40
0.25
40
0.25
40
0.5
40
0.5
40
0.75
40
0.75
40
1
40
1
40
1
40
1
41
1
10
80.3245
20
30.488914520495
30
0
41
1
10
80.3245
20
30.4894247455032
30
0
41
1
10
80.322179475846
20
30.4922388158724
30
0
41
1
10
80.3139404238711
20
30.5013490604847
30
0
41
1
10
80.3079761818693
20
30.5077021283887
30
0
41
1
10
80.2940034076216
20
30.5223363275757
30
0
41
1
10
80.2858210468891
20
30.5308010647053
30
0
41
1
10
80.2684517336469
20
30.5486391867036
30
0
41
1
10
80.2592082059552
20
30.5580727111611
30
0
41
1
10
80.2495
20
30.5679370847154
30
0
0
SPLINE
5
196
100
AcDbEntity
8
1
62
256
6
ByLayer
370
18
48
1
60
0
100
AcDbSpline
70
4
71
3
72
12
73
8
40
0
40
0
40
0
40
0
40
0.249999999999985
40
0.249999999999985
40
0.49999999999997
40
0.49999999999997
40
1
40
1
40
1
40
1
41
1
10
80.3245000000014
20
28.6637626739618
30
0
41
1
10
80.3245000000014
20
28.6715373958858
30
0
41
1
10
80.3219119832026
20
28.6813988967018
30
0
41
1
10
80.3134329614606
20
28.7035631073316
30
0
41
1
10
80.3076482942255
20
28.7155633646174
30
0
41
1
10
80.2869260374197
20
28.7535669467308
30
0
41
1
10
80.2694532524701
20
28.7802033455515
30
0
41
1
10
80.2495
20
28.8075317791603
30
0
0
SPLINE
5
197
100
AcDbEntity
8
1
62
256
6
ByLayer
370
18
48
1
60
0
100
AcDbSpline
70
4
71
3
72
10
73
6
40
0
40
0
40
0
40
0
40
0.5
40
0.5
40
1
40
1
40
1
40
1
41
1
10
79.6055000000008
20
7.71727156313148
30
0
41
1
10
79.7396225398739
20
8.02027162010722
30
0
41
1
10
79.8621250055222
20
8.32854779960803
30
0
41
1
10
80.0787110718596
20
8.95800381229077
30
0
41
1
10
80.172800078506
20
9.27918119088488
30
0
41
1
10
80.2495000000006
20
9.6082541252288
30
0
0
SPLINE
5
198
100
AcDbEntity
8
1
62
256
6
ByLayer
370
18
48
1
60
0
100
AcDbSpline
70
4
71
3
72
28
73
24
40
0
40
0
40
0
40
0
40
0.250000000000008
40
0.250000000000008
40
0.500000000000017
40
0.500000000000017
40
0.62500000000002
40
0.62500000000002
40
0.750000000000023
40
0.750000000000023
40
0.812500000000023
40
0.812500000000023
40
0.843750000000019
40
0.843750000000019
40
0.875000000000015
40
0.875000000000015
40
0.906250000000011
40
0.906250000000011
40
0.937500000000008
40
0.937500000000008
40
0.968750000000004
40
0.968750000000004
40
1
40
1
40
1
40
1
41
1
10
79.6054999999997
20
3.78526017750181
30
0
41
1
10
79.5885769852419
20
3.71902171395209
30
0
41
1
10
79.5737786406264
20
3.65303206385064
30
0
41
1
10
79.5484174930482
20
3.52155947645966
30
0
41
1
10
79.537797636014
20
3.4560715552669
30
0
41
1
10
79.5265743250117
20
3.35835513593233
30
0
41
1
10
79.5236218884951
20
3.32580364474035
30
0
41
1
10
79.520256070083
20
3.26123362881671
30
0
41
1
10
79.5197737989799
20
3.22954993711409
30
0
41
1
10
79.5228330742294
20
3.18385093864506
30
0
41
1
10
79.5244932097765
20
3.16885121065158
30
0
41
1
10
79.5288006947063
20
3.14746023335187
30
0
41
1
10
79.5305311270297
20
3.14059050531625
30
0
41
1
10
79.5348759158401
20
3.12762839166163
30
0
41
1
10
79.5375175995501
20
3.12145994044931
30
0
41
1
10
79.5441354070325
20
3.11081264513362
30
0
41
1
10
79.5481602808463
20
3.10628216534536
30
0
41
1
10
79.5579708320389
20
3.10065654981787
30
0
41
1
10
79.5637965862586
20
3.09971774473632
30
0
41
1
10
79.5760487214159
20
3.10229111161402
30
0
41
1
10
79.5824296550994
20
3.10571214695332
30
0
41
1
10
79.5944898049967
20
3.11481108769183
30
0
41
1
10
79.6001094477988
20
3.120330158737
30
0
41
1
10
79.6055
20
3.12638898257384
30
0
0
SPLINE
5
199
100
AcDbEntity
8
1
62
256
6
ByLayer
370
18
48
1
60
0
100
AcDbSpline
70
4
71
3
72
28
73
24
40
0
40
0
40
0
40
0
40
0.031250000000002
40
0.031250000000002
40
0.0625000000000041
40
0.0625000000000041
40
0.0937500000000062
40
0.0937500000000062
40
0.125000000000008
40
0.125000000000008
40
0.15625000000001
40
0.15625000000001
40
0.187500000000012
40
0.187500000000012
40
0.250000000000007
40
0.250000000000007
40
0.375000000000009
40
0.375000000000009
40
0.500000000000011
40
0.500000000000011
40
0.750000000000005
40
0.750000000000005
40
1
40
1
40
1
40
1
41
1
10
79.6055000000003
20
19.8736110174266
30
0
41
1
10
79.6000047373562
20
19.8797875327548
30
0
41
1
10
79.5942117994271
20
19.8854400041992
30
0
41
1
10
79.5821363315484
20
19.8944658059906
30
0
41
1
10
79.5757647756298
20
19.8978512493378
30
0
41
1
10
79.5633172962781
20
19.9002949759264
30
0
41
1
10
79.5575147722731
20
19.8991964835393
30
0
41
1
10
79.5478233717979
20
19.8934003488372
30
0
41
1
10
79.5438090778881
20
19.8887762613461
30
0
41
1
10
79.5372371666876
20
19.8779639553227
30
0
41
1
10
79.5346132394581
20
19.8717112771189
30
0
41
1
10
79.5303085729235
20
19.8586075473057
30
0
41
1
10
79.5286038692419
20
19.8516955018506
30
0
41
1
10
79.5243703523158
20
19.8302465554499
30
0
41
1
10
79.5227222129098
20
19.8150076820549
30
0
41
1
10
79.5197634773029
20
19.7692045549594
30
0
41
1
10
79.5202942584137
20
19.7378635210708
30
0
41
1
10
79.5236192209956
20
19.6744196062316
30
0
41
1
10
79.5265141599264
20
19.6422855537981
30
0
41
1
10
79.5376441464779
20
19.5450353431521
30
0
41
1
10
79.5483373226414
20
19.4788780529987
30
0
41
1
10
79.5737839041931
20
19.3469187893536
30
0
41
1
10
79.5886061523185
20
19.2808641230372
30
0
41
1
10
79.6055
20
19.2147398224982
30
0
0
SPLINE
5
19A
100
AcDbEntity
8
1
62
256
6
ByLayer
370
18
48
1
60
0
100
AcDbSpline
70
4
71
3
72
14
73
10
40
0
40
0
40
0
40
0
40
0.25
40
0.25
40
0.5
40
0.5
40
0.75
40
0.75
40
1
40
1
40
1
40
1
41
1
10
80.3245
20
-7.48092989751487
30
0
41
1
10
80.3245
20
-7.48027493970727
30
0
41
1
10
80.3222686570517
20
-7.48182568569069
30
0
41
1
10
80.3141089561459
20
-7.48871188613188
30
0
41
1
10
80.3081416192179
20
-7.49407332113614
30
0
41
1
10
80.2940927457414
20
-7.50705475414978
30
0
41
1
10
80.2858401844453
20
-7.51483078529472
30
0
41
1
10
80.2684278710244
20
-7.53144045432285
30
0
41
1
10
80.2591841270818
20
-7.54035049059203
30
0
41
1
10
80.2495
20
-7.54975953503538
30
0
0
SPLINE
5
19B
100
AcDbEntity
8
1
62
256
6
ByLayer
370
18
48
1
60
0
100
AcDbSpline
70
4
71
3
72
22
73
18
40
0
40
0
40
0
40
0
40
0.12499999999995
40
0.12499999999995
40
0.2499999999999
40
0.2499999999999
40
0.312499999999895
40
0.312499999999895
40
0.374999999999891
40
0.374999999999891
40
0.499999999999909
40
0.499999999999909
40
0.624999999999928
40
0.624999999999928
40
0.749999999999947
40
0.749999999999947
40
1
40
1
40
1
40
1
41
1
10
79.6055
20
30.3304003628101
30
0
41
1
10
79.5933808080385
20
30.3409166748026
30
0
41
1
10
79.5815029684042
20
30.350599351319
30
0
41
1
10
79.559693945803
20
30.3666789353283
30
0
41
1
10
79.5495221623781
20
30.3732288666946
30
0
41
1
10
79.5372715379926
20
30.3790458665807
30
0
41
1
10
79.5336365800475
20
30.3803378471185
30
0
41
1
10
79.5277224198726
20
30.3814041831677
30
0
41
1
10
79.525390108167
20
30.3812105482548
30
0
41
1
10
79.5203187268387
20
30.3783850311454
30
0
41
1
10
79.5197486324504
20
30.3735609996964
30
0
41
1
10
79.5230392710006
20
30.3599134489843
30
0
41
1
10
79.5268401757407
20
30.3511757274978
30
0
41
1
10
79.5373010855982
20
30.3315374121517
30
0
41
1
10
79.54386990924
20
30.3207762383678
30
0
41
1
10
79.5666469913103
20
30.2863364356785
30
0
41
1
10
79.5850228332095
20
30.2617741819729
30
0
41
1
10
79.6055
20
30.2363442052146
30
0
0
SPLINE
5
19C
100
AcDbEntity
8
1
62
256
6
ByLayer
370
18
48
1
60
0
100
AcDbSpline
70
4
71
3
72
18
73
14
40
0
40
0
40
0
40
0
40
0.249999999999989
40
0.249999999999989
40
0.499999999999978
40
0.499999999999978
40
0.624999999999983
40
0.624999999999983
40
0.749999999999989
40
0.749999999999989
40
0.874999999999994
40
0.874999999999994
40
1
40
1
40
1
40
1
41
1
10
80.3245
20
3.75785714681291
30
0
41
1
10
80.3245
20
3.77548230061638
30
0
41
1
10
80.3239122919799
20
3.79282825149801
30
0
41
1
10
80.3207529083203
20
3.82655861535864
30
0
41
1
10
80.3182332122497
20
3.84325714911986
30
0
41
1
10
80.3111398930036
20
3.86545339053311
30
0
41
1
10
80.3081771461697
20
3.87245780137332
30
0
41
1
10
80.3002308808571
20
3.88390384518047
30
0
41
1
10
80.2951355455778
20
3.88834541478607
30
0
41
1
10
80.2824510330992
20
3.89083320311229
30
0
41
1
10
80.2752644858578
20
3.88856410104609
30
0
41
1
10
80.2616724654686
20
3.8796105895519
30
0
41
1
10
80.2553626711961
20
3.87331558927261
30
0
41
1
10
80.2495
20
3.86641704186562
30
0
0
SPLINE
5
19D
100
AcDbEntity
8
1
62
256
6
ByLayer
370
18
48
1
60
0
100
AcDbSpline
70
4
71
3
72
14
73
10
40
0
40
0
40
0
40
0
40
0.25
40
0.25
40
0.5
40
0.5
40
0.75
40
0.75
40
1
40
1
40
1
40
1
41
1
10
80.3245
20
29.7890240128757
30
0
41
1
10
80.3245
20
29.7934918735213
30
0
41
1
10
80.3219923463416
20
29.8002811047651
30
0
41
1
10
80.313542185526
20
29.8166495690633
30
0
41
1
10
80.3076717384724
20
29.826113517657
30
0
41
1
10
80.2938197835888
20
29.8464514484414
30
0
41
1
10
80.285784157645
20
29.8573907805796
30
0
41
1
10
80.2685852242044
20
29.8796566607554
30
0
41
1
10
80.2593328298394
20
29.8911096182016
30
0
41
1
10
80.2495
20
29.9028498781752
30
0
0
SPLINE
5
19E
100
AcDbEntity
8
1
62
256
6
ByLayer
370
18
48
1
60
0
100
AcDbSpline
70
4
71
3
72
12
73
8
40
0
40
0
40
0
40
0
40
0.25
40
0.25
40
0.5
40
0.5
40
1
40
1
40
1
40
1
41
1
10
80.3245
20
19.6800854813312
30
0
41
1
10
80.3245
20
19.7149391508414
30
0
41
1
10
80.3219169517557
20
19.7505459171111
30
0
41
1
10
80.313952554405
20
19.8225386608405
30
0
41
1
10
80.3084632666113
20
19.8590590332578
30
0
41
1
10
80.288693751875
20
19.9684794525102
30
0
41
1
10
80.2712510870854
20
20.0414311115802
30
0
41
1
10
80.2495000000002
20
20.1144050421731
30
0
0
SPLINE
5
19F
100
AcDbEntity
8
1
62
256
6
ByLayer
370
18
48
1
60
0
100
AcDbSpline
70
4
71
3
72
8
73
4
40
0
40
0
40
0
40
0
40
1
40
1
40
1
40
1
41
1
10
79.6055
20
-1.4705056015292
30
0
41
1
10
79.8203319606478
20
-1.28593046871953
30
0
41
1
10
80.0350057378338
20
-1.1011103791873
30
0
41
1
10
80.2495
20
-0.916012299716442
30
0
0
SPLINE
5
1A0
100
AcDbEntity
8
1
62
256
6
ByLayer
370
18
48
1
60
0
100
AcDbSpline
70
4
71
3
72
8
73
4
40
0
40
0
40
0
40
0
40
1
40
1
40
1
40
1
41
1
10
79.6055
20
30.2363442052146
30
0
41
1
10
79.8216327980189
20
29.96793539229
30
0
41
1
10
80.036344592726
20
29.6980199940686
30
0
41
1
10
80.2495
20
29.4264544727241
30
0
0
SPLINE
5
1A1
100
AcDbEntity
8
1
62
256
6
ByLayer
370
18
48
1
60
0
100
AcDbSpline
70
4
71
3
72
8
73
4
40
0
40
0
40
0
40
0
40
1
40
1
40
1
40
1
41
1
10
79.6055
20
-7.73258445627602
30
0
41
1
10
79.8203746839424
20
-7.54035249470957
30
0
41
1
10
80.0350473703234
20
-7.34782025355329
30
0
41
1
10
80.2495
20
-7.15496088697802
30
0
0
SPLINE
5
1A2
100
AcDbEntity
8
1
62
256
6
ByLayer
370
18
48
1
60
0
100
AcDbSpline
70
4
71
3
72
24
73
20
40
0
40
0
40
0
40
0
40
0.250000000000028
40
0.250000000000028
40
0.375000000000027
40
0.375000000000027
40
0.500000000000026
40
0.500000000000026
40
0.625000000000024
40
0.625000000000024
40
0.750000000000023
40
0.750000000000023
40
0.812500000000017
40
0.812500000000017
40
0.875000000000012
40
0.875000000000012
40
0.937500000000006
40
0.937500000000006
40
1
40
1
40
1
40
1
41
1
10
79.6055
20
-5.09745689280408
30
0
41
1
10
79.5859306350478
20
-5.12795461767101
30
0
41
1
10
79.5684043776613
20
-5.1584924379041
30
0
41
1
10
79.546981041172
20
-5.20216124575421
30
0
41
1
10
79.5406367983317
20
-5.21638520395871
30
0
41
1
10
79.5300049616654
20
-5.24397491212773
30
0
41
1
10
79.5257550687406
20
-5.25727489585373
30
0
41
1
10
79.5206023010412
20
-5.28136976131529
30
0
41
1
10
79.5196580046164
20
-5.29245129397532
30
0
41
1
10
79.5230585867862
20
-5.30947811844953
30
0
41
1
10
79.5275718217049
20
-5.31549656170014
30
0
41
1
10
79.5392932037595
20
-5.31791333140418
30
0
41
1
10
79.5438737154884
20
-5.31764209510803
30
0
41
1
10
79.5543259951702
20
-5.31504132474817
30
0
41
1
10
79.5602042505498
20
-5.3126777169457
30
0
41
1
10
79.5724281931627
20
-5.30638673119918
30
0
41
1
10
79.5789268310879
20
-5.30239304641529
30
0
41
1
10
79.5921113198276
20
-5.29328818198587
30
0
41
1
10
79.5987765869105
20
-5.28820451664745
30
0
41
1
10
79.6055
20
-5.28269932673274
30
0
0
SPLINE
5
1A3
100
AcDbEntity
8
1
62
256
6
ByLayer
370
18
48
1
60
0
100
AcDbSpline
70
4
71
3
72
20
73
16
40
0
40
0
40
0
40
0
40
0.0625000000000037
40
0.0625000000000037
40
0.125000000000007
40
0.125000000000007
40
0.250000000000007
40
0.250000000000007
40
0.375000000000007
40
0.375000000000007
40
0.500000000000007
40
0.500000000000007
40
0.750000000000004
40
0.750000000000004
40
1
40
1
40
1
40
1
41
1
10
13.4613248654051
20
-9.34922131452515
30
0
41
1
10
13.4770644463612
20
-9.34922131452515
30
0
41
1
10
13.4925182901835
20
-9.3507411339429
30
0
41
1
10
13.522904853019
20
-9.35655221855279
30
0
41
1
10
13.5379543967302
20
-9.36089212483336
30
0
41
1
10
13.5815263070002
20
-9.37748487924969
30
0
41
1
10
13.6079581046675
20
-9.39290424748313
30
0
41
1
10
13.6571615474718
20
-9.42982857023338
30
0
41
1
10
13.6790876596514
20
-9.45071431640775
30
0
41
1
10
13.7192040363286
20
-9.49551986864822
30
0
41
1
10
13.7374937976137
20
-9.51963835126784
30
0
41
1
10
13.7874862877331
20
-9.594536803469
30
0
41
1
10
13.8142652669256
20
-9.64728479257934
30
0
41
1
10
13.8599440812238
20
-9.75611455014874
30
0
41
1
10
13.8787443055273
20
-9.81241059371425
30
0
41
1
10
13.8943375672974
20
-9.86941261896615
30
0
0
SPLINE
5
1A4
100
AcDbEntity
8
1
62
256
6
ByLayer
370
18
48
1
60
0
100
AcDbSpline
70
4
71
3
72
8
73
4
40
0
40
0
40
0
40
0
40
1
40
1
40
1
40
1
41
1
10
79.6055
20
31.2184503955052
30
0
41
1
10
79.8207000524708
20
31.0023166855204
30
0
41
1
10
80.0353821421022
20
30.7854992733109
30
0
41
1
10
80.2495
20
30.5679370847154
30
0
0
SPLINE
5
1A5
100
AcDbEntity
8
1
62
256
6
ByLayer
370
18
48
1
60
0
100
AcDbSpline
70
4
71
3
72
8
73
4
40
0
40
0
40
0
40
0
40
1
40
1
40
1
40
1
41
1
10
79.6055
20
22.0692423325785
30
0
41
1
10
79.8375575235841
20
21.425268829173
30
0
41
1
10
80.0529095032927
20
20.7739574225089
30
0
41
1
10
80.2495
20
20.1144050421731
30
0
0
SPLINE
5
1A6
100
AcDbEntity
8
1
62
256
6
ByLayer
370
18
48
1
60
0
100
AcDbSpline
70
4
71
3
72
30
73
26
40
0
40
0
40
0
40
0
40
0.0625
40
0.0625
40
0.0937499999999948
40
0.0937499999999948
40
0.109374999999996
40
0.109374999999996
40
0.124999999999996
40
0.124999999999996
40
0.140624999999997
40
0.140624999999997
40
0.156249999999998
40
0.156249999999998
40
0.1875
40
0.1875
40
0.250000000000003
40
0.250000000000003
40
0.375000000000006
40
0.375000000000006
40
0.500000000000009
40
0.500000000000009
40
0.750000000000004
40
0.750000000000004
40
1
40
1
40
1
40
1
41
1
10
80.2495
20
13.3917458747739
30
0
41
1
10
80.2525852516023
20
13.3785089277448
30
0
41
1
10
80.2558995972792
20
13.3653817742974
30
0
41
1
10
80.2619053807287
20
13.3461786989542
30
0
41
1
10
80.2640836821846
20
13.3398191000685
30
0
41
1
10
80.2679839014835
20
13.3307159739005
30
0
41
1
10
80.2693797552488
20
13.3277761785665
30
0
41
1
10
80.2725811609239
20
13.3223002413139
30
0
41
1
10
80.2743975026897
20
13.3196829649801
30
0
41
1
10
80.2788481387301
20
13.3161978103417
30
0
41
1
10
80.2815411891781
20
13.3158117140881
30
0
41
1
10
80.2859464023778
20
13.3184859567135
30
0
41
1
10
80.2876661329156
20
13.3210000637144
30
0
41
1
10
80.2919637677122
20
13.329012688656
30
0
41
1
10
80.293902185556
20
13.3352909182868
30
0
41
1
10
80.2989931063469
20
13.354316751746
30
0
41
1
10
80.3012688288376
20
13.3676148741128
30
0
41
1
10
80.3072342190547
20
13.4077317957795
30
0
41
1
10
80.3098351252204
20
13.4349529775253
30
0
41
1
10
80.3142149381814
20
13.4894435372779
30
0
41
1
10
80.3159006901463
20
13.5167876440397
30
0
41
1
10
80.3201218686793
20
13.598970549544
30
0
41
1
10
80.3218227272853
20
13.65397059931
30
0
41
1
10
80.3240293491824
20
13.7640982784604
30
0
41
1
10
80.3245000000045
20
13.8192150884173
30
0
41
1
10
80.3245000000045
20
13.8743632971165
30
0
0
SPLINE
5
1A7
100
AcDbEntity
8
1
62
256
6
ByLayer
370
18
48
1
60
0
100
AcDbSpline
70
4
71
3
72
22
73
18
40
0
40
0
40
0
40
0
40
0.249999999999999
40
0.249999999999999
40
0.375
40
0.375
40
0.500000000000001
40
0.500000000000001
40
0.625000000000002
40
0.625000000000002
40
0.750000000000003
40
0.750000000000003
40
0.812500000000002
40
0.812500000000002
40
0.875000000000001
40
0.875000000000001
40
1
40
1
40
1
40
1
41
1
10
10.1056624327026
20
29.9139548464691
30
0
41
1
10
10.1212498345488
20
29.9327542695084
30
0
41
1
10
10.1399018475136
20
29.9510098933136
30
0
41
1
10
10.1740902691451
20
29.977413331973
30
0
41
1
10
10.1865318440058
20
29.9860499646858
30
0
41
1
10
10.2140339430554
20
30.0029372147449
30
0
41
1
10
10.2291686648069
20
30.011226780568
30
0
41
1
10
10.2625095528537
20
30.0271090091071
30
0
41
1
10
10.2806617049328
20
30.0346937657148
30
0
41
1
10
10.3210597058744
20
30.048921013161
30
0
41
1
10
10.3431560434001
20
30.0554993245996
30
0
41
1
10
10.3794828926306
20
30.0640378913834
30
0
41
1
10
10.392156025832
20
30.0666711051738
30
0
41
1
10
10.4189050579785
20
30.0714138984386
30
0
41
1
10
10.432985740966
20
30.073514408101
30
0
41
1
10
10.4761894743047
20
30.0786461490401
30
0
41
1
10
10.5072412025891
20
30.0805927603169
30
0
41
1
10
10.5386751345948
20
30.0805927603169
30
0
0
SPLINE
5
1A8
100
AcDbEntity
8
1
62
256
6
ByLayer
370
18
48
1
60
0
100
AcDbSpline
70
4
71
3
72
14
73
10
40
0
40
0
40
0
40
0
40
0.25
40
0.25
40
0.5
40
0.5
40
0.75
40
0.75
40
1
40
1
40
1
40
1
41
1
10
80.3245
20
30.1463193271823
30
0
41
1
10
80.3245
20
30.1493536764683
30
0
41
1
10
80.3220340114651
20
30.1547938153032
30
0
41
1
10
80.3136941357516
20
30.1685224069777
30
0
41
1
10
80.3077590882458
20
30.1769402543422
30
0
41
1
10
80.2939317352527
20
30.1951434737655
30
0
41
1
10
80.2858752775872
20
30.2051515681115
30
0
41
1
10
80.2685537467018
20
30.2258583546616
30
0
41
1
10
80.2592867142817
20
30.2365681993686
30
0
41
1
10
80.2495
20
30.2475864397169
30
0
0
SPLINE
5
1A9
100
AcDbEntity
8
1
62
256
6
ByLayer
370
18
48
1
60
0
100
AcDbSpline
70
4
71
3
72
20
73
16
40
0
40
0
40
0
40
0
40
0.249999999999966
40
0.249999999999966
40
0.374999999999972
40
0.374999999999972
40
0.499999999999978
40
0.499999999999978
40
0.624999999999983
40
0.624999999999983
40
0.749999999999989
40
0.749999999999989
40
0.874999999999994
40
0.874999999999994
40
1
40
1
40
1
40
1
41
1
10
79.6055
20
-7.96622562512155
30
0
41
1
10
79.5842527177493
20
-7.98973211060508
30
0
41
1
10
79.5647591784121
20
-8.01224560233797
30
0
41
1
10
79.541538810157
20
-8.04124559106106
30
0
41
1
10
79.5348191531312
20
-8.05011437807019
30
0
41
1
10
79.5248488902685
20
-8.06471044004024
30
0
41
1
10
79.52154227505
20
-8.0705386140865
30
0
41
1
10
79.5198797900557
20
-8.07734398175859
30
0
41
1
10
79.5215268512072
20
-8.07828103051983
30
0
41
1
10
79.5299273542161
20
-8.07478519074729
30
0
41
1
10
79.5364749055012
20
-8.07045413706854
30
0
41
1
10
79.5527289309234
20
-8.05806718415045
30
0
41
1
10
79.5623212415122
20
-8.05010660988768
30
0
41
1
10
79.5830767110618
20
-8.03206471485086
30
0
41
1
10
79.5940553495815
20
-8.02215148385909
30
0
41
1
10
79.6055
20
-8.01155124309341
30
0
0
SPLINE
5
1AA
100
AcDbEntity
8
1
62
256
6
ByLayer
370
18
48
1
60
0
100
AcDbSpline
70
4
71
3
72
8
73
4
40
0
40
0
40
0
40
0
40
1
40
1
40
1
40
1
41
1
10
79.6055
20
28.0974568928041
30
0
41
1
10
79.8234311235556
20
27.7578238253877
30
0
41
1
10
80.0382071317381
20
27.4155530145199
30
0
41
1
10
80.2495
20
27.0703702247132
30
0
0
SPLINE
5
1AB
100
AcDbEntity
8
1
62
256
6
ByLayer
370
18
48
1
60
0
100
AcDbSpline
70
4
71
3
72
8
73
4
40
0
40
0
40
0
40
0
40
1
40
1
40
1
40
1
41
1
10
79.6055
20
-5.2826993267326
30
0
41
1
10
79.8201732371937
20
-5.10692298745036
30
0
41
1
10
80.0348401170212
20
-4.9311362953957
30
0
41
1
10
80.2495
20
-4.75533821237497
30
0
0
SPLINE
5
1AC
100
AcDbEntity
8
1
62
256
6
ByLayer
370
18
48
1
60
0
100
AcDbSpline
70
4
71
3
72
8
73
4
40
0
40
0
40
0
40
0
40
1
40
1
40
1
40
1
41
1
10
80.2495
20
0.408783299086536
30
0
41
1
10
80.0449435898546
20
-0.108267525243093
30
0
41
1
10
79.829910422179
20
-0.619454603745737
30
0
41
1
10
79.6055
20
-1.12539331825741
30
0
0
SPLINE
5
1AD
100
AcDbEntity
8
1
62
256
6
ByLayer
370
18
48
1
60
0
100
AcDbSpline
70
4
71
3
72
8
73
4
40
0
40
0
40
0
40
0
40
1
40
1
40
1
40
1
41
1
10
79.6055
20
28.9690368442115
30
0
41
1
10
79.8226281001308
20
28.6583021627902
30
0
41
1
10
80.0373746492063
20
28.345389577551
30
0
41
1
10
80.2495
20
28.0300799335829
30
0
0
SPLINE
5
1AE
100
AcDbEntity
8
1
62
256
6
ByLayer
370
18
48
1
60
0
100
AcDbSpline
70
4
71
3
72
14
73
10
40
0
40
0
40
0
40
0
40
0.25
40
0.25
40
0.5
40
0.5
40
0.75
40
0.75
40
1
40
1
40
1
40
1
41
1
10
80.3245
20
-6.73091262382377
30
0
41
1
10
80.3245
20
-6.72691789710078
30
0
41
1
10
80.3226261329832
20
-6.72475946430143
30
0
41
1
10
80.314843542028
20
-6.7248115931792
30
0
41
1
10
80.3091628945776
20
-6.72698104097401
30
0
41
1
10
80.294854222523
20
-6.73503253593012
30
0
41
1
10
80.2865896124374
20
-6.7407014516844
30
0
41
1
10
80.2686127181098
20
-6.75437559966096
30
0
41
1
10
80.2592097044671
20
-6.76214053984162
30
0
41
1
10
80.2495
20
-6.7705960321683
30
0
0
SPLINE
5
1AF
100
AcDbEntity
8
1
62
256
6
ByLayer
370
18
48
1
60
0
100
AcDbSpline
70
4
71
3
72
14
73
10
40
0
40
0
40
0
40
0
40
0.25
40
0.25
40
0.5
40
0.5
40
0.75
40
0.75
40
1
40
1
40
1
40
1
41
1
10
80.3245
20
30.3780838423543
30
0
41
1
10
80.3245
20
30.3798173955346
30
0
41
1
10
80.3221013638942
20
30.3839223696908
30
0
41
1
10
80.3138032295433
20
30.3952982718544
30
0
41
1
10
80.3078502165317
20
30.4026622738455
30
0
41
1
10
80.2939510937763
20
30.4190232687972
30
0
41
1
10
80.2858335791893
20
30.428226363608
30
0
41
1
10
80.2684939445531
20
30.4474193398036
30
0
41
1
10
80.2592424533952
20
30.4574479050799
30
0
41
1
10
80.2495
20
30.4678441313361
30
0
0
SPLINE
5
1B0
100
AcDbEntity
8
1
62
256
6
ByLayer
370
18
48
1
60
0
100
AcDbSpline
70
4
71
3
72
8
73
4
40
0
40
0
40
0
40
0
40
1
40
1
40
1
40
1
41
1
10
79.6055
20
-7.33040036281014
30
0
41
1
10
79.8203025465447
20
-7.14400752379848
30
0
41
1
10
80.0349733553288
20
-6.95741205772757
30
0
41
1
10
80.2495
20
-6.7705960321683
30
0
0
SPLINE
5
1B1
100
AcDbEntity
8
1
62
256
6
ByLayer
370
18
48
1
60
0
100
AcDbSpline
70
4
71
3
72
12
73
8
40
0
40
0
40
0
40
0
40
0.499999999999999
40
0.499999999999999
40
0.749999999999999
40
0.749999999999999
40
1
40
1
40
1
40
1
41
1
10
80.2495000000002
20
2.8855949578269
30
0
41
1
10
80.2712546187304
20
2.95858073693185
30
0
41
1
10
80.2887186806718
20
3.03160737004271
30
0
41
1
10
80.3085114899594
20
3.14123356811777
30
0
41
1
10
80.3139715238253
20
3.17761162299249
30
0
41
1
10
80.321917021225
20
3.24947594849908
30
0
41
1
10
80.3245
20
3.28504717170765
30
0
41
1
10
80.3245
20
3.31991451866884
30
0
0
SPLINE
5
1B2
100
AcDbEntity
8
1
62
256
6
ByLayer
370
18
48
1
60
0
100
AcDbSpline
70
4
71
3
72
12
73
8
40
0
40
0
40
0
40
0
40
0.499999999999951
40
0.499999999999951
40
0.749999999999975
40
0.749999999999975
40
1
40
1
40
1
40
1
41
1
10
80.2495
20
-6.9028498781752
30
0
41
1
10
80.2692137713121
20
-6.87931191361727
30
0
41
1
10
80.2870761228951
20
-6.85636702847958
30
0
41
1
10
80.3077117374033
20
-6.82604757221742
30
0
41
1
10
80.3136263405846
20
-6.81650080786645
30
0
41
1
10
80.3220024813361
20
-6.80024705945348
30
0
41
1
10
80.3245000000003
20
-6.79344049445601
30
0
41
1
10
80.3245000000003
20
-6.78902401287547
30
0
0
SPLINE
5
1B3
100
AcDbEntity
8
1
62
256
6
ByLayer
370
18
48
1
60
0
100
AcDbSpline
70
4
71
3
72
8
73
4
40
0
40
0
40
0
40
0
40
1
40
1
40
1
40
1
41
1
10
80.2495
20
-7.24758643971691
30
0
41
1
10
80.0357525342202
20
-7.48823114273273
30
0
41
1
10
79.8210594377484
20
-7.72774595819482
30
0
41
1
10
79.6055
20
-7.96622562512158
30
0
0
SPLINE
5
1B4
100
AcDbEntity
8
1
62
256
6
ByLayer
370
18
48
1
60
0
100
AcDbSpline
70
4
71
3
72
8
73
4
40
0
40
0
40
0
40
0
40
1
40
1
40
1
40
1
41
1
10
80.2495
20
30.4129704705177
30
0
41
1
10
80.0351378607354
20
30.6129342405493
30
0
41
1
10
79.8204626786589
20
30.81244894935
30
0
41
1
10
79.6055
20
31.0115512430934
30
0
0
SPLINE
5
1B5
100
AcDbEntity
8
1
62
256
6
ByLayer
370
18
48
1
60
0
100
AcDbSpline
70
4
71
3
72
8
73
4
40
0
40
0
40
0
40
0
40
1
40
1
40
1
40
1
41
1
10
80.2495
20
-7.46784413133611
30
0
41
1
10
80.0355472223686
20
-7.69615433146583
30
0
41
1
10
79.8208603034311
20
-7.92354053540086
30
0
41
1
10
79.6055
20
-8.15007921215764
30
0
0
SPLINE
5
1B6
100
AcDbEntity
8
1
62
256
6
ByLayer
370
18
48
1
60
0
100
AcDbSpline
70
4
71
3
72
8
73
4
40
0
40
0
40
0
40
0
40
1
40
1
40
1
40
1
41
1
10
80.2495
20
-2.89198788418858
30
0
41
1
10
80.0394393316015
20
-3.27589582489912
30
0
41
1
10
79.8246182466614
20
-3.65622231655209
30
0
41
1
10
79.6055
20
-4.03331588401392
30
0
0
SPLINE
5
1B7
100
AcDbEntity
8
1
62
256
6
ByLayer
370
18
48
1
60
0
100
AcDbSpline
70
4
71
3
72
18
73
14
40
0
40
0
40
0
40
0
40
0.125000000000019
40
0.125000000000019
40
0.250000000000039
40
0.250000000000039
40
0.375000000000058
40
0.375000000000058
40
0.500000000000078
40
0.500000000000078
40
0.750000000000039
40
0.750000000000039
40
1
40
1
40
1
40
1
41
1
10
80.2494999999998
20
21.9146279387551
30
0
41
1
10
80.2550049788101
20
21.9094222642645
30
0
41
1
10
80.2607471989824
20
21.9047102840508
30
0
41
1
10
80.2722719837174
20
21.8973363917776
30
0
41
1
10
80.2782056647285
20
21.8946217725861
30
0
41
1
10
80.2893124647998
20
21.8923988253769
30
0
41
1
10
80.2945557627869
20
21.892912597402
30
0
41
1
10
80.3034343281571
20
21.896913079466
30
0
41
1
10
80.3071286351407
20
21.9003404441787
30
0
41
1
10
80.3160954547509
20
21.9129759221184
30
0
41
1
10
80.3195542386962
20
21.9245951089765
30
0
41
1
10
80.3237421835355
20
21.9491802546459
30
0
41
1
10
80.3245
20
21.9622966572634
30
0
41
1
10
80.3245
20
21.9758747057918
30
0
0
SPLINE
5
1B8
100
AcDbEntity
8
1
62
256
6
ByLayer
370
18
48
1
60
0
100
AcDbSpline
70
4
71
3
72
14
73
10
40
0
40
0
40
0
40
0
40
0.25
40
0.25
40
0.5
40
0.5
40
0.75
40
0.75
40
1
40
1
40
1
40
1
41
1
10
80.2495
20
30.4129704705177
30
0
41
1
10
80.2592181581408
20
30.403905065842
30
0
41
1
10
80.2686645692863
20
30.3952835726591
30
0
41
1
10
80.2861495352743
20
30.3797984618444
30
0
41
1
10
80.2943752214035
20
30.3727705037188
30
0
41
1
10
80.3084746373257
20
30.3614390573629
30
0
41
1
10
80.3143816471265
20
30.3571198467059
30
0
41
1
10
80.3223777513261
20
30.3525031712642
30
0
41
1
10
80.3245
20
30.3522049260041
30
0
41
1
10
80.3245
20
30.3539790198802
30
0
0
SPLINE
5
1B9
100
AcDbEntity
8
1
62
256
6
ByLayer
370
18
48
1
60
0
100
AcDbSpline
70
4
71
3
72
14
73
10
40
0
40
0
40
0
40
0
40
0.25
40
0.25
40
0.5
40
0.5
40
0.75
40
0.75
40
1
40
1
40
1
40
1
41
1
10
80.2495
20
-7.46784413133611
30
0
41
1
10
80.2592496041162
20
-7.45744027450564
30
0
41
1
10
80.268519251578
20
-7.44739218523767
30
0
41
1
10
80.2859116916072
20
-7.42813903966282
30
0
41
1
10
80.2939838635032
20
-7.41898537103097
30
0
41
1
10
80.3078579262551
20
-7.40265252029243
30
0
41
1
10
80.3138122574569
20
-7.39528742570511
30
0
41
1
10
80.3221165962266
20
-7.38389995302404
30
0
41
1
10
80.3245
20
-7.37981315485089
30
0
41
1
10
80.3245
20
-7.3780838423543
30
0
0
SPLINE
5
1BA
100
AcDbEntity
8
1
62
256
6
ByLayer
370
18
48
1
60
0
100
AcDbSpline
70
4
71
3
72
14
73
10
40
0
40
0
40
0
40
0
40
0.25
40
0.25
40
0.5
40
0.5
40
0.75
40
0.75
40
1
40
1
40
1
40
1
41
1
10
80.3245
20
29.2986396737458
30
0
41
1
10
80.3245
20
29.30466776027
30
0
41
1
10
80.3219585951293
20
29.3129038412025
30
0
41
1
10
80.31345050483
20
29.3320919898525
30
0
41
1
10
80.3076457024702
20
29.3426975094091
30
0
41
1
10
80.2938160716918
20
29.3653586799415
30
0
41
1
10
80.2858454453667
20
29.3772918268094
30
0
41
1
10
80.2686722258868
20
29.4014801599266
30
0
41
1
10
80.2593984893986
20
29.4138435403137
30
0
41
1
10
80.2495
20
29.4264544727241
30
0
0
SPLINE
5
1BB
100
AcDbEntity
8
1
62
256
6
ByLayer
370
18
48
1
60
0
100
AcDbSpline
70
4
71
3
72
14
73
10
40
0
40
0
40
0
40
0
40
0.25
40
0.25
40
0.5
40
0.5
40
0.75
40
0.75
40
1
40
1
40
1
40
1
41
1
10
80.2495
20
27.7553382123748
30
0
41
1
10
80.2593988680458
20
27.7472314250126
30
0
41
1
10
80.2692232297387
20
27.7400961103482
30
0
41
1
10
80.2879744187915
20
27.7291854674856
30
0
41
1
10
80.2967314342812
20
27.7256010647454
30
0
41
1
10
80.3108522464072
20
27.7237352895698
30
0
41
1
10
80.3162924651551
20
27.7254991105443
30
0
41
1
10
80.3230201101131
20
27.7333581500305
30
0
41
1
10
80.3245000000004
20
27.7394805992425
30
0
41
1
10
80.3245000000004
20
27.7467427634159
30
0
0
SPLINE
5
1BC
100
AcDbEntity
8
1
62
256
6
ByLayer
370
18
48
1
60
0
100
AcDbSpline
70
4
71
3
72
8
73
4
40
0
40
0
40
0
40
0
40
1
40
1
40
1
40
1
41
1
10
79.6055
20
-8.01155124309341
30
0
41
1
10
79.8204626786589
20
-7.81244894934997
30
0
41
1
10
80.0351378607354
20
-7.61293424054929
30
0
41
1
10
80.2495
20
-7.41297047051771
30
0
0
SPLINE
5
1BD
100
AcDbEntity
8
1
62
256
6
ByLayer
370
18
48
1
60
0
100
AcDbSpline
70
4
71
3
72
24
73
20
40
0
40
0
40
0
40
0
40
0.249999999999997
40
0.249999999999997
40
0.499999999999994
40
0.499999999999994
40
0.624999999999996
40
0.624999999999996
40
0.687499999999996
40
0.687499999999996
40
0.749999999999997
40
0.749999999999997
40
0.812499999999998
40
0.812499999999998
40
0.874999999999999
40
0.874999999999999
40
0.937499999999999
40
0.937499999999999
40
1
40
1
40
1
40
1
41
1
10
79.6055
20
-1.12539331825741
30
0
41
1
10
79.5871052913815
20
-1.16686463292231
30
0
41
1
10
79.5710912961356
20
-1.20811059154732
30
0
41
1
10
79.5440852439905
20
-1.29010747124673
30
0
41
1
10
79.5329517483909
20
-1.3312335257821
30
0
41
1
10
79.5230384094655
20
-1.38953381308158
30
0
41
1
10
79.5208319714489
20
-1.40860424620749
30
0
41
1
10
79.5203839976251
20
-1.43554705147903
30
0
41
1
10
79.5207198225128
20
-1.44415877578896
30
0
41
1
10
79.5227347251933
20
-1.46036613942024
30
0
41
1
10
79.5244381152916
20
-1.46805443036527
30
0
41
1
10
79.529778126137
20
-1.48132983238489
30
0
41
1
10
79.5334545596744
20
-1.48700331628703
30
0
41
1
10
79.5434049494314
20
-1.49472355235829
30
0
41
1
10
79.5497502602556
20
-1.49666179797029
30
0
41
1
10
79.5642590289375
20
-1.4956830047328
30
0
41
1
10
79.5724545920519
20
-1.49278212791489
30
0
41
1
10
79.588892883095
20
-1.4837225694705
30
0
41
1
10
79.59733722664
20
-1.47751873389876
30
0
41
1
10
79.6055000000001
20
-1.47050560153002
30
0
0
SPLINE
5
1BE
100
AcDbEntity
8
1
62
256
6
ByLayer
370
18
48
1
60
0
100
AcDbSpline
70
4
71
3
72
8
73
4
40
0
40
0
40
0
40
0
40
1
40
1
40
1
40
1
41
1
10
79.6055
20
-3.01007727764986
30
0
41
1
10
79.8202039791954
20
-2.83237004341848
30
0
41
1
10
80.0348720691877
20
-2.65460497685515
30
0
41
1
10
80.2495
20
-2.47677529871274
30
0
0
SPLINE
5
1BF
100
AcDbEntity
8
1
62
256
6
ByLayer
370
18
48
1
60
0
100
AcDbSpline
70
4
71
3
72
20
73
16
40
0
40
0
40
0
40
0
40
0.0624999999999996
40
0.0624999999999996
40
0.124999999999999
40
0.124999999999999
40
0.25
40
0.25
40
0.375000000000001
40
0.375000000000001
40
0.500000000000001
40
0.500000000000001
40
0.750000000000001
40
0.750000000000001
40
1
40
1
40
1
40
1
41
1
10
10.5386751345949
20
-30.0805927603169
30
0
41
1
10
10.5229355536388
20
-30.0805927603169
30
0
41
1
10
10.5074817098165
20
-30.0801205034908
30
0
41
1
10
10.4770951469809
20
-30.0783134473999
30
0
41
1
10
10.4620456032698
20
-30.0769634801343
30
0
41
1
10
10.4184736929998
20
-30.0717959485601
30
0
41
1
10
10.3920418953325
20
-30.0669872793662
30
0
41
1
10
10.3428384525281
20
-30.055427253592
30
0
41
1
10
10.3209123403485
20
-30.048869374708
30
0
41
1
10
10.2807959636713
20
-30.0347407881727
30
0
41
1
10
10.2625062023862
20
-30.027107286276
30
0
41
1
10
10.2125137122669
20
-30.0032932993814
30
0
41
1
10
10.1857347330744
20
-29.9863830332716
30
0
41
1
10
10.1400559187761
20
-29.9511519005795
30
0
41
1
10
10.1212556944726
20
-29.9327613369588
30
0
41
1
10
10.1056624327026
20
-29.9139548464691
30
0
0
SPLINE
5
1C0
100
AcDbEntity
8
1
62
256
6
ByLayer
370
18
48
1
60
0
100
AcDbSpline
70
4
71
3
72
8
73
4
40
0
40
0
40
0
40
0
40
1
40
1
40
1
40
1
41
1
10
80.2495
20
-1.4353083296312
30
0
41
1
10
80.0414057264598
20
-1.8723826835176
30
0
41
1
10
79.8265103487022
20
-2.30495853309319
30
0
41
1
10
79.6055
20
-2.73348971252761
30
0
0
SPLINE
5
1C1
100
AcDbEntity
8
1
62
256
6
ByLayer
370
18
48
1
60
0
100
AcDbSpline
70
4
71
3
72
8
73
4
40
0
40
0
40
0
40
0
40
1
40
1
40
1
40
1
41
1
10
79.6055
20
27.0333158840139
30
0
41
1
10
79.8246182466614
20
26.6562223165521
30
0
41
1
10
80.0394393316015
20
26.2758958248991
30
0
41
1
10
80.2495
20
25.8919878841886
30
0
0
SPLINE
5
1C2
100
AcDbEntity
8
1
62
256
6
ByLayer
370
18
48
1
60
0
100
AcDbSpline
70
4
71
3
72
22
73
18
40
0
40
0
40
0
40
0
40
0.125000000000042
40
0.125000000000042
40
0.250000000000083
40
0.250000000000083
40
0.312500000000079
40
0.312500000000079
40
0.375000000000076
40
0.375000000000076
40
0.500000000000068
40
0.500000000000068
40
0.62500000000006
40
0.62500000000006
40
0.750000000000053
40
0.750000000000053
40
1
40
1
40
1
40
1
41
1
10
79.6055
20
29.7968754376164
30
0
41
1
10
79.592993500049
20
29.8074523250385
30
0
41
1
10
79.5807062764317
20
29.8169884662057
30
0
41
1
10
79.5581387309791
20
29.8320952215856
30
0
41
1
10
79.5477275950539
20
29.8377169168032
30
0
41
1
10
79.5354434931644
20
29.8413685698684
30
0
41
1
10
79.5319682827651
20
29.8417770780818
30
0
41
1
10
79.5263821989246
20
29.8409817366965
30
0
41
1
10
79.5242299754903
20
29.8397516724482
30
0
41
1
10
79.5199462725363
20
29.8338790234322
30
0
41
1
10
79.5198997335546
20
29.8270135233085
30
0
41
1
10
79.5238716179545
20
29.8100249021396
30
0
41
1
10
79.5278862228095
20
29.799761289305
30
0
41
1
10
79.5384305992329
20
29.777690421516
30
0
41
1
10
79.5449915632616
20
29.7657814976337
30
0
41
1
10
79.5674181822309
20
29.728501555755
30
0
41
1
10
79.5853406471265
20
29.7025463743235
30
0
41
1
10
79.6055
20
29.6757784213043
30
0
0
SPLINE
5
1C3
100
AcDbEntity
8
1
62
256
6
ByLayer
370
18
48
1
60
0
100
AcDbSpline
70
4
71
3
72
22
73
18
40
0
40
0
40
0
40
0
40
0.124999999999956
40
0.124999999999956
40
0.187499999999963
40
0.187499999999963
40
0.24999999999997
40
0.24999999999997
40
0.312499999999978
40
0.312499999999978
40
0.374999999999985
40
0.374999999999985
40
0.499999999999992
40
0.499999999999992
40
0.749999999999996
40
0.749999999999996
40
1
40
1
40
1
40
1
41
1
10
79.6055
20
28.2826993267326
30
0
41
1
10
79.5919745228994
20
28.29377410663
30
0
41
1
10
79.5785728919488
20
28.3032351891506
30
0
41
1
10
79.5600728324478
20
28.3127399031511
30
0
41
1
10
79.5542464597728
20
28.3150706091348
30
0
41
1
10
79.5437822549354
20
28.3176552021779
30
0
41
1
10
79.5390803570253
20
28.3178985994964
30
0
41
1
10
79.5314043088806
20
28.3162564980175
30
0
41
1
10
79.5283069146797
20
28.314376925707
30
0
41
1
10
79.5236849638678
20
28.3087898475588
30
0
41
1
10
79.5221857379061
20
28.3051654829402
30
0
41
1
10
79.5196474365467
20
28.292280964629
30
0
41
1
10
79.5206044294397
20
28.2813013056084
30
0
41
1
10
79.5284300061337
20
28.2448847871389
30
0
41
1
10
79.5400814481017
20
28.2161474341274
30
0
41
1
10
79.5688013884062
20
28.1577627074369
30
0
41
1
10
79.5859730146255
20
28.1278885715471
30
0
41
1
10
79.6055
20
28.0974568928041
30
0
0
SPLINE
5
1C4
100
AcDbEntity
8
1
62
256
6
ByLayer
370
18
48
1
60
0
100
AcDbSpline
70
4
71
3
72
8
73
4
40
0
40
0
40
0
40
0
40
1
40
1
40
1
40
1
41
1
10
80.2495
20
30.154960886978
30
0
41
1
10
80.0350473703234
20
30.3478202535533
30
0
41
1
10
79.8203746839424
20
30.5403524947096
30
0
41
1
10
79.6055
20
30.732584456276
30
0
0
SPLINE
5
1C5
100
AcDbEntity
8
1
62
256
6
ByLayer
370
18
48
1
60
0
100
AcDbSpline
70
4
71
3
72
8
73
4
40
0
40
0
40
0
40
0
40
1
40
1
40
1
40
1
41
1
10
79.6055
20
30.9662256251216
30
0
41
1
10
79.8210594377484
20
30.7277459581948
30
0
41
1
10
80.0357525342202
20
30.4882311427327
30
0
41
1
10
80.2495
20
30.2475864397169
30
0
0
SPLINE
5
1C6
100
AcDbEntity
8
1
62
256
6
ByLayer
370
18
48
1
60
0
100
AcDbSpline
70
4
71
3
72
8
73
4
40
0
40
0
40
0
40
0
40
1
40
1
40
1
40
1
41
1
10
79.6055
20
0.480667510450985
30
0
41
1
10
79.8207399691693
20
0.681421617672328
30
0
41
1
10
80.035436607666
20
0.882947241960295
30
0
41
1
10
80.2495
20
1.08537206124413
30
0
0
SPLINE
5
1C7
100
AcDbEntity
8
1
62
256
6
ByLayer
370
18
48
1
60
0
100
AcDbSpline
70
4
71
3
72
16
73
12
40
0
40
0
40
0
40
0
40
0.25
40
0.25
40
0.500000000000001
40
0.500000000000001
40
0.625
40
0.625
40
0.75
40
0.75
40
1
40
1
40
1
40
1
41
1
10
80.3245000000022
20
-0.951792069565755
30
0
41
1
10
80.3245000000023
20
-0.940367383973097
30
0
41
1
10
80.3235743306348
20
-0.929625754431044
30
0
41
1
10
80.3185093869108
20
-0.910534368402836
30
0
41
1
10
80.3143452477188
20
-0.902366709737663
30
0
41
1
10
80.3043830436249
20
-0.895268619563666
30
0
41
1
10
80.3004139948646
20
-0.893803109393332
30
0
41
1
10
80.2915112087763
20
-0.893158434876796
30
0
41
1
10
80.2865270212046
20
-0.893979604637735
30
0
41
1
10
80.2710236762014
20
-0.899442792949543
30
0
41
1
10
80.2600273798581
20
-0.90692768470592
30
0
41
1
10
80.2495
20
-0.916012299715817
30
0
0
SPLINE
5
1C8
100
AcDbEntity
8
1
62
256
6
ByLayer
370
18
48
1
60
0
100
AcDbSpline
70
4
71
3
72
8
73
4
40
0
40
0
40
0
40
0
40
1
40
1
40
1
40
1
41
1
10
80.2495
20
-5.0300799335829
30
0
41
1
10
80.0373746492063
20
-5.34538957755098
30
0
41
1
10
79.8226281001308
20
-5.65830216279022
30
0
41
1
10
79.6055
20
-5.96903684421153
30
0
0
SPLINE
5
1C9
100
AcDbEntity
8
1
62
256
6
ByLayer
370
18
48
1
60
0
100
AcDbSpline
70
4
71
3
72
14
73
10
40
0
40
0
40
0
40
0
40
0.25
40
0.25
40
0.5
40
0.5
40
0.75
40
0.75
40
1
40
1
40
1
40
1
41
1
10
80.3245
20
-7.35397901988017
30
0
41
1
10
80.3245
20
-7.35218574992595
30
0
41
1
10
80.3223878094291
20
-7.35249392290669
30
0
41
1
10
80.3143250205302
20
-7.35715600206029
30
0
41
1
10
80.3084139015723
20
-7.36148552893178
30
0
41
1
10
80.2943158035337
20
-7.37282061749633
30
0
41
1
10
80.2860834716846
20
-7.37985451031295
30
0
41
1
10
80.2684766460953
20
-7.39545249680589
30
0
41
1
10
80.2591819648805
20
-7.40393882805762
30
0
41
1
10
80.2495
20
-7.41297047051771
30
0
0
SPLINE
5
1CA
100
AcDbEntity
8
1
62
256
6
ByLayer
370
18
48
1
60
0
100
AcDbSpline
70
4
71
3
72
14
73
10
40
0
40
0
40
0
40
0
40
0.25
40
0.25
40
0.5
40
0.5
40
0.75
40
0.75
40
1
40
1
40
1
40
1
41
1
10
80.2495
20
-6.42645447272406
30
0
41
1
10
80.2594452716602
20
-6.41378393849806
30
0
41
1
10
80.2688578737818
20
-6.40122969250046
30
0
41
1
10
80.2860631262544
20
-6.37697394801239
30
0
41
1
10
80.2939188644348
20
-6.36520040882098
30
0
41
1
10
80.3077301342476
20
-6.34254885667187
30
0
41
1
10
80.313549981919
20
-6.33188345238702
30
0
41
1
10
80.3219388885768
20
-6.31293232271574
30
0
41
1
10
80.324500000001
20
-6.3045938255255
30
0
41
1
10
80.324500000001
20
-6.29863967374487
30
0
0
SPLINE
5
1CB
100
AcDbEntity
8
1
62
256
6
ByLayer
370
18
48
1
60
0
100
AcDbSpline
70
4
71
3
72
90
73
86
40
0
40
0
40
0
40
0
40
0.0312315224341853
40
0.0312315224341853
40
0.0624821184846961
40
0.0624821184846961
40
0.0781074165099514
40
0.0781074165099514
40
0.0859200655225791
40
0.0859200655225791
40
0.0937327145352066
40
0.0937327145352066
40
0.124983310585718
40
0.124983310585718
40
0.156233906636228
40
0.156233906636228
40
0.187484502686739
40
0.187484502686739
40
0.203109800711995
40
0.203109800711995
40
0.210922449724623
40
0.210922449724623
40
0.21873509873725
40
0.21873509873725
40
0.24998569478776
40
0.24998569478776
40
0.28123629083827
40
0.312486886888781
40
0.312486886888781
40
0.343737482939291
40
0.343737482939291
40
0.351550131951918
40
0.351550131951918
40
0.359362780964546
40
0.374988078989801
40
0.374988078989801
40
0.406238675040311
40
0.406238675040311
40
0.437489271090821
40
0.437489271090821
40
0.468739867141331
40
0.468739867141331
40
0.484365165166586
40
0.484365165166586
40
0.499990463191841
40
0.499990463191841
40
0.531241059242351
40
0.531241059242351
40
0.562491655292861
40
0.562491655292861
40
0.593742251343371
40
0.593742251343371
40
0.609367549368626
40
0.609367549368626
40
0.617180198381254
40
0.617180198381254
40
0.624992847393882
40
0.624992847393882
40
0.656243443444391
40
0.656243443444391
40
0.687494039494902
40
0.718744635545411
40
0.718744635545411
40
0.749995231595922
40
0.749995231595922
40
0.757807880608549
40
0.757807880608549
40
0.765620529621177
40
0.781245827646432
40
0.781245827646432
40
0.812496423696942
40
0.843747019747451
40
0.843747019747451
40
0.874997615797961
40
0.874997615797961
40
0.882810264810589
40
0.882810264810589
40
0.890622913823216
40
0.890622913823216
40
0.906248211848471
40
0.906248211848471
40
0.937498807898981
40
0.96874940394949
40
0.96874940394949
40
1
40
1
40
1
40
1
41
1
10
22.0000000509267
20
-31.4999989163359
30
0
41
1
10
21.999989966688
20
-31.5002134842656
30
0
41
1
10
22.0014737371866
20
-31.4686313171773
30
0
41
1
10
22.0074415207235
20
-31.3417195397707
30
0
41
1
10
22.0119272333581
20
-31.2463531656052
30
0
41
1
10
22.0209653223519
20
-31.0544913155217
30
0
41
1
10
22.0243634703583
20
-30.9823925666004
30
0
41
1
10
22.0300512322452
20
-30.8618153617865
30
0
41
1
10
22.0320440231941
20
-30.8195845518885
30
0
41
1
10
22.0362093049411
20
-30.7313530736368
30
0
41
1
10
22.0383836209827
20
-30.6853137063545
30
0
41
1
10
22.0497108980597
20
-30.4455806365206
30
0
41
1
10
22.0602284213402
20
-30.2233237637414
30
0
41
1
10
22.0841476045172
20
-29.7192171678411
30
0
41
1
10
22.0975493271028
20
-29.4373650269093
30
0
41
1
10
22.12727278501
20
-28.8142978229385
30
0
41
1
10
22.1435943848637
20
-28.4730836992149
30
0
41
1
10
22.170341482904
20
-27.916099297132
30
0
41
1
10
22.1796351430121
20
-27.7229020510939
30
0
41
1
10
22.1941568350138
20
-27.4216413755944
30
0
41
1
10
22.199094301669
20
-27.3193097676296
30
0
41
1
10
22.209165863656
20
-27.1107897045303
30
0
41
1
10
22.2143032393293
20
-27.0045337174552
30
0
41
1
10
22.240373325157
20
-26.4659123610899
30
0
41
1
10
22.2625332427118
20
-26.0099072177207
30
0
41
1
10
22.3094639447084
20
-25.0490811607058
30
0
41
1
10
22.3590057257007
20
-24.0394336487694
30
0
41
1
10
22.4138855523526
20
-22.9330853396197
30
0
41
1
10
22.4715490486897
20
-21.7779727588169
30
0
41
1
10
22.5017723119365
20
-21.1760370263631
30
0
41
1
10
22.5414019303111
20
-20.3923071133229
30
0
41
1
10
22.5494296807632
20
-20.2338134798942
30
0
41
1
10
22.5656194373248
20
-19.9147353264487
30
0
41
1
10
22.5901047245415
20
-19.4329940048071
30
0
41
1
10
22.6151936738264
20
-18.9419703690056
30
0
41
1
10
22.666184697741
20
-17.9477282345604
30
0
41
1
10
22.7012615711055
20
-17.2686588215333
30
0
41
1
10
22.7736564617833
20
-15.8785373923646
30
0
41
1
10
22.8109743639247
20
-15.1674847583305
30
0
41
1
10
22.8879699577761
20
-13.7133086385055
30
0
41
1
10
22.9276473962627
20
-12.9701863284069
30
0
41
1
10
22.9890588654641
20
-11.8309397460307
30
0
41
1
10
23.0098573254122
20
-11.4468776971788
30
0
41
1
10
23.0520647652556
20
-10.6712995100466
30
0
41
1
10
23.0733562002844
20
-10.2819419927683
30
0
41
1
10
23.1378058839043
20
-9.10924769224687
30
0
41
1
10
23.1815387871699
20
-8.32129628386767
30
0
41
1
10
23.2706197514053
20
-6.73334666178718
30
0
41
1
10
23.3159677281282
20
-5.9333479989188
30
0
41
1
10
23.4083851797629
20
-4.32134290338544
30
0
41
1
10
23.4554545048343
20
-3.50933669504204
30
0
41
1
10
23.5274500736365
20
-2.28218658095537
30
0
41
1
10
23.551680756479
20
-1.87161134132427
30
0
41
1
10
23.5883898800446
20
-1.25342738104561
30
0
41
1
10
23.6006867880412
20
-1.04697909272679
30
0
41
1
10
23.6254043616362
20
-0.633301561797396
30
0
41
1
10
23.6378092415291
20
-0.426337816437467
30
0
41
1
10
23.6998853971045
20
0.606079931831658
30
0
41
1
10
23.749884740637
20
1.42723028843511
30
0
41
1
10
23.8506303701196
20
3.06021210015163
30
0
41
1
10
23.9521228834938
20
4.68387398266302
30
0
41
1
10
24.0552439881312
20
6.28904399373863
30
0
41
1
10
24.1592444945383
20
7.88487436255298
30
0
41
1
10
24.211684487821
20
8.67812027265424
30
0
41
1
10
24.2778230333985
20
9.66367247104617
30
0
41
1
10
24.2910897113133
20
9.86062202609736
30
0
41
1
10
24.3175691852053
20
10.2522384181681
30
0
41
1
10
24.3572446381522
20
10.836794483009
30
0
41
1
10
24.3967912325988
20
11.4128243267283
30
0
41
1
10
24.4757156896501
20
12.5536743656555
30
0
41
1
10
24.5805006493632
20
14.0449495870804
30
0
41
1
10
24.6843655263571
20
15.4773456342402
30
0
41
1
10
24.7877153968017
20
16.8801839713417
30
0
41
1
10
24.839133177584
20
17.5668254889569
30
0
41
1
10
24.9030182046695
20
18.4062386397847
30
0
41
1
10
24.9157757117548
20
18.5731754293143
30
0
41
1
10
24.941249501078
20
18.9051411391369
30
0
41
1
10
24.9539772817869
20
19.0703184569718
30
0
41
1
10
24.9920086769993
20
19.5618455674287
30
0
41
1
10
25.017121062623
20
19.8836885774342
30
0
41
1
10
25.0917144864977
20
20.8319279850858
30
0
41
1
10
25.1891941242898
20
22.0501942157358
30
0
41
1
10
25.2824070219107
20
23.1775469021804
30
0
41
1
10
25.3732475206152
20
24.2591974426485
30
0
41
1
10
25.4174819478307
20
24.7771740195882
30
0
41
1
10
25.4603619117286
20
25.2717475194862
30
0
0
SPLINE
5
1CC
100
AcDbEntity
8
1
62
256
6
ByLayer
370
18
48
1
60
0
100
AcDbSpline
70
4
71
3
72
8
73
4
40
0
40
0
40
0
40
0
40
1
40
1
40
1
40
1
41
1
10
80.2495
20
-4.0703702247132
30
0
41
1
10
80.0382071317381
20
-4.4155530145199
30
0
41
1
10
79.8234311235556
20
-4.75782382538765
30
0
41
1
10
79.6055
20
-5.09745689280408
30
0
0
SPLINE
5
1CD
100
AcDbEntity
8
1
62
256
6
ByLayer
370
18
48
1
60
0
100
AcDbSpline
70
4
71
3
72
24
73
20
40
0
40
0
40
0
40
0
40
0.0625000000000006
40
0.0625000000000006
40
0.125000000000001
40
0.125000000000001
40
0.187500000000002
40
0.187500000000002
40
0.250000000000002
40
0.250000000000002
40
0.375000000000002
40
0.375000000000002
40
0.500000000000001
40
0.500000000000001
40
0.625000000000001
40
0.625000000000001
40
0.750000000000001
40
0.750000000000001
40
1
40
1
40
1
40
1
41
1
10
79.6055
20
24.4705056015292
30
0
41
1
10
79.5972284375665
20
24.4776122011715
30
0
41
1
10
79.5889144198408
20
24.4837280890158
30
0
41
1
10
79.5721570837898
20
24.4929284146394
30
0
41
1
10
79.5639110180391
20
24.4957843445632
30
0
41
1
10
79.549332527511
20
24.4966079268731
30
0
41
1
10
79.5430585144057
20
24.4945698287035
30
0
41
1
10
79.5331756087366
20
24.4866643331887
30
0
41
1
10
79.529511798149
20
24.4808577601684
30
0
41
1
10
79.5216186437243
20
24.4606395868765
30
0
41
1
10
79.520184061725
20
24.4433949621493
30
0
41
1
10
79.5209199022983
20
24.4077348478639
30
0
41
1
10
79.5231238534934
20
24.3888737778533
30
0
41
1
10
79.5298133073727
20
24.3498542855239
30
0
41
1
10
79.5343587101987
20
24.329630606807
30
0
41
1
10
79.5449466014966
20
24.289293864749
30
0
41
1
10
79.5510225071257
20
24.2690160851208
30
0
41
1
10
79.5711758684454
20
24.2079111464974
30
0
41
1
10
79.5871256147204
20
24.1668188134641
30
0
41
1
10
79.6055
20
24.1253933182574
30
0
0
SPLINE
5
1CE
100
AcDbEntity
8
1
62
256
6
ByLayer
370
18
48
1
60
0
100
AcDbSpline
70
4
71
3
72
20
73
16
40
0
40
0
40
0
40
0
40
0.0625000000000007
40
0.0625000000000007
40
0.125000000000001
40
0.125000000000001
40
0.250000000000001
40
0.250000000000001
40
0.375000000000001
40
0.375000000000001
40
0.500000000000001
40
0.500000000000001
40
0.75
40
0.75
40
1
40
1
40
1
40
1
41
1
10
10.5386751345949
20
9.3492213145251
30
0
41
1
10
10.5229355536388
20
9.3492213145251
30
0
41
1
10
10.5074817098165
20
9.35074113394288
30
0
41
1
10
10.477095146981
20
9.35655221855276
30
0
41
1
10
10.4620456032698
20
9.36089212483333
30
0
41
1
10
10.4184736929998
20
9.37748487924964
30
0
41
1
10
10.3920418953325
20
9.39290424748307
30
0
41
1
10
10.3428384525281
20
9.42982857023335
30
0
41
1
10
10.3209123403485
20
9.45071431640773
30
0
41
1
10
10.2807959636713
20
9.49551986864822
30
0
41
1
10
10.2625062023862
20
9.51963835126784
30
0
41
1
10
10.2125137122669
20
9.594536803469
30
0
41
1
10
10.1857347330744
20
9.64728479257934
30
0
41
1
10
10.1400559187761
20
9.75611455014877
30
0
41
1
10
10.1212556944726
20
9.81241059371425
30
0
41
1
10
10.1056624327026
20
9.86941261896618
30
0
0
SPLINE
5
1CF
100
AcDbEntity
8
1
62
256
6
ByLayer
370
18
48
1
60
0
100
AcDbSpline
70
4
71
3
72
12
73
8
40
0
40
0
40
0
40
0
40
0.250000000000007
40
0.250000000000007
40
0.500000000000013
40
0.500000000000013
40
1
40
1
40
1
40
1
41
1
10
80.3245
20
22.2754639616859
30
0
41
1
10
80.3245
20
22.2999091198559
30
0
41
1
10
80.3218179813059
20
22.3257509458841
30
0
41
1
10
80.3135624753292
20
22.3782508842314
30
0
41
1
10
80.3079815642766
20
22.4046421962934
30
0
41
1
10
80.2881010272376
20
22.4841111952551
30
0
41
1
10
80.2707624125431
20
22.5374723673839
30
0
41
1
10
80.2495000000004
20
22.5912167009134
30
0
0
SPLINE
5
1D0
100
AcDbEntity
8
1
62
256
6
ByLayer
370
18
48
1
60
0
100
AcDbSpline
70
4
71
3
72
12
73
8
40
0
40
0
40
0
40
0
40
0.250000000000017
40
0.250000000000017
40
0.500000000000035
40
0.500000000000035
40
1
40
1
40
1
40
1
41
1
10
80.3245000000068
20
25.6775976034331
30
0
41
1
10
80.3245000000062
20
25.6924378510664
30
0
41
1
10
80.3218101058425
20
25.7092659533737
30
0
41
1
10
80.3135026485538
20
25.7438881515721
30
0
41
1
10
80.3078290051662
20
25.7618847017252
30
0
41
1
10
80.2874766500648
20
25.8171419602466
30
0
41
1
10
80.2700729926385
20
25.8543885787198
30
0
41
1
10
80.2495
20
25.8919878841886
30
0
0
SPLINE
5
1D1
100
AcDbEntity
8
1
62
256
6
ByLayer
370
18
48
1
60
0
100
AcDbSpline
70
4
71
3
72
8
73
4
40
0
40
0
40
0
40
0
40
1
40
1
40
1
40
1
41
1
10
79.6055
20
24.1253933182574
30
0
41
1
10
79.829910422179
20
23.6194546037458
30
0
41
1
10
80.0449435898546
20
23.1082675252431
30
0
41
1
10
80.2495
20
22.5912167009135
30
0
0
SPLINE
5
1D2
100
AcDbEntity
8
1
62
256
6
ByLayer
370
18
48
1
60
0
100
AcDbSpline
70
4
71
3
72
14
73
10
40
0
40
0
40
0
40
0
40
0.25
40
0.25
40
0.5
40
0.5
40
0.75
40
0.75
40
1
40
1
40
1
40
1
41
1
10
80.3245000000001
20
-5.56633602484459
30
0
41
1
10
80.3245000000001
20
-5.56020634488161
30
0
41
1
10
80.3228790884288
20
-5.55544171188555
30
0
41
1
10
80.3157237685987
20
-5.55039445904799
30
0
41
1
10
80.3101243352504
20
-5.55014580877653
30
0
41
1
10
80.2959401497
20
-5.55431473101987
30
0
41
1
10
80.2873637090464
20
-5.55868446623614
30
0
41
1
10
80.2690111551928
20
-5.57046530434127
30
0
41
1
10
80.259309512901
20
-5.57778686920963
30
0
41
1
10
80.2495
20
-5.58592715431888
30
0
0
SPLINE
5
1D3
100
AcDbEntity
8
1
62
256
6
ByLayer
370
18
48
1
60
0
100
AcDbSpline
70
4
71
3
72
37
73
33
40
0
40
0
40
0
40
0
40
0.1249770379351
40
0.1249770379351
40
0.18746555690265
40
0.18746555690265
40
0.2499540758702
40
0.2499540758702
40
0.374931113805302
40
0.374931113805302
40
0.406175373289078
40
0.406175373289078
40
0.437419632772853
40
0.437419632772853
40
0.499908151740405
40
0.499908151740405
40
0.624885189675507
40
0.624885189675507
40
0.656129449159283
40
0.656129449159283
40
0.687373708643058
40
0.687373708643058
40
0.749862227610608
40
0.812350746578159
40
0.812350746578159
40
0.843595006061934
40
0.843595006061934
40
0.874839265545709
40
0.874839265545709
40
0.99981630348081
40
0.99981630348081
40
1
40
1
40
1
40
1
41
1
10
12
20
31.3049516849971
30
0
41
1
10
12.2314182088249
20
31.3049516849971
30
0
41
1
10
12.458933269828
20
31.3075161481206
30
0
41
1
10
12.7945989065227
20
31.3148347325499
30
0
41
1
10
12.9055460586397
20
31.3178532087286
30
0
41
1
10
13.1255167614091
20
31.3249852979913
30
0
41
1
10
13.2348007020117
20
31.3291163253886
30
0
41
1
10
13.5526250887908
20
31.342715780393
30
0
41
1
10
13.7535835564608
20
31.3534532869652
30
0
41
1
10
13.9912846106617
20
31.3681839290815
30
0
41
1
10
14.0381438647133
20
31.3711955199827
30
0
41
1
10
14.1304795006263
20
31.3773297277238
30
0
41
1
10
14.1760787863207
20
31.3804612019461
30
0
41
1
10
14.3096905930737
20
31.3899151971777
30
0
41
1
10
14.3944832440353
20
31.3962909731712
30
0
41
1
10
14.6364167707155
20
31.4153599510362
30
0
41
1
10
14.7812326567567
20
31.4279975179244
30
0
41
1
10
14.9411508056643
20
31.4427949436376
30
0
41
1
10
14.9721406892058
20
31.445711178148
30
0
41
1
10
15.0313611183923
20
31.4513637455226
30
0
41
1
10
15.0596469050723
20
31.4541049468413
30
0
41
1
10
15.1406017990977
20
31.462048695071
30
0
41
1
10
15.2381534822927
20
31.471892679748
30
0
41
1
10
15.3152146497045
20
31.47998649715
30
0
41
1
10
15.3652094338379
20
31.485303872686
30
0
41
1
10
15.380571858164
20
31.4869508111604
30
0
41
1
10
15.4086427117649
20
31.4899769836799
30
0
41
1
10
15.4213623334502
20
31.4913574686959
30
0
41
1
10
15.4775980912267
20
31.4974870196831
30
0
41
1
10
15.4998737895455
20
31.4999859766183
30
0
41
1
10
15.4999987735213
20
31.4999998637246
30
0
41
1
10
15.4999997675058
20
31.4999999741545
30
0
41
1
10
15.5000007615204
20
31.5000000843136
30
0
0
SPLINE
5
1D4
100
AcDbEntity
8
1
62
256
6
ByLayer
370
18
48
1
60
0
100
AcDbSpline
70
4
71
3
72
37
73
33
40
0
40
0
40
0
40
0
40
5.61207794486E-05
40
5.61207794486E-05
40
0.125049105682018
40
0.125049105682018
40
0.187545598133303
40
0.187545598133303
40
0.250042090584587
40
0.250042090584587
40
0.375035075487157
40
0.375035075487157
40
0.406283321712799
40
0.406283321712799
40
0.437531567938442
40
0.437531567938442
40
0.500028060389726
40
0.500028060389726
40
0.625021045292296
40
0.625021045292296
40
0.656269291517938
40
0.656269291517938
40
0.68751753774358
40
0.68751753774358
40
0.750014030194865
40
0.812510522646149
40
0.812510522646149
40
0.84375876887179
40
0.84375876887179
40
0.875007015097432
40
0.875007015097432
40
1
40
1
40
1
40
1
41
1
10
8.50000271693741
20
31.4999996980269
30
0
41
1
10
8.50000172296378
20
31.4999998085548
30
0
41
1
10
8.50000072898118
20
31.4999999190021
30
0
41
1
10
8.49978575393172
20
31.5000238051084
30
0
41
1
10
8.52231401779551
20
31.4974976833579
30
0
41
1
10
8.5887693853212
20
31.4902526099284
30
0
41
1
10
8.61640566485301
20
31.4872612041136
30
0
41
1
10
8.68288880750202
20
31.4801863745219
30
0
41
1
10
8.72192399218926
20
31.4760842555191
30
0
41
1
10
8.85346489415221
20
31.4625662361247
30
0
41
1
10
8.96081137857877
20
31.4518794915745
30
0
41
1
10
9.11932951185568
20
31.4371955804905
30
0
41
1
10
9.15226095604049
20
31.4341925110403
30
0
41
1
10
9.22061889909909
20
31.4280734449742
30
0
41
1
10
9.25614757850673
20
31.4249487199622
30
0
41
1
10
9.36571789563868
20
31.4155080489022
30
0
41
1
10
9.44259564815997
20
31.4091366001488
30
0
41
1
10
9.68437888389462
20
31.3900665967011
30
0
41
1
10
9.86032726791771
20
31.3774093009161
30
0
41
1
10
10.099224249621
20
31.3625680452515
30
0
41
1
10
10.1480924998255
20
31.3596417817796
30
0
41
1
10
10.2468195981577
20
31.3539664606208
30
0
41
1
10
10.2967356833875
20
31.3512132187559
30
0
41
1
10
10.4481130191978
20
31.3432320768579
30
0
41
1
10
10.6542860113122
20
31.3333337785229
30
0
41
1
10
10.8690222195123
20
31.3251835388678
30
0
41
1
10
11.0333373285778
20
31.3198250309811
30
0
41
1
10
11.0886538195485
20
31.318164578136
30
0
41
1
10
11.2003972189586
20
31.3151120912897
30
0
41
1
10
11.2569125897892
20
31.3137187272845
30
0
41
1
10
11.5397511438665
20
31.3075175497197
30
0
41
1
10
11.7685817911751
20
31.3049516849971
30
0
41
1
10
12
20
31.3049516849971
30
0
0
SPLINE
5
1D5
100
AcDbEntity
8
1
62
256
6
ByLayer
370
18
48
1
60
0
100
AcDbSpline
70
4
71
3
72
12
73
8
40
0
40
0
40
0
40
0
40
0.249999999999984
40
0.249999999999984
40
0.499999999999967
40
0.499999999999967
40
1
40
1
40
1
40
1
41
1
10
80.3245000000089
20
27.8675876053922
30
0
41
1
10
80.3245000000083
20
27.8772221576382
30
0
41
1
10
80.3218736994013
20
27.8890583159479
30
0
41
1
10
80.3134493924229
20
27.9145929308426
30
0
41
1
10
80.307670540604
20
27.9282616213632
30
0
41
1
10
80.287041271642
20
27.9708624306539
30
0
41
1
10
80.2696463919063
20
28.0001337171809
30
0
41
1
10
80.2495
20
28.0300799335829
30
0
0
SPLINE
5
1D6
100
AcDbEntity
8
1
62
256
6
ByLayer
370
18
48
1
60
0
100
AcDbSpline
70
4
71
3
72
14
73
10
40
0
40
0
40
0
40
0
40
0.25
40
0.25
40
0.5
40
0.5
40
0.75
40
0.75
40
1
40
1
40
1
40
1
41
1
10
80.2495
20
23.9160122997163
30
0
41
1
10
80.260085369069
20
23.9068776428477
30
0
41
1
10
80.2711217278699
20
23.8993650651572
30
0
41
1
10
80.2919675533707
20
23.8921063777258
30
0
41
1
10
80.3011759360961
20
23.8929374305927
30
0
41
1
10
80.3144074916597
20
23.9024577934998
30
0
41
1
10
80.318609915423
20
23.9108018870577
30
0
41
1
10
80.3235869454226
20
23.9297872600659
30
0
41
1
10
80.3245
20
23.9404527178704
30
0
41
1
10
80.3245
20
23.9517920695674
30
0
0
SPLINE
5
1D7
100
AcDbEntity
8
1
62
256
6
ByLayer
370
18
48
1
60
0
100
AcDbSpline
70
4
71
3
72
18
73
14
40
0
40
0
40
0
40
0
40
0.125000000000008
40
0.125000000000008
40
0.250000000000017
40
0.250000000000017
40
0.375000000000025
40
0.375000000000025
40
0.500000000000034
40
0.500000000000034
40
0.750000000000017
40
0.750000000000017
40
1
40
1
40
1
40
1
41
1
10
80.2494999999984
20
19.1335829581316
30
0
41
1
10
80.2554139583019
20
19.1266240616904
30
0
41
1
10
80.2617704585627
20
19.1203097237282
30
0
41
1
10
80.2753056805867
20
19.1114240544776
30
0
41
1
10
80.2825539823758
20
19.1091772882427
30
0
41
1
10
80.2950877586339
20
19.1116549555152
30
0
41
1
10
80.3002300690961
20
19.1160994770661
30
0
41
1
10
80.3081590515472
20
19.1275116537362
30
0
41
1
10
80.3111279719403
20
19.1345170795923
30
0
41
1
10
80.3182224099557
20
19.1566935589686
30
0
41
1
10
80.3207451881801
20
19.1733780266885
30
0
41
1
10
80.3239121953916
20
19.2071517001384
30
0
41
1
10
80.3245
20
19.2245106959303
30
0
41
1
10
80.3245
20
19.2421428531871
30
0
0
SPLINE
5
1D8
100
AcDbEntity
8
1
62
256
6
ByLayer
370
18
48
1
60
0
100
AcDbSpline
70
4
71
3
72
8
73
4
40
0
40
0
40
0
40
0
40
1
40
1
40
1
40
1
41
1
10
80.2495
20
28.5859271543189
30
0
41
1
10
80.0348686848346
20
28.7640359061465
30
0
41
1
10
79.8202009468255
20
28.9420861479081
30
0
41
1
10
79.6055
20
29.1200829661946
30
0
0
SPLINE
5
1D9
100
AcDbEntity
8
1
62
256
6
ByLayer
370
18
48
1
60
0
100
AcDbSpline
70
4
71
3
72
14
73
10
40
0
40
0
40
0
40
0
40
0.25
40
0.25
40
0.5
40
0.5
40
0.75
40
0.75
40
1
40
1
40
1
40
1
41
1
10
80.3245
20
-7.10562683678754
30
0
41
1
10
80.3245
20
-7.10272361609637
30
0
41
1
10
80.3225179945146
20
-7.10180093796856
30
0
41
1
10
80.3145530102954
20
-7.10420571698586
30
0
41
1
10
80.3087143087579
20
-7.1074938193305
30
0
41
1
10
80.2945271501969
20
-7.11721064932212
30
0
41
1
10
80.2862785502885
20
-7.12355972343533
30
0
41
1
10
80.2685178816954
20
-7.13815793233925
30
0
41
1
10
80.2591829382417
20
-7.146252925044
30
0
41
1
10
80.2495
20
-7.15496088697802
30
0
0
SPLINE
5
1DA
100
AcDbEntity
8
1
62
256
6
ByLayer
370
18
48
1
60
0
100
AcDbSpline
70
4
71
3
72
20
73
16
40
0
40
0
40
0
40
0
40
0.124999999999987
40
0.124999999999987
40
0.187499999999978
40
0.187499999999978
40
0.249999999999969
40
0.249999999999969
40
0.374999999999977
40
0.374999999999977
40
0.499999999999985
40
0.499999999999985
40
0.749999999999992
40
0.749999999999992
40
1
40
1
40
1
40
1
41
1
10
79.6055
20
27.2591455874816
30
0
41
1
10
79.5912412099917
20
27.2707955390167
30
0
41
1
10
79.5768820097358
20
27.2804531729583
30
0
41
1
10
79.5574184338992
20
27.288465770257
30
0
41
1
10
79.55141786387
20
27.2899919676717
30
0
41
1
10
79.540736957698
20
27.2903960135115
30
0
41
1
10
79.536294750605
20
27.289278403277
30
0
41
1
10
79.5253975583987
20
27.2823442394068
30
0
41
1
10
79.521806464736
20
27.2729752613701
30
0
41
1
10
79.5198177849194
20
27.2505443210121
30
0
41
1
10
79.5212007233627
20
27.2375040508776
30
0
41
1
10
79.529841545333
20
27.1949118150193
30
0
41
1
10
79.5413348811657
20
27.163103963605
30
0
41
1
10
79.5695088592519
20
27.098922252976
30
0
41
1
10
79.5863155531056
20
27.06633153483
30
0
41
1
10
79.6055
20
27.0333158840139
30
0
0
SPLINE
5
1DB
100
AcDbEntity
8
1
62
256
6
ByLayer
370
18
48
1
60
0
100
AcDbSpline
70
4
71
3
72
14
73
10
40
0
40
0
40
0
40
0
40
0.25
40
0.25
40
0.5
40
0.5
40
0.75
40
0.75
40
1
40
1
40
1
40
1
41
1
10
80.3245000000001
20
-4.74674276341622
30
0
41
1
10
80.3245000000001
20
-4.73947100022883
30
0
41
1
10
80.3230505526095
20
-4.7333911075695
30
0
41
1
10
80.3162559492657
20
-4.72545906057363
30
0
41
1
10
80.3108018796897
20
-4.72373326973894
30
0
41
1
10
80.2967025470418
20
-4.72561360527899
30
0
41
1
10
80.2879424393728
20
-4.72920776357211
30
0
41
1
10
80.2693274731261
20
-4.74003178074443
30
0
41
1
10
80.2594058159219
20
-4.74722573497272
30
0
41
1
10
80.2495
20
-4.75533821237488
30
0
0
SPLINE
5
1DC
100
AcDbEntity
8
1
62
256
6
ByLayer
370
18
48
1
60
0
100
AcDbSpline
70
4
71
3
72
14
73
10
40
0
40
0
40
0
40
0
40
0.25
40
0.25
40
0.5
40
0.5
40
0.75
40
0.75
40
1
40
1
40
1
40
1
41
1
10
80.2495
20
-7.56793708471545
30
0
41
1
10
80.2592112781079
20
-7.55806958958942
30
0
41
1
10
80.2684631746828
20
-7.54862754838612
30
0
41
1
10
80.2858574791356
20
-7.53076353730251
30
0
41
1
10
80.2940253176557
20
-7.5223134800282
30
0
41
1
10
80.3079744336769
20
-7.50770385955556
30
0
41
1
10
80.3139402091291
20
-7.50134943491219
30
0
41
1
10
80.3221868277214
20
-7.49223054951651
30
0
41
1
10
80.3245
20
-7.48942425856282
30
0
41
1
10
80.3245
20
-7.48891452049503
30
0
0
SPLINE
5
1DD
100
AcDbEntity
8
1
62
256
6
ByLayer
370
18
48
1
60
0
100
AcDbSpline
70
4
71
3
72
14
73
10
40
0
40
0
40
0
40
0
40
0.25
40
0.25
40
0.5
40
0.5
40
0.75
40
0.75
40
1
40
1
40
1
40
1
41
1
10
80.2495
20
29.7705960321683
30
0
41
1
10
80.2592295119835
20
29.7621232908817
30
0
41
1
10
80.2688025775435
20
29.7542265447333
30
0
41
1
10
80.2866018633678
20
29.7406968240446
30
0
41
1
10
80.2949542474703
20
29.7349725137476
30
0
41
1
10
80.309141149508
20
29.7269970357157
30
0
41
1
10
80.3149572318673
20
29.7247944411961
30
0
41
1
10
80.3226030338568
20
29.7247762044744
30
0
41
1
10
80.3245
20
29.7269651603499
30
0
41
1
10
80.3245
20
29.7309126238237
30
0
0
LINE
5
75
100
AcDbEntity
8
1
62
256
6
ByLayer
370
18
48
1
60
0
100
AcDbLine
10
80.324484
20
18.399495
30
0
11
84.4255
21
18.399495
31
0
39
0
210
0
220
0
230
1
0
LINE
5
77
100
AcDbEntity
8
1
62
256
6
ByLayer
370
18
48
1
60
0
100
AcDbLine
10
0
20
-31.2
30
0
11
0.3
21
-31.5
31
0
39
0
210
0
220
0
230
1
0
LINE
5
78
100
AcDbEntity
8
1
62
256
6
ByLayer
370
18
48
1
60
0
100
AcDbLine
10
22
20
-31.5
30
0
11
25.460362
21
-11.80772
31
0
39
0
210
0
220
0
230
1
0
LINE
5
79
100
AcDbEntity
8
1
62
256
6
ByLayer
370
18
48
1
60
0
100
AcDbLine
10
84.6755
20
16.399495
30
0
11
89.9255
21
16.399495
31
0
39
0
210
0
220
0
230
1
0
LINE
5
7A
100
AcDbEntity
8
1
62
256
6
ByLayer
370
18
48
1
60
0
100
AcDbLine
10
0.3
20
31.5
30
0
11
0
21
31.2
31
0
39
0
210
0
220
0
230
1
0
LINE
5
7B
100
AcDbEntity
8
1
62
256
6
ByLayer
370
18
48
1
60
0
100
AcDbLine
10
89.9255
20
26.399495
30
0
11
84.6755
21
26.399495
31
0
39
0
210
0
220
0
230
1
0
LINE
5
7C
100
AcDbEntity
8
1
62
256
6
ByLayer
370
18
48
1
60
0
100
AcDbLine
10
84.4255
20
24.399495
30
0
11
80.324484
21
24.399495
31
0
39
0
210
0
220
0
230
1
0
LINE
5
7D
100
AcDbEntity
8
1
62
256
6
ByLayer
370
18
48
1
60
0
100
AcDbLine
10
84.6755
20
16.399495
30
0
11
89.9255
21
16.399495
31
0
39
0
210
0
220
0
230
1
0
LINE
5
7E
100
AcDbEntity
8
1
62
256
6
ByLayer
370
18
48
1
60
0
100
AcDbLine
10
89.9255
20
26.399495
30
0
11
84.6755
21
26.399495
31
0
39
0
210
0
220
0
230
1
0
LINE
5
7F
100
AcDbEntity
8
1
62
256
6
ByLayer
370
18
48
1
60
0
100
AcDbLine
10
79.521897
20
31.302603
30
0
11
79.3245
21
31.5
31
0
39
0
210
0
220
0
230
1
0
LINE
5
80
100
AcDbEntity
8
1
62
256
6
ByLayer
370
18
48
1
60
0
100
AcDbLine
10
79.3245
20
-8.5
30
0
11
79.521897
21
-8.302603
31
0
39
0
210
0
220
0
230
1
0
LINE
5
81
100
AcDbEntity
8
1
62
256
6
ByLayer
370
18
48
1
60
0
100
AcDbLine
10
79.3245
20
31.5
30
0
11
29.4
21
31.5
31
0
39
0
210
0
220
0
230
1
0
LINE
5
82
100
AcDbEntity
8
1
62
256
6
ByLayer
370
18
48
1
60
0
100
AcDbLine
10
29.4
20
-8.5
30
0
11
79.3245
21
-8.5
31
0
39
0
210
0
220
0
230
1
0
LINE
5
83
100
AcDbEntity
8
SK1
62
256
6
ByLayer
370
18
48
1
60
0
100
AcDbLine
10
-0.2
20
-22.070375
30
0
11
0
21
-22.070375
31
0
39
0
210
0
220
0
230
1
0
LINE
5
85
100
AcDbEntity
8
1
62
256
6
ByLayer
370
18
48
1
60
0
100
AcDbLine
10
29.4
20
31.5
30
0
11
15.488561
21
31.5
31
0
39
0
210
0
220
0
230
1
0
LINE
5
86
100
AcDbEntity
8
1
62
256
6
ByLayer
370
18
48
1
60
0
100
AcDbLine
10
8.500314
20
31.5
30
0
11
0.3
21
31.5
31
0
39
0
210
0
220
0
230
1
0
LINE
5
87
100
AcDbEntity
8
1
62
256
6
ByLayer
370
18
48
1
60
0
100
AcDbLine
10
0.3
20
-31.5
30
0
11
22.000279
21
-31.5
31
0
39
0
210
0
220
0
230
1
0
LINE
5
88
100
AcDbEntity
8
1
62
256
6
ByLayer
370
18
48
1
60
0
100
AcDbLine
10
89.9255
20
6.600505
30
0
11
84.6755
21
6.600505
31
0
39
0
210
0
220
0
230
1
0
LINE
5
89
100
AcDbEntity
8
1
62
256
6
ByLayer
370
18
48
1
60
0
100
AcDbLine
10
84.6755
20
-3.399495
30
0
11
89.9255
21
-3.399495
31
0
39
0
210
0
220
0
230
1
0
LINE
5
8A
100
AcDbEntity
8
1
62
256
6
ByLayer
370
18
48
1
60
0
100
AcDbLine
10
84.4255
20
4.600505
30
0
11
80.324484
21
4.600505
31
0
39
0
210
0
220
0
230
1
0
LINE
5
8B
100
AcDbEntity
8
1
62
256
6
ByLayer
370
18
48
1
60
0
100
AcDbLine
10
80.324484
20
-1.399495
30
0
11
84.4255
21
-1.399495
31
0
39
0
210
0
220
0
230
1
0
LINE
5
8C
100
AcDbEntity
8
SK1
62
256
6
ByLayer
370
18
48
1
60
0
100
AcDbLine
10
0
20
22.070375
30
0
11
-0.2
21
22.070375
31
0
39
0
210
0
220
0
230
1
0
LINE
5
8D
100
AcDbEntity
8
1
62
256
6
ByLayer
370
18
48
1
60
0
100
AcDbLine
10
84.4255
20
24.399495
30
0
11
80.324484
21
24.399495
31
0
39
0
210
0
220
0
230
1
0
LINE
5
8E
100
AcDbEntity
8
1
62
256
6
ByLayer
370
18
48
1
60
0
100
AcDbLine
10
80.324484
20
18.399495
30
0
11
84.4255
21
18.399495
31
0
39
0
210
0
220
0
230
1
0
LINE
5
8F
100
AcDbEntity
8
1
62
256
6
ByLayer
370
13
48
1
60
0
100
AcDbLine
10
80.324383
20
23.785995
30
0
11
84.4255
21
23.785995
31
0
39
0
210
0
220
0
230
1
0
LINE
5
90
100
AcDbEntity
8
1
62
256
6
ByLayer
370
13
48
1
60
0
100
AcDbLine
10
80.324383
20
19.012995
30
0
11
84.4255
21
19.012995
31
0
39
0
210
0
220
0
230
1
0
LINE
5
91
100
AcDbEntity
8
1
62
256
6
ByLayer
370
18
48
1
60
0
100
AcDbLine
10
84.4255
20
19.635214
30
0
11
84.4255
21
18.399495
31
0
39
0
210
0
220
0
230
1
0
LINE
5
92
100
AcDbEntity
8
80
62
256
6
ByLayer
370
18
48
1
60
0
100
AcDbLine
10
0
20
0
30
0
11
-5
21
0
31
0
39
0
210
0
220
0
230
1
0
LINE
5
93
100
AcDbEntity
8
81
62
256
6
ByLayer
370
18
48
1
60
0
100
AcDbLine
10
80
20
11.5
30
0
11
85
21
11.5
31
0
39
0
210
0
220
0
230
1
0
LINE
5
94
100
AcDbEntity
8
4
62
256
6
ByLayer
370
18
48
0.05
60
0
100
AcDbLine
10
0
20
0
30
0
11
80
21
0
31
0
39
0
210
0
220
0
230
1
0
LINE
5
96
100
AcDbEntity
8
SK4
62
256
6
ByLayer
370
18
48
0.05
60
0
100
AcDbLine
10
-43
20
0
30
0
11
85
21
0
31
0
39
0
210
0
220
0
230
1
0
LINE
5
98
100
AcDbEntity
8
SK1
62
256
6
ByLayer
370
18
48
1
60
0
100
AcDbLine
10
-0.2
20
-7.034158
30
0
11
-0.2
21
-7.085397
31
0
39
0
210
0
220
0
230
1
0
LINE
5
99
100
AcDbEntity
8
SK1
62
256
6
ByLayer
370
13
48
1
60
0
100
AcDbLine
10
-1.307107
20
4.811152
30
0
11
-1.307107
21
-4.811152
31
0
39
0
210
0
220
0
230
1
0
LINE
5
9A
100
AcDbEntity
8
SK1
62
256
6
ByLayer
370
18
48
1
60
0
100
AcDbLine
10
-0.2
20
7.0854
30
0
11
-0.2
21
7.034161
31
0
39
0
210
0
220
0
230
1
0
LINE
5
9B
100
AcDbEntity
8
1
62
256
6
ByLayer
370
13
48
1
60
0
100
AcDbLine
10
79.6055
20
-4.033307
30
0
11
79.6055
21
-4.259146
31
0
39
0
210
0
220
0
230
1
0
LINE
5
9C
100
AcDbEntity
8
1
62
256
6
ByLayer
370
13
48
1
60
0
100
AcDbLine
10
79.6055
20
27.259146
30
0
11
79.6055
21
27.033307
31
0
39
0
210
0
220
0
230
1
0
LINE
5
9D
100
AcDbEntity
8
1
62
256
6
ByLayer
370
18
48
1
60
0
100
AcDbLine
10
80.3245
20
29.221823
30
0
11
80.3245
21
28.663684
31
0
39
0
210
0
220
0
230
1
0
LINE
5
9E
100
AcDbEntity
8
1
62
256
6
ByLayer
370
18
48
1
60
0
100
AcDbLine
10
80.3245
20
9.125637
30
0
11
80.3245
21
7.864484
31
0
39
0
210
0
220
0
230
1
0
LINE
5
9F
100
AcDbEntity
8
1
62
256
6
ByLayer
370
18
48
1
60
0
100
AcDbLine
10
80.3245
20
29.730913
30
0
11
80.3245
21
29.298581
31
0
39
0
210
0
220
0
230
1
0
LINE
5
A0
100
AcDbEntity
8
1
62
256
6
ByLayer
370
18
48
1
60
0
100
AcDbLine
10
79.3245
20
31.5
30
0
11
79.3245
21
-8.5
31
0
39
0
210
0
220
0
230
1
0
LINE
5
A1
100
AcDbEntity
8
1
62
256
6
ByLayer
370
13
48
1
60
0
100
AcDbLine
10
80.2495
20
29.426445
30
0
11
80.2495
21
29.770596
31
0
39
0
210
0
220
0
230
1
0
LINE
5
A2
100
AcDbEntity
8
1
62
256
6
ByLayer
370
18
48
1
60
0
100
AcDbLine
10
80.3245
20
-2.677621
30
0
11
80.3245
21
-3.736583
31
0
39
0
210
0
220
0
230
1
0
LINE
5
A3
100
AcDbEntity
8
1
62
256
6
ByLayer
370
13
48
1
60
0
100
AcDbLine
10
10.538675
20
-9.349221
30
0
11
10.538675
21
-30.080593
31
0
39
0
210
0
220
0
230
1
0
LINE
5
A4
100
AcDbEntity
8
1
62
256
6
ByLayer
370
18
48
1
60
0
100
AcDbLine
10
80.3245
20
-7.105627
30
0
11
80.3245
21
-7.146319
31
0
39
0
210
0
220
0
230
1
0
LINE
5
A5
100
AcDbEntity
8
1
62
256
6
ByLayer
370
18
48
1
60
0
100
AcDbLine
10
80.3245
20
21.975875
30
0
11
80.3245
21
19.680021
31
0
39
0
210
0
220
0
230
1
0
LINE
5
A6
100
AcDbEntity
8
1
62
256
6
ByLayer
370
18
48
1
60
0
100
AcDbLine
10
80.3245
20
3.319979
30
0
11
80.3245
21
1.024125
31
0
39
0
210
0
220
0
230
1
0
LINE
5
A7
100
AcDbEntity
8
1
62
256
6
ByLayer
370
13
48
1
60
0
100
AcDbLine
10
80.2495
20
30.467827
30
0
11
80.2495
21
30.54976
31
0
39
0
210
0
220
0
230
1
0
LINE
5
A8
100
AcDbEntity
8
1
62
256
6
ByLayer
370
18
48
1
60
0
100
AcDbLine
10
80.3245
20
-7.377899
30
0
11
80.3245
21
-7.48093
31
0
39
0
210
0
220
0
230
1
0
LINE
5
A9
100
AcDbEntity
8
1
62
256
6
ByLayer
370
13
48
1
60
0
100
AcDbLine
10
79.6055
20
15.282728
30
0
11
79.6055
21
13.180832
31
0
39
0
210
0
220
0
230
1
0
LINE
5
AA
100
AcDbEntity
8
1
62
256
6
ByLayer
370
13
48
1
60
0
100
AcDbLine
10
79.6055
20
9.819168
30
0
11
79.6055
21
7.717272
31
0
39
0
210
0
220
0
230
1
0
LINE
5
AB
100
AcDbEntity
8
1
62
256
6
ByLayer
370
18
48
1
60
0
100
AcDbLine
10
80.3245
20
-4.867557
30
0
11
80.3245
21
-5.566336
31
0
39
0
210
0
220
0
230
1
0
LINE
5
AC
100
AcDbEntity
8
1
62
256
6
ByLayer
370
18
48
1
60
0
100
AcDbLine
10
80.3245
20
30.105627
30
0
11
80.3245
21
29.789015
31
0
39
0
210
0
220
0
230
1
0
LINE
5
AD
100
AcDbEntity
8
1
62
256
6
ByLayer
370
13
48
1
60
0
100
AcDbLine
10
79.6055
20
19.873611
30
0
11
79.6055
21
19.214713
31
0
39
0
210
0
220
0
230
1
0
LINE
5
AE
100
AcDbEntity
8
1
62
256
6
ByLayer
370
13
48
1
60
0
100
AcDbLine
10
79.6055
20
3.785287
30
0
11
79.6055
21
3.126389
31
0
39
0
210
0
220
0
230
1
0
LINE
5
AF
100
AcDbEntity
8
1
62
256
6
ByLayer
370
13
48
1
60
0
100
AcDbLine
10
79.6055
20
-6.675685
30
0
11
79.6055
21
-6.796875
31
0
39
0
210
0
220
0
230
1
0
LINE
5
B0
100
AcDbEntity
8
1
62
256
6
ByLayer
370
13
48
1
60
0
100
AcDbLine
10
79.6055
20
30.3304
30
0
11
79.6055
21
30.236267
31
0
39
0
210
0
220
0
230
1
0
LINE
5
B1
100
AcDbEntity
8
1
62
256
6
ByLayer
370
18
48
1
60
0
100
AcDbLine
10
80.3245
20
-2.494653
30
0
11
80.3245
21
-2.677598
31
0
39
0
210
0
220
0
230
1
0
LINE
5
B2
100
AcDbEntity
8
1
62
256
6
ByLayer
370
13
48
1
60
0
100
AcDbLine
10
79.6055
20
31.172543
30
0
11
79.6055
21
31.149908
31
0
39
0
210
0
220
0
230
1
0
LINE
5
B3
100
AcDbEntity
8
1
62
256
6
ByLayer
370
18
48
1
60
0
100
AcDbLine
10
0
20
-31.2
30
0
11
0
21
31.2
31
0
39
0
210
0
220
0
230
1
0
LINE
5
B4
100
AcDbEntity
8
1
62
256
6
ByLayer
370
13
48
1
60
0
100
AcDbLine
10
79.6055
20
28.282699
30
0
11
79.6055
21
28.097446
31
0
39
0
210
0
220
0
230
1
0
LINE
5
B5
100
AcDbEntity
8
1
62
256
6
ByLayer
370
13
48
1
60
0
100
AcDbLine
10
79.6055
20
-7.663428
30
0
11
79.6055
21
-7.732584
31
0
39
0
210
0
220
0
230
1
0
LINE
5
B6
100
AcDbEntity
8
1
62
256
6
ByLayer
370
13
48
1
60
0
100
AcDbLine
10
79.6055
20
26.010077
30
0
11
79.6055
21
25.733479
31
0
39
0
210
0
220
0
230
1
0
LINE
5
B7
100
AcDbEntity
8
1
62
256
6
ByLayer
370
13
48
1
60
0
100
AcDbLine
10
79.6055
20
-2.733479
30
0
11
79.6055
21
-3.010077
31
0
39
0
210
0
220
0
230
1
0
LINE
5
B8
100
AcDbEntity
8
1
62
256
6
ByLayer
370
13
48
1
60
0
100
AcDbLine
10
80.2495
20
24.435311
30
0
11
80.2495
21
25.476775
31
0
39
0
210
0
220
0
230
1
0
LINE
5
B9
100
AcDbEntity
8
1
62
256
6
ByLayer
370
13
48
1
60
0
100
AcDbLine
10
79.6055
20
22.519332
30
0
11
79.6055
21
22.068917
31
0
39
0
210
0
220
0
230
1
0
LINE
5
BA
100
AcDbEntity
8
1
62
256
6
ByLayer
370
13
48
1
60
0
100
AcDbLine
10
79.6055
20
0.931083
30
0
11
79.6055
21
0.480668
31
0
39
0
210
0
220
0
230
1
0
LINE
5
BB
100
AcDbEntity
8
1
62
256
6
ByLayer
370
18
48
1
60
0
100
AcDbLine
10
80.3245
20
27.867588
30
0
11
80.3245
21
27.746743
31
0
39
0
210
0
220
0
230
1
0
LINE
5
BC
100
AcDbEntity
8
1
62
256
6
ByLayer
370
18
48
1
60
0
100
AcDbLine
10
80.3245
20
30.488915
30
0
11
80.3245
21
30.48093
31
0
39
0
210
0
220
0
230
1
0
LINE
5
BD
100
AcDbEntity
8
1
62
256
6
ByLayer
370
18
48
1
60
0
100
AcDbLine
10
13.461325
20
-30.080593
30
0
11
10.538675
21
-30.080593
31
0
39
0
210
0
220
0
230
1
0
LINE
5
BE
100
AcDbEntity
8
1
62
256
6
ByLayer
370
18
48
1
60
0
100
AcDbLine
10
80.3245
20
26.885093
30
0
11
80.3245
21
26.736583
31
0
39
0
210
0
220
0
230
1
0
LINE
5
BF
100
AcDbEntity
8
1
62
256
6
ByLayer
370
13
48
1
60
0
100
AcDbLine
10
80.2495
20
-3.732962
30
0
11
80.2495
21
-2.891974
31
0
39
0
210
0
220
0
230
1
0
LINE
5
C0
100
AcDbEntity
8
1
62
256
6
ByLayer
370
13
48
1
60
0
100
AcDbLine
10
79.6055
20
29.796875
30
0
11
79.6055
21
29.675685
31
0
39
0
210
0
220
0
230
1
0
LINE
5
C1
100
AcDbEntity
8
1
62
256
6
ByLayer
370
18
48
1
60
0
100
AcDbLine
10
0.3
20
-31.5
30
0
11
0.3
21
31.5
31
0
39
0
210
0
220
0
230
1
0
LINE
5
C2
100
AcDbEntity
8
1
62
256
6
ByLayer
370
18
48
1
60
0
100
AcDbLine
10
80.3245
20
19.680085
30
0
11
80.3245
21
19.242143
31
0
39
0
210
0
220
0
230
1
0
LINE
5
C3
100
AcDbEntity
8
1
62
256
6
ByLayer
370
13
48
1
60
0
100
AcDbLine
10
80.2495
20
25.891974
30
0
11
80.2495
21
26.732962
31
0
39
0
210
0
220
0
230
1
0
LINE
5
C4
100
AcDbEntity
8
1
62
256
6
ByLayer
370
18
48
1
60
0
100
AcDbLine
10
80.3245
20
1.024125
30
0
11
80.3245
21
0.724536
31
0
39
0
210
0
220
0
230
1
0
LINE
5
C5
100
AcDbEntity
8
1
62
256
6
ByLayer
370
18
48
1
60
0
100
AcDbLine
10
80.3245
20
-3.885072
30
0
11
80.3245
21
-4.746743
31
0
39
0
210
0
220
0
230
1
0
LINE
5
C6
100
AcDbEntity
8
1
62
256
6
ByLayer
370
18
48
1
60
0
100
AcDbLine
10
80.3245
20
-4.746743
30
0
11
80.3245
21
-4.867588
31
0
39
0
210
0
220
0
230
1
0
LINE
5
C7
100
AcDbEntity
8
1
62
256
6
ByLayer
370
18
48
1
60
0
100
AcDbLine
10
13.461325
20
9.349221
30
0
11
10.538675
21
9.349221
31
0
39
0
210
0
220
0
230
1
0
LINE
5
C8
100
AcDbEntity
8
1
62
256
6
ByLayer
370
13
48
1
60
0
100
AcDbLine
10
80.2495
20
29.902698
30
0
11
80.2495
21
30.154961
31
0
39
0
210
0
220
0
230
1
0
LINE
5
C9
100
AcDbEntity
8
1
62
256
6
ByLayer
370
18
48
1
60
0
100
AcDbLine
10
80.3245
20
-6.298581
30
0
11
80.3245
21
-6.730913
31
0
39
0
210
0
220
0
230
1
0
LINE
5
CA
100
AcDbEntity
8
1
62
256
6
ByLayer
370
13
48
1
60
0
100
AcDbLine
10
25.460362
20
-11.80772
30
0
11
25.460362
21
25.271748
31
0
39
0
210
0
220
0
230
1
0
LINE
5
CB
100
AcDbEntity
8
1
62
256
6
ByLayer
370
13
48
1
60
0
100
AcDbLine
10
13.461325
20
30.080593
30
0
11
13.461325
21
9.349221
31
0
39
0
210
0
220
0
230
1
0
LINE
5
CC
100
AcDbEntity
8
1
62
256
6
ByLayer
370
18
48
1
60
0
100
AcDbLine
10
80.3245
20
19.242143
30
0
11
80.3245
21
15.13542
31
0
39
0
210
0
220
0
230
1
0
LINE
5
CD
100
AcDbEntity
8
1
62
256
6
ByLayer
370
18
48
1
60
0
100
AcDbLine
10
80.3245
20
7.86458
30
0
11
80.3245
21
3.757857
31
0
39
0
210
0
220
0
230
1
0
LINE
5
CE
100
AcDbEntity
8
1
62
256
6
ByLayer
370
18
48
1
60
0
100
AcDbLine
10
80.3245
20
28.566336
30
0
11
80.3245
21
27.867557
31
0
39
0
210
0
220
0
230
1
0
LINE
5
CF
100
AcDbEntity
8
1
62
256
6
ByLayer
370
13
48
1
60
0
100
AcDbLine
10
80.2495
20
-7.54976
30
0
11
80.2495
21
-7.467827
31
0
39
0
210
0
220
0
230
1
0
LINE
5
D0
100
AcDbEntity
8
1
62
256
6
ByLayer
370
13
48
1
60
0
100
AcDbLine
10
13.894338
20
-9.869413
30
0
11
13.894338
21
-29.913955
31
0
39
0
210
0
220
0
230
1
0
LINE
5
D1
100
AcDbEntity
8
1
62
256
6
ByLayer
370
13
48
1
60
0
100
AcDbLine
10
13.894338
20
29.913955
30
0
11
13.894338
21
9.869413
31
0
39
0
210
0
220
0
230
1
0
LINE
5
D2
100
AcDbEntity
8
1
62
256
6
ByLayer
370
18
48
1
60
0
100
AcDbLine
10
80.3245
20
30.48093
30
0
11
80.3245
21
30.377899
31
0
39
0
210
0
220
0
230
1
0
LINE
5
D3
100
AcDbEntity
8
1
62
256
6
ByLayer
370
18
48
1
60
0
100
AcDbLine
10
80.3245
20
3.757857
30
0
11
80.3245
21
3.319915
31
0
39
0
210
0
220
0
230
1
0
LINE
5
D4
100
AcDbEntity
8
1
62
256
6
ByLayer
370
18
48
1
60
0
100
AcDbLine
10
10.538675
20
-9.349221
30
0
11
13.461325
21
-9.349221
31
0
39
0
210
0
220
0
230
1
0
LINE
5
D5
100
AcDbEntity
8
1
62
256
6
ByLayer
370
18
48
1
60
0
100
AcDbLine
10
80.3245
20
-3.736583
30
0
11
80.3245
21
-3.885093
31
0
39
0
210
0
220
0
230
1
0
LINE
5
D6
100
AcDbEntity
8
1
62
256
6
ByLayer
370
13
48
1
60
0
100
AcDbLine
10
80.2495
20
9.608254
30
0
11
80.2495
21
13.391746
31
0
39
0
210
0
220
0
230
1
0
LINE
5
D7
100
AcDbEntity
8
1
62
256
6
ByLayer
370
13
48
1
60
0
100
AcDbLine
10
79.6055
20
-5.097446
30
0
11
79.6055
21
-5.282699
31
0
39
0
210
0
220
0
230
1
0
LINE
5
D8
100
AcDbEntity
8
1
62
256
6
ByLayer
370
18
48
1
60
0
100
AcDbLine
10
80.3245
20
-6.730913
30
0
11
80.3245
21
-6.789024
31
0
39
0
210
0
220
0
230
1
0
LINE
5
D9
100
AcDbEntity
8
1
62
256
6
ByLayer
370
18
48
1
60
0
100
AcDbLine
10
80.3245
20
28.663763
30
0
11
80.3245
21
28.566336
31
0
39
0
210
0
220
0
230
1
0
LINE
5
DA
100
AcDbEntity
8
1
62
256
6
ByLayer
370
18
48
1
60
0
100
AcDbLine
10
80.3245
20
-6.789015
30
0
11
80.3245
21
-7.105627
31
0
39
0
210
0
220
0
230
1
0
LINE
5
DB
100
AcDbEntity
8
1
62
256
6
ByLayer
370
18
48
1
60
0
100
AcDbLine
10
80.3245
20
30.146319
30
0
11
80.3245
21
30.105627
31
0
39
0
210
0
220
0
230
1
0
LINE
5
DC
100
AcDbEntity
8
1
62
256
6
ByLayer
370
18
48
1
60
0
100
AcDbLine
10
80.3245
20
26.736583
30
0
11
80.3245
21
25.677621
31
0
39
0
210
0
220
0
230
1
0
LINE
5
DD
100
AcDbEntity
8
1
62
256
6
ByLayer
370
13
48
1
60
0
100
AcDbLine
10
80.2495
20
28.80746
30
0
11
80.2495
21
29.25167
31
0
39
0
210
0
220
0
230
1
0
LINE
5
DE
100
AcDbEntity
8
1
62
256
6
ByLayer
370
13
48
1
60
0
100
AcDbLine
10
80.2495
20
-7.41297
30
0
11
80.2495
21
-7.247456
31
0
39
0
210
0
220
0
230
1
0
LINE
5
DF
100
AcDbEntity
8
1
62
256
6
ByLayer
370
18
48
1
60
0
100
AcDbLine
10
80.3245
20
-1.181014
30
0
11
80.3245
21
-2.494653
31
0
39
0
210
0
220
0
230
1
0
LINE
5
E0
100
AcDbEntity
8
1
62
256
6
ByLayer
370
13
48
1
60
0
100
AcDbLine
10
80.2495
20
-6.770596
30
0
11
80.2495
21
-6.426445
31
0
39
0
210
0
220
0
230
1
0
LINE
5
E1
100
AcDbEntity
8
1
62
256
6
ByLayer
370
18
48
1
60
0
100
AcDbLine
10
80.3245
20
29.789024
30
0
11
80.3245
21
29.730913
31
0
39
0
210
0
220
0
230
1
0
LINE
5
E2
100
AcDbEntity
8
1
62
256
6
ByLayer
370
13
48
1
60
0
100
AcDbLine
10
80.2495
20
3.866417
30
0
11
80.2495
21
6.928438
31
0
39
0
210
0
220
0
230
1
0
LINE
5
E3
100
AcDbEntity
8
1
62
256
6
ByLayer
370
13
48
1
60
0
100
AcDbLine
10
80.2495
20
16.071562
30
0
11
80.2495
21
19.133583
31
0
39
0
210
0
220
0
230
1
0
LINE
5
E4
100
AcDbEntity
8
1
62
256
6
ByLayer
370
18
48
1
60
0
100
AcDbLine
10
80.3245
20
25.494653
30
0
11
80.3245
21
24.181014
31
0
39
0
210
0
220
0
230
1
0
LINE
5
E5
100
AcDbEntity
8
1
62
256
6
ByLayer
370
13
48
1
60
0
100
AcDbLine
10
79.6055
20
-7.966108
30
0
11
79.6055
21
-8.011551
31
0
39
0
210
0
220
0
230
1
0
LINE
5
E6
100
AcDbEntity
8
1
62
256
6
ByLayer
370
18
48
1
60
0
100
AcDbLine
10
80.3245
20
-7.48093
30
0
11
80.3245
21
-7.488915
31
0
39
0
210
0
220
0
230
1
0
LINE
5
E7
100
AcDbEntity
8
1
62
256
6
ByLayer
370
13
48
1
60
0
100
AcDbLine
10
80.2495
20
-5.585927
30
0
11
80.2495
21
-5.030049
31
0
39
0
210
0
220
0
230
1
0
LINE
5
E8
100
AcDbEntity
8
1
62
256
6
ByLayer
370
18
48
1
60
0
100
AcDbLine
10
80.3245
20
15.135516
30
0
11
80.3245
21
13.874363
31
0
39
0
210
0
220
0
230
1
0
LINE
5
E9
100
AcDbEntity
8
1
62
256
6
ByLayer
370
13
48
1
60
0
100
AcDbLine
10
80.2495
20
1.085372
30
0
11
80.2495
21
2.885801
31
0
39
0
210
0
220
0
230
1
0
LINE
5
EA
100
AcDbEntity
8
1
62
256
6
ByLayer
370
13
48
1
60
0
100
AcDbLine
10
80.2495
20
20.114199
30
0
11
80.2495
21
21.914628
31
0
39
0
210
0
220
0
230
1
0
LINE
5
EB
100
AcDbEntity
8
1
62
256
6
ByLayer
370
13
48
1
60
0
100
AcDbLine
10
79.6055
20
30.732584
30
0
11
79.6055
21
30.663428
31
0
39
0
210
0
220
0
230
1
0
LINE
5
EC
100
AcDbEntity
8
1
62
256
6
ByLayer
370
13
48
1
60
0
100
AcDbLine
10
79.6055
20
-8.149908
30
0
11
79.6055
21
-8.172543
31
0
39
0
210
0
220
0
230
1
0
LINE
5
ED
100
AcDbEntity
8
1
62
256
6
ByLayer
370
18
48
1
60
0
100
AcDbLine
10
80.3245
20
13.874363
30
0
11
80.3245
21
9.125637
31
0
39
0
210
0
220
0
230
1
0
LINE
5
EE
100
AcDbEntity
8
1
62
256
6
ByLayer
370
13
48
1
60
0
100
AcDbLine
10
79.6055
20
-5.968992
30
0
11
79.6055
21
-6.120083
31
0
39
0
210
0
220
0
230
1
0
LINE
5
EF
100
AcDbEntity
8
1
62
256
6
ByLayer
370
13
48
1
60
0
100
AcDbLine
10
80.2495
20
30.247456
30
0
11
80.2495
21
30.41297
31
0
39
0
210
0
220
0
230
1
0
LINE
5
F0
100
AcDbEntity
8
1
62
256
6
ByLayer
370
18
48
1
60
0
100
AcDbLine
10
80.3245
20
-7.146315
30
0
11
80.3245
21
-7.353979
31
0
39
0
210
0
220
0
230
1
0
LINE
5
F1
100
AcDbEntity
8
1
62
256
6
ByLayer
370
18
48
1
60
0
100
AcDbLine
10
80.3245
20
-7.353979
30
0
11
80.3245
21
-7.378084
31
0
39
0
210
0
220
0
230
1
0
LINE
5
F2
100
AcDbEntity
8
1
62
256
6
ByLayer
370
18
48
1
60
0
100
AcDbLine
10
80.3245
20
30.353979
30
0
11
80.3245
21
30.146315
31
0
39
0
210
0
220
0
230
1
0
LINE
5
F3
100
AcDbEntity
8
1
62
256
6
ByLayer
370
18
48
1
60
0
100
AcDbLine
10
80.3245
20
23.951792
30
0
11
80.3245
21
22.27508
31
0
39
0
210
0
220
0
230
1
0
LINE
5
F4
100
AcDbEntity
8
1
62
256
6
ByLayer
370
18
48
1
60
0
100
AcDbLine
10
80.3245
20
0.72492
30
0
11
80.3245
21
-0.951792
31
0
39
0
210
0
220
0
230
1
0
LINE
5
F5
100
AcDbEntity
8
1
62
256
6
ByLayer
370
18
48
1
60
0
100
AcDbLine
10
80.3245
20
25.677598
30
0
11
80.3245
21
25.494653
31
0
39
0
210
0
220
0
230
1
0
LINE
5
F6
100
AcDbEntity
8
1
62
256
6
ByLayer
370
18
48
1
60
0
100
AcDbLine
10
80.3245
20
-6.221823
30
0
11
80.3245
21
-6.29864
31
0
39
0
210
0
220
0
230
1
0
LINE
5
F7
100
AcDbEntity
8
1
62
256
6
ByLayer
370
18
48
1
60
0
100
AcDbLine
10
80.3245
20
22.275464
30
0
11
80.3245
21
21.975875
31
0
39
0
210
0
220
0
230
1
0
LINE
5
F8
100
AcDbEntity
8
1
62
256
6
ByLayer
370
18
48
1
60
0
100
AcDbLine
10
80.3245
20
24.180988
30
0
11
80.3245
21
23.951792
31
0
39
0
210
0
220
0
230
1
0
LINE
5
F9
100
AcDbEntity
8
1
62
256
6
ByLayer
370
13
48
1
60
0
100
AcDbLine
10
80.2495
20
-0.916012
30
0
11
80.2495
21
0.409009
31
0
39
0
210
0
220
0
230
1
0
LINE
5
FA
100
AcDbEntity
8
1
62
256
6
ByLayer
370
13
48
1
60
0
100
AcDbLine
10
80.2495
20
22.590991
30
0
11
80.2495
21
23.916012
31
0
39
0
210
0
220
0
230
1
0
LINE
5
FB
100
AcDbEntity
8
1
62
256
6
ByLayer
370
13
48
1
60
0
100
AcDbLine
10
29.4
20
31.5
30
0
11
29.4
21
-8.5
31
0
39
0
210
0
220
0
230
1
0
LINE
5
FC
100
AcDbEntity
8
1
62
256
6
ByLayer
370
18
48
1
60
0
100
AcDbLine
10
80.3245
20
-5.566336
30
0
11
80.3245
21
-5.663763
31
0
39
0
210
0
220
0
230
1
0
LINE
5
FD
100
AcDbEntity
8
1
62
256
6
ByLayer
370
13
48
1
60
0
100
AcDbLine
10
80.2495
20
-7.154961
30
0
11
80.2495
21
-6.902698
31
0
39
0
210
0
220
0
230
1
0
LINE
5
FE
100
AcDbEntity
8
1
62
256
6
ByLayer
370
13
48
1
60
0
100
AcDbLine
10
10.538675
20
30.080593
30
0
11
10.538675
21
9.349221
31
0
39
0
210
0
220
0
230
1
0
LINE
5
FF
100
AcDbEntity
8
1
62
256
6
ByLayer
370
13
48
1
60
0
100
AcDbLine
10
80.2495
20
-6.25167
30
0
11
80.2495
21
-5.80746
31
0
39
0
210
0
220
0
230
1
0
LINE
5
100
100
AcDbEntity
8
1
62
256
6
ByLayer
370
18
48
1
60
0
100
AcDbLine
10
80.3245
20
-5.663684
30
0
11
80.3245
21
-6.221823
31
0
39
0
210
0
220
0
230
1
0
LINE
5
101
100
AcDbEntity
8
1
62
256
6
ByLayer
370
18
48
1
60
0
100
AcDbLine
10
80.3245
20
29.29864
30
0
11
80.3245
21
29.221823
31
0
39
0
210
0
220
0
230
1
0
LINE
5
102
100
AcDbEntity
8
1
62
256
6
ByLayer
370
13
48
1
60
0
100
AcDbLine
10
80.2495
20
-4.755338
30
0
11
80.2495
21
-4.070347
31
0
39
0
210
0
220
0
230
1
0
LINE
5
103
100
AcDbEntity
8
1
62
256
6
ByLayer
370
18
48
1
60
0
100
AcDbLine
10
80.3245
20
-0.951792
30
0
11
80.3245
21
-1.180988
31
0
39
0
210
0
220
0
230
1
0
LINE
5
104
100
AcDbEntity
8
1
62
256
6
ByLayer
370
13
48
1
60
0
100
AcDbLine
10
80.2495
20
28.030049
30
0
11
80.2495
21
28.585927
31
0
39
0
210
0
220
0
230
1
0
LINE
5
105
100
AcDbEntity
8
1
62
256
6
ByLayer
370
13
48
1
60
0
100
AcDbLine
10
79.6055
20
31.011551
30
0
11
79.6055
21
30.966108
31
0
39
0
210
0
220
0
230
1
0
LINE
5
106
100
AcDbEntity
8
1
62
256
6
ByLayer
370
13
48
1
60
0
100
AcDbLine
10
79.6055
20
29.120083
30
0
11
79.6055
21
28.968992
31
0
39
0
210
0
220
0
230
1
0
LINE
5
107
100
AcDbEntity
8
1
62
256
6
ByLayer
370
13
48
1
60
0
100
AcDbLine
10
13.461325
20
-9.349221
30
0
11
13.461325
21
-30.080593
31
0
39
0
210
0
220
0
230
1
0
LINE
5
108
100
AcDbEntity
8
1
62
256
6
ByLayer
370
13
48
1
60
0
100
AcDbLine
10
10.105662
20
-9.869413
30
0
11
10.105662
21
-29.913955
31
0
39
0
210
0
220
0
230
1
0
LINE
5
109
100
AcDbEntity
8
1
62
256
6
ByLayer
370
13
48
1
60
0
100
AcDbLine
10
80.2495
20
27.070347
30
0
11
80.2495
21
27.755338
31
0
39
0
210
0
220
0
230
1
0
LINE
5
10A
100
AcDbEntity
8
1
62
256
6
ByLayer
370
18
48
1
60
0
100
AcDbLine
10
10.538675
20
30.080593
30
0
11
13.461325
21
30.080593
31
0
39
0
210
0
220
0
230
1
0
LINE
5
10B
100
AcDbEntity
8
1
62
256
6
ByLayer
370
18
48
1
60
0
100
AcDbLine
10
80.3245
20
27.746743
30
0
11
80.3245
21
26.885072
31
0
39
0
210
0
220
0
230
1
0
LINE
5
10C
100
AcDbEntity
8
1
62
256
6
ByLayer
370
13
48
1
60
0
100
AcDbLine
10
79.6055
20
24.470506
30
0
11
79.6055
21
24.125166
31
0
39
0
210
0
220
0
230
1
0
LINE
5
10D
100
AcDbEntity
8
1
62
256
6
ByLayer
370
13
48
1
60
0
100
AcDbLine
10
79.6055
20
-1.125166
30
0
11
79.6055
21
-1.470506
31
0
39
0
210
0
220
0
230
1
0
LINE
5
10E
100
AcDbEntity
8
1
62
256
6
ByLayer
370
13
48
1
60
0
100
AcDbLine
10
79.6055
20
-7.236267
30
0
11
79.6055
21
-7.3304
31
0
39
0
210
0
220
0
230
1
0
LINE
5
10F
100
AcDbEntity
8
1
62
256
6
ByLayer
370
13
48
1
60
0
100
AcDbLine
10
80.2495
20
-2.476775
30
0
11
80.2495
21
-1.435311
31
0
39
0
210
0
220
0
230
1
0
LINE
5
110
100
AcDbEntity
8
1
62
256
6
ByLayer
370
13
48
1
60
0
100
AcDbLine
10
10.105662
20
29.913955
30
0
11
10.105662
21
9.869413
31
0
39
0
210
0
220
0
230
1
0
LINE
5
111
100
AcDbEntity
8
1
62
256
6
ByLayer
370
18
48
1
60
0
100
AcDbLine
10
80.3245
20
30.378084
30
0
11
80.3245
21
30.353979
31
0
39
0
210
0
220
0
230
1
0
LINE
5
112
100
AcDbEntity
8
1
62
256
6
ByLayer
370
18
48
1
60
0
100
AcDbLine
10
84.6755
20
-3.399495
30
0
11
84.6755
21
6.600505
31
0
39
0
210
0
220
0
230
1
0
LINE
5
113
100
AcDbEntity
8
1
62
256
6
ByLayer
370
13
48
1
60
0
100
AcDbLine
10
89.9255
20
26.399495
30
0
11
89.9255
21
16.399495
31
0
39
0
210
0
220
0
230
1
0
LINE
5
114
100
AcDbEntity
8
1
62
256
6
ByLayer
370
18
48
1
60
0
100
AcDbLine
10
84.6755
20
26.399495
30
0
11
84.6755
21
16.399495
31
0
39
0
210
0
220
0
230
1
0
LINE
5
115
100
AcDbEntity
8
1
62
256
6
ByLayer
370
13
48
1
60
0
100
AcDbLine
10
84.4255
20
24.399495
30
0
11
84.4255
21
18.399495
31
0
39
0
210
0
220
0
230
1
0
LINE
5
116
100
AcDbEntity
8
1
62
256
6
ByLayer
370
18
48
1
60
0
100
AcDbLine
10
90.5255
20
25.799495
30
0
11
90.5255
21
16.999495
31
0
39
0
210
0
220
0
230
1
0
LINE
5
117
100
AcDbEntity
8
1
62
256
6
ByLayer
370
13
48
1
60
0
100
AcDbLine
10
89.9255
20
26.399495
30
0
11
89.9255
21
16.399495
31
0
39
0
210
0
220
0
230
1
0
LINE
5
118
100
AcDbEntity
8
1
62
256
6
ByLayer
370
18
48
1
60
0
100
AcDbLine
10
90.5255
20
1.600505
30
0
11
90.5255
21
6.000505
31
0
39
0
210
0
220
0
230
1
0
LINE
5
119
100
AcDbEntity
8
1
62
256
6
ByLayer
370
18
48
1
60
0
100
AcDbLine
10
84.6755
20
26.399495
30
0
11
84.6755
21
16.399495
31
0
39
0
210
0
220
0
230
1
0
LINE
5
11A
100
AcDbEntity
8
1
62
256
6
ByLayer
370
13
48
1
60
0
100
AcDbLine
10
84.4255
20
24.399495
30
0
11
84.4255
21
18.399495
31
0
39
0
210
0
220
0
230
1
0
LINE
5
11B
100
AcDbEntity
8
1
62
256
6
ByLayer
370
13
48
1
60
0
100
AcDbLine
10
89.9255
20
6.600505
30
0
11
89.9255
21
-3.399495
31
0
39
0
210
0
220
0
230
1
0
LINE
5
11C
100
AcDbEntity
8
1
62
256
6
ByLayer
370
18
48
1
60
0
100
AcDbLine
10
90.5255
20
-2.799495
30
0
11
90.5255
21
6.000505
31
0
39
0
210
0
220
0
230
1
0
LINE
5
11D
100
AcDbEntity
8
1
62
256
6
ByLayer
370
13
48
1
60
0
100
AcDbLine
10
84.4255
20
4.600505
30
0
11
84.4255
21
-1.399495
31
0
39
0
210
0
220
0
230
1
0
LINE
5
11E
100
AcDbEntity
8
1
62
256
6
ByLayer
370
18
48
1
60
0
100
AcDbLine
10
90.5255
20
25.799495
30
0
11
90.5255
21
16.999495
31
0
39
0
210
0
220
0
230
1
0
MTEXT
5
1DE
100
AcDbEntity
8
SK6
62
256
6
ByLayer
370
18
48
1
60
0
100
AcDbMText
10
0.875
20
40.625134
30
0
210
0
220
0
230
1
1
\W0.7304;C6-570-2C 40 080R
40
3.5
41
0
44
1.084337
50
0
71
7
72
5
7
iso_b_vert
0
DIMENSION
5
1EB
100
AcDbEntity
8
SK2
62
256
6
ByLayer
370
13
48
1
60
0
100
AcDbDimension
2
DimnDraft3D1
10
80
20
-41.6
30
0
11
50.592801
21
-41.6
31
0
70
32
71
5
72
1
41
1
210
0
220
0
230
1
3
Standard
100
AcDbAlignedDimension
13
29.4
23
-10.0875
33
0
14
80
24
-10.0875
34
0
50
0
100
AcDbRotatedDimension
1001
ACAD
1000
DSTYLE
1002
{
1070
   279
1070
     0
1070
   172
1070
     1
1070
   173
1070
     1
1070
   340
1005
1DF
1070
   271
1070
     2
1070
   272
1070
     2
1070
    77
1070
     1
1070
    73
1070
     0
1070
   171
1070
     3
1070
   274
1070
     4
1070
   177
1070
     2
1070
   176
1070
     2
1070
   178
1070
     2
1070
    78
1070
     8
1070
    48
1040
-0.005
1070
    41
1041
3.5
1070
   147
1041
1.75
1070
    42
1041
1.5875
1070
    44
1041
2.0
1070
   140
1041
3.5
1070
   343
1005
0
1070
   344
1005
0
1002
}
0
DIMENSION
5
1F5
100
AcDbEntity
8
SK2
62
256
6
ByLayer
370
13
48
1
60
0
100
AcDbDimension
2
DimnDraft3D2
10
100.888211
20
0
30
0
11
100.888211
21
2.517667
31
0
70
32
71
5
72
1
41
1
210
0
220
0
230
1
3
Standard
100
AcDbAlignedDimension
13
81.5875
23
11.5
33
0
14
81.5875
24
0
34
0
50
90
100
AcDbRotatedDimension
1001
ACAD
1000
DSTYLE
1002
{
1070
    74
1070
     0
1070
   279
1070
     0
1070
   172
1070
     1
1070
   173
1070
     1
1070
   340
1005
1DF
1070
   271
1070
     2
1070
   272
1070
     2
1070
    77
1070
     1
1070
    73
1070
     0
1070
   171
1070
     3
1070
   274
1070
     4
1070
   177
1070
     2
1070
   176
1070
     2
1070
   178
1070
     2
1070
    78
1070
     8
1070
    48
1040
-0.005
1070
    41
1041
3.5
1070
   147
1041
1.75
1070
    42
1041
1.5875
1070
    44
1041
2.0
1070
   140
1041
3.5
1070
   343
1005
0
1070
   344
1005
0
1002
}
0
DIMENSION
5
200
100
AcDbEntity
8
2
62
256
6
ByLayer
370
13
48
1
60
0
100
AcDbDimension
2
DimnDraft3D3
10
80
20
-51.6
30
0
11
35.892801
21
-51.6
31
0
70
32
71
5
72
1
41
1
210
0
220
0
230
1
3
Standard
100
AcDbAlignedDimension
13
0
23
-33.0875
33
0
14
80
24
-10.0875
34
0
50
0
100
AcDbRotatedDimension
1001
ACAD
1000
DSTYLE
1002
{
1070
   279
1070
     0
1070
   172
1070
     1
1070
   173
1070
     1
1070
   340
1005
1DF
1070
   271
1070
     2
1070
   272
1070
     2
1070
    77
1070
     1
1070
    73
1070
     0
1070
   171
1070
     3
1070
   274
1070
     4
1070
   177
1070
     2
1070
   176
1070
     2
1070
   178
1070
     2
1070
    78
1070
     8
1070
    48
1040
-0.005
1070
    41
1041
3.5
1070
   147
1041
1.75
1070
    42
1041
1.5875
1070
    44
1041
2.0
1070
   140
1041
3.5
1070
   343
1005
0
1070
   344
1005
0
1002
}
0
DIMENSION
5
20B
100
AcDbEntity
8
SK2
62
256
6
ByLayer
370
13
48
1
60
0
100
AcDbDimension
2
DimnDraft3D4
10
-61.6
20
-31.5
30
0
11
-62.225
21
2.284534
31
0
70
33
71
5
72
1
41
1
210
0
220
0
230
1
3
Standard
100
AcDbAlignedDimension
13
-1.5875
23
31.5
33
0
14
-1.5875
24
-31.5
34
0
1001
ACAD
1000
DSTYLE
1002
{
1070
   279
1070
     0
1070
    74
1070
     0
1070
   173
1070
     1
1070
   340
1005
1DF
1070
   271
1070
     2
1070
   272
1070
     2
1070
    77
1070
     1
1070
    73
1070
     0
1070
   171
1070
     3
1070
   274
1070
     4
1070
   177
1070
     2
1070
   176
1070
     2
1070
   178
1070
     2
1070
    78
1070
     8
1070
    48
1040
-0.005
1070
    41
1041
3.5
1070
   147
1041
1.75
1070
    42
1041
1.5875
1070
    44
1041
2.0
1070
   140
1041
3.5
1070
   343
1005
0
1070
   344
1005
0
1002
}
0
DIMENSION
5
216
100
AcDbEntity
8
SK2
62
256
6
ByLayer
370
13
48
1
60
0
100
AcDbDimension
2
DimnDraft3D5
10
112.888211
20
-8.5
30
0
11
108.263211
21
13.600267
31
0
70
33
71
5
72
1
41
1
210
0
220
0
230
1
3
Standard
100
AcDbAlignedDimension
13
81.5875
23
31.5
33
0
14
81.5875
24
-8.5
34
0
1001
ACAD
1000
DSTYLE
1002
{
1070
   279
1070
     0
1070
    74
1070
     0
1070
   173
1070
     1
1070
   340
1005
1DF
1070
   271
1070
     2
1070
   272
1070
     2
1070
    77
1070
     1
1070
    73
1070
     0
1070
   171
1070
     3
1070
   274
1070
     4
1070
   177
1070
     2
1070
   176
1070
     2
1070
   178
1070
     2
1070
    78
1070
     8
1070
    48
1040
-0.005
1070
    41
1041
3.5
1070
   147
1041
1.75
1070
    42
1041
1.5875
1070
    44
1041
2.0
1070
   140
1041
3.5
1070
   343
1005
0
1070
   344
1005
0
1002
}
0
ENDSEC
0
SECTION
2
OBJECTS
0
DICTIONARY
5
281
330
0
100
AcDbDictionary
280
0
281
1
3
ACAD_GROUP
350
282
3
ACAD_MLINESTYLE
350
283
0
DICTIONARY
5
282
330
0
100
AcDbDictionary
280
0
281
1
0
DICTIONARY
5
283
330
0
100
AcDbDictionary
280
0
281
1
3
Standard
350
18
0
MLINESTYLE
5
18
330
283
100
AcDbMlineStyle
2
Standard
70
0
3

62
256
51
90
52
90
71
2
49
-0.5
62
256
6
ByLayer
49
0.5
62
256
6
ByLayer
0
RASTERVARIABLES
5
26f
330

100
AcDbRasterVariables
90
0
70
1
71
1
72
1
0
ENDSEC
0
EOF
