0
SECTION
2
HEADER
9
$ACADVER
1
AC1015
9
$DWGCODEPAGE
3
ANSI_1252
9
$HANDSEED
5
18d
9
$ANGBASE
50
0
9
$ANGDIR
70
0
9
$ATTMODE
70
1
9
$AUNITS
70
0
9
$AUPREC
70
0
9
$CECOLOR
62
256
9
$CELTSCALE
40
1
9
$CELTYPE
6
ByLayer
9
$CELWEIGHT
370
18
9
$CLAYER
8
0
9
$CMLJUST
70
0
9
$CMLSCALE
40
1
9
$CMLSTYLE
2
Standard
9
$DIMSTYLE
2
Standard
9
$TEXTSIZE
40
0.2
9
$TEXTSTYLE
7
Standard
9
$LUNITS
70
2
9
$LUPREC
70
4
9
$EXTNAMES
290
1
9
$INSUNITS
70
4
9
$LTSCALE
40
1
9
$LWDISPLAY
290
1
9
$PDMODE
70
0
9
$PDSIZE
40
0
9
$PLINEGEN
70
0
0
ENDSEC
0
SECTION
2
CLASSES
0
CLASS
1
RASTERVARIABLES
2
AcDbRasterVariables
3
ISM
90
0
280
0
281
0
0
ENDSEC
0
SECTION
2
TABLES
0
TABLE
2
VPORT
5
183
100
AcDbSymbolTable
0
VPORT
5
1
100
AcDbSymbolTableRecord
100
AcDbViewportTableRecord
2
*Active
70
0
10
0
20
0
11
1
21
1
12
-1
22
1
13
0
23
0
14
0.5
24
0.5
15
10
25
10
16
0
26
0
36
1
17
0
27
0
37
0
0
ENDTAB
0
TABLE
2
LTYPE
5
184
100
AcDbSymbolTable
0
LTYPE
5
14
100
AcDbSymbolTableRecord
100
AcDbLinetypeTableRecord
70
0
2
ByBlock
3

72
65
73
0
40
0
0
LTYPE
5
15
100
AcDbSymbolTableRecord
100
AcDbLinetypeTableRecord
70
0
2
ByLayer
3

72
65
73
0
40
0
0
LTYPE
5
16
100
AcDbSymbolTableRecord
100
AcDbLinetypeTableRecord
70
0
2
CONTINUOUS
3
Solid line
72
65
73
0
40
0
0
LTYPE
5
6A
100
AcDbSymbolTableRecord
100
AcDbLinetypeTableRecord
70
0
2
CENTER
3
____ _ ____ _ ____ _ ____
72
65
73
4
40
47.5
49
22
74
0
49
-8.5
74
0
49
8.5
74
0
49
-8.5
74
0
0
LTYPE
5
6B
100
AcDbSymbolTableRecord
100
AcDbLinetypeTableRecord
70
0
2
DASHED
3
__ __ __ __ __ __ __ __ __
72
65
73
2
40
25.72
49
12.86
74
0
49
-12.86
74
0
0
ENDTAB
0
TABLE
2
LAYER
5
185
100
AcDbSymbolTable
0
LAYER
5
10
100
AcDbSymbolTableRecord
100
AcDbLayerTableRecord
2
0
70
0
62
7
6
CONTINUOUS
290
1
370
-3
390
0
0
LAYER
5
6D
100
AcDbSymbolTableRecord
100
AcDbLayerTableRecord
2
80
70
0
62
-6
6
CONTINUOUS
290
1
370
-3
390
0
0
LAYER
5
6F
100
AcDbSymbolTableRecord
100
AcDbLayerTableRecord
2
81
70
0
62
-3
6
CONTINUOUS
290
1
370
-3
390
0
0
LAYER
5
71
100
AcDbSymbolTableRecord
100
AcDbLayerTableRecord
2
1
70
0
62
4
6
CONTINUOUS
290
1
370
-3
390
0
0
LAYER
5
AF
100
AcDbSymbolTableRecord
100
AcDbLayerTableRecord
2
4
70
0
62
-2
6
CENTER
290
1
370
-3
390
0
0
LAYER
5
108
100
AcDbSymbolTableRecord
100
AcDbLayerTableRecord
2
2
70
0
62
7
6
CONTINUOUS
290
1
370
-3
390
0
0
LAYER
5
16e
100
AcDbSymbolTableRecord
100
AcDbLayerTableRecord
2
SK3
70
0
62
1
6
DASHED
290
1
370
-3
390
0
0
LAYER
5
16f
100
AcDbSymbolTableRecord
100
AcDbLayerTableRecord
2
SK1
70
0
62
4
6
CONTINUOUS
290
1
370
-3
390
0
0
LAYER
5
170
100
AcDbSymbolTableRecord
100
AcDbLayerTableRecord
2
SK4
70
0
62
2
6
CENTER
290
1
370
-3
390
0
0
LAYER
5
171
100
AcDbSymbolTableRecord
100
AcDbLayerTableRecord
2
SK6
70
0
62
5
6
CONTINUOUS
290
1
370
-3
390
0
0
LAYER
5
172
100
AcDbSymbolTableRecord
100
AcDbLayerTableRecord
2
SK2
70
0
62
7
6
CONTINUOUS
290
1
370
-3
390
0
0
ENDTAB
0
TABLE
2
STYLE
5
186
100
AcDbSymbolTable
0
STYLE
5
11
100
AcDbSymbolTableRecord
100
AcDbTextStyleTableRecord
2
Standard
3
txt
70
0
71
0
40
0
41
1
42
0
50
0
0
STYLE
5
D1
100
AcDbSymbolTableRecord
100
AcDbTextStyleTableRecord
2
iso_b_vert
3
simplex.shx
70
0
71
0
40
0
41
1
42
0
50
0
0
STYLE
5
D2
100
AcDbSymbolTableRecord
100
AcDbTextStyleTableRecord
2
DWGDirectTextStyle
3
simplex
70
0
71
0
40
0
41
1
42
0
50
0
0
ENDTAB
0
TABLE
2
DIMSTYLE
5
187
100
AcDbSymbolTable
100
AcDbDimStyleTable
0
DIMSTYLE
105
27
100
AcDbSymbolTableRecord
100
AcDbDimStyleTableRecord
2
Standard
70
0
3
<>
41
0.18
42
0.0625
44
0.18
140
0.18
147
0.09
73
0
74
0
77
1
271
2
275
0
278
52
280
0
340
11
0
ENDTAB
0
TABLE
2
VIEW
5
188
100
AcDbSymbolTable
0
ENDTAB
0
TABLE
2
UCS
5
189
100
AcDbSymbolTable
0
ENDTAB
0
TABLE
2
APPID
5
18a
100
AcDbSymbolTable
0
APPID
5
12
100
AcDbSymbolTableRecord
100
AcDbRegAppTableRecord
2
ACAD
70
0
0
ENDTAB
0
TABLE
2
BLOCK_RECORD
5
18b
100
AcDbSymbolTable
0
BLOCK_RECORD
5
1F
100
AcDbSymbolTableRecord
100
AcDbBlockTableRecord
2
*Model_Space
340
0
70
0
0
BLOCK_RECORD
5
1B
100
AcDbSymbolTableRecord
100
AcDbBlockTableRecord
2
*Paper_Space
340
0
70
0
0
BLOCK_RECORD
5
23
100
AcDbSymbolTableRecord
100
AcDbBlockTableRecord
2
*Paper_Space0
340
0
70
0
0
BLOCK_RECORD
5
D4
100
AcDbSymbolTableRecord
100
AcDbBlockTableRecord
2
DimnDraft3D1
340
0
70
0
0
BLOCK_RECORD
5
E3
100
AcDbSymbolTableRecord
100
AcDbBlockTableRecord
2
_CLOSED
340
0
70
0
0
BLOCK_RECORD
5
EA
100
AcDbSymbolTableRecord
100
AcDbBlockTableRecord
2
DimnDraft3D2
340
0
70
0
0
BLOCK_RECORD
5
F8
100
AcDbSymbolTableRecord
100
AcDbBlockTableRecord
2
DimnDraft3D3
340
0
70
0
0
BLOCK_RECORD
5
106
100
AcDbSymbolTableRecord
100
AcDbBlockTableRecord
2
DimnDraft3D4
340
0
70
0
0
ENDTAB
0
ENDSEC
0
SECTION
2
BLOCKS
0
BLOCK
5
20
100
AcDbEntity
8
0
100
AcDbBlockBegin
2
*Model_Space
70
0
10
0
20
0
30
0
3
*Model_Space
0
ENDBLK
5
21
100
AcDbEntity
8
0
100
AcDbBlockEnd
0
BLOCK
5
1C
100
AcDbEntity
8
0
100
AcDbBlockBegin
2
*Paper_Space
70
0
10
0
20
0
30
0
3
*Paper_Space
0
ENDBLK
5
1D
100
AcDbEntity
8
0
100
AcDbBlockEnd
0
BLOCK
5
24
100
AcDbEntity
8
0
100
AcDbBlockBegin
2
*Paper_Space0
70
0
10
0
20
0
30
0
3
*Paper_Space0
0
ENDBLK
5
25
100
AcDbEntity
8
0
100
AcDbBlockEnd
0
BLOCK
5
E0
100
AcDbEntity
8
0
100
AcDbBlockBegin
2
DimnDraft3D1
70
0
10
0
20
0
30
0
3
DimnDraft3D1
0
MTEXT
5
D5
100
AcDbEntity
8
SK2
62
256
6
ByLayer
370
18
48
1
60
0
100
AcDbMText
10
-56.645049
20
-4.452632
30
0
210
0
220
0
230
1
1
\W1.2949;%%c63
40
3
41
0
44
1.084337
50
90
71
7
72
5
7
iso_b_vert
0
LINE
5
D7
100
AcDbEntity
8
SK2
62
256
6
ByLayer
370
13
48
1
60
0
100
AcDbLine
10
-1.7
20
31.4925
30
0
11
-57.145049
21
31.4925
31
0
39
0
210
0
220
0
230
1
0
LINE
5
D8
100
AcDbEntity
8
SK2
62
256
6
ByLayer
370
13
48
1
60
0
100
AcDbLine
10
-1.7
20
-31.4925
30
0
11
-57.145049
21
-31.4925
31
0
39
0
210
0
220
0
230
1
0
LINE
5
D9
100
AcDbEntity
8
SK2
62
256
6
ByLayer
370
13
48
1
60
0
100
AcDbLine
10
-55.145049
20
31.4925
30
0
11
-55.145049
21
-31.4925
31
0
39
0
210
0
220
0
230
1
0
LINE
5
DA
100
AcDbEntity
8
SK2
62
256
6
ByLayer
370
13
48
1
60
0
100
AcDbLine
10
-55.145049
20
31.4925
30
0
11
-54.727052
21
28.317502
31
0
39
0
210
0
220
0
230
1
0
LINE
5
DB
100
AcDbEntity
8
SK2
62
256
6
ByLayer
370
13
48
1
60
0
100
AcDbLine
10
-55.145049
20
31.4925
30
0
11
-55.563046
21
28.317498
31
0
39
0
210
0
220
0
230
1
0
LINE
5
DC
100
AcDbEntity
8
SK2
62
256
6
ByLayer
370
13
48
1
60
0
100
AcDbLine
10
-54.727052
20
28.317502
30
0
11
-55.563046
21
28.317498
31
0
39
0
210
0
220
0
230
1
0
LINE
5
DD
100
AcDbEntity
8
SK2
62
256
6
ByLayer
370
13
48
1
60
0
100
AcDbLine
10
-55.145049
20
-31.4925
30
0
11
-55.563046
21
-28.317502
31
0
39
0
210
0
220
0
230
1
0
LINE
5
DE
100
AcDbEntity
8
SK2
62
256
6
ByLayer
370
13
48
1
60
0
100
AcDbLine
10
-55.145049
20
-31.4925
30
0
11
-54.727052
21
-28.317498
31
0
39
0
210
0
220
0
230
1
0
LINE
5
DF
100
AcDbEntity
8
SK2
62
256
6
ByLayer
370
13
48
1
60
0
100
AcDbLine
10
-55.563046
20
-28.317502
30
0
11
-54.727052
21
-28.317498
31
0
39
0
210
0
220
0
230
1
0
ENDBLK
5
E1
100
AcDbEntity
8
0
100
AcDbBlockEnd
0
BLOCK
5
E4
100
AcDbEntity
8
0
100
AcDbBlockBegin
2
_CLOSED
70
0
10
0
20
0
30
0
3
_CLOSED
0
LINE
5
E6
100
AcDbEntity
8
0
62
256
6
ByLayer
370
-2
48
1
60
0
100
AcDbLine
10
-1
20
0.166667
30
0
11
0
21
0
31
0
39
0
210
0
220
0
230
1
0
LINE
5
E7
100
AcDbEntity
8
0
62
256
6
ByLayer
370
-2
48
1
60
0
100
AcDbLine
10
0
20
0
30
0
11
-1
21
-0.166667
31
0
39
0
210
0
220
0
230
1
0
LINE
5
E8
100
AcDbEntity
8
0
62
256
6
ByLayer
370
-2
48
1
60
0
100
AcDbLine
10
-1
20
0.166667
30
0
11
-1
21
-0.166667
31
0
39
0
210
0
220
0
230
1
0
LINE
5
E9
100
AcDbEntity
8
0
62
256
6
ByLayer
370
-2
48
1
60
0
100
AcDbLine
10
0
20
0
30
0
11
-1
21
0
31
0
39
0
210
0
220
0
230
1
0
ENDBLK
5
E5
100
AcDbEntity
8
0
100
AcDbBlockEnd
0
BLOCK
5
F5
100
AcDbEntity
8
0
100
AcDbBlockBegin
2
DimnDraft3D2
70
0
10
0
20
0
30
0
3
DimnDraft3D2
0
MTEXT
5
EB
100
AcDbEntity
8
SK2
62
256
6
ByLayer
370
18
48
1
60
0
100
AcDbMText
10
91.815616
20
-5.178947
30
0
210
0
220
0
230
1
1
\W1.0880;%%c106
40
3
41
0
44
1.084337
50
90
71
7
72
5
7
iso_b_vert
0
LINE
5
EC
100
AcDbEntity
8
SK2
62
256
6
ByLayer
370
13
48
1
60
0
100
AcDbLine
10
57.6
20
53
30
0
11
95.315616
21
53
31
0
39
0
210
0
220
0
230
1
0
LINE
5
ED
100
AcDbEntity
8
SK2
62
256
6
ByLayer
370
13
48
1
60
0
100
AcDbLine
10
57.6
20
-53
30
0
11
95.315616
21
-53
31
0
39
0
210
0
220
0
230
1
0
LINE
5
EE
100
AcDbEntity
8
SK2
62
256
6
ByLayer
370
13
48
1
60
0
100
AcDbLine
10
93.315616
20
53
30
0
11
93.315616
21
-53
31
0
39
0
210
0
220
0
230
1
0
LINE
5
EF
100
AcDbEntity
8
SK2
62
256
6
ByLayer
370
13
48
1
60
0
100
AcDbLine
10
93.315616
20
53
30
0
11
93.733612
21
49.825002
31
0
39
0
210
0
220
0
230
1
0
LINE
5
F0
100
AcDbEntity
8
SK2
62
256
6
ByLayer
370
13
48
1
60
0
100
AcDbLine
10
93.315616
20
53
30
0
11
92.897619
21
49.824998
31
0
39
0
210
0
220
0
230
1
0
LINE
5
F1
100
AcDbEntity
8
SK2
62
256
6
ByLayer
370
13
48
1
60
0
100
AcDbLine
10
93.733612
20
49.825002
30
0
11
92.897619
21
49.824998
31
0
39
0
210
0
220
0
230
1
0
LINE
5
F2
100
AcDbEntity
8
SK2
62
256
6
ByLayer
370
13
48
1
60
0
100
AcDbLine
10
93.315616
20
-53
30
0
11
92.897619
21
-49.825002
31
0
39
0
210
0
220
0
230
1
0
LINE
5
F3
100
AcDbEntity
8
SK2
62
256
6
ByLayer
370
13
48
1
60
0
100
AcDbLine
10
93.315616
20
-53
30
0
11
93.733612
21
-49.824998
31
0
39
0
210
0
220
0
230
1
0
LINE
5
F4
100
AcDbEntity
8
SK2
62
256
6
ByLayer
370
13
48
1
60
0
100
AcDbLine
10
92.897619
20
-49.825002
30
0
11
93.733612
21
-49.824998
31
0
39
0
210
0
220
0
230
1
0
ENDBLK
5
F6
100
AcDbEntity
8
0
100
AcDbBlockEnd
0
BLOCK
5
103
100
AcDbEntity
8
0
100
AcDbBlockBegin
2
DimnDraft3D3
70
0
10
0
20
0
30
0
3
DimnDraft3D3
0
MTEXT
5
F9
100
AcDbEntity
8
SK2
62
256
6
ByLayer
370
18
48
1
60
0
100
AcDbMText
10
32.107895
20
81.553485
30
0
210
0
220
0
230
1
1
\W0.7150;69.6
40
3
41
0
44
1.084337
50
0
71
7
72
5
7
iso_b_vert
0
LINE
5
FA
100
AcDbEntity
8
SK2
62
256
6
ByLayer
370
13
48
1
60
0
100
AcDbLine
10
69.6
20
32
30
0
11
69.6
21
82.803485
31
0
39
0
210
0
220
0
230
1
0
LINE
5
FB
100
AcDbEntity
8
SK2
62
256
6
ByLayer
370
13
48
1
60
0
100
AcDbLine
10
0
20
33.1925
30
0
11
0
21
82.803485
31
0
39
0
210
0
220
0
230
1
0
LINE
5
FC
100
AcDbEntity
8
SK2
62
256
6
ByLayer
370
13
48
1
60
0
100
AcDbLine
10
69.6
20
80.803485
30
0
11
0
21
80.803485
31
0
39
0
210
0
220
0
230
1
0
LINE
5
FD
100
AcDbEntity
8
SK2
62
256
6
ByLayer
370
13
48
1
60
0
100
AcDbLine
10
69.6
20
80.803485
30
0
11
66.425002
21
80.385489
31
0
39
0
210
0
220
0
230
1
0
LINE
5
FE
100
AcDbEntity
8
SK2
62
256
6
ByLayer
370
13
48
1
60
0
100
AcDbLine
10
69.6
20
80.803485
30
0
11
66.424998
21
81.221482
31
0
39
0
210
0
220
0
230
1
0
LINE
5
FF
100
AcDbEntity
8
SK2
62
256
6
ByLayer
370
13
48
1
60
0
100
AcDbLine
10
66.425002
20
80.385489
30
0
11
66.424998
21
81.221482
31
0
39
0
210
0
220
0
230
1
0
LINE
5
100
100
AcDbEntity
8
SK2
62
256
6
ByLayer
370
13
48
1
60
0
100
AcDbLine
10
0
20
80.803485
30
0
11
3.174998
21
81.221482
31
0
39
0
210
0
220
0
230
1
0
LINE
5
101
100
AcDbEntity
8
SK2
62
256
6
ByLayer
370
13
48
1
60
0
100
AcDbLine
10
0
20
80.803485
30
0
11
3.175002
21
80.385489
31
0
39
0
210
0
220
0
230
1
0
LINE
5
102
100
AcDbEntity
8
SK2
62
256
6
ByLayer
370
13
48
1
60
0
100
AcDbLine
10
3.174998
20
81.221482
30
0
11
3.175002
21
80.385489
31
0
39
0
210
0
220
0
230
1
0
ENDBLK
5
104
100
AcDbEntity
8
0
100
AcDbBlockEnd
0
BLOCK
5
112
100
AcDbEntity
8
0
100
AcDbBlockBegin
2
DimnDraft3D4
70
0
10
0
20
0
30
0
3
DimnDraft3D4
0
MTEXT
5
107
100
AcDbEntity
8
2
62
256
6
ByLayer
370
18
48
1
60
0
100
AcDbMText
10
21.339474
20
70.261834
30
0
210
0
220
0
230
1
1
\W0.7183;45
40
3
41
0
44
1.084337
50
0
71
7
72
5
7
iso_b_vert
0
LINE
5
109
100
AcDbEntity
8
2
62
256
6
ByLayer
370
13
48
1
60
0
100
AcDbLine
10
0
20
33.1925
30
0
11
0
21
71.511834
31
0
39
0
210
0
220
0
230
1
0
LINE
5
10A
100
AcDbEntity
8
2
62
256
6
ByLayer
370
13
48
1
60
0
100
AcDbLine
10
45
20
32
30
0
11
45
21
71.511834
31
0
39
0
210
0
220
0
230
1
0
LINE
5
10B
100
AcDbEntity
8
2
62
256
6
ByLayer
370
13
48
1
60
0
100
AcDbLine
10
0
20
69.511834
30
0
11
45
21
69.511834
31
0
39
0
210
0
220
0
230
1
0
LINE
5
10C
100
AcDbEntity
8
2
62
256
6
ByLayer
370
13
48
1
60
0
100
AcDbLine
10
0
20
69.511834
30
0
11
3.174998
21
69.929831
31
0
39
0
210
0
220
0
230
1
0
LINE
5
10D
100
AcDbEntity
8
2
62
256
6
ByLayer
370
13
48
1
60
0
100
AcDbLine
10
0
20
69.511834
30
0
11
3.175002
21
69.093838
31
0
39
0
210
0
220
0
230
1
0
LINE
5
10E
100
AcDbEntity
8
2
62
256
6
ByLayer
370
13
48
1
60
0
100
AcDbLine
10
3.174998
20
69.929831
30
0
11
3.175002
21
69.093838
31
0
39
0
210
0
220
0
230
1
0
LINE
5
10F
100
AcDbEntity
8
2
62
256
6
ByLayer
370
13
48
1
60
0
100
AcDbLine
10
45
20
69.511834
30
0
11
41.825002
21
69.093838
31
0
39
0
210
0
220
0
230
1
0
LINE
5
110
100
AcDbEntity
8
2
62
256
6
ByLayer
370
13
48
1
60
0
100
AcDbLine
10
45
20
69.511834
30
0
11
41.824998
21
69.929831
31
0
39
0
210
0
220
0
230
1
0
LINE
5
111
100
AcDbEntity
8
2
62
256
6
ByLayer
370
13
48
1
60
0
100
AcDbLine
10
41.825002
20
69.093838
30
0
11
41.824998
21
69.929831
31
0
39
0
210
0
220
0
230
1
0
ENDBLK
5
113
100
AcDbEntity
8
0
100
AcDbBlockEnd
0
ENDSEC
0
SECTION
2
ENTITIES
0
ELLIPSE
5
B2
100
AcDbEntity
8
1
62
256
6
ByLayer
370
18
48
1
60
0
100
AcDbEllipse
10
26.347154
20
0
30
0
11
-14.7501703789518
21
31.0858517596492
31
0
210
0
220
0
230
1
40
0.341999
41
0.158279080202602
42
1.09076669219564
0
ELLIPSE
5
B3
100
AcDbEntity
8
1
62
256
6
ByLayer
370
18
48
1
60
0
100
AcDbEllipse
10
-2.347154
20
0
30
0
11
14.750170378951
21
31.0858517596484
31
0
210
0
220
0
230
1
40
0.341999
41
-1.09076669219566
42
-0.1582790802026
0
ELLIPSE
5
B4
100
AcDbEntity
8
1
62
256
6
ByLayer
370
18
48
1
60
0
100
AcDbEllipse
10
26.347154
20
0
30
0
11
14.7501703789521
21
31.0858517596497
31
0
210
0
220
0
230
1
40
0.341999
41
2.05082596139416
42
2.98331357338719
0
ELLIPSE
5
B5
100
AcDbEntity
8
1
62
256
6
ByLayer
370
18
48
1
60
0
100
AcDbEllipse
10
-2.347154
20
0
30
0
11
-14.750170378951
21
31.0858517596484
31
0
210
0
220
0
230
1
40
0.341999
41
-2.98331357338719
42
-2.05082596139413
0
POINT
5
6C
100
AcDbEntity
8
80
62
256
6
ByLayer
370
18
48
1
60
0
100
AcDbPoint
10
0
20
0
30
0
39
0
210
0
220
0
230
1
50
360
0
POINT
5
6E
100
AcDbEntity
8
81
62
256
6
ByLayer
370
18
48
1
60
0
100
AcDbPoint
10
45
20
0
30
0
39
0
210
0
220
0
230
1
50
360
0
SPLINE
5
B6
100
AcDbEntity
8
1
62
256
6
ByLayer
370
18
48
1
60
0
100
AcDbSpline
70
2053
71
3
72
584
73
580
40
0
40
0
40
0
40
0
40
0.0019391064794282
40
0.0038784985736795
40
0.0058180309068679
40
0.0077575600502805
40
0.0096969447829707
40
0.0116360463539719
40
0.0135751999156048
40
0.0155146484687889
40
0.0174542417114145
40
0.0193938314728842
40
0.0213332719920233
40
0.0232724201968152
40
0.0252116246805549
40
0.0271511342400127
40
0.0290907933493753
40
0.0310304487518568
40
0.0329699497563033
40
0.0349091485358092
40
0.0364451171798066
40
0.0379811631305816
40
0.0395172084462955
40
0.0410531762242571
40
0.0425916449975108
40
0.0441301928549309
40
0.0456687400681863
40
0.0472072079629883
40
0.0488233257126385
40
0.050439536799968
40
0.0520557471053021
40
0.0536718637885332
40
0.0552910016223154
40
0.0569102350260458
40
0.0585294676544091
40
0.06014860443081
40
0.0617647381471822
40
0.0633809685645965
40
0.0649971982356915
40
0.0666133309342946
40
0.0682325917324314
40
0.0698519514036871
40
0.0714713103579379
40
0.0730905701782812
40
0.0747067186875197
40
0.0763229670148056
40
0.0779392146772691
40
0.0795553622798756
40
0.081174735525864
40
0.082794210597807
40
0.0844136850586005
40
0.0860330574711509
40
0.0877813609888945
40
0.08952979429342
40
0.0912782268677735
40
0.0930265293897539
40
0.0947790240595616
40
0.0965316509505839
40
0.0982842772261899
40
0.10003677105673
40
0.10154812832394
40
0.103059571139471
40
0.104571013684816
40
0.106082370583571
40
0.10759648135752
40
0.10911067867782
40
0.110624875796929
40
0.112138986296509
40
0.11365034780842
40
0.115161795765321
40
0.11667324359677
40
0.118184604937601
40
0.119698744282343
40
0.121212970755201
40
0.122727197178975
40
0.124241336456781
40
0.125752699096295
40
0.127264148421213
40
0.128775597775092
40
0.130286960454098
40
0.131801103877209
40
0.133315334330746
40
0.13482956489114
40
0.136343708459975
40
0.137971665593761
40
0.139599730505821
40
0.141227795665487
40
0.142855753136938
40
0.144487162682238
40
0.146118680053046
40
0.147750197777722
40
0.149381607805602
40
0.15133351908095
40
0.153285522223044
40
0.155237434079633
40
0.157192640749566
40
0.159147938985111
40
0.161103146344037
40
0.163056391580861
40
0.165009993541068
40
0.166963776635942
40
0.1689175627719
40
0.170871171750636
40
0.172824421667339
40
0.174777620555283
40
0.176731166803438
40
0.178684889914488
40
0.180638616561196
40
0.182592170969291
40
0.184545375298166
40
0.186110306618744
40
0.187675325742207
40
0.189240345525786
40
0.190805277746573
40
0.192373006507768
40
0.193940822075735
40
0.195508638327146
40
0.197076368020361
40
0.198581091748413
40
0.200085890926011
40
0.201590690691719
40
0.203095415221781
40
0.205104930708969
40
0.207114534989123
40
0.209124051669425
40
0.211131633637412
40
0.213139556577914
40
0.21514765386383
40
0.217155755494369
40
0.21916368846178
40
0.221171277115514
40
0.223178798376852
40
0.225186648897962
40
0.22719466771486
40
0.229202690662055
40
0.231210550715403
40
0.233218078332614
40
0.234819406260026
40
0.236420816098968
40
0.238022226604981
40
0.239623555442083
40
0.241227491335359
40
0.242831508106648
40
0.244435525516194
40
0.246039462279866
40
0.247643492874028
40
0.249247602999533
40
0.250851713727487
40
0.252455745143211
40
0.254062309178743
40
0.255668951835491
40
0.257275595060369
40
0.258882159870662
40
0.260486178690874
40
0.262090274561286
40
0.263694370957202
40
0.265298390494045
40
0.266904865357034
40
0.268511416507846
40
0.270117968147634
40
0.27172444367744
40
0.27332845234871
40
0.274932535931233
40
0.276536619960319
40
0.278140629240567
40
0.279747027611751
40
0.281353500285518
40
0.282959973369434
40
0.284566372299938
40
0.286272843741053
40
0.287979403199153
40
0.289685963129487
40
0.29139243521459
40
0.293101716838257
40
0.294811085923808
40
0.296520455434565
40
0.298229737638089
40
0.299940390920907
40
0.301651130989839
40
0.303361871437171
40
0.305072525236013
40
0.306785951959715
40
0.308499465104117
40
0.310212978583269
40
0.311926405763472
40
0.313637052063827
40
0.315347783677949
40
0.317058515581381
40
0.318769162276273
40
0.320482537368351
40
0.322195997585835
40
0.323909458053503
40
0.325622833486761
40
0.327333474556384
40
0.329044199836562
40
0.330754925327096
40
0.332465566683583
40
0.334178903460228
40
0.335892324417739
40
0.337605745550802
40
0.339319082566846
40
0.341143912024176
40
0.342968842755412
40
0.344793773667366
40
0.346618603371146
40
0.34844667810383
40
0.350274854295518
40
0.352103030624872
40
0.353931105545293
40
0.355710748138965
40
0.357490484099172
40
0.359270220145598
40
0.361049862856849
40
0.362832499293709
40
0.364615229412586
40
0.366397959582427
40
0.368180596088789
40
0.369960237574005
40
0.371739972190936
40
0.373519706823708
40
0.375299348330527
40
0.377081978269998
40
0.378864701807994
40
0.380647425327182
40
0.382430055241004
40
0.384209697061539
40
0.385989432083096
40
0.387769167051142
40
0.389548808798703
40
0.391331443457617
40
0.393114171938557
40
0.394896900329697
40
0.39667953486615
40
0.398584635700361
40
0.400489851344651
40
0.402395066821352
40
0.404300167427019
40
0.406208959817404
40
0.408117868104791
40
0.410026776167871
40
0.411935568252364
40
0.413733196917066
40
0.415530922825318
40
0.417328648512075
40
0.419126276874722
40
0.420927033679977
40
0.422727888766
40
0.424528743581973
40
0.426329500018956
40
0.42812713418861
40
0.42992486675949
40
0.431722599012306
40
0.433520232748213
40
0.435321035360263
40
0.437121937641524
40
0.438922839548832
40
0.440723641650918
40
0.442521283457736
40
0.444319025272301
40
0.446116766658821
40
0.447914407881909
40
0.449715273299921
40
0.451516240259295
40
0.453317206727033
40
0.455118071474592
40
0.457049278015443
40
0.458980611222473
40
0.460911943691906
40
0.462843149226877
40
0.464778447081701
40
0.46671387411757
40
0.468649300314098
40
0.470584597024289
40
0.472348327979348
40
0.474112158109
40
0.475875987594542
40
0.477639717671217
40
0.479406652285215
40
0.481173688087798
40
0.482940723177819
40
0.484707656820085
40
0.486471402365562
40
0.488235250156305
40
0.489999097176109
40
0.491762841670245
40
0.493529893646439
40
0.495297050195202
40
0.497064205904151
40
0.498831256735073
40
0.500595019484847
40
0.50235888810117
40
0.504122755823513
40
0.50588651735415
40
0.507653706894459
40
0.509421004936571
40
0.511188302020623
40
0.512955490254407
40
0.514859285019311
40
0.516763218210348
40
0.518667150038896
40
0.520570942945727
40
0.522479227384642
40
0.524387654289825
40
0.526296079755717
40
0.528204362231815
40
0.529873699913666
40
0.531543134982922
40
0.533212569182246
40
0.534881905677755
40
0.536554396526389
40
0.538226987242959
40
0.539899577066363
40
0.54157206669697
40
0.543241422730556
40
0.544910880016201
40
0.546580336408703
40
0.548249691224294
40
0.549922325407911
40
0.551595063401477
40
0.553267800499473
40
0.554940433461785
40
0.556609807917411
40
0.558279287505395
40
0.559948766221787
40
0.561618139488802
40
0.563290916184601
40
0.564963800546813
40
0.566636684061011
40
0.568309459600354
40
0.570117709482178
40
0.57192609773187
40
0.57373448488808
40
0.575542733278677
40
0.577355462104831
40
0.579168332658003
40
0.580981202197523
40
0.582793929641314
40
0.584339723771331
40
0.585885607016118
40
0.587431489780274
40
0.588977283254848
40
0.590525952135939
40
0.59207471163197
40
0.593623470704221
40
0.595172139007396
40
0.596717941941273
40
0.598263835846427
40
0.599809729398692
40
0.601355531851332
40
0.602904265225328
40
0.6044530907969
40
0.606001916088
40
0.607550649079513
40
0.609096457892307
40
0.610642358917408
40
0.612188259744174
40
0.613734068286497
40
0.615282842627526
40
0.616831710071912
40
0.618380577401108
40
0.619929351585049
40
0.621598496104081
40
0.623267757385386
40
0.624937018633406
40
0.626606163107047
40
0.628279057782998
40
0.629952069966261
40
0.631625082244643
40
0.63329797705031
40
0.634767617339594
40
0.636237337093242
40
0.637707056974443
40
0.63917669743767
40
0.640648883353588
40
0.642121148808555
40
0.643593414456371
40
0.645065600635279
40
0.64653523705777
40
0.648004952132698
40
0.64947466745965
40
0.650944304225828
40
0.652416456360062
40
0.653888686946084
40
0.655360917842301
40
0.656833070399551
40
0.658302700528636
40
0.659772407986871
40
0.661242115803961
40
0.662711746422418
40
0.664674560673527
40
0.666637466380741
40
0.668600281449303
40
0.670175027977436
40
0.671749867464049
40
0.673324707535197
40
0.674899454860468
40
0.676477166858962
40
0.67805497101604
40
0.679632775806682
40
0.681210488669178
40
0.683188519508165
40
0.685166903411734
40
0.687145467400108
40
0.689124035355112
40
0.691102428413264
40
0.693080465356401
40
0.695058438538983
40
0.697036753420817
40
0.699015242840856
40
0.700993736401372
40
0.70297206083898
40
0.704950040393184
40
0.706927954528103
40
0.708906198840834
40
0.710884611914043
40
0.712863029120957
40
0.714841282973809
40
0.716819203469875
40
0.718398506332957
40
0.719977891558539
40
0.721557277477101
40
0.723136581285205
40
0.724718505786599
40
0.72630051155783
40
0.727882518006464
40
0.729464443431638
40
0.731031934056644
40
0.732599502335371
40
0.734167071243048
40
0.735734562725757
40
0.737304525614114
40
0.73887456516894
40
0.740444605328792
40
0.742014569042225
40
0.743582047153109
40
0.745149600281089
40
0.746717153979649
40
0.748284632868634
40
0.749854500300438
40
0.751424441870781
40
0.752994383982241
40
0.754564252151967
40
0.756131719052988
40
0.757699258608994
40
0.759266798668643
40
0.760834266256482
40
0.762927322656082
40
0.765020464653456
40
0.767113522001275
40
0.768780587943231
40
0.770447738782027
40
0.772114890173939
40
0.773781956870181
40
0.77545173023695
40
0.77712158774458
40
0.778791445760982
40
0.780461219821566
40
0.78213888507982
40
0.783816634593019
40
0.785494384576584
40
0.787172050476281
40
0.788852405030149
40
0.790532843255606
40
0.792213281907318
40
0.793893637042471
40
0.795571293431258
40
0.797249032205186
40
0.798926771357585
40
0.800604428262495
40
0.802284716616605
40
0.803965086953375
40
0.805645457627715
40
0.807325746442171
40
0.809003395794568
40
0.810681126048528
40
0.812358856597134
40
0.814036506351341
40
0.815716742509239
40
0.817397059332602
40
0.819077376413659
40
0.820757612922973
40
0.82254528286097
40
0.824333049297372
40
0.826120816015721
40
0.827908486338211
40
0.829699244907099
40
0.831490099899556
40
0.833280955128928
40
0.835071714020897
40
0.836834096809016
40
0.838596571057122
40
0.840359045486458
40
0.842121428521721
40
0.843886740961835
40
0.845652144956396
40
0.847417549094815
40
0.849182861731109
40
0.850945241487269
40
0.852707712063373
40
0.854470182746078
40
0.85623256264761
40
0.857997853739967
40
0.859763235901094
40
0.861528618134583
40
0.86329390932562
40
0.865056287532456
40
0.866818756231599
40
0.868581224969024
40
0.870343603228066
40
0.872108884327273
40
0.873874256312927
40
0.875639628303903
40
0.877404909410369
40
0.879289373557536
40
0.881173948297469
40
0.883058522999796
40
0.884942987095679
40
0.886831003010714
40
0.888719130270298
40
0.890607257444941
40
0.892495273244139
40
0.894292393365969
40
0.896089609703836
40
0.897886825933054
40
0.899683945906717
40
0.901484157554394
40
0.903284466190167
40
0.905084774676558
40
0.906884986120522
40
0.908682109267445
40
0.910479329266035
40
0.912276549074357
40
0.914073671961811
40
0.915873909655574
40
0.917674245163608
40
0.919474580435195
40
0.921274817806514
40
0.923071945768373
40
0.924869171594322
40
0.926666397137912
40
0.928463524714712
40
0.930263802708278
40
0.932064179747534
40
0.933864556451285
40
0.93566483398732
40
0.937593053747809
40
0.939521396201444
40
0.941449738138989
40
0.943377957195675
40
0.945310133316473
40
0.947242434096468
40
0.949174734273118
40
0.951106909571122
40
0.953116561550127
40
0.955126499222535
40
0.957136578187531
40
0.959146655168858
40
0.961156588263244
40
0.963166237189802
40
0.965175919736334
40
0.96718589420534
40
0.969196012741012
40
0.971206128883455
40
0.973216097829227
40
0.975225776693069
40
0.977235495756189
40
0.979245514144023
40
0.981255679944584
40
0.983265842923731
40
0.985275854800126
40
0.987285569521643
40
0.988873624031463
40
0.990461753572018
40
0.992049882592798
40
0.993637936393799
40
0.995228414351767
40
0.996818968858698
40
0.998409522805662
40
1
40
1
40
1
40
1
41
1
10
8.59817598524708
20
-3.28397570335938
30
0
41
1
10
8.5839027716813
20
-3.27112971910357
30
0
41
1
10
8.5555116685324
20
-3.24526544879945
30
0
41
1
10
8.513392797755
20
-3.2059542322019
30
0
41
1
10
8.47175044493721
20
-3.16613365020994
30
0
41
1
10
8.43059416110538
20
-3.12581062909044
30
0
41
1
10
8.38993440957811
20
-3.08499272482818
30
0
41
1
10
8.34977814910888
20
-3.04368398574097
30
0
41
1
10
8.3101300588537
20
-3.00188559810882
30
0
41
1
10
8.27099398129246
20
-2.95959977745569
30
0
41
1
10
8.23237726148251
20
-2.9168320912955
30
0
41
1
10
8.19428994419215
20
-2.87359093859676
30
0
41
1
10
8.15674207570819
20
-2.82988471800477
30
0
41
1
10
8.11974058225485
20
-2.78571812632572
30
0
41
1
10
8.08329022944747
20
-2.74109269603183
30
0
41
1
10
8.04739481677903
20
-2.69601102279662
30
0
41
1
10
8.01206149844547
20
-2.65047944932264
30
0
41
1
10
7.97729998984538
20
-2.60450741316815
30
0
41
1
10
7.94311999279154
20
-2.55810440134946
30
0
41
1
10
7.91185683459615
20
-2.51452172690282
30
0
41
1
10
7.88338110708694
20
-2.47386027312256
30
0
41
1
10
7.85757137235067
20
-2.43620815240917
30
0
41
1
10
7.83214018059231
20
-2.39829736320451
30
0
41
1
10
7.80707772675782
20
-2.36011103643318
30
0
41
1
10
7.7823878086761
20
-2.32165121497652
30
0
41
1
10
7.75807390783079
20
-2.28292024666483
30
0
41
1
10
7.73415307850875
20
-2.24394308538476
30
0
41
1
10
7.71023328506359
20
-2.20406403263828
30
0
41
1
10
7.68634133954512
20
-2.16327136109068
30
0
41
1
10
7.66250479243309
20
-2.12155410284953
30
0
41
1
10
7.639116590968
20
-2.07958124250104
30
0
41
1
10
7.6161666050476
20
-2.03733152325217
30
0
41
1
10
7.59365921329501
20
-1.99480778461614
30
0
41
1
10
7.57159834530407
20
-1.95201323619142
30
0
41
1
10
7.55000192341401
20
-1.90897972016149
30
0
41
1
10
7.52888699583981
20
-1.86573936607287
30
0
41
1
10
7.50825581648724
20
-1.82229632138499
30
0
41
1
10
7.48811010228593
20
-1.77865502627963
30
0
41
1
10
7.4684407477091
20
-1.73479423438709
30
0
41
1
10
7.44923910819161
20
-1.69069115920614
30
0
41
1
10
7.43050936313041
20
-1.64634917864664
30
0
41
1
10
7.41225516014629
20
-1.60177202112361
30
0
41
1
10
7.39449198828296
20
-1.55699422539008
30
0
41
1
10
7.37723440096982
20
-1.51205056745582
30
0
41
1
10
7.36048420037006
20
-1.46694559735418
30
0
41
1
10
7.34424257415742
20
-1.4216841209183
30
0
41
1
10
7.32850188441188
20
-1.37624342301357
30
0
41
1
10
7.31325516990313
20
-1.33059937418188
30
0
41
1
10
7.29850628400639
20
-1.2847558883473
30
0
41
1
10
7.2842584664701
20
-1.23871719589284
30
0
41
1
10
7.27052430417282
20
-1.19252025497122
30
0
41
1
10
7.25695587538348
20
-1.14494156910622
30
0
41
1
10
7.24360485593382
20
-1.09597135245723
30
0
41
1
10
7.23052450961172
20
-1.04560154215996
30
0
41
1
10
7.21805430083182
20
-0.995074709515455
30
0
41
1
10
7.20618787777642
20
-0.944358864032629
30
0
41
1
10
7.19492967566455
20
-0.893459573906853
30
0
41
1
10
7.18428318839747
20
-0.842382760280348
30
0
41
1
10
7.17425989131989
20
-0.791177892891568
30
0
41
1
10
7.16529339688502
20
-0.742207705838805
30
0
41
1
10
7.15728920127669
20
-0.69549652529031
30
0
41
1
10
7.15015709984786
20
-0.651064229979359
30
0
41
1
10
7.14349418252135
20
-0.606557904338697
30
0
41
1
10
7.13729799149241
20
-0.561956278313157
30
0
41
1
10
7.13157070803634
20
-0.517263338873738
30
0
41
1
10
7.12631393958496
20
-0.472483205669708
30
0
41
1
10
7.1215320779347
20
-0.427648930714177
30
0
41
1
10
7.11722870232946
20
-0.382793618681365
30
0
41
1
10
7.11340371469247
20
-0.337921602093903
30
0
41
1
10
7.11005642177954
20
-0.293037247152336
30
0
41
1
10
7.10718506622139
20
-0.248119342797899
30
0
41
1
10
7.10478879573497
20
-0.203146331126207
30
0
41
1
10
7.10286925943896
20
-0.158122424365246
30
0
41
1
10
7.10142751043866
20
-0.113051908593725
30
0
41
1
10
7.10046492424843
20
-0.067968382991483
30
0
41
1
10
7.0999820530209
20
-0.0229054577408452
30
0
41
1
10
7.09997820960337
20
0.0221325295412023
30
0
41
1
10
7.10045210510768
20
0.0671412736753147
30
0
41
1
10
7.10140357461441
20
0.112142318343954
30
0
41
1
10
7.10283338652405
20
0.157157234118773
30
0
41
1
10
7.10474261376091
20
0.202181680619999
30
0
41
1
10
7.10713172694296
20
0.247211307994344
30
0
41
1
10
7.10999903180063
20
0.292212518116235
30
0
41
1
10
7.11342785869784
20
0.338305919165108
30
0
41
1
10
7.11746078494254
20
0.385484009014129
30
0
41
1
10
7.12214086560353
20
0.433737637646771
30
0
41
1
10
7.12737075380037
20
0.481933775833914
30
0
41
1
10
7.13315349165962
20
0.530099031478903
30
0
41
1
10
7.13948977834824
20
0.578227940762085
30
0
41
1
10
7.14637952246474
20
0.626315108377675
30
0
41
1
10
7.15381666059415
20
0.674319252401207
30
0
41
1
10
7.16232243977301
20
0.725370572621771
30
0
41
1
10
7.17202767509606
20
0.779440821827102
30
0
41
1
10
7.18307135336412
20
0.83649441474133
30
0
41
1
10
7.19489517637559
20
0.89342223111352
30
0
41
1
10
7.20749787847432
20
0.950213404759047
30
0
41
1
10
7.22087710627459
20
1.00685733278271
30
0
41
1
10
7.23501723503671
20
1.06329299636989
30
0
41
1
10
7.24991534245951
20
1.11951270571482
30
0
41
1
10
7.26556689711367
20
1.17550934189018
30
0
41
1
10
7.28197210148673
20
1.23129201170769
30
0
41
1
10
7.29912504923585
20
1.28684586574094
30
0
41
1
10
7.31701977014638
20
1.34215607176652
30
0
41
1
10
7.33565188974028
20
1.39721240498103
30
0
41
1
10
7.35501916639753
20
1.45201000445302
30
0
41
1
10
7.3751173873837
20
1.50654490628372
30
0
41
1
10
7.39594122036228
20
1.56080858820436
30
0
41
1
10
7.41748346233902
20
1.61478724471988
30
0
41
1
10
7.43973685549361
20
1.66846705837096
30
0
41
1
10
7.46117516882286
20
1.71830272037053
30
0
41
1
10
7.48164024777648
20
1.76435572502316
30
0
41
1
10
7.50099013927295
20
1.80668750328133
30
0
41
1
10
7.52078470818138
20
1.84881058729631
30
0
41
1
10
7.54103262219261
20
1.89074488685139
30
0
41
1
10
7.56173228612853
20
1.93248639484041
30
0
41
1
10
7.58288163101454
20
1.97403137366879
30
0
41
1
10
7.60446469813633
20
2.01535013802296
30
0
41
1
10
7.62618302112571
20
2.05588742931375
30
0
41
1
10
7.6480140327605
20
2.09565063183534
30
0
41
1
10
7.6699355867125
20
2.13464782020212
30
0
41
1
10
7.69224482833635
20
2.17342228566026
30
0
41
1
10
7.71747604326383
20
2.21628037113762
30
0
41
1
10
7.74579078220509
20
2.2631212477398
30
0
41
1
10
7.77736648730535
20
2.31382548293147
30
0
41
1
10
7.80959791728898
20
2.36408898620334
30
0
41
1
10
7.84247909156298
20
2.41390627499706
30
0
41
1
10
7.87600302280044
20
2.46327282839573
30
0
41
1
10
7.91017236107423
20
2.51219780206782
30
0
41
1
10
7.94497660803715
20
2.56067008518652
30
0
41
1
10
7.98040521865962
20
2.6086785970577
30
0
41
1
10
8.01645039802251
20
2.65621582891929
30
0
41
1
10
8.05310800408203
20
2.7032786567804
30
0
41
1
10
8.0903726936072
20
2.74986518754935
30
0
41
1
10
8.1282368578604
20
2.7959698952203
30
0
41
1
10
8.16668951391915
20
2.84158293397725
30
0
41
1
10
8.20571963095374
20
2.88669445803279
30
0
41
1
10
8.24264896581541
20
2.92829015266083
30
0
41
1
10
8.27734546500411
20
2.96647908668415
30
0
41
1
10
8.30969289077901
20
3.00136443553204
30
0
41
1
10
8.34239163624713
20
3.03591999694629
30
0
41
1
10
8.37545505773957
20
3.07016100347608
30
0
41
1
10
8.40888043871693
20
3.1040845577421
30
0
41
1
10
8.44266478648371
20
3.13768807573329
30
0
41
1
10
8.47678529636166
20
3.17095003118153
30
0
41
1
10
8.5112380087477
20
3.20386791530573
30
0
41
1
10
8.5460195360987
20
3.23643960405851
30
0
41
1
10
8.58112626183328
20
3.26866329061616
30
0
41
1
10
8.6165527950148
20
3.30053542700801
30
0
41
1
10
8.65231328476358
20
3.3320696711628
30
0
41
1
10
8.6884048890732
20
3.36326342392266
30
0
41
1
10
8.72482453319588
20
3.39411438420358
30
0
41
1
10
8.76154848983771
20
3.42460343866125
30
0
41
1
10
8.79855249865749
20
3.45471194180909
30
0
41
1
10
8.83583256870155
20
3.48443875877702
30
0
41
1
10
8.87338454311182
20
3.5137830769112
30
0
41
1
10
8.91122339517994
20
3.54275811456032
30
0
41
1
10
8.94936388135747
20
3.57137594429592
30
0
41
1
10
8.98780308227677
20
3.5996342354797
30
0
41
1
10
9.02653788064427
20
3.62753094819595
30
0
41
1
10
9.06554391650753
20
3.65504935638462
30
0
41
1
10
9.10479636507514
20
3.68217322400572
30
0
41
1
10
9.14429131963642
20
3.70890168495968
30
0
41
1
10
9.18402473780616
20
3.73523418387369
30
0
41
1
10
9.22401210922965
20
3.76118228218078
30
0
41
1
10
9.26426870411754
20
3.78675651239362
30
0
41
1
10
9.30479154552273
20
3.81195477776768
30
0
41
1
10
9.34557748587805
20
3.8367752659355
30
0
41
1
10
9.3866016635978
20
3.8612035075267
30
0
41
1
10
9.42871605506388
20
3.88573656673803
30
0
41
1
10
9.47193444326951
20
3.91034394795326
30
0
41
1
10
9.51626986876141
20
3.93499428844815
30
0
41
1
10
9.56085498419773
20
3.95919483710266
30
0
41
1
10
9.60570871966744
20
3.98295642415545
30
0
41
1
10
9.65082746346621
20
4.00627671611616
30
0
41
1
10
9.69620741546504
20
4.02915373750662
30
0
41
1
10
9.74181810519225
20
4.05157272809588
30
0
41
1
10
9.78766609103984
20
4.07353754412711
30
0
41
1
10
9.83374749299215
20
4.09504640541631
30
0
41
1
10
9.88005827276118
20
4.11609789694592
30
0
41
1
10
9.92658036851275
20
4.13668447986994
30
0
41
1
10
9.97333331672563
20
4.15681519388855
30
0
41
1
10
10.0203134128074
20
4.17648792000015
30
0
41
1
10
10.0675167916064
20
4.1957008995766
30
0
41
1
10
10.1149123237065
20
4.21444189955711
30
0
41
1
10
10.1624685285048
20
4.23269938028476
30
0
41
1
10
10.2101809507152
20
4.25047310966446
30
0
41
1
10
10.2580450491012
20
4.26776323303574
30
0
41
1
10
10.3060809201573
20
4.28457794665528
30
0
41
1
10
10.3543084759904
20
4.30092446411293
30
0
41
1
10
10.402723942581
20
4.31680088189733
30
0
41
1
10
10.451323411746
20
4.33220565741491
30
0
41
1
10
10.5000754015377
20
4.34712909783308
30
0
41
1
10
10.5489481563387
20
4.36156221538822
30
0
41
1
10
10.5979373070043
20
4.37550499402819
30
0
41
1
10
10.6470384233003
20
4.38895779260887
30
0
41
1
10
10.696271850467
20
4.40192695090289
30
0
41
1
10
10.7456577926785
20
4.41441789600022
30
0
41
1
10
10.7951924022322
20
4.42642892840761
30
0
41
1
10
10.8448717211075
20
4.43795871189627
30
0
41
1
10
10.8946639946374
20
4.44900002368275
30
0
41
1
10
10.9456458107777
20
4.45978077508961
30
0
41
1
10
10.9978212778011
20
4.47026238494537
30
0
41
1
10
11.0511933214003
20
4.48040545256803
30
0
41
1
10
11.1046703189002
20
4.48999118345639
30
0
41
1
10
11.1582770677446
20
4.49902396404642
30
0
41
1
10
11.2120088144154
20
4.50750189308717
30
0
41
1
10
11.2658606948339
20
4.51542354276637
30
0
41
1
10
11.3197938839999
20
4.52278320260771
30
0
41
1
10
11.3733244502328
20
4.52952009451605
30
0
41
1
10
11.4264451730639
20
4.53565087773647
30
0
41
1
10
11.4791494065868
20
4.54119252632729
30
0
41
1
10
11.5319082203976
20
4.54619970844758
30
0
41
1
10
11.5847447657197
20
4.55067443309736
30
0
41
1
10
11.6376545255225
20
4.55461520271096
30
0
41
1
10
11.6906329166458
20
4.55802095278209
30
0
41
1
10
11.7436438019552
20
4.56088922333288
30
0
41
1
10
11.7966509826683
20
4.56321839982018
30
0
41
1
10
11.8496497718449
20
4.56500920531778
30
0
41
1
10
11.9026355035746
20
4.56626279937681
30
0
41
1
10
11.9556314223188
20
4.5669801259658
30
0
41
1
10
12.0086607260568
20
4.56716117049469
30
0
41
1
10
12.0617187963394
20
4.56680466809001
30
0
41
1
10
12.1148009793635
20
4.56590978947854
30
0
41
1
10
12.1678711104015
20
4.56447686661136
30
0
41
1
10
12.2208930461759
20
4.56250707651579
30
0
41
1
10
12.2738621712441
20
4.56000137515224
30
0
41
1
10
12.3267739224818
20
4.55696115272671
30
0
41
1
10
12.3796514641469
20
4.55338533095001
30
0
41
1
10
12.4325179446435
20
4.5492718729054
30
0
41
1
10
12.4853686419322
20
4.54461974808868
30
0
41
1
10
12.538198828229
20
4.53942836387155
30
0
41
1
10
12.5909724226507
20
4.53370084125054
30
0
41
1
10
12.6448899463457
20
4.52729422558189
30
0
41
1
10
12.6999414643145
20
4.52016483588345
30
0
41
1
10
12.7561153531875
20
4.51226837722056
30
0
41
1
10
12.8121982792418
20
4.50376183975905
30
0
41
1
10
12.8682184617452
20
4.49464014100809
30
0
41
1
10
12.9241699543989
20
4.48490220795724
30
0
41
1
10
12.9800468436634
20
4.47454754233171
30
0
41
1
10
13.0358050742666
20
4.46358356741749
30
0
41
1
10
13.0903567549958
20
4.45223598259152
30
0
41
1
10
13.1437047127022
20
4.44054593185253
30
0
41
1
10
13.1958530935077
20
4.42855380581984
30
0
41
1
10
13.2478726699332
20
4.41602466582922
30
0
41
1
10
13.2997868793631
20
4.40295203560629
30
0
41
1
10
13.3515906119011
20
4.38933535153357
30
0
41
1
10
13.4032788206674
20
4.37517450703139
30
0
41
1
10
13.4548148190547
20
4.36047876183325
30
0
41
1
10
13.506162215321
20
4.34525823213206
30
0
41
1
10
13.5573164621228
20
4.32951465356695
30
0
41
1
10
13.6082731660878
20
4.3132502024636
30
0
41
1
10
13.6590552936174
20
4.29645733979335
30
0
41
1
10
13.7096859125702
20
4.27912740595931
30
0
41
1
10
13.7601597808685
20
4.26126009710533
30
0
41
1
10
13.8104717496157
20
4.2428555687808
30
0
41
1
10
13.8605855325131
20
4.22392609941675
30
0
41
1
10
13.910465233461
20
4.20448480775351
30
0
41
1
10
13.9601063616771
20
4.18453368431036
30
0
41
1
10
14.009504613423
20
4.16407515869653
30
0
41
1
10
14.0586824343308
20
4.14309954691682
30
0
41
1
10
14.1076624202382
20
4.12159595167028
30
0
41
1
10
14.1564391792956
20
4.09956434452064
30
0
41
1
10
14.2050074442585
20
4.07700516335895
30
0
41
1
10
14.2533314328901
20
4.05393379772687
30
0
41
1
10
14.3025641962
20
4.02978354459172
30
0
41
1
10
14.3526789843755
20
4.00451158893525
30
0
41
1
10
14.4036468758841
20
3.97807493463973
30
0
41
1
10
14.4543063055043
20
3.95105826749049
30
0
41
1
10
14.5046845437292
20
3.92344510232809
30
0
41
1
10
14.5547746247596
20
3.89523567403037
30
0
41
1
10
14.6045697970226
20
3.86643085085277
30
0
41
1
10
14.65402646248
20
3.83705395087634
30
0
41
1
10
14.7016851272315
20
3.80799318896593
30
0
41
1
10
14.7475747739636
20
3.77930785087937
30
0
41
1
10
14.7917254671942
20
3.75105453166724
30
0
41
1
10
14.8355721291246
20
3.7223351878557
30
0
41
1
10
14.8791348209995
20
3.69313494355905
30
0
41
1
10
14.9224081172149
20
3.66345443190687
30
0
41
1
10
14.9653867883804
20
3.63329474027232
30
0
41
1
10
15.0080383769906
20
3.60267693213633
30
0
41
1
10
15.0503310864384
20
3.57162277120802
30
0
41
1
10
15.092260804728
20
3.54013501724164
30
0
41
1
10
15.1338237118468
20
3.50821685380297
30
0
41
1
10
15.1750388187759
20
3.47585268687009
30
0
41
1
10
15.2159253623083
20
3.44302534593783
30
0
41
1
10
15.2564777431748
20
3.40973584281315
30
0
41
1
10
15.2966906045337
20
3.37598566297217
30
0
41
1
10
15.3365323787735
20
3.34179926649035
30
0
41
1
10
15.3759722644127
20
3.30720177573949
30
0
41
1
10
15.4150062161075
20
3.27219633043056
30
0
41
1
10
15.45363053697
20
3.23678650581112
30
0
41
1
10
15.4918632824472
20
3.20095453018201
30
0
41
1
10
15.5297227022866
20
3.16468086338061
30
0
41
1
10
15.5672030326836
20
3.12796696696145
30
0
41
1
10
15.604298812716
20
3.0908147998596
30
0
41
1
10
15.6409796227218
20
3.05325243175087
30
0
41
1
10
15.6781734858555
20
3.01430587298376
30
0
41
1
10
15.7158364691298
20
2.97394033064741
30
0
41
1
10
15.7539221297762
20
2.932121637579
30
0
41
1
10
15.7914999826649
20
2.88984474935056
30
0
41
1
10
15.8285914268796
20
2.84708191000698
30
0
41
1
10
15.8651889218404
20
2.80383554061408
30
0
41
1
10
15.9012854446373
20
2.76010876460616
30
0
41
1
10
15.9368447061982
20
2.7159419619026
30
0
41
1
10
15.9703976563058
20
2.67320297393716
30
0
41
1
10
16.0020154461058
20
2.63195693262185
30
0
41
1
10
16.0317681160371
20
2.59226364654006
30
0
41
1
10
16.0610905175271
20
2.55224946875083
30
0
41
1
10
16.0899958290814
20
2.51189361131191
30
0
41
1
10
16.1184790697044
20
2.47119837562597
30
0
41
1
10
16.1465356499691
20
2.43016648557952
30
0
41
1
10
16.1741428024749
20
2.38882851972311
30
0
41
1
10
16.2012786434854
20
2.34721545784652
30
0
41
1
10
16.2279402069372
20
2.30533122436751
30
0
41
1
10
16.2541250157328
20
2.26318010483089
30
0
41
1
10
16.279845077697
20
2.22074119371888
30
0
41
1
10
16.3051121861461
20
2.17799180130869
30
0
41
1
10
16.3299214162909
20
2.13493478985483
30
0
41
1
10
16.3542683172563
20
2.09157344697392
30
0
41
1
10
16.378132169311
20
2.04794158633518
30
0
41
1
10
16.4014932169932
20
2.0040733707569
30
0
41
1
10
16.4243488353973
20
1.95997319986666
30
0
41
1
10
16.4466969762823
20
1.91564581690669
30
0
41
1
10
16.4685482604861
20
1.87106851164977
30
0
41
1
10
16.489912877072
20
1.82621679299477
30
0
41
1
10
16.5107860711907
20
1.78109412816324
30
0
41
1
10
16.5311636561505
20
1.73570439782101
30
0
41
1
10
16.5510274728853
20
1.69008455451211
30
0
41
1
10
16.5708956952391
20
1.643003406063
30
0
41
1
10
16.5907146626774
20
1.59444370828849
30
0
41
1
10
16.6104286668439
20
1.54438982068694
30
0
41
1
10
16.6295254885454
20
1.49409388371096
30
0
41
1
10
16.648015639231
20
1.4435226166941
30
0
41
1
10
16.6658933175582
20
1.392681175377
30
0
41
1
10
16.6831536391885
20
1.34157523298455
30
0
41
1
10
16.6997776926396
20
1.29025565250553
30
0
41
1
10
16.7149766600212
20
1.2412603121944
30
0
41
1
10
16.7288527525791
20
1.19462882606742
30
0
41
1
10
16.7415035901218
20
1.15039511546448
30
0
41
1
10
16.7536821048169
20
1.10602695518535
30
0
41
1
10
16.7653932237158
20
1.06150251244943
30
0
41
1
10
16.7766339148836
20
1.01682555561141
30
0
41
1
10
16.7874017088658
20
0.972000078471932
30
0
41
1
10
16.797687674543
20
0.927059728851
30
0
41
1
10
16.8074837353479
20
0.882038275209177
30
0
41
1
10
16.8167891787333
20
0.836940169105267
30
0
41
1
10
16.8256039009881
20
0.791769990254081
30
0
41
1
10
16.8339320291272
20
0.746506000520279
30
0
41
1
10
16.8417768388976
20
0.701125651405847
30
0
41
1
10
16.8491357645541
20
0.655633079716914
30
0
41
1
10
16.8560068508144
20
0.610032596147718
30
0
41
1
10
16.8623841877909
20
0.564359193042108
30
0
41
1
10
16.8682627471732
20
0.518647938037314
30
0
41
1
10
16.8736424168252
20
0.472903438796117
30
0
41
1
10
16.8785237280523
20
0.427130365439398
30
0
41
1
10
16.8829091892961
20
0.38130623533418
30
0
41
1
10
16.8868003460068
20
0.335408060555589
30
0
41
1
10
16.8901951852203
20
0.289440266481815
30
0
41
1
10
16.893092339377
20
0.243407388015005
30
0
41
1
10
16.8954891429121
20
0.197345225513142
30
0
41
1
10
16.897434161896
20
0.150066368575347
30
0
41
1
10
16.8988803015503
20
0.101573415764689
30
0
41
1
10
16.8997796367567
20
0.0518707461028152
30
0
41
1
10
16.9000964588894
20
0.0021608161884519
30
0
41
1
10
16.8998303848052
20
-0.0475854855322933
30
0
41
1
10
16.8989795419925
20
-0.0973623497995905
30
0
41
1
10
16.8975429514924
20
-0.147163921336158
30
0
41
1
10
16.8955216970622
20
-0.196944816356453
30
0
41
1
10
16.8930216450248
20
-0.244682034043601
30
0
41
1
10
16.890122898102
20
-0.290373969144207
30
0
41
1
10
16.8869017224669
20
-0.334021705723382
30
0
41
1
10
16.8832310045783
20
-0.377633294140877
30
0
41
1
10
16.8791089592208
20
-0.421228413174696
30
0
41
1
10
16.8745350324861
20
-0.464803048473077
30
0
41
1
10
16.8695092017288
20
-0.508353225542949
30
0
41
1
10
16.8640350627408
20
-0.551848369671046
30
0
41
1
10
16.8581169422697
20
-0.595257961776458
30
0
41
1
10
16.8517563529364
20
-0.638578232177752
30
0
41
1
10
16.8449553159835
20
-0.681805536964918
30
0
41
1
10
16.8377114108927
20
-0.724959588181986
30
0
41
1
10
16.8300214596505
20
-0.768059638187954
30
0
41
1
10
16.8218854286527
20
-0.811101725651281
30
0
41
1
10
16.8133037917988
20
-0.854081978959557
30
0
41
1
10
16.8042827384221
20
-0.896970635095412
30
0
41
1
10
16.7948291738036
20
-0.939738022455349
30
0
41
1
10
16.7849450566598
20
-0.982380608101691
30
0
41
1
10
16.7746328204171
20
-1.02489502419031
30
0
41
1
10
16.7638886257011
20
-1.06730060222521
30
0
41
1
10
16.7514643044036
20
-1.11432290596977
30
0
41
1
10
16.7371770016364
20
-1.16590842323283
30
0
41
1
10
16.7208233585045
20
-1.2219896217177
30
0
41
1
10
16.7048412418295
20
-1.27416062534069
30
0
41
1
10
16.6893984660101
20
-1.32246323641571
30
0
41
1
10
16.6746462708916
20
-1.36694112005036
30
0
41
1
10
16.6594153119059
20
-1.41125490862564
30
0
41
1
10
16.6436985088656
20
-1.45542650167349
30
0
41
1
10
16.6274968828419
20
-1.49945140500845
30
0
41
1
10
16.61081202891
20
-1.5433253525142
30
0
41
1
10
16.5936572098582
20
-1.58701514592375
30
0
41
1
10
16.5745452728221
20
-1.63419422186083
30
0
41
1
10
16.5533294030594
20
-1.68479961860581
30
0
41
1
10
16.5298523004806
20
-1.73875680717695
30
0
41
1
10
16.50565501398
20
-1.79239661679042
30
0
41
1
10
16.4807458032386
20
-1.84570550438731
30
0
41
1
10
16.455132963549
20
-1.89866998178527
30
0
41
1
10
16.4288226540685
20
-1.95128075480198
30
0
41
1
10
16.4018181718719
20
-2.00353362919392
30
0
41
1
10
16.3741244724827
20
-2.05542552669879
30
0
41
1
10
16.3457481438472
20
-2.10694918014928
30
0
41
1
10
16.3166983808897
20
-2.15809231896576
30
0
41
1
10
16.2869843780275
20
-2.20884267278672
30
0
41
1
10
16.2566129719391
20
-2.25919184318177
30
0
41
1
10
16.225587832002
20
-2.30913616621134
30
0
41
1
10
16.1939140489815
20
-2.35867313523852
30
0
41
1
10
16.1615985939588
20
-2.40779636256981
30
0
41
1
10
16.1286513348691
20
-2.45649481165599
30
0
41
1
10
16.0950821887386
20
-2.50475744225317
30
0
41
1
10
16.0631942553312
20
-2.54936503595745
30
0
41
1
10
16.0331286764876
20
-2.59041128552918
30
0
41
1
10
16.0050105018122
20
-2.62798585534999
30
0
41
1
10
15.9765107737618
20
-2.66527010861294
30
0
41
1
10
15.9476177480008
20
-2.7022806777707
30
0
41
1
10
15.9183338325991
20
-2.73901436601461
30
0
41
1
10
15.8886617618093
20
-2.77546827939318
30
0
41
1
10
15.8586220872958
20
-2.81161850358583
30
0
41
1
10
15.8283115946355
20
-2.84735239599311
30
0
41
1
10
15.7977373322749
20
-2.88267077704094
30
0
41
1
10
15.7669064741378
20
-2.91757486787412
30
0
41
1
10
15.7357297683699
20
-2.95216946167094
30
0
41
1
10
15.7041949076515
20
-2.986469280574
30
0
41
1
10
15.672304418431
20
-3.02047153627474
30
0
41
1
10
15.640061090982
20
-3.05417372132646
30
0
41
1
10
15.6074860404847
20
-3.08755490804206
30
0
41
1
10
15.5746009521454
20
-3.12059456253295
30
0
41
1
10
15.5414096186616
20
-3.15329122041343
30
0
41
1
10
15.5079160309348
20
-3.18564372653483
30
0
41
1
10
15.4741070371829
20
-3.21766650327598
30
0
41
1
10
15.4399696412273
20
-3.24937278249876
30
0
41
1
10
15.4055064810728
20
-3.28076006698435
30
0
41
1
10
15.3707204182227
20
-3.31182613391594
30
0
41
1
10
15.3356333635449
20
-3.34255239499229
30
0
41
1
10
15.3002677351573
20
-3.37292068048417
30
0
41
1
10
15.2646272690491
20
-3.4029298277335
30
0
41
1
10
15.2287158687081
20
-3.43257896745198
30
0
41
1
10
15.1925197464092
20
-3.46188096683833
30
0
41
1
10
15.1519664151396
20
-3.49406926388833
30
0
41
1
10
15.106939879318
20
-3.52899195297238
30
0
41
1
10
15.0573155168039
20
-3.56647410339019
30
0
41
1
10
15.0106142405176
20
-3.60082153120039
30
0
41
1
10
14.9669496435572
20
-3.63217247401774
30
0
41
1
10
14.9264202251385
20
-3.66065540762981
30
0
41
1
10
14.8856040977657
20
-3.68872852621234
30
0
41
1
10
14.8444842841997
20
-3.71640424813597
30
0
41
1
10
14.8030640865143
20
-3.74368009551737
30
0
41
1
10
14.7613470112238
20
-3.77055392747071
30
0
41
1
10
14.7193608053687
20
-3.79700865883792
30
0
41
1
10
14.6770442234437
20
-3.82308292918171
30
0
41
1
10
14.6343996544784
20
-3.8487728418284
30
0
41
1
10
14.5914297358092
20
-3.87407480672056
30
0
41
1
10
14.5482068621357
20
-3.89894630846756
30
0
41
1
10
14.5047131983585
20
-3.92339819472275
30
0
41
1
10
14.4609521668298
20
-3.94742819091001
30
0
41
1
10
14.4169273733893
20
-3.97103435908971
30
0
41
1
10
14.3726676226376
20
-3.99420188152875
30
0
41
1
10
14.3282021438031
20
-4.01691656202643
30
0
41
1
10
14.2835352566229
20
-4.03917787378016
30
0
41
1
10
14.2386713933011
20
-4.0609856458559
30
0
41
1
10
14.1935920394563
20
-4.08235000373135
30
0
41
1
10
14.1482789032443
20
-4.10328004401241
30
0
41
1
10
14.1027354672604
20
-4.12377371755129
30
0
41
1
10
14.0569653703704
20
-4.14382930909528
30
0
41
1
10
14.0109978449321
20
-4.16343447694452
30
0
41
1
10
13.9648624726042
20
-4.18257751629723
30
0
41
1
10
13.9185634790186
20
-4.20125812348991
30
0
41
1
10
13.8721051778146
20
-4.21947634509301
30
0
41
1
10
13.825468719339
20
-4.23724050981289
30
0
41
1
10
13.7786354377511
20
-4.25455801078269
30
0
41
1
10
13.7316088766804
20
-4.27142700351618
30
0
41
1
10
13.6843927130097
20
-4.28784597701913
30
0
41
1
10
13.6370165254896
20
-4.30380496681352
30
0
41
1
10
13.5884727302412
20
-4.31963292505
30
0
41
1
10
13.5387535285625
20
-4.33529386272589
30
0
41
1
10
13.487852143213
20
-4.35075094433706
30
0
41
1
10
13.4367914442328
20
-4.36568267648076
30
0
41
1
10
13.3855484702918
20
-4.38009592799951
30
0
41
1
10
13.3341275676062
20
-4.39398862786454
30
0
41
1
10
13.2825332248235
20
-4.40735913604631
30
0
41
1
10
13.2308016066049
20
-4.42019828806063
30
0
41
1
10
13.1792132010479
20
-4.43243985358128
30
0
41
1
10
13.1277750654024
20
-4.4440927487285
30
0
41
1
10
13.0764939876181
20
-4.45516631023696
30
0
41
1
10
13.0251016625136
20
-4.46572181261704
30
0
41
1
10
12.9735758185694
20
-4.47576383552275
30
0
41
1
10
12.9219207168723
20
-4.48529063803771
30
0
41
1
10
12.8701407217272
20
-4.49430089090736
30
0
41
1
10
12.8182707341732
20
-4.50278857553582
30
0
41
1
10
12.7663458228837
20
-4.51074848189732
30
0
41
1
10
12.7143706358455
20
-4.5181810010553
30
0
41
1
10
12.6623498408301
20
-4.5250869451361
30
0
41
1
10
12.6102609060126
20
-4.53146987775317
30
0
41
1
10
12.5580813883474
20
-4.53733241510051
30
0
41
1
10
12.5058156425745
20
-4.54267303897108
30
0
41
1
10
12.4534680974403
20
-4.54749064631072
30
0
41
1
10
12.4010738137645
20
-4.55178192641218
30
0
41
1
10
12.3486679391049
20
-4.55554438097952
30
0
41
1
10
12.2962550486104
20
-4.55877862653328
30
0
41
1
10
12.243839707837
20
-4.56148569982808
30
0
41
1
10
12.1913993396728
20
-4.56366719454025
30
0
41
1
10
12.1389114221217
20
-4.56532377886557
30
0
41
1
10
12.0863804059689
20
-4.56645415760063
30
0
41
1
10
12.0338107878324
20
-4.56705745413135
30
0
41
1
10
11.9812376853209
20
-4.56713304469628
30
0
41
1
10
11.9274843550212
20
-4.56667070132301
30
0
41
1
10
11.8725556347873
20
-4.5656278429019
30
0
41
1
10
11.8164578842065
20
-4.56396118332877
30
0
41
1
10
11.7603816644197
20
-4.5616934176406
30
0
41
1
10
11.7042994513436
20
-4.55882290411908
30
0
41
1
10
11.64821681484
20
-4.555348240082
30
0
41
1
10
11.5921393458325
20
-4.55126857134452
30
0
41
1
10
11.536109953651
20
-4.54658655567214
30
0
41
1
10
11.4810345863382
20
-4.54138738725001
30
0
41
1
10
11.4269155974402
20
-4.53570450948175
30
0
41
1
10
11.3737541938672
20
-4.52957107959517
30
0
41
1
10
11.3206597643274
20
-4.52289348844647
30
0
41
1
10
11.2676085633867
20
-4.51566815170609
30
0
41
1
10
11.21460553492
20
-4.50789416854847
30
0
41
1
10
11.1616556032474
20
-4.49957109364407
30
0
41
1
10
11.1087958064994
20
-4.49070419783268
30
0
41
1
10
11.0560630113349
20
-4.48129962220266
30
0
41
1
10
11.0034618490401
20
-4.47135877021462
30
0
41
1
10
10.9509968406792
20
-4.46088349049605
30
0
41
1
10
10.898644512647
20
-4.44986910686232
30
0
41
1
10
10.8463813486413
20
-4.43830990381206
30
0
41
1
10
10.7942124092864
20
-4.42620522982137
30
0
41
1
10
10.7421427049637
20
-4.41355488939751
30
0
41
1
10
10.6902090084387
20
-4.40036709184389
30
0
41
1
10
10.6384478305937
20
-4.38665090652414
30
0
41
1
10
10.5868637366742
20
-4.37240798051551
30
0
41
1
10
10.5354611495056
20
-4.35764040218739
30
0
41
1
10
10.4842169657478
20
-4.34234138484753
30
0
41
1
10
10.433107997119
20
-4.32650304800312
30
0
41
1
10
10.3821394322899
20
-4.31012499566854
30
0
41
1
10
10.3313163796729
20
-4.29320729076194
30
0
41
1
10
10.280675241793
20
-4.27576112926249
30
0
41
1
10
10.2290275651183
20
-4.25736234907124
30
0
41
1
10
10.1763943311309
20
-4.23796714611722
30
0
41
1
10
10.1227985346368
20
-4.21753135998721
30
0
41
1
10
10.0694387483766
20
-4.19649594525732
30
0
41
1
10
10.016286874963
20
-4.17484832869637
30
0
41
1
10
9.96334955375157
20
-4.15258824559191
30
0
41
1
10
9.91063327546944
20
-4.1297160522802
30
0
41
1
10
9.85818243202821
20
-4.10624953355317
30
0
41
1
10
9.8053079010586
20
-4.08186974042321
30
0
41
1
10
9.75202769466907
20
-4.05654913158027
30
0
41
1
10
9.69836088004156
20
-4.03026091129887
30
0
41
1
10
9.64500892529867
20
-4.00333753890232
30
0
41
1
10
9.59198364838804
20
-3.97578361593501
30
0
41
1
10
9.53929685149487
20
-3.9476037644049
30
0
41
1
10
9.48695637688975
20
-3.91880042628665
30
0
41
1
10
9.43496679876746
20
-3.88937388700193
30
0
41
1
10
9.38333221194637
20
-3.85932550763945
30
0
41
1
10
9.33206086175225
20
-3.82865871385062
30
0
41
1
10
9.2811645095537
20
-3.79737891407579
30
0
41
1
10
9.23065491717981
20
-3.76549151626865
30
0
41
1
10
9.18053992636457
20
-3.73299939637763
30
0
41
1
10
9.13082426417974
20
-3.69990301187302
30
0
41
1
10
9.08151209259331
20
-3.66620391800179
30
0
41
1
10
9.03261170440179
20
-3.63190612424475
30
0
41
1
10
8.98413479751648
20
-3.59701588535667
30
0
41
1
10
8.93609307435056
20
-3.5615395019705
30
0
41
1
10
8.89182345711732
20
-3.52800220914622
30
0
41
1
10
8.85122951707929
20
-3.49654039322568
30
0
41
1
10
8.81421917242497
20
-3.46727545208051
30
0
41
1
10
8.77749641063968
20
-3.43765175405127
30
0
41
1
10
8.74104727573426
20
-3.40765655780607
30
0
41
1
10
8.70487577850662
20
-3.37729071183838
30
0
41
1
10
8.66898590167511
20
-3.34655545543199
30
0
41
1
10
8.63340015656969
20
-3.31546872474678
30
0
41
1
10
8.6098830373905
20
-3.29451212578612
30
0
41
1
10
8.59817598524708
20
-3.28397570335938
30
0
0
SPLINE
5
B7
100
AcDbEntity
8
1
62
256
6
ByLayer
370
18
48
1
60
0
100
AcDbSpline
70
4
71
3
72
47
73
43
40
0
40
0
40
0
40
0
40
0.0424864570150734
40
0.084987221095142
40
0.127490122568441
40
0.16998582663857
40
0.212468038385857
40
0.242602852642916
40
0.27274276038822
40
0.30288173188072
40
0.333015269206393
40
0.363162929481156
40
0.393318392855991
40
0.423472112135381
40
0.453617393457525
40
0.478497703404714
40
0.503390040801671
40
0.528283952677164
40
0.553171599519697
40
0.578047973611259
40
0.604303980028531
40
0.630566330915331
40
0.65681980847727
40
0.67675822384129
40
0.696706713740214
40
0.716652949034591
40
0.736588288320926
40
0.756324582827854
40
0.776076626990488
40
0.795825139984301
40
0.815556615260813
40
0.831868850528397
40
0.848203409516051
40
0.864542185283574
40
0.880870476043214
40
0.897177447053307
40
0.914277950985225
40
0.931427397259393
40
0.948598368715295
40
0.96576536755719
40
0.98290563335843
40
1
40
1
40
1
40
1
41
1
10
10.1056624327025
20
29.9021630620274
30
0
41
1
10
10.1083051098963
20
29.9053624236181
30
0
41
1
10
10.113787203782
20
29.9117355979392
30
0
41
1
10
10.1225850001081
20
29.9212189094596
30
0
41
1
10
10.1319985527842
20
29.9306174865442
30
0
41
1
10
10.1420522009207
20
29.9399230521099
30
0
41
1
10
10.1517363207351
20
29.9482362292382
30
0
41
1
10
10.1608638843483
20
29.9555827820959
30
0
41
1
10
10.1692652615369
20
29.9619888021787
30
0
41
1
10
10.178052250474
20
29.9683325297362
30
0
41
1
10
10.187241722918
20
29.9746100742576
30
0
41
1
10
10.1968497213235
20
29.9808171828546
30
0
41
1
10
10.2068987141168
20
29.9869479717497
30
0
41
1
10
10.2174083350249
20
29.9929940833115
30
0
41
1
10
10.2277594372839
20
29.9986010155806
30
0
41
1
10
10.2378761653231
20
30.0037808911833
30
0
41
1
10
10.2476871901226
20
30.0085464551164
30
0
41
1
10
10.2578753924008
20
30.0132320039349
30
0
41
1
10
10.2684540065619
20
30.0178290086675
30
0
41
1
10
10.2796408351942
20
30.022412969802
30
0
41
1
10
10.2914812874582
20
30.0269693785833
30
0
41
1
10
10.3040289575987
20
30.031478691239
30
0
41
1
10
10.3160471444656
20
30.0354959232561
30
0
41
1
10
10.327415128053
20
30.0390467755456
30
0
41
1
10
10.3380196776186
20
30.0421603574969
30
0
41
1
10
10.3489531688153
20
30.0451664138504
30
0
41
1
10
10.3601834960591
20
30.0480455414186
30
0
41
1
10
10.3717166967556
20
30.0507895503713
30
0
41
1
10
10.383554735362
20
30.0533892801193
30
0
41
1
10
10.3957346334048
20
30.0558412942087
30
0
41
1
10
10.4075292322622
20
30.0580000252989
30
0
41
1
10
10.418875890735
20
30.0598848658551
30
0
41
1
10
10.4297134097202
20
30.0615201239223
30
0
41
1
10
10.4407708317675
20
30.0630211125504
30
0
41
1
10
10.4520281766239
20
30.0643779647751
30
0
41
1
10
10.4636560442714
20
30.0656021837549
30
0
41
1
10
10.4756671488439
20
30.0666728394222
30
0
41
1
10
10.4880541445028
20
30.067574768516
30
0
41
1
10
10.500596693573
20
30.06828761055
30
0
41
1
10
10.5132442591557
20
30.0688046940985
30
0
41
1
10
10.5259511207159
20
30.0691206997355
30
0
41
1
10
10.5344326603221
20
30.0691912004068
30
0
41
1
10
10.5386751345947
20
30.0691920745855
30
0
0
SPLINE
5
B8
100
AcDbEntity
8
1
62
256
6
ByLayer
370
18
48
1
60
0
100
AcDbSpline
70
4
71
3
72
48
73
44
40
0
40
0
40
0
40
0
40
0.0139945534192572
40
0.028002913240565
40
0.0420117278199244
40
0.0560069019718907
40
0.0704432130718732
40
0.0848928359084349
40
0.0993436999796774
40
0.113781705206513
40
0.131036256896769
40
0.14830814763213
40
0.165582814551966
40
0.182841155641017
40
0.200587413981559
40
0.218346413603107
40
0.236107794785385
40
0.253857302960754
40
0.275593513859026
40
0.297348968709387
40
0.319115518689372
40
0.340879695073092
40
0.362623227516353
40
0.390495738226827
40
0.418384138919226
40
0.446276535398639
40
0.474154497873311
40
0.501859428742998
40
0.529576281407472
40
0.557299805607208
40
0.585021704856759
40
0.612730870229435
40
0.647329838640985
40
0.681938495889032
40
0.716549193419394
40
0.751150944783326
40
0.787326370501079
40
0.823508858800345
40
0.859692603239844
40
0.895869742199683
40
0.930578895319107
40
0.965290441233567
40
1
40
1
40
1
40
1
41
1
10
10.5386751345947
20
9.36062200025664
30
0
41
1
10
10.5352032674228
20
9.36062287582851
30
0
41
1
10
10.5282640927293
20
9.36077195389919
30
0
41
1
10
10.5178681070188
20
9.36144114009878
30
0
41
1
10
10.5075146931582
20
9.36254632891817
30
0
41
1
10
10.497116619846
20
9.36409916322804
30
0
41
1
10
10.4866937958202
20
9.36611155456578
30
0
41
1
10
10.476263207948
20
9.36858129471622
30
0
41
1
10
10.4659512953418
20
9.37147069871881
30
0
41
1
10
10.4551149352154
20
9.37497795093397
30
0
41
1
10
10.4437995076503
20
9.37918435468155
30
0
41
1
10
10.4320561832476
20
9.38415474194442
30
0
41
1
10
10.4205521228528
20
9.38961231946876
30
0
41
1
10
10.4091958506429
20
9.3955803465672
30
0
41
1
10
10.3980016511971
20
9.4020447627852
30
0
41
1
10
10.3869767030433
20
9.40898630197797
30
0
41
1
10
10.376228327124
20
9.41631260427816
30
0
41
1
10
10.3649750153912
20
9.42456767759038
30
0
41
1
10
10.3532864625211
20
9.43381776231329
30
0
41
1
10
10.3412351269915
20
9.44411946464167
30
0
41
1
10
10.3295741055198
20
9.45483005624798
30
0
41
1
10
10.3182994387257
20
9.46590500526862
30
0
41
1
10
10.3063766863865
20
9.47837863995242
30
0
41
1
10
10.2939147743903
20
9.49232915527888
30
0
41
1
10
10.2810288013404
20
9.50782537733633
30
0
41
1
10
10.2686819547512
20
9.52371403174021
30
0
41
1
10
10.256874485612
20
9.53991486093517
30
0
41
1
10
10.2455733599399
20
9.55638758341708
30
0
41
1
10
10.2347536872104
20
9.57310520546408
30
0
41
1
10
10.2243735460022
20
9.59007525008454
30
0
41
1
10
10.2144162396306
20
9.60726825955677
30
0
41
1
10
10.2040701298559
20
9.62610134164854
30
0
41
1
10
10.1934322623551
20
9.64661350997617
30
0
41
1
10
10.1826065478522
20
9.66884020855984
30
0
41
1
10
10.1723231904421
20
9.69129410792884
30
0
41
1
10
10.1624077016975
20
9.71429147400372
30
0
41
1
10
10.1528588408004
20
9.73782070104359
30
0
41
1
10
10.143682040913
20
9.76187424371882
30
0
41
1
10
10.1349969076192
20
9.78608617813139
30
0
41
1
10
10.1268933960251
20
9.81010879398417
30
0
41
1
10
10.1193293724435
20
9.83392106988951
30
0
41
1
10
10.1122723853781
20
9.85750861050175
30
0
41
1
10
10.1078225082875
20
9.87329520600727
30
0
41
1
10
10.1056624327025
20
9.88120440340809
30
0
0
SPLINE
5
B9
100
AcDbEntity
8
1
62
256
6
ByLayer
370
18
48
1
60
0
100
AcDbSpline
70
4
71
3
72
47
73
43
40
0
40
0
40
0
40
0
40
0.0424864570152134
40
0.0849872210954334
40
0.127490122568875
40
0.169985826639155
40
0.212468038386587
40
0.242602852643603
40
0.272742760388864
40
0.302881731881327
40
0.333015269206959
40
0.36316292948168
40
0.393318392856473
40
0.423472112135822
40
0.453617393457926
40
0.478497703405079
40
0.503390040802002
40
0.528283952677463
40
0.553171599519957
40
0.578047973611488
40
0.60430398002875
40
0.630566330915547
40
0.656819808477478
40
0.676758223841493
40
0.696706713740413
40
0.716652949034783
40
0.736588288321112
40
0.756324582828033
40
0.776076626990662
40
0.795825139984465
40
0.815556615260974
40
0.831868850528548
40
0.848203409516204
40
0.864542185283724
40
0.88087047604336
40
0.897177447053448
40
0.914277950985338
40
0.931427397259485
40
0.948598368715367
40
0.965765367557236
40
0.982905633358451
40
1
40
1
40
1
40
1
41
1
10
13.8943375672973
20
9.88120440340808
30
0
41
1
10
13.8916948901035
20
9.8715223673092
30
0
41
1
10
13.8862127962178
20
9.85220462737294
30
0
41
1
10
13.8774149998917
20
9.82336543238693
30
0
41
1
10
13.8680014472155
20
9.79469157488872
30
0
41
1
10
13.857947799079
20
9.76620992438034
30
0
41
1
10
13.8482636792646
20
9.74068372341022
30
0
41
1
10
13.8391361156514
20
9.71806359799781
30
0
41
1
10
13.8307347384628
20
9.69829489518667
30
0
41
1
10
13.8219477495256
20
9.67867454380025
30
0
41
1
10
13.8127582770817
20
9.65921560021166
30
0
41
1
10
13.8031502786761
20
9.63993210153955
30
0
41
1
10
13.7931012858828
20
9.62084385860036
30
0
41
1
10
13.7825916649748
20
9.60197840967685
30
0
41
1
10
13.7722405627159
20
9.58444568832527
30
0
41
1
10
13.7621238346766
20
9.56821663953916
30
0
41
1
10
13.7523128098771
20
9.5532597275178
30
0
41
1
10
13.7421246075989
20
9.53852891619143
30
0
41
1
10
13.7315459934378
20
9.52405224981876
30
0
41
1
10
13.7203591648056
20
9.50959268746462
30
0
41
1
10
13.7085187125416
20
9.4951957127735
30
0
41
1
10
13.695971042401
20
9.480923749914
30
0
41
1
10
13.6839528555341
20
9.46818853660664
30
0
41
1
10
13.6725848719467
20
9.45691604710901
30
0
41
1
10
13.6619803223812
20
9.44702017800852
30
0
41
1
10
13.6510468311845
20
9.43745531310009
30
0
41
1
10
13.6398165039406
20
9.42828432069894
30
0
41
1
10
13.6282833032441
20
9.41953445386016
30
0
41
1
10
13.6164452646377
20
9.41123644114415
30
0
41
1
10
13.6042653665949
20
9.40340261285003
30
0
41
1
10
13.5924707677376
20
9.39649967047241
30
0
41
1
10
13.5811241092647
20
9.39046797533466
30
0
41
1
10
13.5702865902795
20
9.38523165737528
30
0
41
1
10
13.5592291682322
20
9.38042245949607
30
0
41
1
10
13.5479718233758
20
9.37607275008167
30
0
41
1
10
13.5363439557283
20
9.37214628849926
30
0
41
1
10
13.5243328511559
20
9.3687110237647
30
0
41
1
10
13.511945855497
20
9.36581616855465
30
0
41
1
10
13.4994033064268
20
9.3635274328041
30
0
41
1
10
13.4867557408441
20
9.36186668703825
30
0
41
1
10
13.4740488792839
20
9.36085138638951
30
0
41
1
10
13.4655673396778
20
9.36062485464514
30
0
41
1
10
13.4613248654051
20
9.36062200025664
30
0
0
SPLINE
5
BA
100
AcDbEntity
8
1
62
256
6
ByLayer
370
18
48
1
60
0
100
AcDbSpline
70
4
71
3
72
48
73
44
40
0
40
0
40
0
40
0
40
0.0139945534192521
40
0.0280029132405553
40
0.0420117278199066
40
0.0560069019718688
40
0.0704432130718526
40
0.0848928359084086
40
0.0993436999796521
40
0.113781705206485
40
0.131036256896747
40
0.148308147632106
40
0.165582814551941
40
0.182841155640991
40
0.200587413981539
40
0.218346413603095
40
0.236107794785377
40
0.253857302960749
40
0.275593513859029
40
0.297348968709385
40
0.319115518689366
40
0.340879695073085
40
0.362623227516344
40
0.390495738226821
40
0.41838413891922
40
0.446276535398636
40
0.474154497873316
40
0.501859428742999
40
0.529576281407466
40
0.557299805607198
40
0.58502170485674
40
0.612730870229411
40
0.647329838640957
40
0.681938495888996
40
0.716549193419356
40
0.75115094478328
40
0.787326370501027
40
0.82350885880029
40
0.859692603239784
40
0.895869742199615
40
0.930578895319067
40
0.965290441233548
40
1
40
1
40
1
40
1
41
1
10
13.4613248654051
20
30.0691920745855
30
0
41
1
10
13.4647967325771
20
30.0691918066626
30
0
41
1
10
13.4717359072705
20
30.0691454005434
30
0
41
1
10
13.4821318929811
20
30.0689370829978
30
0
41
1
10
13.4924853068416
20
30.0685929765454
30
0
41
1
10
13.5028833801539
20
30.0681094192847
30
0
41
1
10
13.5133062041796
20
30.0674826479438
30
0
41
1
10
13.5237367920519
20
30.0667132221384
30
0
41
1
10
13.534048704658
20
30.0658127605011
30
0
41
1
10
13.5448850647844
20
30.0647193553399
30
0
41
1
10
13.5562004923496
20
30.063407412173
30
0
41
1
10
13.5679438167522
20
30.0618563280408
30
0
41
1
10
13.579447877147
20
30.0601521694243
30
0
41
1
10
13.590804149357
20
30.0582873840009
30
0
41
1
10
13.6019983488028
20
30.0562660136894
30
0
41
1
10
13.6130232969565
20
30.0540937430738
30
0
41
1
10
13.6237716728759
20
30.0517991676823
30
0
41
1
10
13.6350249846087
20
30.0492114506316
30
0
41
1
10
13.6467135374787
20
30.0463088245039
30
0
41
1
10
13.6587648730083
20
30.0430723974781
30
0
41
1
10
13.6704258944801
20
30.0397034448341
30
0
41
1
10
13.6817005612742
20
30.0362155212779
30
0
41
1
10
13.6936233136134
20
30.0322819594771
30
0
41
1
10
13.7060852256096
20
30.0278758225597
30
0
41
1
10
13.7189711986594
20
30.0229728409134
30
0
41
1
10
13.7313180452487
20
30.017936626088
30
0
41
1
10
13.7431255143879
20
30.0127919399559
30
0
41
1
10
13.75442664006
20
30.0075508983506
30
0
41
1
10
13.7652463127895
20
30.0022217611671
30
0
41
1
10
13.7756264539976
20
29.996801721029
30
0
41
1
10
13.7855837603692
20
29.9912997409813
30
0
41
1
10
13.795929870144
20
29.9852609306478
30
0
41
1
10
13.8065677376448
20
29.9786687695212
30
0
41
1
10
13.8173934521477
20
29.971507542355
30
0
41
1
10
13.8276768095578
20
29.9642546992146
30
0
41
1
10
13.8375922983024
20
29.9568072039842
30
0
41
1
10
13.8471411591994
20
29.9491671678414
30
0
41
1
10
13.8563179590869
20
29.9413356211268
30
0
41
1
10
13.8650030923806
20
29.9334309649333
30
0
41
1
10
13.8731066039747
20
29.9255665550295
30
0
41
1
10
13.8806706275564
20
29.9177498541206
30
0
41
1
10
13.8877276146217
20
29.9099864096314
30
0
41
1
10
13.8921774917123
20
29.9047766321049
30
0
41
1
10
13.8943375672973
20
29.9021630620273
30
0
0
SPLINE
5
BB
100
AcDbEntity
8
1
62
256
6
ByLayer
370
18
48
1
60
0
100
AcDbSpline
70
4
71
3
72
47
73
43
40
0
40
0
40
0
40
0
40
0.0424864570151912
40
0.084987221095377
40
0.127490122568792
40
0.169985826639046
40
0.212468038386446
40
0.242602852643473
40
0.272742760388743
40
0.302881731881205
40
0.333015269206844
40
0.363162929481571
40
0.393318392856374
40
0.423472112135731
40
0.453617393457839
40
0.478497703404997
40
0.503390040801927
40
0.52828395267739
40
0.553171599519889
40
0.578047973611431
40
0.604303980028701
40
0.630566330915498
40
0.656819808477432
40
0.676758223841451
40
0.696706713740379
40
0.716652949034752
40
0.736588288321089
40
0.756324582828006
40
0.776076626990635
40
0.795825139984435
40
0.815556615260939
40
0.831868850528524
40
0.848203409516171
40
0.864542185283694
40
0.880870476043333
40
0.897177447053422
40
0.914277950985318
40
0.931427397259472
40
0.948598368715353
40
0.965765367557229
40
0.982905633358446
40
1
40
1
40
1
40
1
41
1
10
10.1056624327025
20
-9.8812044034078
30
0
41
1
10
10.1083051098963
20
-9.87152236730893
30
0
41
1
10
10.1137872037821
20
-9.85220462737269
30
0
41
1
10
10.1225850001081
20
-9.82336543238669
30
0
41
1
10
10.1319985527843
20
-9.7946915748885
30
0
41
1
10
10.1420522009208
20
-9.76620992438015
30
0
41
1
10
10.1517363207352
20
-9.74068372341003
30
0
41
1
10
10.1608638843485
20
-9.71806359799762
30
0
41
1
10
10.169265261537
20
-9.69829489518648
30
0
41
1
10
10.1780522504742
20
-9.67867454380005
30
0
41
1
10
10.1872417229181
20
-9.65921560021147
30
0
41
1
10
10.1968497213237
20
-9.63993210153934
30
0
41
1
10
10.206898714117
20
-9.62084385860015
30
0
41
1
10
10.217408335025
20
-9.60197840967662
30
0
41
1
10
10.227759437284
20
-9.58444568832504
30
0
41
1
10
10.2378761653232
20
-9.56821663953893
30
0
41
1
10
10.2476871901227
20
-9.55325972751757
30
0
41
1
10
10.2578753924009
20
-9.5385289161912
30
0
41
1
10
10.268454006562
20
-9.52405224981853
30
0
41
1
10
10.2796408351942
20
-9.50959268746438
30
0
41
1
10
10.2914812874583
20
-9.49519571277327
30
0
41
1
10
10.3040289575988
20
-9.48092374991375
30
0
41
1
10
10.3160471444657
20
-9.46818853660637
30
0
41
1
10
10.3274151280531
20
-9.45691604710875
30
0
41
1
10
10.3380196776186
20
-9.44702017800827
30
0
41
1
10
10.3489531688154
20
-9.43745531309985
30
0
41
1
10
10.3601834960592
20
-9.4282843206987
30
0
41
1
10
10.3717166967557
20
-9.41953445385992
30
0
41
1
10
10.3835547353621
20
-9.41123644114388
30
0
41
1
10
10.3957346334049
20
-9.40340261284977
30
0
41
1
10
10.4075292322623
20
-9.39649967047212
30
0
41
1
10
10.4188758907351
20
-9.39046797533438
30
0
41
1
10
10.4297134097203
20
-9.385231657375
30
0
41
1
10
10.4407708317676
20
-9.3804224594958
30
0
41
1
10
10.452028176624
20
-9.37607275008141
30
0
41
1
10
10.4636560442715
20
-9.37214628849901
30
0
41
1
10
10.475667148844
20
-9.36871102376445
30
0
41
1
10
10.4880541445029
20
-9.36581616855439
30
0
41
1
10
10.500596693573
20
-9.36352743280386
30
0
41
1
10
10.5132442591558
20
-9.361866687038
30
0
41
1
10
10.525951120716
20
-9.36085138638926
30
0
41
1
10
10.534432660322
20
-9.36062485464488
30
0
41
1
10
10.5386751345947
20
-9.36062200025639
30
0
0
SPLINE
5
BC
100
AcDbEntity
8
1
62
256
6
ByLayer
370
18
48
1
60
0
100
AcDbSpline
70
4
71
3
72
48
73
44
40
0
40
0
40
0
40
0
40
0.0139945534192562
40
0.0280029132405603
40
0.0420117278199139
40
0.0560069019718763
40
0.0704432130718677
40
0.0848928359084342
40
0.099343699979687
40
0.113781705206532
40
0.131036256896786
40
0.148308147632142
40
0.165582814551976
40
0.182841155641019
40
0.200587413981569
40
0.218346413603123
40
0.236107794785408
40
0.253857302960786
40
0.275593513859055
40
0.29734896870942
40
0.3191155186894
40
0.340879695073121
40
0.362623227516381
40
0.390495738226861
40
0.418384138919267
40
0.446276535398687
40
0.474154497873368
40
0.50185942874305
40
0.529576281407519
40
0.557299805607251
40
0.5850217048568
40
0.612730870229468
40
0.647329838641018
40
0.681938495889059
40
0.716549193419421
40
0.751150944783347
40
0.787326370501097
40
0.823508858800361
40
0.859692603239859
40
0.895869742199695
40
0.930578895319117
40
0.965290441233573
40
1
40
1
40
1
40
1
41
1
10
10.5386751345947
20
-30.0691920745855
30
0
41
1
10
10.5352032674228
20
-30.0691918066625
30
0
41
1
10
10.5282640927293
20
-30.0691454005433
30
0
41
1
10
10.5178681070188
20
-30.0689370829977
30
0
41
1
10
10.5075146931582
20
-30.0685929765453
30
0
41
1
10
10.4971166198459
20
-30.0681094192846
30
0
41
1
10
10.4866937958202
20
-30.0674826479437
30
0
41
1
10
10.476263207948
20
-30.0667132221383
30
0
41
1
10
10.4659512953418
20
-30.065812760501
30
0
41
1
10
10.4551149352154
20
-30.0647193553398
30
0
41
1
10
10.4437995076503
20
-30.0634074121729
30
0
41
1
10
10.4320561832476
20
-30.0618563280407
30
0
41
1
10
10.4205521228528
20
-30.0601521694242
30
0
41
1
10
10.4091958506429
20
-30.0582873840009
30
0
41
1
10
10.3980016511971
20
-30.0562660136894
30
0
41
1
10
10.3869767030433
20
-30.0540937430738
30
0
41
1
10
10.376228327124
20
-30.0517991676823
30
0
41
1
10
10.3649750153912
20
-30.0492114506315
30
0
41
1
10
10.3532864625211
20
-30.0463088245038
30
0
41
1
10
10.3412351269915
20
-30.0430723974781
30
0
41
1
10
10.3295741055197
20
-30.039703444834
30
0
41
1
10
10.3182994387256
20
-30.0362155212778
30
0
41
1
10
10.3063766863865
20
-30.032281959477
30
0
41
1
10
10.2939147743903
20
-30.0278758225596
30
0
41
1
10
10.2810288013404
20
-30.0229728409133
30
0
41
1
10
10.2686819547512
20
-30.0179366260879
30
0
41
1
10
10.256874485612
20
-30.0127919399559
30
0
41
1
10
10.2455733599399
20
-30.0075508983506
30
0
41
1
10
10.2347536872104
20
-30.0022217611671
30
0
41
1
10
10.2243735460022
20
-29.9968017210289
30
0
41
1
10
10.2144162396306
20
-29.9912997409813
30
0
41
1
10
10.2040701298559
20
-29.9852609306477
30
0
41
1
10
10.193432262355
20
-29.9786687695211
30
0
41
1
10
10.1826065478522
20
-29.9715075423549
30
0
41
1
10
10.1723231904421
20
-29.9642546992145
30
0
41
1
10
10.1624077016975
20
-29.9568072039841
30
0
41
1
10
10.1528588408004
20
-29.9491671678413
30
0
41
1
10
10.1436820409129
20
-29.9413356211267
30
0
41
1
10
10.1349969076192
20
-29.9334309649332
30
0
41
1
10
10.1268933960251
20
-29.9255665550294
30
0
41
1
10
10.1193293724435
20
-29.9177498541205
30
0
41
1
10
10.1122723853781
20
-29.9099864096314
30
0
41
1
10
10.1078225082875
20
-29.9047766321048
30
0
41
1
10
10.1056624327025
20
-29.9021630620273
30
0
0
SPLINE
5
BD
100
AcDbEntity
8
1
62
256
6
ByLayer
370
18
48
1
60
0
100
AcDbSpline
70
4
71
3
72
47
73
43
40
0
40
0
40
0
40
0
40
0.0424864570148705
40
0.084987221094748
40
0.127490122567846
40
0.169985826637778
40
0.212468038384867
40
0.242602852641977
40
0.272742760387333
40
0.302881731879886
40
0.333015269205612
40
0.363162929480423
40
0.393318392855317
40
0.423472112134757
40
0.453617393456954
40
0.47849770340419
40
0.503390040801197
40
0.528283952676737
40
0.553171599519313
40
0.578047973610928
40
0.604303980028209
40
0.630566330915022
40
0.65681980847697
40
0.676758223840999
40
0.696706713739938
40
0.716652949034325
40
0.736588288320675
40
0.756324582827606
40
0.776076626990244
40
0.795825139984054
40
0.81555661526057
40
0.831868850528161
40
0.84820340951583
40
0.864542185283361
40
0.880870476043013
40
0.897177447053116
40
0.914277950985064
40
0.931427397259261
40
0.948598368715202
40
0.965765367557125
40
0.982905633358395
40
1
40
1
40
1
40
1
41
1
10
13.8943375672973
20
-29.9021630620273
30
0
41
1
10
13.8916948901035
20
-29.905362423618
30
0
41
1
10
13.8862127962178
20
-29.9117355979391
30
0
41
1
10
13.8774149998918
20
-29.9212189094594
30
0
41
1
10
13.8680014472158
20
-29.9306174865439
30
0
41
1
10
13.8579477990794
20
-29.9399230521097
30
0
41
1
10
13.848263679265
20
-29.9482362292379
30
0
41
1
10
13.8391361156518
20
-29.9555827820957
30
0
41
1
10
13.8307347384632
20
-29.9619888021784
30
0
41
1
10
13.8219477495261
20
-29.9683325297359
30
0
41
1
10
13.8127582770821
20
-29.9746100742574
30
0
41
1
10
13.8031502786766
20
-29.9808171828544
30
0
41
1
10
13.7931012858833
20
-29.9869479717495
30
0
41
1
10
13.7825916649752
20
-29.9929940833113
30
0
41
1
10
13.7722405627163
20
-29.9986010155805
30
0
41
1
10
13.762123834677
20
-30.0037808911832
30
0
41
1
10
13.7523128098775
20
-30.0085464551163
30
0
41
1
10
13.7421246075992
20
-30.0132320039347
30
0
41
1
10
13.7315459934381
20
-30.0178290086674
30
0
41
1
10
13.7203591648058
20
-30.0224129698018
30
0
41
1
10
13.7085187125418
20
-30.0269693785832
30
0
41
1
10
13.6959710424013
20
-30.0314786912389
30
0
41
1
10
13.6839528555344
20
-30.0354959232559
30
0
41
1
10
13.672584871947
20
-30.0390467755454
30
0
41
1
10
13.6619803223814
20
-30.0421603574968
30
0
41
1
10
13.6510468311847
20
-30.0451664138504
30
0
41
1
10
13.6398165039408
20
-30.0480455414185
30
0
41
1
10
13.6282833032444
20
-30.0507895503712
30
0
41
1
10
13.616445264638
20
-30.0533892801192
30
0
41
1
10
13.6042653665952
20
-30.0558412942086
30
0
41
1
10
13.5924707677379
20
-30.0580000252988
30
0
41
1
10
13.581124109265
20
-30.059884865855
30
0
41
1
10
13.5702865902798
20
-30.0615201239222
30
0
41
1
10
13.5592291682325
20
-30.0630211125503
30
0
41
1
10
13.5479718233761
20
-30.064377964775
30
0
41
1
10
13.5363439557286
20
-30.0656021837548
30
0
41
1
10
13.5243328511561
20
-30.0666728394221
30
0
41
1
10
13.5119458554971
20
-30.0675747685159
30
0
41
1
10
13.4994033064269
20
-30.0682876105499
30
0
41
1
10
13.4867557408441
20
-30.0688046940984
30
0
41
1
10
13.4740488792839
20
-30.0691206997354
30
0
41
1
10
13.4655673396779
20
-30.0691912004069
30
0
41
1
10
13.4613248654051
20
-30.0691920745855
30
0
0
SPLINE
5
BE
100
AcDbEntity
8
1
62
256
6
ByLayer
370
18
48
1
60
0
100
AcDbSpline
70
4
71
3
72
48
73
44
40
0
40
0
40
0
40
0
40
0.0139945534192516
40
0.0280029132405512
40
0.0420117278199033
40
0.0560069019718634
40
0.0704432130718485
40
0.084892835908409
40
0.0993436999796576
40
0.113781705206492
40
0.13103625689675
40
0.148308147632107
40
0.165582814551942
40
0.182841155640989
40
0.200587413981541
40
0.218346413603096
40
0.236107794785385
40
0.253857302960762
40
0.275593513859038
40
0.297348968709393
40
0.319115518689375
40
0.340879695073095
40
0.36262322751635
40
0.390495738226829
40
0.418384138919227
40
0.446276535398644
40
0.474154497873325
40
0.501859428743009
40
0.529576281407473
40
0.557299805607202
40
0.585021704856748
40
0.612730870229415
40
0.64732983864096
40
0.681938495889
40
0.716549193419355
40
0.75115094478328
40
0.787326370501029
40
0.823508858800289
40
0.859692603239786
40
0.895869742199618
40
0.930578895319069
40
0.965290441233549
40
1
40
1
40
1
40
1
41
1
10
13.4613248654051
20
-9.36062200025639
30
0
41
1
10
13.4647967325771
20
-9.36062287582826
30
0
41
1
10
13.4717359072705
20
-9.36077195389893
30
0
41
1
10
13.4821318929811
20
-9.36144114009849
30
0
41
1
10
13.4924853068416
20
-9.36254632891785
30
0
41
1
10
13.5028833801539
20
-9.36409916322769
30
0
41
1
10
13.5133062041796
20
-9.36611155456545
30
0
41
1
10
13.5237367920519
20
-9.36858129471592
30
0
41
1
10
13.534048704658
20
-9.37147069871853
30
0
41
1
10
13.5448850647844
20
-9.37497795093371
30
0
41
1
10
13.5562004923496
20
-9.37918435468126
30
0
41
1
10
13.5679438167522
20
-9.38415474194412
30
0
41
1
10
13.579447877147
20
-9.38961231946842
30
0
41
1
10
13.590804149357
20
-9.39558034656686
30
0
41
1
10
13.6019983488028
20
-9.40204476278487
30
0
41
1
10
13.6130232969566
20
-9.40898630197768
30
0
41
1
10
13.6237716728759
20
-9.41631260427789
30
0
41
1
10
13.6350249846087
20
-9.42456767759013
30
0
41
1
10
13.6467135374787
20
-9.43381776231303
30
0
41
1
10
13.6587648730083
20
-9.4441194646414
30
0
41
1
10
13.6704258944801
20
-9.4548300562477
30
0
41
1
10
13.6817005612742
20
-9.46590500526831
30
0
41
1
10
13.6936233136134
20
-9.47837863995212
30
0
41
1
10
13.7060852256096
20
-9.49232915527857
30
0
41
1
10
13.7189711986594
20
-9.50782537733604
30
0
41
1
10
13.7313180452487
20
-9.52371403173993
30
0
41
1
10
13.7431255143879
20
-9.5399148609349
30
0
41
1
10
13.75442664006
20
-9.5563875834168
30
0
41
1
10
13.7652463127895
20
-9.57310520546379
30
0
41
1
10
13.7756264539976
20
-9.59007525008425
30
0
41
1
10
13.7855837603693
20
-9.60726825955647
30
0
41
1
10
13.795929870144
20
-9.62610134164824
30
0
41
1
10
13.8065677376448
20
-9.64661350997585
30
0
41
1
10
13.8173934521477
20
-9.66884020855954
30
0
41
1
10
13.8276768095578
20
-9.69129410792852
30
0
41
1
10
13.8375922983024
20
-9.7142914740034
30
0
41
1
10
13.8471411591994
20
-9.73782070104327
30
0
41
1
10
13.8563179590869
20
-9.76187424371851
30
0
41
1
10
13.8650030923806
20
-9.78608617813107
30
0
41
1
10
13.8731066039747
20
-9.81010879398385
30
0
41
1
10
13.8806706275563
20
-9.83392106988921
30
0
41
1
10
13.8877276146217
20
-9.85750861050144
30
0
41
1
10
13.8921774917123
20
-9.87329520600705
30
0
41
1
10
13.8943375672973
20
-9.88120440340783
30
0
0
SPLINE
5
BF
100
AcDbEntity
8
SK1
62
256
6
ByLayer
370
18
48
1
60
0
100
AcDbSpline
70
4
71
3
72
107
73
103
40
0
40
0
40
0
40
0
40
0.0106599645307786
40
0.0213210937396319
40
0.0319818823847669
40
0.0426413824570378
40
0.0533523139150416
40
0.0640655759136628
40
0.0747779783576763
40
0.0854877374235913
40
0.0949673590467109
40
0.104448292410955
40
0.113927092184644
40
0.121070430751358
40
0.128213629475972
40
0.135303510168541
40
0.142393178178113
40
0.148348636065469
40
0.154310108586173
40
0.160271807422871
40
0.166229828736587
40
0.172182389273838
40
0.17702896011041
40
0.181886710201381
40
0.186747600413372
40
0.19160543596329
40
0.196456129368224
40
0.201297986028169
40
0.206120672069451
40
0.210947167260237
40
0.215768884086815
40
0.219518556516808
40
0.223273116449565
40
0.227027450135861
40
0.230776813642396
40
0.23509447041684
40
0.239425064377222
40
0.243763810069076
40
0.248104368568632
40
0.252439152654555
40
0.256759611662171
40
0.261047329963053
40
0.265339417746897
40
0.26963242303996
40
0.273921393715751
40
0.278326687945417
40
0.282734819157876
40
0.28714362210054
40
0.291549832890326
40
0.297784776162263
40
0.304025061597225
40
0.310268993107246
40
0.3165127448906
40
0.322750598042573
40
0.330725962264684
40
0.338704874716587
40
0.346684971500084
40
0.354661951394595
40
0.364723179251858
40
0.374788325335933
40
0.384856253530288
40
0.394924146115634
40
0.404987678437663
40
0.417694093467306
40
0.430402973575119
40
0.443112649414938
40
0.455820149731817
40
0.455824806157761
40
0.455997089289994
40
0.456225248030367
40
0.456397531162607
40
0.456402187588752
40
0.468957607687365
40
0.48151422501591
40
0.494071151351391
40
0.506626992861395
40
0.524586705978897
40
0.542547566498301
40
0.560507661956864
40
0.578681971862248
40
0.596858106316321
40
0.615035656275436
40
0.633213783552385
40
0.651391250354465
40
0.669566448591871
40
0.691445965790703
40
0.713326809659939
40
0.735208373222796
40
0.757089737286496
40
0.778969690804748
40
0.77899374215785
40
0.779162101625137
40
0.779330461092424
40
0.779354512445525
40
0.806604537936711
40
0.833855697819275
40
0.861107055932438
40
0.888357351748973
40
0.916267519415664
40
0.944178545508157
40
0.972089681908709
40
1
40
1
40
1
40
1
41
1
10
-0.194913899692002
20
-6.03894368023601
30
0
41
1
10
-0.19855484682905
20
-6.04641354493138
30
0
41
1
10
-0.205953731382634
20
-6.06130041355864
30
0
41
1
10
-0.217389769536415
20
-6.08347737047018
30
0
41
1
10
-0.229199792038019
20
-6.10547790942967
30
0
41
1
10
-0.241426615791332
20
-6.12731991659598
30
0
41
1
10
-0.254097353464454
20
-6.14898564948817
30
0
41
1
10
-0.267256704741472
20
-6.17044533093095
30
0
41
1
10
-0.280927774211894
20
-6.19162909359338
30
0
41
1
10
-0.294606762818224
20
-6.21170082350946
30
0
41
1
10
-0.308259323458833
20
-6.23066722489623
30
0
41
1
10
-0.321862153651385
20
-6.24852880096787
30
0
41
1
10
-0.334863472130506
20
-6.26458903051686
30
0
41
1
10
-0.347145332134909
20
-6.27890512433132
30
0
41
1
10
-0.358564696834138
20
-6.29151485179957
30
0
41
1
10
-0.370348775010783
20
-6.30379523808673
30
0
41
1
10
-0.381875793729329
20
-6.31507246965089
30
0
41
1
10
-0.393123498499598
20
-6.32540539591528
30
0
41
1
10
-0.404039195760077
20
-6.33482348867226
30
0
41
1
10
-0.415313637412538
20
-6.34390126140161
30
0
41
1
10
-0.426958122134187
20
-6.35258942272782
30
0
41
1
10
-0.438241351140126
20
-6.36033189023347
30
0
41
1
10
-0.449105148956356
20
-6.36717818060787
30
0
41
1
10
-0.45948855614834
20
-6.3731868191795
30
0
41
1
10
-0.470158940875743
20
-6.37880448628526
30
0
41
1
10
-0.481103410634406
20
-6.38398350932841
30
0
41
1
10
-0.492308743760451
20
-6.3886764684699
30
0
41
1
10
-0.503752864115208
20
-6.39283281480358
30
0
41
1
10
-0.515428391972204
20
-6.39640730469404
30
0
41
1
10
-0.527309517430372
20
-6.39936741349423
30
0
41
1
10
-0.538486246472081
20
-6.40150691772027
30
0
41
1
10
-0.548883407518367
20
-6.402945748246
30
0
41
1
10
-0.558449165006416
20
-6.40383081024537
30
0
41
1
10
-0.568059274166144
20
-6.40428033926109
30
0
41
1
10
-0.578170898471379
20
-6.40428888060147
30
0
41
1
10
-0.588768238408119
20
-6.40375212663589
30
0
41
1
10
-0.599819134823784
20
-6.40259839189229
30
0
41
1
10
-0.61080452258466
20
-6.40088042557534
30
0
41
1
10
-0.621676749953211
20
-6.39862311108732
30
0
41
1
10
-0.632388785355659
20
-6.39585346461998
30
0
41
1
10
-0.642884367554101
20
-6.39259578073439
30
0
41
1
10
-0.65315146608539
20
-6.38887987371532
30
0
41
1
10
-0.663197831681791
20
-6.38475488271004
30
0
41
1
10
-0.673036711974379
20
-6.38024185571765
30
0
41
1
10
-0.682746557447172
20
-6.3753291134476
30
0
41
1
10
-0.692319578014673
20
-6.37003403815818
30
0
41
1
10
-0.701753861670321
20
-6.36437549527529
30
0
41
1
10
-0.710965289273848
20
-6.35842867460073
30
0
41
1
10
-0.721199746414167
20
-6.35136132475105
30
0
41
1
10
-0.73235475191344
20
-6.34306759794053
30
0
41
1
10
-0.744316555624496
20
-6.3334502478613
30
0
41
1
10
-0.755893555820132
20
-6.3234537763312
30
0
41
1
10
-0.767099833790918
20
-6.3131276980566
30
0
41
1
10
-0.778964847407888
20
-6.30152875265889
30
0
41
1
10
-0.791403457439479
20
-6.2885998259163
30
0
41
1
10
-0.804323651938028
20
-6.2742860759714
30
0
41
1
10
-0.81678404557392
20
-6.25964653805773
30
0
41
1
10
-0.829866054583562
20
-6.24342496440114
30
0
41
1
10
-0.8434855128226
20
-6.22557611429127
30
0
41
1
10
-0.857544132837163
20
-6.20605799515996
30
0
41
1
10
-0.871080316626557
20
-6.18621806728867
30
0
41
1
10
-0.884102127729076
20
-6.16615987591329
30
0
41
1
10
-0.89787761614201
20
-6.1439009914086
30
0
41
1
10
-0.911775335940449
20
-6.12046993701997
30
0
41
1
10
-0.927927022781936
20
-6.09140136106056
30
0
41
1
10
-0.936783392502182
20
-6.07540058354968
30
0
41
1
10
-0.959116221590792
20
-6.03143815499467
30
0
41
1
10
-0.954496919692819
20
-6.04047655116493
30
0
41
1
10
-0.954355442800901
20
-6.0407621267405
30
0
41
1
10
-0.954153419278896
20
-6.04116522910935
30
0
41
1
10
-0.95400924113523
20
-6.04144962282712
30
0
41
1
10
-0.949589592314727
20
-6.05044483021339
30
0
41
1
10
-0.971167493033601
20
-6.00679810557837
30
0
41
1
10
-0.978643264912143
20
-5.99042485447921
30
0
41
1
10
-0.992270236007708
20
-5.96069587258647
30
0
41
1
10
-1.00544614356404
20
-5.93052511873928
30
0
41
1
10
-1.02034497924385
20
-5.89513560196081
30
0
41
1
10
-1.03604119827515
20
-5.85597634460379
30
0
41
1
10
-1.05125453570726
20
-5.81631786293881
30
0
41
1
10
-1.06596175869632
20
-5.77632607438369
30
0
41
1
10
-1.08020907644603
20
-5.73597392908754
30
0
41
1
10
-1.09396277774121
20
-5.69544048442287
30
0
41
1
10
-1.1072521233443
20
-5.6547465105843
30
0
41
1
10
-1.1201141868777
20
-5.61387438907621
30
0
41
1
10
-1.13339513044483
20
-5.57017914157341
30
0
41
1
10
-1.14716431329727
20
-5.52308476699034
30
0
41
1
10
-1.160793765654
20
-5.47479415047926
30
0
41
1
10
-1.17558669018866
20
-5.41963509467126
30
0
41
1
10
-1.18375619436959
20
-5.38928856011123
30
0
41
1
10
-1.20425683131679
20
-5.30677843535019
30
0
41
1
10
-1.20007803894389
20
-5.32370207083119
30
0
41
1
10
-1.20000997701504
20
-5.32397818400944
30
0
41
1
10
-1.19994181583338
20
-5.32425432480147
30
0
41
1
10
-1.19475753201046
20
-5.34529320381522
30
0
41
1
10
-1.21990878502848
20
-5.24239299300526
30
0
41
1
10
-1.22839247496062
20
-5.20399982365516
30
0
41
1
10
-1.24398305793354
20
-5.13429331923504
30
0
41
1
10
-1.25709443558747
20
-5.07222544961577
30
0
41
1
10
-1.27035833057669
20
-5.00720039274407
30
0
41
1
10
-1.28307566298571
20
-4.94209141717184
30
0
41
1
10
-1.2953567716938
20
-4.87663425470364
30
0
41
1
10
-1.30324008970893
20
-4.83291326748606
30
0
41
1
10
-1.30710678118765
20
-4.81101991917768
30
0
0
SPLINE
5
C0
100
AcDbEntity
8
SK1
62
256
6
ByLayer
370
18
48
1
60
0
100
AcDbSpline
70
4
71
3
72
99
73
95
40
0
40
0
40
0
40
0
40
0.0291864597698584
40
0.0583744585153921
40
0.087562756616737
40
0.116750344999274
40
0.145936460575959
40
0.170261966329577
40
0.194589570207219
40
0.218917867588105
40
0.243245732940247
40
0.267572339788482
40
0.291897180803037
40
0.292174914705778
40
0.316402950931315
40
0.340631669729193
40
0.364859431050393
40
0.383126547135055
40
0.401394763208498
40
0.419662688187652
40
0.437929407300502
40
0.454752964068727
40
0.471577137316678
40
0.488400414860427
40
0.501032373433162
40
0.513664289050642
40
0.526272204103274
40
0.538880055625422
40
0.55162193919325
40
0.564365871136227
40
0.577109069717703
40
0.58984995307588
40
0.598839196560254
40
0.607829896472585
40
0.6168201395982
40
0.625808760084915
40
0.634863405518599
40
0.643921121961463
40
0.652977637959537
40
0.662030645828286
40
0.668587557751036
40
0.675146972314642
40
0.68170554339837
40
0.688261304655296
40
0.693599271034172
40
0.69894203311673
40
0.704285095749842
40
0.709625343264727
40
0.714961198836014
40
0.719959143569357
40
0.724970316279745
40
0.729985200215317
40
0.734996451197345
40
0.739999229968743
40
0.744991565483546
40
0.749228221358835
40
0.753478595202444
40
0.757734693119281
40
0.761989291603514
40
0.766236199755475
40
0.770470537999655
40
0.774710843105979
40
0.77896360538049
40
0.783224073312492
40
0.787486125269642
40
0.791742548715002
40
0.795985302119319
40
0.800190939461942
40
0.804400858164675
40
0.808611641016126
40
0.812818457898618
40
0.818581201744888
40
0.824347822529902
40
0.830111883833149
40
0.836130521091198
40
0.842154339631614
40
0.848181644709399
40
0.854208733736358
40
0.860230116463556
40
0.867930597074743
40
0.875634578291409
40
0.883339710724561
40
0.891041761847242
40
0.900051194641218
40
0.9090632338439
40
0.918076100820869
40
0.927086662705625
40
0.936140128462857
40
0.945193671548186
40
0.954148542861799
40
0.963103463785317
40
0.975401830512382
40
0.987701273467721
40
1
40
1
40
1
40
1
41
1
10
-1.30710678118655
20
4.81101991917755
30
0
41
1
10
-1.30307156416454
20
4.83387005339054
30
0
41
1
10
-1.29483532243724
20
4.87950782690569
30
0
41
1
10
-1.28199742814606
20
4.94777763694785
30
0
41
1
10
-1.26863569596464
20
5.01585036994221
30
0
41
1
10
-1.25472505879318
20
5.08371641350758
30
0
41
1
10
-1.24103935400295
20
5.14761120981035
30
0
41
1
10
-1.22766528801174
20
5.20756938679954
30
0
41
1
10
-1.21467897580143
20
5.26362346685557
30
0
41
1
10
-1.2012145117569
20
5.31950843274524
30
0
41
1
10
-1.18724280421066
20
5.37521255858114
30
0
41
1
10
-1.17273448802271
20
5.43072396192234
30
0
41
1
10
-1.16262723391073
20
5.4678073400399
30
0
41
1
10
-1.15233853508392
20
5.50474392719407
30
0
41
1
10
-1.14186711503947
20
5.54153626315499
30
0
41
1
10
-1.12560091858596
20
5.59618068546666
30
0
41
1
10
-1.11002612147773
20
5.64611643484947
30
0
41
1
10
-1.09529431862932
20
5.69139493167072
30
0
41
1
10
-1.08154965645523
20
5.73206806546324
30
0
41
1
10
-1.06731282840007
20
5.77256275958504
30
0
41
1
10
-1.05293946397071
20
5.81180227848309
30
0
41
1
10
-1.03844558954937
20
5.84978992308698
30
0
41
1
10
-1.02383738881553
20
5.8865258244329
30
0
41
1
10
-1.00993080204758
20
5.92001372559673
30
0
41
1
10
-0.996845905838407
20
5.95029492151972
30
0
41
1
10
-0.984708201176504
20
5.97739721242894
30
0
41
1
10
-0.972192733481522
20
6.00432379800661
30
0
41
1
10
-0.959223472333463
20
6.03115309097412
30
0
41
1
10
-0.945761396966409
20
6.05788542294731
30
0
41
1
10
-0.931759246025391
20
6.0844937552435
30
0
41
1
10
-0.917217979825808
20
6.1108533660444
30
0
41
1
10
-0.903578291277547
20
6.13437261336171
30
0
41
1
10
-0.890992979998404
20
6.15511673696833
30
0
41
1
10
-0.8796039408036
20
6.17315341351148
30
0
41
1
10
-0.867848810182545
20
6.19099462447104
30
0
41
1
10
-0.855672214935973
20
6.20866036365471
30
0
41
1
10
-0.843046407439977
20
6.22612857663532
30
0
41
1
10
-0.829925396620103
20
6.24336118015993
30
0
41
1
10
-0.816298201129202
20
6.26027144097591
30
0
41
1
10
-0.803428532242821
20
6.27529246231665
30
0
41
1
10
-0.791450035005939
20
6.28849879569596
30
0
41
1
10
-0.780486727045311
20
6.29997080423457
30
0
41
1
10
-0.769168629155524
20
6.31116204009338
30
0
41
1
10
-0.758199653603403
20
6.32136348725773
30
0
41
1
10
-0.747639178047971
20
6.33061280883182
30
0
41
1
10
-0.737543482211535
20
6.33894988911953
30
0
41
1
10
-0.727153794009246
20
6.34699569170845
30
0
41
1
10
-0.716463348816196
20
6.35471154295317
30
0
41
1
10
-0.705696172847303
20
6.36190764444744
30
0
41
1
10
-0.694853388719539
20
6.36857525759905
30
0
41
1
10
-0.683945375860887
20
6.37470535136419
30
0
41
1
10
-0.672736484075475
20
6.38040349059711
30
0
41
1
10
-0.661245647682182
20
6.38561606820279
30
0
41
1
10
-0.649491788474771
20
6.39028851755158
30
0
41
1
10
-0.638092921641175
20
6.39416760600623
30
0
41
1
10
-0.627090777399467
20
6.39729766060029
30
0
41
1
10
-0.616534141539903
20
6.39976197957134
30
0
41
1
10
-0.60583615943876
20
6.40172293133905
30
0
41
1
10
-0.595043230738197
20
6.40315798972579
30
0
41
1
10
-0.584202256069652
20
6.40404572209138
30
0
41
1
10
-0.573341109786966
20
6.40436472398403
30
0
41
1
10
-0.56248209704343
20
6.40408930674179
30
0
41
1
10
-0.55164682522049
20
6.40324455130589
30
0
41
1
10
-0.540872618547927
20
6.40185261065441
30
0
41
1
10
-0.530205377281662
20
6.39993554118018
30
0
41
1
10
-0.519690518406781
20
6.39751651402704
30
0
41
1
10
-0.5093871166589
20
6.39461752140447
30
0
41
1
10
-0.499307263747485
20
6.39126635041731
30
0
41
1
10
-0.489444258174014
20
6.38751060362461
30
0
41
1
10
-0.479781616887531
20
6.38336909562344
30
0
41
1
10
-0.469163646488542
20
6.37831812304896
30
0
41
1
10
-0.457690468411964
20
6.37222639841022
30
0
41
1
10
-0.44547440753184
20
6.36498535755689
30
0
41
1
10
-0.433468629406847
20
6.35714313990029
30
0
41
1
10
-0.421676505872806
20
6.34873479712324
30
0
41
1
10
-0.410099325019553
20
6.33978652035005
30
0
41
1
10
-0.398890911535709
20
6.3304627277828
30
0
41
1
10
-0.388038717893321
20
6.32081075487848
30
0
41
1
10
-0.376545904343192
20
6.30994717308276
30
0
41
1
10
-0.364495880700779
20
6.29781340379582
30
0
41
1
10
-0.351978145758269
20
6.28435368199988
30
0
41
1
10
-0.339906682708016
20
6.2705648558999
30
0
41
1
10
-0.327589541611229
20
6.25569349457441
30
0
41
1
10
-0.315068872261536
20
6.23972278527238
30
0
41
1
10
-0.302394762146129
20
6.22263225568143
30
0
41
1
10
-0.290170110251011
20
6.20526977254793
30
0
41
1
10
-0.278340381165499
20
6.18764161368062
30
0
41
1
10
-0.266874386932187
20
6.16977452871891
30
0
41
1
10
-0.255792040416606
20
6.15175077028664
30
0
41
1
10
-0.245080480639276
20
6.13362081975245
30
0
41
1
10
-0.23342683671482
20
6.11313405528032
30
0
41
1
10
-0.220907321192316
20
6.09017034642353
30
0
41
1
10
-0.207645561708307
20
6.06467822093714
30
0
41
1
10
-0.199105509878198
20
6.04754583421766
30
0
41
1
10
-0.194913899691997
20
6.03894368023604
30
0
0
SPLINE
5
C1
100
AcDbEntity
8
SK1
62
256
6
ByLayer
370
18
48
1
60
0
100
AcDbSpline
70
4
71
3
72
57
73
53
40
0
40
0
40
0
40
0
40
0.0216575614330919
40
0.0433185402255603
40
0.0649715288273168
40
0.078176983830222
40
0.0913993059745093
40
0.104618570567534
40
0.117823828644842
40
0.131014955042576
40
0.141581517272887
40
0.152154334285264
40
0.162710958409573
40
0.170746744759407
40
0.17881574552732
40
0.18686260141094
40
0.194868049715638
40
0.200852088265341
40
0.20685142092735
40
0.212829788632249
40
0.218827908864662
40
0.224847836711991
40
0.230849759929608
40
0.238372418601885
40
0.245924822004221
40
0.253462623124493
40
0.263132709835581
40
0.272833555514395
40
0.282552933810502
40
0.292248363664915
40
0.306806717059774
40
0.321385673502184
40
0.335977465666006
40
0.35055334425578
40
0.370461371663764
40
0.390377569181553
40
0.41029039880946
40
0.438024423460125
40
0.465769187031735
40
0.493527324993438
40
0.521294345991086
40
0.549059614462642
40
0.576807316020772
40
0.618313315155324
40
0.659825519174311
40
0.701340351928358
40
0.742849936196183
40
0.800317014990224
40
0.857788146494098
40
0.915256933084488
40
0.964529635414093
40
1
40
1
40
1
40
1
41
1
10
-0.194913899692002
20
6.03894368023613
30
0
41
1
10
-0.19269794629657
20
6.0343803651378
30
0
41
1
10
-0.188138893959389
20
6.02534820954458
30
0
41
1
10
-0.180951839379238
20
6.01205457016004
30
0
41
1
10
-0.174314533392178
20
6.00079487052736
30
0
41
1
10
-0.168384711182004
20
5.99145831189517
30
0
41
1
10
-0.163285971237447
20
5.98394613374444
30
0
41
1
10
-0.157935717324639
20
5.97667254789354
30
0
41
1
10
-0.152301175217719
20
5.96969846528736
30
0
41
1
10
-0.146744743660027
20
5.96352165897361
30
0
41
1
10
-0.141307854232866
20
5.95812005925262
30
0
41
1
10
-0.136010192752383
20
5.95350144045293
30
0
41
1
10
-0.130847022982665
20
5.94968027204487
30
0
41
1
10
-0.125874060171528
20
5.94662611316415
30
0
41
1
10
-0.121152673302164
20
5.94428962727584
30
0
41
1
10
-0.116216751375857
20
5.94248670545251
30
0
41
1
10
-0.11151669539386
20
5.94143009960927
30
0
41
1
10
-0.107134250940198
20
5.9410481304077
30
0
41
1
10
-0.103139449495656
20
5.94118149222606
30
0
41
1
10
-0.09912829368562
20
5.94182034507018
30
0
41
1
10
-0.0951575323937207
20
5.94301167787149
30
0
41
1
10
-0.0912798948268619
20
5.94470278785918
30
0
41
1
10
-0.0872282828979714
20
5.9470341099441
30
0
41
1
10
-0.0830990467493602
20
5.95010223272642
30
0
41
1
10
-0.0789733839562211
20
5.95389671505615
30
0
41
1
10
-0.0747902486839214
20
5.9584874927789
30
0
41
1
10
-0.0706280256723144
20
5.96388714754694
30
0
41
1
10
-0.0665485788142226
20
5.97008247087036
30
0
41
1
10
-0.062839287548494
20
5.97654794980797
30
0
41
1
10
-0.0588784079325841
20
5.98431109204554
30
0
41
1
10
-0.0547737019136966
20
5.99340581057822
30
0
41
1
10
-0.0506535616452559
20
6.00385985741636
30
0
41
1
10
-0.0469574419337937
20
6.01446747793477
30
0
41
1
10
-0.0431937814423933
20
6.02647885016386
30
0
41
1
10
-0.0394229026134974
20
6.03989368893708
30
0
41
1
10
-0.0357361947994554
20
6.05471408465101
30
0
41
1
10
-0.0319933650330515
20
6.07154141465995
30
0
41
1
10
-0.0282578206619047
20
6.09037113215847
30
0
41
1
10
-0.024627579860388
20
6.11119906552791
30
0
41
1
10
-0.0214362766483926
20
6.13205482076186
30
0
41
1
10
-0.0186241608396166
20
6.15292049154841
30
0
41
1
10
-0.0161349622758077
20
6.17377842788758
30
0
41
1
10
-0.013535051879302
20
6.1980642868287
30
0
41
1
10
-0.0109319046188308
20
6.22576788258137
30
0
41
1
10
-0.0084734625536841
20
6.25687242630808
30
0
41
1
10
-0.0064187157891658
20
6.28793022314059
30
0
41
1
10
-0.0044932189201206
20
6.32291037509831
30
0
41
1
10
-0.0027951392380997
20
6.36178832953675
30
0
41
1
10
-0.0014416524650811
20
6.40453110808421
30
0
41
1
10
-0.0005817124467823
20
6.44514658878794
30
0
41
1
10
-0.0001383342487508
20
6.48024531488201
30
0
41
1
10
-6.2133704096E-06
20
6.50112460355817
30
0
41
1
10
2.5271931005E-05
20
6.50985765640131
30
0
0
SPLINE
5
C2
100
AcDbEntity
8
SK1
62
256
6
ByLayer
370
18
48
1
60
0
100
AcDbSpline
70
4
71
2
72
6
73
3
40
0
40
0
40
0
40
1
40
1
40
1
41
1
10
-36.5000001
20
21.1583735955575
30
0
41
1
10
-37.2500000499412
20
20.7253664240883
30
0
41
1
10
-38
20
20.2923592525947
30
0
0
SPLINE
5
C3
100
AcDbEntity
8
SK1
62
256
6
ByLayer
370
18
48
1
60
0
100
AcDbSpline
70
4
71
2
72
6
73
3
40
0
40
0
40
0
40
1
40
1
40
1
41
1
10
-38
20
-20.2923592525947
30
0
41
1
10
-37.2500000499412
20
-20.7253664240883
30
0
41
1
10
-36.5000001
20
-21.1583735955575
30
0
0
SPLINE
5
C4
100
AcDbEntity
8
SK1
62
256
6
ByLayer
370
18
48
1
60
0
100
AcDbSpline
70
4
71
3
72
42
73
38
40
0
40
0
40
0
40
0
40
0.0401471313045106
40
0.0793464924993391
40
0.117437061856194
40
0.154268574854514
40
0.189703123804421
40
0.223616243237673
40
0.255897485335957
40
0.286450518746638
40
0.312290526590875
40
0.336626209158597
40
0.359415106706179
40
0.38062204147503
40
0.40021840800044
40
0.417875113993518
40
0.433939471405502
40
0.449488689686295
40
0.466636651116874
40
0.485796294991465
40
0.506669064157688
40
0.529248135768417
40
0.55352102896428
40
0.579468593212657
40
0.606557002264483
40
0.63520127073978
40
0.665358698389858
40
0.696976737839389
40
0.726935572090668
40
0.757994363881921
40
0.790090223093121
40
0.823152619666154
40
0.857103576200757
40
0.891858054354853
40
0.927324541125065
40
0.963405832216906
40
1
40
1
40
1
40
1
41
1
10
-1.79497698875896
20
21.8302113845853
30
0
41
1
10
-1.79903041901804
20
21.8301098383066
30
0
41
1
10
-1.80703143775647
20
21.8301520093745
30
0
41
1
10
-1.8188633202144
20
21.8309257302971
30
0
41
1
10
-1.83029541653666
20
21.8323483927634
30
0
41
1
10
-1.84125662992129
20
21.8343486936923
30
0
41
1
10
-1.85168262904667
20
21.8368472141664
30
0
41
1
10
-1.86152345595418
20
21.839759261735
30
0
41
1
10
-1.87074164387165
20
21.8429975008514
30
0
41
1
10
-1.8790405962408
20
21.8463642895413
30
0
41
1
10
-1.88645817910381
20
21.8497491603999
30
0
41
1
10
-1.89304188354393
20
21.8530612703845
30
0
41
1
10
-1.89909342837953
20
21.856381403028
30
0
41
1
10
-1.90461968514364
20
21.8596575118215
30
0
41
1
10
-1.90960493636828
20
21.8628251248711
30
0
41
1
10
-1.91406879122609
20
21.8658415962794
30
0
41
1
10
-1.91812165082418
20
21.8687338788221
30
0
41
1
10
-1.92206373603754
20
21.8716921722945
30
0
41
1
10
-1.92617767775051
20
21.874941892034
30
0
41
1
10
-1.93061386933593
20
21.8786489527105
30
0
41
1
10
-1.9353460106966
20
21.882853678476
30
0
41
1
10
-1.94031183461426
20
21.8875677374681
30
0
41
1
10
-1.94546613815268
20
21.8928210839234
30
0
41
1
10
-1.95072304317551
20
21.8986037114223
30
0
41
1
10
-1.95602669743336
20
21.9049310303412
30
0
41
1
10
-1.96131736031679
20
21.911813489075
30
0
41
1
10
-1.96655831298138
20
21.9192991927915
30
0
41
1
10
-1.97151389187148
20
21.9271336264267
30
0
41
1
10
-1.97614298614928
20
21.9352684585528
30
0
41
1
10
-1.98041282127207
20
21.9436508639369
30
0
41
1
10
-1.98440534338499
20
21.9525129297135
30
0
41
1
10
-1.98806220664685
20
21.9618322740302
30
0
41
1
10
-1.99132654949421
20
21.9715787363897
30
0
41
1
10
-1.99414437760677
20
21.9817147788415
30
0
41
1
10
-1.99646574558258
20
21.9921943196587
30
0
41
1
10
-1.99824670558222
20
22.0029687394991
30
0
41
1
10
-1.99904281916571
20
22.010256416706
30
0
41
1
10
-1.9993424494797
20
22.0139404278531
30
0
0
SPLINE
5
C5
100
AcDbEntity
8
SK1
62
256
6
ByLayer
370
18
48
1
60
0
100
AcDbSpline
70
4
71
3
72
42
73
38
40
0
40
0
40
0
40
0
40
0.0392931256746087
40
0.0774775611684516
40
0.114402364294876
40
0.149929069589023
40
0.183932783562626
40
0.216302770639269
40
0.246942564271121
40
0.272858653140152
40
0.297269000760524
40
0.32013144105835
40
0.341411256877149
40
0.361080509081102
40
0.378809704834282
40
0.39494866791007
40
0.410576866800032
40
0.427808599123669
40
0.447057776792869
40
0.468023846356412
40
0.490699565998126
40
0.515072091295455
40
0.541121934027393
40
0.568313047075784
40
0.597061916902112
40
0.627325481071512
40
0.659050787530103
40
0.689107735486664
40
0.72026480831734
40
0.752458678268521
40
0.78561832507258
40
0.819665225116058
40
0.854513735279272
40
0.890071677520478
40
0.926241121380551
40
0.962919351833567
40
1
40
1
40
1
40
1
41
1
10
-1.99926318425598
20
-22.0129928959899
30
0
41
1
10
-1.99892340814298
20
-22.0090479388852
30
0
41
1
10
-1.99802485911315
20
-22.0013044509993
30
0
41
1
10
-1.99602970425334
20
-21.9899549191456
30
0
41
1
10
-1.99348170619031
20
-21.9791088275804
30
0
41
1
10
-1.99046283237203
20
-21.968821247256
30
0
41
1
10
-1.98706033006649
20
-21.9591391390141
30
0
41
1
10
-1.98336327199603
20
-21.9500952027698
30
0
41
1
10
-1.97958397665099
20
-21.9419758579841
30
0
41
1
10
-1.97583086836882
20
-21.9347376882196
30
0
41
1
10
-1.97219225838028
20
-21.9283286433212
30
0
41
1
10
-1.96857233455951
20
-21.9224514838471
30
0
41
1
10
-1.96502272197266
20
-21.9170967177001
30
0
41
1
10
-1.96160862257917
20
-21.9122768341979
30
0
41
1
10
-1.95837156419463
20
-21.9079700000011
30
0
41
1
10
-1.95527952965973
20
-21.9040678910071
30
0
41
1
10
-1.95212811852014
20
-21.900280864955
30
0
41
1
10
-1.94867577350362
20
-21.8963352900863
30
0
41
1
10
-1.94475061962318
20
-21.8920910196011
30
0
41
1
10
-1.94031349158888
20
-21.8875760768682
30
0
41
1
10
-1.93535594405797
20
-21.8828533380504
30
0
41
1
10
-1.92985031090136
20
-21.8779694286156
30
0
41
1
10
-1.92381089810344
20
-21.8730096179525
30
0
41
1
10
-1.91722512667549
20
-21.8680304684061
30
0
41
1
10
-1.91008557092256
20
-21.8630921752417
30
0
41
1
10
-1.90234602113302
20
-21.8582338196058
30
0
41
1
10
-1.89427246196454
20
-21.8536779564583
30
0
41
1
10
-1.8859152724553
20
-21.8494632500912
30
0
41
1
10
-1.87732890475465
20
-21.8456197952722
30
0
41
1
10
-1.86827739482784
20
-21.8420773807887
30
0
41
1
10
-1.85878604464503
20
-21.8388931535133
30
0
41
1
10
-1.84888775363159
20
-21.836122381908
30
0
41
1
10
-1.83862301896445
20
-21.8338171201595
30
0
41
1
10
-1.82803922496332
20
-21.8320248723616
30
0
41
1
10
-1.81719152479708
20
-21.8307873212065
30
0
41
1
10
-1.80613624679498
20
-21.8301390516081
30
0
41
1
10
-1.79871295928845
20
-21.8301177035748
30
0
41
1
10
-1.79497698875896
20
-21.8302113845853
30
0
0
SPLINE
5
C6
100
AcDbEntity
8
SK1
62
256
6
ByLayer
370
18
48
1
60
0
100
AcDbSpline
70
4
71
1
72
4
73
2
40
0
40
0
40
1
40
1
41
1
10
-1.99993701093305
20
22.0251226942188
30
0
41
1
10
-19.2499533980093
20
21.5917477671974
30
0
0
SPLINE
5
C7
100
AcDbEntity
8
SK1
62
256
6
ByLayer
370
18
48
1
60
0
100
AcDbSpline
70
4
71
2
72
6
73
3
40
0
40
0
40
0
40
1
40
1
40
1
41
1
10
-19.2499533980093
20
21.5917477671974
30
0
41
1
10
-27.8749767483354
20
21.3750599204712
30
0
41
1
10
-36.5000001
20
21.1583720779215
30
0
0
SPLINE
5
C8
100
AcDbEntity
8
SK1
62
256
6
ByLayer
370
18
48
1
60
0
100
AcDbSpline
70
4
71
2
72
6
73
3
40
0
40
0
40
0
40
1
40
1
40
1
41
1
10
-36.5000001
20
-21.1583720779215
30
0
41
1
10
-27.8749773401963
20
-21.3750599050821
30
0
41
1
10
-19.249954582869
20
-21.59174773743
30
0
0
SPLINE
5
C9
100
AcDbEntity
8
SK1
62
256
6
ByLayer
370
18
48
1
60
0
100
AcDbSpline
70
4
71
1
72
4
73
2
40
0
40
0
40
1
40
1
41
1
10
-19.249954582869
20
-21.59174773743
30
0
41
1
10
-1.99993701093305
20
-22.0251226942188
30
0
0
SPLINE
5
CA
100
AcDbEntity
8
SK1
62
256
6
ByLayer
370
18
48
1
60
0
100
AcDbSpline
70
4
71
3
72
120
73
116
40
0
40
0
40
0
40
0
40
0.0100576233662781
40
0.0201154218720577
40
0.0301732122106834
40
0.0402308244397375
40
0.0502885387945516
40
0.0603464474268775
40
0.0704043464254839
40
0.0804620476431519
40
0.090519869080562
40
0.100577907319353
40
0.110635934223874
40
0.120693740205125
40
0.130814817813219
40
0.140936143395312
40
0.151057455366171
40
0.16117851441303
40
0.171357236567785
40
0.181536243268977
40
0.191715233776457
40
0.201893933848255
40
0.210037024306335
40
0.21818036635083
40
0.22632378104194
40
0.234467101719033
40
0.242610174255519
40
0.250753422041903
40
0.258896954467479
40
0.267040569279783
40
0.275184077901609
40
0.283327305722866
40
0.291554619739467
40
0.299782264601446
40
0.30801000585554
40
0.316237624248675
40
0.324464916064713
40
0.332511993513652
40
0.340559416214581
40
0.348606941319119
40
0.35665433985432
40
0.364701397034365
40
0.372748638548381
40
0.380796258764584
40
0.388843993806503
40
0.396891592274275
40
0.404938815546817
40
0.412986195781002
40
0.421033982335717
40
0.429081895711856
40
0.437129665820479
40
0.445177032260472
40
0.453350312769405
40
0.461524037435701
40
0.469697905536039
40
0.477871621350457
40
0.486044894434832
40
0.494312593636481
40
0.502580757042907
40
0.510849076172836
40
0.519117241367399
40
0.527384942068861
40
0.53565259634346
40
0.543920703350772
40
0.552188967941756
40
0.560457087519964
40
0.568724752338475
40
0.576992292839395
40
0.585260260862808
40
0.59352838244954
40
0.601796371352512
40
0.61006392936623
40
0.618482657385759
40
0.62690180002066
40
0.635321095497295
40
0.643740265789798
40
0.652159017007174
40
0.660749048402211
40
0.669339475389539
40
0.677930051047163
40
0.686520509796544
40
0.695110567831956
40
0.703700378512747
40
0.712290539341008
40
0.720880833100778
40
0.729471024579033
40
0.738060860967324
40
0.746650464125445
40
0.755240375046436
40
0.763830403300665
40
0.772420342096141
40
0.781009968633706
40
0.789718396073663
40
0.798427104627744
40
0.807135920526788
40
0.815844654867593
40
0.824553103935829
40
0.833306729861355
40
0.84206060622939
40
0.850814577995512
40
0.859568476895499
40
0.868322121719337
40
0.877075600088405
40
0.885829299070659
40
0.894583081643822
40
0.903336799636292
40
0.912090293949817
40
0.923032013737033
40
0.933973992320429
40
0.944915984700427
40
0.955857723301631
40
0.966893167082578
40
0.977928847535752
40
0.988964539932295
40
1
40
1
40
1
40
1
41
1
10
-1.30710678118655
20
4.81101991917756
30
0
41
1
10
-1.31251256689723
20
4.78043782395492
30
0
41
1
10
-1.32327737363291
20
4.71919715422697
30
0
41
1
10
-1.33928683312494
20
4.62710802760046
30
0
41
1
10
-1.35515013764391
20
4.53479116535756
30
0
41
1
10
-1.37086184167334
20
4.44224700104603
30
0
41
1
10
-1.38641580995148
20
4.34947523145856
30
0
41
1
10
-1.40180558901324
20
4.25647555111125
30
0
41
1
10
-1.41702439719831
20
4.1632492274296
30
0
41
1
10
-1.43206554542741
20
4.06979696477279
30
0
41
1
10
-1.44692247248121
20
3.97611867510717
30
0
41
1
10
-1.46158806020951
20
3.88221432390271
30
0
41
1
10
-1.47605486850485
20
3.78808565961143
30
0
41
1
10
-1.49034539545958
20
3.6935363673598
30
0
41
1
10
-1.50445083408417
20
3.59856499838046
30
0
41
1
10
-1.51836165519888
20
3.50317027454528
30
0
41
1
10
-1.53204019787038
20
3.4075525019224
30
0
41
1
10
-1.54550373294407
20
3.31153185009535
30
0
41
1
10
-1.55874254381814
20
3.21510749157137
30
0
41
1
10
-1.57174620253606
20
3.118278878556
30
0
41
1
10
-1.58448060332997
20
3.02123126585463
30
0
41
1
10
-1.59610631562496
20
2.9304513984634
30
0
41
1
10
-1.60667755344734
20
2.84598816751752
30
0
41
1
10
-1.61624707830045
20
2.76788444163018
30
0
41
1
10
-1.62562308665037
20
2.68964531946178
30
0
41
1
10
-1.63480048864086
20
2.61127389176229
30
0
41
1
10
-1.64377441493695
20
2.53277145261668
30
0
41
1
10
-1.65254001254473
20
2.45413849533909
30
0
41
1
10
-1.66109231858455
20
2.37537579679269
30
0
41
1
10
-1.669426166701
20
2.296486240474
30
0
41
1
10
-1.67753625616019
20
2.21747374877816
30
0
41
1
10
-1.68544457729256
20
2.13806845540846
30
0
41
1
10
-1.69314322554757
20
2.05826983251304
30
0
41
1
10
-1.70062422391458
20
1.97807784448785
30
0
41
1
10
-1.70785599212551
20
1.89776845229098
30
0
41
1
10
-1.71483305831568
20
1.81734671234571
30
0
41
1
10
-1.72150107930404
20
1.73740398999208
30
0
41
1
10
-1.72786149966883
20
1.65794468762431
30
0
41
1
10
-1.73391645474889
20
1.57897334273344
30
0
41
1
10
-1.73970844260091
20
1.49990501457205
30
0
41
1
10
-1.74523264055162
20
1.42074547459577
30
0
41
1
10
-1.75048442591975
20
1.34149812089498
30
0
41
1
10
-1.75545908360227
20
1.26216506683537
30
0
41
1
10
-1.76015268605485
20
1.1827489032445
30
0
41
1
10
-1.76456123812436
20
1.10325490779346
30
0
41
1
10
-1.76868060378112
20
1.02368989680883
30
0
41
1
10
-1.77250680892243
20
0.944058192675825
30
0
41
1
10
-1.7760357812778
20
0.864362571471987
30
0
41
1
10
-1.77926466263207
20
0.784606246613614
30
0
41
1
10
-1.78219055594874
20
0.704795174745588
30
0
41
1
10
-1.78481044770564
20
0.62493708355978
30
0
41
1
10
-1.78713346846047
20
0.544620830342912
30
0
41
1
10
-1.78915091835614
20
0.463848995201788
30
0
41
1
10
-1.79085559935698
20
0.382624795384211
30
0
41
1
10
-1.79223562169347
20
0.301371398664784
30
0
41
1
10
-1.79328942645892
20
0.220097547442303
30
0
41
1
10
-1.79401827690921
20
0.138496537542336
30
0
41
1
10
-1.79441615687939
20
0.0565720881000031
30
0
41
1
10
-1.79447898494772
20
-0.0256717238553575
30
0
41
1
10
-1.79420556054586
20
-0.107915153376759
30
0
41
1
10
-1.79359619666237
20
-0.190148966568977
30
0
41
1
10
-1.7926511610231
20
-0.272366349822168
30
0
41
1
10
-1.79137069943651
20
-0.35456316795626
30
0
41
1
10
-1.78975704010452
20
-0.436735467724404
30
0
41
1
10
-1.78781232395026
20
-0.518876985596031
30
0
41
1
10
-1.78553875573528
20
-0.60097885041915
30
0
41
1
10
-1.7829384452897
20
-0.683034331266849
30
0
41
1
10
-1.78001344612953
20
-0.765039586778795
30
0
41
1
10
-1.77676747047703
20
-0.846991177592893
30
0
41
1
10
-1.77320415788834
20
-0.928883738287285
30
0
41
1
10
-1.76932727236517
20
-1.01070921807302
30
0
41
1
10
-1.76511490588955
20
-1.09296026564776
30
0
41
1
10
-1.76056400990243
20
-1.17563208231007
30
0
41
1
10
-1.75567294151141
20
-1.25872003333578
30
0
41
1
10
-1.75047406520645
20
-1.34172115334633
30
0
41
1
10
-1.74497249369259
20
-1.42462810464792
30
0
41
1
10
-1.73913380926353
20
-1.50799749472358
30
0
41
1
10
-1.73295582232212
20
-1.59182432658849
30
0
41
1
10
-1.72643737642514
20
-1.67610381465507
30
0
41
1
10
-1.71962570535427
20
-1.76027068345134
30
0
41
1
10
-1.71252689420845
20
-1.84431848889145
30
0
41
1
10
-1.70514686204229
20
-1.92824226098729
30
0
41
1
10
-1.69749133960811
20
-2.01204002905726
30
0
41
1
10
-1.68956636862132
20
-2.09571034886088
30
0
41
1
10
-1.68137794284823
20
-2.17925064271896
30
0
41
1
10
-1.67293232548834
20
-2.26265575336725
30
0
41
1
10
-1.66423562076209
20
-2.34592178068517
30
0
41
1
10
-1.6552937025692
20
-2.42904751149452
30
0
41
1
10
-1.64611241672032
20
-2.51203213883065
30
0
41
1
10
-1.63669759972017
20
-2.59487391166783
30
0
41
1
10
-1.62705535894911
20
-2.67756878296091
30
0
41
1
10
-1.61714609792344
20
-2.76049501004421
30
0
41
1
10
-1.60697202065636
20
-2.84364960496396
30
0
41
1
10
-1.59653531638102
20
-2.92702974071452
30
0
41
1
10
-1.58588826888158
20
-3.01025369297122
30
0
41
1
10
-1.57503687474894
20
-3.09331819321584
30
0
41
1
10
-1.56396779821786
20
-3.17636492243031
30
0
41
1
10
-1.55268544627366
20
-3.25939276169955
30
0
41
1
10
-1.54119395763386
20
-3.34240075213068
30
0
41
1
10
-1.52951821807588
20
-3.42524450217262
30
0
41
1
10
-1.5176638472551
20
-3.50792146043664
30
0
41
1
10
-1.50563633478563
20
-3.59042995862594
30
0
41
1
10
-1.49344088329019
20
-3.67277018291298
30
0
41
1
10
-1.48108229027282
20
-3.75494242941322
30
0
41
1
10
-1.46856543499308
20
-3.83694634076127
30
0
41
1
10
-1.45589543286507
20
-3.918779963618
30
0
41
1
10
-1.44200910694644
20
-4.00724722180091
30
0
41
1
10
-1.42686630069868
20
-4.10229559275902
30
0
41
1
10
-1.41042633510125
20
-4.20386617115219
30
0
41
1
10
-1.39377954998781
20
-4.30516881643685
30
0
41
1
10
-1.37688663668128
20
-4.40649063791758
30
0
41
1
10
-1.35975408848966
20
-4.50782932593261
30
0
41
1
10
-1.34238814794552
20
-4.6091825242188
30
0
41
1
10
-1.32484475209836
20
-4.71026158228592
30
0
41
1
10
-1.31303829068517
20
-4.77746451827109
30
0
41
1
10
-1.30710678118663
20
-4.81101991917749
30
0
0
SPLINE
5
CB
100
AcDbEntity
8
SK1
62
256
6
ByLayer
370
18
48
1
60
0
100
AcDbSpline
70
4
71
2
72
6
73
3
40
0
40
0
40
0
40
1
40
1
40
1
41
1
10
-0.194913899692032
20
21.870410026113
30
0
41
1
10
-0.99494544422549
20
21.8503107053505
30
0
41
1
10
-1.79497698875896
20
21.8302113845853
30
0
0
SPLINE
5
CC
100
AcDbEntity
8
SK1
62
256
6
ByLayer
370
18
48
1
60
0
100
AcDbSpline
70
4
71
2
72
6
73
3
40
0
40
0
40
0
40
1
40
1
40
1
41
1
10
-1.79497698875896
20
-21.8302113845853
30
0
41
1
10
-0.994945444225489
20
-21.8503107053505
30
0
41
1
10
-0.194913899692032
20
-21.870410026113
30
0
0
SPLINE
5
CD
100
AcDbEntity
8
SK1
62
256
6
ByLayer
370
18
48
1
60
0
100
AcDbSpline
70
4
71
3
72
62
73
58
40
0
40
0
40
0
40
0
40
0.0502660397414581
40
0.108075739464235
40
0.151439476938614
40
0.194806074245403
40
0.238171650238239
40
0.281533994913953
40
0.316502730008651
40
0.351478136746413
40
0.386453207747534
40
0.421423643670301
40
0.456388208946651
40
0.484276306490384
40
0.512170869743025
40
0.540061537032928
40
0.567944320533282
40
0.585752085558957
40
0.603565575397896
40
0.621375667829116
40
0.639178798375594
40
0.651462959934514
40
0.663774403772498
40
0.6760877607918
40
0.688386093868862
40
0.700662833925927
40
0.712923819064743
40
0.721711240315027
40
0.730504281196235
40
0.739284157506534
40
0.74594649832163
40
0.752631883169492
40
0.759304795042614
40
0.765950062470289
40
0.771889720345853
40
0.777845344429357
40
0.783780179525369
40
0.789726521715447
40
0.795693903788691
40
0.801644704383399
40
0.80749784729035
40
0.813371550393451
40
0.819253406754119
40
0.825117703909115
40
0.833347161672879
40
0.841596499307206
40
0.849865076531015
40
0.858137495968019
40
0.866386363687012
40
0.879561951791482
40
0.892752489893696
40
0.905958001702825
40
0.919166867693551
40
0.932357846719526
40
0.954900279263635
40
0.977452054034241
40
1
40
1
40
1
40
1
41
1
10
1.90651274369E-05
20
-6.50827620955889
30
0
41
1
10
-2.75476782745E-05
20
-6.49592564768808
30
0
41
1
10
-0.0002333460254325
20
-6.4693440309801
30
0
41
1
10
-0.0008281053925396
20
-6.43201529151962
30
0
41
1
10
-0.0016994962629806
20
-6.39631516020639
30
0
41
1
10
-0.0027442798490835
20
-6.36412568926232
30
0
41
1
10
-0.004080250361595
20
-6.33187935476699
30
0
41
1
10
-0.0056326778570577
20
-6.30166167410675
30
0
41
1
10
-0.0073493791193294
20
-6.27348534282499
30
0
41
1
10
-0.0091964273259337
20
-6.24736031556674
30
0
41
1
10
-0.0113435017438004
20
-6.22120196456836
30
0
41
1
10
-0.0138300169236018
20
-6.19501707825853
30
0
41
1
10
-0.0165041742738057
20
-6.17057923143402
30
0
41
1
10
-0.0193093123695628
20
-6.14789761535485
30
0
41
1
10
-0.0222186641692956
20
-6.12698080414379
30
0
41
1
10
-0.0255120011235062
20
-6.1060727257784
30
0
41
1
10
-0.0287998268318048
20
-6.08770502968164
30
0
41
1
10
-0.0319490965566859
20
-6.07188028189076
30
0
41
1
10
-0.0348455599803565
20
-6.05859351377586
30
0
41
1
10
-0.0380306898110476
20
-6.04534980933446
30
0
41
1
10
-0.0411895191230556
20
-6.0335318444183
30
0
41
1
10
-0.0442240412691216
20
-6.02312413796865
30
0
41
1
10
-0.0470666177176049
20
-6.01411487281503
30
0
41
1
10
-0.0501643452420203
20
-6.00517680028265
30
0
41
1
10
-0.053559194162421
20
-5.99635019983396
30
0
41
1
10
-0.0572963221168762
20
-5.98767674251115
30
0
41
1
10
-0.0610261511311733
20
-5.97999633605237
30
0
41
1
10
-0.0646709256728795
20
-5.9732924672359
30
0
41
1
10
-0.0681712704433584
20
-5.96755314860672
30
0
41
1
10
-0.0716801293435415
20
-5.96249771614103
30
0
41
1
10
-0.0751456013774623
20
-5.95812222159586
30
0
41
1
10
-0.0785049125435798
20
-5.95440154629797
30
0
41
1
10
-0.0820961939922759
20
-5.95098304753572
30
0
41
1
10
-0.0857838301572428
20
-5.94805055095487
30
0
41
1
10
-0.0895389762790547
20
-5.94564421599612
30
0
41
1
10
-0.093305150117161
20
-5.94375279961383
30
0
41
1
10
-0.0971911851298567
20
-5.9423292698026
30
0
41
1
10
-0.101152123830098
20
-5.94143922981098
30
0
41
1
10
-0.105128984185938
20
-5.94105392044783
30
0
41
1
10
-0.109051156139217
20
-5.94115457644678
30
0
41
1
10
-0.112877088458464
20
-5.94171334507978
30
0
41
1
10
-0.116591131408874
20
-5.94265718638079
30
0
41
1
10
-0.120197676925121
20
-5.94393966347202
30
0
41
1
10
-0.124153705763281
20
-5.94572814016764
30
0
41
1
10
-0.128405921169572
20
-5.94810561605906
30
0
41
1
10
-0.132898851246229
20
-5.95113645300872
30
0
41
1
10
-0.137192357627342
20
-5.95450704907271
30
0
41
1
10
-0.141297510055346
20
-5.95815015188178
30
0
41
1
10
-0.146016850764307
20
-5.96277734940287
30
0
41
1
10
-0.151264790279287
20
-5.96848534072238
30
0
41
1
10
-0.156935325720832
20
-5.97537911595268
30
0
41
1
10
-0.162316287036393
20
-5.9825825278936
30
0
41
1
10
-0.167440801782124
20
-5.99003210448051
30
0
41
1
10
-0.173510847865435
20
-5.999474787098
30
0
41
1
10
-0.180382063301017
20
-6.01102832670315
30
0
41
1
10
-0.187871321331009
20
-6.02482207690478
30
0
41
1
10
-0.192612492927935
20
-6.03420211648212
30
0
41
1
10
-0.194913899692002
20
-6.03894368023612
30
0
0
SPLINE
5
CE
100
AcDbEntity
8
SK1
62
256
6
ByLayer
370
18
48
1
60
0
100
AcDbSpline
70
4
71
3
72
64
73
60
40
0
40
0
40
0
40
0
40
0.0250939439075567
40
0.0497943885642568
40
0.0740308853742443
40
0.0977360983629087
40
0.120846444275172
40
0.143302611735875
40
0.169308897778445
40
0.194209802615386
40
0.217930763171759
40
0.240407663419281
40
0.261586497875278
40
0.280143081885928
40
0.297500821400863
40
0.31363653745858
40
0.328532444935026
40
0.342751028308258
40
0.357109132724167
40
0.379950140553863
40
0.4031095501771
40
0.426558784866275
40
0.449648421641441
40
0.472953659338846
40
0.496442694915712
40
0.520082358618058
40
0.54335796834945
40
0.565735695258275
40
0.587212423736152
40
0.611131578256544
40
0.633836190306639
40
0.655522216460217
40
0.67153441254325
40
0.687369061521054
40
0.691300881373177
40
0.691790461893851
40
0.692052363047319
40
0.692360464651523
40
0.693178847036457
40
0.6952715746878
40
0.698351303504047
40
0.702445676021042
40
0.708713553250015
40
0.716467946303804
40
0.725713733004209
40
0.736453792763005
40
0.748689981212359
40
0.76242357676194
40
0.777655508544802
40
0.79438648261363
40
0.812683877034106
40
0.83249190660556
40
0.853810957617597
40
0.876641363337997
40
0.90098341809546
40
0.926362449908261
40
0.953200112294178
40
0.98149662091694
40
1
40
1
40
1
40
1
41
1
10
-0.194913899692032
20
-21.8704116065206
30
0
41
1
10
-0.191383443045685
20
-21.8705003521021
30
0
41
1
10
-0.184392576496161
20
-21.8708612140658
30
0
41
1
10
-0.174029049003696
20
-21.871943775546
30
0
41
1
10
-0.163927584804538
20
-21.8735297663172
30
0
41
1
10
-0.154135014687108
20
-21.8755794345337
30
0
41
1
10
-0.144695882640955
20
-21.8780476610594
30
0
41
1
10
-0.135074949375579
20
-21.8810647442704
30
0
41
1
10
-0.125380295028408
20
-21.8846594651306
30
0
41
1
10
-0.115727162926715
20
-21.8888421288473
30
0
41
1
10
-0.106745158031637
20
-21.8932952976504
30
0
41
1
10
-0.0984475690451021
20
-21.897927052002
30
0
41
1
10
-0.0909896535014066
20
-21.9025540497918
30
0
41
1
10
-0.0843285638467227
20
-21.9070851362139
30
0
41
1
10
-0.0784156646587498
20
-21.9114448972552
30
0
41
1
10
-0.0730643700274255
20
-21.9156914551998
30
0
41
1
10
-0.0681919821407087
20
-21.91982600049
30
0
41
1
10
-0.0636347130240703
20
-21.9239414865421
30
0
41
1
10
-0.0583941776914013
20
-21.9289701963391
30
0
41
1
10
-0.0524774662777318
20
-21.9351134782042
30
0
41
1
10
-0.0460215992644061
20
-21.9425059325289
30
0
41
1
10
-0.0399161328319109
20
-21.9502365081438
30
0
41
1
10
-0.0341869568637221
20
-21.9582758969852
30
0
41
1
10
-0.028856441382117
20
-21.9665924854854
30
0
41
1
10
-0.0239058744696238
20
-21.9752310256281
30
0
41
1
10
-0.0193945029948348
20
-21.9841027126424
30
0
41
1
10
-0.0153938872696244
20
-21.9930442355784
30
0
41
1
10
-0.0119418702947528
20
-22.0018835680184
30
0
41
1
10
-0.0088753631974848
20
-22.0109592872389
30
0
41
1
10
-0.0062360133752922
20
-22.0202175403489
30
0
41
1
10
-0.0040508247321719
20
-22.0296213927922
30
0
41
1
10
-0.0025115409760206
20
-22.0380223317002
30
0
41
1
10
-0.00144787058678
20
-22.0454962329943
30
0
41
1
10
-0.0009047423906688
20
-22.0505277607724
30
0
41
1
10
-0.0006594689819115
20
-22.0533462209813
30
0
41
1
10
-0.0006046579123921
20
-22.0540122729749
30
0
41
1
10
-0.0005929642454126
20
-22.0541558386595
30
0
41
1
10
-0.0005803367557942
20
-22.0543119801567
30
0
41
1
10
-0.0005591433870589
20
-22.0545772694748
30
0
41
1
10
-0.0005344612306662
20
-22.0548930360105
30
0
41
1
10
-0.0005067854902496
20
-22.0552549756145
30
0
41
1
10
-0.0004762749796767
20
-22.0556643587824
30
0
41
1
10
-0.0004438700614623
20
-22.0561121843801
30
0
41
1
10
-0.0004100703634126
20
-22.056594986548
30
0
41
1
10
-0.0003763314323893
20
-22.0570940324178
30
0
41
1
10
-0.0003428304501527
20
-22.0576081731905
30
0
41
1
10
-0.0003097162160783
20
-22.0581365798342
30
0
41
1
10
-0.0002771289417724
20
-22.0586785036361
30
0
41
1
10
-0.0002452034388834
20
-22.0592332370808
30
0
41
1
10
-0.0002140315659644
20
-22.0598008206389
30
0
41
1
10
-0.0001837566724909
20
-22.0603804581428
30
0
41
1
10
-0.0001545206027335
20
-22.0609713482697
30
0
41
1
10
-0.0001264911308827
20
-22.0615720695276
30
0
41
1
10
-9.98066866558E-05
20
-22.0621817454708
30
0
41
1
10
-7.47710513917E-05
20
-22.0627954339555
30
0
41
1
10
-5.14750261389E-05
20
-22.0634123838252
30
0
41
1
10
-3.00102382784E-05
20
-22.0640317821493
30
0
41
1
10
-1.30033150713E-05
20
-22.0645730918517
30
0
41
1
10
-3.4366196462E-06
20
-22.0649053228737
30
0
41
1
10
1.41393246E-07
20
-22.065034728236
30
0
0
SPLINE
5
CF
100
AcDbEntity
8
SK1
62
256
6
ByLayer
370
18
48
1
60
0
100
AcDbSpline
70
4
71
3
72
65
73
61
40
0
40
0
40
0
40
0
40
0.0146862471654705
40
0.038774769109937
40
0.0609235879573266
40
0.0811330542303584
40
0.0994035972112219
40
0.115735763966526
40
0.130130284596843
40
0.142588188133044
40
0.153111024853704
40
0.160403708141435
40
0.166356870550067
40
0.17097520092197
40
0.173569025959537
40
0.175428014829194
40
0.176582423123802
40
0.17677430054448
40
0.177505726066616
40
0.17822360187898
40
0.179348794157961
40
0.181349457017087
40
0.184895761498761
40
0.191151233444241
40
0.204649455554881
40
0.217895484546867
40
0.231150955368682
40
0.244623850985805
40
0.25831758018016
40
0.272232214895105
40
0.286367480481692
40
0.300722738969703
40
0.331881716951024
40
0.363158637814378
40
0.394446097000161
40
0.425689751163622
40
0.456835762520828
40
0.471323778005325
40
0.485782270923014
40
0.501044403010805
40
0.517665936964368
40
0.535647407005368
40
0.554985427182796
40
0.574453879724759
40
0.595110038090876
40
0.616937824211307
40
0.639915625120216
40
0.664015703893582
40
0.687841482177807
40
0.712607808397428
40
0.738273595376026
40
0.764791587695278
40
0.792108309725243
40
0.820164148859814
40
0.848893586955803
40
0.878225587777039
40
0.908084141849554
40
0.938388962869572
40
0.969056322138268
40
1
40
1
40
1
40
1
41
1
10
-1.08582729E-08
20
22.065207858894
30
0
41
1
10
-2.0612787671E-06
20
22.0651318470271
30
0
41
1
10
-7.7288297655E-06
20
22.0649266312208
30
0
41
1
10
-1.75862485817E-05
20
22.0645872702615
30
0
41
1
10
-2.99197529243E-05
20
22.0641888094926
30
0
41
1
10
-4.28169804498E-05
20
22.0637955729921
30
0
41
1
10
-5.62200139206E-05
20
22.0634083049393
30
0
41
1
10
-7.00661774721E-05
20
22.0630277894924
30
0
41
1
10
-8.42900473005E-05
20
22.0626548192458
30
0
41
1
10
-9.88270318453E-05
20
22.0622901244562
30
0
41
1
10
-0.0001129800527439
20
22.0619494965428
30
0
41
1
10
-0.0001265567826662
20
22.0616346980871
30
0
41
1
10
-0.0001391023863221
20
22.061352757842
30
0
41
1
10
-0.0001509640262336
20
22.0610940049577
30
0
41
1
10
-0.0001618700187038
20
22.0608621707427
30
0
41
1
10
-0.0001712620992988
20
22.0606668303798
30
0
41
1
10
-0.0001790108236605
20
22.0605083099353
30
0
41
1
10
-0.0001878285404329
20
22.0603311050526
30
0
41
1
10
-0.0001977854526674
20
22.0601336761045
30
0
41
1
10
-0.0002122835863868
20
22.0598535875923
30
0
41
1
10
-0.000235241705683
20
22.0594223333577
30
0
41
1
10
-0.0002769085757078
20
22.0586769543455
30
0
41
1
10
-0.0003576579606812
20
22.0573436524176
30
0
41
1
10
-0.0005413809230811
20
22.0546784842746
30
0
41
1
10
-0.0008742817738248
20
22.0508088763671
30
0
41
1
10
-0.0014029670876909
20
22.0460153447568
30
0
41
1
10
-0.0020508853424439
20
22.041209029892
30
0
41
1
10
-0.002823203862989
20
22.0363714152179
30
0
41
1
10
-0.0037298930894584
20
22.0314723220489
30
0
41
1
10
-0.0047761202982589
20
22.0265181005876
30
0
41
1
10
-0.0059673259105166
20
22.0215127585094
30
0
41
1
10
-0.0078252014951496
20
22.0145165801305
30
0
41
1
10
-0.0105900217896586
20
22.0056101417444
30
0
41
1
10
-0.0145750921297464
20
21.9949532157317
30
0
41
1
10
-0.0191631181021608
20
21.9845334383026
30
0
41
1
10
-0.0243270513319188
20
21.9744092487218
30
0
41
1
10
-0.0290276106532752
20
21.9663572078027
30
0
41
1
10
-0.0329565930785979
20
21.9602258127099
30
0
41
1
10
-0.0359634828591144
20
21.9557943695872
30
0
41
1
10
-0.0392414664297696
20
21.9512334537267
30
0
41
1
10
-0.0429119633245247
20
21.9464267841365
30
0
41
1
10
-0.0470458402992657
20
21.941352723867
30
0
41
1
10
-0.0515782372866466
20
21.9361600421969
30
0
41
1
10
-0.0565141160757372
20
21.9308927874245
30
0
41
1
10
-0.0618545346537768
20
21.9255955907493
30
0
41
1
10
-0.0677104158427192
20
21.9202200945751
30
0
41
1
10
-0.0741006210415971
20
21.9148174255188
30
0
41
1
10
-0.0809088468671589
20
21.9095446315834
30
0
41
1
10
-0.0881180913358571
20
21.9044484757056
30
0
41
1
10
-0.0957060046497095
20
21.8995732459356
30
0
41
1
10
-0.103792876984894
20
21.8948874860805
30
0
41
1
10
-0.112368478158584
20
21.8904487159093
30
0
41
1
10
-0.121415446092077
20
21.8863148542616
30
0
41
1
10
-0.130908948188731
20
21.8825430718354
30
0
41
1
10
-0.14081656723863
20
21.8791885517421
30
0
41
1
10
-0.151098304471591
20
21.8763031916123
30
0
41
1
10
-0.16170734985956
20
21.8739342663119
30
0
41
1
10
-0.172589187318522
20
21.8721232692469
30
0
41
1
10
-0.183688347291484
20
21.8709043914532
30
0
41
1
10
-0.191154605158085
20
21.8705062057556
30
0
41
1
10
-0.194913899692032
20
21.8704116065038
30
0
0
LINE
5
70
100
AcDbEntity
8
1
62
256
6
ByLayer
370
18
48
1
60
0
100
AcDbLine
10
49.6
20
53
30
0
11
47.6
21
51
31
0
39
0
210
0
220
0
230
1
0
LINE
5
72
100
AcDbEntity
8
1
62
256
6
ByLayer
370
18
48
1
60
0
100
AcDbLine
10
47.6
20
-51
30
0
11
49.6
21
-53
31
0
39
0
210
0
220
0
230
1
0
LINE
5
73
100
AcDbEntity
8
1
62
256
6
ByLayer
370
18
48
1
60
0
100
AcDbLine
10
49.6
20
-53
30
0
11
55.6
21
-53
31
0
39
0
210
0
220
0
230
1
0
LINE
5
74
100
AcDbEntity
8
1
62
256
6
ByLayer
370
18
48
1
60
0
100
AcDbLine
10
55.6
20
53
30
0
11
49.6
21
53
31
0
39
0
210
0
220
0
230
1
0
LINE
5
75
100
AcDbEntity
8
1
62
256
6
ByLayer
370
18
48
1
60
0
100
AcDbLine
10
55.6
20
-53
30
0
11
57.6
21
-51
31
0
39
0
210
0
220
0
230
1
0
LINE
5
76
100
AcDbEntity
8
1
62
256
6
ByLayer
370
18
48
1
60
0
100
AcDbLine
10
57.6
20
51
30
0
11
55.6
21
53
31
0
39
0
210
0
220
0
230
1
0
LINE
5
77
100
AcDbEntity
8
1
62
256
6
ByLayer
370
18
48
1
60
0
100
AcDbLine
10
33.6
20
-51
30
0
11
47.6
21
-51
31
0
39
0
210
0
220
0
230
1
0
LINE
5
78
100
AcDbEntity
8
1
62
256
6
ByLayer
370
18
48
1
60
0
100
AcDbLine
10
47.6
20
51
30
0
11
33.6
21
51
31
0
39
0
210
0
220
0
230
1
0
LINE
5
79
100
AcDbEntity
8
1
62
256
6
ByLayer
370
18
48
1
60
0
100
AcDbLine
10
33.6
20
51
30
0
11
22
21
31.5
31
0
39
0
210
0
220
0
230
1
0
LINE
5
7A
100
AcDbEntity
8
1
62
256
6
ByLayer
370
18
48
1
60
0
100
AcDbLine
10
22
20
-31.5
30
0
11
33.6
21
-51
31
0
39
0
210
0
220
0
230
1
0
LINE
5
7B
100
AcDbEntity
8
1
62
256
6
ByLayer
370
18
48
1
60
0
100
AcDbLine
10
63.6
20
-51
30
0
11
69.6
21
-30
31
0
39
0
210
0
220
0
230
1
0
LINE
5
7C
100
AcDbEntity
8
1
62
256
6
ByLayer
370
18
48
1
60
0
100
AcDbLine
10
69.6
20
30
30
0
11
63.6
21
51
31
0
39
0
210
0
220
0
230
1
0
LINE
5
7D
100
AcDbEntity
8
1
62
256
6
ByLayer
370
18
48
1
60
0
100
AcDbLine
10
57.6
20
-51
30
0
11
63.6
21
-51
31
0
39
0
210
0
220
0
230
1
0
LINE
5
7E
100
AcDbEntity
8
1
62
256
6
ByLayer
370
18
48
1
60
0
100
AcDbLine
10
63.6
20
51
30
0
11
57.6
21
51
31
0
39
0
210
0
220
0
230
1
0
LINE
5
7F
100
AcDbEntity
8
SK3
62
256
6
ByLayer
370
18
48
0.05
60
0
100
AcDbLine
10
45
20
-30
30
0
11
57.6
21
-30
31
0
39
0
210
0
220
0
230
1
0
LINE
5
81
100
AcDbEntity
8
SK3
62
256
6
ByLayer
370
18
48
0.05
60
0
100
AcDbLine
10
57.6
20
30
30
0
11
45
21
30
31
0
39
0
210
0
220
0
230
1
0
LINE
5
82
100
AcDbEntity
8
SK3
62
256
6
ByLayer
370
18
48
0.05
60
0
100
AcDbLine
10
59.6
20
-25
30
0
11
69.6
21
-25
31
0
39
0
210
0
220
0
230
1
0
LINE
5
83
100
AcDbEntity
8
SK3
62
256
6
ByLayer
370
18
48
0.05
60
0
100
AcDbLine
10
69.6
20
25
30
0
11
59.6
21
25
31
0
39
0
210
0
220
0
230
1
0
LINE
5
84
100
AcDbEntity
8
SK3
62
256
6
ByLayer
370
18
48
0.05
60
0
100
AcDbLine
10
22
20
-11.5
30
0
11
45
21
-11.5
31
0
39
0
210
0
220
0
230
1
0
LINE
5
85
100
AcDbEntity
8
SK3
62
256
6
ByLayer
370
18
48
0.05
60
0
100
AcDbLine
10
45
20
11.5
30
0
11
22
21
11.5
31
0
39
0
210
0
220
0
230
1
0
LINE
5
86
100
AcDbEntity
8
1
62
256
6
ByLayer
370
18
48
1
60
0
100
AcDbLine
10
33.6
20
-51
30
0
11
33.6
21
51
31
0
39
0
210
0
220
0
230
1
0
LINE
5
87
100
AcDbEntity
8
1
62
256
6
ByLayer
370
18
48
1
60
0
100
AcDbLine
10
47.6
20
-51
30
0
11
47.6
21
51
31
0
39
0
210
0
220
0
230
1
0
LINE
5
88
100
AcDbEntity
8
1
62
256
6
ByLayer
370
18
48
1
60
0
100
AcDbLine
10
49.6
20
-53
30
0
11
49.6
21
53
31
0
39
0
210
0
220
0
230
1
0
LINE
5
89
100
AcDbEntity
8
1
62
256
6
ByLayer
370
18
48
1
60
0
100
AcDbLine
10
55.6
20
-53
30
0
11
55.6
21
53
31
0
39
0
210
0
220
0
230
1
0
LINE
5
8A
100
AcDbEntity
8
1
62
256
6
ByLayer
370
18
48
1
60
0
100
AcDbLine
10
63.6
20
-51
30
0
11
63.6
21
51
31
0
39
0
210
0
220
0
230
1
0
LINE
5
8B
100
AcDbEntity
8
1
62
256
6
ByLayer
370
18
48
1
60
0
100
AcDbLine
10
57.6
20
-51
30
0
11
57.6
21
51
31
0
39
0
210
0
220
0
230
1
0
LINE
5
8C
100
AcDbEntity
8
SK3
62
256
6
ByLayer
370
18
48
0.05
60
0
100
AcDbLine
10
59.6
20
-25
30
0
11
59.6
21
25
31
0
39
0
210
0
220
0
230
1
0
LINE
5
8D
100
AcDbEntity
8
1
62
256
6
ByLayer
370
18
48
1
60
0
100
AcDbLine
10
69.6
20
-30
30
0
11
69.6
21
30
31
0
39
0
210
0
220
0
230
1
0
LINE
5
8E
100
AcDbEntity
8
SK3
62
256
6
ByLayer
370
18
48
0.05
60
0
100
AcDbLine
10
45
20
-30
30
0
11
45
21
30
31
0
39
0
210
0
220
0
230
1
0
LINE
5
8F
100
AcDbEntity
8
81
62
256
6
ByLayer
370
18
48
0.05
60
0
100
AcDbLine
10
45
20
0
30
0
11
71
21
0
31
0
39
0
210
0
220
0
230
1
0
LINE
5
90
100
AcDbEntity
8
80
62
256
6
ByLayer
370
18
48
0.05
60
0
100
AcDbLine
10
0
20
0
30
0
11
-40
21
0
31
0
39
0
210
0
220
0
230
1
0
LINE
5
91
100
AcDbEntity
8
1
62
256
6
ByLayer
370
18
48
1
60
0
100
AcDbLine
10
13.461325
20
30.069192
30
0
11
10.538675
21
30.069192
31
0
39
0
210
0
220
0
230
1
0
LINE
5
92
100
AcDbEntity
8
1
62
256
6
ByLayer
370
18
48
1
60
0
100
AcDbLine
10
10.538675
20
9.360622
30
0
11
13.461325
21
9.360622
31
0
39
0
210
0
220
0
230
1
0
LINE
5
93
100
AcDbEntity
8
1
62
256
6
ByLayer
370
18
48
1
60
0
100
AcDbLine
10
13.461325
20
-9.360622
30
0
11
10.538675
21
-9.360622
31
0
39
0
210
0
220
0
230
1
0
LINE
5
94
100
AcDbEntity
8
1
62
256
6
ByLayer
370
18
48
1
60
0
100
AcDbLine
10
10.538675
20
-30.069192
30
0
11
13.461325
21
-30.069192
31
0
39
0
210
0
220
0
230
1
0
LINE
5
95
100
AcDbEntity
8
1
62
256
6
ByLayer
370
18
48
1
60
0
100
AcDbLine
10
0.3
20
31.4925
30
0
11
0
21
31.1925
31
0
39
0
210
0
220
0
230
1
0
LINE
5
96
100
AcDbEntity
8
1
62
256
6
ByLayer
370
18
48
1
60
0
100
AcDbLine
10
0
20
-31.1925
30
0
11
0.3
21
-31.4925
31
0
39
0
210
0
220
0
230
1
0
LINE
5
97
100
AcDbEntity
8
1
62
256
6
ByLayer
370
18
48
1
60
0
100
AcDbLine
10
13.894338
20
-9.881204
30
0
11
13.894338
21
-29.902163
31
0
39
0
210
0
220
0
230
1
0
LINE
5
98
100
AcDbEntity
8
1
62
256
6
ByLayer
370
18
48
1
60
0
100
AcDbLine
10
13.461325
20
-9.360622
30
0
11
13.461325
21
-30.069192
31
0
39
0
210
0
220
0
230
1
0
LINE
5
99
100
AcDbEntity
8
1
62
256
6
ByLayer
370
18
48
1
60
0
100
AcDbLine
10
10.538675
20
30.069192
30
0
11
10.538675
21
9.360622
31
0
39
0
210
0
220
0
230
1
0
LINE
5
9A
100
AcDbEntity
8
1
62
256
6
ByLayer
370
18
48
1
60
0
100
AcDbLine
10
10.105662
20
29.902163
30
0
11
10.105662
21
9.881204
31
0
39
0
210
0
220
0
230
1
0
LINE
5
9B
100
AcDbEntity
8
1
62
256
6
ByLayer
370
18
48
1
60
0
100
AcDbLine
10
10.538675
20
-9.360622
30
0
11
10.538675
21
-30.069192
31
0
39
0
210
0
220
0
230
1
0
LINE
5
9C
100
AcDbEntity
8
1
62
256
6
ByLayer
370
18
48
1
60
0
100
AcDbLine
10
10.105662
20
-9.881204
30
0
11
10.105662
21
-29.902163
31
0
39
0
210
0
220
0
230
1
0
LINE
5
9D
100
AcDbEntity
8
1
62
256
6
ByLayer
370
18
48
1
60
0
100
AcDbLine
10
13.894338
20
29.902163
30
0
11
13.894338
21
9.881204
31
0
39
0
210
0
220
0
230
1
0
LINE
5
9E
100
AcDbEntity
8
1
62
256
6
ByLayer
370
18
48
1
60
0
100
AcDbLine
10
13.461325
20
30.069192
30
0
11
13.461325
21
9.360622
31
0
39
0
210
0
220
0
230
1
0
LINE
5
9F
100
AcDbEntity
8
SK1
62
256
6
ByLayer
370
18
48
1
60
0
100
AcDbLine
10
-38
20
-20.292359
30
0
11
-38
21
20.292359
31
0
39
0
210
0
220
0
230
1
0
LINE
5
A1
100
AcDbEntity
8
SK1
62
256
6
ByLayer
370
18
48
1
60
0
100
AcDbLine
10
-1.999937
20
-22.025123
30
0
11
-1.999937
21
22.025123
31
0
39
0
210
0
220
0
230
1
0
LINE
5
A2
100
AcDbEntity
8
SK1
62
256
6
ByLayer
370
18
48
1
60
0
100
AcDbLine
10
-1.794977
20
21.830211
30
0
11
-1.794977
21
-21.830211
31
0
39
0
210
0
220
0
230
1
0
LINE
5
A3
100
AcDbEntity
8
SK1
62
256
6
ByLayer
370
18
48
1
60
0
100
AcDbLine
10
-1.999342
20
22.01394
30
0
11
-1.999937
21
22.025123
31
0
39
0
210
0
220
0
230
1
0
LINE
5
A4
100
AcDbEntity
8
1
62
256
6
ByLayer
370
18
48
1
60
0
100
AcDbLine
10
-1.999937
20
-22.025123
30
0
11
-1.999263
21
-22.012993
31
0
39
0
210
0
220
0
230
1
0
LINE
5
A5
100
AcDbEntity
8
SK1
62
256
6
ByLayer
370
18
48
1
60
0
100
AcDbLine
10
-36.5
20
21.158372
30
0
11
-36.5
21
-21.158372
31
0
39
0
210
0
220
0
230
1
0
LINE
5
A6
100
AcDbEntity
8
SK1
62
256
6
ByLayer
370
18
48
1
60
0
100
AcDbLine
10
-0.194914
20
21.87041
30
0
11
-0.194914
21
6.038944
31
0
39
0
210
0
220
0
230
1
0
LINE
5
A7
100
AcDbEntity
8
SK1
62
256
6
ByLayer
370
18
48
1
60
0
100
AcDbLine
10
-0.194914
20
-6.038944
30
0
11
-0.194914
21
-21.87041
31
0
39
0
210
0
220
0
230
1
0
LINE
5
A8
100
AcDbEntity
8
1
62
256
6
ByLayer
370
18
48
1
60
0
100
AcDbLine
10
22
20
-31.485
30
0
11
22
21
31.5
31
0
39
0
210
0
220
0
230
1
0
LINE
5
A9
100
AcDbEntity
8
1
62
256
6
ByLayer
370
18
48
1
60
0
100
AcDbLine
10
0.3
20
-31.4925
30
0
11
0.3
21
31.4925
31
0
39
0
210
0
220
0
230
1
0
LINE
5
AA
100
AcDbEntity
8
1
62
256
6
ByLayer
370
18
48
1
60
0
100
AcDbLine
10
0
20
-31.1925
30
0
11
0
21
31.1925
31
0
39
0
210
0
220
0
230
1
0
LINE
5
AB
100
AcDbEntity
8
SK1
62
256
6
ByLayer
370
18
48
1
60
0
100
AcDbLine
10
-1.307107
20
-4.81102
30
0
11
-1.307107
21
4.81102
31
0
39
0
210
0
220
0
230
1
0
LINE
5
AC
100
AcDbEntity
8
1
62
256
6
ByLayer
370
18
48
1
60
0
100
AcDbLine
10
22
20
31.4925
30
0
11
0.3
21
31.4925
31
0
39
0
210
0
220
0
230
1
0
LINE
5
AD
100
AcDbEntity
8
1
62
256
6
ByLayer
370
18
48
1
60
0
100
AcDbLine
10
0.3
20
-31.4925
30
0
11
22
21
-31.4925
31
0
39
0
210
0
220
0
230
1
0
LINE
5
AE
100
AcDbEntity
8
4
62
256
6
ByLayer
370
18
48
0.05
60
0
100
AcDbLine
10
0
20
0
30
0
11
72
21
0
31
0
39
0
210
0
220
0
230
1
0
LINE
5
B0
100
AcDbEntity
8
SK4
62
256
6
ByLayer
370
18
48
0.05
60
0
100
AcDbLine
10
-40
20
0
30
0
11
72
21
0
31
0
39
0
210
0
220
0
230
1
0
MTEXT
5
D0
100
AcDbEntity
8
SK6
62
256
6
ByLayer
370
18
48
1
60
0
100
AcDbMText
10
3.788017
20
98.301645
30
0
210
0
220
0
230
1
1
\W0.7271;C6-391.277-02 045A
40
3
41
0
44
1.084337
50
0
71
7
72
5
7
iso_b_vert
0
DIMENSION
5
E2
100
AcDbEntity
8
SK2
62
256
6
ByLayer
370
13
48
1
60
0
100
AcDbDimension
2
DimnDraft3D1
10
-55.145049
20
-31.4925
30
0
11
-55.145049
21
-5.202632
31
0
70
32
71
5
72
1
41
1
210
0
220
0
230
1
3
Standard
100
AcDbAlignedDimension
13
-1.7
23
31.4925
33
0
14
-1.7
24
-31.4925
34
0
50
90
100
AcDbRotatedDimension
1001
ACAD
1000
DSTYLE
1002
{
1070
    74
1070
     0
1070
   279
1070
     0
1070
   172
1070
     1
1070
   173
1070
     1
1070
   340
1005
D1
1070
    77
1070
     1
1070
    73
1070
     0
1070
   171
1070
     3
1070
   274
1070
     4
1070
   177
1070
     7
1070
   176
1070
     7
1070
   178
1070
     7
1070
    78
1070
     8
1070
    41
1041
3.175
1070
   147
1041
1.5
1070
    42
1041
2.0
1070
    44
1041
2.0
1070
   140
1041
3.0
1070
   343
1005
E3
1070
   344
1005
E3
1002
}
0
DIMENSION
5
F7
100
AcDbEntity
8
SK2
62
256
6
ByLayer
370
13
48
1
60
0
100
AcDbDimension
2
DimnDraft3D2
10
93.315616
20
-53
30
0
11
93.315616
21
-5.928947
31
0
70
32
71
5
72
1
41
1
210
0
220
0
230
1
3
Standard
100
AcDbAlignedDimension
13
57.6
23
53
33
0
14
57.6
24
-53
34
0
50
90
100
AcDbRotatedDimension
1001
ACAD
1000
DSTYLE
1002
{
1070
    74
1070
     0
1070
   279
1070
     0
1070
   172
1070
     1
1070
   173
1070
     1
1070
   340
1005
D1
1070
    77
1070
     1
1070
    73
1070
     0
1070
   171
1070
     3
1070
   274
1070
     4
1070
   177
1070
     7
1070
   176
1070
     7
1070
   178
1070
     7
1070
    78
1070
     8
1070
    41
1041
3.175
1070
   147
1041
1.5
1070
    42
1041
2.0
1070
    44
1041
2.0
1070
   140
1041
3.0
1070
   343
1005
E3
1070
   344
1005
E3
1002
}
0
DIMENSION
5
105
100
AcDbEntity
8
SK2
62
256
6
ByLayer
370
13
48
1
60
0
100
AcDbDimension
2
DimnDraft3D3
10
0
20
80.803485
30
0
11
31.357895
21
80.803485
31
0
70
32
71
5
72
1
41
1
210
0
220
0
230
1
3
Standard
100
AcDbAlignedDimension
13
69.6
23
32
33
0
14
0
24
33.1925
34
0
50
0
100
AcDbRotatedDimension
1001
ACAD
1000
DSTYLE
1002
{
1070
   279
1070
     0
1070
   172
1070
     1
1070
   173
1070
     1
1070
   340
1005
D1
1070
    77
1070
     1
1070
    73
1070
     0
1070
   171
1070
     3
1070
   274
1070
     4
1070
   177
1070
     7
1070
   176
1070
     7
1070
   178
1070
     7
1070
    78
1070
     8
1070
    41
1041
3.175
1070
   147
1041
1.5
1070
    42
1041
2.0
1070
    44
1041
2.0
1070
   140
1041
3.0
1070
   343
1005
E3
1070
   344
1005
E3
1002
}
0
DIMENSION
5
114
100
AcDbEntity
8
2
62
256
6
ByLayer
370
13
48
1
60
0
100
AcDbDimension
2
DimnDraft3D4
10
45
20
69.511834
30
0
11
20.589474
21
69.511834
31
0
70
32
71
5
72
1
41
1
210
0
220
0
230
1
3
Standard
100
AcDbAlignedDimension
13
0
23
33.1925
33
0
14
45
24
32
34
0
50
0
100
AcDbRotatedDimension
1001
ACAD
1000
DSTYLE
1002
{
1070
   279
1070
     0
1070
   172
1070
     1
1070
   173
1070
     1
1070
   340
1005
D1
1070
    77
1070
     1
1070
    73
1070
     0
1070
   171
1070
     3
1070
   274
1070
     4
1070
   177
1070
     7
1070
   176
1070
     7
1070
   178
1070
     7
1070
    78
1070
     8
1070
    41
1041
3.175
1070
   147
1041
1.5
1070
    42
1041
2.0
1070
    44
1041
2.0
1070
   140
1041
3.0
1070
   343
1005
E3
1070
   344
1005
E3
1002
}
0
ENDSEC
0
SECTION
2
OBJECTS
0
DICTIONARY
5
180
330
0
100
AcDbDictionary
280
0
281
1
3
ACAD_GROUP
350
181
3
ACAD_MLINESTYLE
350
182
0
DICTIONARY
5
181
330
0
100
AcDbDictionary
280
0
281
1
0
DICTIONARY
5
182
330
0
100
AcDbDictionary
280
0
281
1
3
Standard
350
18
0
MLINESTYLE
5
18
330
182
100
AcDbMlineStyle
2
Standard
70
0
3

62
256
51
90
52
90
71
2
49
-0.5
62
256
6
ByLayer
49
0.5
62
256
6
ByLayer
0
RASTERVARIABLES
5
16d
330

100
AcDbRasterVariables
90
0
70
1
71
1
72
1
0
ENDSEC
0
EOF
