0
SECTION
2
HEADER
9
$ACADVER
1
AC1015
9
$DWGCODEPAGE
3
ANSI_1252
9
$HANDSEED
5
18a
9
$ANGBASE
50
0
9
$ANGDIR
70
0
9
$ATTMODE
70
1
9
$AUNITS
70
0
9
$AUPREC
70
0
9
$CECOLOR
62
256
9
$CELTSCALE
40
1
9
$CELTYPE
6
ByLayer
9
$CELWEIGHT
370
18
9
$CLAYER
8
0
9
$CMLJUST
70
0
9
$CMLSCALE
40
1
9
$CMLSTYLE
2
Standard
9
$DIMSTYLE
2
Standard
9
$TEXTSIZE
40
0.2
9
$TEXTSTYLE
7
Standard
9
$LUNITS
70
2
9
$LUPREC
70
4
9
$EXTNAMES
290
1
9
$INSUNITS
70
4
9
$LTSCALE
40
1
9
$LWDISPLAY
290
1
9
$PDMODE
70
0
9
$PDSIZE
40
0
9
$PLINEGEN
70
0
0
ENDSEC
0
SECTION
2
CLASSES
0
CLASS
1
RASTERVARIABLES
2
AcDbRasterVariables
3
ISM
90
0
280
0
281
0
0
ENDSEC
0
SECTION
2
TABLES
0
TABLE
2
VPORT
5
180
100
AcDbSymbolTable
0
VPORT
5
1
100
AcDbSymbolTableRecord
100
AcDbViewportTableRecord
2
*Active
70
0
10
0
20
0
11
1
21
1
12
-1
22
1
13
0
23
0
14
0.5
24
0.5
15
10
25
10
16
0
26
0
36
1
17
0
27
0
37
0
0
ENDTAB
0
TABLE
2
LTYPE
5
181
100
AcDbSymbolTable
0
LTYPE
5
14
100
AcDbSymbolTableRecord
100
AcDbLinetypeTableRecord
70
0
2
ByBlock
3

72
65
73
0
40
0
0
LTYPE
5
15
100
AcDbSymbolTableRecord
100
AcDbLinetypeTableRecord
70
0
2
ByLayer
3

72
65
73
0
40
0
0
LTYPE
5
16
100
AcDbSymbolTableRecord
100
AcDbLinetypeTableRecord
70
0
2
CONTINUOUS
3
Solid line
72
65
73
0
40
0
0
LTYPE
5
6A
100
AcDbSymbolTableRecord
100
AcDbLinetypeTableRecord
70
0
2
CENTER
3
____ _ ____ _ ____ _ ____
72
65
73
4
40
47.5
49
22
74
0
49
-8.5
74
0
49
8.5
74
0
49
-8.5
74
0
0
LTYPE
5
6B
100
AcDbSymbolTableRecord
100
AcDbLinetypeTableRecord
70
0
2
DASHED
3
__ __ __ __ __ __ __ __ __
72
65
73
2
40
25.72
49
12.86
74
0
49
-12.86
74
0
0
ENDTAB
0
TABLE
2
LAYER
5
182
100
AcDbSymbolTable
0
LAYER
5
10
100
AcDbSymbolTableRecord
100
AcDbLayerTableRecord
2
0
70
0
62
7
6
CONTINUOUS
290
1
370
-3
390
0
0
LAYER
5
6D
100
AcDbSymbolTableRecord
100
AcDbLayerTableRecord
2
81
70
0
62
-3
6
CONTINUOUS
290
1
370
-3
390
0
0
LAYER
5
6F
100
AcDbSymbolTableRecord
100
AcDbLayerTableRecord
2
80
70
0
62
-6
6
CONTINUOUS
290
1
370
-3
390
0
0
LAYER
5
71
100
AcDbSymbolTableRecord
100
AcDbLayerTableRecord
2
1
70
0
62
4
6
CONTINUOUS
290
1
370
-3
390
0
0
LAYER
5
76
100
AcDbSymbolTableRecord
100
AcDbLayerTableRecord
2
4
70
0
62
-2
6
CENTER
290
1
370
-3
390
0
0
LAYER
5
EA
100
AcDbSymbolTableRecord
100
AcDbLayerTableRecord
2
2
70
0
62
7
6
CONTINUOUS
290
1
370
-3
390
0
0
LAYER
5
16c
100
AcDbSymbolTableRecord
100
AcDbLayerTableRecord
2
SK1
70
0
62
4
6
CONTINUOUS
290
1
370
-3
390
0
0
LAYER
5
16d
100
AcDbSymbolTableRecord
100
AcDbLayerTableRecord
2
SK4
70
0
62
2
6
CENTER
290
1
370
-3
390
0
0
LAYER
5
16e
100
AcDbSymbolTableRecord
100
AcDbLayerTableRecord
2
SK6
70
0
62
5
6
CONTINUOUS
290
1
370
-3
390
0
0
LAYER
5
16f
100
AcDbSymbolTableRecord
100
AcDbLayerTableRecord
2
SK2
70
0
62
7
6
CONTINUOUS
290
1
370
-3
390
0
0
ENDTAB
0
TABLE
2
STYLE
5
183
100
AcDbSymbolTable
0
STYLE
5
11
100
AcDbSymbolTableRecord
100
AcDbTextStyleTableRecord
2
Standard
3
txt
70
0
71
0
40
0
41
1
42
0
50
0
0
STYLE
5
D0
100
AcDbSymbolTableRecord
100
AcDbTextStyleTableRecord
2
iso_b_vert
3
simplex.shx
70
0
71
0
40
0
41
1
42
0
50
0
0
STYLE
5
D1
100
AcDbSymbolTableRecord
100
AcDbTextStyleTableRecord
2
DWGDirectTextStyle
3
simplex
70
0
71
0
40
0
41
1
42
0
50
0
0
ENDTAB
0
TABLE
2
DIMSTYLE
5
184
100
AcDbSymbolTable
100
AcDbDimStyleTable
0
DIMSTYLE
105
27
100
AcDbSymbolTableRecord
100
AcDbDimStyleTableRecord
2
Standard
70
0
3
<>
41
0.18
42
0.0625
44
0.18
140
0.18
147
0.09
73
0
74
0
77
1
271
2
275
0
278
52
280
0
340
11
0
ENDTAB
0
TABLE
2
VIEW
5
185
100
AcDbSymbolTable
0
ENDTAB
0
TABLE
2
UCS
5
186
100
AcDbSymbolTable
0
ENDTAB
0
TABLE
2
APPID
5
187
100
AcDbSymbolTable
0
APPID
5
12
100
AcDbSymbolTableRecord
100
AcDbRegAppTableRecord
2
ACAD
70
0
0
ENDTAB
0
TABLE
2
BLOCK_RECORD
5
188
100
AcDbSymbolTable
0
BLOCK_RECORD
5
1F
100
AcDbSymbolTableRecord
100
AcDbBlockTableRecord
2
*Model_Space
340
0
70
0
0
BLOCK_RECORD
5
1B
100
AcDbSymbolTableRecord
100
AcDbBlockTableRecord
2
*Paper_Space
340
0
70
0
0
BLOCK_RECORD
5
23
100
AcDbSymbolTableRecord
100
AcDbBlockTableRecord
2
*Paper_Space0
340
0
70
0
0
BLOCK_RECORD
5
D3
100
AcDbSymbolTableRecord
100
AcDbBlockTableRecord
2
DimnDraft3D1
340
0
70
0
0
BLOCK_RECORD
5
DE
100
AcDbSymbolTableRecord
100
AcDbBlockTableRecord
2
DimnDraft3D2
340
0
70
0
0
BLOCK_RECORD
5
E8
100
AcDbSymbolTableRecord
100
AcDbBlockTableRecord
2
DimnDraft3D3
340
0
70
0
0
BLOCK_RECORD
5
F3
100
AcDbSymbolTableRecord
100
AcDbBlockTableRecord
2
DimnDraft3D4
340
0
70
0
0
BLOCK_RECORD
5
FD
100
AcDbSymbolTableRecord
100
AcDbBlockTableRecord
2
DimnDraft3D5
340
0
70
0
0
BLOCK_RECORD
5
108
100
AcDbSymbolTableRecord
100
AcDbBlockTableRecord
2
DimnDraft3D6
340
0
70
0
0
ENDTAB
0
ENDSEC
0
SECTION
2
BLOCKS
0
BLOCK
5
20
100
AcDbEntity
8
0
100
AcDbBlockBegin
2
*Model_Space
70
0
10
0
20
0
30
0
3
*Model_Space
0
ENDBLK
5
21
100
AcDbEntity
8
0
100
AcDbBlockEnd
0
BLOCK
5
1C
100
AcDbEntity
8
0
100
AcDbBlockBegin
2
*Paper_Space
70
0
10
0
20
0
30
0
3
*Paper_Space
0
ENDBLK
5
1D
100
AcDbEntity
8
0
100
AcDbBlockEnd
0
BLOCK
5
24
100
AcDbEntity
8
0
100
AcDbBlockBegin
2
*Paper_Space0
70
0
10
0
20
0
30
0
3
*Paper_Space0
0
ENDBLK
5
25
100
AcDbEntity
8
0
100
AcDbBlockEnd
0
BLOCK
5
DB
100
AcDbEntity
8
0
100
AcDbBlockBegin
2
DimnDraft3D1
70
0
10
0
20
0
30
0
3
DimnDraft3D1
0
MTEXT
5
D4
100
AcDbEntity
8
SK2
62
256
6
ByLayer
370
18
48
1
60
0
100
AcDbMText
10
9.830263
20
38.975
30
0
210
0
220
0
230
1
1
\W0.6740;22
40
3.5
41
0
44
1.084337
50
0
71
7
72
5
7
iso_b_vert
0
LINE
5
D6
100
AcDbEntity
8
SK2
62
256
6
ByLayer
370
13
48
1
60
0
100
AcDbLine
10
0
20
33.0875
30
0
11
0
21
40.1
31
0
39
0
210
0
220
0
230
1
0
LINE
5
D7
100
AcDbEntity
8
SK2
62
256
6
ByLayer
370
13
48
1
60
0
100
AcDbLine
10
22
20
33.0875
30
0
11
22
21
40.1
31
0
39
0
210
0
220
0
230
1
0
LINE
5
D8
100
AcDbEntity
8
SK2
62
256
6
ByLayer
370
13
48
1
60
0
100
AcDbLine
10
0
20
38.1
30
0
11
22
21
38.1
31
0
39
0
210
0
220
0
230
1
0
SOLID
5
D9
100
AcDbEntity
8
SK2
62
256
6
ByLayer
370
13
48
1
60
0
100
AcDbTrace
10
0
20
38.1
30
0
11
3.499998
21
38.560784
31
0
12
3.500002
22
37.639216
32
0
13
0
23
38.1
33
0
39
0
210
0
220
0
230
1
0
SOLID
5
DA
100
AcDbEntity
8
SK2
62
256
6
ByLayer
370
13
48
1
60
0
100
AcDbTrace
10
22
20
38.1
30
0
11
18.500002
21
37.639216
31
0
12
18.499998
22
38.560784
32
0
13
22
23
38.1
33
0
39
0
210
0
220
0
230
1
0
ENDBLK
5
DC
100
AcDbEntity
8
0
100
AcDbBlockEnd
0
BLOCK
5
E5
100
AcDbEntity
8
0
100
AcDbBlockBegin
2
DimnDraft3D2
70
0
10
0
20
0
30
0
3
DimnDraft3D2
0
MTEXT
5
DF
100
AcDbEntity
8
SK2
62
256
6
ByLayer
370
18
48
1
60
0
100
AcDbMText
10
182.615132
20
48.975
30
0
210
0
220
0
230
1
1
\W0.5404;5
40
3.5
41
0
44
1.084337
50
0
71
7
72
5
7
iso_b_vert
0
LINE
5
E0
100
AcDbEntity
8
SK2
62
256
6
ByLayer
370
13
48
1
60
0
100
AcDbLine
10
185
20
17.5875
30
0
11
185
21
50.1
31
0
39
0
210
0
220
0
230
1
0
LINE
5
E1
100
AcDbEntity
8
SK2
62
256
6
ByLayer
370
13
48
1
60
0
100
AcDbLine
10
180
20
17.5875
30
0
11
180
21
50.1
31
0
39
0
210
0
220
0
230
1
0
LINE
5
E2
100
AcDbEntity
8
SK2
62
256
6
ByLayer
370
13
48
1
60
0
100
AcDbLine
10
193.75
20
48.1
30
0
11
171.25
21
48.1
31
0
39
0
210
0
220
0
230
1
0
SOLID
5
E3
100
AcDbEntity
8
SK2
62
256
6
ByLayer
370
13
48
1
60
0
100
AcDbTrace
10
185
20
48.1
30
0
11
188.499998
21
48.560784
31
0
12
188.500002
22
47.639216
32
0
13
185
23
48.1
33
0
39
0
210
0
220
0
230
1
0
SOLID
5
E4
100
AcDbEntity
8
SK2
62
256
6
ByLayer
370
13
48
1
60
0
100
AcDbTrace
10
180
20
48.1
30
0
11
176.500002
21
47.639216
31
0
12
176.499998
22
48.560784
32
0
13
180
23
48.1
33
0
39
0
210
0
220
0
230
1
0
ENDBLK
5
E6
100
AcDbEntity
8
0
100
AcDbBlockEnd
0
BLOCK
5
F0
100
AcDbEntity
8
0
100
AcDbBlockBegin
2
DimnDraft3D3
70
0
10
0
20
0
30
0
3
DimnDraft3D3
0
MTEXT
5
E9
100
AcDbEntity
8
2
62
256
6
ByLayer
370
18
48
1
60
0
100
AcDbMText
10
90.482895
20
58.975
30
0
210
0
220
0
230
1
1
\W0.6217;185
40
3.5
41
0
44
1.084337
50
0
71
7
72
5
7
iso_b_vert
0
LINE
5
EB
100
AcDbEntity
8
2
62
256
6
ByLayer
370
13
48
1
60
0
100
AcDbLine
10
185
20
17.5875
30
0
11
185
21
60.1
31
0
39
0
210
0
220
0
230
1
0
LINE
5
EC
100
AcDbEntity
8
2
62
256
6
ByLayer
370
13
48
1
60
0
100
AcDbLine
10
0
20
33.0875
30
0
11
0
21
60.1
31
0
39
0
210
0
220
0
230
1
0
LINE
5
ED
100
AcDbEntity
8
2
62
256
6
ByLayer
370
13
48
1
60
0
100
AcDbLine
10
185
20
58.1
30
0
11
0
21
58.1
31
0
39
0
210
0
220
0
230
1
0
SOLID
5
EE
100
AcDbEntity
8
2
62
256
6
ByLayer
370
13
48
1
60
0
100
AcDbTrace
10
185
20
58.1
30
0
11
181.500002
21
57.639216
31
0
12
181.499998
22
58.560784
32
0
13
185
23
58.1
33
0
39
0
210
0
220
0
230
1
0
SOLID
5
EF
100
AcDbEntity
8
2
62
256
6
ByLayer
370
13
48
1
60
0
100
AcDbTrace
10
0
20
58.1
30
0
11
3.499998
21
58.560784
31
0
12
3.500002
22
57.639216
32
0
13
0
23
58.1
33
0
39
0
210
0
220
0
230
1
0
ENDBLK
5
F1
100
AcDbEntity
8
0
100
AcDbBlockEnd
0
BLOCK
5
FA
100
AcDbEntity
8
0
100
AcDbBlockBegin
2
DimnDraft3D4
70
0
10
0
20
0
30
0
3
DimnDraft3D4
0
MTEXT
5
F4
100
AcDbEntity
8
SK2
62
256
6
ByLayer
370
18
48
1
60
0
100
AcDbMText
10
-20.215789
20
58.975
30
0
210
0
220
0
230
1
1
\W0.6740;38
40
3.5
41
0
44
1.084337
50
0
71
7
72
5
7
iso_b_vert
0
LINE
5
F5
100
AcDbEntity
8
SK2
62
256
6
ByLayer
370
13
48
1
60
0
100
AcDbLine
10
-38
20
23.5875
30
0
11
-38
21
60.1
31
0
39
0
210
0
220
0
230
1
0
LINE
5
F6
100
AcDbEntity
8
SK2
62
256
6
ByLayer
370
13
48
1
60
0
100
AcDbLine
10
0
20
33.0875
30
0
11
0
21
60.1
31
0
39
0
210
0
220
0
230
1
0
LINE
5
F7
100
AcDbEntity
8
SK2
62
256
6
ByLayer
370
13
48
1
60
0
100
AcDbLine
10
-38
20
58.1
30
0
11
0
21
58.1
31
0
39
0
210
0
220
0
230
1
0
SOLID
5
F8
100
AcDbEntity
8
SK2
62
256
6
ByLayer
370
13
48
1
60
0
100
AcDbTrace
10
-38
20
58.1
30
0
11
-34.500002
21
58.560784
31
0
12
-34.499998
22
57.639216
32
0
13
-38
23
58.1
33
0
39
0
210
0
220
0
230
1
0
SOLID
5
F9
100
AcDbEntity
8
SK2
62
256
6
ByLayer
370
13
48
1
60
0
100
AcDbTrace
10
0
20
58.1
30
0
11
-3.499998
21
57.639216
31
0
12
-3.500002
22
58.560784
32
0
13
0
23
58.1
33
0
39
0
210
0
220
0
230
1
0
ENDBLK
5
FB
100
AcDbEntity
8
0
100
AcDbBlockEnd
0
BLOCK
5
105
100
AcDbEntity
8
0
100
AcDbBlockBegin
2
DimnDraft3D5
70
0
10
0
20
0
30
0
3
DimnDraft3D5
0
MTEXT
5
FE
100
AcDbEntity
8
SK2
62
256
6
ByLayer
370
18
48
1
60
0
100
AcDbMText
10
-61.35
20
2.330263
30
0
210
0
220
0
230
1
1
\W0.6740;63
40
3.5
41
0
44
1.084337
50
90
71
7
72
5
7
iso_b_vert
0
MTEXT
5
FF
100
AcDbEntity
8
SK2
62
256
6
ByLayer
370
18
48
1
60
0
100
AcDbMText
10
-61.35
20
-2.892393
30
0
210
0
220
0
230
1
1
%%c
40
3.5
41
0
44
1.084337
50
90
71
7
72
5
7
iso_b_vert
0
LINE
5
100
100
AcDbEntity
8
SK2
62
256
6
ByLayer
370
13
48
1
60
0
100
AcDbLine
10
-1.5875
20
31.5
30
0
11
-61.6
21
31.5
31
0
39
0
210
0
220
0
230
1
0
LINE
5
101
100
AcDbEntity
8
SK2
62
256
6
ByLayer
370
13
48
1
60
0
100
AcDbLine
10
-1.5875
20
-31.5
30
0
11
-61.6
21
-31.5
31
0
39
0
210
0
220
0
230
1
0
LINE
5
102
100
AcDbEntity
8
SK2
62
256
6
ByLayer
370
13
48
1
60
0
100
AcDbLine
10
-59.6
20
31.5
30
0
11
-59.6
21
-31.5
31
0
39
0
210
0
220
0
230
1
0
SOLID
5
103
100
AcDbEntity
8
SK2
62
256
6
ByLayer
370
13
48
1
60
0
100
AcDbTrace
10
-59.6
20
31.5
30
0
11
-59.139216
21
28.000002
31
0
12
-60.060784
22
27.999998
32
0
13
-59.6
23
31.5
33
0
39
0
210
0
220
0
230
1
0
SOLID
5
104
100
AcDbEntity
8
SK2
62
256
6
ByLayer
370
13
48
1
60
0
100
AcDbTrace
10
-59.6
20
-31.5
30
0
11
-60.060784
21
-28.000002
31
0
12
-59.139216
22
-27.999998
32
0
13
-59.6
23
-31.5
33
0
39
0
210
0
220
0
230
1
0
ENDBLK
5
106
100
AcDbEntity
8
0
100
AcDbBlockEnd
0
BLOCK
5
110
100
AcDbEntity
8
0
100
AcDbBlockBegin
2
DimnDraft3D6
70
0
10
0
20
0
30
0
3
DimnDraft3D6
0
MTEXT
5
109
100
AcDbEntity
8
SK2
62
256
6
ByLayer
370
18
48
1
60
0
100
AcDbMText
10
208.35
20
2.330263
30
0
210
0
220
0
230
1
1
\W0.6740;32
40
3.5
41
0
44
1.084337
50
90
71
7
72
5
7
iso_b_vert
0
MTEXT
5
10A
100
AcDbEntity
8
SK2
62
256
6
ByLayer
370
18
48
1
60
0
100
AcDbMText
10
208.35
20
-2.892393
30
0
210
0
220
0
230
1
1
%%c
40
3.5
41
0
44
1.084337
50
90
71
7
72
5
7
iso_b_vert
0
LINE
5
10B
100
AcDbEntity
8
SK2
62
256
6
ByLayer
370
13
48
1
60
0
100
AcDbLine
10
186.5875
20
16
30
0
11
212.1
21
16
31
0
39
0
210
0
220
0
230
1
0
LINE
5
10C
100
AcDbEntity
8
SK2
62
256
6
ByLayer
370
13
48
1
60
0
100
AcDbLine
10
186.5875
20
-16
30
0
11
212.1
21
-16
31
0
39
0
210
0
220
0
230
1
0
LINE
5
10D
100
AcDbEntity
8
SK2
62
256
6
ByLayer
370
13
48
1
60
0
100
AcDbLine
10
210.1
20
16
30
0
11
210.1
21
-16
31
0
39
0
210
0
220
0
230
1
0
SOLID
5
10E
100
AcDbEntity
8
SK2
62
256
6
ByLayer
370
13
48
1
60
0
100
AcDbTrace
10
210.1
20
16
30
0
11
210.560784
21
12.500002
31
0
12
209.639216
22
12.499998
32
0
13
210.1
23
16
33
0
39
0
210
0
220
0
230
1
0
SOLID
5
10F
100
AcDbEntity
8
SK2
62
256
6
ByLayer
370
13
48
1
60
0
100
AcDbTrace
10
210.1
20
-16
30
0
11
209.639216
21
-12.500002
31
0
12
210.560784
22
-12.499998
32
0
13
210.1
23
-16
33
0
39
0
210
0
220
0
230
1
0
ENDBLK
5
111
100
AcDbEntity
8
0
100
AcDbBlockEnd
0
ENDSEC
0
SECTION
2
ENTITIES
0
ARC
5
A8
100
AcDbEntity
8
1
62
256
6
ByLayer
370
18
48
1
60
0
100
AcDbCircle
39
0
10
22.760277
20
-30.7
30
0
40
0.8
210
0
220
0
230
1
100
AcDbArc
50
270
51
275.685222
0
ARC
5
A9
100
AcDbEntity
8
SK1
62
256
6
ByLayer
370
18
48
1
60
0
100
AcDbCircle
39
0
10
0.6
20
-23.45
30
0
40
0.999999999999999
210
6.12303176911189E-17
220
0
230
-1
100
AcDbArc
50
113.578178
51
126.869898
0
ARC
5
AA
100
AcDbEntity
8
SK1
62
256
6
ByLayer
370
18
48
1
60
0
100
AcDbCircle
39
0
10
0.6
20
23.45
30
0
40
0.999999999999999
210
6.12303176911189E-17
220
0
230
-1
100
AcDbArc
50
233.130102
51
246.421822
0
ARC
5
AB
100
AcDbEntity
8
1
62
256
6
ByLayer
370
18
48
1
60
0
100
AcDbCircle
39
0
10
22.760277
20
30.7
30
0
40
0.8
210
0
220
0
230
1
100
AcDbArc
50
84.314778
51
90
0
ARC
5
AC
100
AcDbEntity
8
1
62
256
6
ByLayer
370
18
48
1
60
0
100
AcDbCircle
39
0
10
-180
20
46.283729
30
0
40
30.2837290885083
210
6.12303176911189E-17
220
0
230
-1
100
AcDbArc
50
270
51
275.685222
0
ARC
5
AD
100
AcDbEntity
8
1
62
256
6
ByLayer
370
18
48
1
60
0
100
AcDbCircle
39
0
10
-180
20
-46.283729
30
0
40
30.2837290885083
210
6.12303176911189E-17
220
0
230
-1
100
AcDbArc
50
84.314778
51
90
0
ELLIPSE
5
AE
100
AcDbEntity
8
1
62
256
6
ByLayer
370
18
48
1
60
0
100
AcDbEllipse
10
26.347154
20
0
30
0
11
14.7536831606553
21
-31.09325491558
31
0
210
0
220
0
230
-1
40
0.341999
41
2.05035306783694
42
2.98378646694436
0
ELLIPSE
5
AF
100
AcDbEntity
8
1
62
256
6
ByLayer
370
18
48
1
60
0
100
AcDbEllipse
10
26.347154
20
0
30
0
11
14.7536831606552
21
31.0932549155798
31
0
210
0
220
0
230
-1
40
0.341999
41
-2.98378646694436
42
-2.05035306783694
0
ELLIPSE
5
B0
100
AcDbEntity
8
1
62
256
6
ByLayer
370
18
48
1
60
0
100
AcDbEllipse
10
-2.347154
20
0
30
0
11
14.753683160654
21
31.0932549155783
31
0
210
0
220
0
230
-1
40
0.341999
41
0.157806186645444
42
1.0912395857529
0
ELLIPSE
5
B1
100
AcDbEntity
8
1
62
256
6
ByLayer
370
18
48
1
60
0
100
AcDbEllipse
10
-2.347154
20
0
30
0
11
14.7536831606548
21
-31.0932549155793
31
0
210
0
220
0
230
-1
40
0.341999
41
-1.09123958575287
42
-0.15780618664544
0
POINT
5
6C
100
AcDbEntity
8
81
62
256
6
ByLayer
370
18
48
1
60
0
100
AcDbPoint
10
185
20
0
30
0
39
0
210
0
220
0
230
1
50
360
0
POINT
5
6E
100
AcDbEntity
8
80
62
256
6
ByLayer
370
18
48
1
60
0
100
AcDbPoint
10
0
20
0
30
0
39
0
210
0
220
0
230
1
50
360
0
POINT
5
70
100
AcDbEntity
8
1
62
256
6
ByLayer
370
18
48
1
60
0
100
AcDbPoint
10
0
20
0
30
0
39
0
210
0
220
0
230
1
50
360
0
SPLINE
5
B2
100
AcDbEntity
8
SK1
62
256
6
ByLayer
370
18
48
1
60
0
100
AcDbSpline
70
4
71
3
72
13
73
9
40
0
40
0
40
0
40
0
40
0.239456135762356
40
0.368359721932478
40
0.499998984020181
40
0.631638415283052
40
0.760542467777729
40
1
40
1
40
1
40
1
41
1
10
-2.19999999999999
20
-22.0200986606755
30
-1E-16
41
1
10
-2.19909198642273
20
-21.9940411845604
30
-1E-16
41
1
10
-2.1910328410695
20
-21.956668600224
30
-1E-16
41
1
10
-2.16563592203357
20
-21.9104494263862
30
-1E-16
41
1
10
-2.13886378679282
20
-21.8791678725255
30
-1E-16
41
1
10
-2.10627712749889
20
-21.854000502323
30
-1E-16
41
1
10
-2.0588406423409
20
-21.8309566998545
30
-1E-16
41
1
10
-2.0211103087303
20
-21.8247844448325
30
-1E-16
41
1
10
-1.99503997793928
20
-21.825186084775
30
-1E-16
0
SPLINE
5
B3
100
AcDbEntity
8
SK1
62
256
6
ByLayer
370
18
48
1
60
0
100
AcDbSpline
70
4
71
2
72
6
73
3
40
0
40
0
40
0
40
1
40
1
40
1
41
1
10
-0.394976888875277
20
21.8653802062992
30
0
41
1
10
-1.19500843340728
20
21.8452807593862
30
-1E-16
41
1
10
-1.99503997793928
20
21.8251813124779
30
-1E-16
0
SPLINE
5
B4
100
AcDbEntity
8
SK1
62
256
6
ByLayer
370
18
48
1
60
0
100
AcDbSpline
70
4
71
2
72
6
73
3
40
0
40
0
40
0
40
1
40
1
40
1
41
1
10
-0.239684768755751
20
21.9481214799356
30
0
41
1
10
-0.264174311740334
20
21.8692639605626
30
0
41
1
10
-0.394976888875277
20
21.865385003355
30
0
0
SPLINE
5
B5
100
AcDbEntity
8
SK1
62
256
6
ByLayer
370
18
48
1
60
0
100
AcDbSpline
70
4
71
3
72
13
73
9
40
0
40
0
40
0
40
0
40
0.239457532153435
40
0.368361584623861
40
0.500001015877092
40
0.631640277972373
40
0.76054386416566
40
1
40
1
40
1
40
1
41
1
10
-1.99503997793928
20
21.8251861015554
30
-1E-16
41
1
10
-2.02111030873172
20
21.8247844616134
30
-1E-16
41
1
10
-2.05884064234354
20
21.8309567166393
30
-1E-16
41
1
10
-2.10627712750096
20
21.8540005191231
30
-1E-16
41
1
10
-2.13886378679479
20
21.8791678893423
30
-1E-16
41
1
10
-2.16563592203508
20
21.9104494432234
30
-1E-16
41
1
10
-2.19103284107061
20
21.9566686170922
30
-1E-16
41
1
10
-2.19909198642387
20
21.9940412014511
30
-1E-16
41
1
10
-2.19999999999999
20
22.0200986775813
30
-1E-16
0
SPLINE
5
B6
100
AcDbEntity
8
SK1
62
256
6
ByLayer
370
18
48
1
60
0
100
AcDbSpline
70
4
71
2
72
6
73
3
40
0
40
0
40
0
40
1
40
1
40
1
41
1
10
-1.99503997793928
20
-21.8251812553753
30
-1E-16
41
1
10
-1.19500843340728
20
-21.8452807024746
30
-1E-16
41
1
10
-0.394976888875277
20
-21.8653801495793
30
0
0
SPLINE
5
B7
100
AcDbEntity
8
SK1
62
256
6
ByLayer
370
18
48
1
60
0
100
AcDbSpline
70
4
71
2
72
6
73
3
40
0
40
0
40
0
40
1
40
1
40
1
41
1
10
-2.19999999999999
20
22.0135927638551
30
-1E-16
41
1
10
-19.3499999999869
20
21.5828539542124
30
1E-16
41
1
10
-36.5
20
21.1521149580209
30
0
0
SPLINE
5
B8
100
AcDbEntity
8
SK1
62
256
6
ByLayer
370
18
48
1
60
0
100
AcDbSpline
70
4
71
2
72
6
73
3
40
0
40
0
40
0
40
1
40
1
40
1
41
1
10
-36.5
20
-21.1521177089669
30
0
41
1
10
-19.34999999997
20
-21.5828554470541
30
1E-16
41
1
10
-2.19999999999999
20
-22.0135928951589
30
-1E-16
0
SPLINE
5
B9
100
AcDbEntity
8
SK1
62
256
6
ByLayer
370
18
48
1
60
0
100
AcDbSpline
70
4
71
2
72
6
73
3
40
0
40
0
40
0
40
1
40
1
40
1
41
1
10
-36.5
20
21.155302724897
30
0
41
1
10
-37.2500000000012
20
20.7223538609616
30
-1E-16
41
1
10
-38
20
20.2894050057151
30
-1E-16
0
SPLINE
5
BA
100
AcDbEntity
8
SK1
62
256
6
ByLayer
370
18
48
1
60
0
100
AcDbSpline
70
4
71
2
72
6
73
3
40
0
40
0
40
0
40
1
40
1
40
1
41
1
10
-38
20
-20.2894052255531
30
-1E-16
41
1
10
-37.2500000000012
20
-20.7223540793632
30
-1E-16
41
1
10
-36.5
20
-21.1553029418638
30
0
0
SPLINE
5
BB
100
AcDbEntity
8
SK1
62
256
6
ByLayer
370
18
48
1
60
0
100
AcDbSpline
70
4
71
2
72
6
73
3
40
0
40
0
40
0
40
1
40
1
40
1
41
1
10
-0.394976888875277
20
-21.8653849865467
30
0
41
1
10
-0.265172990617032
20
-21.868901290676
30
0
41
1
10
-0.240502439654307
20
-21.9465691723768
30
0
0
SPLINE
5
BC
100
AcDbEntity
8
1
62
256
6
ByLayer
370
18
48
1
60
0
100
AcDbSpline
70
4
71
3
72
16
73
12
40
0
40
0
40
0
40
0
40
0.25
40
0.25
40
0.5
40
0.5
40
0.75
40
0.75
40
0.875
40
0.875
40
1
40
1
40
1
40
1
41
1
10
13.8943375672974
20
29.9139548464691
30
9E-16
41
1
10
13.8787501654512
20
29.9327542695084
30
8E-16
41
1
10
13.8600981524864
20
29.9510098933136
30
8E-16
41
1
10
13.8145135903111
20
29.9862144781928
30
8E-16
41
1
10
13.7875017792166
20
30.0032856662985
30
8E-16
41
1
10
13.720820003123
20
30.0350501233767
30
8E-16
41
1
10
13.6810618560869
20
30.0498069467437
30
8E-16
41
1
10
13.6084081576259
20
30.0668840803113
30
8E-16
41
1
10
13.5814155034803
20
30.0718038277879
30
8E-16
41
1
10
13.5238105256953
20
30.0786461490401
30
8E-16
41
1
10
13.4927587974109
20
30.0805927603169
30
8E-16
41
1
10
13.4613248654052
20
30.0805927603169
30
8E-16
0
SPLINE
5
BD
100
AcDbEntity
8
1
62
256
6
ByLayer
370
18
48
1
60
0
100
AcDbSpline
70
4
71
3
72
16
73
12
40
0
40
0
40
0
40
0
40
0.25
40
0.25
40
0.5
40
0.5
40
0.75
40
0.75
40
0.875
40
0.875
40
1
40
1
40
1
40
1
41
1
10
13.8943375672974
20
-9.86941261896621
30
9E-16
41
1
10
13.8787501654512
20
-9.81243201498808
30
8E-16
41
1
10
13.8600981524864
20
-9.7565502308297
30
8E-16
41
1
10
13.8145135903111
20
-9.64780841973393
30
8E-16
41
1
10
13.7875017792166
20
-9.59456078532611
30
8E-16
41
1
10
13.720820003123
20
-9.49465699870629
30
8E-16
41
1
10
13.6810618560869
20
-9.44778039735209
30
8E-16
41
1
10
13.6084081576259
20
-9.39323398486457
30
8E-16
41
1
10
13.5814155034803
20
-9.37745951316342
30
8E-16
41
1
10
13.5238105256953
20
-9.35548920253851
30
8E-16
41
1
10
13.4927587974109
20
-9.34922131452501
30
8E-16
41
1
10
13.4613248654052
20
-9.34922131452501
30
8E-16
0
SPLINE
5
BE
100
AcDbEntity
8
1
62
256
6
ByLayer
370
18
48
1
60
0
100
AcDbSpline
70
4
71
3
72
16
73
12
40
0
40
0
40
0
40
0
40
0.125000000000001
40
0.125000000000001
40
0.250000000000003
40
0.250000000000003
40
0.500000000000002
40
0.500000000000002
40
0.750000000000001
40
0.750000000000001
40
1
40
1
40
1
40
1
41
1
10
13.4613248654052
20
9.3492213145251
30
8E-16
41
1
10
13.4928040273173
20
9.3492213145251
30
8E-16
41
1
10
13.5234304266402
20
9.35536120669454
30
8E-16
41
1
10
13.5815263070002
20
9.37748487924964
30
8E-16
41
1
10
13.6079581046676
20
9.39290424748307
30
8E-16
41
1
10
13.6817632688741
20
9.44829073160849
30
8E-16
41
1
10
13.7208296342407
20
9.49467220053413
30
8E-16
41
1
10
13.7874862877332
20
9.594536803469
30
8E-16
41
1
10
13.8142652669256
20
9.64728479257934
30
8E-16
41
1
10
13.8599440812239
20
9.75611455014877
30
8E-16
41
1
10
13.8787443055274
20
9.81241059371428
30
8E-16
41
1
10
13.8943375672975
20
9.86941261896621
30
9E-16
0
SPLINE
5
BF
100
AcDbEntity
8
1
62
256
6
ByLayer
370
18
48
1
60
0
100
AcDbSpline
70
4
71
3
72
16
73
12
40
0
40
0
40
0
40
0
40
0.125000000000001
40
0.125000000000001
40
0.250000000000002
40
0.250000000000002
40
0.500000000000001
40
0.500000000000001
40
0.750000000000001
40
0.750000000000001
40
1
40
1
40
1
40
1
41
1
10
13.4613248654052
20
-30.0805927603169
30
8E-16
41
1
10
13.4928040273173
20
-30.0805927603169
30
8E-16
41
1
10
13.5234304266402
20
-30.078685990659
30
8E-16
41
1
10
13.5815263070002
20
-30.0717959485601
30
8E-16
41
1
10
13.6079581046676
20
-30.0669872793662
30
8E-16
41
1
10
13.6817632688741
20
-30.049647240705
30
8E-16
41
1
10
13.7208296342407
20
-30.0350452819075
30
8E-16
41
1
10
13.7874862877332
20
-30.0032932993815
30
8E-16
41
1
10
13.8142652669256
20
-29.9863830332716
30
8E-16
41
1
10
13.8599440812239
20
-29.9511519005795
30
8E-16
41
1
10
13.8787443055274
20
-29.9327613369587
30
8E-16
41
1
10
13.8943375672975
20
-29.9139548464691
30
9E-16
0
SPLINE
5
C0
100
AcDbEntity
8
1
62
256
6
ByLayer
370
18
48
1
60
0
100
AcDbSpline
70
4
71
3
72
16
73
12
40
0
40
0
40
0
40
0
40
0.125000000000001
40
0.125000000000001
40
0.250000000000001
40
0.250000000000001
40
0.500000000000001
40
0.500000000000001
40
0.75
40
0.75
40
1
40
1
40
1
40
1
41
1
10
10.5386751345948
20
30.0805927603169
30
6E-16
41
1
10
10.5071959726827
20
30.0805927603169
30
6E-16
41
1
10
10.4765695733597
20
30.078685990659
30
6E-16
41
1
10
10.4184736929998
20
30.0717959485601
30
6E-16
41
1
10
10.3920418953324
20
30.0669872793661
30
6E-16
41
1
10
10.3182367311259
20
30.049647240705
30
6E-16
41
1
10
10.2791703657593
20
30.0350452819075
30
6E-16
41
1
10
10.2125137122668
20
30.0032932993814
30
6E-16
41
1
10
10.1857347330744
20
29.9863830332716
30
6E-16
41
1
10
10.1400559187761
20
29.9511519005795
30
6E-16
41
1
10
10.1212556944726
20
29.9327613369587
30
6E-16
41
1
10
10.1056624327025
20
29.9139548464691
30
6E-16
0
SPLINE
5
C1
100
AcDbEntity
8
1
62
256
6
ByLayer
370
18
48
1
60
0
100
AcDbSpline
70
4
71
3
72
16
73
12
40
0
40
0
40
0
40
0
40
0.124999999999998
40
0.124999999999998
40
0.249999999999995
40
0.249999999999995
40
0.499999999999997
40
0.499999999999997
40
0.749999999999998
40
0.749999999999998
40
1
40
1
40
1
40
1
41
1
10
10.5386751345948
20
-9.34922131452512
30
6E-16
41
1
10
10.5071959726827
20
-9.34922131452512
30
6E-16
41
1
10
10.4765695733598
20
-9.35536120669457
30
6E-16
41
1
10
10.4184736929998
20
-9.37748487924966
30
6E-16
41
1
10
10.3920418953324
20
-9.3929042474831
30
6E-16
41
1
10
10.3182367311259
20
-9.44829073160849
30
6E-16
41
1
10
10.2791703657593
20
-9.49467220053413
30
6E-16
41
1
10
10.2125137122668
20
-9.594536803469
30
6E-16
41
1
10
10.1857347330744
20
-9.64728479257934
30
6E-16
41
1
10
10.1400559187761
20
-9.75611455014877
30
6E-16
41
1
10
10.1212556944726
20
-9.81241059371428
30
6E-16
41
1
10
10.1056624327025
20
-9.86941261896618
30
6E-16
0
SPLINE
5
C2
100
AcDbEntity
8
1
62
256
6
ByLayer
370
18
48
1
60
0
100
AcDbSpline
70
4
71
3
72
16
73
12
40
0
40
0
40
0
40
0
40
0.249999999999999
40
0.249999999999999
40
0.499999999999998
40
0.499999999999998
40
0.749999999999997
40
0.749999999999997
40
0.874999999999998
40
0.874999999999998
40
1
40
1
40
1
40
1
41
1
10
10.1056624327026
20
9.86941261896621
30
6E-16
41
1
10
10.1212498345487
20
9.81243201498808
30
6E-16
41
1
10
10.1399018475136
20
9.7565502308297
30
6E-16
41
1
10
10.1854864096889
20
9.64780841973396
30
6E-16
41
1
10
10.2124982207834
20
9.59456078532611
30
6E-16
41
1
10
10.279179996877
20
9.49465699870629
30
6E-16
41
1
10
10.3189381439131
20
9.44778039735212
30
6E-16
41
1
10
10.3915918423741
20
9.39323398486459
30
6E-16
41
1
10
10.4185844965197
20
9.37745951316344
30
6E-16
41
1
10
10.4761894743047
20
9.35548920253854
30
6E-16
41
1
10
10.5072412025891
20
9.34922131452507
30
6E-16
41
1
10
10.5386751345948
20
9.34922131452504
30
6E-16
0
SPLINE
5
C3
100
AcDbEntity
8
1
62
256
6
ByLayer
370
18
48
1
60
0
100
AcDbSpline
70
4
71
3
72
16
73
12
40
0
40
0
40
0
40
0
40
0.249999999999999
40
0.249999999999999
40
0.499999999999998
40
0.499999999999998
40
0.749999999999997
40
0.749999999999997
40
0.874999999999998
40
0.874999999999998
40
1
40
1
40
1
40
1
41
1
10
10.1056624327026
20
-29.9139548464691
30
6E-16
41
1
10
10.1212498345487
20
-29.9327542695084
30
6E-16
41
1
10
10.1399018475135
20
-29.9510098933136
30
6E-16
41
1
10
10.1854864096889
20
-29.9862144781928
30
6E-16
41
1
10
10.2124982207834
20
-30.0032856662985
30
6E-16
41
1
10
10.279179996877
20
-30.0350501233767
30
6E-16
41
1
10
10.3189381439131
20
-30.0498069467437
30
6E-16
41
1
10
10.3915918423741
20
-30.0668840803113
30
6E-16
41
1
10
10.4185844965197
20
-30.0718038277879
30
6E-16
41
1
10
10.4761894743047
20
-30.0786461490401
30
6E-16
41
1
10
10.5072412025891
20
-30.080592760317
30
6E-16
41
1
10
10.5386751345948
20
-30.0805927603169
30
6E-16
0
SPLINE
5
C4
100
AcDbEntity
8
SK1
62
256
6
ByLayer
370
18
48
1
60
0
100
AcDbSpline
70
4
71
3
72
26
73
22
40
0
40
0
40
0
40
0
40
0.25
40
0.25
40
0.500000000000001
40
0.500000000000001
40
0.625000000000002
40
0.625000000000002
40
0.687500000000001
40
0.687500000000001
40
0.750000000000001
40
0.750000000000001
40
0.812500000000001
40
0.812500000000001
40
0.875000000000001
40
0.875000000000001
40
0.906250000000001
40
0.906250000000001
40
0.937500000000001
40
0.937500000000001
40
1
40
1
40
1
40
1
41
1
10
-1.30710678118655
20
4.81101329740289
30
-1E-16
41
1
10
-1.27777674809065
20
4.97696208805669
30
-1E-16
41
1
10
-1.24449184372207
20
5.14110933888219
30
-1E-16
41
1
10
-1.16572403812288
20
5.46520409815253
30
-1E-16
41
1
10
-1.12041986952318
20
5.62560509654318
30
-1E-16
41
1
10
-1.03604034231242
20
5.85871268051361
30
-1E-16
41
1
10
-1.00514324915821
20
5.93523451486101
30
-1E-16
41
1
10
-0.951595196520486
20
6.04726373371713
30
-1E-16
41
1
10
-0.932528346395401
20
6.0841422654172
30
-1E-16
41
1
10
-0.890792591053469
20
6.15658914480713
30
-1E-16
41
1
10
-0.86800236553799
20
6.19240090738069
30
-1E-16
41
1
10
-0.817160575690565
20
6.26079505981266
30
-1E-16
41
1
10
-0.78943316382356
20
6.29319778625549
30
0
41
1
10
-0.724969179209722
20
6.35113158829384
30
0
41
1
10
-0.687361729545614
20
6.37733024516982
30
0
41
1
10
-0.622158748113947
20
6.39958064489676
30
0
41
1
10
-0.599752058371365
20
6.40383193252993
30
0
41
1
10
-0.553302263741188
20
6.40463597982043
30
0
41
1
10
-0.530550758270607
20
6.40110290558201
30
0
41
1
10
-0.464963827942824
20
6.38073633145459
30
0
41
1
10
-0.427743955231904
20
6.35579794481987
30
0
41
1
10
-0.394976888874737
20
6.32694309068151
30
0
0
SPLINE
5
C5
100
AcDbEntity
8
SK1
62
256
6
ByLayer
370
18
48
1
60
0
100
AcDbSpline
70
4
71
3
72
30
73
26
40
0
40
0
40
0
40
0
40
0.0312499999999994
40
0.0312499999999994
40
0.0624999999999988
40
0.0624999999999988
40
0.0937499999999983
40
0.0937499999999983
40
0.124999999999998
40
0.124999999999998
40
0.156249999999997
40
0.156249999999997
40
0.187499999999997
40
0.187499999999997
40
0.249999999999996
40
0.249999999999996
40
0.312499999999996
40
0.312499999999996
40
0.374999999999996
40
0.374999999999996
40
0.499999999999996
40
0.499999999999996
40
0.749999999999998
40
0.749999999999998
40
1
40
1
40
1
40
1
41
1
10
-0.394976888875306
20
-6.32694279392757
30
0
41
1
10
-0.411238696721739
20
-6.34126302490415
30
0
41
1
10
-0.428507485946397
20
-6.35445833731507
30
0
41
1
10
-0.466057816276162
20
-6.37750355983715
30
0
41
1
10
-0.486259278879999
20
-6.38723211102035
30
0
41
1
10
-0.528928737140916
20
-6.40070980810009
30
0
41
1
10
-0.552005370573369
20
-6.40446654618015
30
0
41
1
10
-0.597682826800479
20
-6.40404538429894
30
0
41
1
10
-0.620747969171418
20
-6.39988942772294
30
0
41
1
10
-0.663841284887184
20
-6.38551624086298
30
0
41
1
10
-0.684254761753095
20
-6.37530734814356
30
0
41
1
10
-0.721714491331937
20
-6.35175818060952
30
0
41
1
10
-0.739184552681508
20
-6.33820913265023
30
0
41
1
10
-0.788162075932092
20
-6.29461172820723
30
0
41
1
10
-0.815964113388588
20
-6.26223556861282
30
0
41
1
10
-0.86681058547714
20
-6.19416487342832
30
-1E-16
41
1
10
-0.889725334639508
20
-6.15831922452327
30
-1E-16
41
1
10
-0.931663440024437
20
-6.0857602140492
30
-1E-16
41
1
10
-0.950810679353566
20
-6.04882063700347
30
-1E-16
41
1
10
-1.00456810808541
20
-5.93660131926185
30
-1E-16
41
1
10
-1.03556300059233
20
-5.8599435845837
30
-1E-16
41
1
10
-1.12018816360205
20
-5.6264189499465
30
-1E-16
41
1
10
-1.16556178401132
20
-5.46581692848355
30
-1E-16
41
1
10
-1.24442385148592
20
-5.14144332217063
30
-1E-16
41
1
10
-1.27774590369947
20
-4.97713666802878
30
-1E-16
41
1
10
-1.30710678118655
20
-4.81101321788441
30
-1E-16
0
SPLINE
5
C6
100
AcDbEntity
8
SK1
62
256
6
ByLayer
370
18
48
1
60
0
100
AcDbSpline
70
4
71
3
72
299
73
295
40
0
40
0
40
0
40
0
40
0.0029480146889163
40
0.0064730858988195
40
0.0099981571087226
40
0.0135232283186258
40
0.0170482995285289
40
0.0205733707384321
40
0.0240984419483352
40
0.0276235131582384
40
0.0346736555780447
40
0.041723797997851
40
0.0487739404176573
40
0.0522990116275605
40
0.0558240828374637
40
0.0593491540473668
40
0.0628742252572699
40
0.0699243676770762
40
0.0734494388869794
40
0.0769745100968825
40
0.0804995813067857
40
0.0840246525166888
40
0.087549723726592
40
0.0910747949364952
40
0.0981249373563014
40
0.101650008566205
40
0.105175079776108
40
0.108700150986011
40
0.112225222195914
40
0.115750293405817
40
0.11927536461572
40
0.122800435825624
40
0.126325507035527
40
0.12985057824543
40
0.133375649455333
40
0.136900720665236
40
0.140425791875139
40
0.143950863085042
40
0.147475934294946
40
0.154526076714752
40
0.158051147924655
40
0.161576219134558
40
0.16333875473951
40
0.165101290344461
40
0.168626361554365
40
0.175676503974171
40
0.179201575184074
40
0.182726646393977
40
0.18625171760388
40
0.189776788813783
40
0.19682693123359
40
0.200352002443493
40
0.203877073653396
40
0.205639609258348
40
0.207402144863299
40
0.210927216073202
40
0.217977358493009
40
0.221502429702912
40
0.225027500912815
40
0.228552572122718
40
0.232077643332621
40
0.239127785752428
40
0.242652856962331
40
0.246177928172234
40
0.247940463777186
40
0.249702999382137
40
0.25322807059204
40
0.256753141801943
40
0.260278213011847
40
0.262040748616798
40
0.26380328422175
40
0.267328355431653
40
0.270853426641556
40
0.274378497851459
40
0.277903569061362
40
0.281428640271266
40
0.284953711481169
40
0.288478782691072
40
0.292003853900975
40
0.295528925110878
40
0.299053996320781
40
0.302579067530684
40
0.306104138740588
40
0.309629209950491
40
0.313154281160394
40
0.316679352370297
40
0.323729494790103
40
0.327254566000007
40
0.33077963720991
40
0.334304708419813
40
0.337829779629716
40
0.341354850839619
40
0.344879922049522
40
0.348404993259425
40
0.351930064469329
40
0.358980206889135
40
0.366030349308941
40
0.373080491728748
40
0.376605562938651
40
0.380130634148554
40
0.383655705358457
40
0.38718077656836
40
0.390705847778263
40
0.394230918988166
40
0.39775599019807
40
0.401281061407973
40
0.404806132617876
40
0.408331203827779
40
0.411856275037682
40
0.415381346247585
40
0.418906417457489
40
0.422431488667392
40
0.425956559877295
40
0.429481631087198
40
0.433006702297101
40
0.434769237902053
40
0.436531773507004
40
0.438294309111956
40
0.440056844716907
40
0.443581915926811
40
0.447106987136714
40
0.448869522741665
40
0.450632058346617
40
0.452394593951568
40
0.45415712955652
40
0.457682200766423
40
0.459444736371375
40
0.461207271976326
40
0.462969807581278
40
0.46473234318623
40
0.466494878791181
40
0.468257414396133
40
0.470019950001084
40
0.471782485606036
40
0.473545021210987
40
0.475307556815939
40
0.47707009242089
40
0.478832628025842
40
0.480595163630794
40
0.482357699235745
40
0.484120234840697
40
0.485882770445648
40
0.4876453060506
40
0.489407841655552
40
0.491170377260503
40
0.492932912865455
40
0.494695448470406
40
0.496457984075358
40
0.498220519680309
40
0.499983055285261
40
0.501745590890213
40
0.503508126495164
40
0.505270662100116
40
0.507033197705067
40
0.508795733310019
40
0.51055826891497
40
0.512320804519922
40
0.514083340124874
40
0.515845875729825
40
0.517608411334777
40
0.519370946939728
40
0.52113348254468
40
0.522896018149631
40
0.524658553754583
40
0.526421089359535
40
0.528183624964486
40
0.529946160569438
40
0.531708696174389
40
0.533471231779341
40
0.535233767384293
40
0.536996302989244
40
0.538758838594196
40
0.540521374199147
40
0.542283909804099
40
0.545808981014002
40
0.547571516618954
40
0.549334052223905
40
0.551096587828857
40
0.552859123433808
40
0.556384194643711
40
0.559909265853615
40
0.561671801458566
40
0.563434337063518
40
0.565196872668469
40
0.566959408273421
40
0.570484479483324
40
0.574009550693227
40
0.57753462190313
40
0.581059693113034
40
0.584584764322937
40
0.58810983553284
40
0.591634906742743
40
0.595159977952646
40
0.598685049162549
40
0.602210120372452
40
0.605735191582356
40
0.609260262792259
40
0.612785334002162
40
0.616310405212065
40
0.619835476421968
40
0.623360547631871
40
0.626885618841775
40
0.633935761261581
40
0.640985903681387
40
0.648036046101194
40
0.651561117311097
40
0.655086188521
40
0.658611259730903
40
0.662136330940806
40
0.665661402150709
40
0.669186473360612
40
0.672711544570515
40
0.676236615780419
40
0.683286758200225
40
0.686811829410128
40
0.690336900620031
40
0.693861971829934
40
0.697387043039838
40
0.700912114249741
40
0.704437185459644
40
0.707962256669547
40
0.71148732787945
40
0.715012399089353
40
0.718537470299256
40
0.72206254150916
40
0.725587612719063
40
0.732637755138869
40
0.736162826348772
40
0.739687897558676
40
0.746738039978482
40
0.750263111188385
40
0.753788182398288
40
0.757313253608191
40
0.760838324818095
40
0.767888467237901
40
0.771413538447804
40
0.774938609657707
40
0.77846368086761
40
0.781988752077514
40
0.78903889449732
40
0.792563965707223
40
0.796089036917126
40
0.799614108127029
40
0.803139179336932
40
0.810189321756739
40
0.813714392966642
40
0.817239464176545
40
0.820764535386448
40
0.824289606596351
40
0.831339749016157
40
0.834864820226061
40
0.838389891435964
40
0.841914962645867
40
0.84544003385577
40
0.852490176275576
40
0.85601524748548
40
0.859540318695383
40
0.863065389905286
40
0.866590461115189
40
0.870115532325092
40
0.873640603534995
40
0.877165674744898
40
0.880690745954802
40
0.884215817164705
40
0.887740888374608
40
0.891265959584511
40
0.894791030794414
40
0.898316102004318
40
0.901841173214221
40
0.908891315634027
40
0.91241638684393
40
0.915941458053833
40
0.919466529263736
40
0.922991600473639
40
0.926516671683543
40
0.930041742893446
40
0.937091885313252
40
0.940616956523155
40
0.944142027733059
40
0.947667098942962
40
0.951192170152865
40
0.958242312572671
40
0.961767383782574
40
0.965292454992477
40
0.968817526202381
40
0.972342597412284
40
0.975867668622187
40
0.97939273983209
40
0.982917811041993
40
0.986442882251896
40
0.989967953461799
40
0.993493024671703
40
0.997018095881606
40
1
40
1
40
1
40
1
41
1
10
-38
20
20.29234864528
30
2E-16
41
1
10
-38
20
20.292355123785
30
1E-16
41
1
10
-38
20
20.2915870930351
30
-1E-16
41
1
10
-38
20
20.2877827415225
30
-1E-16
41
1
10
-38
20
20.2807871950942
30
-1E-16
41
1
10
-38
20
20.270864225278
30
-1E-16
41
1
10
-38
20
20.2580557575388
30
-1E-16
41
1
10
-38
20
20.2424031034125
30
-1E-16
41
1
10
-38
20
20.2239454925533
30
-1E-16
41
1
10
-38
20
20.19551262204
30
-1E-16
41
1
10
-38
20
20.153458157969
30
-1E-16
41
1
10
-38
20
20.0921783324266
30
-1E-16
41
1
10
-38
20
20.0326760120608
30
0
41
1
10
-38
20
19.9796195423852
30
0
41
1
10
-38
20
19.9374871337363
30
0
41
1
10
-38
20
19.8928775037255
30
0
41
1
10
-38
20
19.8298739849263
30
0
41
1
10
-38
20
19.7628242930463
30
0
41
1
10
-38
20
19.6902080345968
30
-1E-16
41
1
10
-38
20
19.6336084813315
30
-1E-16
41
1
10
-38
20
19.5746836513967
30
-1E-16
41
1
10
-38
20
19.5134574775013
30
-1E-16
41
1
10
-38
20
19.4499498796239
30
-1E-16
41
1
10
-38
20
19.361926580552
30
-1E-16
41
1
10
-38
20
19.2704514952516
30
-1E-16
41
1
10
-38
20
19.1735363516591
30
-1E-16
41
1
10
-38
20
19.0989364266239
30
-1E-16
41
1
10
-38
20
19.0221745884206
30
-1E-16
41
1
10
-38
20
18.9432715601189
30
-1E-16
41
1
10
-38
20
18.8622425921487
30
-1E-16
41
1
10
-38
20
18.7791047356355
30
3E-16
41
1
10
-38
20
18.6938772447032
30
3E-16
41
1
10
-38
20
18.6065734364562
30
3E-16
41
1
10
-38
20
18.5172096781029
30
3E-16
41
1
10
-38
20
18.4258037757915
30
3E-16
41
1
10
-38
20
18.3323676597213
30
3E-16
41
1
10
-38
20
18.236917040573
30
3E-16
41
1
10
-38
20
18.1394682315479
30
3E-16
41
1
10
-38
20
18.006423045464
30
3E-16
41
1
10
-38
20
17.870842154793
30
3E-16
41
1
10
-38
20
17.7299440627733
30
3E-16
41
1
10
-38
20
17.6408187485726
30
3E-16
41
1
10
-38
20
17.5681131617785
30
3E-16
41
1
10
-38
20
17.4947669133713
30
3E-16
41
1
10
-38
20
17.3649201654158
30
3E-16
41
1
10
-38
20
17.2140632768009
30
3E-16
41
1
10
-38
20
17.0578935907134
30
-6E-16
41
1
10
-38
20
16.9392992293059
30
-6E-16
41
1
10
-38
20
16.8188549914818
30
-6E-16
41
1
10
-38
20
16.6552510003021
30
-6E-16
41
1
10
-38
20
16.489672496603
30
-6E-16
41
1
10
-38
20
16.3187666825072
30
-6E-16
41
1
10
-38
20
16.2111031772939
30
-6E-16
41
1
10
-38
20
16.1235473577608
30
-6E-16
41
1
10
-38
20
16.0353949417433
30
-6E-16
41
1
10
-38
20
15.8797855584285
30
-6E-16
41
1
10
-38
20
15.6999813794666
30
-6E-16
41
1
10
-38
20
15.5148116907138
30
-6E-16
41
1
10
-38
20
15.3746600384839
30
-6E-16
41
1
10
-38
20
15.2327750536327
30
-6E-16
41
1
10
-38
20
15.0406360987563
30
-6E-16
41
1
10
-38
20
14.8470518249568
30
-6E-16
41
1
10
-38
20
14.6480433816337
30
-6E-16
41
1
10
-38
20
14.5230237603812
30
-6E-16
41
1
10
-38
20
14.4215395322791
30
-6E-16
41
1
10
-38
20
14.319494446119
30
-6E-16
41
1
10
-38
20
14.1916826014269
30
-6E-16
41
1
10
-38
20
14.0362107113462
30
-6E-16
41
1
10
-38
20
13.905633632864
30
-6E-16
41
1
10
-38
20
13.7996824703933
30
-6E-16
41
1
10
-38
20
13.6931799140641
30
-6E-16
41
1
10
-38
20
13.5598675642285
30
-6E-16
41
1
10
-38
20
13.3977994204325
30
-6E-16
41
1
10
-38
20
13.2340971553998
30
-6E-16
41
1
10
-38
20
13.0687736820565
30
-6E-16
41
1
10
-38
20
12.9018380893652
30
-6E-16
41
1
10
-38
20
12.7332922951509
30
-6E-16
41
1
10
-38
20
12.5631480531082
30
-6E-16
41
1
10
-38
20
12.3914123687224
30
-6E-16
41
1
10
-38
20
12.2180896154105
30
-6E-16
41
1
10
-38
20
12.0431930727568
30
-6E-16
41
1
10
-38
20
11.8667275879997
30
-6E-16
41
1
10
-38
20
11.6886992220563
30
-6E-16
41
1
10
-38
20
11.5091211559413
30
-6E-16
41
1
10
-38
20
11.3279971676986
30
-6E-16
41
1
10
-38
20
11.0835274575533
30
1.2E-15
41
1
10
-38
20
10.8388445996823
30
1.2E-15
41
1
10
-38
20
10.5882272221232
30
1.2E-15
41
1
10
-38
20
10.3995106478125
30
1.2E-15
41
1
10
-38
20
10.2093006505112
30
1.2E-15
41
1
10
-38
20
10.0176111741013
30
1.2E-15
41
1
10
-38
20
9.82444825814403
30
1.2E-15
41
1
10
-38
20
9.62982433363783
30
1.2E-15
41
1
10
-38
20
9.43375032895256
30
1.2E-15
41
1
10
-38
20
9.16930024978845
30
1.2E-15
41
1
10
-38
20
8.83774034996793
30
1.2E-15
41
1
10
-38
20
8.43283016067576
30
1.2E-15
41
1
10
-38
20
8.09202302704495
30
1.2E-15
41
1
10
-38
20
7.81440668711983
30
1.2E-15
41
1
10
-38
20
7.60585888080686
30
1.2E-15
41
1
10
-38
20
7.39600299493051
30
1.2E-15
41
1
10
-38
20
7.18486050853949
30
1.2E-15
41
1
10
-38
20
6.972454820743
30
1.2E-15
41
1
10
-38
20
6.75880464755275
30
1.2E-15
41
1
10
-38
20
6.54393387937549
30
1.2E-15
41
1
10
-38
20
6.32787102064523
30
1.2E-15
41
1
10
-38
20
6.11064460524278
30
1.2E-15
41
1
10
-38
20
5.89228682406826
30
1.2E-15
41
1
10
-38
20
5.67283049766698
30
1.2E-15
41
1
10
-38
20
5.45231041402207
30
1.2E-15
41
1
10
-38
20
5.2307661198837
30
1.2E-15
41
1
10
-38
20
5.00824236668089
30
1.2E-15
41
1
10
-38
20
4.78478453894905
30
1.2E-15
41
1
10
-38
20
4.56044477194348
30
1.2E-15
41
1
10
-38
20
4.3737593142329
30
1.2E-15
41
1
10
-38
20
4.22222174308928
30
1.2E-15
41
1
10
-38
20
4.10916467830538
30
1.2E-15
41
1
10
-38
20
3.99593123757285
30
1.2E-15
41
1
10
-38
20
3.84368490764803
30
1.2E-15
41
1
10
-38
20
3.65544484289478
30
1.2E-15
41
1
10
-38
20
3.46668355973628
30
1.2E-15
41
1
10
-38
20
3.31336520651504
30
1.2E-15
41
1
10
-38
20
3.19916977025284
30
1.2E-15
41
1
10
-38
20
3.0848771849204
30
1.2E-15
41
1
10
-38
20
2.93116533478539
30
1.2E-15
41
1
10
-38
20
2.7810630459212
30
1.2E-15
41
1
10
-38
20
2.62697343511894
30
1.2E-15
41
1
10
-38
20
2.51237687493429
30
1.2E-15
41
1
10
-38
20
2.39774974487253
30
1.2E-15
41
1
10
-38
20
2.28311555219403
30
1.2E-15
41
1
10
-38
20
2.16847618976473
30
1.2E-15
41
1
10
-38
20
2.05384840107453
30
1.2E-15
41
1
10
-38
20
1.93924458170406
30
1.2E-15
41
1
10
-38
20
1.82466899171223
30
1.2E-15
41
1
10
-38
20
1.71014121398446
30
1.2E-15
41
1
10
-38
20
1.59566009898879
30
1.2E-15
41
1
10
-38
20
1.48124309885608
30
1.2E-15
41
1
10
-38
20
1.36688883878045
30
1.2E-15
41
1
10
-38
20
1.25260906632701
30
1.2E-15
41
1
10
-38
20
1.13840321986405
30
1.2E-15
41
1
10
-38
20
1.02427614220741
30
1.2E-15
41
1
10
-38
20
0.910225811803912
30
1.2E-15
41
1
10
-38
20
0.796251800903974
30
1.2E-15
41
1
10
-38
20
0.682349388495624
30
1.2E-15
41
1
10
-38
20
0.568513483413511
30
1.2E-15
41
1
10
-38
20
0.454735475948979
30
1.2E-15
41
1
10
-38
20
0.341006791030111
30
1.2E-15
41
1
10
-38
20
0.227315919379521
30
1.2E-15
41
1
10
-38
20
0.113651444289076
30
1.2E-15
41
1
10
-38
20
2.39306814E-08
30
1.2E-15
41
1
10
-38
20
-0.113651428861147
30
1.2E-15
41
1
10
-38
20
-0.227315965161807
30
1.2E-15
41
1
10
-38
20
-0.341006831114754
30
1.2E-15
41
1
10
-38
20
-0.454735424962735
30
1.2E-15
41
1
10
-38
20
-0.568513412391525
30
1.2E-15
41
1
10
-38
20
-0.682349437337052
30
1.2E-15
41
1
10
-38
20
-0.796251898049235
30
1.2E-15
41
1
10
-38
20
-0.910225765592202
30
1.2E-15
41
1
10
-38
20
-1.02427601417025
30
1.2E-15
41
1
10
-38
20
-1.13840324907633
30
1.2E-15
41
1
10
-38
20
-1.25260921865757
30
1.2E-15
41
1
10
-38
20
-1.36688883944316
30
1.2E-15
41
1
10
-38
20
-1.48124293103632
30
1.2E-15
41
1
10
-38
20
-1.59566004663384
30
1.2E-15
41
1
10
-38
20
-1.71014137238996
30
1.2E-15
41
1
10
-38
20
-1.82466911261432
30
1.2E-15
41
1
10
-38
20
-1.93924446866484
30
1.2E-15
41
1
10
-38
20
-2.05384821372689
30
1.2E-15
41
1
10
-38
20
-2.1684762190329
30
1.2E-15
41
1
10
-38
20
-2.28311576323418
30
1.2E-15
41
1
10
-38
20
-2.39774983280105
30
1.2E-15
41
1
10
-38
20
-2.51237672316307
30
1.2E-15
41
1
10
-38
20
-2.62697323991799
30
1.2E-15
41
1
10
-38
20
-2.78106315146928
30
1.2E-15
41
1
10
-38
20
-2.93116552693385
30
1.2E-15
41
1
10
-38
20
-3.08487708212581
30
1.2E-15
41
1
10
-38
20
-3.19916954549007
30
1.2E-15
41
1
10
-38
20
-3.31336512600546
30
1.2E-15
41
1
10
-38
20
-3.46668375918677
30
1.2E-15
41
1
10
-38
20
-3.65544489425088
30
1.2E-15
41
1
10
-38
20
-3.84368470208372
30
1.2E-15
41
1
10
-38
20
-3.99593117493791
30
1.2E-15
41
1
10
-38
20
-4.10916481607396
30
1.2E-15
41
1
10
-38
20
-4.22222196867938
30
1.2E-15
41
1
10
-38
20
-4.37375933349006
30
1.2E-15
41
1
10
-38
20
-4.56044458630845
30
1.2E-15
41
1
10
-38
20
-4.78478457648492
30
1.2E-15
41
1
10
-38
20
-5.00824253816086
30
1.2E-15
41
1
10
-38
20
-5.23076600439052
30
1.2E-15
41
1
10
-38
20
-5.45231022599046
30
1.2E-15
41
1
10
-38
20
-5.67283041504652
30
1.2E-15
41
1
10
-38
20
-5.89228674128222
30
1.2E-15
41
1
10
-38
20
-6.11064496108523
30
1.2E-15
41
1
10
-38
20
-6.32787239667013
30
1.2E-15
41
1
10
-38
20
-6.54393525610644
30
1.2E-15
41
1
10
-38
20
-6.75880334040127
30
1.2E-15
41
1
10
-38
20
-6.97245311766207
30
1.2E-15
41
1
10
-38
20
-7.18486111103374
30
1.2E-15
41
1
10
-38
20
-7.39600347561742
30
1.2E-15
41
1
10
-38
20
-7.60585874971361
30
1.2E-15
41
1
10
-38
20
-7.8144064520111
30
1.2E-15
41
1
10
-38
20
-8.09202295752311
30
1.2E-15
41
1
10
-38
20
-8.43283023540656
30
1.2E-15
41
1
10
-38
20
-8.83774029355055
30
1.2E-15
41
1
10
-38
20
-9.16930023887323
30
1.2E-15
41
1
10
-38
20
-9.43375044009511
30
1.2E-15
41
1
10
-38
20
-9.62982432960192
30
1.2E-15
41
1
10
-38
20
-9.82444814962994
30
1.2E-15
41
1
10
-38
20
-10.0176111126089
30
1.2E-15
41
1
10
-38
20
-10.2093007057547
30
1.2E-15
41
1
10
-38
20
-10.3995107409486
30
1.2E-15
41
1
10
-38
20
-10.5882272324294
30
1.2E-15
41
1
10
-38
20
-10.8388445170812
30
1.2E-15
41
1
10
-38
20
-11.0835274377931
30
1.2E-15
41
1
10
-38
20
-11.327997250045
30
-6E-16
41
1
10
-38
20
-11.5091211965041
30
-6E-16
41
1
10
-38
20
-11.6886991809046
30
-6E-16
41
1
10
-38
20
-11.8667275177687
30
-6E-16
41
1
10
-38
20
-12.0431930522803
30
-6E-16
41
1
10
-38
20
-12.2180896645831
30
-6E-16
41
1
10
-38
20
-12.3914124247035
30
-6E-16
41
1
10
-38
20
-12.5631480735019
30
-6E-16
41
1
10
-38
20
-12.7332924196477
30
-6E-16
41
1
10
-38
20
-12.9018387248249
30
-6E-16
41
1
10
-38
20
-13.068774902876
30
-6E-16
41
1
10
-38
20
-13.2899980003418
30
-6E-16
41
1
10
-38
20
-13.5056406071554
30
-6E-16
41
1
10
-38
20
-13.7202970548285
30
-6E-16
41
1
10
-38
20
-13.9327572918622
30
-6E-16
41
1
10
-38
20
-14.1397069500695
30
-6E-16
41
1
10
-38
20
-14.3454836148157
30
-6E-16
41
1
10
-38
20
-14.4976048095277
30
-6E-16
41
1
10
-38
20
-14.6480433741443
30
-6E-16
41
1
10
-38
20
-14.8470538575164
30
-6E-16
41
1
10
-38
20
-15.0406366439893
30
-6E-16
41
1
10
-38
20
-15.2327734637881
30
-6E-16
41
1
10
-38
20
-15.3746583733236
30
-6E-16
41
1
10
-38
20
-15.5148115582755
30
-6E-16
41
1
10
-38
20
-15.6999837411247
30
-6E-16
41
1
10
-38
20
-15.8797870255403
30
-6E-16
41
1
10
-38
20
-16.0578801048401
30
-6E-16
41
1
10
-38
20
-16.189216581434
30
-6E-16
41
1
10
-38
20
-16.3187661779867
30
-6E-16
41
1
10
-38
20
-16.4896741385663
30
-6E-16
41
1
10
-38
20
-16.6552512602625
30
-6E-16
41
1
10
-38
20
-16.8188545807649
30
-6E-16
41
1
10
-38
20
-16.9392987318018
30
-6E-16
41
1
10
-38
20
-17.0578934672827
30
-6E-16
41
1
10
-38
20
-17.2140648101705
30
3E-16
41
1
10
-38
20
-17.3649216616153
30
3E-16
41
1
10
-38
20
-17.513530035822
30
3E-16
41
1
10
-38
20
-17.6226956365842
30
3E-16
41
1
10
-38
20
-17.7299433731025
30
3E-16
41
1
10
-38
20
-17.8708440004863
30
3E-16
41
1
10
-38
20
-18.0064238716364
30
3E-16
41
1
10
-38
20
-18.1394672902698
30
3E-16
41
1
10
-38
20
-18.236915915677
30
3E-16
41
1
10
-38
20
-18.3323672965474
30
3E-16
41
1
10
-38
20
-18.4258040962282
30
3E-16
41
1
10
-38
20
-18.517209887002
30
3E-16
41
1
10
-38
20
-18.6065734896479
30
3E-16
41
1
10
-38
20
-18.6938772522127
30
3E-16
41
1
10
-38
20
-18.7791047692188
30
3E-16
41
1
10
-38
20
-18.8622426359768
30
-1E-16
41
1
10
-38
20
-18.9432715834756
30
-1E-16
41
1
10
-38
20
-19.0221745805325
30
-1E-16
41
1
10
-38
20
-19.0989364136873
30
-1E-16
41
1
10
-38
20
-19.1735363647814
30
-1E-16
41
1
10
-38
20
-19.2704515417461
30
-1E-16
41
1
10
-38
20
-19.3619266112172
30
-1E-16
41
1
10
-38
20
-19.4499498647732
30
-1E-16
41
1
10
-38
20
-19.5134574724377
30
-1E-16
41
1
10
-38
20
-19.5746836830748
30
-1E-16
41
1
10
-38
20
-19.6336085328263
30
-1E-16
41
1
10
-38
20
-19.6902080668946
30
-1E-16
41
1
10
-38
20
-19.7628242842049
30
0
41
1
10
-38
20
-19.829873984374
30
0
41
1
10
-38
20
-19.8928775551026
30
0
41
1
10
-38
20
-19.9374871757691
30
0
41
1
10
-38
20
-19.9796195436674
30
0
41
1
10
-38
20
-20.0326760063813
30
0
41
1
10
-38
20
-20.0800381474625
30
-1E-16
41
1
10
-38
20
-20.1228090027496
30
-1E-16
41
1
10
-38
20
-20.1521177658612
30
-1E-16
41
1
10
-38
20
-20.1787668505585
30
-1E-16
41
1
10
-38
20
-20.2027210424566
30
-1E-16
41
1
10
-38
20
-20.2239455432986
30
-1E-16
41
1
10
-38
20
-20.2424031363825
30
-1E-16
41
1
10
-38
20
-20.2580557552655
30
-1E-16
41
1
10
-38
20
-20.2708642249464
30
-1E-16
41
1
10
-38
20
-20.2807872561095
30
-1E-16
41
1
10
-38
20
-20.2877829489451
30
-1E-16
41
1
10
-38
20
-20.2916003131295
30
-1E-16
41
1
10
-38
20
-20.2923632054359
30
1E-16
41
1
10
-38
20
-20.2923482581527
30
2E-16
0
SPLINE
5
C7
100
AcDbEntity
8
SK1
62
256
6
ByLayer
370
18
48
1
60
0
100
AcDbSpline
70
4
71
3
72
303
73
299
40
0
40
0
40
0
40
0
40
0.0005128941309949
40
0.0040058105206227
40
0.0074987269102504
40
0.0109916432998782
40
0.0144845596895059
40
0.0179774760791337
40
0.0214703924687614
40
0.0249633088583892
40
0.028456225248017
40
0.0319491416376447
40
0.0354420580272724
40
0.0389349744169002
40
0.042427890806528
40
0.0459208071961557
40
0.0529066399754112
40
0.056399556365039
40
0.0598924727546668
40
0.0633853891442945
40
0.0668783055339223
40
0.0738641383131778
40
0.0773570547028055
40
0.0808499710924332
40
0.0843428874820611
40
0.0878358038716888
40
0.0913287202613165
40
0.0948216366509443
40
0.1018074694302
40
0.105300385819828
40
0.108793302209455
40
0.112286218599083
40
0.115779134988711
40
0.119272051378339
40
0.122764967767966
40
0.126257884157594
40
0.129750800547222
40
0.13324371693685
40
0.136736633326477
40
0.140229549716105
40
0.143722466105733
40
0.147215382495361
40
0.150708298884988
40
0.157694131664244
40
0.161187048053872
40
0.164679964443499
40
0.168172880833127
40
0.171665797222755
40
0.17865163000201
40
0.182144546391638
40
0.185637462781266
40
0.189130379170894
40
0.192623295560521
40
0.199609128339777
40
0.203102044729405
40
0.206594961119032
40
0.21008787750866
40
0.213580793898288
40
0.220566626677544
40
0.224059543067171
40
0.227552459456799
40
0.231045375846427
40
0.234538292236055
40
0.24152412501531
40
0.245017041404938
40
0.248509957794566
40
0.252002874184193
40
0.255495790573821
40
0.262481623353077
40
0.265974539742704
40
0.269467456132332
40
0.276453288911587
40
0.279946205301215
40
0.283439121690843
40
0.286932038080471
40
0.290424954470099
40
0.293917870859726
40
0.297410787249354
40
0.300903703638982
40
0.30439662002861
40
0.307889536418237
40
0.311382452807865
40
0.314875369197493
40
0.318368285587121
40
0.325354118366376
40
0.328847034756004
40
0.332339951145632
40
0.335832867535259
40
0.339325783924887
40
0.342818700314515
40
0.346311616704143
40
0.349804533093771
40
0.353297449483398
40
0.360283282262654
40
0.367269115041909
40
0.374254947821165
40
0.377747864210792
40
0.38124078060042
40
0.384733696990048
40
0.388226613379676
40
0.391719529769304
40
0.395212446158931
40
0.398705362548559
40
0.402198278938187
40
0.405691195327814
40
0.409184111717442
40
0.41267702810707
40
0.416169944496698
40
0.419662860886326
40
0.423155777275953
40
0.426648693665581
40
0.430141610055209
40
0.433634526444837
40
0.435380984639651
40
0.437127442834464
40
0.438873901029278
40
0.440620359224092
40
0.44411327561372
40
0.447606192003348
40
0.449352650198162
40
0.451099108392975
40
0.452845566587789
40
0.454592024782603
40
0.458084941172231
40
0.459831399367045
40
0.461577857561859
40
0.463324315756672
40
0.465070773951486
40
0.4668172321463
40
0.468563690341114
40
0.470310148535928
40
0.472056606730742
40
0.473803064925556
40
0.47554952312037
40
0.477295981315184
40
0.479042439509997
40
0.480788897704811
40
0.482535355899625
40
0.484281814094439
40
0.486028272289253
40
0.487774730484067
40
0.489521188678881
40
0.491267646873695
40
0.493014105068508
40
0.494760563263322
40
0.496507021458136
40
0.49825347965295
40
0.499999937847764
40
0.501746396042578
40
0.503492854237392
40
0.505239312432206
40
0.506985770627019
40
0.508732228821833
40
0.510478687016647
40
0.512225145211461
40
0.513971603406275
40
0.515718061601089
40
0.517464519795903
40
0.519210977990717
40
0.52095743618553
40
0.522703894380344
40
0.524450352575158
40
0.526196810769972
40
0.527943268964786
40
0.5296897271596
40
0.531436185354414
40
0.533182643549228
40
0.534929101744042
40
0.536675559938856
40
0.538422018133669
40
0.540168476328483
40
0.541914934523297
40
0.545407850912925
40
0.547154309107739
40
0.548900767302552
40
0.550647225497366
40
0.55239368369218
40
0.555886600081808
40
0.559379516471436
40
0.56112597466625
40
0.562872432861064
40
0.564618891055877
40
0.566365349250691
40
0.569858265640319
40
0.573351182029947
40
0.576844098419575
40
0.580337014809202
40
0.58382993119883
40
0.587322847588458
40
0.590815763978086
40
0.594308680367713
40
0.597801596757341
40
0.601294513146969
40
0.604787429536597
40
0.608280345926224
40
0.611773262315852
40
0.61526617870548
40
0.618759095095108
40
0.622252011484735
40
0.625744927874363
40
0.632730760653619
40
0.639716593432874
40
0.64670242621213
40
0.650195342601758
40
0.653688258991385
40
0.657181175381013
40
0.660674091770641
40
0.664167008160268
40
0.667659924549896
40
0.671152840939524
40
0.674645757329152
40
0.681631590108407
40
0.685124506498035
40
0.688617422887663
40
0.692110339277291
40
0.695603255666918
40
0.699096172056546
40
0.702589088446174
40
0.706082004835802
40
0.709574921225429
40
0.713067837615057
40
0.716560754004685
40
0.720053670394312
40
0.72354658678394
40
0.727039503173568
40
0.730532419563196
40
0.734025335952823
40
0.735771794147638
40
0.737518252342451
40
0.741011168732079
40
0.744504085121707
40
0.747997001511335
40
0.749743459706148
40
0.751489917900963
40
0.75498283429059
40
0.758475750680218
40
0.765461583459473
40
0.768954499849101
40
0.772447416238729
40
0.775940332628356
40
0.779433249017984
40
0.78641908179724
40
0.789911998186868
40
0.791658456381681
40
0.793404914576495
40
0.796897830966123
40
0.800390747355751
40
0.807376580135006
40
0.810869496524634
40
0.814362412914262
40
0.81785532930389
40
0.821348245693517
40
0.828334078472773
40
0.831826994862401
40
0.833573453057215
40
0.835319911252029
40
0.838812827641656
40
0.842305744031284
40
0.849291576810539
40
0.852784493200167
40
0.856277409589795
40
0.859770325979423
40
0.86326324236905
40
0.866756158758678
40
0.870249075148306
40
0.873741991537934
40
0.877234907927562
40
0.880727824317189
40
0.884220740706817
40
0.887713657096445
40
0.891206573486072
40
0.8946994898757
40
0.898192406265328
40
0.905178239044584
40
0.908671155434211
40
0.912164071823839
40
0.915656988213467
40
0.919149904603095
40
0.922642820992722
40
0.92613573738235
40
0.933121570161606
40
0.936614486551233
40
0.940107402940861
40
0.943600319330489
40
0.947093235720117
40
0.954079068499372
40
0.961064901278628
40
0.968050734057883
40
0.971543650447511
40
0.975036566837139
40
0.978529483226766
40
0.982022399616394
40
0.985515316006022
40
0.98900823239565
40
0.992501148785277
40
0.995994065174905
40
0.999486981564533
40
1
40
1
40
1
40
1
41
1
10
-36.5
20
-21.1555777653768
30
4E-16
41
1
10
-36.5
20
-21.15578578092
30
4E-16
41
1
10
-36.5
20
-21.1573189048995
30
4E-16
41
1
10
-36.5
20
-21.1588543296933
30
4E-16
41
1
10
-36.5
20
-21.1578041644649
30
0
41
1
10
-36.5
20
-21.1536128319466
30
0
41
1
10
-36.5
20
-21.1463317710584
30
0
41
1
10
-36.5
20
-21.1360112646484
30
0
41
1
10
-36.5
20
-21.1226986516191
30
0
41
1
10
-36.5
20
-21.1064402531507
30
0
41
1
10
-36.5
20
-21.0872797892674
30
0
41
1
10
-36.5
20
-21.0652596303332
30
0
41
1
10
-36.5
20
-21.0404207944711
30
0
41
1
10
-36.5
20
-21.0128017234864
30
0
41
1
10
-36.5
20
-20.9824409225429
30
0
41
1
10
-36.5
20
-20.9382580424269
30
0
41
1
10
-36.5
20
-20.8890285523336
30
0
41
1
10
-36.5
20
-20.8342802793506
30
0
41
1
10
-36.5
20
-20.7907268231738
30
0
41
1
10
-36.5
20
-20.7446292080422
30
0
41
1
10
-36.5
20
-20.6796864153796
30
0
41
1
10
-36.5
20
-20.6101652553123
30
0
41
1
10
-36.5
20
-20.5353747607017
30
0
41
1
10
-36.5
20
-20.4769783724375
30
0
41
1
10
-36.5
20
-20.4161996091986
30
0
41
1
10
-36.5
20
-20.353062816238
30
0
41
1
10
-36.5
20
-20.287589681624
30
0
41
1
10
-36.5
20
-20.1970436522849
30
0
41
1
10
-36.5
20
-20.1024193061391
30
0
41
1
10
-36.5
20
-20.0027815100322
30
0
41
1
10
-36.5
20
-19.9259535527381
30
0
41
1
10
-36.5
20
-19.8469141406672
30
0
41
1
10
-36.5
20
-19.7656833992675
30
0
41
1
10
-36.5
20
-19.6822775521962
30
4E-16
41
1
10
-36.5
20
-19.5967148362678
30
4E-16
41
1
10
-36.5
20
-19.5090135437133
30
4E-16
41
1
10
-36.5
20
-19.4191882978898
30
4E-16
41
1
10
-36.5
20
-19.3272562516113
30
4E-16
41
1
10
-36.5
20
-19.2332339353276
30
4E-16
41
1
10
-36.5
20
-19.1371342717784
30
4E-16
41
1
10
-36.5
20
-19.0389739868785
30
4E-16
41
1
10
-36.5
20
-18.9387686023437
30
4E-16
41
1
10
-36.5
20
-18.8022222651529
30
4E-16
41
1
10
-36.5
20
-18.6623326618876
30
4E-16
41
1
10
-36.5
20
-18.5177535555592
30
4E-16
41
1
10
-36.5
20
-18.4075180436267
30
4E-16
41
1
10
-36.5
20
-18.2953166794047
30
4E-16
41
1
10
-36.5
20
-18.1428562465544
30
4E-16
41
1
10
-36.5
20
-17.9872703841193
30
-5E-16
41
1
10
-36.5
20
-17.827069915531
30
-5E-16
41
1
10
-36.5
20
-17.7052052466277
30
-5E-16
41
1
10
-36.5
20
-17.5814422063202
30
-5E-16
41
1
10
-36.5
20
-17.4136313821348
30
-5E-16
41
1
10
-36.5
20
-17.2428947983014
30
-5E-16
41
1
10
-36.5
20
-17.0675955495037
30
-5E-16
41
1
10
-36.5
20
-16.9344844206004
30
-5E-16
41
1
10
-36.5
20
-16.7995343923805
30
-5E-16
41
1
10
-36.5
20
-16.6168608854212
30
-5E-16
41
1
10
-36.5
20
-16.4314450331352
30
-5E-16
41
1
10
-36.5
20
-16.241498813278
30
-5E-16
41
1
10
-36.5
20
-16.0974737380165
30
-5E-16
41
1
10
-36.5
20
-15.9516609547094
30
-5E-16
41
1
10
-36.5
20
-15.7545451164335
30
-5E-16
41
1
10
-36.5
20
-15.5548624364723
30
-5E-16
41
1
10
-36.5
20
-15.3506631330603
30
-5E-16
41
1
10
-36.5
20
-15.1960147192182
30
-5E-16
41
1
10
-36.5
20
-15.0396227184095
30
-5E-16
41
1
10
-36.5
20
-14.8284315021107
30
-5E-16
41
1
10
-36.5
20
-14.6148460432235
30
-5E-16
41
1
10
-36.5
20
-14.3967384349214
30
-5E-16
41
1
10
-36.5
20
-14.176348576809
30
-5E-16
41
1
10
-36.5
20
-13.9536769173599
30
-5E-16
41
1
10
-36.5
20
-13.7264696827894
30
-5E-16
41
1
10
-36.5
20
-13.5546713888901
30
-5E-16
41
1
10
-36.5
20
-13.3811911431361
30
-5E-16
41
1
10
-36.5
20
-13.2060373895955
30
-5E-16
41
1
10
-36.5
20
-13.0292149436136
30
-5E-16
41
1
10
-36.5
20
-12.8507281979538
30
-5E-16
41
1
10
-36.5
20
-12.6705857704289
30
-5E-16
41
1
10
-36.5
20
-12.4887913848281
30
1.3E-15
41
1
10
-36.5
20
-12.3053503320752
30
1.3E-15
41
1
10
-36.5
20
-12.1202707134412
30
1.3E-15
41
1
10
-36.5
20
-11.9335556252714
30
1.3E-15
41
1
10
-36.5
20
-11.6819759007756
30
1.3E-15
41
1
10
-36.5
20
-11.4285504962004
30
1.3E-15
41
1
10
-36.5
20
-11.1704660987636
30
1.3E-15
41
1
10
-36.5
20
-10.9756652058486
30
1.3E-15
41
1
10
-36.5
20
-10.7792636942327
30
1.3E-15
41
1
10
-36.5
20
-10.5812696339219
30
1.3E-15
41
1
10
-36.5
20
-10.3816870614505
30
1.3E-15
41
1
10
-36.5
20
-10.18052371466
30
1.3E-15
41
1
10
-36.5
20
-9.97778564072317
30
1.3E-15
41
1
10
-36.5
20
-9.70483575174822
30
1.3E-15
41
1
10
-36.5
20
-9.36101273737586
30
1.3E-15
41
1
10
-36.5
20
-8.94153442741853
30
1.3E-15
41
1
10
-36.5
20
-8.58745782596952
30
1.3E-15
41
1
10
-36.5
20
-8.30004452993893
30
1.3E-15
41
1
10
-36.5
20
-8.08346945831602
30
1.3E-15
41
1
10
-36.5
20
-7.86540128403743
30
1.3E-15
41
1
10
-36.5
20
-7.64585158611581
30
1.3E-15
41
1
10
-36.5
20
-7.42483229470756
30
1.3E-15
41
1
10
-36.5
20
-7.20235684280954
30
1.3E-15
41
1
10
-36.5
20
-6.97843834484934
30
1.3E-15
41
1
10
-36.5
20
-6.75309051279777
30
1.3E-15
41
1
10
-36.5
20
-6.52633051401983
30
1.3E-15
41
1
10
-36.5
20
-6.29817748211653
30
1.3E-15
41
1
10
-36.5
20
-6.06865017711209
30
1.3E-15
41
1
10
-36.5
20
-5.83776875015039
30
1.3E-15
41
1
10
-36.5
20
-5.6055565552935
30
1.3E-15
41
1
10
-36.5
20
-5.37203995090806
30
1.3E-15
41
1
10
-36.5
20
-5.1372458114655
30
1.3E-15
41
1
10
-36.5
20
-4.90120586463618
30
1.3E-15
41
1
10
-36.5
20
-4.70396584910503
30
1.3E-15
41
1
10
-36.5
20
-4.54469650094606
30
1.3E-15
41
1
10
-36.5
20
-4.42534006396792
30
1.3E-15
41
1
10
-36.5
20
-4.30569969171859
30
1.3E-15
41
1
10
-36.5
20
-4.14529326648051
30
1.3E-15
41
1
10
-36.5
20
-3.94531869048151
30
1.3E-15
41
1
10
-36.5
20
-3.74444967050349
30
1.3E-15
41
1
10
-36.5
20
-3.58224072191865
30
1.3E-15
41
1
10
-36.5
20
-3.46078948211164
30
1.3E-15
41
1
10
-36.5
20
-3.33910698167958
30
1.3E-15
41
1
10
-36.5
20
-3.17597095993784
30
1.3E-15
41
1
10
-36.5
20
-3.01425656877106
30
1.3E-15
41
1
10
-36.5
20
-2.8502314065623
30
1.3E-15
41
1
10
-36.5
20
-2.72752148004804
30
1.3E-15
41
1
10
-36.5
20
-2.60463057106841
30
1.3E-15
41
1
10
-36.5
20
-2.48157389743918
30
1.3E-15
41
1
10
-36.5
20
-2.3583562279822
30
1.3E-15
41
1
10
-36.5
20
-2.2349905278607
30
1.3E-15
41
1
10
-36.5
20
-2.11148756075909
30
1.3E-15
41
1
10
-36.5
20
-1.98785458048855
30
1.3E-15
41
1
10
-36.5
20
-1.86410640329151
30
1.3E-15
41
1
10
-36.5
20
-1.7402482546413
30
1.3E-15
41
1
10
-36.5
20
-1.61629518356963
30
1.3E-15
41
1
10
-36.5
20
-1.49225310642996
30
1.3E-15
41
1
10
-36.5
20
-1.36813486147517
30
1.3E-15
41
1
10
-36.5
20
-1.24394734076813
30
1.3E-15
41
1
10
-36.5
20
-1.11970111692671
30
1.3E-15
41
1
10
-36.5
20
-0.995403468230791
30
1.3E-15
41
1
10
-36.5
20
-0.871062970095124
30
1.3E-15
41
1
10
-36.5
20
-0.746686131491799
30
1.3E-15
41
1
10
-36.5
20
-0.622280094010847
30
1.3E-15
41
1
10
-36.5
20
-0.497850400790554
30
1.3E-15
41
1
10
-36.5
20
-0.373402960091397
30
1.3E-15
41
1
10
-36.5
20
-0.248942266430618
30
1.3E-15
41
1
10
-36.5
20
-0.124473254673973
30
1.3E-15
41
1
10
-36.5
20
9.2462358E-09
30
1.3E-15
41
1
10
-36.5
20
0.124473257200918
30
1.3E-15
41
1
10
-36.5
20
0.248942238793148
30
1.3E-15
41
1
10
-36.5
20
0.373402935182185
30
1.3E-15
41
1
10
-36.5
20
0.497850420758397
30
1.3E-15
41
1
10
-36.5
20
0.622280124115576
30
1.3E-15
41
1
10
-36.5
20
0.746686102657719
30
1.3E-15
41
1
10
-36.5
20
0.8710629170684
30
1.3E-15
41
1
10
-36.5
20
0.995403485642782
30
1.3E-15
41
1
10
-36.5
20
1.11970117534864
30
1.3E-15
41
1
10
-36.5
20
1.2439473222278
30
1.3E-15
41
1
10
-36.5
20
1.3681347814894
30
1.3E-15
41
1
10
-36.5
20
1.49225310041959
30
1.3E-15
41
1
10
-36.5
20
1.61629526151512
30
1.3E-15
41
1
10
-36.5
20
1.74024827700825
30
1.3E-15
41
1
10
-36.5
20
1.86410632124094
30
1.3E-15
41
1
10
-36.5
20
1.9878545152765
30
1.3E-15
41
1
10
-36.5
20
2.11148761081347
30
1.3E-15
41
1
10
-36.5
20
2.23499061660055
30
1.3E-15
41
1
10
-36.5
20
2.35835621123036
30
1.3E-15
41
1
10
-36.5
20
2.48157378937663
30
1.3E-15
41
1
10
-36.5
20
2.60463052157442
30
1.3E-15
41
1
10
-36.5
20
2.72752154931175
30
1.3E-15
41
1
10
-36.5
20
2.85023149996007
30
1.3E-15
41
1
10
-36.5
20
3.01425651604552
30
1.3E-15
41
1
10
-36.5
20
3.17597085922341
30
1.3E-15
41
1
10
-36.5
20
3.33910702605107
30
1.3E-15
41
1
10
-36.5
20
3.46078958963511
30
1.3E-15
41
1
10
-36.5
20
3.58224076117995
30
1.3E-15
41
1
10
-36.5
20
3.74444957084984
30
1.3E-15
41
1
10
-36.5
20
3.94531865595207
30
1.3E-15
41
1
10
-36.5
20
4.14529336499854
30
1.3E-15
41
1
10
-36.5
20
4.30569972295402
30
1.3E-15
41
1
10
-36.5
20
4.42533999597057
30
1.3E-15
41
1
10
-36.5
20
4.54469638576828
30
1.3E-15
41
1
10
-36.5
20
4.70396583147402
30
1.3E-15
41
1
10
-36.5
20
4.90120595303733
30
1.3E-15
41
1
10
-36.5
20
5.13724579696881
30
1.3E-15
41
1
10
-36.5
20
5.37203985998678
30
1.3E-15
41
1
10
-36.5
20
5.60555660448861
30
1.3E-15
41
1
10
-36.5
20
5.83776884649418
30
1.3E-15
41
1
10
-36.5
20
6.06865022444896
30
1.3E-15
41
1
10
-36.5
20
6.29817753233076
30
1.3E-15
41
1
10
-36.5
20
6.52633035082275
30
1.3E-15
41
1
10
-36.5
20
6.75308981071325
30
1.3E-15
41
1
10
-36.5
20
6.97843755879967
30
1.3E-15
41
1
10
-36.5
20
7.20235735193418
30
1.3E-15
41
1
10
-36.5
20
7.42483318088833
30
1.3E-15
41
1
10
-36.5
20
7.64585131899614
30
1.3E-15
41
1
10
-36.5
20
7.86540102208471
30
1.3E-15
41
1
10
-36.5
20
8.08346950394392
30
1.3E-15
41
1
10
-36.5
20
8.30004464023602
30
1.3E-15
41
1
10
-36.5
20
8.58745787193689
30
1.3E-15
41
1
10
-36.5
20
8.94153438933262
30
1.3E-15
41
1
10
-36.5
20
9.36101276272154
30
1.3E-15
41
1
10
-36.5
20
9.70483576808863
30
1.3E-15
41
1
10
-36.5
20
9.97778558435027
30
1.3E-15
41
1
10
-36.5
20
10.180523710493
30
1.3E-15
41
1
10
-36.5
20
10.3816871154457
30
1.3E-15
41
1
10
-36.5
20
10.5812696725585
30
1.3E-15
41
1
10
-36.5
20
10.7792636737398
30
1.3E-15
41
1
10
-36.5
20
10.9756651586938
30
1.3E-15
41
1
10
-36.5
20
11.1704660874499
30
1.3E-15
41
1
10
-36.5
20
11.4285505376587
30
1.3E-15
41
1
10
-36.5
20
11.6819759204348
30
1.3E-15
41
1
10
-36.5
20
11.9335555855444
30
1.3E-15
41
1
10
-36.5
20
12.1202706879328
30
1.3E-15
41
1
10
-36.5
20
12.3053503484466
30
1.3E-15
41
1
10
-36.5
20
12.4887914218501
30
1.3E-15
41
1
10
-36.5
20
12.6705857874604
30
-5E-16
41
1
10
-36.5
20
12.850728177302
30
-5E-16
41
1
10
-36.5
20
13.0292149133303
30
-5E-16
41
1
10
-36.5
20
13.2060373742644
30
-5E-16
41
1
10
-36.5
20
13.3811910773122
30
-5E-16
41
1
10
-36.5
20
13.5546710496343
30
-5E-16
41
1
10
-36.5
20
13.7264689694465
30
-5E-16
41
1
10
-36.5
20
13.8965816080865
30
-5E-16
41
1
10
-36.5
20
14.0650028858775
30
-5E-16
41
1
10
-36.5
20
14.2317235183089
30
-5E-16
41
1
10
-36.5
20
14.3690494022437
30
-5E-16
41
1
10
-36.5
20
14.4783873813363
30
-5E-16
41
1
10
-36.5
20
14.5871530954062
30
-5E-16
41
1
10
-36.5
20
14.7216281332594
30
-5E-16
41
1
10
-36.5
20
14.8814910451208
30
-5E-16
41
1
10
-36.5
20
15.0130920883853
30
-5E-16
41
1
10
-36.5
20
15.1178164480938
30
-5E-16
41
1
10
-36.5
20
15.2219600388738
30
-5E-16
41
1
10
-36.5
20
15.350663385132
30
-5E-16
41
1
10
-36.5
20
15.5548613446891
30
-5E-16
41
1
10
-36.5
20
15.7545445351489
30
-5E-16
41
1
10
-36.5
20
15.9516616651348
30
-5E-16
41
1
10
-36.5
20
16.097474719741
30
-5E-16
41
1
10
-36.5
20
16.2414991337765
30
-5E-16
41
1
10
-36.5
20
16.4314438788638
30
-5E-16
41
1
10
-36.5
20
16.6168596157572
30
-5E-16
41
1
10
-36.5
20
16.7765898513273
30
-5E-16
41
1
10
-36.5
20
16.867008999151
30
-5E-16
41
1
10
-36.5
20
16.9568152899196
30
-5E-16
41
1
10
-36.5
20
17.0675963011876
30
-5E-16
41
1
10
-36.5
20
17.2428939764416
30
-5E-16
41
1
10
-36.5
20
17.4136311437529
30
-5E-16
41
1
10
-36.5
20
17.5814423770725
30
-5E-16
41
1
10
-36.5
20
17.705205542109
30
-5E-16
41
1
10
-36.5
20
17.8270700659299
30
-5E-16
41
1
10
-36.5
20
17.987269645424
30
-5E-16
41
1
10
-36.5
20
18.1428549391526
30
4E-16
41
1
10
-36.5
20
18.2761667145511
30
4E-16
41
1
10
-36.5
20
18.3514175898237
30
4E-16
41
1
10
-36.5
20
18.4260133905722
30
4E-16
41
1
10
-36.5
20
18.5177544284038
30
4E-16
41
1
10
-36.5
20
18.6623317385554
30
4E-16
41
1
10
-36.5
20
18.8022215100789
30
4E-16
41
1
10
-36.5
20
18.9387689752275
30
4E-16
41
1
10
-36.5
20
19.0389746878943
30
4E-16
41
1
10
-36.5
20
19.1371346902892
30
4E-16
41
1
10
-36.5
20
19.2332338822713
30
4E-16
41
1
10
-36.5
20
19.3272561697677
30
4E-16
41
1
10
-36.5
20
19.4191882696517
30
4E-16
41
1
10
-36.5
20
19.5090135394173
30
4E-16
41
1
10
-36.5
20
19.5967148149262
30
4E-16
41
1
10
-36.5
20
19.6822775189499
30
4E-16
41
1
10
-36.5
20
19.7656833730651
30
0
41
1
10
-36.5
20
19.8469141355251
30
0
41
1
10
-36.5
20
19.9259535572617
30
0
41
1
10
-36.5
20
20.0027815031752
30
0
41
1
10
-36.5
20
20.1024192722933
30
0
41
1
10
-36.5
20
20.1970436182683
30
0
41
1
10
-36.5
20
20.2875896826626
30
0
41
1
10
-36.5
20
20.3530628196555
30
0
41
1
10
-36.5
20
20.4161995895792
30
0
41
1
10
-36.5
20
20.4769783324059
30
0
41
1
10
-36.5
20
20.5353747251341
30
0
41
1
10
-36.5
20
20.6101652524536
30
0
41
1
10
-36.5
20
20.6796864194097
30
0
41
1
10
-36.5
20
20.7446291690672
30
0
41
1
10
-36.5
20
20.7907267804185
30
0
41
1
10
-36.5
20
20.8342802658871
30
0
41
1
10
-36.5
20
20.8890285612071
30
0
41
1
10
-36.5
20
20.950713074722
30
0
41
1
10
-36.5
20
21.0141777773224
30
0
41
1
10
-36.5
20
21.0578537406018
30
0
41
1
10
-36.5
20
21.0872797426226
30
0
41
1
10
-36.5
20
21.1064402158535
30
0
41
1
10
-36.5
20
21.1226986497682
30
0
41
1
10
-36.5
20
21.1360112678938
30
0
41
1
10
-36.5
20
21.1463317213717
30
0
41
1
10
-36.5
20
21.1536126358382
30
0
41
1
10
-36.5
20
21.1578038223016
30
0
41
1
10
-36.5
20
21.1588544331657
30
4E-16
41
1
10
-36.5
20
21.1573192175793
30
4E-16
41
1
10
-36.5
20
21.1557860695519
30
4E-16
41
1
10
-36.5
20
21.1555780023744
30
4E-16
0
SPLINE
5
C8
100
AcDbEntity
8
SK1
62
256
6
ByLayer
370
18
48
1
60
0
100
AcDbSpline
70
4
71
3
72
295
73
291
40
0
40
0
40
0
40
0
40
0.0029467545184544
40
0.0065226793987239
40
0.0100986042789935
40
0.013674529159263
40
0.0172504540395325
40
0.0208263789198021
40
0.0244023038000716
40
0.0279782286803411
40
0.0315541535606107
40
0.0351300784408802
40
0.0422819282014193
40
0.0458578530816888
40
0.0494337779619584
40
0.0530097028422279
40
0.0565856277224974
40
0.0637374774830365
40
0.067313402363306
40
0.0708893272435756
40
0.0744652521238451
40
0.0780411770041146
40
0.0816171018843842
40
0.0851930267646537
40
0.0923448765251928
40
0.0959208014054623
40
0.0994967262857319
40
0.103072651166001
40
0.106648576046271
40
0.110224500926541
40
0.11380042580681
40
0.117376350687079
40
0.120952275567349
40
0.124528200447619
40
0.128104125327888
40
0.131680050208158
40
0.135255975088427
40
0.138831899968697
40
0.142407824848966
40
0.149559674609505
40
0.153135599489775
40
0.156711524370044
40
0.160287449250314
40
0.163863374130583
40
0.171015223891123
40
0.174591148771392
40
0.178167073651662
40
0.181742998531931
40
0.185318923412201
40
0.19247077317274
40
0.196046698053009
40
0.199622622933279
40
0.203198547813548
40
0.206774472693818
40
0.213926322454357
40
0.217502247334627
40
0.221078172214896
40
0.224654097095166
40
0.228230021975435
40
0.235381871735974
40
0.238957796616244
40
0.242533721496513
40
0.246109646376783
40
0.249685571257052
40
0.256837421017591
40
0.260413345897861
40
0.263989270778131
40
0.27114112053867
40
0.274717045418939
40
0.278292970299209
40
0.281868895179478
40
0.285444820059748
40
0.289020744940017
40
0.292596669820287
40
0.296172594700556
40
0.299748519580826
40
0.303324444461095
40
0.306900369341365
40
0.310476294221634
40
0.314052219101904
40
0.321204068862443
40
0.324779993742713
40
0.328355918622982
40
0.331931843503252
40
0.335507768383521
40
0.339083693263791
40
0.34265961814406
40
0.34623554302433
40
0.349811467904599
40
0.356963317665138
40
0.364115167425678
40
0.371267017186217
40
0.374842942066486
40
0.378418866946756
40
0.381994791827025
40
0.385570716707295
40
0.389146641587564
40
0.392722566467834
40
0.396298491348103
40
0.399874416228373
40
0.403450341108642
40
0.407026265988912
40
0.410602190869181
40
0.414178115749451
40
0.41775404062972
40
0.42132996550999
40
0.42490589039026
40
0.428481815270529
40
0.432057740150799
40
0.433845702590933
40
0.435633665031068
40
0.437421627471203
40
0.439209589911338
40
0.442785514791607
40
0.446361439671877
40
0.448149402112011
40
0.449937364552146
40
0.451725326992281
40
0.453513289432416
40
0.457089214312686
40
0.45887717675282
40
0.460665139192955
40
0.46245310163309
40
0.464241064073225
40
0.466029026513359
40
0.467816988953494
40
0.469604951393629
40
0.471392913833764
40
0.473180876273898
40
0.474968838714033
40
0.476756801154168
40
0.478544763594303
40
0.480332726034437
40
0.482120688474572
40
0.483908650914707
40
0.485696613354842
40
0.487484575794976
40
0.489272538235111
40
0.491060500675246
40
0.492848463115381
40
0.494636425555516
40
0.49642438799565
40
0.498212350435785
40
0.50000031287592
40
0.501788275316055
40
0.503576237756189
40
0.505364200196324
40
0.507152162636459
40
0.508940125076594
40
0.510728087516728
40
0.512516049956863
40
0.514304012396998
40
0.516091974837133
40
0.517879937277268
40
0.519667899717402
40
0.521455862157537
40
0.523243824597672
40
0.525031787037807
40
0.526819749477941
40
0.528607711918076
40
0.530395674358211
40
0.532183636798346
40
0.53397159923848
40
0.535759561678615
40
0.53754752411875
40
0.539335486558885
40
0.54112344899902
40
0.542911411439154
40
0.546487336319424
40
0.548275298759559
40
0.550063261199693
40
0.551851223639828
40
0.553639186079963
40
0.557215110960232
40
0.560791035840502
40
0.562578998280637
40
0.564366960720772
40
0.566154923160906
40
0.567942885601041
40
0.571518810481311
40
0.57509473536158
40
0.57867066024185
40
0.582246585122119
40
0.585822510002389
40
0.589398434882658
40
0.592974359762928
40
0.596550284643197
40
0.600126209523467
40
0.603702134403736
40
0.607278059284006
40
0.610853984164276
40
0.614429909044545
40
0.618005833924815
40
0.621581758805084
40
0.625157683685354
40
0.628733608565623
40
0.635885458326162
40
0.643037308086701
40
0.65018915784724
40
0.65376508272751
40
0.657341007607779
40
0.660916932488049
40
0.664492857368318
40
0.668068782248588
40
0.671644707128857
40
0.675220632009127
40
0.678796556889397
40
0.685948406649936
40
0.689524331530205
40
0.693100256410475
40
0.696676181290744
40
0.700252106171014
40
0.703828031051283
40
0.707403955931553
40
0.710979880811823
40
0.714555805692092
40
0.718131730572361
40
0.721707655452631
40
0.725283580332901
40
0.72885950521317
40
0.73243543009344
40
0.736011354973709
40
0.739587279853979
40
0.741375242294114
40
0.743163204734248
40
0.746739129614518
40
0.750315054494787
40
0.753890979375057
40
0.755678941815192
40
0.757466904255326
40
0.761042829135596
40
0.764618754015865
40
0.771770603776405
40
0.775346528656674
40
0.778922453536944
40
0.782498378417213
40
0.786074303297483
40
0.793226153058022
40
0.796802077938291
40
0.798590040378426
40
0.800378002818561
40
0.80395392769883
40
0.8075298525791
40
0.814681702339639
40
0.818257627219908
40
0.821833552100178
40
0.825409476980448
40
0.828985401860717
40
0.836137251621256
40
0.839713176501526
40
0.841501138941661
40
0.843289101381795
40
0.846865026262065
40
0.850440951142334
40
0.857592800902873
40
0.861168725783143
40
0.864744650663412
40
0.868320575543682
40
0.871896500423952
40
0.875472425304221
40
0.879048350184491
40
0.88262427506476
40
0.88620019994503
40
0.889776124825299
40
0.893352049705569
40
0.896927974585838
40
0.900503899466108
40
0.904079824346377
40
0.907655749226647
40
0.914807598987186
40
0.918383523867455
40
0.921959448747725
40
0.925535373627995
40
0.929111298508264
40
0.932687223388534
40
0.936263148268803
40
0.943414998029342
40
0.946990922909612
40
0.950566847789881
40
0.954142772670151
40
0.95771869755042
40
0.96487054731096
40
0.972022397071499
40
0.979174246832038
40
0.982750171712307
40
0.986326096592577
40
0.989902021472846
40
0.993477946353116
40
0.997053871233385
40
1
40
1
40
1
40
1
41
1
10
-2.19999999999999
20
-22.0135206520588
30
-1E-16
41
1
10
-2.19999999999999
20
-22.0117283815314
30
-1E-16
41
1
10
-2.19999999999999
20
-22.0069601721377
30
-1E-16
41
1
10
-2.19999999999999
20
-21.9968726399857
30
-1E-16
41
1
10
-2.19999999999999
20
-21.9830583809744
30
-1E-16
41
1
10
-2.19999999999999
20
-21.9661972037607
30
-1E-16
41
1
10
-2.19999999999999
20
-21.9463373508774
30
-1E-16
41
1
10
-2.19999999999999
20
-21.9235254752891
30
-1E-16
41
1
10
-2.19999999999999
20
-21.8978063777089
30
1E-16
41
1
10
-2.19999999999999
20
-21.8692221254414
30
1E-16
41
1
10
-2.19999999999999
20
-21.8378144981283
30
1E-16
41
1
10
-2.19999999999999
20
-21.7922265879071
30
0
41
1
10
-2.19999999999999
20
-21.7411389990572
30
0
41
1
10
-2.19999999999999
20
-21.6847072964973
30
0
41
1
10
-2.19999999999999
20
-21.6397397916631
30
0
41
1
10
-2.19999999999999
20
-21.5921615531195
30
0
41
1
10
-2.19999999999999
20
-21.5252891448141
30
0
41
1
10
-2.19999999999999
20
-21.4533087676779
30
1E-16
41
1
10
-2.19999999999999
20
-21.3763547664481
30
1E-16
41
1
10
-2.19999999999999
20
-21.3161704250344
30
1E-16
41
1
10
-2.19999999999999
20
-21.2535469320083
30
1E-16
41
1
10
-2.19999999999999
20
-21.1885090211437
30
-1E-16
41
1
10
-2.19999999999999
20
-21.1210800961781
30
-1E-16
41
1
10
-2.19999999999999
20
-21.0280237880878
30
-1E-16
41
1
10
-2.19999999999999
20
-20.9302657657864
30
-1E-16
41
1
10
-2.19999999999999
20
-20.82791883753
30
-1E-16
41
1
10
-2.19999999999999
20
-20.7488739108727
30
-1E-16
41
1
10
-2.19999999999999
20
-20.6675682022903
30
-1E-16
41
1
10
-2.19999999999999
20
-20.5840212474559
30
-1E-16
41
1
10
-2.19999999999999
20
-20.4982502752196
30
-1E-16
41
1
10
-2.19999999999999
20
-20.4102747220553
30
-1E-16
41
1
10
-2.19999999999999
20
-20.3201119082527
30
-1E-16
41
1
10
-2.19999999999999
20
-20.2277776697998
30
-1E-16
41
1
10
-2.19999999999999
20
-20.133289903145
30
-1E-16
41
1
10
-2.19999999999999
20
-20.0366640227898
30
-1E-16
41
1
10
-2.19999999999999
20
-19.9379146863563
30
-1E-16
41
1
10
-2.19999999999999
20
-19.8370589164793
30
-1E-16
41
1
10
-2.19999999999999
20
-19.7341104289282
30
-1E-16
41
1
10
-2.19999999999999
20
-19.5940785255289
30
-1E-16
41
1
10
-2.19999999999999
20
-19.4499005391959
30
-1E-16
41
1
10
-2.19999999999999
20
-19.3016611759423
30
-1E-16
41
1
10
-2.19999999999999
20
-19.1884526890887
30
-1E-16
41
1
10
-2.19999999999999
20
-19.0732305996174
30
-1E-16
41
1
10
-2.19999999999999
20
-18.9169371900015
30
-1E-16
41
1
10
-2.19999999999999
20
-18.7566457425986
30
-1E-16
41
1
10
-2.19999999999999
20
-18.5924361073221
30
-1E-16
41
1
10
-2.19999999999999
20
-18.4673177032107
30
-1E-16
41
1
10
-2.19999999999999
20
-18.3402522143585
30
-1E-16
41
1
10
-2.19999999999999
20
-18.1682547291306
30
-1E-16
41
1
10
-2.19999999999999
20
-17.9923842415009
30
-1E-16
41
1
10
-2.19999999999999
20
-17.8127154575359
30
-1E-16
41
1
10
-2.19999999999999
20
-17.676060438985
30
-1E-16
41
1
10
-2.19999999999999
20
-17.5375147595292
30
-1E-16
41
1
10
-2.19999999999999
20
-17.3502835148979
30
-1E-16
41
1
10
-2.19999999999999
20
-17.1592828976246
30
-1E-16
41
1
10
-2.19999999999999
20
-16.9645862898264
30
-1E-16
41
1
10
-2.19999999999999
20
-16.8167085043733
30
-1E-16
41
1
10
-2.19999999999999
20
-16.666987304737
30
-1E-16
41
1
10
-2.19999999999999
20
-16.4649171124643
30
-1E-16
41
1
10
-2.19999999999999
20
-16.2591647559547
30
-1E-16
41
1
10
-2.19999999999999
20
-16.0498023362736
30
-1E-16
41
1
10
-2.19999999999999
20
-15.8909649274654
30
-1E-16
41
1
10
-2.19999999999999
20
-15.7303232767805
30
-1E-16
41
1
10
-2.19999999999999
20
-15.513744330902
30
-1E-16
41
1
10
-2.19999999999999
20
-15.2935559429894
30
-1E-16
41
1
10
-2.19999999999999
20
-15.069828938707
30
-1E-16
41
1
10
-2.19999999999999
20
-14.8437340716545
30
-1E-16
41
1
10
-2.19999999999999
20
-14.61406817927
30
-1E-16
41
1
10
-2.19999999999999
20
-14.3809064511142
30
-1E-16
41
1
10
-2.19999999999999
20
-14.2042701267483
30
-1E-16
41
1
10
-2.19999999999999
20
-14.0258803815961
30
-1E-16
41
1
10
-2.19999999999999
20
-13.845742035678
30
-1E-16
41
1
10
-2.19999999999999
20
-13.6638579908945
30
-1E-16
41
1
10
-2.19999999999999
20
-13.4802328404438
30
-1E-16
41
1
10
-2.19999999999999
20
-13.2948705838035
30
-1E-16
41
1
10
-2.19999999999999
20
-13.1077737445537
30
-1E-16
41
1
10
-2.19999999999999
20
-12.9189467887917
30
-1E-16
41
1
10
-2.19999999999999
20
-12.7283927892775
30
-1E-16
41
1
10
-2.19999999999999
20
-12.5361142561418
30
-1E-16
41
1
10
-2.19999999999999
20
-12.277459839655
30
-1E-16
41
1
10
-2.19999999999999
20
-12.015335258712
30
-1E-16
41
1
10
-2.19999999999999
20
-11.7498207382014
30
-1E-16
41
1
10
-2.19999999999999
20
-11.5489655840494
30
-1E-16
41
1
10
-2.19999999999999
20
-11.3464032666245
30
-1E-16
41
1
10
-2.19999999999999
20
-11.1421359694817
30
-1E-16
41
1
10
-2.19999999999999
20
-10.9361655882296
30
-1E-16
41
1
10
-2.19999999999999
20
-10.7284951094206
30
-1E-16
41
1
10
-2.19999999999999
20
-10.5191258633122
30
-1E-16
41
1
10
-2.19999999999999
20
-10.2377183913447
30
-1E-16
41
1
10
-2.19999999999999
20
-9.88169305528194
30
-1E-16
41
1
10
-2.19999999999999
20
-9.44771866001565
30
-1E-16
41
1
10
-2.19999999999999
20
-9.08043846702645
30
-1E-16
41
1
10
-2.19999999999999
20
-8.78327691067398
30
-1E-16
41
1
10
-2.19999999999999
20
-8.55871423477029
30
-1E-16
41
1
10
-2.19999999999999
20
-8.33247384441506
30
-1E-16
41
1
10
-2.19999999999999
20
-8.10455846042146
30
-1E-16
41
1
10
-2.19999999999999
20
-7.87497052861914
30
-1E-16
41
1
10
-2.19999999999999
20
-7.64371312168015
30
-1E-16
41
1
10
-2.19999999999999
20
-7.41078904293681
30
-1E-16
41
1
10
-2.19999999999999
20
-7.17620223308296
30
-1E-16
41
1
10
-2.19999999999999
20
-6.93995689241024
30
-1E-16
41
1
10
-2.19999999999999
20
-6.70205756880287
30
-1E-16
41
1
10
-2.19999999999999
20
-6.46250917346816
30
-1E-16
41
1
10
-2.19999999999999
20
-6.22131783489101
30
-1E-16
41
1
10
-2.19999999999999
20
-5.97849051253721
30
-1E-16
41
1
10
-2.19999999999999
20
-5.73403522651989
30
-1E-16
41
1
10
-2.19999999999999
20
-5.48796106514416
30
-1E-16
41
1
10
-2.19999999999999
20
-5.24027911954084
30
-1E-16
41
1
10
-2.19999999999999
20
-5.03253662624778
30
-1E-16
41
1
10
-2.19999999999999
20
-4.86557359653659
30
-1E-16
41
1
10
-2.19999999999999
20
-4.73994907984499
30
-1E-16
41
1
10
-2.19999999999999
20
-4.61393371339872
30
-1E-16
41
1
10
-2.19999999999999
20
-4.44540775759583
30
-1E-16
41
1
10
-2.19999999999999
20
-4.23375654375474
30
-1E-16
41
1
10
-2.19999999999999
20
-4.020839617489
30
-1E-16
41
1
10
-2.19999999999999
20
-3.84978439330678
30
-1E-16
41
1
10
-2.19999999999999
20
-3.72111343644576
30
-1E-16
41
1
10
-2.19999999999999
20
-3.59207750684843
30
-1E-16
41
1
10
-2.19999999999999
20
-3.41956370437865
30
-1E-16
41
1
10
-2.19999999999999
20
-3.24629481975686
30
-1E-16
41
1
10
-2.19999999999999
20
-3.072383622975
30
-1E-16
41
1
10
-2.19999999999999
20
-2.94160047796311
30
-1E-16
41
1
10
-2.19999999999999
20
-2.81048648769612
30
-1E-16
41
1
10
-2.19999999999999
20
-2.67904893291683
30
-1E-16
41
1
10
-2.19999999999999
20
-2.54729563151926
30
-1E-16
41
1
10
-2.19999999999999
20
-2.41523552035437
30
-1E-16
41
1
10
-2.19999999999999
20
-2.28287741514001
30
-1E-16
41
1
10
-2.19999999999999
20
-2.15023167925048
30
-1E-16
41
1
10
-2.19999999999999
20
-2.01730874020455
30
-1E-16
41
1
10
-2.19999999999999
20
-1.88412021847037
30
-1E-16
41
1
10
-2.19999999999999
20
-1.75067843002711
30
-1E-16
41
1
10
-2.19999999999999
20
-1.61699635855226
30
-1E-16
41
1
10
-2.19999999999999
20
-1.48308822685564
30
-1E-16
41
1
10
-2.19999999999999
20
-1.34896860046499
30
-1E-16
41
1
10
-2.19999999999999
20
-1.21465351395383
30
-1E-16
41
1
10
-2.19999999999999
20
-1.08015922751395
30
-1E-16
41
1
10
-2.19999999999999
20
-0.945503451789534
30
-1E-16
41
1
10
-2.19999999999999
20
-0.810704122044939
30
-1E-16
41
1
10
-2.19999999999999
20
-0.675780432522174
30
-1E-16
41
1
10
-2.19999999999999
20
-0.540751798686529
30
-1E-16
41
1
10
-2.19999999999999
20
-0.405638608907907
30
-1E-16
41
1
10
-2.19999999999999
20
-0.270461437853925
30
-1E-16
41
1
10
-2.19999999999999
20
-0.135241472589996
30
-1E-16
41
1
10
-2.19999999999999
20
-5.3654787E-09
30
-1E-16
41
1
10
-2.19999999999999
20
0.135241462279822
30
-1E-16
41
1
10
-2.19999999999999
20
0.270461428271432
30
-1E-16
41
1
10
-2.19999999999999
20
0.405638599098921
30
-1E-16
41
1
10
-2.19999999999999
20
0.540751787789588
30
-1E-16
41
1
10
-2.19999999999999
20
0.675780421912322
30
-1E-16
41
1
10
-2.19999999999999
20
0.810704113119073
30
-1E-16
41
1
10
-2.19999999999999
20
0.945503442662783
30
-1E-16
41
1
10
-2.19999999999999
20
1.0801592162689
30
-1E-16
41
1
10
-2.19999999999999
20
1.21465350310541
30
-1E-16
41
1
10
-2.19999999999999
20
1.34896859254377
30
-1E-16
41
1
10
-2.19999999999999
20
1.48308821885627
30
-1E-16
41
1
10
-2.19999999999999
20
1.61699634722072
30
-1E-16
41
1
10
-2.19999999999999
20
1.75067841854351
30
-1E-16
41
1
10
-2.19999999999999
20
1.88412021099791
30
-1E-16
41
1
10
-2.19999999999999
20
2.01730873413072
30
-1E-16
41
1
10
-2.19999999999999
20
2.15023166945255
30
-1E-16
41
1
10
-2.19999999999999
20
2.28287740252156
30
-1E-16
41
1
10
-2.19999999999999
20
2.41523551097489
30
-1E-16
41
1
10
-2.19999999999999
20
2.54729562722176
30
-1E-16
41
1
10
-2.19999999999999
20
2.67904892732182
30
-1E-16
41
1
10
-2.19999999999999
20
2.81048647644627
30
-1E-16
41
1
10
-2.19999999999999
20
2.94160046512798
30
-1E-16
41
1
10
-2.19999999999999
20
3.0723836150739
30
-1E-16
41
1
10
-2.19999999999999
20
3.24629481959221
30
-1E-16
41
1
10
-2.19999999999999
20
3.41956369464535
30
-1E-16
41
1
10
-2.19999999999999
20
3.59207749308624
30
-1E-16
41
1
10
-2.19999999999999
20
3.72111342731068
30
-1E-16
41
1
10
-2.19999999999999
20
3.84978439152417
30
-1E-16
41
1
10
-2.19999999999999
20
4.02083961713782
30
-1E-16
41
1
10
-2.19999999999999
20
4.23375652596863
30
-1E-16
41
1
10
-2.19999999999999
20
4.44540774959788
30
-1E-16
41
1
10
-2.19999999999999
20
4.61393371339017
30
-1E-16
41
1
10
-2.19999999999999
20
4.73994908127321
30
-1E-16
41
1
10
-2.19999999999999
20
4.86557359122418
30
-1E-16
41
1
10
-2.19999999999999
20
5.03253661023487
30
-1E-16
41
1
10
-2.19999999999999
20
5.24027911118978
30
-1E-16
41
1
10
-2.19999999999999
20
5.48796107357256
30
-1E-16
41
1
10
-2.19999999999999
20
5.73403521575827
30
-1E-16
41
1
10
-2.19999999999999
20
5.97849049576266
30
-1E-16
41
1
10
-2.19999999999999
20
6.2213178400012
30
-1E-16
41
1
10
-2.19999999999999
20
6.46250918569618
30
-1E-16
41
1
10
-2.19999999999999
20
6.70205758660663
30
-1E-16
41
1
10
-2.19999999999999
20
6.93995692090419
30
-1E-16
41
1
10
-2.19999999999999
20
7.17620220160032
30
-1E-16
41
1
10
-2.19999999999999
20
7.41078884464241
30
-1E-16
41
1
10
-2.19999999999999
20
7.6437128367312
30
-1E-16
41
1
10
-2.19999999999999
20
7.87497060194644
30
-1E-16
41
1
10
-2.19999999999999
20
8.10455852701506
30
-1E-16
41
1
10
-2.19999999999999
20
8.33247380011301
30
-1E-16
41
1
10
-2.19999999999999
20
8.55871419535617
30
-1E-16
41
1
10
-2.19999999999999
20
8.78327689677775
30
-1E-16
41
1
10
-2.19999999999999
20
9.08043848955603
30
-1E-16
41
1
10
-2.19999999999999
20
9.44771865839311
30
-1E-16
41
1
10
-2.19999999999999
20
9.88169304970987
30
-1E-16
41
1
10
-2.19999999999999
20
10.2377184130835
30
-1E-16
41
1
10
-2.19999999999999
20
10.5191258614377
30
-1E-16
41
1
10
-2.19999999999999
20
10.7284950970913
30
-1E-16
41
1
10
-2.19999999999999
20
10.9361655879759
30
-1E-16
41
1
10
-2.19999999999999
20
11.1421359853758
30
-1E-16
41
1
10
-2.19999999999999
20
11.3464032807099
30
-1E-16
41
1
10
-2.19999999999999
20
11.5489655826483
30
-1E-16
41
1
10
-2.19999999999999
20
11.7498207258852
30
-1E-16
41
1
10
-2.19999999999999
20
12.0153352592314
30
-1E-16
41
1
10
-2.19999999999999
20
12.2774598592137
30
-1E-16
41
1
10
-2.19999999999999
20
12.5361142588231
30
-1E-16
41
1
10
-2.19999999999999
20
12.728392778749
30
-1E-16
41
1
10
-2.19999999999999
20
12.9189467805057
30
-1E-16
41
1
10
-2.19999999999999
20
13.1077737485311
30
-1E-16
41
1
10
-2.19999999999999
20
13.2948705974071
30
-1E-16
41
1
10
-2.19999999999999
20
13.4802328481714
30
-1E-16
41
1
10
-2.19999999999999
20
13.6638579861817
30
-1E-16
41
1
10
-2.19999999999999
20
13.8457420253844
30
-1E-16
41
1
10
-2.19999999999999
20
14.0258803741545
30
-1E-16
41
1
10
-2.19999999999999
20
14.2042700822291
30
-1E-16
41
1
10
-2.19999999999999
20
14.3809062427341
30
-1E-16
41
1
10
-2.19999999999999
20
14.5557843226631
30
-1E-16
41
1
10
-2.19999999999999
20
14.7289012367181
30
-1E-16
41
1
10
-2.19999999999999
20
14.90025131083
30
-1E-16
41
1
10
-2.19999999999999
20
15.0415708470876
30
-1E-16
41
1
10
-2.19999999999999
20
15.1537302031574
30
-1E-16
41
1
10
-2.19999999999999
20
15.2652965264295
30
-1E-16
41
1
10
-2.19999999999999
20
15.4036502143979
30
-1E-16
41
1
10
-2.19999999999999
20
15.567882396309
30
-1E-16
41
1
10
-2.19999999999999
20
15.7032538676567
30
-1E-16
41
1
10
-2.19999999999999
20
15.8106442286412
30
-1E-16
41
1
10
-2.19999999999999
20
15.9174340084588
30
-1E-16
41
1
10
-2.19999999999999
20
16.049802831716
30
-1E-16
41
1
10
-2.19999999999999
20
16.2591646002876
30
-1E-16
41
1
10
-2.19999999999999
20
16.4649164953067
30
-1E-16
41
1
10
-2.19999999999999
20
16.6669871400996
30
-1E-16
41
1
10
-2.19999999999999
20
16.8167088060477
30
-1E-16
41
1
10
-2.19999999999999
20
16.9645867974536
30
-1E-16
41
1
10
-2.19999999999999
20
17.1592829447589
30
-1E-16
41
1
10
-2.19999999999999
20
17.3502824417036
30
-1E-16
41
1
10
-2.19999999999999
20
17.5141131161323
30
-1E-16
41
1
10
-2.19999999999999
20
17.606787767091
30
-1E-16
41
1
10
-2.19999999999999
20
17.6988333809735
30
-1E-16
41
1
10
-2.19999999999999
20
17.8127164551587
30
-1E-16
41
1
10
-2.19999999999999
20
17.9923842356821
30
-1E-16
41
1
10
-2.19999999999999
20
18.1682545122203
30
-1E-16
41
1
10
-2.19999999999999
20
18.3402521463352
30
-1E-16
41
1
10
-2.19999999999999
20
18.4673177976698
30
-1E-16
41
1
10
-2.19999999999999
20
18.5924362845557
30
-1E-16
41
1
10
-2.19999999999999
20
18.756645794641
30
-1E-16
41
1
10
-2.19999999999999
20
18.9169360704622
30
-1E-16
41
1
10
-2.19999999999999
20
19.0536957086557
30
-1E-16
41
1
10
-2.19999999999999
20
19.1308417758755
30
-1E-16
41
1
10
-2.19999999999999
20
19.2073184270571
30
-1E-16
41
1
10
-2.19999999999999
20
19.3016622310533
30
-1E-16
41
1
10
-2.19999999999999
20
19.4499005336558
30
-1E-16
41
1
10
-2.19999999999999
20
19.5940778412012
30
-1E-16
41
1
10
-2.19999999999999
20
19.7341102362335
30
-1E-16
41
1
10
-2.19999999999999
20
19.8370591957147
30
-1E-16
41
1
10
-2.19999999999999
20
19.9379151599299
30
-1E-16
41
1
10
-2.19999999999999
20
20.0366642357894
30
-1E-16
41
1
10
-2.19999999999999
20
20.1332899477274
30
-1E-16
41
1
10
-2.19999999999999
20
20.2277776663919
30
-1E-16
41
1
10
-2.19999999999999
20
20.3201119071544
30
-1E-16
41
1
10
-2.19999999999999
20
20.4102747128949
30
-1E-16
41
1
10
-2.19999999999999
20
20.4982502525025
30
-1E-16
41
1
10
-2.19999999999999
20
20.5840212184218
30
-1E-16
41
1
10
-2.19999999999999
20
20.6675681841826
30
-1E-16
41
1
10
-2.19999999999999
20
20.7488739070252
30
-1E-16
41
1
10
-2.19999999999999
20
20.8279188369072
30
-1E-16
41
1
10
-2.19999999999999
20
20.9302657445266
30
-1E-16
41
1
10
-2.19999999999999
20
21.0280237507364
30
-1E-16
41
1
10
-2.19999999999999
20
21.121080083473
30
-1E-16
41
1
10
-2.19999999999999
20
21.1885090229233
30
-1E-16
41
1
10
-2.19999999999999
20
21.2535469243879
30
1E-16
41
1
10
-2.19999999999999
20
21.3161703964091
30
1E-16
41
1
10
-2.19999999999999
20
21.3763547276269
30
1E-16
41
1
10
-2.19999999999999
20
21.453308753177
30
1E-16
41
1
10
-2.19999999999999
20
21.5252891523049
30
0
41
1
10
-2.19999999999999
20
21.5921615264853
30
0
41
1
10
-2.19999999999999
20
21.6397397481888
30
0
41
1
10
-2.19999999999999
20
21.6847072709128
30
0
41
1
10
-2.19999999999999
20
21.7411390111089
30
0
41
1
10
-2.19999999999999
20
21.8049949078793
30
1E-16
41
1
10
-2.19999999999999
20
21.870633664349
30
1E-16
41
1
10
-2.19999999999999
20
21.9159230944434
30
1E-16
41
1
10
-2.19999999999999
20
21.9463373083127
30
-1E-16
41
1
10
-2.19999999999999
20
21.9661971621578
30
-1E-16
41
1
10
-2.19999999999999
20
21.9830583750197
30
-1E-16
41
1
10
-2.19999999999999
20
21.9968726461305
30
-1E-16
41
1
10
-2.19999999999996
20
22.0069595112738
30
-1E-16
41
1
10
-2.19999999999999
20
22.0117273472698
30
-1E-16
41
1
10
-2.20000000000002
20
22.0135193490595
30
-1E-16
0
SPLINE
5
C9
100
AcDbEntity
8
SK1
62
256
6
ByLayer
370
13
48
1
60
0
100
AcDbSpline
70
4
71
3
72
299
73
295
40
0
40
0
40
0
40
0
40
0.0032923429481151
40
0.0068150701373185
40
0.0103377973265219
40
0.0138605245157253
40
0.0173832517049287
40
0.0209059788941322
40
0.0244287060833356
40
0.027951433272539
40
0.0314741604617424
40
0.0349968876509459
40
0.0385196148401493
40
0.0420423420293527
40
0.0490877964077595
40
0.052610523596963
40
0.0561332507861664
40
0.0596559779753698
40
0.0631787051645732
40
0.0702241595429801
40
0.0737468867321835
40
0.0772696139213869
40
0.0807923411105903
40
0.0843150682997938
40
0.0878377954889972
40
0.0913605226782006
40
0.0984059770566074
40
0.101928704245811
40
0.105451431435014
40
0.108974158624218
40
0.112496885813421
40
0.116019613002625
40
0.119542340191828
40
0.123065067381031
40
0.126587794570235
40
0.130110521759438
40
0.133633248948642
40
0.137155976137845
40
0.140678703327048
40
0.144201430516252
40
0.147724157705455
40
0.154769612083862
40
0.158292339273066
40
0.161815066462269
40
0.165337793651472
40
0.168860520840676
40
0.175905975219083
40
0.179428702408286
40
0.18295142959749
40
0.186474156786693
40
0.189996883975896
40
0.197042338354303
40
0.200565065543507
40
0.20408779273271
40
0.207610519921914
40
0.211133247111117
40
0.218178701489524
40
0.221701428678727
40
0.225224155867931
40
0.228746883057134
40
0.232269610246337
40
0.239315064624744
40
0.242837791813948
40
0.246360519003151
40
0.249883246192354
40
0.253405973381558
40
0.260451427759965
40
0.263974154949168
40
0.267496882138372
40
0.274542336516779
40
0.278065063705982
40
0.281587790895185
40
0.285110518084389
40
0.288633245273592
40
0.292155972462796
40
0.295678699651999
40
0.299201426841202
40
0.302724154030406
40
0.306246881219609
40
0.309769608408813
40
0.313292335598016
40
0.316815062787219
40
0.323860517165626
40
0.32738324435483
40
0.330905971544033
40
0.334428698733237
40
0.33795142592244
40
0.341474153111643
40
0.344996880300847
40
0.34851960749005
40
0.352042334679254
40
0.359087789057661
40
0.366133243436067
40
0.373178697814474
40
0.376701425003678
40
0.380224152192881
40
0.383746879382085
40
0.387269606571288
40
0.390792333760491
40
0.394315060949695
40
0.397837788138898
40
0.401360515328102
40
0.404883242517305
40
0.408405969706508
40
0.411928696895712
40
0.415451424084915
40
0.418974151274119
40
0.422496878463322
40
0.426019605652526
40
0.429542332841729
40
0.433065060030932
40
0.434826423625534
40
0.436587787220136
40
0.438349150814738
40
0.440110514409339
40
0.443633241598543
40
0.447155968787746
40
0.448917332382348
40
0.450678695976949
40
0.452440059571551
40
0.454201423166153
40
0.457724150355356
40
0.459485513949958
40
0.46124687754456
40
0.463008241139161
40
0.464769604733763
40
0.466530968328365
40
0.468292331922967
40
0.470053695517568
40
0.47181505911217
40
0.473576422706772
40
0.475337786301374
40
0.477099149895975
40
0.478860513490577
40
0.480621877085179
40
0.48238324067978
40
0.484144604274382
40
0.485905967868984
40
0.487667331463585
40
0.489428695058187
40
0.491190058652789
40
0.492951422247391
40
0.494712785841992
40
0.496474149436594
40
0.498235513031196
40
0.499996876625797
40
0.501758240220399
40
0.503519603815001
40
0.505280967409603
40
0.507042331004204
40
0.508803694598806
40
0.510565058193408
40
0.512326421788009
40
0.514087785382611
40
0.515849148977213
40
0.517610512571815
40
0.519371876166416
40
0.521133239761018
40
0.52289460335562
40
0.524655966950221
40
0.526417330544823
40
0.528178694139425
40
0.529940057734026
40
0.531701421328628
40
0.53346278492323
40
0.535224148517832
40
0.536985512112433
40
0.538746875707035
40
0.540508239301637
40
0.542269602896238
40
0.545792330085442
40
0.547553693680044
40
0.549315057274645
40
0.551076420869247
40
0.552837784463849
40
0.556360511653052
40
0.559883238842256
40
0.561644602436857
40
0.563405966031459
40
0.565167329626061
40
0.566928693220662
40
0.570451420409866
40
0.573974147599069
40
0.577496874788273
40
0.581019601977476
40
0.584542329166679
40
0.588065056355883
40
0.591587783545086
40
0.59511051073429
40
0.598633237923493
40
0.602155965112697
40
0.6056786923019
40
0.609201419491103
40
0.612724146680307
40
0.61624687386951
40
0.619769601058714
40
0.623292328247917
40
0.626815055437121
40
0.633860509815527
40
0.640905964193934
40
0.647951418572341
40
0.651474145761545
40
0.654996872950748
40
0.658519600139951
40
0.662042327329155
40
0.665565054518358
40
0.669087781707562
40
0.672610508896765
40
0.676133236085968
40
0.683178690464375
40
0.686701417653579
40
0.690224144842782
40
0.693746872031985
40
0.697269599221189
40
0.700792326410392
40
0.704315053599596
40
0.707837780788799
40
0.711360507978003
40
0.714883235167206
40
0.718405962356409
40
0.721928689545613
40
0.725451416734816
40
0.72897414392402
40
0.732496871113223
40
0.736019598302427
40
0.737780961897028
40
0.73954232549163
40
0.743065052680833
40
0.746587779870037
40
0.75011050705924
40
0.751871870653842
40
0.753633234248444
40
0.757155961437647
40
0.760678688626851
40
0.767724143005257
40
0.771246870194461
40
0.774769597383664
40
0.778292324572868
40
0.781815051762071
40
0.788860506140478
40
0.792383233329681
40
0.794144596924283
40
0.795905960518885
40
0.799428687708088
40
0.802951414897292
40
0.809996869275698
40
0.813519596464902
40
0.817042323654105
40
0.820565050843309
40
0.824087778032512
40
0.831133232410919
40
0.834655959600122
40
0.836417323194724
40
0.838178686789326
40
0.841701413978529
40
0.845224141167733
40
0.852269595546139
40
0.855792322735343
40
0.859315049924546
40
0.86283777711375
40
0.866360504302953
40
0.869883231492157
40
0.87340595868136
40
0.876928685870563
40
0.880451413059767
40
0.88397414024897
40
0.887496867438174
40
0.891019594627377
40
0.894542321816581
40
0.898065049005784
40
0.901587776194987
40
0.908633230573394
40
0.912155957762598
40
0.915678684951801
40
0.919201412141004
40
0.922724139330208
40
0.926246866519411
40
0.929769593708615
40
0.936815048087022
40
0.940337775276225
40
0.943860502465428
40
0.947383229654632
40
0.950905956843835
40
0.957951411222242
40
0.964996865600649
40
0.972042319979056
40
0.975565047168259
40
0.979087774357463
40
0.982610501546666
40
0.98613322873587
40
0.989655955925073
40
0.993178683114276
40
0.99670141030348
40
1
40
1
40
1
40
1
41
1
10
-1.99503997793928
20
-21.8251674703526
30
-1E-16
41
1
10
-1.99503997793928
20
-21.8252765182795
30
-1E-16
41
1
10
-1.99503997793928
20
-21.8245098330811
30
-1E-16
41
1
10
-1.99503997793928
20
-21.8202838734724
30
-1E-16
41
1
10
-1.99503997793928
20
-21.8127830851058
30
-1E-16
41
1
10
-1.99503997793928
20
-21.8021565310045
30
-1E-16
41
1
10
-1.99503997793928
20
-21.7884557380592
30
-1E-16
41
1
10
-1.99503997793928
20
-21.7717309018817
30
-1E-16
41
1
10
-1.99503997793928
20
-21.7520292420694
30
-1E-16
41
1
10
-1.99503997793928
20
-21.7293964429163
30
-1E-16
41
1
10
-1.99503997793928
20
-21.7038764495607
30
1E-16
41
1
10
-1.99503997793928
20
-21.6755105092645
30
1E-16
41
1
10
-1.99503997793928
20
-21.6443396610233
30
1E-16
41
1
10
-1.99503997793928
20
-21.5990695510926
30
0
41
1
10
-1.99503997793928
20
-21.5484022410126
30
0
41
1
10
-1.99503997793928
20
-21.4923513092323
30
0
41
1
10
-1.99503997793928
20
-21.4477036445725
30
0
41
1
10
-1.99503997793928
20
-21.4004603045828
30
0
41
1
10
-1.99503997793928
20
-21.3340243512753
30
0
41
1
10
-1.99503997793928
20
-21.262600218376
30
0
41
1
10
-1.99503997793928
20
-21.1861355753666
30
1E-16
41
1
10
-1.99503997793928
20
-21.1263556466612
30
1E-16
41
1
10
-1.99503997793928
20
-21.064149408511
30
1E-16
41
1
10
-1.99503997793928
20
-20.9995415068112
30
-1E-16
41
1
10
-1.99503997793928
20
-20.9325549572362
30
-1E-16
41
1
10
-1.99503997793928
20
-20.8400664428987
30
-1E-16
41
1
10
-1.99503997793928
20
-20.7430172190698
30
-1E-16
41
1
10
-1.99503997793928
20
-20.6412830627252
30
-1E-16
41
1
10
-1.99503997793928
20
-20.5627395868944
30
-1E-16
41
1
10
-1.99503997793928
20
-20.4819464863244
30
-1E-16
41
1
10
-1.99503997793928
20
-20.398923430088
30
-1E-16
41
1
10
-1.99503997793928
20
-20.3136874196731
30
-1E-16
41
1
10
-1.99503997793928
20
-20.2262576202058
30
-1E-16
41
1
10
-1.99503997793928
20
-20.1366515718167
30
-1E-16
41
1
10
-1.99503997793928
20
-20.0448848362119
30
-1E-16
41
1
10
-1.99503997793928
20
-19.9509751416388
30
-1E-16
41
1
10
-1.99503997793928
20
-19.8549381550126
30
-1E-16
41
1
10
-1.99503997793928
20
-19.7567881415466
30
-1E-16
41
1
10
-1.99503997793928
20
-19.6565420567613
30
-1E-16
41
1
10
-1.99503997793928
20
-19.5542140249085
30
-1E-16
41
1
10
-1.99503997793928
20
-19.414970513124
30
-1E-16
41
1
10
-1.99503997793928
20
-19.2717625055688
30
-1E-16
41
1
10
-1.99503997793928
20
-19.1243510467918
30
-1E-16
41
1
10
-1.99503997793928
20
-19.0118150097952
30
-1E-16
41
1
10
-1.99503997793928
20
-18.8972761707097
30
-1E-16
41
1
10
-1.99503997793928
20
-18.7418497326446
30
-1E-16
41
1
10
-1.99503997793928
20
-18.5826226298873
30
-1E-16
41
1
10
-1.99503997793928
20
-18.4193198181252
30
-1E-16
41
1
10
-1.99503997793928
20
-18.2949373683468
30
-1E-16
41
1
10
-1.99503997793928
20
-18.1686188521771
30
-1E-16
41
1
10
-1.99503997793928
20
-17.9975683374733
30
-1E-16
41
1
10
-1.99503997793928
20
-17.8228590748674
30
-1E-16
41
1
10
-1.99503997793928
20
-17.6441786252734
30
-1E-16
41
1
10
-1.99503997793928
20
-17.5083251903719
30
-1E-16
41
1
10
-1.99503997793928
20
-17.3705928023913
30
-1E-16
41
1
10
-1.99503997793928
20
-17.1843924611907
30
-1E-16
41
1
10
-1.99503997793928
20
-16.9946550481209
30
-1E-16
41
1
10
-1.99503997793928
20
-16.8010329188422
30
-1E-16
41
1
10
-1.99503997793928
20
-16.6540265683948
30
-1E-16
41
1
10
-1.99503997793928
20
-16.5051894037979
30
-1E-16
41
1
10
-1.99503997793928
20
-16.3042398246232
30
-1E-16
41
1
10
-1.99503997793928
20
-16.0998603532658
30
-1E-16
41
1
10
-1.99503997793928
20
-15.8916657661057
30
-1E-16
41
1
10
-1.99503997793928
20
-15.733775855726
30
-1E-16
41
1
10
-1.99503997793928
20
-15.574095422854
30
-1E-16
41
1
10
-1.99503997793928
20
-15.3587351142266
30
-1E-16
41
1
10
-1.99503997793928
20
-15.1400402265273
30
-1E-16
41
1
10
-1.99503997793928
20
-14.9175842595472
30
-1E-16
41
1
10
-1.99503997793928
20
-14.6927797943809
30
-1E-16
41
1
10
-1.99503997793928
20
-14.4646959102749
30
-1E-16
41
1
10
-1.99503997793928
20
-14.2328810143213
30
-1E-16
41
1
10
-1.99503997793928
20
-14.0573389921213
30
-1E-16
41
1
10
-1.99503997793928
20
-13.8800597145162
30
-1E-16
41
1
10
-1.99503997793928
20
-13.7010488212408
30
-1E-16
41
1
10
-1.99503997793928
20
-13.520309646993
30
-1E-16
41
1
10
-1.99503997793928
20
-13.3378467396349
30
-1E-16
41
1
10
-1.99503997793928
20
-13.1536651432542
30
-1E-16
41
1
10
-1.99503997793928
20
-12.9677676529033
30
-1E-16
41
1
10
-1.99503997793928
20
-12.7801589212449
30
-1E-16
41
1
10
-1.99503997793928
20
-12.5908431584255
30
-1E-16
41
1
10
-1.99503997793928
20
-12.3998230071702
30
-1E-16
41
1
10
-1.99503997793928
20
-12.1427687977971
30
-1E-16
41
1
10
-1.99503997793928
20
-11.8826118620781
30
-1E-16
41
1
10
-1.99503997793928
20
-11.6187779427602
30
-1E-16
41
1
10
-1.99503997793928
20
-11.4192921870092
30
-1E-16
41
1
10
-1.99503997793928
20
-11.2181233670389
30
-1E-16
41
1
10
-1.99503997793928
20
-11.0152749978462
30
-1E-16
41
1
10
-1.99503997793928
20
-10.8107494592904
30
-1E-16
41
1
10
-1.99503997793928
20
-10.6045508126063
30
-1E-16
41
1
10
-1.99503997793928
20
-10.3966814549587
30
-1E-16
41
1
10
-1.99503997793928
20
-10.1171869828061
30
-1E-16
41
1
10
-1.99503997793928
20
-9.76392165975841
30
-1E-16
41
1
10
-1.99503997793928
20
-9.33322609823665
30
-1E-16
41
1
10
-1.99503997793928
20
-8.96893239301764
30
-1E-16
41
1
10
-1.99503997793928
20
-8.67397577159846
30
-1E-16
41
1
10
-1.99503997793928
20
-8.4512197921853
30
-1E-16
41
1
10
-1.99503997793928
20
-8.22682785520686
30
-1E-16
41
1
10
-1.99503997793928
20
-8.00080468509063
30
-1E-16
41
1
10
-1.99503997793928
20
-7.77315487290267
30
-1E-16
41
1
10
-1.99503997793928
20
-7.54388383469134
30
-1E-16
41
1
10
-1.99503997793928
20
-7.31299670603016
30
-1E-16
41
1
10
-1.99503997793928
20
-7.08049963775395
30
-1E-16
41
1
10
-1.99503997793928
20
-6.84639976314463
30
-1E-16
41
1
10
-1.99503997793928
20
-6.61070492919379
30
-1E-16
41
1
10
-1.99503997793928
20
-6.37342317953835
30
-1E-16
41
1
10
-1.99503997793928
20
-6.13456381441384
30
-1E-16
41
1
10
-1.99503997793928
20
-5.89413750153935
30
-1E-16
41
1
10
-1.99503997793928
20
-5.65215640891225
30
-1E-16
41
1
10
-1.99503997793928
20
-5.40863364784667
30
-1E-16
41
1
10
-1.99503997793928
20
-5.16358497720142
30
-1E-16
41
1
10
-1.99503997793928
20
-4.95821801342223
30
-1E-16
41
1
10
-1.99503997793928
20
-4.79299519854527
30
-1E-16
41
1
10
-1.99503997793928
20
-4.66878844332788
30
-1E-16
41
1
10
-1.99503997793928
20
-4.54421502107886
30
-1E-16
41
1
10
-1.99503997793928
20
-4.37752560184694
30
-1E-16
41
1
10
-1.99503997793928
20
-4.16851549788919
30
-1E-16
41
1
10
-1.99503997793928
20
-3.95832365779984
30
-1E-16
41
1
10
-1.99503997793928
20
-3.78926935085312
30
-1E-16
41
1
10
-1.99503997793928
20
-3.66223140396673
30
-1E-16
41
1
10
-1.99503997793928
20
-3.53485872835634
30
-1E-16
41
1
10
-1.99503997793928
20
-3.36446606295527
30
-1E-16
41
1
10
-1.99503997793928
20
-3.19381066067948
30
-1E-16
41
1
10
-1.99503997793928
20
-3.02213556164864
30
-1E-16
41
1
10
-1.99503997793928
20
-2.89317847799558
30
-1E-16
41
1
10
-1.99503997793928
20
-2.76392444618182
30
-1E-16
41
1
10
-1.99503997793928
20
-2.63438254221708
30
-1E-16
41
1
10
-1.99503997793928
20
-2.50455989433328
30
-1E-16
41
1
10
-1.99503997793928
20
-2.37446635053539
30
-1E-16
41
1
10
-1.99503997793928
20
-2.24411116714702
30
-1E-16
41
1
10
-1.99503997793928
20
-2.11350400419804
30
-1E-16
41
1
10
-1.99503997793928
20
-1.98265628188182
30
-1E-16
41
1
10
-1.99503997793928
20
-1.85157817419838
30
-1E-16
41
1
10
-1.99503997793928
20
-1.72028261530932
30
-1E-16
41
1
10
-1.99503997793928
20
-1.58878099035152
30
-1E-16
41
1
10
-1.99503997793928
20
-1.45708720896539
30
-1E-16
41
1
10
-1.99503997793928
20
-1.32521410103647
30
-1E-16
41
1
10
-1.99503997793928
20
-1.1931764657121
30
-1E-16
41
1
10
-1.99503997793928
20
-1.06098853158755
30
-1E-16
41
1
10
-1.99503997793928
20
-0.92866594303203
30
-1E-16
41
1
10
-1.99503997793928
20
-0.796224050825089
30
-1E-16
41
1
10
-1.99503997793928
20
-0.663679323049081
30
-1E-16
41
1
10
-1.99503997793928
20
-0.531048037421954
30
-1E-16
41
1
10
-1.99503997793928
20
-0.398347307093388
30
-1E-16
41
1
10
-1.99503997793928
20
-0.265594069601519
30
-1E-16
41
1
10
-1.99503997793928
20
-0.132805835966792
30
-1E-16
41
1
10
-1.99503997793928
20
-2.0604887E-09
30
-1E-16
41
1
10
-1.99503997793928
20
0.132805828560237
30
-1E-16
41
1
10
-1.99503997793928
20
0.265594055935196
30
-1E-16
41
1
10
-1.99503997793928
20
0.398347293868937
30
-1E-16
41
1
10
-1.99503997793928
20
0.531048033506266
30
-1E-16
41
1
10
-1.99503997793928
20
0.663679321648374
30
-1E-16
41
1
10
-1.99503997793928
20
0.796224037396229
30
-1E-16
41
1
10
-1.99503997793928
20
0.928665923975672
30
-1E-16
41
1
10
-1.99503997793928
20
1.06098852682439
30
-1E-16
41
1
10
-1.99503997793928
20
1.19317647053177
30
-1E-16
41
1
10
-1.99503997793928
20
1.32521409071333
30
-1E-16
41
1
10
-1.99503997793928
20
1.45708718468359
30
-1E-16
41
1
10
-1.99503997793928
20
1.58878098022359
30
-1E-16
41
1
10
-1.99503997793928
20
1.72028262405345
30
-1E-16
41
1
10
-1.99503997793928
20
1.85157817347522
30
-1E-16
41
1
10
-1.99503997793928
20
1.98265625862297
30
-1E-16
41
1
10
-1.99503997793928
20
2.11350398186613
30
-1E-16
41
1
10
-1.99503997793928
20
2.24411116870439
30
-1E-16
41
1
10
-1.99503997793928
20
2.37446636334928
30
-1E-16
41
1
10
-1.99503997793928
20
2.50455988721876
30
-1E-16
41
1
10
-1.99503997793928
20
2.63438251344519
30
-1E-16
41
1
10
-1.99503997793928
20
2.76392442628162
30
-1E-16
41
1
10
-1.99503997793928
20
2.8931784837302
30
-1E-16
41
1
10
-1.99503997793928
20
3.02213557666008
30
-1E-16
41
1
10
-1.99503997793928
20
3.19381064862623
30
-1E-16
41
1
10
-1.99503997793928
20
3.36446603264318
30
-1E-16
41
1
10
-1.99503997793928
20
3.53485872774326
30
-1E-16
41
1
10
-1.99503997793928
20
3.66223142121836
30
-1E-16
41
1
10
-1.99503997793928
20
3.78926935835412
30
-1E-16
41
1
10
-1.99503997793928
20
3.95832363498766
30
-1E-16
41
1
10
-1.99503997793928
20
4.16851547631595
30
-1E-16
41
1
10
-1.99503997793928
20
4.37752561794156
30
-1E-16
41
1
10
-1.99503997793928
20
4.5442150281373
30
-1E-16
41
1
10
-1.99503997793928
20
4.66878842905288
30
-1E-16
41
1
10
-1.99503997793928
20
4.79299516838267
30
-1E-16
41
1
10
-1.99503997793928
20
4.95821799704331
30
-1E-16
41
1
10
-1.99503997793928
20
5.16358499073451
30
-1E-16
41
1
10
-1.99503997793928
20
5.4086336510897
30
-1E-16
41
1
10
-1.99503997793928
20
5.65215638001948
30
-1E-16
41
1
10
-1.99503997793928
20
5.89413749968628
30
-1E-16
41
1
10
-1.99503997793928
20
6.13456384015993
30
-1E-16
41
1
10
-1.99503997793928
20
6.37342319970753
30
-1E-16
41
1
10
-1.99503997793928
20
6.61070495432838
30
-1E-16
41
1
10
-1.99503997793928
20
6.8463997482805
30
-1E-16
41
1
10
-1.99503997793928
20
7.08049945458953
30
-1E-16
41
1
10
-1.99503997793928
20
7.31299637479285
30
-1E-16
41
1
10
-1.99503997793928
20
7.54388372935193
30
-1E-16
41
1
10
-1.99503997793928
20
7.77315513008728
30
-1E-16
41
1
10
-1.99503997793928
20
8.00080467620245
30
-1E-16
41
1
10
-1.99503997793928
20
8.22682776167494
30
-1E-16
41
1
10
-1.99503997793928
20
8.45121977200662
30
-1E-16
41
1
10
-1.99503997793928
20
8.67397578579323
30
-1E-16
41
1
10
-1.99503997793928
20
8.96893242084855
30
-1E-16
41
1
10
-1.99503997793928
20
9.33322608836653
30
-1E-16
41
1
10
-1.99503997793928
20
9.76392166117952
30
-1E-16
41
1
10
-1.99503997793928
20
10.1171870033238
30
-1E-16
41
1
10
-1.99503997793928
20
10.3966814407573
30
-1E-16
41
1
10
-1.99503997793928
20
10.6045508021232
30
-1E-16
41
1
10
-1.99503997793928
20
10.8107494713072
30
-1E-16
41
1
10
-1.99503997793928
20
11.0152750188843
30
-1E-16
41
1
10
-1.99503997793928
20
11.2181233733031
30
-1E-16
41
1
10
-1.99503997793928
20
11.4192921752591
30
-1E-16
41
1
10
-1.99503997793928
20
11.6187779306707
30
-1E-16
41
1
10
-1.99503997793928
20
11.8826118718573
30
-1E-16
41
1
10
-1.99503997793928
20
12.1427688173785
30
-1E-16
41
1
10
-1.99503997793928
20
12.3998230002593
30
-1E-16
41
1
10
-1.99503997793928
20
12.5908431445087
30
-1E-16
41
1
10
-1.99503997793928
20
12.7801589185361
30
-1E-16
41
1
10
-1.99503997793928
20
12.967767664355
30
-1E-16
41
1
10
-1.99503997793928
20
13.1536651576331
30
-1E-16
41
1
10
-1.99503997793928
20
13.3378467409434
30
-1E-16
41
1
10
-1.99503997793928
20
13.5203096364964
30
-1E-16
41
1
10
-1.99503997793928
20
13.7010488098078
30
-1E-16
41
1
10
-1.99503997793928
20
13.8800596938692
30
-1E-16
41
1
10
-1.99503997793928
20
14.0573388809364
30
-1E-16
41
1
10
-1.99503997793928
20
14.2328806917249
30
-1E-16
41
1
10
-1.99503997793928
20
14.4066808882548
30
-1E-16
41
1
10
-1.99503997793928
20
14.578735707937
30
-1E-16
41
1
10
-1.99503997793928
20
14.7490386600655
30
-1E-16
41
1
10
-1.99503997793928
20
14.8894548819647
30
-1E-16
41
1
10
-1.99503997793928
20
15.0009760777421
30
-1E-16
41
1
10
-1.99503997793928
20
15.1119089381336
30
-1E-16
41
1
10
-1.99503997793928
20
15.2493853238091
30
-1E-16
41
1
10
-1.99503997793928
20
15.4126292313156
30
-1E-16
41
1
10
-1.99503997793928
20
15.5471478788444
30
-1E-16
41
1
10
-1.99503997793928
20
15.6539352235828
30
-1E-16
41
1
10
-1.99503997793928
20
15.7601264684356
30
-1E-16
41
1
10
-1.99503997793928
20
15.8916662065006
30
-1E-16
41
1
10
-1.99503997793928
20
16.0998599858609
30
-1E-16
41
1
10
-1.99503997793928
20
16.3042392155796
30
-1E-16
41
1
10
-1.99503997793928
20
16.5051894370887
30
-1E-16
41
1
10
-1.99503997793928
20
16.654027023888
30
-1E-16
41
1
10
-1.99503997793928
20
16.8010333841432
30
-1E-16
41
1
10
-1.99503997793928
20
16.9946548235122
30
-1E-16
41
1
10
-1.99503997793928
20
17.1843913435575
30
-1E-16
41
1
10
-1.99503997793928
20
17.3472945498449
30
-1E-16
41
1
10
-1.99503997793928
20
17.4394590341184
30
-1E-16
41
1
10
-1.99503997793928
20
17.5309981410348
30
-1E-16
41
1
10
-1.99503997793928
20
17.6441795672679
30
-1E-16
41
1
10
-1.99503997793928
20
17.8228588844704
30
-1E-16
41
1
10
-1.99503997793928
20
17.9975681157064
30
-1E-16
41
1
10
-1.99503997793928
20
18.1686188381619
30
-1E-16
41
1
10
-1.99503997793928
20
18.2949375082747
30
-1E-16
41
1
10
-1.99503997793928
20
18.4193199892891
30
-1E-16
41
1
10
-1.99503997793928
20
18.5826225030747
30
-1E-16
41
1
10
-1.99503997793928
20
18.7418485706132
30
-1E-16
41
1
10
-1.99503997793928
20
18.877828345234
30
-1E-16
41
1
10
-1.99503997793928
20
18.9545457436666
30
-1E-16
41
1
10
-1.99503997793928
20
19.0305969699326
30
-1E-16
41
1
10
-1.99503997793928
20
19.1243520606764
30
-1E-16
41
1
10
-1.99503997793928
20
19.2717622924356
30
-1E-16
41
1
10
-1.99503997793928
20
19.4149698127943
30
-1E-16
41
1
10
-1.99503997793928
20
19.5542139601407
30
-1E-16
41
1
10
-1.99503997793928
20
19.6565424313982
30
-1E-16
41
1
10
-1.99503997793928
20
19.7567886026657
30
-1E-16
41
1
10
-1.99503997793928
20
19.8549383078336
30
-1E-16
41
1
10
-1.99503997793928
20
19.9509751576252
30
-1E-16
41
1
10
-1.99503997793928
20
20.0448848271876
30
-1E-16
41
1
10
-1.99503997793928
20
20.136651569995
30
-1E-16
41
1
10
-1.99503997793928
20
20.2262576082901
30
-1E-16
41
1
10
-1.99503997793928
20
20.3136873945745
30
-1E-16
41
1
10
-1.99503997793928
20
20.3989234016943
30
-1E-16
41
1
10
-1.99503997793928
20
20.4819464711493
30
-1E-16
41
1
10
-1.99503997793928
20
20.5627395849404
30
-1E-16
41
1
10
-1.99503997793928
20
20.6412830606924
30
-1E-16
41
1
10
-1.99503997793928
20
20.7430171949632
30
-1E-16
41
1
10
-1.99503997793928
20
20.8400664063016
30
-1E-16
41
1
10
-1.99503997793928
20
20.9325549476398
30
-1E-16
41
1
10
-1.99503997793928
20
20.9995415089612
30
-1E-16
41
1
10
-1.99503997793928
20
21.0641493981766
30
1E-16
41
1
10
-1.99503997793928
20
21.126355615456
30
1E-16
41
1
10
-1.99503997793928
20
21.1861355372814
30
1E-16
41
1
10
-1.99503997793928
20
21.2626002065085
30
0
41
1
10
-1.99503997793928
20
21.3340243579833
30
0
41
1
10
-1.99503997793928
20
21.4004602751572
30
0
41
1
10
-1.99503997793928
20
21.4477036012609
30
0
41
1
10
-1.99503997793928
20
21.4923512863894
30
0
41
1
10
-1.99503997793928
20
21.5484022523455
30
0
41
1
10
-1.99503997793928
20
21.6117670092986
30
1E-16
41
1
10
-1.99503997793928
20
21.6769140218914
30
1E-16
41
1
10
-1.99503997793928
20
21.7218385059106
30
-1E-16
41
1
10
-1.99503997793928
20
21.7520291985819
30
-1E-16
41
1
10
-1.99503997793928
20
21.7717308612526
30
-1E-16
41
1
10
-1.99503997793928
20
21.7884557330328
30
-1E-16
41
1
10
-1.99503997793928
20
21.8021565364934
30
-1E-16
41
1
10
-1.99503997793928
20
21.812783044142
30
-1E-16
41
1
10
-1.99503997793928
20
21.8202836860757
30
-1E-16
41
1
10
-1.99503997793928
20
21.8245120396443
30
-1E-16
41
1
10
-1.99503997793928
20
21.8252778572879
30
-1E-16
41
1
10
-1.99503997793928
20
21.8251669049208
30
-1E-16
0
SPLINE
5
CA
100
AcDbEntity
8
SK1
62
256
6
ByLayer
370
13
48
1
60
0
100
AcDbSpline
70
4
71
3
72
115
73
111
40
0
40
0
40
0
40
0
40
0.0023089423736398
40
0.0108443055522718
40
0.0193796687309038
40
0.0279150319095357
40
0.0364503950881677
40
0.0449857582667997
40
0.0535211214454316
40
0.0620564846240636
40
0.0705918478026955
40
0.0791272109813275
40
0.0876625741599595
40
0.0961979373385914
40
0.113268663695855
40
0.130339390053119
40
0.147410116410383
40
0.155945479589015
40
0.164480842767647
40
0.173016205946279
40
0.181551569124911
40
0.190086932303543
40
0.198622295482175
40
0.207157658660807
40
0.215693021839439
40
0.232763748196703
40
0.241299111375335
40
0.249834474553967
40
0.258369837732599
40
0.266905200911231
40
0.275440564089863
40
0.283975927268495
40
0.292511290447127
40
0.301046653625759
40
0.309582016804391
40
0.318117379983022
40
0.326652743161654
40
0.335188106340286
40
0.343723469518918
40
0.35225883269755
40
0.360794195876182
40
0.365061877465498
40
0.369329559054814
40
0.377864922233446
40
0.386400285412078
40
0.39493564859071
40
0.399203330180026
40
0.403471011769342
40
0.412006374947974
40
0.420541738126606
40
0.43761246448387
40
0.446147827662502
40
0.454683190841134
40
0.463218554019766
40
0.471753917198398
40
0.488824643555662
40
0.497360006734294
40
0.50162768832361
40
0.505895369912926
40
0.514430733091558
40
0.52296609627019
40
0.540036822627454
40
0.548572185806085
40
0.557107548984717
40
0.56564291216335
40
0.574178275341982
40
0.591249001699245
40
0.599784364877877
40
0.604052046467193
40
0.608319728056509
40
0.616855091235141
40
0.625390454413773
40
0.642461180771037
40
0.650996543949669
40
0.659531907128301
40
0.668067270306933
40
0.676602633485565
40
0.685137996664197
40
0.693673359842829
40
0.702208723021461
40
0.710744086200093
40
0.719279449378725
40
0.727814812557357
40
0.736350175735989
40
0.744885538914621
40
0.753420902093253
40
0.761956265271885
40
0.779026991629149
40
0.78756235480778
40
0.796097717986412
40
0.804633081165044
40
0.813168444343676
40
0.821703807522308
40
0.83023917070094
40
0.847309897058204
40
0.855845260236836
40
0.864380623415468
40
0.8729159865941
40
0.881451349772732
40
0.898522076129996
40
0.91559280248726
40
0.932663528844524
40
0.941198892023156
40
0.949734255201788
40
0.95826961838042
40
0.966804981559052
40
0.975340344737684
40
0.983875707916316
40
0.992411071094948
40
1
40
1
40
1
40
1
41
1
10
-0.394976888875277
20
6.32694309067119
30
0
41
1
10
-0.394976888875277
20
6.34849183540922
30
0
41
1
10
-0.394976888875277
20
6.44960786563362
30
0
41
1
10
-0.394976888875277
20
6.62954558311137
30
0
41
1
10
-0.394976888875277
20
6.86569504295815
30
0
41
1
10
-0.394976888875277
20
7.10023725398264
30
0
41
1
10
-0.394976888875277
20
7.33316516004027
30
0
41
1
10
-0.394976888875277
20
7.56447255210355
30
0
41
1
10
-0.394976888875277
20
7.79415362199521
30
0
41
1
10
-0.394976888875277
20
8.0222029406992
30
0
41
1
10
-0.394976888875277
20
8.24861627222975
30
0
41
1
10
-0.394976888875277
20
8.47338949471808
30
0
41
1
10
-0.394976888875277
20
8.69651812098675
30
0
41
1
10
-0.394976888875277
20
8.99192950801697
30
0
41
1
10
-0.394976888875277
20
9.3568391135907
30
0
41
1
10
-0.394976888875277
20
9.78821091215369
30
0
41
1
10
-0.394976888875277
20
10.1420454829465
30
0
41
1
10
-0.394976888875277
20
10.4219344610486
30
0
41
1
10
-0.394976888875277
20
10.630113157504
30
0
41
1
10
-0.394976888875277
20
10.8366153761928
30
0
41
1
10
-0.394976888875277
20
11.0414389105764
30
0
41
1
10
-0.394976888875277
20
11.2445799083311
30
0
41
1
10
-0.394976888875277
20
11.4460361066677
30
0
41
1
10
-0.394976888875277
20
11.6458042855523
30
0
41
1
10
-0.394976888875277
20
11.9099848332047
30
0
41
1
10
-0.394976888875277
20
12.1705475891153
30
0
41
1
10
-0.394976888875277
20
12.4279318017785
30
0
41
1
10
-0.394976888875277
20
12.6192114742801
30
0
41
1
10
-0.394976888875277
20
12.8087826212334
30
0
41
1
10
-0.394976888875277
20
12.9966426140257
30
0
41
1
10
-0.394976888875277
20
13.182787463215
30
0
41
1
10
-0.394976888875277
20
13.3672125481811
30
0
41
1
10
-0.394976888875277
20
13.549915145406
30
0
41
1
10
-0.394976888875277
20
13.7308904366346
30
0
41
1
10
-0.394976888875277
20
13.9101338497815
30
0
41
1
10
-0.394976888875277
20
14.0876420714538
30
0
41
1
10
-0.394976888875277
20
14.2634095816694
30
0
41
1
10
-0.394976888875277
20
14.4374320816019
30
0
41
1
10
-0.394976888875277
20
14.6097059483473
30
0
41
1
10
-0.394976888875277
20
14.7802248596231
30
0
41
1
10
-0.394976888875277
20
14.9208273816877
30
0
41
1
10
-0.394976888875277
20
15.0324801920763
30
0
41
1
10
-0.394976888875277
20
15.1435436982815
30
0
41
1
10
-0.394976888875277
20
15.2812010193763
30
0
41
1
10
-0.394976888875277
20
15.4446487492657
30
0
41
1
10
-0.394976888875277
20
15.5793432837569
30
0
41
1
10
-0.394976888875277
20
15.6862549949744
30
0
41
1
10
-0.394976888875277
20
15.7925696820839
30
0
41
1
10
-0.394976888875277
20
15.9242804112408
30
0
41
1
10
-0.394976888875277
20
16.1327150774874
30
0
41
1
10
-0.394976888875277
20
16.3373774066279
30
0
41
1
10
-0.394976888875277
20
16.5385587049943
30
0
41
1
10
-0.394976888875277
20
16.6875786248762
30
0
41
1
10
-0.394976888875277
20
16.8347647509306
30
0
41
1
10
-0.394976888875277
20
17.0286078387926
30
0
41
1
10
-0.394976888875277
20
17.2186048360495
30
0
41
1
10
-0.394976888875277
20
17.3816993239948
30
0
41
1
10
-0.394976888875277
20
17.4739690253912
30
0
41
1
10
-0.394976888875277
20
17.5656125946474
30
0
41
1
10
-0.394976888875277
20
17.6789387292296
30
0
41
1
10
-0.394976888875277
20
17.8578219077773
30
0
41
1
10
-0.394976888875277
20
18.0327705937831
30
0
41
1
10
-0.394976888875277
20
18.2040166079408
30
0
41
1
10
-0.394976888875277
20
18.330489335967
30
0
41
1
10
-0.394976888875277
20
18.4550236113311
30
0
41
1
10
-0.394976888875277
20
18.6185131846482
30
0
41
1
10
-0.394976888875277
20
18.777958735224
30
0
41
1
10
-0.394976888875277
20
18.9140993494365
30
0
41
1
10
-0.394976888875277
20
18.9909051568102
30
0
41
1
10
-0.394976888875277
20
19.0670441229991
30
0
41
1
10
-0.394976888875277
20
19.160920630363
30
0
41
1
10
-0.394976888875277
20
19.308501644014
30
0
41
1
10
-0.394976888875277
20
19.4519091739392
30
0
41
1
10
-0.394976888875277
20
19.5913158900225
30
0
41
1
10
-0.394976888875277
20
19.6937723311917
30
0
41
1
10
-0.394976888875277
20
19.79414426657
30
0
41
1
10
-0.394976888875277
20
19.8924175863555
30
0
41
1
10
-0.394976888875277
20
19.9885758834751
30
0
41
1
10
-0.394976888875277
20
20.082604770276
30
0
41
1
10
-0.394976888875277
20
20.1744885542463
30
0
41
1
10
-0.394976888875277
20
20.2642094206366
30
0
41
1
10
-0.394976888875277
20
20.3517517634561
30
0
41
1
10
-0.394976888875277
20
20.4370981008412
30
0
41
1
10
-0.394976888875277
20
20.5202292190253
30
0
41
1
10
-0.394976888875277
20
20.6011280536546
30
0
41
1
10
-0.394976888875277
20
20.6797749496461
30
0
41
1
10
-0.394976888875277
20
20.7816354627076
30
0
41
1
10
-0.394976888875277
20
20.8788308563806
30
0
41
1
10
-0.394976888875277
20
20.9714364994015
30
0
41
1
10
-0.394976888875277
20
21.038514297088
30
0
41
1
10
-0.394976888875277
20
21.1032108723211
30
0
41
1
10
-0.394976888875277
20
21.1655031445011
30
0
41
1
10
-0.394976888875277
20
21.2253664719936
30
0
41
1
10
-0.394976888875277
20
21.3019320664004
30
0
41
1
10
-0.394976888875277
20
21.3734709387681
30
0
41
1
10
-0.394976888875277
20
21.4399968711307
30
0
41
1
10
-0.394976888875277
20
21.4873092663299
30
0
41
1
10
-0.394976888875277
20
21.5320229149808
30
0
41
1
10
-0.394976888875277
20
21.5881524120742
30
0
41
1
10
-0.394976888875277
20
21.651618462036
30
0
41
1
10
-0.394976888875277
20
21.7168668922192
30
0
41
1
10
-0.394976888875277
20
21.7618666429643
30
0
41
1
10
-0.394976888875277
20
21.7921034347989
30
0
41
1
10
-0.394976888875277
20
21.8118377229246
30
0
41
1
10
-0.394976888875277
20
21.8285907137819
30
0
41
1
10
-0.394976888875277
20
21.8423149188875
30
0
41
1
10
-0.394976888875277
20
21.8529598769268
30
0
41
1
10
-0.394976888875277
20
21.8604737650697
30
0
41
1
10
-0.394976888875277
20
21.864641544855
30
0
41
1
10
-0.394976888875277
20
21.8654382793276
30
0
41
1
10
-0.394976888875277
20
21.8653789160951
30
0
0
SPLINE
5
CB
100
AcDbEntity
8
SK1
62
256
6
ByLayer
370
13
48
1
60
0
100
AcDbSpline
70
4
71
3
72
111
73
107
40
0
40
0
40
0
40
0
40
0.0075759059933132
40
0.0161113810921396
40
0.024646856190966
40
0.0331823312897924
40
0.0417178063886188
40
0.0502532814874452
40
0.0587887565862715
40
0.0673242316850979
40
0.0758597067839243
40
0.0843951818827507
40
0.0929306569815771
40
0.101466132080403
40
0.118537082278056
40
0.127072557376883
40
0.135608032475709
40
0.144143507574535
40
0.152678982673362
40
0.169749932871015
40
0.178285407969841
40
0.186820883068667
40
0.195356358167494
40
0.20389183326632
40
0.212427308365146
40
0.220962783463973
40
0.238033733661626
40
0.246569208760452
40
0.255104683859278
40
0.263640158958105
40
0.272175634056931
40
0.280711109155757
40
0.289246584254584
40
0.29778205935341
40
0.306317534452237
40
0.314853009551063
40
0.323388484649889
40
0.331923959748716
40
0.340459434847542
40
0.348994909946368
40
0.357530385045195
40
0.374601335242848
40
0.383136810341674
40
0.3916722854405
40
0.400207760539327
40
0.408743235638153
40
0.425814185835806
40
0.434349660934632
40
0.442885136033459
40
0.451420611132285
40
0.459956086231112
40
0.477027036428764
40
0.485562511527591
40
0.494097986626417
40
0.502633461725243
40
0.51116893682407
40
0.528239887021723
40
0.536775362120549
40
0.545310837219375
40
0.553846312318202
40
0.562381787417028
40
0.579452737614681
40
0.587988212713507
40
0.596523687812334
40
0.60505916291116
40
0.613594638009986
40
0.630665588207639
40
0.639201063306465
40
0.647736538405292
40
0.664807488602944
40
0.673342963701771
40
0.681878438800597
40
0.690413913899424
40
0.69894938899825
40
0.707484864097077
40
0.716020339195903
40
0.724555814294729
40
0.733091289393556
40
0.741626764492382
40
0.750162239591208
40
0.758697714690035
40
0.767233189788861
40
0.784304139986514
40
0.79283961508534
40
0.801375090184167
40
0.809910565282993
40
0.81844604038182
40
0.826981515480646
40
0.835516990579472
40
0.844052465678299
40
0.852587940777125
40
0.869658890974778
40
0.88672984117243
40
0.903800791370083
40
0.91233626646891
40
0.920871741567736
40
0.929407216666562
40
0.937942691765389
40
0.946478166864215
40
0.955013641963042
40
0.963549117061868
40
0.972084592160695
40
0.980620067259521
40
0.989155542358347
40
0.997691017457174
40
1
40
1
40
1
40
1
41
1
10
-0.394976888875277
20
-21.8653791792821
30
0
41
1
10
-0.394976888875277
20
-21.8654370601217
30
0
41
1
10
-0.394976888875277
20
-21.8646396718746
30
0
41
1
10
-0.394976888875277
20
-21.8604739519412
30
0
41
1
10
-0.394976888875277
20
-21.8529599173647
30
0
41
1
10
-0.394976888875277
20
-21.8423149132633
30
0
41
1
10
-0.394976888875277
20
-21.8285907189997
30
0
41
1
10
-0.394976888875277
20
-21.8118377637545
30
0
41
1
10
-0.394976888875277
20
-21.7921034780961
30
0
41
1
10
-0.394976888875277
20
-21.7694337460976
30
0
41
1
10
-0.394976888875277
20
-21.7438726893518
30
0
41
1
10
-0.394976888875277
20
-21.7154617242468
30
0
41
1
10
-0.394976888875277
20
-21.6842420425293
30
0
41
1
10
-0.394976888875277
20
-21.6389063892513
30
0
41
1
10
-0.394976888875277
20
-21.5881524005931
30
0
41
1
10
-0.394976888875277
20
-21.5320229383892
30
0
41
1
10
-0.394976888875277
20
-21.4873093096751
30
0
41
1
10
-0.394976888875277
20
-21.4399968999807
30
0
41
1
10
-0.394976888875277
20
-21.3734709318986
30
0
41
1
10
-0.394976888875277
20
-21.301932078811
30
0
41
1
10
-0.394976888875277
20
-21.2253665102307
30
0
41
1
10
-0.394976888875277
20
-21.1655031751743
30
0
41
1
10
-0.394976888875277
20
-21.1032108820957
30
0
41
1
10
-0.394976888875277
20
-21.0385142950144
30
0
41
1
10
-0.394976888875277
20
-20.9714365096391
30
0
41
1
10
-0.394976888875277
20
-20.8788308931333
30
0
41
1
10
-0.394976888875277
20
-20.781635486227
30
0
41
1
10
-0.394976888875277
20
-20.6797749513881
30
0
41
1
10
-0.394976888875277
20
-20.6011280559991
30
0
41
1
10
-0.394976888875277
20
-20.5202292348052
30
0
41
1
10
-0.394976888875277
20
-20.437098129367
30
0
41
1
10
-0.394976888875277
20
-20.3517517880635
30
0
41
1
10
-0.394976888875277
20
-20.264209431984
30
0
41
1
10
-0.394976888875277
20
-20.1744885559187
30
0
41
1
10
-0.394976888875277
20
-20.082604778142
30
0
41
1
10
-0.394976888875277
20
-19.988575861591
30
0
41
1
10
-0.394976888875277
20
-19.8924174211231
30
0
41
1
10
-0.394976888875277
20
-19.7941438028822
30
0
41
1
10
-0.394976888875277
20
-19.6937719762305
30
0
41
1
10
-0.394976888875277
20
-19.5913159811741
30
0
41
1
10
-0.394976888875277
20
-19.4519098709686
30
0
41
1
10
-0.394976888875277
20
-19.3085018143331
30
0
41
1
10
-0.394976888875277
20
-19.1609196079758
30
0
41
1
10
-0.394976888875277
20
-19.048244884465
30
0
41
1
10
-0.394976888875277
20
-18.933565131357
30
0
41
1
10
-0.394976888875277
20
-18.7779598884918
30
0
41
1
10
-0.394976888875277
20
-18.6185132745736
30
0
41
1
10
-0.394976888875277
20
-18.4550234389153
30
0
41
1
10
-0.394976888875277
20
-18.3304892054167
30
0
41
1
10
-0.394976888875277
20
-18.2040166330947
30
0
41
1
10
-0.394976888875277
20
-18.0327708145484
30
0
41
1
10
-0.394976888875277
20
-17.8578220601067
30
0
41
1
10
-0.394976888875277
20
-17.6789377757623
30
0
41
1
10
-0.394976888875277
20
-17.5429190217058
30
0
41
1
10
-0.394976888875277
20
-17.4050188999402
30
0
41
1
10
-0.394976888875277
20
-17.2186059445175
30
0
41
1
10
-0.394976888875277
20
-17.0286080073569
30
0
41
1
10
-0.394976888875277
20
-16.8347642769002
30
0
41
1
10
-0.394976888875277
20
-16.6875782011067
30
0
41
1
10
-0.394976888875277
20
-16.5385587125243
30
0
41
1
10
-0.394976888875277
20
-16.3373780173449
30
0
41
1
10
-0.394976888875277
20
-16.1327154012234
30
0
41
1
10
-0.394976888875277
20
-15.9242799594928
30
0
41
1
10
-0.394976888875277
20
-15.7661946363952
30
0
41
1
10
-0.394976888875277
20
-15.6063159613101
30
0
41
1
10
-0.394976888875277
20
-15.3907043201103
30
0
41
1
10
-0.394976888875277
20
-15.171701411915
30
0
41
1
10
-0.394976888875277
20
-14.9489833053404
30
0
41
1
10
-0.394976888875277
20
-14.7239127068147
30
0
41
1
10
-0.394976888875277
20
-14.4955025482493
30
0
41
1
10
-0.394976888875277
20
-14.2634098807097
30
0
41
1
10
-0.394976888875277
20
-14.0876421688895
30
0
41
1
10
-0.394976888875277
20
-13.910133867705
30
0
41
1
10
-0.394976888875277
20
-13.7308904478326
30
0
41
1
10
-0.394976888875277
20
-13.5499151547097
30
0
41
1
10
-0.394976888875277
20
-13.3672125455487
30
0
41
1
10
-0.394976888875277
20
-13.182787448996
30
0
41
1
10
-0.394976888875277
20
-12.9966426041155
30
0
41
1
10
-0.394976888875277
20
-12.8087826250924
30
0
41
1
10
-0.394976888875277
20
-12.6192114874981
30
0
41
1
10
-0.394976888875277
20
-12.4279318067111
30
0
41
1
10
-0.394976888875277
20
-12.1705475695385
30
0
41
1
10
-0.394976888875277
20
-11.9099848253352
30
0
41
1
10
-0.394976888875277
20
-11.6458042976885
30
0
41
1
10
-0.394976888875277
20
-11.4460361162834
30
0
41
1
10
-0.394976888875277
20
-11.2445799004538
30
0
41
1
10
-0.394976888875277
20
-11.0414388905992
30
0
41
1
10
-0.394976888875277
20
-10.8366153667066
30
0
41
1
10
-0.394976888875277
20
-10.6301131683678
30
0
41
1
10
-0.394976888875277
20
-10.4219344727077
30
0
41
1
10
-0.394976888875277
20
-10.142045462177
30
0
41
1
10
-0.394976888875277
20
-9.78821091217483
30
0
41
1
10
-0.394976888875277
20
-9.35683912175983
30
0
41
1
10
-0.394976888875277
20
-8.99192948127941
30
0
41
1
10
-0.394976888875277
20
-8.69651811258549
30
0
41
1
10
-0.394976888875277
20
-8.47338951886385
30
0
41
1
10
-0.394976888875277
20
-8.24861635560848
30
0
41
1
10
-0.394976888875277
20
-8.02220293401996
30
0
41
1
10
-0.394976888875277
20
-7.79415340272945
30
0
41
1
10
-0.394976888875277
20
-7.56447269448574
30
0
41
1
10
-0.394976888875277
20
-7.33316546385933
30
0
41
1
10
-0.394976888875277
20
-7.10023740586411
30
0
41
1
10
-0.394976888875277
20
-6.8656950488801
30
0
41
1
10
-0.394976888875277
20
-6.62954555948869
30
0
41
1
10
-0.394976888875277
20
-6.44960775400912
30
0
41
1
10
-0.394976888875277
20
-6.3484916311391
30
0
41
1
10
-0.394976888875277
20
-6.32694279392976
30
0
0
SPLINE
5
CC
100
AcDbEntity
8
SK1
62
256
6
ByLayer
370
18
48
1
60
0
100
AcDbSpline
70
4
71
3
72
26
73
22
40
0
40
0
40
0
40
0
40
0.125
40
0.125
40
0.25
40
0.25
40
0.3125
40
0.3125
40
0.375
40
0.375
40
0.5
40
0.5
40
0.625
40
0.625
40
0.6875
40
0.6875
40
0.75
40
0.75
40
0.875
40
0.875
40
1
40
1
40
1
40
1
41
1
10
-1.30710678118655
20
4.81101329740289
30
-1E-16
41
1
10
-1.37461329628553
20
4.42906267002715
30
-1E-16
41
1
10
-1.43842288357249
20
4.04270825974379
30
-1E-16
41
1
10
-1.55482767545837
20
3.25964078646075
30
-1E-16
41
1
10
-1.60743482920452
20
2.86293463703905
30
-1E-16
41
1
10
-1.67407835953028
20
2.25842147165613
30
-1E-16
41
1
10
-1.6942347086227
20
2.05533443764031
30
-1E-16
41
1
10
-1.72965556309052
20
1.64563836285322
30
-1E-16
41
1
10
-1.74484710329557
20
1.43963199934169
30
-1E-16
41
1
10
-1.78162975563035
20
0.82275752324307
30
-1E-16
41
1
10
-1.79445291889314
20
0.411207816053661
30
-1E-16
41
1
10
-1.79442593338331
20
-0.412525631248002
30
-1E-16
41
1
10
-1.78157312882854
20
-0.824709416072238
30
-1E-16
41
1
10
-1.7445898427946
20
-1.44343920897944
30
-1E-16
41
1
10
-1.72930597743908
20
-1.65005948504421
30
-1E-16
41
1
10
-1.69390777409217
20
-2.05873054114898
30
-1E-16
41
1
10
-1.67377216548036
20
-2.26136839295086
30
-1E-16
41
1
10
-1.60720273884684
20
-2.8646969904417
30
-1E-16
41
1
10
-1.55465955887379
20
-3.26082920006925
30
-1E-16
41
1
10
-1.43835988164523
20
-4.04307426593769
30
-1E-16
41
1
10
-1.37459233181624
20
-4.42918087958256
30
-1E-16
41
1
10
-1.30710678118663
20
-4.81101321788435
30
-1E-16
0
SPLINE
5
CD
100
AcDbEntity
8
SK1
62
256
6
ByLayer
370
18
48
1
60
0
100
AcDbSpline
70
4
71
3
72
24
73
20
40
0
40
0
40
0
40
0
40
0.03125
40
0.03125
40
0.0624999999999999
40
0.0624999999999999
40
0.0937499999999999
40
0.0937499999999999
40
0.125
40
0.125
40
0.1875
40
0.1875
40
0.25
40
0.25
40
0.375
40
0.375
40
0.5
40
0.5
40
1
40
1
40
1
40
1
41
1
10
-0.394976888875277
20
6.326943090669
30
0
41
1
10
-0.38847879114121
20
6.32122083099978
30
0
41
1
10
-0.381313154819537
20
6.31618565872657
30
0
41
1
10
-0.365409710573573
20
6.30942196278457
30
0
41
1
10
-0.356491145072283
20
6.30782589043292
30
0
41
1
10
-0.338830866580111
20
6.31048209062152
30
0
41
1
10
-0.330289930609837
20
6.31473882346543
30
0
41
1
10
-0.315858342049921
20
6.32593033296189
30
0
41
1
10
-0.309649778597219
20
6.33285276949908
30
0
41
1
10
-0.293313689377101
20
6.35478748070284
30
0
41
1
10
-0.285093867610584
20
6.37118996774478
30
0
41
1
10
-0.271027300228269
20
6.40434328922584
30
0
41
1
10
-0.265260102162785
20
6.42121101452722
30
0
41
1
10
-0.249955006097821
20
6.47225869816404
30
0
41
1
10
-0.24239685395699
20
6.50696236445458
30
0
41
1
10
-0.229806665913117
20
6.57651474417165
30
0
41
1
10
-0.224881575141865
20
6.6112317240092
30
0
41
1
10
-0.204383593087527
20
6.78454973877442
30
0
41
1
10
-0.200000000000955
20
6.92236219959716
30
0
41
1
10
-0.200000000000955
20
7.05951756777665
30
0
0
SPLINE
5
CE
100
AcDbEntity
8
SK1
62
256
6
ByLayer
370
18
48
1
60
0
100
AcDbSpline
70
4
71
3
72
26
73
22
40
0
40
0
40
0
40
0
40
0.25
40
0.25
40
0.5
40
0.5
40
0.625
40
0.625
40
0.75
40
0.75
40
0.8125
40
0.8125
40
0.875
40
0.875
40
0.90625
40
0.90625
40
0.9375
40
0.9375
40
0.96875
40
0.96875
40
1
40
1
40
1
40
1
41
1
10
-0.199999999999989
20
-7.05951749342083
30
0
41
1
10
-0.199999999999989
20
-6.99088366827036
30
0
41
1
10
-0.201319609066843
20
-6.92203745653026
30
0
41
1
10
-0.207680242986726
20
-6.78384770613772
30
0
41
1
10
-0.212644818423286
20
-6.71441370073745
30
0
41
1
10
-0.225032362287749
20
-6.610101532507
30
0
41
1
10
-0.22998853610892
20
-6.57535167439425
30
0
41
1
10
-0.242605757740421
20
-6.50597096289755
30
0
41
1
10
-0.250188173910743
20
-6.47131022305021
30
0
41
1
10
-0.265534367861676
20
-6.4203844584319
30
0
41
1
10
-0.27131598361575
20
-6.40356588205816
30
0
41
1
10
-0.285411407521394
20
-6.37054221190877
30
0
41
1
10
-0.293612475506308
20
-6.3542515820991
30
0
41
1
10
-0.310070058832991
20
-6.33235891704217
30
0
41
1
10
-0.316188975330021
20
-6.32559855176618
30
0
41
1
10
-0.330728129252975
20
-6.31447788013506
30
0
41
1
10
-0.339136190980326
20
-6.31039609843523
30
0
41
1
10
-0.35657676985852
20
-6.30785340244549
30
0
41
1
10
-0.365590532907476
20
-6.30947164062368
30
0
41
1
10
-0.381451989855123
20
-6.31627189389673
30
0
41
1
10
-0.388510166361129
20
-6.32124816508073
30
0
41
1
10
-0.394976888875277
20
-6.32694279392757
30
0
0
LINE
5
72
100
AcDbEntity
8
81
62
256
6
ByLayer
370
18
48
1
60
0
100
AcDbLine
10
185
20
0
30
0
11
187.367097
21
0
31
0
39
0
210
0
220
0
230
1
0
LINE
5
73
100
AcDbEntity
8
1
62
256
6
ByLayer
370
18
48
1
60
0
100
AcDbLine
10
0.3
20
31.5
30
0
11
0
21
31.2
31
0
39
0
210
0
220
0
230
1
0
LINE
5
74
100
AcDbEntity
8
80
62
256
6
ByLayer
370
18
48
1
60
0
100
AcDbLine
10
0
20
0
30
0
11
-6.08897
21
0
31
0
39
0
210
0
220
0
230
1
0
LINE
5
75
100
AcDbEntity
8
4
62
256
6
ByLayer
370
18
48
0.05
60
0
100
AcDbLine
10
0
20
0
30
0
11
185
21
0
31
0
39
0
210
0
220
0
230
1
0
LINE
5
77
100
AcDbEntity
8
1
62
256
6
ByLayer
370
18
48
1
60
0
100
AcDbLine
10
0
20
-31.2
30
0
11
0.3
21
-31.5
31
0
39
0
210
0
220
0
230
1
0
LINE
5
78
100
AcDbEntity
8
1
62
256
6
ByLayer
370
18
48
1
60
0
100
AcDbLine
10
0.3
20
-31.5
30
0
11
22.760277
21
-31.5
31
0
39
0
210
0
220
0
230
1
0
LINE
5
79
100
AcDbEntity
8
1
62
256
6
ByLayer
370
18
48
1
60
0
100
AcDbLine
10
22.760277
20
31.5
30
0
11
0.3
21
31.5
31
0
39
0
210
0
220
0
230
1
0
LINE
5
7A
100
AcDbEntity
8
1
62
256
6
ByLayer
370
18
48
1
60
0
100
AcDbLine
10
22.839528
20
-31.496065
30
0
11
177
21
-16.148961
31
0
39
0
210
0
220
0
230
1
0
LINE
5
7B
100
AcDbEntity
8
1
62
256
6
ByLayer
370
18
48
1
60
0
100
AcDbLine
10
177
20
16.148961
30
0
11
22.839528
21
31.496065
31
0
39
0
210
0
220
0
230
1
0
LINE
5
7C
100
AcDbEntity
8
1
62
256
6
ByLayer
370
18
48
1
60
0
100
AcDbLine
10
184.7
20
-16
30
0
11
185
21
-15.7
31
0
39
0
210
0
220
0
230
1
0
LINE
5
7D
100
AcDbEntity
8
1
62
256
6
ByLayer
370
18
48
1
60
0
100
AcDbLine
10
185
20
15.7
30
0
11
184.7
21
16
31
0
39
0
210
0
220
0
230
1
0
LINE
5
7E
100
AcDbEntity
8
SK1
62
256
6
ByLayer
370
18
48
1
60
0
100
AcDbLine
10
187.85
20
6
30
0
11
185
21
6
31
0
39
0
210
0
220
0
230
1
0
LINE
5
80
100
AcDbEntity
8
SK1
62
256
6
ByLayer
370
18
48
1
60
0
100
AcDbLine
10
185
20
-6
30
0
11
187.85
21
-6
31
0
39
0
210
0
220
0
230
1
0
LINE
5
81
100
AcDbEntity
8
SK1
62
256
6
ByLayer
370
18
48
1
60
0
100
AcDbLine
10
187.85
20
-6
30
0
11
189.05
21
-4.8
31
0
39
0
210
0
220
0
230
1
0
LINE
5
82
100
AcDbEntity
8
SK1
62
256
6
ByLayer
370
18
48
1
60
0
100
AcDbLine
10
189.05
20
4.8
30
0
11
187.85
21
6
31
0
39
0
210
0
220
0
230
1
0
LINE
5
83
100
AcDbEntity
8
1
62
256
6
ByLayer
370
18
48
1
60
0
100
AcDbLine
10
180
20
-16
30
0
11
184.7
21
-16
31
0
39
0
210
0
220
0
230
1
0
LINE
5
84
100
AcDbEntity
8
1
62
256
6
ByLayer
370
18
48
1
60
0
100
AcDbLine
10
184.7
20
16
30
0
11
180
21
16
31
0
39
0
210
0
220
0
230
1
0
LINE
5
85
100
AcDbEntity
8
SK4
62
256
6
ByLayer
370
18
48
0.05
60
0
100
AcDbLine
10
-43
20
0
30
0
11
190
21
0
31
0
39
0
210
0
220
0
230
1
0
LINE
5
87
100
AcDbEntity
8
SK1
62
256
6
ByLayer
370
18
48
1
60
0
100
AcDbLine
10
189.05
20
4.8
30
0
11
189.05
21
-4.8
31
0
39
0
210
0
220
0
230
1
0
LINE
5
88
100
AcDbEntity
8
SK1
62
256
6
ByLayer
370
18
48
1
60
0
100
AcDbLine
10
187.85
20
6
30
0
11
187.85
21
-6
31
0
39
0
210
0
220
0
230
1
0
LINE
5
89
100
AcDbEntity
8
1
62
256
6
ByLayer
370
13
48
1
60
0
100
AcDbLine
10
22.760277
20
0
30
0
11
22.760277
21
31.5
31
0
39
0
210
0
220
0
230
1
0
LINE
5
8A
100
AcDbEntity
8
1
62
256
6
ByLayer
370
13
48
1
60
0
100
AcDbLine
10
22.760277
20
-31.5
30
0
11
22.760277
21
0
31
0
39
0
210
0
220
0
230
1
0
LINE
5
8B
100
AcDbEntity
8
1
62
256
6
ByLayer
370
13
48
1
60
0
100
AcDbLine
10
10.538675
20
-9.349221
30
0
11
10.538675
21
-30.080593
31
0
39
0
210
0
220
0
230
1
0
LINE
5
8C
100
AcDbEntity
8
1
62
256
6
ByLayer
370
18
48
1
60
0
100
AcDbLine
10
0
20
0
30
0
11
0
21
31.2
31
0
39
0
210
0
220
0
230
1
0
LINE
5
8D
100
AcDbEntity
8
1
62
256
6
ByLayer
370
18
48
1
60
0
100
AcDbLine
10
0
20
-31.2
30
0
11
0
21
0
31
0
39
0
210
0
220
0
230
1
0
LINE
5
8E
100
AcDbEntity
8
1
62
256
6
ByLayer
370
13
48
1
60
0
100
AcDbLine
10
10.538675
20
30.080593
30
0
11
10.538675
21
9.349221
31
0
39
0
210
0
220
0
230
1
0
LINE
5
8F
100
AcDbEntity
8
1
62
256
6
ByLayer
370
13
48
1
60
0
100
AcDbLine
10
177
20
0
30
0
11
177
21
16.148961
31
0
39
0
210
0
220
0
230
1
0
LINE
5
90
100
AcDbEntity
8
1
62
256
6
ByLayer
370
13
48
1
60
0
100
AcDbLine
10
177
20
-16.148961
30
0
11
177
21
0
31
0
39
0
210
0
220
0
230
1
0
LINE
5
91
100
AcDbEntity
8
1
62
256
6
ByLayer
370
13
48
1
60
0
100
AcDbLine
10
13.894338
20
29.913955
30
0
11
13.894338
21
9.869413
31
0
39
0
210
0
220
0
230
1
0
LINE
5
92
100
AcDbEntity
8
1
62
256
6
ByLayer
370
18
48
1
60
0
100
AcDbLine
10
185
20
0
30
0
11
185
21
15.7
31
0
39
0
210
0
220
0
230
1
0
LINE
5
93
100
AcDbEntity
8
1
62
256
6
ByLayer
370
18
48
1
60
0
100
AcDbLine
10
185
20
-15.7
30
0
11
185
21
0
31
0
39
0
210
0
220
0
230
1
0
LINE
5
94
100
AcDbEntity
8
1
62
256
6
ByLayer
370
13
48
1
60
0
100
AcDbLine
10
13.461325
20
30.080593
30
0
11
13.461325
21
9.349221
31
0
39
0
210
0
220
0
230
1
0
LINE
5
95
100
AcDbEntity
8
1
62
256
6
ByLayer
370
18
48
1
60
0
100
AcDbLine
10
0.3
20
0
30
0
11
0.3
21
31.5
31
0
39
0
210
0
220
0
230
1
0
LINE
5
96
100
AcDbEntity
8
1
62
256
6
ByLayer
370
18
48
1
60
0
100
AcDbLine
10
0.3
20
-31.5
30
0
11
0.3
21
0
31
0
39
0
210
0
220
0
230
1
0
LINE
5
97
100
AcDbEntity
8
1
62
256
6
ByLayer
370
18
48
1
60
0
100
AcDbLine
10
13.461325
20
30.080593
30
0
11
10.538675
21
30.080593
31
0
39
0
210
0
220
0
230
1
0
LINE
5
98
100
AcDbEntity
8
1
62
256
6
ByLayer
370
13
48
1
60
0
100
AcDbLine
10
10.105662
20
-9.869413
30
0
11
10.105662
21
-29.913955
31
0
39
0
210
0
220
0
230
1
0
LINE
5
99
100
AcDbEntity
8
1
62
256
6
ByLayer
370
18
48
1
60
0
100
AcDbLine
10
10.538675
20
-30.080593
30
0
11
13.461325
21
-30.080593
31
0
39
0
210
0
220
0
230
1
0
LINE
5
9A
100
AcDbEntity
8
1
62
256
6
ByLayer
370
13
48
1
60
0
100
AcDbLine
10
22.839528
20
31.496065
30
0
11
22.839528
21
-31.496065
31
0
39
0
210
0
220
0
230
1
0
LINE
5
9B
100
AcDbEntity
8
1
62
256
6
ByLayer
370
13
48
1
60
0
100
AcDbLine
10
180
20
-16
30
0
11
180
21
16
31
0
39
0
210
0
220
0
230
1
0
LINE
5
9C
100
AcDbEntity
8
1
62
256
6
ByLayer
370
18
48
1
60
0
100
AcDbLine
10
13.461325
20
-9.349221
30
0
11
10.538675
21
-9.349221
31
0
39
0
210
0
220
0
230
1
0
LINE
5
9D
100
AcDbEntity
8
1
62
256
6
ByLayer
370
13
48
1
60
0
100
AcDbLine
10
10.105662
20
29.913955
30
0
11
10.105662
21
9.869413
31
0
39
0
210
0
220
0
230
1
0
LINE
5
9E
100
AcDbEntity
8
1
62
256
6
ByLayer
370
18
48
1
60
0
100
AcDbLine
10
10.538675
20
9.349221
30
0
11
13.461325
21
9.349221
31
0
39
0
210
0
220
0
230
1
0
LINE
5
9F
100
AcDbEntity
8
1
62
256
6
ByLayer
370
13
48
1
60
0
100
AcDbLine
10
13.461325
20
-9.349221
30
0
11
13.461325
21
-30.080593
31
0
39
0
210
0
220
0
230
1
0
LINE
5
A0
100
AcDbEntity
8
1
62
256
6
ByLayer
370
13
48
1
60
0
100
AcDbLine
10
13.894338
20
-9.869413
30
0
11
13.894338
21
-29.913955
31
0
39
0
210
0
220
0
230
1
0
LINE
5
A1
100
AcDbEntity
8
1
62
256
6
ByLayer
370
18
48
1
60
0
100
AcDbLine
10
184.7
20
0
30
0
11
184.7
21
16
31
0
39
0
210
0
220
0
230
1
0
LINE
5
A2
100
AcDbEntity
8
1
62
256
6
ByLayer
370
18
48
1
60
0
100
AcDbLine
10
184.7
20
-16
30
0
11
184.7
21
0
31
0
39
0
210
0
220
0
230
1
0
LINE
5
A3
100
AcDbEntity
8
SK1
62
256
6
ByLayer
370
18
48
1
60
0
100
AcDbLine
10
-0.394977
20
21.865379
30
0
11
-0.394977
21
21.865031
31
0
39
0
210
0
220
0
230
1
0
LINE
5
A4
100
AcDbEntity
8
SK1
62
256
6
ByLayer
370
18
48
1
60
0
100
AcDbLine
10
-0.394977
20
-21.865031
30
0
11
-0.394977
21
-21.865379
31
0
39
0
210
0
220
0
230
1
0
LINE
5
A5
100
AcDbEntity
8
SK1
62
256
6
ByLayer
370
18
48
1
60
0
100
AcDbLine
10
-0.2
20
7.059518
30
0
11
-0.2
21
22.533485
31
0
39
0
210
0
220
0
230
1
0
LINE
5
A6
100
AcDbEntity
8
SK1
62
256
6
ByLayer
370
13
48
1
60
0
100
AcDbLine
10
-1.307107
20
-4.811013
30
0
11
-1.307107
21
4.811013
31
0
39
0
210
0
220
0
230
1
0
LINE
5
A7
100
AcDbEntity
8
SK1
62
256
6
ByLayer
370
18
48
1
60
0
100
AcDbLine
10
-0.2
20
-22.533485
30
0
11
-0.2
21
-7.059517
31
0
39
0
210
0
220
0
230
1
0
MTEXT
5
CF
100
AcDbEntity
8
SK6
62
256
6
ByLayer
370
18
48
1
60
0
100
AcDbMText
10
0.875
20
-47.375
30
0
210
0
220
0
230
1
1
\W0.7044;C6-391.02-32185
40
3.5
41
0
44
1.084337
50
0
71
7
72
5
7
iso_b_vert
0
DIMENSION
5
DD
100
AcDbEntity
8
SK2
62
256
6
ByLayer
370
13
48
1
60
0
100
AcDbDimension
2
DimnDraft3D1
10
22
20
38.1
30
0
11
8.955263
21
38.1
31
0
70
32
71
5
72
1
41
1
210
0
220
0
230
1
3
Standard
100
AcDbAlignedDimension
13
0
23
33.0875
33
0
14
22
24
33.0875
34
0
50
0
100
AcDbRotatedDimension
1001
ACAD
1000
DSTYLE
1002
{
1070
   279
1070
     0
1070
   172
1070
     1
1070
   173
1070
     1
1070
   340
1005
D0
1070
   271
1070
     1
1070
   272
1070
     2
1070
    77
1070
     1
1070
    73
1070
     0
1070
   171
1070
     3
1070
   274
1070
     4
1070
   177
1070
     2
1070
   176
1070
     2
1070
   178
1070
     2
1070
    78
1070
     8
1070
    48
1040
-0.005
1070
    41
1041
3.5
1070
   147
1041
1.75
1070
    42
1041
1.5875
1070
    44
1041
2.0
1070
   140
1041
3.5
1070
   343
1005
0
1070
   344
1005
0
1002
}
0
DIMENSION
5
E7
100
AcDbEntity
8
SK2
62
256
6
ByLayer
370
13
48
1
60
0
100
AcDbDimension
2
DimnDraft3D2
10
180
20
48.1
30
0
11
181.740132
21
48.1
31
0
70
32
71
5
72
1
41
1
210
0
220
0
230
1
3
Standard
100
AcDbAlignedDimension
13
185
23
17.5875
33
0
14
180
24
17.5875
34
0
50
0
100
AcDbRotatedDimension
1001
ACAD
1000
DSTYLE
1002
{
1070
   279
1070
     0
1070
   172
1070
     1
1070
   173
1070
     1
1070
   340
1005
D0
1070
   271
1070
     1
1070
   272
1070
     2
1070
    77
1070
     1
1070
    73
1070
     0
1070
   171
1070
     3
1070
   274
1070
     4
1070
   177
1070
     2
1070
   176
1070
     2
1070
   178
1070
     2
1070
    78
1070
     8
1070
    48
1040
-0.005
1070
    41
1041
3.5
1070
   147
1041
1.75
1070
    42
1041
1.5875
1070
    44
1041
2.0
1070
   140
1041
3.5
1070
   343
1005
0
1070
   344
1005
0
1002
}
0
DIMENSION
5
F2
100
AcDbEntity
8
2
62
256
6
ByLayer
370
13
48
1
60
0
100
AcDbDimension
2
DimnDraft3D3
10
0
20
58.1
30
0
11
89.607895
21
58.1
31
0
70
32
71
5
72
1
41
1
210
0
220
0
230
1
3
Standard
100
AcDbAlignedDimension
13
185
23
17.5875
33
0
14
0
24
33.0875
34
0
50
0
100
AcDbRotatedDimension
1001
ACAD
1000
DSTYLE
1002
{
1070
   279
1070
     0
1070
   172
1070
     1
1070
   173
1070
     1
1070
   340
1005
D0
1070
   271
1070
     1
1070
   272
1070
     2
1070
    77
1070
     1
1070
    73
1070
     0
1070
   171
1070
     3
1070
   274
1070
     4
1070
   177
1070
     2
1070
   176
1070
     2
1070
   178
1070
     2
1070
    78
1070
     8
1070
    48
1040
-0.005
1070
    41
1041
3.5
1070
   147
1041
1.75
1070
    42
1041
1.5875
1070
    44
1041
2.0
1070
   140
1041
3.5
1070
   343
1005
0
1070
   344
1005
0
1002
}
0
DIMENSION
5
FC
100
AcDbEntity
8
SK2
62
256
6
ByLayer
370
13
48
1
60
0
100
AcDbDimension
2
DimnDraft3D4
10
0
20
58.1
30
0
11
-21.090789
21
58.1
31
0
70
32
71
5
72
1
41
1
210
0
220
0
230
1
3
Standard
100
AcDbAlignedDimension
13
-38
23
23.5875
33
0
14
0
24
33.0875
34
0
50
0
100
AcDbRotatedDimension
1001
ACAD
1000
DSTYLE
1002
{
1070
   279
1070
     0
1070
   172
1070
     1
1070
   173
1070
     1
1070
   340
1005
D0
1070
   271
1070
     1
1070
   272
1070
     2
1070
    77
1070
     1
1070
    73
1070
     0
1070
   171
1070
     3
1070
   274
1070
     4
1070
   177
1070
     2
1070
   176
1070
     2
1070
   178
1070
     2
1070
    78
1070
     8
1070
    48
1040
-0.005
1070
    41
1041
3.5
1070
   147
1041
1.75
1070
    42
1041
1.5875
1070
    44
1041
2.0
1070
   140
1041
3.5
1070
   343
1005
0
1070
   344
1005
0
1002
}
0
DIMENSION
5
107
100
AcDbEntity
8
SK2
62
256
6
ByLayer
370
13
48
1
60
0
100
AcDbDimension
2
DimnDraft3D5
10
-61.6
20
-31.5
30
0
11
-62.225
21
1.455263
31
0
70
33
71
5
72
1
41
1
210
0
220
0
230
1
3
Standard
100
AcDbAlignedDimension
13
-1.5875
23
31.5
33
0
14
-1.5875
24
-31.5
34
0
1001
ACAD
1000
DSTYLE
1002
{
1070
   279
1070
     0
1070
    74
1070
     0
1070
   173
1070
     1
1070
   340
1005
D0
1070
   271
1070
     1
1070
   272
1070
     2
1070
    77
1070
     1
1070
    73
1070
     0
1070
   171
1070
     3
1070
   274
1070
     4
1070
   177
1070
     2
1070
   176
1070
     2
1070
   178
1070
     2
1070
    78
1070
     8
1070
    48
1040
-0.005
1070
    41
1041
3.5
1070
   147
1041
1.75
1070
    42
1041
1.5875
1070
    44
1041
2.0
1070
   140
1041
3.5
1070
   343
1005
0
1070
   344
1005
0
1002
}
0
DIMENSION
5
112
100
AcDbEntity
8
SK2
62
256
6
ByLayer
370
13
48
1
60
0
100
AcDbDimension
2
DimnDraft3D6
10
212.1
20
-16
30
0
11
207.475
21
1.455263
31
0
70
33
71
5
72
1
41
1
210
0
220
0
230
1
3
Standard
100
AcDbAlignedDimension
13
186.5875
23
16
33
0
14
186.5875
24
-16
34
0
1001
ACAD
1000
DSTYLE
1002
{
1070
   279
1070
     0
1070
    74
1070
     0
1070
   173
1070
     1
1070
   340
1005
D0
1070
   271
1070
     1
1070
   272
1070
     2
1070
    77
1070
     1
1070
    73
1070
     0
1070
   171
1070
     3
1070
   274
1070
     4
1070
   177
1070
     2
1070
   176
1070
     2
1070
   178
1070
     2
1070
    78
1070
     8
1070
    48
1040
-0.005
1070
    41
1041
3.5
1070
   147
1041
1.75
1070
    42
1041
1.5875
1070
    44
1041
2.0
1070
   140
1041
3.5
1070
   343
1005
0
1070
   344
1005
0
1002
}
0
ENDSEC
0
SECTION
2
OBJECTS
0
DICTIONARY
5
17d
330
0
100
AcDbDictionary
280
0
281
1
3
ACAD_GROUP
350
17e
3
ACAD_MLINESTYLE
350
17f
0
DICTIONARY
5
17e
330
0
100
AcDbDictionary
280
0
281
1
0
DICTIONARY
5
17f
330
0
100
AcDbDictionary
280
0
281
1
3
Standard
350
18
0
MLINESTYLE
5
18
330
17f
100
AcDbMlineStyle
2
Standard
70
0
3

62
256
51
90
52
90
71
2
49
-0.5
62
256
6
ByLayer
49
0.5
62
256
6
ByLayer
0
RASTERVARIABLES
5
16b
330

100
AcDbRasterVariables
90
0
70
1
71
1
72
1
0
ENDSEC
0
EOF
