0
SECTION
2
HEADER
9
$ACADVER
1
AC1015
9
$DWGCODEPAGE
3
ANSI_1252
9
$HANDSEED
5
1de
9
$ANGBASE
50
0
9
$ANGDIR
70
0
9
$ATTMODE
70
1
9
$AUNITS
70
0
9
$AUPREC
70
0
9
$CECOLOR
62
256
9
$CELTSCALE
40
1
9
$CELTYPE
6
ByLayer
9
$CELWEIGHT
370
18
9
$CLAYER
8
0
9
$CMLJUST
70
0
9
$CMLSCALE
40
1
9
$CMLSTYLE
2
Standard
9
$DIMSTYLE
2
Standard
9
$TEXTSIZE
40
0.2
9
$TEXTSTYLE
7
Standard
9
$LUNITS
70
2
9
$LUPREC
70
4
9
$EXTNAMES
290
1
9
$INSUNITS
70
4
9
$LTSCALE
40
1
9
$LWDISPLAY
290
1
9
$PDMODE
70
0
9
$PDSIZE
40
0
9
$PLINEGEN
70
0
0
ENDSEC
0
SECTION
2
CLASSES
0
CLASS
1
RASTERVARIABLES
2
AcDbRasterVariables
3
ISM
90
0
280
0
281
0
0
ENDSEC
0
SECTION
2
TABLES
0
TABLE
2
VPORT
5
1d4
100
AcDbSymbolTable
0
VPORT
5
1
100
AcDbSymbolTableRecord
100
AcDbViewportTableRecord
2
*Active
70
0
10
0
20
0
11
1
21
1
12
-1
22
1
13
0
23
0
14
0.5
24
0.5
15
10
25
10
16
0
26
0
36
1
17
0
27
0
37
0
0
ENDTAB
0
TABLE
2
LTYPE
5
1d5
100
AcDbSymbolTable
0
LTYPE
5
14
100
AcDbSymbolTableRecord
100
AcDbLinetypeTableRecord
70
0
2
ByBlock
3

72
65
73
0
40
0
0
LTYPE
5
15
100
AcDbSymbolTableRecord
100
AcDbLinetypeTableRecord
70
0
2
ByLayer
3

72
65
73
0
40
0
0
LTYPE
5
16
100
AcDbSymbolTableRecord
100
AcDbLinetypeTableRecord
70
0
2
CONTINUOUS
3
Solid line
72
65
73
0
40
0
0
LTYPE
5
6A
100
AcDbSymbolTableRecord
100
AcDbLinetypeTableRecord
70
0
2
CENTER
3
____ _ ____ _ ____ _ ____
72
65
73
4
40
47.5
49
22
74
0
49
-8.5
74
0
49
8.5
74
0
49
-8.5
74
0
0
LTYPE
5
6B
100
AcDbSymbolTableRecord
100
AcDbLinetypeTableRecord
70
0
2
DASHED
3
__ __ __ __ __ __ __ __ __
72
65
73
2
40
25.72
49
12.86
74
0
49
-12.86
74
0
0
ENDTAB
0
TABLE
2
LAYER
5
1d6
100
AcDbSymbolTable
0
LAYER
5
10
100
AcDbSymbolTableRecord
100
AcDbLayerTableRecord
2
0
70
0
62
7
6
CONTINUOUS
290
1
370
-3
390
0
0
LAYER
5
6D
100
AcDbSymbolTableRecord
100
AcDbLayerTableRecord
2
80
70
0
62
-6
6
CONTINUOUS
290
1
370
-3
390
0
0
LAYER
5
6F
100
AcDbSymbolTableRecord
100
AcDbLayerTableRecord
2
81
70
0
62
-3
6
CONTINUOUS
290
1
370
-3
390
0
0
LAYER
5
71
100
AcDbSymbolTableRecord
100
AcDbLayerTableRecord
2
1
70
0
62
4
6
CONTINUOUS
290
1
370
-3
390
0
0
LAYER
5
BB
100
AcDbSymbolTableRecord
100
AcDbLayerTableRecord
2
4
70
0
62
-2
6
CENTER
290
1
370
-3
390
0
0
LAYER
5
133
100
AcDbSymbolTableRecord
100
AcDbLayerTableRecord
2
2
70
0
62
7
6
CONTINUOUS
290
1
370
-3
390
0
0
LAYER
5
1bf
100
AcDbSymbolTableRecord
100
AcDbLayerTableRecord
2
SK4
70
0
62
2
6
CENTER
290
1
370
-3
390
0
0
LAYER
5
1c0
100
AcDbSymbolTableRecord
100
AcDbLayerTableRecord
2
SK1
70
0
62
4
6
CONTINUOUS
290
1
370
-3
390
0
0
LAYER
5
1c1
100
AcDbSymbolTableRecord
100
AcDbLayerTableRecord
2
SK3
70
0
62
1
6
DASHED
290
1
370
-3
390
0
0
LAYER
5
1c2
100
AcDbSymbolTableRecord
100
AcDbLayerTableRecord
2
SK6
70
0
62
5
6
CONTINUOUS
290
1
370
-3
390
0
0
LAYER
5
1c3
100
AcDbSymbolTableRecord
100
AcDbLayerTableRecord
2
SK2
70
0
62
7
6
CONTINUOUS
290
1
370
-3
390
0
0
ENDTAB
0
TABLE
2
STYLE
5
1d7
100
AcDbSymbolTable
0
STYLE
5
11
100
AcDbSymbolTableRecord
100
AcDbTextStyleTableRecord
2
Standard
3
txt
70
0
71
0
40
0
41
1
42
0
50
0
0
STYLE
5
122
100
AcDbSymbolTableRecord
100
AcDbTextStyleTableRecord
2
iso_b_vert
3
simplex.shx
70
0
71
0
40
0
41
1
42
0
50
0
0
STYLE
5
123
100
AcDbSymbolTableRecord
100
AcDbTextStyleTableRecord
2
DWGDirectTextStyle
3
simplex
70
0
71
0
40
0
41
1
42
0
50
0
0
ENDTAB
0
TABLE
2
DIMSTYLE
5
1d8
100
AcDbSymbolTable
100
AcDbDimStyleTable
0
DIMSTYLE
105
27
100
AcDbSymbolTableRecord
100
AcDbDimStyleTableRecord
2
Standard
70
0
3
<>
41
0.18
42
0.0625
44
0.18
140
0.18
147
0.09
73
0
74
0
77
1
271
2
275
0
278
52
280
0
340
11
0
ENDTAB
0
TABLE
2
VIEW
5
1d9
100
AcDbSymbolTable
0
ENDTAB
0
TABLE
2
UCS
5
1da
100
AcDbSymbolTable
0
ENDTAB
0
TABLE
2
APPID
5
1db
100
AcDbSymbolTable
0
APPID
5
12
100
AcDbSymbolTableRecord
100
AcDbRegAppTableRecord
2
ACAD
70
0
0
ENDTAB
0
TABLE
2
BLOCK_RECORD
5
1dc
100
AcDbSymbolTable
0
BLOCK_RECORD
5
1F
100
AcDbSymbolTableRecord
100
AcDbBlockTableRecord
2
*Model_Space
340
0
70
0
0
BLOCK_RECORD
5
1B
100
AcDbSymbolTableRecord
100
AcDbBlockTableRecord
2
*Paper_Space
340
0
70
0
0
BLOCK_RECORD
5
23
100
AcDbSymbolTableRecord
100
AcDbBlockTableRecord
2
*Paper_Space0
340
0
70
0
0
BLOCK_RECORD
5
125
100
AcDbSymbolTableRecord
100
AcDbBlockTableRecord
2
DimnDraft3D1
340
0
70
0
0
BLOCK_RECORD
5
131
100
AcDbSymbolTableRecord
100
AcDbBlockTableRecord
2
DimnDraft3D2
340
0
70
0
0
BLOCK_RECORD
5
13C
100
AcDbSymbolTableRecord
100
AcDbBlockTableRecord
2
DimnDraft3D3
340
0
70
0
0
BLOCK_RECORD
5
147
100
AcDbSymbolTableRecord
100
AcDbBlockTableRecord
2
DimnDraft3D4
340
0
70
0
0
BLOCK_RECORD
5
151
100
AcDbSymbolTableRecord
100
AcDbBlockTableRecord
2
DimnDraft3D5
340
0
70
0
0
BLOCK_RECORD
5
15B
100
AcDbSymbolTableRecord
100
AcDbBlockTableRecord
2
DimnDraft3D6
340
0
70
0
0
ENDTAB
0
ENDSEC
0
SECTION
2
BLOCKS
0
BLOCK
5
20
100
AcDbEntity
8
0
100
AcDbBlockBegin
2
*Model_Space
70
0
10
0
20
0
30
0
3
*Model_Space
0
ENDBLK
5
21
100
AcDbEntity
8
0
100
AcDbBlockEnd
0
BLOCK
5
1C
100
AcDbEntity
8
0
100
AcDbBlockBegin
2
*Paper_Space
70
0
10
0
20
0
30
0
3
*Paper_Space
0
ENDBLK
5
1D
100
AcDbEntity
8
0
100
AcDbBlockEnd
0
BLOCK
5
24
100
AcDbEntity
8
0
100
AcDbBlockBegin
2
*Paper_Space0
70
0
10
0
20
0
30
0
3
*Paper_Space0
0
ENDBLK
5
25
100
AcDbEntity
8
0
100
AcDbBlockEnd
0
BLOCK
5
12E
100
AcDbEntity
8
0
100
AcDbBlockBegin
2
DimnDraft3D1
70
0
10
0
20
0
30
0
3
DimnDraft3D1
0
MTEXT
5
126
100
AcDbEntity
8
SK2
62
256
6
ByLayer
370
18
48
1
60
0
100
AcDbMText
10
-59.125
20
1.708553
30
0
210
0
220
0
230
1
1
\W0.6740;63
40
3.5
41
0
44
1.084337
50
90
71
7
72
5
7
iso_b_vert
0
MTEXT
5
128
100
AcDbEntity
8
SK2
62
256
6
ByLayer
370
18
48
1
60
0
100
AcDbMText
10
-59.125
20
-4.140132
30
0
210
0
220
0
230
1
1
\W1.3781;%%c
40
3.5
41
0
44
1.084337
50
90
71
7
72
5
7
iso_b_vert
0
LINE
5
129
100
AcDbEntity
8
SK2
62
256
6
ByLayer
370
13
48
1
60
0
100
AcDbLine
10
-1.7
20
-31.5
30
0
11
-60.25
21
-31.5
31
0
39
0
210
0
220
0
230
1
0
LINE
5
12A
100
AcDbEntity
8
SK2
62
256
6
ByLayer
370
13
48
1
60
0
100
AcDbLine
10
-1.7
20
31.5
30
0
11
-60.25
21
31.5
31
0
39
0
210
0
220
0
230
1
0
LINE
5
12B
100
AcDbEntity
8
SK2
62
256
6
ByLayer
370
13
48
1
60
0
100
AcDbLine
10
-58.25
20
-31.5
30
0
11
-58.25
21
31.5
31
0
39
0
210
0
220
0
230
1
0
SOLID
5
12C
100
AcDbEntity
8
SK2
62
256
6
ByLayer
370
13
48
1
60
0
100
AcDbTrace
10
-58.25
20
-31.5
30
0
11
-58.667997
21
-28.325002
31
0
12
-57.832003
22
-28.324998
32
0
13
-58.25
23
-31.5
33
0
39
0
210
0
220
0
230
1
0
SOLID
5
12D
100
AcDbEntity
8
SK2
62
256
6
ByLayer
370
13
48
1
60
0
100
AcDbTrace
10
-58.25
20
31.5
30
0
11
-57.832003
21
28.325002
31
0
12
-58.667997
22
28.324998
32
0
13
-58.25
23
31.5
33
0
39
0
210
0
220
0
230
1
0
ENDBLK
5
12F
100
AcDbEntity
8
0
100
AcDbBlockEnd
0
BLOCK
5
139
100
AcDbEntity
8
0
100
AcDbBlockBegin
2
DimnDraft3D2
70
0
10
0
20
0
30
0
3
DimnDraft3D2
0
MTEXT
5
132
100
AcDbEntity
8
2
62
256
6
ByLayer
370
18
48
1
60
0
100
AcDbMText
10
53.351316
20
59.125
30
0
210
0
220
0
230
1
1
\W0.5296;110
40
3.5
41
0
44
1.084337
50
0
71
7
72
5
7
iso_b_vert
0
LINE
5
134
100
AcDbEntity
8
2
62
256
6
ByLayer
370
13
48
1
60
0
100
AcDbLine
10
110
20
32.5
30
0
11
110
21
60.25
31
0
39
0
210
0
220
0
230
1
0
LINE
5
135
100
AcDbEntity
8
2
62
256
6
ByLayer
370
13
48
1
60
0
100
AcDbLine
10
0
20
33.2
30
0
11
0
21
60.25
31
0
39
0
210
0
220
0
230
1
0
LINE
5
136
100
AcDbEntity
8
2
62
256
6
ByLayer
370
13
48
1
60
0
100
AcDbLine
10
110
20
58.25
30
0
11
0
21
58.25
31
0
39
0
210
0
220
0
230
1
0
SOLID
5
137
100
AcDbEntity
8
2
62
256
6
ByLayer
370
13
48
1
60
0
100
AcDbTrace
10
110
20
58.25
30
0
11
106.825002
21
57.832003
31
0
12
106.824999
22
58.667997
32
0
13
110
23
58.25
33
0
39
0
210
0
220
0
230
1
0
SOLID
5
138
100
AcDbEntity
8
2
62
256
6
ByLayer
370
13
48
1
60
0
100
AcDbTrace
10
0
20
58.25
30
0
11
3.174998
21
58.667997
31
0
12
3.175002
22
57.832003
32
0
13
0
23
58.25
33
0
39
0
210
0
220
0
230
1
0
ENDBLK
5
13A
100
AcDbEntity
8
0
100
AcDbBlockEnd
0
BLOCK
5
144
100
AcDbEntity
8
0
100
AcDbBlockBegin
2
DimnDraft3D3
70
0
10
0
20
0
30
0
3
DimnDraft3D3
0
MTEXT
5
13D
100
AcDbEntity
8
SK2
62
256
6
ByLayer
370
18
48
1
60
0
100
AcDbMText
10
150.875
20
1.708553
30
0
210
0
220
0
230
1
1
\W0.6740;65
40
3.5
41
0
44
1.084337
50
90
71
7
72
5
7
iso_b_vert
0
MTEXT
5
13E
100
AcDbEntity
8
SK2
62
256
6
ByLayer
370
18
48
1
60
0
100
AcDbMText
10
150.875
20
-4.140132
30
0
210
0
220
0
230
1
1
\W1.3781;%%c
40
3.5
41
0
44
1.084337
50
90
71
7
72
5
7
iso_b_vert
0
LINE
5
13F
100
AcDbEntity
8
SK2
62
256
6
ByLayer
370
13
48
1
60
0
100
AcDbLine
10
110
20
-32.5
30
0
11
153.75
21
-32.5
31
0
39
0
210
0
220
0
230
1
0
LINE
5
140
100
AcDbEntity
8
SK2
62
256
6
ByLayer
370
13
48
1
60
0
100
AcDbLine
10
110
20
32.5
30
0
11
153.75
21
32.5
31
0
39
0
210
0
220
0
230
1
0
LINE
5
141
100
AcDbEntity
8
SK2
62
256
6
ByLayer
370
13
48
1
60
0
100
AcDbLine
10
151.75
20
-32.5
30
0
11
151.75
21
32.5
31
0
39
0
210
0
220
0
230
1
0
SOLID
5
142
100
AcDbEntity
8
SK2
62
256
6
ByLayer
370
13
48
1
60
0
100
AcDbTrace
10
151.75
20
-32.5
30
0
11
151.332003
21
-29.325002
31
0
12
152.167997
22
-29.324998
32
0
13
151.75
23
-32.5
33
0
39
0
210
0
220
0
230
1
0
SOLID
5
143
100
AcDbEntity
8
SK2
62
256
6
ByLayer
370
13
48
1
60
0
100
AcDbTrace
10
151.75
20
32.5
30
0
11
152.167997
21
29.325002
31
0
12
151.332003
22
29.324998
32
0
13
151.75
23
32.5
33
0
39
0
210
0
220
0
230
1
0
ENDBLK
5
145
100
AcDbEntity
8
0
100
AcDbBlockEnd
0
BLOCK
5
14E
100
AcDbEntity
8
0
100
AcDbBlockBegin
2
DimnDraft3D4
70
0
10
0
20
0
30
0
3
DimnDraft3D4
0
MTEXT
5
148
100
AcDbEntity
8
2
62
256
6
ByLayer
370
18
48
1
60
0
100
AcDbMText
10
56.913816
20
-45.875
30
0
210
0
220
0
230
1
1
\W0.6217;102
40
3.5
41
0
44
1.084337
50
0
71
7
72
5
7
iso_b_vert
0
LINE
5
149
100
AcDbEntity
8
2
62
256
6
ByLayer
370
13
48
1
60
0
100
AcDbLine
10
110
20
-22
30
0
11
110
21
-48.75
31
0
39
0
210
0
220
0
230
1
0
LINE
5
14A
100
AcDbEntity
8
2
62
256
6
ByLayer
370
13
48
1
60
0
100
AcDbLine
10
8
20
-22
30
0
11
8
21
-48.75
31
0
39
0
210
0
220
0
230
1
0
LINE
5
14B
100
AcDbEntity
8
2
62
256
6
ByLayer
370
13
48
1
60
0
100
AcDbLine
10
110
20
-46.75
30
0
11
8
21
-46.75
31
0
39
0
210
0
220
0
230
1
0
SOLID
5
14C
100
AcDbEntity
8
2
62
256
6
ByLayer
370
13
48
1
60
0
100
AcDbTrace
10
110
20
-46.75
30
0
11
106.825002
21
-47.167997
31
0
12
106.824999
22
-46.332003
32
0
13
110
23
-46.75
33
0
39
0
210
0
220
0
230
1
0
SOLID
5
14D
100
AcDbEntity
8
2
62
256
6
ByLayer
370
13
48
1
60
0
100
AcDbTrace
10
8
20
-46.75
30
0
11
11.174998
21
-46.332003
31
0
12
11.175002
22
-47.167997
32
0
13
8
23
-46.75
33
0
39
0
210
0
220
0
230
1
0
ENDBLK
5
14F
100
AcDbEntity
8
0
100
AcDbBlockEnd
0
BLOCK
5
158
100
AcDbEntity
8
0
100
AcDbBlockBegin
2
DimnDraft3D5
70
0
10
0
20
0
30
0
3
DimnDraft3D5
0
MTEXT
5
152
100
AcDbEntity
8
2
62
256
6
ByLayer
370
18
48
1
60
0
100
AcDbMText
10
9.784211
20
44.125
30
0
210
0
220
0
230
1
1
\W0.6740;22
40
3.5
41
0
44
1.084337
50
0
71
7
72
5
7
iso_b_vert
0
LINE
5
153
100
AcDbEntity
8
2
62
256
6
ByLayer
370
13
48
1
60
0
100
AcDbLine
10
0
20
33.2
30
0
11
0
21
45.25
31
0
39
0
210
0
220
0
230
1
0
LINE
5
154
100
AcDbEntity
8
2
62
256
6
ByLayer
370
13
48
1
60
0
100
AcDbLine
10
22
20
33.5
30
0
11
22
21
45.25
31
0
39
0
210
0
220
0
230
1
0
LINE
5
155
100
AcDbEntity
8
2
62
256
6
ByLayer
370
13
48
1
60
0
100
AcDbLine
10
0
20
43.25
30
0
11
22
21
43.25
31
0
39
0
210
0
220
0
230
1
0
SOLID
5
156
100
AcDbEntity
8
2
62
256
6
ByLayer
370
13
48
1
60
0
100
AcDbTrace
10
0
20
43.25
30
0
11
3.174998
21
43.667997
31
0
12
3.175002
22
42.832003
32
0
13
0
23
43.25
33
0
39
0
210
0
220
0
230
1
0
SOLID
5
157
100
AcDbEntity
8
2
62
256
6
ByLayer
370
13
48
1
60
0
100
AcDbTrace
10
22
20
43.25
30
0
11
18.825002
21
42.832003
31
0
12
18.824998
22
43.667997
32
0
13
22
23
43.25
33
0
39
0
210
0
220
0
230
1
0
ENDBLK
5
159
100
AcDbEntity
8
0
100
AcDbBlockEnd
0
BLOCK
5
163
100
AcDbEntity
8
0
100
AcDbBlockBegin
2
DimnDraft3D6
70
0
10
0
20
0
30
0
3
DimnDraft3D6
0
MTEXT
5
15C
100
AcDbEntity
8
SK2
62
256
6
ByLayer
370
18
48
1
60
0
100
AcDbMText
10
135.875
20
1.524342
30
0
210
0
220
0
230
1
1
\W0.7361;40
40
3.5
41
0
44
1.084337
50
90
71
7
72
5
7
iso_b_vert
0
MTEXT
5
15D
100
AcDbEntity
8
SK2
62
256
6
ByLayer
370
18
48
1
60
0
100
AcDbMText
10
135.875
20
-4.324342
30
0
210
0
220
0
230
1
1
\W1.3781;%%c
40
3.5
41
0
44
1.084337
50
90
71
7
72
5
7
iso_b_vert
0
LINE
5
15E
100
AcDbEntity
8
SK2
62
256
6
ByLayer
370
13
48
1
60
0
100
AcDbLine
10
112
20
20
30
0
11
138.75
21
20
31
0
39
0
210
0
220
0
230
1
0
LINE
5
15F
100
AcDbEntity
8
SK2
62
256
6
ByLayer
370
13
48
1
60
0
100
AcDbLine
10
112
20
-20
30
0
11
138.75
21
-20
31
0
39
0
210
0
220
0
230
1
0
LINE
5
160
100
AcDbEntity
8
SK2
62
256
6
ByLayer
370
13
48
1
60
0
100
AcDbLine
10
136.75
20
20
30
0
11
136.75
21
-20
31
0
39
0
210
0
220
0
230
1
0
SOLID
5
161
100
AcDbEntity
8
SK2
62
256
6
ByLayer
370
13
48
1
60
0
100
AcDbTrace
10
136.75
20
20
30
0
11
137.167997
21
16.825002
31
0
12
136.332003
22
16.824998
32
0
13
136.75
23
20
33
0
39
0
210
0
220
0
230
1
0
SOLID
5
162
100
AcDbEntity
8
SK2
62
256
6
ByLayer
370
13
48
1
60
0
100
AcDbTrace
10
136.75
20
-20
30
0
11
136.332003
21
-16.825002
31
0
12
137.167997
22
-16.824998
32
0
13
136.75
23
-20
33
0
39
0
210
0
220
0
230
1
0
ENDBLK
5
164
100
AcDbEntity
8
0
100
AcDbBlockEnd
0
ENDSEC
0
SECTION
2
ENTITIES
0
ARC
5
C2
100
AcDbEntity
8
1
62
256
6
ByLayer
370
13
48
1
60
0
100
AcDbCircle
39
0
10
91
20
0
30
0
40
8.5
210
0
220
0
230
1
100
AcDbArc
50
75
51
345
0
ARC
5
C3
100
AcDbEntity
8
1
62
256
6
ByLayer
370
13
48
1
60
0
100
AcDbCircle
39
0
10
57.5
20
0
30
0
40
8.5
210
0
220
0
230
1
100
AcDbArc
50
75
51
345
0
ARC
5
C4
100
AcDbEntity
8
1
62
256
6
ByLayer
370
18
48
1
60
0
100
AcDbCircle
39
0
10
91
20
0
30
0
40
4.1
210
0
220
0
230
1
100
AcDbArc
50
192.680383
51
227.319617
0
ARC
5
C5
100
AcDbEntity
8
1
62
256
6
ByLayer
370
18
48
1
60
0
100
AcDbCircle
39
0
10
91
20
0
30
0
40
4.5
210
0
220
0
230
1
100
AcDbArc
50
32.733956
51
87.266044
0
ARC
5
C6
100
AcDbEntity
8
1
62
256
6
ByLayer
370
18
48
1
60
0
100
AcDbCircle
39
0
10
91
20
0
30
0
40
4.5
210
0
220
0
230
1
100
AcDbArc
50
92.733956
51
147.266044
0
ARC
5
C7
100
AcDbEntity
8
1
62
256
6
ByLayer
370
18
48
1
60
0
100
AcDbCircle
39
0
10
91
20
0
30
0
40
4.5
210
0
220
0
230
1
100
AcDbArc
50
152.733956
51
207.266044
0
ARC
5
C8
100
AcDbEntity
8
1
62
256
6
ByLayer
370
18
48
1
60
0
100
AcDbCircle
39
0
10
91
20
0
30
0
40
4.5
210
0
220
0
230
1
100
AcDbArc
50
212.733956
51
267.266044
0
ARC
5
C9
100
AcDbEntity
8
1
62
256
6
ByLayer
370
18
48
1
60
0
100
AcDbCircle
39
0
10
91
20
0
30
0
40
4.5
210
0
220
0
230
1
100
AcDbArc
50
272.733956
51
327.266044
0
ARC
5
CA
100
AcDbEntity
8
1
62
256
6
ByLayer
370
18
48
1
60
0
100
AcDbCircle
39
0
10
91
20
0
30
0
40
4.5
210
0
220
0
230
1
100
AcDbArc
50
332.733956
51
27.266044
0
ARC
5
CC
100
AcDbEntity
8
1
62
256
6
ByLayer
370
18
48
1
60
0
100
AcDbCircle
39
0
10
91
20
0
30
0
40
4.1
210
0
220
0
230
1
100
AcDbArc
50
12.680383
51
47.319617
0
ARC
5
CD
100
AcDbEntity
8
1
62
256
6
ByLayer
370
18
48
1
60
0
100
AcDbCircle
39
0
10
91
20
0
30
0
40
4.1
210
0
220
0
230
1
100
AcDbArc
50
132.680383
51
167.319617
0
ARC
5
CE
100
AcDbEntity
8
1
62
256
6
ByLayer
370
18
48
1
60
0
100
AcDbCircle
39
0
10
91
20
0
30
0
40
4.1
210
0
220
0
230
1
100
AcDbArc
50
72.680383
51
107.319617
0
ARC
5
CF
100
AcDbEntity
8
1
62
256
6
ByLayer
370
18
48
1
60
0
100
AcDbCircle
39
0
10
91
20
0
30
0
40
4.1
210
0
220
0
230
1
100
AcDbArc
50
252.680383
51
287.319617
0
ARC
5
D0
100
AcDbEntity
8
1
62
256
6
ByLayer
370
18
48
1
60
0
100
AcDbCircle
39
0
10
91
20
0
30
0
40
4.1
210
0
220
0
230
1
100
AcDbArc
50
312.680383
51
347.319617
0
ARC
5
D1
100
AcDbEntity
8
1
62
256
6
ByLayer
370
18
48
1
60
0
100
AcDbCircle
39
0
10
57.5
20
0
30
0
40
4.1
210
0
220
0
230
1
100
AcDbArc
50
72.680383
51
107.319617
0
ARC
5
D2
100
AcDbEntity
8
1
62
256
6
ByLayer
370
18
48
1
60
0
100
AcDbCircle
39
0
10
57.5
20
0
30
0
40
4.1
210
0
220
0
230
1
100
AcDbArc
50
132.680383
51
167.319617
0
ARC
5
D3
100
AcDbEntity
8
1
62
256
6
ByLayer
370
18
48
1
60
0
100
AcDbCircle
39
0
10
57.5
20
0
30
0
40
4.1
210
0
220
0
230
1
100
AcDbArc
50
192.680383
51
227.319617
0
ARC
5
D4
100
AcDbEntity
8
1
62
256
6
ByLayer
370
18
48
1
60
0
100
AcDbCircle
39
0
10
57.5
20
0
30
0
40
4.1
210
0
220
0
230
1
100
AcDbArc
50
252.680383
51
287.319617
0
ARC
5
D5
100
AcDbEntity
8
1
62
256
6
ByLayer
370
18
48
1
60
0
100
AcDbCircle
39
0
10
57.5
20
0
30
0
40
4.1
210
0
220
0
230
1
100
AcDbArc
50
312.680383
51
347.319617
0
ARC
5
D6
100
AcDbEntity
8
1
62
256
6
ByLayer
370
18
48
1
60
0
100
AcDbCircle
39
0
10
57.5
20
0
30
0
40
4.1
210
0
220
0
230
1
100
AcDbArc
50
12.680383
51
47.319617
0
ARC
5
D7
100
AcDbEntity
8
1
62
256
6
ByLayer
370
18
48
1
60
0
100
AcDbCircle
39
0
10
57.5
20
0
30
0
40
4.5
210
0
220
0
230
1
100
AcDbArc
50
32.733956
51
87.266044
0
ARC
5
D8
100
AcDbEntity
8
1
62
256
6
ByLayer
370
18
48
1
60
0
100
AcDbCircle
39
0
10
57.5
20
0
30
0
40
4.5
210
0
220
0
230
1
100
AcDbArc
50
92.733956
51
147.266044
0
ARC
5
D9
100
AcDbEntity
8
1
62
256
6
ByLayer
370
18
48
1
60
0
100
AcDbCircle
39
0
10
57.5
20
0
30
0
40
4.5
210
0
220
0
230
1
100
AcDbArc
50
152.733956
51
207.266044
0
ARC
5
DA
100
AcDbEntity
8
1
62
256
6
ByLayer
370
18
48
1
60
0
100
AcDbCircle
39
0
10
57.5
20
0
30
0
40
4.5
210
0
220
0
230
1
100
AcDbArc
50
212.733956
51
267.266044
0
ARC
5
DB
100
AcDbEntity
8
1
62
256
6
ByLayer
370
18
48
1
60
0
100
AcDbCircle
39
0
10
57.5
20
0
30
0
40
4.5
210
0
220
0
230
1
100
AcDbArc
50
272.733956
51
327.266044
0
ARC
5
DC
100
AcDbEntity
8
1
62
256
6
ByLayer
370
18
48
1
60
0
100
AcDbCircle
39
0
10
57.5
20
0
30
0
40
4.5
210
0
220
0
230
1
100
AcDbArc
50
332.733956
51
27.266044
0
CIRCLE
5
C0
100
AcDbEntity
8
1
62
256
6
ByLayer
370
18
48
1
60
0
100
AcDbCircle
10
57.5
20
0
30
0
40
9
39
0
210
0
220
0
230
1
0
CIRCLE
5
C1
100
AcDbEntity
8
1
62
256
6
ByLayer
370
18
48
1
60
0
100
AcDbCircle
10
91
20
0
30
0
40
9
39
0
210
0
220
0
230
1
0
CIRCLE
5
CB
100
AcDbEntity
8
1
62
256
6
ByLayer
370
18
48
1
60
0
100
AcDbCircle
10
91
20
0
30
0
40
8.1725
39
0
210
0
220
0
230
1
0
CIRCLE
5
DD
100
AcDbEntity
8
1
62
256
6
ByLayer
370
18
48
1
60
0
100
AcDbCircle
10
57.5
20
0
30
0
40
8.1725
39
0
210
0
220
0
230
1
0
ELLIPSE
5
DE
100
AcDbEntity
8
1
62
256
6
ByLayer
370
18
48
1
60
0
100
AcDbEllipse
10
26.347154
20
0
30
0
11
-14.7536831606558
21
31.0932549155803
31
0
210
0
220
0
230
-1
40
0.341999
41
-1.09123958575284
42
-0.15780618664543
0
ELLIPSE
5
DF
100
AcDbEntity
8
1
62
256
6
ByLayer
370
18
48
1
60
0
100
AcDbEllipse
10
26.347154
20
0
30
0
11
14.7536831606565
21
31.0932549155812
31
0
210
0
220
0
230
-1
40
0.341999
41
-2.98378646694436
42
-2.05035306783697
0
ELLIPSE
5
E0
100
AcDbEntity
8
1
62
256
6
ByLayer
370
18
48
1
60
0
100
AcDbEllipse
10
-2.347154
20
0
30
0
11
14.7536831606551
21
31.0932549155796
31
0
210
0
220
0
230
-1
40
0.341999
41
0.157806186645432
42
1.09123958575286
0
ELLIPSE
5
E1
100
AcDbEntity
8
1
62
256
6
ByLayer
370
18
48
1
60
0
100
AcDbEllipse
10
-2.347154
20
0
30
0
11
-14.7536831606546
21
31.0932549155791
31
0
210
0
220
0
230
-1
40
0.341999
41
2.05035306783691
42
2.98378646694435
0
POINT
5
6C
100
AcDbEntity
8
80
62
256
6
ByLayer
370
13
48
1
60
0
100
AcDbPoint
10
0
20
0
30
0
39
0
210
0
220
0
230
1
50
360
0
POINT
5
6E
100
AcDbEntity
8
81
62
256
6
ByLayer
370
13
48
1
60
0
100
AcDbPoint
10
110
20
0
30
0
39
0
210
0
220
0
230
1
50
360
0
POINT
5
70
100
AcDbEntity
8
1
62
256
6
ByLayer
370
13
48
1
60
1
100
AcDbPoint
10
276.426281
20
175.173124
30
0
39
0
210
0
220
0
230
1
50
360
0
POINT
5
72
100
AcDbEntity
8
1
62
256
6
ByLayer
370
13
48
1
60
1
100
AcDbPoint
10
187.663825
20
175.173124
30
0
39
0
210
0
220
0
230
1
50
360
0
POINT
5
73
100
AcDbEntity
8
1
62
256
6
ByLayer
370
13
48
1
60
1
100
AcDbPoint
10
223.924544
20
165.173124
30
0
39
0
210
0
220
0
230
1
50
360
0
POINT
5
74
100
AcDbEntity
8
1
62
256
6
ByLayer
370
13
48
1
60
1
100
AcDbPoint
10
287.363825
20
165.173124
30
0
39
0
210
0
220
0
230
1
50
360
0
POINT
5
75
100
AcDbEntity
8
1
62
256
6
ByLayer
370
18
48
1
60
1
100
AcDbPoint
10
278.863825
20
196.673124
30
0
39
0
210
0
220
0
230
1
50
360
0
POINT
5
76
100
AcDbEntity
8
1
62
256
6
ByLayer
370
18
48
1
60
1
100
AcDbPoint
10
278.863825
20
133.673124
30
0
39
0
210
0
220
0
230
1
50
360
0
POINT
5
77
100
AcDbEntity
8
1
62
256
6
ByLayer
370
13
48
1
60
1
100
AcDbPoint
10
166.758969
20
155.590176
30
0
39
0
210
0
220
0
230
1
50
360
0
SPLINE
5
E2
100
AcDbEntity
8
1
62
256
6
ByLayer
370
18
48
1
60
1
100
AcDbSpline
70
4
71
3
72
11
73
7
40
0
40
0
40
0
40
0
40
0.264736090039167
40
0.505383016247574
40
0.746029942455982
40
1
40
1
40
1
40
1
41
1
10
-414.778517083935
20
873.157104635017
30
-2.38
41
1
10
-414.811380267814
20
873.134093585935
30
-2.16997603523559
41
1
10
-414.874116311811
20
873.090165335011
30
-1.76903884234585
41
1
10
-414.966725215926
20
873.025319882244
30
-1.17718842133077
41
1
10
-415.05799767171
20
872.961410220673
30
-0.593879052761846
41
1
10
-415.119397267377
20
872.918417760945
30
-0.201482912318254
41
1
10
-415.150924002925
20
872.896342503058
30
0
0
SPLINE
5
E3
100
AcDbEntity
8
1
62
256
6
ByLayer
370
18
48
1
60
1
100
AcDbSpline
70
4
71
3
72
11
73
7
40
0
40
0
40
0
40
0
40
0.264736090039167
40
0.505383016247574
40
0.746029942455982
40
1
40
1
40
1
40
1
41
1
10
-407.431053779592
20
878.301853827437
30
-2.38
41
1
10
-407.398190595713
20
878.324864876519
30
-2.16997603523559
41
1
10
-407.335454551716
20
878.368793127443
30
-1.76903884234585
41
1
10
-407.242845647601
20
878.433638580209
30
-1.17718842133077
41
1
10
-407.151573191817
20
878.49754824178
30
-0.593879052761846
41
1
10
-407.090173596151
20
878.540540701509
30
-0.201482912318254
41
1
10
-407.058646860602
20
878.562615959395
30
0
0
SPLINE
5
E4
100
AcDbEntity
8
1
62
256
6
ByLayer
370
18
48
1
60
1
100
AcDbSpline
70
4
71
3
72
13
73
9
40
0
40
0
40
0
40
0
40
0.194056351224286
40
0.368982012730964
40
0.500176258860972
40
0.63137050499098
40
0.806296166497658
40
1
40
1
40
1
40
1
41
1
10
-413.263264006694
20
878.812106105608
30
-2.38
41
1
10
-413.27741753311
20
878.832319436149
30
-2.22604862802873
41
1
10
-413.304329286483
20
878.870753403086
30
-1.93332289792884
41
1
10
-413.340809710072
20
878.92285284732
30
-1.53651639923246
41
1
10
-413.372705277461
20
878.968404438311
30
-1.18958050391089
41
1
10
-413.404600844851
20
879.013956029301
30
-0.84264460858931
41
1
10
-413.441055557512
20
879.066018754525
30
-0.446117773952347
41
1
10
-413.467941599956
20
879.104416002451
30
-0.153671707911858
41
1
10
-413.482069415445
20
879.124592613981
30
0
0
SPLINE
5
E5
100
AcDbEntity
8
1
62
256
6
ByLayer
370
18
48
1
60
1
100
AcDbSpline
70
4
71
3
72
13
73
9
40
0
40
0
40
0
40
0
40
0.194056351224286
40
0.368982012730964
40
0.500176258860972
40
0.63137050499098
40
0.806296166497658
40
1
40
1
40
1
40
1
41
1
10
-408.946306856834
20
872.646852356845
30
-2.38
41
1
10
-408.932153330417
20
872.626639026305
30
-2.22604862802873
41
1
10
-408.905241577045
20
872.588205059368
30
-1.93332289792884
41
1
10
-408.868761153456
20
872.536105615134
30
-1.53651639923246
41
1
10
-408.836865586066
20
872.490554024143
30
-1.18958050391089
41
1
10
-408.804970018677
20
872.445002433152
30
-0.84264460858931
41
1
10
-408.768515306016
20
872.392939707929
30
-0.446117773952347
41
1
10
-408.741629263572
20
872.354542460003
30
-0.153671707911858
41
1
10
-408.727501448083
20
872.334365848473
30
0
0
SPLINE
5
E6
100
AcDbEntity
8
1
62
256
6
ByLayer
370
18
48
1
60
1
100
AcDbSpline
70
4
71
3
72
11
73
7
40
0
40
0
40
0
40
0
40
0.264736090039167
40
0.505383016247574
40
0.746029942455982
40
1
40
1
40
1
40
1
41
1
10
-428.7908907235
20
879.333951406164
30
-2.7260753721363
41
1
10
-428.746836858612
20
879.372452995544
30
-2.52041437045278
41
1
10
-428.66273772762
20
879.445952794415
30
-2.12780610408481
41
1
10
-428.538593330525
20
879.554450802774
30
-1.54825057303238
41
1
10
-428.416240473605
20
879.661383065556
30
-0.977058665642987
41
1
10
-428.333932882788
20
879.733317118847
30
-0.592814022938045
41
1
10
-428.291670558074
20
879.77025296265
30
-0.39551664491756
0
SPLINE
5
E7
100
AcDbEntity
8
1
62
256
6
ByLayer
370
18
48
1
60
1
100
AcDbSpline
70
4
71
3
72
11
73
7
40
0
40
0
40
0
40
0
40
0.264736090039167
40
0.505383016247574
40
0.746029942455982
40
1
40
1
40
1
40
1
41
1
10
-433.89928183315
20
871.996230220737
30
-2.00784884981668
41
1
10
-433.900924827004
20
871.96909259
30
-1.79576298847968
41
1
10
-433.904061313567
20
871.917286666321
30
-1.39088962085497
41
1
10
-433.908691292841
20
871.840812449701
30
-0.793228746942546
41
1
10
-433.913254456422
20
871.765441840126
30
-0.204192776701463
41
1
10
-433.916324127293
20
871.714739523494
30
0.192055687251906
41
1
10
-433.917900305453
20
871.688705499804
30
0.395516644917561
0
SPLINE
5
E8
100
AcDbEntity
8
1
62
256
6
ByLayer
370
18
48
1
60
1
100
AcDbSpline
70
4
71
3
72
13
73
9
40
0
40
0
40
0
40
0
40
0.194056351224286
40
0.368982012730964
40
0.500176258860972
40
0.63137050499098
40
0.806296166497658
40
1
40
1
40
1
40
1
41
1
10
-428.275259052307
20
873.503182583078
30
-2.61980951740564
41
1
10
-428.239585682835
20
873.493171561608
30
-2.46835947239721
41
1
10
-428.171755737638
20
873.474136436871
30
-2.1803898074888
41
1
10
-428.079808360648
20
873.448333234684
30
-1.79003042765541
41
1
10
-427.999416921336
20
873.425772976517
30
-1.44873137790546
41
1
10
-427.919025482024
20
873.40321271835
30
-1.10743232815552
41
1
10
-427.827142908349
20
873.377427701924
30
-0.717348068536015
41
1
10
-427.759377766467
20
873.358410762948
30
-0.429653523841492
41
1
10
-427.723769200311
20
873.348417927239
30
-0.278478599046945
0
SPLINE
5
E9
100
AcDbEntity
8
1
62
256
6
ByLayer
370
18
48
1
60
1
100
AcDbSpline
70
4
71
3
72
13
73
9
40
0
40
0
40
0
40
0
40
0.194056351224286
40
0.368982012730964
40
0.500176258860972
40
0.63137050499098
40
0.806296166497658
40
1
40
1
40
1
40
1
41
1
10
-434.414913504343
20
877.826999043823
30
-2.11411470454734
41
1
10
-434.419498936828
20
877.845340052903
30
-1.95934872906095
41
1
10
-434.428217755341
20
877.880213956298
30
-1.66507409812534
41
1
10
-434.440036613376
20
877.92748753043
30
-1.2661679756028
41
1
10
-434.450370078446
20
877.968819766219
30
-0.917396336979738
41
1
10
-434.460703543516
20
878.010152002007
30
-0.568624698356674
41
1
10
-434.472514071773
20
878.057392258339
30
-0.169999719681113
41
1
10
-434.481224560509
20
878.092232843935
30
0.123993767407529
41
1
10
-434.485801663216
20
878.110540535215
30
0.278478599046944
0
SPLINE
5
EA
100
AcDbEntity
8
1
62
256
6
ByLayer
370
18
48
1
60
1
100
AcDbSpline
70
4
71
3
72
11
73
7
40
0
40
0
40
0
40
0
40
0.264736090039167
40
0.505383016247574
40
0.746029942455982
40
1
40
1
40
1
40
1
41
1
10
-343.967257520151
20
1505.05327841336
30
-2.38
41
1
10
-344.00012070403
20
1505.03026736428
30
-2.16997603523559
41
1
10
-344.062856748027
20
1504.98633911335
30
-1.76903884234585
41
1
10
-344.155465652142
20
1504.92149366059
30
-1.17718842133077
41
1
10
-344.246738107926
20
1504.85758399902
30
-0.593879052761846
41
1
10
-344.308137703593
20
1504.81459153929
30
-0.201482912318254
41
1
10
-344.339664439141
20
1504.7925162814
30
0
0
SPLINE
5
EB
100
AcDbEntity
8
1
62
256
6
ByLayer
370
18
48
1
60
1
100
AcDbSpline
70
4
71
3
72
11
73
7
40
0
40
0
40
0
40
0
40
0.264736090039167
40
0.505383016247574
40
0.746029942455982
40
1
40
1
40
1
40
1
41
1
10
-336.619794215808
20
1510.19802760578
30
-2.38
41
1
10
-336.586931031929
20
1510.22103865486
30
-2.16997603523559
41
1
10
-336.524194987932
20
1510.26496690579
30
-1.76903884234585
41
1
10
-336.431586083817
20
1510.32981235855
30
-1.17718842133077
41
1
10
-336.340313628033
20
1510.39372202012
30
-0.593879052761846
41
1
10
-336.278914032366
20
1510.43671447985
30
-0.201482912318254
41
1
10
-336.247387296818
20
1510.45878973774
30
0
0
SPLINE
5
EC
100
AcDbEntity
8
1
62
256
6
ByLayer
370
18
48
1
60
1
100
AcDbSpline
70
4
71
3
72
13
73
9
40
0
40
0
40
0
40
0
40
0.194056351224286
40
0.368982012730964
40
0.500176258860972
40
0.63137050499098
40
0.806296166497658
40
1
40
1
40
1
40
1
41
1
10
-342.452004442909
20
1510.70827988395
30
-2.38
41
1
10
-342.466157969326
20
1510.72849321449
30
-2.22604862802873
41
1
10
-342.493069722699
20
1510.76692718143
30
-1.93332289792884
41
1
10
-342.529550146288
20
1510.81902662566
30
-1.53651639923246
41
1
10
-342.561445713677
20
1510.86457821665
30
-1.18958050391089
41
1
10
-342.593341281066
20
1510.91012980765
30
-0.84264460858931
41
1
10
-342.629795993727
20
1510.96219253287
30
-0.446117773952347
41
1
10
-342.656682036172
20
1511.00058978079
30
-0.153671707911858
41
1
10
-342.670809851661
20
1511.02076639232
30
0
0
SPLINE
5
ED
100
AcDbEntity
8
1
62
256
6
ByLayer
370
18
48
1
60
1
100
AcDbSpline
70
4
71
3
72
13
73
9
40
0
40
0
40
0
40
0
40
0.194056351224286
40
0.368982012730964
40
0.500176258860972
40
0.63137050499098
40
0.806296166497658
40
1
40
1
40
1
40
1
41
1
10
-338.13504729305
20
1504.54302613519
30
-2.38
41
1
10
-338.120893766633
20
1504.52281280465
30
-2.22604862802873
41
1
10
-338.09398201326
20
1504.48437883771
30
-1.93332289792884
41
1
10
-338.057501589671
20
1504.43227939348
30
-1.53651639923246
41
1
10
-338.025606022282
20
1504.38672780249
30
-1.18958050391089
41
1
10
-337.993710454893
20
1504.3411762115
30
-0.84264460858931
41
1
10
-337.957255742232
20
1504.28911348627
30
-0.446117773952347
41
1
10
-337.930369699787
20
1504.25071623835
30
-0.153671707911858
41
1
10
-337.916241884298
20
1504.23053962682
30
0
0
SPLINE
5
EE
100
AcDbEntity
8
1
62
256
6
ByLayer
370
18
48
1
60
1
100
AcDbSpline
70
4
71
3
72
11
73
7
40
0
40
0
40
0
40
0
40
0.264736090039167
40
0.505383016247574
40
0.746029942455982
40
1
40
1
40
1
40
1
41
1
10
-357.979631159715
20
1511.23012518451
30
-2.7260753721363
41
1
10
-357.935577294827
20
1511.26862677389
30
-2.52041437045278
41
1
10
-357.851478163836
20
1511.34212657276
30
-2.12780610408481
41
1
10
-357.727333766741
20
1511.45062458112
30
-1.54825057303238
41
1
10
-357.60498090982
20
1511.5575568439
30
-0.977058665642987
41
1
10
-357.522673319003
20
1511.62949089719
30
-0.592814022938045
41
1
10
-357.48041099429
20
1511.66642674099
30
-0.39551664491756
0
SPLINE
5
EF
100
AcDbEntity
8
1
62
256
6
ByLayer
370
18
48
1
60
1
100
AcDbSpline
70
4
71
3
72
11
73
7
40
0
40
0
40
0
40
0
40
0.264736090039167
40
0.505383016247574
40
0.746029942455982
40
1
40
1
40
1
40
1
41
1
10
-363.088022269366
20
1503.89240399908
30
-2.00784884981668
41
1
10
-363.089665263219
20
1503.86526636834
30
-1.79576298847968
41
1
10
-363.092801749783
20
1503.81346044467
30
-1.39088962085497
41
1
10
-363.097431729056
20
1503.73698622804
30
-0.793228746942546
41
1
10
-363.101994892637
20
1503.66161561847
30
-0.204192776701463
41
1
10
-363.105064563508
20
1503.61091330184
30
0.192055687251906
41
1
10
-363.106640741669
20
1503.58487927815
30
0.395516644917561
0
SPLINE
5
F0
100
AcDbEntity
8
1
62
256
6
ByLayer
370
18
48
1
60
1
100
AcDbSpline
70
4
71
3
72
13
73
9
40
0
40
0
40
0
40
0
40
0.194056351224286
40
0.368982012730964
40
0.500176258860972
40
0.63137050499098
40
0.806296166497658
40
1
40
1
40
1
40
1
41
1
10
-357.463999488523
20
1505.39935636142
30
-2.61980951740564
41
1
10
-357.428326119051
20
1505.38934533995
30
-2.46835947239721
41
1
10
-357.360496173854
20
1505.37031021521
30
-2.1803898074888
41
1
10
-357.268548796864
20
1505.34450701303
30
-1.79003042765541
41
1
10
-357.188157357552
20
1505.32194675486
30
-1.44873137790546
41
1
10
-357.107765918239
20
1505.29938649669
30
-1.10743232815552
41
1
10
-357.015883344564
20
1505.27360148027
30
-0.717348068536015
41
1
10
-356.948118202683
20
1505.25458454129
30
-0.429653523841492
41
1
10
-356.912509636527
20
1505.24459170558
30
-0.278478599046945
0
SPLINE
5
F1
100
AcDbEntity
8
1
62
256
6
ByLayer
370
18
48
1
60
1
100
AcDbSpline
70
4
71
3
72
13
73
9
40
0
40
0
40
0
40
0
40
0.194056351224286
40
0.368982012730964
40
0.500176258860972
40
0.63137050499098
40
0.806296166497658
40
1
40
1
40
1
40
1
41
1
10
-363.603653940558
20
1509.72317282217
30
-2.11411470454734
41
1
10
-363.608239373044
20
1509.74151383125
30
-1.95934872906095
41
1
10
-363.616958191557
20
1509.77638773464
30
-1.66507409812534
41
1
10
-363.628777049591
20
1509.82366130877
30
-1.2661679756028
41
1
10
-363.639110514662
20
1509.86499354456
30
-0.917396336979738
41
1
10
-363.649443979731
20
1509.90632578035
30
-0.568624698356674
41
1
10
-363.661254507988
20
1509.95356603668
30
-0.169999719681113
41
1
10
-363.669964996724
20
1509.98840662228
30
0.123993767407529
41
1
10
-363.674542099432
20
1510.00671431356
30
0.278478599046944
0
SPLINE
5
F2
100
AcDbEntity
8
SK1
62
256
6
ByLayer
370
18
48
1
60
0
100
AcDbSpline
70
4
71
3
72
13
73
9
40
0
40
0
40
0
40
0
40
0.239455434732484
40
0.368358764756302
40
0.499997918813572
40
0.63163741861003
40
0.760541702269892
40
1
40
1
40
1
40
1
41
1
10
-1.99993701093305
20
-22.0251228678439
30
4E-16
41
1
10
-1.99902898853242
20
-21.9990655663821
30
4E-16
41
1
10
-1.99096984377454
20
-21.9616932399186
30
4E-16
41
1
10
-1.96557291878361
20
-21.9154744026857
30
4E-16
41
1
10
-1.93880077750268
20
-21.8841930786272
30
4E-16
41
1
10
-1.90621411558303
20
-21.8590259016248
30
4E-16
41
1
10
-1.85877761444019
20
-21.8359822843511
30
4E-16
41
1
10
-1.82104729975202
20
-21.8298100952192
30
4E-16
41
1
10
-1.79497698875895
20
-21.8302117626707
30
4E-16
0
SPLINE
5
F3
100
AcDbEntity
8
1
62
256
6
ByLayer
370
18
48
1
60
0
100
AcDbSpline
70
4
71
1
72
4
73
2
40
0
40
0
40
1
40
1
41
1
10
-0.0027608436206208
20
-6.49082321686427
30
-4E-16
41
1
10
-0.0027608436882645
20
-6.35725611285901
30
-4E-16
0
SPLINE
5
F4
100
AcDbEntity
8
1
62
256
6
ByLayer
370
18
48
1
60
0
100
AcDbSpline
70
4
71
1
72
4
73
2
40
0
40
0
40
1
40
1
41
1
10
-0.002760843549396
20
6.35163872078442
30
4E-16
41
1
10
-0.0027608434425304
20
6.48993203483008
30
4E-16
0
SPLINE
5
F5
100
AcDbEntity
8
1
62
256
6
ByLayer
370
18
48
1
60
0
100
AcDbSpline
70
4
71
2
72
6
73
3
40
0
40
0
40
0
40
1
40
1
40
1
41
1
10
-0.0011766917465366
20
-22.0556408271565
30
0
41
1
10
-0.0011189089211427
20
-22.0272192475807
30
0
41
1
10
-0.012189029523455
20
-21.9850919659509
30
0
0
SPLINE
5
F6
100
AcDbEntity
8
SK1
62
256
6
ByLayer
370
18
48
1
60
0
100
AcDbSpline
70
4
71
3
72
11
73
7
40
0
40
0
40
0
40
0
40
0.235689728908224
40
0.486953115118522
40
0.745208277029283
40
1
40
1
40
1
40
1
41
1
10
-0.19491389969204
20
-21.8704110510008
30
4E-16
41
1
10
-0.175933015451534
20
-21.8709392621537
30
4E-16
41
1
10
-0.138426534613927
20
-21.8771286911994
30
4E-16
41
1
10
-0.0840821869904573
20
-21.9033442883193
30
4E-16
41
1
10
-0.0390358600793661
20
-21.9462319791509
30
4E-16
41
1
10
-0.0195232513433155
20
-21.981644129825
30
4E-16
41
1
10
-0.012189029523455
20
-22.0012103834952
30
4E-16
0
SPLINE
5
F7
100
AcDbEntity
8
SK1
62
256
6
ByLayer
370
18
48
1
60
0
100
AcDbSpline
70
4
71
2
72
6
73
3
40
0
40
0
40
0
40
1
40
1
40
1
41
1
10
-1.79497698875895
20
-21.823761824719
30
0
41
1
10
-0.994945444225493
20
-21.8438553578974
30
0
41
1
10
-0.19491389969204
20
-21.8639488909104
30
0
0
SPLINE
5
F8
100
AcDbEntity
8
SK1
62
256
6
ByLayer
370
18
48
1
60
0
100
AcDbSpline
70
4
71
2
72
6
73
3
40
0
40
0
40
0
40
1
40
1
40
1
41
1
10
-0.19491389969204
20
21.8639488909104
30
0
41
1
10
-0.994945444225493
20
21.8438553578974
30
0
41
1
10
-1.79497698875895
20
21.823761824719
30
0
0
SPLINE
5
F9
100
AcDbEntity
8
SK1
62
256
6
ByLayer
370
18
48
1
60
0
100
AcDbSpline
70
4
71
2
72
6
73
3
40
0
40
0
40
0
40
1
40
1
40
1
41
1
10
-36.5000001
20
-21.1521159930588
30
0
41
1
10
-19.2499685554644
20
-21.5853665411567
30
0
41
1
10
-1.99993701093305
20
-22.0186170099466
30
0
0
SPLINE
5
FA
100
AcDbEntity
8
SK1
62
256
6
ByLayer
370
18
48
1
60
0
100
AcDbSpline
70
4
71
2
72
6
73
3
40
0
40
0
40
0
40
1
40
1
40
1
41
1
10
-1.99993701093305
20
22.0186170099466
30
0
41
1
10
-19.2499685554644
20
21.5853665411567
30
0
41
1
10
-36.5000001
20
21.1521159930589
30
0
0
SPLINE
5
FB
100
AcDbEntity
8
SK1
62
256
6
ByLayer
370
18
48
1
60
0
100
AcDbSpline
70
4
71
3
72
11
73
7
40
0
40
0
40
0
40
0
40
0.254791729019061
40
0.513046902513635
40
0.764310291103327
40
1
40
1
40
1
40
1
41
1
10
-0.0121890295235403
20
22.0012103894156
30
-4E-16
41
1
10
-0.0195232515239354
20
21.9816441349603
30
-4E-16
41
1
10
-0.0390358605650647
20
21.9462319825124
30
-4E-16
41
1
10
-0.0840821862254302
20
21.9033442916588
30
-4E-16
41
1
10
-0.138426531783125
20
21.8771286930991
30
-4E-16
41
1
10
-0.175933014718055
20
21.8709392631579
30
-4E-16
41
1
10
-0.19491389969204
20
21.8704110511935
30
-4E-16
0
SPLINE
5
FC
100
AcDbEntity
8
SK1
62
256
6
ByLayer
370
18
48
1
60
0
100
AcDbSpline
70
4
71
3
72
13
73
9
40
0
40
0
40
0
40
0
40
0.239458297730099
40
0.368362581389963
40
0.500002081186439
40
0.631641235243707
40
0.760544565267532
40
1
40
1
40
1
40
1
41
1
10
-1.79497698875895
20
21.8302117626707
30
-4E-16
41
1
10
-1.82104729975202
20
21.8298100952193
30
-4E-16
41
1
10
-1.85877761444019
20
21.835982284351
30
-4E-16
41
1
10
-1.90621411558303
20
21.8590259016247
30
-4E-16
41
1
10
-1.93880077750268
20
21.8841930786272
30
-4E-16
41
1
10
-1.96557291878361
20
21.9154744026857
30
-4E-16
41
1
10
-1.99096984377454
20
21.9616932399186
30
-4E-16
41
1
10
-1.99902898853242
20
21.9990655663821
30
-4E-16
41
1
10
-1.99993701093305
20
22.0251228678439
30
-4E-16
0
SPLINE
5
FD
100
AcDbEntity
8
SK1
62
256
6
ByLayer
370
18
48
1
60
0
100
AcDbSpline
70
4
71
2
72
6
73
3
40
0
40
0
40
0
40
1
40
1
40
1
41
1
10
-36.5000001
20
21.1531994879396
30
0
41
1
10
-37.2500000497684
20
20.7202970811886
30
-1E-16
41
1
10
-38
20
20.287394486142
30
-1E-16
0
SPLINE
5
FE
100
AcDbEntity
8
1
62
256
6
ByLayer
370
18
48
1
60
0
100
AcDbSpline
70
4
71
2
72
6
73
3
40
0
40
0
40
0
40
1
40
1
40
1
41
1
10
-0.0121890295235403
20
21.9850934125024
30
0
41
1
10
-0.0011189141371517
20
22.027219511393
30
0
41
1
10
-0.0011766942584472
20
22.0556409684859
30
0
0
SPLINE
5
FF
100
AcDbEntity
8
SK1
62
256
6
ByLayer
370
18
48
1
60
0
100
AcDbSpline
70
4
71
2
72
6
73
3
40
0
40
0
40
0
40
1
40
1
40
1
41
1
10
-38
20
-20.287394486142
30
1E-16
41
1
10
-37.2500000497684
20
-20.7202970811886
30
1E-16
41
1
10
-36.5000001
20
-21.1531994879397
30
0
0
SPLINE
5
100
100
AcDbEntity
8
1
62
256
6
ByLayer
370
18
48
1
60
0
100
AcDbSpline
70
4
71
3
72
24
73
20
40
0
40
0
40
0
40
0
40
0.250000000000021
40
0.250000000000021
40
0.375000000000027
40
0.375000000000027
40
0.43750000000003
40
0.43750000000003
40
0.468750000000028
40
0.468750000000028
40
0.500000000000025
40
0.500000000000025
40
0.750000000000003
40
0.750000000000003
40
0.812500000000002
40
0.812500000000002
40
0.875000000000001
40
0.875000000000001
40
1
40
1
40
1
40
1
41
1
10
87.2146429928643
20
-2.43332520873329
30
-1E-16
41
1
10
87.49705307567
20
-2.59637474606302
30
-2E-16
41
1
10
87.7852064251261
20
-2.7627401599394
30
-2E-16
41
1
10
88.2303546264172
20
-3.01974659378408
30
-2E-16
41
1
10
88.3809045623829
20
-3.1066666398404
30
-2E-16
41
1
10
88.6105807478804
20
-3.2392702473638
30
-2E-16
41
1
10
88.6877814173601
20
-3.28384207466957
30
-2E-16
41
1
10
88.804617025627
20
-3.35129714455334
30
-2E-16
41
1
10
88.8437305324005
20
-3.37387933821802
30
-2E-16
41
1
10
88.9215731176863
20
-3.41882177578719
30
-2E-16
41
1
10
88.9603936883035
20
-3.44123484268312
30
-2E-16
41
1
10
89.3088846964557
20
-3.64243622004997
30
-2E-16
41
1
10
89.612228811956
20
-3.8175720267912
30
-2E-16
41
1
10
89.9849338276024
20
-4.0327533679029
30
-2E-16
41
1
10
90.0591542729771
20
-4.07560456201935
30
-2E-16
41
1
10
90.2070017188993
20
-4.16096432472159
30
-3E-16
41
1
10
90.2807565011779
20
-4.20354666812415
30
-3E-16
41
1
10
90.5001589201816
20
-4.3302187137968
30
-3E-16
41
1
10
90.6437943861997
20
-4.41314668876748
30
-3E-16
41
1
10
90.7853572071357
20
-4.49487802154218
30
-3E-16
0
SPLINE
5
101
100
AcDbEntity
8
1
62
256
6
ByLayer
370
18
48
1
60
0
100
AcDbSpline
70
4
71
3
72
24
73
20
40
0
40
0
40
0
40
0
40
0.250000000000024
40
0.250000000000024
40
0.375000000000032
40
0.375000000000032
40
0.437500000000036
40
0.437500000000036
40
0.468750000000034
40
0.468750000000034
40
0.500000000000032
40
0.500000000000032
40
0.750000000000023
40
0.750000000000023
40
0.812500000000017
40
0.812500000000017
40
0.875000000000011
40
0.875000000000011
40
1
40
1
40
1
40
1
41
1
10
91.2146429928643
20
-4.49487802154218
30
-3E-16
41
1
10
91.4970530756699
20
-4.33182848421245
30
-3E-16
41
1
10
91.7852064251261
20
-4.16546307033607
30
-3E-16
41
1
10
92.2303546264172
20
-3.90845663649139
30
-2E-16
41
1
10
92.3809045623829
20
-3.82153659043507
30
-2E-16
41
1
10
92.6105807478803
20
-3.6889329829117
30
-2E-16
41
1
10
92.6877814173601
20
-3.64436115560594
30
-2E-16
41
1
10
92.8046170256269
20
-3.57690608572216
30
-2E-16
41
1
10
92.8437305324005
20
-3.55432389205748
30
-2E-16
41
1
10
92.9215731176863
20
-3.50938145448831
30
-2E-16
41
1
10
92.9603936883035
20
-3.48696838759238
30
-2E-16
41
1
10
93.3088846964557
20
-3.28576701022553
30
-2E-16
41
1
10
93.6122288119561
20
-3.1106312034843
30
-2E-16
41
1
10
93.9849338276024
20
-2.89544986237263
30
-2E-16
41
1
10
94.0591542729771
20
-2.85259866825618
30
-2E-16
41
1
10
94.2070017188994
20
-2.76723890555394
30
-2E-16
41
1
10
94.2807565011779
20
-2.72465656215135
30
-2E-16
41
1
10
94.5001589201816
20
-2.59798451647873
30
-2E-16
41
1
10
94.6437943861997
20
-2.51505654150805
30
-2E-16
41
1
10
94.7853572071358
20
-2.43332520873335
30
-1E-16
0
SPLINE
5
102
100
AcDbEntity
8
1
62
256
6
ByLayer
370
18
48
1
60
0
100
AcDbSpline
70
4
71
3
72
24
73
20
40
0
40
0
40
0
40
0
40
0.249999999999984
40
0.249999999999984
40
0.374999999999976
40
0.374999999999976
40
0.437499999999972
40
0.437499999999972
40
0.46874999999997
40
0.46874999999997
40
0.499999999999968
40
0.499999999999968
40
0.749999999999969
40
0.749999999999969
40
0.812499999999975
40
0.812499999999975
40
0.87499999999998
40
0.87499999999998
40
1
40
1
40
1
40
1
41
1
10
94.7853572071358
20
2.43332520873324
30
1E-16
41
1
10
94.5029471243302
20
2.59637474606296
30
2E-16
41
1
10
94.214793774874
20
2.76274015993937
30
2E-16
41
1
10
93.7696455735829
20
3.01974659378405
30
2E-16
41
1
10
93.6190956376172
20
3.10666663984037
30
2E-16
41
1
10
93.3894194521197
20
3.23927024736375
30
2E-16
41
1
10
93.31221878264
20
3.28384207466951
30
2E-16
41
1
10
93.1953831743731
20
3.35129714455331
30
2E-16
41
1
10
93.1562696675996
20
3.37387933821799
30
2E-16
41
1
10
93.0784270823138
20
3.41882177578717
30
2E-16
41
1
10
93.0396065116965
20
3.44123484268309
30
2E-16
41
1
10
92.6911155035443
20
3.64243622004994
30
2E-16
41
1
10
92.3877713880439
20
3.81757202679117
30
2E-16
41
1
10
92.0150663723977
20
4.03275336790287
30
2E-16
41
1
10
91.940845927023
20
4.07560456201932
30
2E-16
41
1
10
91.7929984811007
20
4.16096432472159
30
3E-16
41
1
10
91.7192436988221
20
4.20354666812415
30
3E-16
41
1
10
91.4998412798185
20
4.3302187137968
30
3E-16
41
1
10
91.3562058138004
20
4.41314668876748
30
3E-16
41
1
10
91.2146429928643
20
4.49487802154218
30
3E-16
0
SPLINE
5
103
100
AcDbEntity
8
1
62
256
6
ByLayer
370
18
48
1
60
0
100
AcDbSpline
70
4
71
3
72
24
73
20
40
0
40
0
40
0
40
0
40
0.250000000000023
40
0.250000000000023
40
0.375000000000031
40
0.375000000000031
40
0.437500000000035
40
0.437500000000035
40
0.468750000000033
40
0.468750000000033
40
0.500000000000031
40
0.500000000000031
40
0.750000000000023
40
0.750000000000023
40
0.812500000000017
40
0.812500000000017
40
0.875000000000011
40
0.875000000000011
40
1
40
1
40
1
40
1
41
1
10
90.7853572071358
20
4.49487802154218
30
3E-16
41
1
10
90.5029471243301
20
4.33182848421245
30
3E-16
41
1
10
90.214793774874
20
4.16546307033607
30
3E-16
41
1
10
89.7696455735829
20
3.90845663649139
30
2E-16
41
1
10
89.6190956376172
20
3.82153659043507
30
2E-16
41
1
10
89.3894194521197
20
3.6889329829117
30
2E-16
41
1
10
89.31221878264
20
3.64436115560594
30
2E-16
41
1
10
89.1953831743731
20
3.57690608572216
30
2E-16
41
1
10
89.1562696675996
20
3.55432389205748
30
2E-16
41
1
10
89.0784270823137
20
3.50938145448831
30
2E-16
41
1
10
89.0396065116966
20
3.48696838759238
30
2E-16
41
1
10
88.6911155035444
20
3.28576701022556
30
2E-16
41
1
10
88.387771388044
20
3.11063120348433
30
2E-16
41
1
10
88.0150663723978
20
2.89544986237263
30
2E-16
41
1
10
87.940845927023
20
2.85259866825618
30
2E-16
41
1
10
87.7929984811007
20
2.76723890555394
30
2E-16
41
1
10
87.7192436988222
20
2.72465656215138
30
2E-16
41
1
10
87.4998412798185
20
2.59798451647873
30
2E-16
41
1
10
87.3562058138004
20
2.51505654150805
30
2E-16
41
1
10
87.2146429928643
20
2.43332520873335
30
1E-16
0
SPLINE
5
104
100
AcDbEntity
8
1
62
256
6
ByLayer
370
18
48
1
60
0
100
AcDbSpline
70
4
71
3
72
28
73
24
40
0
40
0
40
0
40
0
40
0.124999999999999
40
0.124999999999999
40
0.187499999999999
40
0.187499999999999
40
0.249999999999998
40
0.249999999999998
40
0.499999999999998
40
0.499999999999998
40
0.531249999999998
40
0.531249999999998
40
0.562499999999998
40
0.562499999999998
40
0.624999999999998
40
0.624999999999998
40
0.749999999999998
40
0.749999999999998
40
0.874999999999998
40
0.874999999999998
40
0.937499999999999
40
0.937499999999999
40
1
40
1
40
1
40
1
41
1
10
87.0000001000001
20
2.06155281280888
30
1E-16
41
1
10
87.0000001000001
20
1.90031648126333
30
1E-16
41
1
10
87.0000001000001
20
1.7359801766566
30
1E-16
41
1
10
87.0000001000001
20
1.48337873374902
30
1E-16
41
1
10
87.0000001000001
20
1.39823101749118
30
1E-16
41
1
10
87.0000001
20
1.22760844491324
30
1E-16
41
1
10
87.0000001000001
20
1.14191339006641
30
1E-16
41
1
10
87.0000001000001
20
0.711358460101252
30
0
41
1
10
87.0000001000001
20
0.360199285289667
30
0
41
1
10
87.0000001
20
-0.0443754570017916
30
0
41
1
10
87.0000001000001
20
-0.0895365380270903
30
0
41
1
10
87.0000001000001
20
-0.179404574985796
30
0
41
1
10
87.0000001000001
20
-0.22417992954982
30
0
41
1
10
87.0000001000001
20
-0.358042242208398
30
0
41
1
10
87.0000001000001
20
-0.446665197355088
30
0
41
1
10
87.0000001000001
20
-0.710787193001607
30
0
41
1
10
87.0000001000001
20
-0.884538145960363
30
-1E-16
41
1
10
87.0000001000001
20
-1.22802693923833
30
-1E-16
41
1
10
87.0000001000001
20
-1.3977675595707
30
-1E-16
41
1
10
87.0000001000001
20
-1.64986331447207
30
-1E-16
41
1
10
87.0000001000001
20
-1.73362371105932
30
-1E-16
41
1
10
87.0000001000001
20
-1.89894191332752
30
-1E-16
41
1
10
87.0000001000001
20
-1.98065832486307
30
-1E-16
41
1
10
87.0000001000001
20
-2.06155281280888
30
-1E-16
0
SPLINE
5
105
100
AcDbEntity
8
1
62
256
6
ByLayer
370
18
48
1
60
0
100
AcDbSpline
70
4
71
3
72
28
73
24
40
0
40
0
40
0
40
0
40
0.062500000000001
40
0.062500000000001
40
0.125000000000002
40
0.125000000000002
40
0.250000000000002
40
0.250000000000002
40
0.375000000000003
40
0.375000000000003
40
0.437500000000003
40
0.437500000000003
40
0.468750000000003
40
0.468750000000003
40
0.500000000000003
40
0.500000000000003
40
0.750000000000002
40
0.750000000000002
40
0.812500000000001
40
0.812500000000001
40
0.875
40
0.875
40
1
40
1
40
1
40
1
41
1
10
95.0000001
20
-2.06155281280897
30
-1E-16
41
1
10
95.0000001000001
20
-1.98065832486316
30
-1E-16
41
1
10
95.0000001
20
-1.89894191332758
30
-1E-16
41
1
10
95.0000001
20
-1.73362371105938
30
-1E-16
41
1
10
95.0000001
20
-1.64986331447216
30
-1E-16
41
1
10
95.0000001000001
20
-1.39776755957075
30
-1E-16
41
1
10
95.0000001
20
-1.22802693923839
30
-1E-16
41
1
10
95.0000001
20
-0.88453814596042
30
-1E-16
41
1
10
95.0000001
20
-0.710787193001664
30
0
41
1
10
95.0000001
20
-0.446665197355088
30
0
41
1
10
95.0000001
20
-0.358042242208427
30
0
41
1
10
95.0000001
20
-0.224179929549848
30
0
41
1
10
95.0000001
20
-0.179404574985824
30
0
41
1
10
95.0000001
20
-0.0895365380271187
30
0
41
1
10
95.0000001
20
-0.0443754570017916
30
0
41
1
10
95.0000000999999
20
0.360199285289696
30
0
41
1
10
95.0000001
20
0.71135846010128
30
0
41
1
10
95.0000001
20
1.14191339006646
30
1E-16
41
1
10
95.0000001
20
1.2276084449133
30
1E-16
41
1
10
95.0000001
20
1.39823101749124
30
1E-16
41
1
10
95.0000001
20
1.48337873374908
30
1E-16
41
1
10
95.0000001
20
1.73598017665668
30
1E-16
41
1
10
95.0000001
20
1.90031648126342
30
1E-16
41
1
10
95.0000001
20
2.06155281280894
30
1E-16
0
SPLINE
5
106
100
AcDbEntity
8
1
62
256
6
ByLayer
370
18
48
1
60
0
100
AcDbSpline
70
4
71
3
72
24
73
20
40
0
40
0
40
0
40
0
40
0.250000000000009
40
0.250000000000009
40
0.375000000000014
40
0.375000000000014
40
0.437500000000014
40
0.437500000000014
40
0.468750000000016
40
0.468750000000016
40
0.500000000000018
40
0.500000000000018
40
0.750000000000006
40
0.750000000000006
40
0.812500000000004
40
0.812500000000004
40
0.875000000000002
40
0.875000000000002
40
1
40
1
40
1
40
1
41
1
10
53.7146429928643
20
-2.43332520873329
30
-1E-16
41
1
10
53.99705307567
20
-2.59637474606302
30
-2E-16
41
1
10
54.2852064251261
20
-2.7627401599394
30
-2E-16
41
1
10
54.7303546264171
20
-3.01974659378408
30
-2E-16
41
1
10
54.8809045623829
20
-3.1066666398404
30
-2E-16
41
1
10
55.1105807478803
20
-3.2392702473638
30
-2E-16
41
1
10
55.1877814173601
20
-3.28384207466954
30
-2E-16
41
1
10
55.3046170256269
20
-3.35129714455334
30
-2E-16
41
1
10
55.3437305324005
20
-3.37387933821802
30
-2E-16
41
1
10
55.4215731176863
20
-3.41882177578719
30
-2E-16
41
1
10
55.4603936883035
20
-3.44123484268312
30
-2E-16
41
1
10
55.8088846964557
20
-3.64243622004997
30
-2E-16
41
1
10
56.1122288119561
20
-3.8175720267912
30
-2E-16
41
1
10
56.4849338276023
20
-4.03275336790287
30
-2E-16
41
1
10
56.559154272977
20
-4.07560456201935
30
-2E-16
41
1
10
56.7070017188993
20
-4.16096432472159
30
-3E-16
41
1
10
56.7807565011779
20
-4.20354666812415
30
-3E-16
41
1
10
57.0001589201816
20
-4.3302187137968
30
-3E-16
41
1
10
57.1437943861996
20
-4.41314668876748
30
-3E-16
41
1
10
57.2853572071357
20
-4.49487802154218
30
-3E-16
0
SPLINE
5
107
100
AcDbEntity
8
1
62
256
6
ByLayer
370
18
48
1
60
0
100
AcDbSpline
70
4
71
3
72
24
73
20
40
0
40
0
40
0
40
0
40
0.250000000000006
40
0.250000000000006
40
0.375000000000009
40
0.375000000000009
40
0.43750000000001
40
0.43750000000001
40
0.468750000000009
40
0.468750000000009
40
0.500000000000008
40
0.500000000000008
40
0.750000000000004
40
0.750000000000004
40
0.812500000000005
40
0.812500000000005
40
0.875000000000005
40
0.875000000000005
40
1
40
1
40
1
40
1
41
1
10
57.7146429928643
20
-4.49487802154218
30
-3E-16
41
1
10
57.99705307567
20
-4.33182848421245
30
-3E-16
41
1
10
58.2852064251261
20
-4.16546307033607
30
-3E-16
41
1
10
58.7303546264172
20
-3.90845663649139
30
-2E-16
41
1
10
58.8809045623829
20
-3.82153659043507
30
-2E-16
41
1
10
59.1105807478804
20
-3.6889329829117
30
-2E-16
41
1
10
59.1877814173601
20
-3.64436115560594
30
-2E-16
41
1
10
59.304617025627
20
-3.57690608572216
30
-2E-16
41
1
10
59.3437305324005
20
-3.55432389205748
30
-2E-16
41
1
10
59.4215731176863
20
-3.50938145448831
30
-2E-16
41
1
10
59.4603936883035
20
-3.48696838759238
30
-2E-16
41
1
10
59.8088846964557
20
-3.28576701022553
30
-2E-16
41
1
10
60.1122288119561
20
-3.1106312034843
30
-2E-16
41
1
10
60.4849338276023
20
-2.89544986237263
30
-2E-16
41
1
10
60.559154272977
20
-2.85259866825618
30
-2E-16
41
1
10
60.7070017188993
20
-2.76723890555394
30
-2E-16
41
1
10
60.7807565011779
20
-2.72465656215135
30
-2E-16
41
1
10
61.0001589201816
20
-2.59798451647873
30
-2E-16
41
1
10
61.1437943861996
20
-2.51505654150805
30
-2E-16
41
1
10
61.2853572071358
20
-2.43332520873335
30
-1E-16
0
SPLINE
5
108
100
AcDbEntity
8
1
62
256
6
ByLayer
370
18
48
1
60
0
100
AcDbSpline
70
4
71
3
72
28
73
24
40
0
40
0
40
0
40
0
40
0.0625000000000008
40
0.0625000000000008
40
0.125000000000002
40
0.125000000000002
40
0.250000000000002
40
0.250000000000002
40
0.375000000000002
40
0.375000000000002
40
0.437500000000002
40
0.437500000000002
40
0.468750000000002
40
0.468750000000002
40
0.500000000000002
40
0.500000000000002
40
0.750000000000003
40
0.750000000000003
40
0.812500000000003
40
0.812500000000003
40
0.875000000000002
40
0.875000000000002
40
1
40
1
40
1
40
1
41
1
10
61.5000001
20
-2.06155281280897
30
-1E-16
41
1
10
61.5000001
20
-1.98065832486316
30
-1E-16
41
1
10
61.5000001
20
-1.89894191332758
30
-1E-16
41
1
10
61.5000001
20
-1.73362371105938
30
-1E-16
41
1
10
61.5000001
20
-1.64986331447216
30
-1E-16
41
1
10
61.5000001
20
-1.39776755957075
30
-1E-16
41
1
10
61.5000001
20
-1.22802693923839
30
-1E-16
41
1
10
61.5000001
20
-0.88453814596042
30
-1E-16
41
1
10
61.5000001
20
-0.710787193001664
30
0
41
1
10
61.5000001
20
-0.446665197355117
30
0
41
1
10
61.5000001
20
-0.358042242208427
30
0
41
1
10
61.5000001
20
-0.224179929549848
30
0
41
1
10
61.5000001
20
-0.179404574985824
30
0
41
1
10
61.5000001
20
-0.0895365380271187
30
0
41
1
10
61.5000001
20
-0.0443754570017916
30
0
41
1
10
61.5000001
20
0.360199285289696
30
0
41
1
10
61.5000001
20
0.71135846010128
30
0
41
1
10
61.5000001
20
1.14191339006646
30
1E-16
41
1
10
61.5000001
20
1.2276084449133
30
1E-16
41
1
10
61.5000001
20
1.39823101749124
30
1E-16
41
1
10
61.5000001
20
1.48337873374908
30
1E-16
41
1
10
61.5000001
20
1.73598017665668
30
1E-16
41
1
10
61.5000001
20
1.90031648126342
30
1E-16
41
1
10
61.5000001
20
2.06155281280894
30
1E-16
0
SPLINE
5
109
100
AcDbEntity
8
1
62
256
6
ByLayer
370
18
48
1
60
0
100
AcDbSpline
70
4
71
3
72
24
73
20
40
0
40
0
40
0
40
0
40
0.25000000000002
40
0.25000000000002
40
0.37500000000003
40
0.37500000000003
40
0.437500000000036
40
0.437500000000036
40
0.468750000000036
40
0.468750000000036
40
0.500000000000036
40
0.500000000000036
40
0.750000000000019
40
0.750000000000019
40
0.812500000000016
40
0.812500000000016
40
0.875000000000012
40
0.875000000000012
40
1
40
1
40
1
40
1
41
1
10
61.2853572071358
20
2.43332520873324
30
1E-16
41
1
10
61.0029471243301
20
2.59637474606296
30
2E-16
41
1
10
60.714793774874
20
2.76274015993934
30
2E-16
41
1
10
60.2696455735829
20
3.01974659378405
30
2E-16
41
1
10
60.1190956376171
20
3.10666663984037
30
2E-16
41
1
10
59.8894194521197
20
3.23927024736375
30
2E-16
41
1
10
59.81221878264
20
3.28384207466951
30
2E-16
41
1
10
59.6953831743731
20
3.35129714455331
30
2E-16
41
1
10
59.6562696675996
20
3.37387933821799
30
2E-16
41
1
10
59.5784270823138
20
3.41882177578717
30
2E-16
41
1
10
59.5396065116965
20
3.44123484268309
30
2E-16
41
1
10
59.1911155035443
20
3.64243622004994
30
2E-16
41
1
10
58.8877713880439
20
3.81757202679117
30
2E-16
41
1
10
58.5150663723977
20
4.03275336790287
30
2E-16
41
1
10
58.440845927023
20
4.07560456201932
30
2E-16
41
1
10
58.2929984811007
20
4.16096432472159
30
3E-16
41
1
10
58.2192436988221
20
4.20354666812415
30
3E-16
41
1
10
57.9998412798184
20
4.3302187137968
30
3E-16
41
1
10
57.8562058138004
20
4.41314668876748
30
3E-16
41
1
10
57.7146429928643
20
4.49487802154218
30
3E-16
0
SPLINE
5
10A
100
AcDbEntity
8
1
62
256
6
ByLayer
370
18
48
1
60
0
100
AcDbSpline
70
4
71
3
72
24
73
20
40
0
40
0
40
0
40
0
40
0.250000000000002
40
0.250000000000002
40
0.375000000000003
40
0.375000000000003
40
0.437500000000004
40
0.437500000000004
40
0.468750000000002
40
0.468750000000002
40
0.5
40
0.5
40
0.749999999999995
40
0.749999999999995
40
0.812499999999995
40
0.812499999999995
40
0.874999999999995
40
0.874999999999995
40
1
40
1
40
1
40
1
41
1
10
57.2853572071358
20
4.49487802154218
30
3E-16
41
1
10
57.0029471243301
20
4.33182848421245
30
3E-16
41
1
10
56.7147937748739
20
4.16546307033607
30
3E-16
41
1
10
56.2696455735829
20
3.90845663649139
30
2E-16
41
1
10
56.1190956376171
20
3.82153659043507
30
2E-16
41
1
10
55.8894194521197
20
3.6889329829117
30
2E-16
41
1
10
55.81221878264
20
3.64436115560594
30
2E-16
41
1
10
55.6953831743731
20
3.57690608572216
30
2E-16
41
1
10
55.6562696675996
20
3.55432389205748
30
2E-16
41
1
10
55.5784270823138
20
3.50938145448831
30
2E-16
41
1
10
55.5396065116965
20
3.48696838759238
30
2E-16
41
1
10
55.1911155035444
20
3.28576701022556
30
2E-16
41
1
10
54.887771388044
20
3.11063120348433
30
2E-16
41
1
10
54.5150663723977
20
2.89544986237263
30
2E-16
41
1
10
54.440845927023
20
2.85259866825618
30
2E-16
41
1
10
54.2929984811007
20
2.76723890555394
30
2E-16
41
1
10
54.2192436988221
20
2.72465656215138
30
2E-16
41
1
10
53.9998412798185
20
2.59798451647876
30
2E-16
41
1
10
53.8562058138004
20
2.51505654150805
30
2E-16
41
1
10
53.7146429928643
20
2.43332520873335
30
1E-16
0
SPLINE
5
10B
100
AcDbEntity
8
1
62
256
6
ByLayer
370
18
48
1
60
0
100
AcDbSpline
70
4
71
3
72
28
73
24
40
0
40
0
40
0
40
0
40
0.125000000000002
40
0.125000000000002
40
0.187500000000003
40
0.187500000000003
40
0.250000000000004
40
0.250000000000004
40
0.500000000000004
40
0.500000000000004
40
0.531250000000004
40
0.531250000000004
40
0.562500000000004
40
0.562500000000004
40
0.625000000000004
40
0.625000000000004
40
0.750000000000003
40
0.750000000000003
40
0.875000000000002
40
0.875000000000002
40
0.937500000000001
40
0.937500000000001
40
1
40
1
40
1
40
1
41
1
10
53.5000001
20
2.06155281280888
30
1E-16
41
1
10
53.5000001000001
20
1.90031648126336
30
1E-16
41
1
10
53.5000001
20
1.73598017665662
30
1E-16
41
1
10
53.5000001
20
1.48337873374902
30
1E-16
41
1
10
53.5000001
20
1.39823101749118
30
1E-16
41
1
10
53.5000001
20
1.22760844491324
30
1E-16
41
1
10
53.5000001
20
1.14191339006641
30
1E-16
41
1
10
53.5000001
20
0.71135846010128
30
0
41
1
10
53.5000001000001
20
0.360199285289696
30
0
41
1
10
53.5000001000001
20
-0.0443754570017916
30
0
41
1
10
53.5000001000001
20
-0.0895365380270903
30
0
41
1
10
53.5000001
20
-0.179404574985796
30
0
41
1
10
53.5000001
20
-0.22417992954982
30
0
41
1
10
53.5000001
20
-0.358042242208398
30
0
41
1
10
53.5000001000001
20
-0.446665197355088
30
0
41
1
10
53.5000001
20
-0.710787193001607
30
0
41
1
10
53.5000001
20
-0.884538145960363
30
-1E-16
41
1
10
53.5000001
20
-1.22802693923833
30
-1E-16
41
1
10
53.5000001000001
20
-1.3977675595707
30
-1E-16
41
1
10
53.5000001
20
-1.64986331447207
30
-1E-16
41
1
10
53.5000001
20
-1.73362371105932
30
-1E-16
41
1
10
53.5000001
20
-1.89894191332752
30
-1E-16
41
1
10
53.5000001
20
-1.98065832486307
30
-1E-16
41
1
10
53.5000001
20
-2.06155281280888
30
-1E-16
0
SPLINE
5
10C
100
AcDbEntity
8
SK1
62
256
6
ByLayer
370
18
48
1
60
0
100
AcDbSpline
70
4
71
3
72
70
73
66
40
0
40
0
40
0
40
0
40
0.0105065657314137
40
0.0219204888731584
40
0.0336584551157922
40
0.0457218028432855
40
0.0581109785915764
40
0.0708255358246525
40
0.0838641361584682
40
0.097224553029368
40
0.110903677796939
40
0.12489752826458
40
0.139201259594424
40
0.153809177586704
40
0.168714754287156
40
0.183910645879691
40
0.199388712815282
40
0.215140042121901
40
0.231154971834358
40
0.247423117477078
40
0.263933400527217
40
0.280674078780138
40
0.297632778533962
40
0.314796528505036
40
0.332151795381313
40
0.349684520916225
40
0.367380160461356
40
0.385223722832309
40
0.403199811398511
40
0.421292666284295
40
0.439486207565631
40
0.457764079344079
40
0.476109694577165
40
0.494506280542319
40
0.512936924809736
40
0.531384621598172
40
0.549832318386607
40
0.568262962654024
40
0.586659548619179
40
0.605005163852266
40
0.623283035630712
40
0.641476576912049
40
0.659569431797833
40
0.677545520364034
40
0.695389082734988
40
0.713084722280118
40
0.73061744781503
40
0.747972714691308
40
0.765136464662381
40
0.782095164416205
40
0.798835842669126
40
0.815346125719265
40
0.831614271361985
40
0.847629201074442
40
0.863380530381062
40
0.878858597316652
40
0.894054488909187
40
0.908960065609639
40
0.923567983601919
40
0.937871714931763
40
0.951865565399403
40
0.965544690166974
40
0.978905107037874
40
0.99194370737169
40
1
40
1
40
1
40
1
41
1
10
-0.194913899692011
20
6.03894368023623
30
4E-16
41
1
10
-0.194913899692011
20
6.13710523892479
30
4E-16
41
1
10
-0.194913899692011
20
6.34108613333504
30
4E-16
41
1
10
-0.194913899692011
20
6.65164826783789
30
4E-16
41
1
10
-0.194913899692011
20
6.97362911070815
30
4E-16
41
1
10
-0.194913899692011
20
7.30139512852722
30
4E-16
41
1
10
-0.194913899692011
20
7.63468312223969
30
5E-16
41
1
10
-0.194913899692011
20
7.97319856252247
30
5E-16
41
1
10
-0.194913899692011
20
8.31661677783944
30
5E-16
41
1
10
-0.194913899692011
20
8.66458428072298
30
5E-16
41
1
10
-0.194913899692011
20
9.01672022571893
30
6E-16
41
1
10
-0.194913899692011
20
9.3726179918047
30
6E-16
41
1
10
-0.194913899692011
20
9.73184688149942
30
6E-16
41
1
10
-0.194913899692011
20
10.0939539283317
30
6E-16
41
1
10
-0.194913899692011
20
10.4584658038182
30
6E-16
41
1
10
-0.194913899692011
20
10.8248908146385
30
7E-16
41
1
10
-0.194913899692011
20
11.1927209802657
30
7E-16
41
1
10
-0.194913899692011
20
11.5614341809398
30
7E-16
41
1
10
-0.194913899692011
20
11.930496365542
30
7E-16
41
1
10
-0.194913899692011
20
12.2993638086528
30
8E-16
41
1
10
-0.194913899692011
20
12.6674854058561
30
8E-16
41
1
10
-0.194913899692011
20
13.0343049961769
30
8E-16
41
1
10
-0.194913899692011
20
13.3992637004308
30
8E-16
41
1
10
-0.194913899692011
20
13.7618022641959
30
8E-16
41
1
10
-0.194913899692011
20
14.1213633941173
30
9E-16
41
1
10
-0.194913899692011
20
14.4773940762998
30
9E-16
41
1
10
-0.194913899692011
20
14.8293478656487
30
-9E-16
41
1
10
-0.194913899692011
20
15.1766871351788
30
-8E-16
41
1
10
-0.194913899692011
20
15.518885274519
30
-8E-16
41
1
10
-0.194913899692011
20
15.855428827106
30
-8E-16
41
1
10
-0.194913899692011
20
16.1858195558763
30
-8E-16
41
1
10
-0.194913899692011
20
16.5095764276251
30
-8E-16
41
1
10
-0.194913899692011
20
16.8262375066189
30
-7E-16
41
1
10
-0.194913899692011
20
17.1353617485005
30
-7E-16
41
1
10
-0.194913899692011
20
17.4365306860276
30
-7E-16
41
1
10
-0.194913899692011
20
17.7293499987316
30
-7E-16
41
1
10
-0.194913899692011
20
18.0134509591556
30
-7E-16
41
1
10
-0.194913899692011
20
18.288491748955
30
-7E-16
41
1
10
-0.194913899692011
20
18.5541586387843
30
-6E-16
41
1
10
-0.194913899692011
20
18.8101670265767
30
-6E-16
41
1
10
-0.194913899692011
20
19.0562623295216
30
3E-16
41
1
10
-0.194913899692011
20
19.292220725775
30
3E-16
41
1
10
-0.194913899692011
20
19.5178497426781
30
3E-16
41
1
10
-0.194913899692011
20
19.7329886890234
30
3E-16
41
1
10
-0.194913899692011
20
19.9375089296754
30
3E-16
41
1
10
-0.194913899692011
20
20.1313140016337
30
3E-16
41
1
10
-0.194913899692011
20
20.3143395714111
30
4E-16
41
1
10
-0.194913899692011
20
20.4865532343792
30
4E-16
41
1
10
-0.194913899692011
20
20.6479541575162
30
-1E-16
41
1
10
-0.194913899692011
20
20.7985725677639
30
-1E-16
41
1
10
-0.194913899692011
20
20.9384690889588
30
-1E-16
41
1
10
-0.194913899692011
20
21.0677339310531
30
0
41
1
10
-0.19491389969204
20
21.1864859360631
30
0
41
1
10
-0.19491389969204
20
21.2948714858928
30
0
41
1
10
-0.19491389969204
20
21.3930632778553
30
0
41
1
10
-0.19491389969204
20
21.4812589743688
30
0
41
1
10
-0.19491389969204
20
21.5596797339208
30
0
41
1
10
-0.19491389969204
20
21.6285686309768
30
0
41
1
10
-0.19491389969204
20
21.6881889730555
30
0
41
1
10
-0.19491389969204
20
21.7388225236985
30
0
41
1
10
-0.19491389969204
20
21.7807676405212
30
0
41
1
10
-0.19491389969204
20
21.8143373379495
30
0
41
1
10
-0.19491389969204
20
21.8398572846153
30
0
41
1
10
-0.19491389969204
20
21.8555430699881
30
0
41
1
10
-0.194913899692011
20
21.86200865281
30
0
41
1
10
-0.19491389969204
20
21.864012679822
30
0
0
SPLINE
5
10D
100
AcDbEntity
8
SK1
62
256
6
ByLayer
370
18
48
1
60
0
100
AcDbSpline
70
4
71
3
72
70
73
66
40
0
40
0
40
0
40
0
40
0.0080562931987817
40
0.021094893525099
40
0.0344553103883151
40
0.048134435148019
40
0.0621282856076115
40
0.07643201692923
40
0.091039934913109
40
0.105945511604989
40
0.121141403188785
40
0.136619470115474
40
0.152370799413035
40
0.168385729116282
40
0.184653874749646
40
0.201164157790291
40
0.217904836033583
40
0.234863535777655
40
0.252027285738857
40
0.269382552605154
40
0.286915278129982
40
0.304610917664935
40
0.322454480025628
40
0.340430568581491
40
0.35852342345687
40
0.376716964727743
40
0.394994836495678
40
0.413340451718215
40
0.431737037672789
40
0.450167681929607
40
0.468615378707432
40
0.48706307548526
40
0.505493719742077
40
0.523890305696651
40
0.542235920919187
40
0.560513792687123
40
0.578707333957996
40
0.596800188833375
40
0.614776277389238
40
0.632619839749931
40
0.650315479284883
40
0.667848204809713
40
0.685203471676009
40
0.702367221637212
40
0.719325921381283
40
0.736066599624576
40
0.75257688266522
40
0.768845028298583
40
0.784859958001831
40
0.800611287299391
40
0.816089354226081
40
0.831285245809877
40
0.846190822501757
40
0.860798740485636
40
0.875102471807254
40
0.889096322266846
40
0.90277544702655
40
0.916135863889767
40
0.929174464216084
40
0.941889021441847
40
0.954278197183013
40
0.966341544903569
40
0.978079511139452
40
0.989493434274633
40
1
40
1
40
1
40
1
41
1
10
-0.19491389969204
20
-21.8640126802511
30
0
41
1
10
-0.19491389969204
20
-21.8620086531626
30
0
41
1
10
-0.19491389969204
20
-21.8555430702499
30
0
41
1
10
-0.19491389969204
20
-21.8398572846153
30
0
41
1
10
-0.19491389969204
20
-21.8143373379495
30
0
41
1
10
-0.19491389969204
20
-21.7807676405212
30
0
41
1
10
-0.19491389969204
20
-21.7388225236984
30
0
41
1
10
-0.19491389969204
20
-21.6881889730555
30
0
41
1
10
-0.19491389969204
20
-21.6285686309768
30
0
41
1
10
-0.19491389969204
20
-21.5596797339208
30
0
41
1
10
-0.19491389969204
20
-21.4812589743688
30
0
41
1
10
-0.19491389969204
20
-21.3930632778553
30
0
41
1
10
-0.19491389969204
20
-21.2948714858928
30
0
41
1
10
-0.194913899692011
20
-21.1864859360631
30
0
41
1
10
-0.194913899692011
20
-21.067733931053
30
0
41
1
10
-0.194913899692011
20
-20.9384690889588
30
1E-16
41
1
10
-0.194913899692011
20
-20.7985725677638
30
1E-16
41
1
10
-0.194913899692011
20
-20.6479541575162
30
1E-16
41
1
10
-0.194913899692011
20
-20.4865532343791
30
-4E-16
41
1
10
-0.194913899692011
20
-20.3143395714111
30
-4E-16
41
1
10
-0.194913899692011
20
-20.1313140016337
30
-3E-16
41
1
10
-0.194913899692011
20
-19.9375089296753
30
-3E-16
41
1
10
-0.194913899692011
20
-19.7329886890234
30
-3E-16
41
1
10
-0.194913899692011
20
-19.517849742678
30
-3E-16
41
1
10
-0.194913899692011
20
-19.2922207257749
30
-3E-16
41
1
10
-0.194913899692011
20
-19.0562623295216
30
-3E-16
41
1
10
-0.194913899692011
20
-18.8101670265766
30
6E-16
41
1
10
-0.194913899692011
20
-18.5541586387843
30
6E-16
41
1
10
-0.194913899692011
20
-18.2884917489549
30
7E-16
41
1
10
-0.194913899692011
20
-18.0134509591555
30
7E-16
41
1
10
-0.194913899692011
20
-17.7293499987315
30
7E-16
41
1
10
-0.194913899692011
20
-17.4365306860276
30
7E-16
41
1
10
-0.194913899692011
20
-17.1353617485004
30
7E-16
41
1
10
-0.194913899692011
20
-16.8262375066188
30
7E-16
41
1
10
-0.194913899692011
20
-16.509576427625
30
8E-16
41
1
10
-0.194913899692011
20
-16.1858195558762
30
8E-16
41
1
10
-0.194913899692011
20
-15.8554288271059
30
8E-16
41
1
10
-0.194913899692011
20
-15.5188852745189
30
8E-16
41
1
10
-0.194913899692011
20
-15.1766871351787
30
8E-16
41
1
10
-0.194913899692011
20
-14.8293478656486
30
9E-16
41
1
10
-0.194913899692011
20
-14.4773940762996
30
-9E-16
41
1
10
-0.194913899692011
20
-14.1213633941172
30
-9E-16
41
1
10
-0.194913899692011
20
-13.7618022641958
30
-8E-16
41
1
10
-0.194913899692011
20
-13.3992637004307
30
-8E-16
41
1
10
-0.194913899692011
20
-13.0343049961768
30
-8E-16
41
1
10
-0.194913899692011
20
-12.667485405856
30
-8E-16
41
1
10
-0.194913899692011
20
-12.2993638086527
30
-8E-16
41
1
10
-0.194913899692011
20
-11.9304963655418
30
-7E-16
41
1
10
-0.194913899692011
20
-11.5614341809397
30
-7E-16
41
1
10
-0.194913899692011
20
-11.1927209802656
30
-7E-16
41
1
10
-0.194913899692011
20
-10.8248908146384
30
-7E-16
41
1
10
-0.194913899692011
20
-10.4584658038181
30
-6E-16
41
1
10
-0.194913899692011
20
-10.0939539283316
30
-6E-16
41
1
10
-0.194913899692011
20
-9.73184688149931
30
-6E-16
41
1
10
-0.194913899692011
20
-9.37261799180459
30
-6E-16
41
1
10
-0.194913899692011
20
-9.01672022571881
30
-6E-16
41
1
10
-0.194913899692011
20
-8.66458428072289
30
-5E-16
41
1
10
-0.194913899692011
20
-8.31661677783936
30
-5E-16
41
1
10
-0.194913899692011
20
-7.97319856252238
30
-5E-16
41
1
10
-0.194913899692011
20
-7.63468312223958
30
-5E-16
41
1
10
-0.194913899692011
20
-7.3013951285271
30
-4E-16
41
1
10
-0.194913899692011
20
-6.97362911070806
30
-4E-16
41
1
10
-0.194913899692011
20
-6.65164826783777
30
-4E-16
41
1
10
-0.194913899692011
20
-6.34108613333498
30
-4E-16
41
1
10
-0.194913899692011
20
-6.13710523892476
30
-4E-16
41
1
10
-0.194913899692011
20
-6.03894368023626
30
-4E-16
0
SPLINE
5
10E
100
AcDbEntity
8
SK1
62
256
6
ByLayer
370
18
48
1
60
0
100
AcDbSpline
70
4
71
3
72
40
73
36
40
0
40
0
40
0
40
0
40
0.25
40
0.25
40
0.375
40
0.375
40
0.499999999999999
40
0.499999999999999
40
0.562499999999999
40
0.562499999999999
40
0.625
40
0.625
40
0.65625
40
0.65625
40
0.687500000000001
40
0.687500000000001
40
0.718750000000001
40
0.718750000000001
40
0.750000000000002
40
0.750000000000002
40
0.765625000000002
40
0.765625000000002
40
0.781250000000002
40
0.781250000000002
40
0.812500000000002
40
0.812500000000002
40
0.843750000000002
40
0.843750000000002
40
0.875000000000002
40
0.875000000000002
40
0.906250000000002
40
0.906250000000002
40
0.937500000000002
40
0.937500000000002
40
1
40
1
40
1
40
1
41
1
10
-1.30710678118655
20
4.81101991917754
30
3E-16
41
1
10
-1.27267859693964
20
5.00581406741108
30
3E-16
41
1
10
-1.23294663929079
20
5.19773966995294
30
3E-16
41
1
10
-1.16003580444669
20
5.48026628902818
30
3E-16
41
1
10
-1.13348546477002
20
5.57354141941653
30
3E-16
41
1
10
-1.07378508724628
20
5.75782583206109
30
4E-16
41
1
10
-1.04074929389205
20
5.84886220831652
30
4E-16
41
1
10
-0.982692460902626
20
5.98290169673092
30
4E-16
41
1
10
-0.961903272799191
20
6.02715770615649
30
4E-16
41
1
10
-0.915949523172401
20
6.11447071619736
30
4E-16
41
1
10
-0.890674024149973
20
6.15777307836174
30
4E-16
41
1
10
-0.848059763859368
20
6.21970498404633
30
4E-16
41
1
10
-0.833046620204442
20
6.2398748909321
30
4E-16
41
1
10
-0.8007308337707
20
6.27889245736938
30
4E-16
41
1
10
-0.783425423841464
20
6.29773663175902
30
4E-16
41
1
10
-0.746116816224031
20
6.33269819949703
30
4E-16
41
1
10
-0.726047387002268
20
6.34895159616804
30
4E-16
41
1
10
-0.681429405423557
20
6.37716613670193
30
4E-16
41
1
10
-0.657383183035932
20
6.38875390723683
30
4E-16
41
1
10
-0.618359101363836
20
6.39971471165126
30
4E-16
41
1
10
-0.605138748144014
20
6.40220810310328
30
4E-16
41
1
10
-0.578229070218441
20
6.40463339070345
30
4E-16
41
1
10
-0.56443860233469
20
6.40452391195393
30
4E-16
41
1
10
-0.524312160762832
20
6.40030093324012
30
4E-16
41
1
10
-0.498274615453681
20
6.39218550752921
30
4E-16
41
1
10
-0.451116330762773
20
6.36967727777605
30
4E-16
41
1
10
-0.429308609870532
20
6.35514524843896
30
4E-16
41
1
10
-0.389634040082683
20
6.3231816855855
30
4E-16
41
1
10
-0.371596555068294
20
6.30568880631466
30
4E-16
41
1
10
-0.337824957125946
20
6.2687499436839
30
4E-16
41
1
10
-0.322070108373367
20
6.24922425298308
30
4E-16
41
1
10
-0.292612852177001
20
6.20928245218317
30
4E-16
41
1
10
-0.278859303464856
20
6.18880748404874
30
4E-16
41
1
10
-0.239730688332628
20
6.12625960870207
30
4E-16
41
1
10
-0.216450213401544
20
6.08308215774457
30
4E-16
41
1
10
-0.194913899692011
20
6.03894368023606
30
4E-16
0
SPLINE
5
10F
100
AcDbEntity
8
1
62
256
6
ByLayer
370
18
48
1
60
0
100
AcDbSpline
70
4
71
3
72
18
73
14
40
0
40
0
40
0
40
0
40
0.125000000000001
40
0.125000000000001
40
0.250000000000002
40
0.250000000000002
40
0.375000000000003
40
0.375000000000003
40
0.500000000000004
40
0.500000000000004
40
0.750000000000002
40
0.750000000000002
40
1
40
1
40
1
40
1
41
1
10
10.5386751345947
20
9.34922131452518
30
6E-16
41
1
10
10.5072756412305
20
9.34922131452518
30
6E-16
41
1
10
10.4764586959747
20
9.35538953951161
30
6E-16
41
1
10
10.4183632336902
20
9.37754088736838
30
6E-16
41
1
10
10.3919291019262
20
9.39297468348781
30
6E-16
41
1
10
10.3427194975197
20
9.42993211500846
30
6E-16
41
1
10
10.3208062022522
20
9.45082003408538
30
6E-16
41
1
10
10.2806931514084
20
9.49564759237833
30
6E-16
41
1
10
10.2624018249832
20
9.51978166417439
30
6E-16
41
1
10
10.2124241495698
20
9.59469723248407
30
6E-16
41
1
10
10.1856493851623
20
9.64746044882511
30
6E-16
41
1
10
10.1399780841698
20
9.75632777527133
30
6E-16
41
1
10
10.1211537798005
20
9.81278314839847
30
6E-16
41
1
10
10.1056624327025
20
9.86941261896635
30
6E-16
0
SPLINE
5
110
100
AcDbEntity
8
1
62
256
6
ByLayer
370
18
48
1
60
0
100
AcDbSpline
70
2053
71
3
72
175
73
171
40
0
40
0
40
0
40
0
40
0.0156249999999997
40
0.0156249999999997
40
0.0312499999999995
40
0.0312499999999995
40
0.0468749999999992
40
0.0468749999999992
40
0.054687499999999
40
0.054687499999999
40
0.0624999999999989
40
0.0624999999999989
40
0.0937499999999982
40
0.0937499999999982
40
0.101562499999998
40
0.101562499999998
40
0.105468749999998
40
0.105468749999998
40
0.109374999999998
40
0.109374999999998
40
0.124999999999999
40
0.124999999999999
40
0.156249999999999
40
0.156249999999999
40
0.164062499999999
40
0.164062499999999
40
0.171874999999999
40
0.171874999999999
40
0.1875
40
0.1875
40
0.21875
40
0.21875
40
0.2265625
40
0.2265625
40
0.234375
40
0.234375
40
0.25
40
0.25
40
0.265625
40
0.265625
40
0.281249999999999
40
0.281249999999999
40
0.289062499999999
40
0.289062499999999
40
0.296874999999999
40
0.296874999999999
40
0.312499999999999
40
0.312499999999999
40
0.328124999999999
40
0.328124999999999
40
0.343749999999999
40
0.343749999999999
40
0.351562499999999
40
0.351562499999999
40
0.359374999999999
40
0.359374999999999
40
0.374999999999999
40
0.374999999999999
40
0.390624999999999
40
0.390624999999999
40
0.394531249999999
40
0.394531249999999
40
0.398437499999999
40
0.398437499999999
40
0.406249999999999
40
0.406249999999999
40
0.421875
40
0.421875
40
0.4375
40
0.4375
40
0.44140625
40
0.44140625
40
0.4453125
40
0.453125
40
0.453125
40
0.46875
40
0.46875
40
0.4765625
40
0.4765625
40
0.48046875
40
0.48046875
40
0.484375
40
0.484375
40
0.500000000000001
40
0.500000000000001
40
0.515625000000002
40
0.515625000000002
40
0.523437500000002
40
0.523437500000002
40
0.531250000000002
40
0.531250000000002
40
0.546875000000003
40
0.546875000000003
40
0.562500000000004
40
0.562500000000004
40
0.578125000000005
40
0.578125000000005
40
0.585937500000005
40
0.585937500000005
40
0.593750000000005
40
0.593750000000005
40
0.625000000000006
40
0.625000000000006
40
0.640625000000006
40
0.640625000000006
40
0.648437500000006
40
0.648437500000006
40
0.656250000000006
40
0.656250000000006
40
0.687500000000006
40
0.687500000000006
40
0.703125000000007
40
0.703125000000007
40
0.718750000000007
40
0.718750000000007
40
0.734375000000007
40
0.734375000000007
40
0.750000000000008
40
0.750000000000008
40
0.757812500000008
40
0.757812500000008
40
0.765625000000008
40
0.765625000000008
40
0.781250000000007
40
0.781250000000007
40
0.796875000000007
40
0.796875000000007
40
0.812500000000007
40
0.812500000000007
40
0.820312500000007
40
0.820312500000007
40
0.824218750000007
40
0.824218750000007
40
0.828125000000007
40
0.828125000000007
40
0.843750000000007
40
0.843750000000007
40
0.859375000000006
40
0.859375000000006
40
0.867187500000006
40
0.867187500000006
40
0.871093750000006
40
0.871093750000006
40
0.875000000000006
40
0.875000000000006
40
0.890625000000005
40
0.906250000000005
40
0.906250000000005
40
0.914062500000005
40
0.914062500000005
40
0.917968750000005
40
0.917968750000005
40
0.921875000000005
40
0.921875000000005
40
0.937500000000004
40
0.937500000000004
40
0.953125000000003
40
0.953125000000003
40
0.960937500000003
40
0.960937500000003
40
0.968750000000003
40
0.968750000000003
40
0.984375000000002
40
0.984375000000002
40
0.992187500000001
40
0.992187500000001
40
0.996093750000001
40
0.998046875
40
0.998046875
40
1
40
1
40
1
40
1
41
1
10
65.8827093157792
20
-5.84604884346017
30
-4E-16
41
1
10
65.658813562936
20
-6.08932621603554
30
-4E-16
41
1
10
65.4243791994457
20
-6.31946703785803
30
-4E-16
41
1
10
64.9357593408039
20
-6.75538819749292
30
-4E-16
41
1
10
64.6815681706801
20
-6.96116091574683
30
-4E-16
41
1
10
64.1540282903354
20
-7.34933315890069
30
-5E-16
41
1
10
63.8806775057535
20
-7.53172968431304
30
-5E-16
41
1
10
63.4562785288585
20
-7.78797640981534
30
-5E-16
41
1
10
63.3129730675737
20
-7.87014538256361
30
-5E-16
41
1
10
63.0238891841372
20
-8.02753479143252
30
-5E-16
41
1
10
62.8779348234257
20
-8.10286184424629
30
-5E-16
41
1
10
62.1412427296184
20
-8.46308225780203
30
-5E-16
41
1
10
61.5299262026101
20
-8.69918566578102
30
-5E-16
41
1
10
60.7386568257184
20
-8.93113707889563
30
-5E-16
41
1
10
60.5790356256703
20
-8.97434073101022
30
-5E-16
41
1
10
60.3375258425862
20
-9.03431985349948
30
-6E-16
41
1
10
60.2565859497476
20
-9.05352758009258
30
-6E-16
41
1
10
60.0946380520467
20
-9.09018275988527
30
-6E-16
41
1
10
60.0135967731906
20
-9.10764070281516
30
-6E-16
41
1
10
59.6080571369127
20
-9.1906323304797
30
-6E-16
41
1
10
59.2825610625478
20
-9.24330013220495
30
-6E-16
41
1
10
58.302960415712
20
-9.36134381357815
30
-6E-16
41
1
10
57.6457659753755
20
-9.38707823003597
30
-6E-16
41
1
10
56.8190266036452
20
-9.35207262680916
30
-6E-16
41
1
10
56.6534145927722
20
-9.34168714561844
30
-6E-16
41
1
10
56.3216525324337
20
-9.31401627136654
30
-6E-16
41
1
10
56.156301236794
20
-9.29678940245697
30
-6E-16
41
1
10
55.6635472942334
20
-9.23525398072718
30
-6E-16
41
1
10
55.338694110444
20
-9.18105084139927
30
-6E-16
41
1
10
54.3748618731429
20
-8.9795270218427
30
-5E-16
41
1
10
53.7465197225152
20
-8.79364918813474
30
-5E-16
41
1
10
52.9794258306088
20
-8.49384269972666
30
-5E-16
41
1
10
52.8269309758079
20
-8.43047987360879
30
-5E-16
41
1
10
52.5238347160285
20
-8.29675067991474
30
-5E-16
41
1
10
52.3742187329574
20
-8.22681427833973
30
-5E-16
41
1
10
51.9318684681921
20
-8.00821466067285
30
-5E-16
41
1
10
51.6452746032775
20
-7.85063204341208
30
-5E-16
41
1
10
51.0886035714391
20
-7.51166143026234
30
-5E-16
41
1
10
50.8185250681677
20
-7.33027579021422
30
-4E-16
41
1
10
50.2952772496171
20
-6.94286927210931
30
-4E-16
41
1
10
50.0421038610626
20
-6.73685489808597
30
-4E-16
41
1
10
49.6757437227354
20
-6.40809704670545
30
-4E-16
41
1
10
49.5557807226526
20
-6.29513410415279
30
-4E-16
41
1
10
49.3208528391405
20
-6.06263351983395
30
-4E-16
41
1
10
49.206812031183
20
-5.94401700389827
30
-4E-16
41
1
10
48.8749084260352
20
-5.58106936417684
30
-3E-16
41
1
10
48.6672364462115
20
-5.32965940109068
30
-3E-16
41
1
10
48.2794844158286
20
-4.80749746270908
30
-3E-16
41
1
10
48.0993998812469
20
-4.5367489440101
30
-3E-16
41
1
10
47.7681663404654
20
-3.97480361705865
30
-2E-16
41
1
10
47.61700623641
20
-3.68361491533148
30
-2E-16
41
1
10
47.4138525282223
20
-3.23005030963066
30
-2E-16
41
1
10
47.3499717332826
20
-3.07568387470383
30
-2E-16
41
1
10
47.2322625721177
20
-2.76588901775162
30
-2E-16
41
1
10
47.1781779506412
20
-2.60994413291482
30
-2E-16
41
1
10
47.0301546750334
20
-2.13897731990795
30
-1E-16
41
1
10
46.9504078848715
20
-1.82083138167064
30
-1E-16
41
1
10
46.8292939500033
20
-1.17606252898929
30
-1E-16
41
1
10
46.787921055284
20
-0.849440894639685
30
-1E-16
41
1
10
46.7613255031227
20
-0.435605741388798
30
0
41
1
10
46.7572659338935
20
-0.352560061107624
30
0
41
1
10
46.751709194101
20
-0.185901721797649
30
0
41
1
10
46.7502132387172
20
-0.102121192453467
30
0
41
1
10
46.7496376725927
20
0.148612415834379
30
0
41
1
10
46.7544402195757
20
0.314906939673364
30
0
41
1
10
46.7839946400179
20
0.811275785442291
30
0
41
1
10
46.8238521813927
20
1.13884187645598
30
1E-16
41
1
10
46.9427530511147
20
1.787478630641
30
1E-16
41
1
10
47.0217983498173
20
2.10854894021534
30
1E-16
41
1
10
47.1452114435038
20
2.50582174902601
30
2E-16
41
1
10
47.171173582486
20
2.58520191746683
30
2E-16
41
1
10
47.2252963134658
20
2.74274635312924
30
2E-16
41
1
10
47.3097806552298
20
2.97728477653601
30
2E-16
41
1
10
47.4039457371095
20
3.20661338067907
30
2E-16
41
1
10
47.6047423414575
20
3.65858033156158
30
2E-16
41
1
10
47.7551929068264
20
3.95098996517194
30
2E-16
41
1
10
48.0047024584848
20
4.37689867312858
30
3E-16
41
1
10
48.0918538979248
20
4.51674574517128
30
3E-16
41
1
10
48.2285016897098
20
4.7233723615575
30
3E-16
41
1
10
48.275038249565
20
4.79172363053593
30
3E-16
41
1
10
48.3700835619739
20
4.92738104262997
30
3E-16
41
1
10
48.4186279849025
20
4.99473059338945
30
3E-16
41
1
10
48.6649801559388
20
5.32715547451039
30
3E-16
41
1
10
48.8745448584115
20
5.58064253110396
30
3E-16
41
1
10
49.3170141443141
20
6.06455588989809
30
4E-16
41
1
10
49.5499255922821
20
6.29497492565494
30
4E-16
41
1
10
49.9162479534436
20
6.62402288053462
30
4E-16
41
1
10
50.0411874693312
20
6.73093595636647
30
4E-16
41
1
10
50.2967079475039
20
6.93927442157403
30
4E-16
41
1
10
50.4276005994893
20
7.04092270461899
30
4E-16
41
1
10
50.8259544972446
20
7.33560758231968
30
4E-16
41
1
10
51.0990589516033
20
7.51852366129421
30
5E-16
41
1
10
51.6596203497614
20
7.85884938694886
30
5E-16
41
1
10
51.9470803416337
20
8.0162530359035
30
5E-16
41
1
10
52.5360997650019
20
8.3062643514173
30
5E-16
41
1
10
52.8376601000566
20
8.4388700311936
30
5E-16
41
1
10
53.3006827687579
20
8.61916920909712
30
5E-16
41
1
10
53.4570672729805
20
8.67623724677918
30
5E-16
41
1
10
53.7707300088065
20
8.78321346525581
30
5E-16
41
1
10
53.9282814001941
20
8.83324028473231
30
5E-16
41
1
10
54.7195727270421
20
9.06645042491243
30
6E-16
41
1
10
55.3638323156473
20
9.19929469385758
30
6E-16
41
1
10
56.3468608100814
20
9.31980534764421
30
6E-16
41
1
10
56.6773263822556
20
9.34676542516812
30
6E-16
41
1
10
57.1773316471049
20
9.36685492348082
30
6E-16
41
1
10
57.3439241988599
20
9.37011430773964
30
6E-16
41
1
10
57.675816984371
20
9.36984559400972
30
6E-16
41
1
10
57.84130091065
20
9.36632514870291
30
6E-16
41
1
10
58.6664397752901
20
9.33201862431594
30
6E-16
41
1
10
59.3193036510991
20
9.25153221257492
30
6E-16
41
1
10
60.2877113987786
20
9.05057074271301
30
6E-16
41
1
10
60.6086957761462
20
8.97013049142541
30
5E-16
41
1
10
61.2468550854447
20
8.78117671430218
30
5E-16
41
1
10
61.5593115556895
20
8.67405966142812
30
5E-16
41
1
10
62.1713148670009
20
8.43498810119959
30
5E-16
41
1
10
62.4708615766594
20
8.30303361075335
30
5E-16
41
1
10
63.0570330449789
20
8.01402743772508
30
5E-16
41
1
10
63.343659294085
20
7.85697909212612
30
5E-16
41
1
10
63.7636238460316
20
7.60182991581687
30
5E-16
41
1
10
63.9019465661798
20
7.5135112830485
30
5E-16
41
1
10
64.1751735038527
20
7.33012745223684
30
4E-16
41
1
10
64.3102099096623
20
7.23496449766333
30
4E-16
41
1
10
64.7091782945802
20
6.93956574554002
30
4E-16
41
1
10
64.9636029460289
20
6.73198646535914
30
4E-16
41
1
10
65.4494977395804
20
6.29545314391942
30
4E-16
41
1
10
65.680969298598
20
6.06650083418401
30
4E-16
41
1
10
66.1203747537526
20
5.58645552884252
30
3E-16
41
1
10
66.328314284758
20
5.33536826726061
30
3E-16
41
1
10
66.6215068143693
20
4.94096517830636
30
3E-16
41
1
10
66.7161111673643
20
4.80652876466081
30
3E-16
41
1
10
66.8531205130461
20
4.60020389914268
30
3E-16
41
1
10
66.8979735316582
20
4.53065002652957
30
3E-16
41
1
10
66.9860040405671
20
4.38994110813002
30
3E-16
41
1
10
67.0291726469569
20
4.31879067252243
30
3E-16
41
1
10
67.2393298591319
20
3.96136310197357
30
2E-16
41
1
10
67.3904987298767
20
3.66820675944683
30
2E-16
41
1
10
67.6584689477968
20
3.06717526616333
30
2E-16
41
1
10
67.7752753747435
20
2.75930243534981
30
2E-16
41
1
10
67.9234723880951
20
2.28586502758245
30
1E-16
41
1
10
67.9683594988311
20
2.12611045414434
30
1E-16
41
1
10
68.0286674297035
20
1.88344980303742
30
1E-16
41
1
10
68.0476288180925
20
1.80191514366439
30
1E-16
41
1
10
68.0829990454542
20
1.63855883386657
30
1E-16
41
1
10
68.0993957215225
20
1.55681833701647
30
1E-16
41
1
10
68.174993611219
20
1.1478066737973
30
1E-16
41
1
10
68.2551877841415
20
0.491414068702113
30
0
41
1
10
68.2550395593136
20
-0.168875757482795
30
0
41
1
10
68.2242520617507
20
-0.665581150147062
30
0
41
1
10
68.2088665872629
20
-0.831398089807749
30
-1E-16
41
1
10
68.1779368103521
20
-1.08050407116673
30
-1E-16
41
1
10
68.1663275434029
20
-1.1634825233215
30
-1E-16
41
1
10
68.1406725360588
20
-1.32838509453265
30
-1E-16
41
1
10
68.1266105306008
20
-1.41044582381673
30
-1E-16
41
1
10
68.0502311540281
20
-1.81883048241241
30
-1E-16
41
1
10
67.9697604632495
20
-2.1394140988337
30
-1E-16
41
1
10
67.7718049867196
20
-2.76891767074676
30
-2E-16
41
1
10
67.6543150496437
20
-3.0778359337865
30
-2E-16
41
1
10
67.450635328707
20
-3.53260891416318
30
-2E-16
41
1
10
67.378004021902
20
-3.6830049286159
30
-2E-16
41
1
10
67.2253862581923
20
-3.9775219089455
30
-2E-16
41
1
10
67.1452328566254
20
-4.12205741225225
30
-3E-16
41
1
10
66.893662294216
20
-4.54782332127283
30
-3E-16
41
1
10
66.7111672388223
20
-4.82123568980072
30
-3E-16
41
1
10
66.4162844717494
20
-5.21655796528748
30
-3E-16
41
1
10
66.3144583564976
20
-5.3458600881458
30
-3E-16
41
1
10
66.1564791500372
20
-5.53616237767378
30
-3E-16
41
1
10
66.0761788935179
20
-5.63040035445167
30
-3E-16
41
1
10
65.9939170472629
20
-5.72327486203264
30
-4E-16
41
1
10
65.9386400556616
20
-5.78488867353573
30
-4E-16
41
1
10
65.9106962848846
20
-5.81563917188825
30
-4E-16
41
1
10
65.8827093157792
20
-5.84604884346017
30
-4E-16
0
SPLINE
5
111
100
AcDbEntity
8
1
62
256
6
ByLayer
370
18
48
1
60
0
100
AcDbSpline
70
2053
71
3
72
180
73
176
40
0
40
0
40
0
40
0
40
0.015624999999997
40
0.015624999999997
40
0.031249999999994
40
0.031249999999994
40
0.046874999999991
40
0.046874999999991
40
0.0546874999999899
40
0.0546874999999899
40
0.0585937499999893
40
0.0585937499999893
40
0.0624999999999887
40
0.0624999999999887
40
0.0937499999999873
40
0.0937499999999873
40
0.109374999999986
40
0.109374999999986
40
0.117187499999985
40
0.117187499999985
40
0.124999999999985
40
0.124999999999985
40
0.156249999999982
40
0.156249999999982
40
0.171874999999981
40
0.171874999999981
40
0.179687499999981
40
0.179687499999981
40
0.187499999999981
40
0.187499999999981
40
0.20312499999998
40
0.20312499999998
40
0.218749999999979
40
0.218749999999979
40
0.234374999999978
40
0.234374999999978
40
0.242187499999977
40
0.242187499999977
40
0.249999999999977
40
0.249999999999977
40
0.265624999999977
40
0.265624999999977
40
0.281249999999976
40
0.281249999999976
40
0.289062499999976
40
0.289062499999976
40
0.292968749999976
40
0.292968749999976
40
0.296874999999975
40
0.296874999999975
40
0.312499999999975
40
0.312499999999975
40
0.328124999999974
40
0.328124999999974
40
0.335937499999973
40
0.335937499999973
40
0.339843749999973
40
0.339843749999973
40
0.343749999999973
40
0.343749999999973
40
0.359374999999972
40
0.359374999999972
40
0.374999999999971
40
0.374999999999971
40
0.382812499999971
40
0.382812499999971
40
0.386718749999971
40
0.386718749999971
40
0.390624999999971
40
0.390624999999971
40
0.406249999999971
40
0.406249999999971
40
0.421874999999971
40
0.421874999999971
40
0.425781249999971
40
0.425781249999971
40
0.429687499999971
40
0.429687499999971
40
0.437499999999971
40
0.437499999999971
40
0.45312499999997
40
0.45312499999997
40
0.46874999999997
40
0.46874999999997
40
0.476562499999969
40
0.476562499999969
40
0.484374999999969
40
0.484374999999969
40
0.499999999999968
40
0.499999999999968
40
0.515624999999966
40
0.515624999999966
40
0.523437499999966
40
0.523437499999966
40
0.531249999999966
40
0.531249999999966
40
0.562499999999964
40
0.562499999999964
40
0.578124999999963
40
0.578124999999963
40
0.585937499999962
40
0.585937499999962
40
0.593749999999961
40
0.593749999999961
40
0.62499999999996
40
0.62499999999996
40
0.640624999999959
40
0.640624999999959
40
0.648437499999958
40
0.648437499999958
40
0.656249999999958
40
0.656249999999958
40
0.687499999999958
40
0.687499999999958
40
0.703124999999957
40
0.703124999999957
40
0.707031249999958
40
0.707031249999958
40
0.710937499999958
40
0.710937499999958
40
0.718749999999959
40
0.718749999999959
40
0.73437499999996
40
0.73437499999996
40
0.749999999999962
40
0.749999999999962
40
0.765624999999963
40
0.765624999999963
40
0.769531249999964
40
0.769531249999964
40
0.773437499999965
40
0.773437499999965
40
0.781249999999966
40
0.781249999999966
40
0.796874999999969
40
0.796874999999969
40
0.812499999999972
40
0.812499999999972
40
0.816406249999972
40
0.816406249999972
40
0.820312499999973
40
0.828124999999974
40
0.828124999999974
40
0.843749999999977
40
0.843749999999977
40
0.859374999999979
40
0.859374999999979
40
0.86328124999998
40
0.86328124999998
40
0.86718749999998
40
0.874999999999981
40
0.874999999999981
40
0.890624999999984
40
0.890624999999984
40
0.898437499999985
40
0.898437499999985
40
0.906249999999986
40
0.906249999999986
40
0.921874999999988
40
0.921874999999988
40
0.93749999999999
40
0.93749999999999
40
0.945312499999991
40
0.945312499999991
40
0.953124999999992
40
0.953124999999992
40
0.968749999999995
40
0.968749999999995
40
0.984374999999997
40
0.984374999999997
40
0.992187499999999
40
0.992187499999999
40
0.996093749999999
40
0.996093749999999
40
1
40
1
40
1
40
1
41
1
10
96.8724414858252
20
-7.83498096308773
30
-5E-16
41
1
10
96.5851965470354
20
-7.99927390527239
30
-5E-16
41
1
10
96.2926144239715
20
-8.14961389181209
30
-5E-16
41
1
10
95.6972806123937
20
-8.42398133397597
30
-5E-16
41
1
10
95.3945267818562
20
-8.5480026691697
30
-5E-16
41
1
10
94.7790468954604
20
-8.77047827991021
30
-5E-16
41
1
10
94.466320081297
20
-8.86893027140499
30
-5E-16
41
1
10
93.9897053688701
20
-8.99746370860507
30
-6E-16
41
1
10
93.8295777618782
20
-9.03711210685
30
-6E-16
41
1
10
93.5874790134011
20
-9.09174668090745
30
-6E-16
41
1
10
93.5064614164283
20
-9.10915153177726
30
-6E-16
41
1
10
93.3437847866444
20
-9.14233644805336
30
-6E-16
41
1
10
93.2620336296607
20
-9.15813222231651
30
-6E-16
41
1
10
92.5264112473518
20
-9.29238107648865
30
-6E-16
41
1
10
91.8707497824487
20
-9.35660838440526
30
-6E-16
41
1
10
90.8846964259706
20
-9.37387038589736
30
-6E-16
41
1
10
90.555582615
20
-9.36635937861851
30
-6E-16
41
1
10
90.0612586692349
20
-9.3348983250095
30
-6E-16
41
1
10
89.8963749998806
20
-9.32104046572351
30
-6E-16
41
1
10
89.5663861965239
20
-9.28646918481564
30
-6E-16
41
1
10
89.4008955372687
20
-9.26569168311801
30
-6E-16
41
1
10
88.5794792991511
20
-9.1453078833087
30
-6E-16
41
1
10
87.939451324457
20
-8.99671508374661
30
-6E-16
41
1
10
87.0043729433657
20
-8.6965967800561
30
-5E-16
41
1
10
86.6968656010722
20
-8.58360386984143
30
-5E-16
41
1
10
86.2420333566527
20
-8.39404625837082
30
-5E-16
41
1
10
86.0914957993733
20
-8.32750991190042
30
-5E-16
41
1
10
85.7926150606187
20
-8.18755334502276
30
-5E-16
41
1
10
85.6439338016805
20
-8.11394423183273
30
-5E-16
41
1
10
85.2052986320501
20
-7.88460351315419
30
-5E-16
41
1
10
84.9218722517134
20
-7.72005314816028
30
-5E-16
41
1
10
84.3728237900915
20
-7.36764468176645
30
-5E-16
41
1
10
84.1072007219241
20
-7.17978829025793
30
-4E-16
41
1
10
83.594102130911
20
-6.78006125745495
30
-4E-16
41
1
10
83.3466227440836
20
-6.5681962581256
30
-4E-16
41
1
10
82.9897220595007
20
-6.23124670124568
30
-4E-16
41
1
10
82.8731466032331
20
-6.11573129405704
30
-4E-16
41
1
10
82.644967209423
20
-5.87801535348046
30
-4E-16
41
1
10
82.5331800631097
20
-5.75557084361796
30
-4E-16
41
1
10
82.2092732243396
20
-5.382047817489
30
-3E-16
41
1
10
82.0073890501535
20
-5.12364887594637
30
-3E-16
41
1
10
81.632220194326
20
-4.58758342194892
30
-3E-16
41
1
10
81.4589303409458
20
-4.30992069698928
30
-3E-16
41
1
10
81.2215662760325
20
-3.87810158303867
30
-2E-16
41
1
10
81.1462150125882
20
-3.73160215828611
30
-2E-16
41
1
10
81.0390694648697
20
-3.50784623618236
30
-2E-16
41
1
10
81.0043351547981
20
-3.43259269419696
30
-2E-16
41
1
10
80.936874414671
20
-3.28071557177881
30
-2E-16
41
1
10
80.9041691923578
20
-3.2041266666395
30
-2E-16
41
1
10
80.7468514867895
20
-2.82041366850112
30
-2E-16
41
1
10
80.6398638118237
20
-2.50889376199601
30
-2E-16
41
1
10
80.4635109181376
20
-1.87673995701999
30
-1E-16
41
1
10
80.3941436685662
20
-1.55610661332162
30
-1E-16
41
1
10
80.3191604518988
20
-1.06809417472476
30
-1E-16
41
1
10
80.2990205145456
20
-0.904244004743305
30
-1E-16
41
1
10
80.276295661004
20
-0.656648757474755
30
0
41
1
10
80.2699689333791
20
-0.57381350959443
30
0
41
1
10
80.2598549443781
20
-0.407525391658396
30
0
41
1
10
80.2560640084302
20
-0.323918748215533
30
0
41
1
10
80.2436319414166
20
0.0937074602677797
30
0
41
1
10
80.2544580604637
20
0.424898301191149
30
0
41
1
10
80.3159004858063
20
1.08170786020474
30
1E-16
41
1
10
80.3665222768086
20
1.40732581954109
30
1E-16
41
1
10
80.4720106490425
20
1.89162276535785
30
1E-16
41
1
10
80.5121094317585
20
2.05236541287655
30
1E-16
41
1
10
80.5797158413636
20
2.29243907398626
30
1E-16
41
1
10
80.6035323941416
20
2.37240724872848
30
1E-16
41
1
10
80.6534844584554
20
2.53141271225317
30
2E-16
41
1
10
80.679581767632
20
2.61034283616255
30
2E-16
41
1
10
80.8155583141823
20
3.00219307312443
30
2E-16
41
1
10
80.9418540452778
20
3.30673870013433
30
2E-16
41
1
10
81.2274066178893
20
3.89910969860358
30
2E-16
41
1
10
81.3866710349364
20
4.18693106199302
30
3E-16
41
1
10
81.6058295308684
20
4.53659430578608
30
3E-16
41
1
10
81.6506678403485
20
4.6060199498591
30
3E-16
41
1
10
81.7423550657745
20
4.74386053766204
30
3E-16
41
1
10
81.7892600197893
20
4.81235165902936
30
3E-16
41
1
10
81.9322832960095
20
5.01532355565607
30
3E-16
41
1
10
82.0308566843384
20
5.14754759646581
30
3E-16
41
1
10
82.3358792202056
20
5.53534426570533
30
3E-16
41
1
10
82.5516035429531
20
5.78206740687554
30
4E-16
41
1
10
83.0065712855234
20
6.25329297482523
30
4E-16
41
1
10
83.245819344154
20
6.47779057132999
30
4E-16
41
1
10
83.6220315350218
20
6.79832359482896
30
4E-16
41
1
10
83.7506399369869
20
6.90269059494753
30
4E-16
41
1
10
84.0118077675355
20
7.10461309544371
30
4E-16
41
1
10
84.1443628216894
20
7.20219656506379
30
4E-16
41
1
10
84.5477711465316
20
7.48516019117562
30
5E-16
41
1
10
84.8243530365602
20
7.66077921093117
30
5E-16
41
1
10
85.3922866411346
20
7.9871238832817
30
5E-16
41
1
10
85.6836403948535
20
8.13784560764074
30
5E-16
41
1
10
86.1316983648776
20
8.34553112085266
30
5E-16
41
1
10
86.2828921840341
20
8.41168773580532
30
5E-16
41
1
10
86.5889921357313
20
8.53783631248629
30
5E-16
41
1
10
86.7440737039838
20
8.59787505299542
30
5E-16
41
1
10
87.5218930473883
20
8.88011872051516
30
5E-16
41
1
10
88.1568747900543
20
9.05119557206771
30
6E-16
41
1
10
89.1277673283634
20
9.22969841523101
30
6E-16
41
1
10
89.4544876598546
20
9.27609018306106
30
6E-16
41
1
10
89.9492862601781
20
9.3257356239356
30
6E-16
41
1
10
90.1150322043657
20
9.33895670840582
30
6E-16
41
1
10
90.4480239747393
20
9.35862343646241
30
6E-16
41
1
10
90.6141367362865
20
9.36500325084126
30
6E-16
41
1
10
91.442821023276
20
9.37996912795884
30
6E-16
41
1
10
92.0997957208523
20
9.33816902571334
30
6E-16
41
1
10
93.076469836034
20
9.19607059397535
30
6E-16
41
1
10
93.4005551394447
20
9.13539135200926
30
6E-16
41
1
10
93.8844188889692
20
9.02380139235683
30
6E-16
41
1
10
94.0455391568288
20
8.98311228939463
30
6E-16
41
1
10
94.3660873102448
20
8.89494866359343
30
5E-16
41
1
10
94.5247922625703
20
8.84768292116777
30
5E-16
41
1
10
95.310595185005
20
8.59562847306336
30
5E-16
41
1
10
95.9147313918734
20
8.3441023874224
30
5E-16
41
1
10
96.7840982515454
20
7.89043846541543
30
5E-16
41
1
10
97.0677086703648
20
7.72640406422431
30
5E-16
41
1
10
97.4141547447933
20
7.50445165129219
30
5E-16
41
1
10
97.4830395935836
20
7.45921345928218
30
5E-16
41
1
10
97.6199876436703
20
7.36700981630204
30
5E-16
41
1
10
97.6881445531022
20
7.31997706415782
30
4E-16
41
1
10
97.8905301987673
20
7.17682708768749
30
4E-16
41
1
10
98.0226624291543
20
7.07868552589139
30
4E-16
41
1
10
98.4107440820426
20
6.77615120715723
30
4E-16
41
1
10
98.6584003584762
20
6.56367036099687
30
4E-16
41
1
10
99.131378431087
20
6.11669653027965
30
4E-16
41
1
10
99.3567035245303
20
5.88220722964294
30
4E-16
41
1
10
99.7840771629668
20
5.39005709475489
30
3E-16
41
1
10
99.9861338926357
20
5.13240488711347
30
3E-16
41
1
10
100.223004367404
20
4.79456553692128
30
3E-16
41
1
10
100.269590824706
20
4.72620631356511
30
3E-16
41
1
10
100.361148083997
20
4.58786111845171
30
3E-16
41
1
10
100.406045963575
20
4.51797865307012
30
3E-16
41
1
10
100.537441713543
20
4.30719082773049
30
3E-16
41
1
10
100.620900015818
20
4.16476224019999
30
3E-16
41
1
10
100.858815907514
20
3.73172586977793
30
2E-16
41
1
10
101.000851242063
20
3.43538402588723
30
2E-16
41
1
10
101.2506945827
20
2.82680200728919
30
2E-16
41
1
10
101.358511713668
20
2.51456618216983
30
2E-16
41
1
10
101.4704219151
20
2.11360230569062
30
1E-16
41
1
10
101.491690908714
20
2.03273465216952
30
1E-16
41
1
10
101.531708247443
20
1.87062936954103
30
1E-16
41
1
10
101.587901269223
20
1.62717541684003
30
1E-16
41
1
10
101.632703038895
20
1.38284094575042
30
1E-16
41
1
10
101.707269452221
20
0.893008200730094
30
1E-16
41
1
10
101.736971193976
20
0.564904260880979
30
0
41
1
10
101.756177393251
20
-0.0944189324963531
30
0
41
1
10
101.745686319155
20
-0.4256378490347
30
0
41
1
10
101.706497992818
20
-0.841681380552558
30
-1E-16
41
1
10
101.697344306778
20
-0.925013057379857
30
-1E-16
41
1
10
101.676563766513
20
-1.09064409516492
30
-1E-16
41
1
10
101.641640671315
20
-1.33800699089639
30
-1E-16
41
1
10
101.595661783603
20
-1.58217838122482
30
-1E-16
41
1
10
101.489349106187
20
-2.06638274283171
30
-1E-16
41
1
10
101.399373396255
20
-2.38367858474592
30
-1E-16
41
1
10
101.236538324145
20
-2.8516176262608
30
-2E-16
41
1
10
101.177604646724
20
-3.00626040566218
30
-2E-16
41
1
10
101.050439009032
20
-3.31288249110423
30
-2E-16
41
1
10
100.982004481872
20
-3.46523693297394
30
-2E-16
41
1
10
100.765174293748
20
-3.91334552870433
30
-2E-16
41
1
10
100.604873524849
20
-4.2014400007327
30
-3E-16
41
1
10
100.254817486187
20
-4.75786290270872
30
-3E-16
41
1
10
100.065054137483
20
-5.02618562907608
30
-3E-16
41
1
10
99.7589957181295
20
-5.41442143627455
30
-3E-16
41
1
10
99.6533993883839
20
-5.54145341144354
30
-3E-16
41
1
10
99.4350762209614
20
-5.79079486913759
30
-4E-16
41
1
10
99.323007069316
20
-5.91234519585805
30
-4E-16
41
1
10
98.9791168050085
20
-6.2672306617595
30
-4E-16
41
1
10
98.7393217807725
20
-6.49118748881185
30
-4E-16
41
1
10
98.2397073999841
20
-6.91534321548335
30
-4E-16
41
1
10
97.9798838604451
20
-7.11553662853802
30
-4E-16
41
1
10
97.5753927110505
20
-7.39850869510693
30
-5E-16
41
1
10
97.4380980692814
20
-7.48994042683307
30
-5E-16
41
1
10
97.2284500096176
20
-7.6227615543996
30
-5E-16
41
1
10
97.1579119246075
20
-7.6663355258562
30
-5E-16
41
1
10
97.0159091037272
20
-7.75185242740059
30
-5E-16
41
1
10
96.9442527205227
20
-7.79390772754155
30
-5E-16
41
1
10
96.8724414858252
20
-7.83498096308773
30
-5E-16
0
SPLINE
5
112
100
AcDbEntity
8
1
62
256
6
ByLayer
370
18
48
1
60
0
100
AcDbSpline
70
4
71
3
72
20
73
16
40
0
40
0
40
0
40
0
40
0.250000000000002
40
0.250000000000002
40
0.500000000000003
40
0.500000000000003
40
0.625000000000002
40
0.625000000000002
40
0.750000000000001
40
0.750000000000001
40
0.875
40
0.875
40
0.9375
40
0.9375
40
1
40
1
40
1
40
1
41
1
10
10.1056624327025
20
-9.86941261896607
30
-6E-16
41
1
10
10.1209750872916
20
-9.81343636868334
30
-6E-16
41
1
10
10.1393883976259
20
-9.7578978344435
30
-6E-16
41
1
10
10.1852891845642
20
-9.64815801390253
30
-6E-16
41
1
10
10.2123394024354
20
-9.59489249704609
30
-6E-16
41
1
10
10.2620557325586
20
-9.52026673309231
30
-6E-16
41
1
10
10.2803237995691
20
-9.49608650120257
30
-6E-16
41
1
10
10.3207565113412
20
-9.45084968787069
30
-6E-16
41
1
10
10.3427370728471
20
-9.42992239529599
30
-6E-16
41
1
10
10.3918548424026
20
-9.39302697821711
30
-6E-16
41
1
10
10.4184932841827
20
-9.37748626146234
30
-6E-16
41
1
10
10.4619301312396
20
-9.36093169281332
30
-6E-16
41
1
10
10.4770677570639
20
-9.35655715360113
30
-6E-16
41
1
10
10.5075186667821
20
-9.35073436940016
30
-6E-16
41
1
10
10.5229730586134
20
-9.34922131452495
30
-6E-16
41
1
10
10.5386751345947
20
-9.34922131452495
30
-6E-16
0
SPLINE
5
113
100
AcDbEntity
8
1
62
256
6
ByLayer
370
18
48
1
60
0
100
AcDbSpline
70
4
71
3
72
18
73
14
40
0
40
0
40
0
40
0
40
0.125000000000002
40
0.125000000000002
40
0.250000000000005
40
0.250000000000005
40
0.375000000000007
40
0.375000000000007
40
0.500000000000009
40
0.500000000000009
40
0.750000000000005
40
0.750000000000005
40
1
40
1
40
1
40
1
41
1
10
13.4613248654051
20
30.080592760317
30
1E-16
41
1
10
13.4927243587694
20
30.080592760317
30
1E-16
41
1
10
13.5235413040251
20
30.0786771838882
30
1E-16
41
1
10
13.5816367663097
20
30.0717784887141
30
1E-16
41
1
10
13.6080708980736
20
30.0669652862983
30
1E-16
41
1
10
13.6572805024801
20
30.0553947776176
30
1E-16
41
1
10
13.6791937977476
20
30.0488361341243
30
1E-16
41
1
10
13.7193068485914
20
30.0347004169092
30
1E-16
41
1
10
13.7375981750167
20
30.0270618559791
30
1E-16
41
1
10
13.78757585043
20
30.0032420175276
30
1E-16
41
1
10
13.8143506148375
20
29.9863265580875
30
1E-16
41
1
10
13.8600219158301
20
29.951082482965
30
1E-16
41
1
10
13.8788462201994
20
29.9326384212187
30
1E-16
41
1
10
13.8943375672973
20
29.9139548464691
30
1E-16
0
SPLINE
5
114
100
AcDbEntity
8
1
62
256
6
ByLayer
370
18
48
1
60
0
100
AcDbSpline
70
4
71
3
72
20
73
16
40
0
40
0
40
0
40
0
40
0.250000000000001
40
0.250000000000001
40
0.500000000000001
40
0.500000000000001
40
0.625000000000001
40
0.625000000000001
40
0.75
40
0.75
40
0.874999999999999
40
0.874999999999999
40
0.9375
40
0.9375
40
1
40
1
40
1
40
1
41
1
10
13.8943375672973
20
9.86941261896635
30
6E-16
41
1
10
13.8790249127082
20
9.81343636868363
30
6E-16
41
1
10
13.8606116023739
20
9.75789783444378
30
6E-16
41
1
10
13.8147108154356
20
9.64815801390279
30
6E-16
41
1
10
13.7876605975645
20
9.59489249704637
30
6E-16
41
1
10
13.7379442674413
20
9.5202667330926
30
6E-16
41
1
10
13.7196762004308
20
9.49608650120283
30
6E-16
41
1
10
13.6792434886587
20
9.45084968787094
30
6E-16
41
1
10
13.6572629271527
20
9.42992239529627
30
6E-16
41
1
10
13.6081451575972
20
9.39302697821736
30
6E-16
41
1
10
13.5815067158171
20
9.37748626146259
30
6E-16
41
1
10
13.5380698687603
20
9.36093169281358
30
6E-16
41
1
10
13.5229322429359
20
9.35655715360139
30
6E-16
41
1
10
13.4924813332178
20
9.35073436940041
30
6E-16
41
1
10
13.4770269413864
20
9.34922131452521
30
6E-16
41
1
10
13.4613248654051
20
9.34922131452521
30
6E-16
0
SPLINE
5
115
100
AcDbEntity
8
SK1
62
256
6
ByLayer
370
18
48
1
60
0
100
AcDbSpline
70
4
71
3
72
190
73
186
40
0
40
0
40
0
40
0
40
0.0042889451433899
40
0.0093148518686686
40
0.0144727558329797
40
0.0197621140951695
40
0.0251820234069931
40
0.0307312226888535
40
0.0364080964863342
40
0.0422106793980474
40
0.048136661462661
40
0.0541833944903439
40
0.0603478993212696
40
0.0666268739912856
40
0.0730167027823688
40
0.0795134661330546
40
0.0861129513816865
40
0.0928106643130248
40
0.0996018414765808
40
0.106481463242903
40
0.113444267562029
40
0.120484764386406
40
0.127597250718721
40
0.134775826243428
40
0.142014409499096
40
0.149306754547276
40
0.156646468092182
40
0.164027027004272
40
0.171441796199692
40
0.17888404682658
40
0.18634697470838
40
0.193823718993617
40
0.201307380961015
40
0.208791042928414
40
0.21626778721365
40
0.22373071509545
40
0.231172965722338
40
0.238587734917758
40
0.245968293829848
40
0.253308007374754
40
0.260600352422934
40
0.267838935678602
40
0.275017511203309
40
0.282129997535625
40
0.289170494360001
40
0.296133298679128
40
0.303012920445449
40
0.309804097609006
40
0.316501810540344
40
0.323101295788976
40
0.329598059139662
40
0.335987887930744
40
0.342266862600761
40
0.348431367431686
40
0.354478100459369
40
0.360404082523983
40
0.366206665435696
40
0.371883539233176
40
0.377432738515037
40
0.382852647826861
40
0.38814200608905
40
0.393299910053361
40
0.39832581677864
40
0.403219545118989
40
0.407981276220276
40
0.412611553023624
40
0.417111278777247
40
0.421481714560713
40
0.425724475828409
40
0.429841527981695
40
0.433835180981873
40
0.437708083018746
40
0.441463213252116
40
0.445103873646109
40
0.448633679918726
40
0.452056551631408
40
0.455376701445793
40
0.458598623577104
40
0.461727081475815
40
0.464767094771369
40
0.467723925513721
40
0.470603063750424
40
0.473410212478793
40
0.476151272014386
40
0.478832323818647
40
0.481459613830047
40
0.484039535344398
40
0.486578611491275
40
0.489083477354571
40
0.491560861786191
40
0.49401756896274
40
0.496460459735743
40
0.498896432826529
40
0.501332405917316
40
0.503775296690319
40
0.506232003866868
40
0.508709388298488
40
0.511214254161783
40
0.51375333030866
40
0.516333251823011
40
0.518960541834411
40
0.521641593638672
40
0.524382653174265
40
0.527189801902634
40
0.530068940139338
40
0.53302577088169
40
0.536065784177244
40
0.539194242075955
40
0.542416164207266
40
0.545736314021651
40
0.549159185734333
40
0.55268899200695
40
0.556329652400943
40
0.560084782634313
40
0.563957684671187
40
0.567951337671365
40
0.57206838982465
40
0.576311151092346
40
0.580681586875812
40
0.585181312629436
40
0.589811589432783
40
0.59457332053407
40
0.59946704887442
40
0.604492955599698
40
0.60965085956401
40
0.614940217826199
40
0.620360127138023
40
0.625909326419884
40
0.631586200217364
40
0.637388783129077
40
0.643314765193691
40
0.649361498221374
40
0.655526003052299
40
0.661804977722316
40
0.668194806513399
40
0.674691569864084
40
0.681291055112716
40
0.687988768044055
40
0.694779945207611
40
0.701659566973932
40
0.708622371293059
40
0.715662868117436
40
0.722775354449751
40
0.729953929974459
40
0.737192513230126
40
0.744484858278306
40
0.751824571823212
40
0.759205130735302
40
0.766619899930723
40
0.774062150557611
40
0.78152507843941
40
0.789001822724647
40
0.796485484692045
40
0.803969146659444
40
0.81144589094468
40
0.81890881882648
40
0.826351069453368
40
0.833765838648788
40
0.841146397560878
40
0.848486111105785
40
0.855778456153964
40
0.863017039409632
40
0.870195614934339
40
0.877308101266655
40
0.884348598091032
40
0.891311402410158
40
0.898191024176479
40
0.904982201340036
40
0.911679914271374
40
0.918279399520006
40
0.924776162870692
40
0.931165991661775
40
0.937444966331791
40
0.943609471162716
40
0.949656204190399
40
0.955582186255013
40
0.961384769166726
40
0.967061642964207
40
0.972610842246067
40
0.978030751557891
40
0.98332010982008
40
0.988478013784391
40
0.99350392050967
40
0.99839764885002
40
1
40
1
40
1
40
1
41
1
10
-1.79497698875895
20
-21.8277079174473
30
4E-16
41
1
10
-1.79497698875895
20
-21.8293845396448
30
4E-16
41
1
10
-1.79497698875895
20
-21.8311839853168
30
4E-16
41
1
10
-1.79497698875895
20
-21.8279069979382
30
0
41
1
10
-1.79497698875895
20
-21.8174877039414
30
0
41
1
10
-1.79497698875895
20
-21.7997119170873
30
0
41
1
10
-1.79497698875895
20
-21.7742348682417
30
0
41
1
10
-1.79497698875895
20
-21.7407202789965
30
0
41
1
10
-1.79497698875895
20
-21.69884246381
30
0
41
1
10
-1.79497698875895
20
-21.6482883876619
30
0
41
1
10
-1.79497698875895
20
-21.5887596686593
30
0
41
1
10
-1.79497698875895
20
-21.519974515304
30
0
41
1
10
-1.79497698875895
20
-21.4416695884461
30
0
41
1
10
-1.79497698875895
20
-21.353601778322
30
0
41
1
10
-1.79497698875895
20
-21.2555498874868
30
0
41
1
10
-1.79497698875895
20
-21.1473162109151
30
0
41
1
10
-1.79497698875895
20
-21.0287280050486
30
0
41
1
10
-1.79497698875895
20
-20.8996388381123
30
1E-16
41
1
10
-1.79497698875895
20
-20.7599298146064
30
1E-16
41
1
10
-1.79497698875895
20
-20.6095106674985
30
1E-16
41
1
10
-1.79497698875895
20
-20.4483207122911
30
-4E-16
41
1
10
-1.79497698875895
20
-20.2763296578188
30
-4E-16
41
1
10
-1.79497698875895
20
-20.0935382693358
30
-3E-16
41
1
10
-1.79497698875895
20
-19.8999788801787
30
-3E-16
41
1
10
-1.79497698875895
20
-19.6957157490407
30
-3E-16
41
1
10
-1.79497698875895
20
-19.4808452606475
30
-3E-16
41
1
10
-1.79497698875895
20
-19.255495968404
30
-3E-16
41
1
10
-1.79497698875895
20
-19.019828478355
30
-3E-16
41
1
10
-1.79497698875895
20
-18.7740351745905
30
6E-16
41
1
10
-1.79497698875895
20
-18.5183397870072
30
6E-16
41
1
10
-1.79497698875895
20
-18.2529968031172
30
7E-16
41
1
10
-1.79497698875895
20
-17.9782907263674
30
7E-16
41
1
10
-1.79497698875895
20
-17.6945351841919
30
7E-16
41
1
10
-1.79497698875895
20
-17.4020718897639
30
7E-16
41
1
10
-1.79497698875895
20
-17.101269462141
30
7E-16
41
1
10
-1.79497698875895
20
-16.7925221101986
30
7E-16
41
1
10
-1.79497698875895
20
-16.4762481864256
30
8E-16
41
1
10
-1.79497698875895
20
-16.1528886173021
30
8E-16
41
1
10
-1.79497698875895
20
-15.8229052175965
30
8E-16
41
1
10
-1.79497698875895
20
-15.4867788964985
30
8E-16
41
1
10
-1.79497698875895
20
-15.1450077640453
30
8E-16
41
1
10
-1.79497698875895
20
-14.7981051468018
30
9E-16
41
1
10
-1.79497698875895
20
-14.4465975222101
30
-9E-16
41
1
10
-1.79497698875895
20
-14.0910223814369
30
-9E-16
41
1
10
-1.79497698875895
20
-13.7319260309117
30
-8E-16
41
1
10
-1.79497698875895
20
-13.3698613430622
30
-8E-16
41
1
10
-1.79497698875895
20
-13.0053854670174
30
-8E-16
41
1
10
-1.79497698875895
20
-12.6390575102616
30
-8E-16
41
1
10
-1.79497698875892
20
-12.2714362023767
30
-8E-16
41
1
10
-1.79497698875895
20
-11.9030775521177
30
-7E-16
41
1
10
-1.79497698875892
20
-11.5345325091132
30
-7E-16
41
1
10
-1.79497698875892
20
-11.1663446414772
30
-7E-16
41
1
10
-1.79497698875892
20
-10.7990478405567
30
-7E-16
41
1
10
-1.79497698875892
20
-10.4331640639255
30
-6E-16
41
1
10
-1.79497698875892
20
-10.069201127564
30
-6E-16
41
1
10
-1.79497698875892
20
-9.7076505579401
30
-6E-16
41
1
10
-1.79497698875892
20
-9.34898551443436
30
-6E-16
41
1
10
-1.79497698875892
20
-8.99365879222216
30
-6E-16
41
1
10
-1.79497698875892
20
-8.64210091535321
30
-5E-16
41
1
10
-1.79497698875892
20
-8.29471832934269
30
-5E-16
41
1
10
-1.79497698875892
20
-7.95189170212146
30
-5E-16
41
1
10
-1.79497698875892
20
-7.61397434167907
30
-5E-16
41
1
10
-1.79497698875892
20
-7.28129073818079
30
-4E-16
41
1
10
-1.79497698875892
20
-6.954135237749
30
-4E-16
41
1
10
-1.79497698875892
20
-6.63277085447157
30
-4E-16
41
1
10
-1.79497698875892
20
-6.31742822654309
30
-4E-16
41
1
10
-1.79497698875892
20
-6.00830472175397
30
-4E-16
41
1
10
-1.79497698875892
20
-5.70556369683214
30
-3E-16
41
1
10
-1.79497698875892
20
-5.40933391440296
30
-3E-16
41
1
10
-1.79497698875892
20
-5.11970912058021
30
-3E-16
41
1
10
-1.79497698875892
20
-4.8367477854307
30
-3E-16
41
1
10
-1.79497698875892
20
-4.56047300777317
30
-3E-16
41
1
10
-1.79497698875892
20
-4.29087258498473
30
-3E-16
41
1
10
-1.79497698875892
20
-4.02789924769459
30
-2E-16
41
1
10
-1.79497698875892
20
-3.77147105845401
30
-2E-16
41
1
10
-1.79497698875892
20
-3.52147197268263
30
-2E-16
41
1
10
-1.79497698875892
20
-3.27775255941285
30
-2E-16
41
1
10
-1.79497698875892
20
-3.04013087858587
30
-2E-16
41
1
10
-1.79497698875892
20
-2.80839351090199
30
-2E-16
41
1
10
-1.79497698875892
20
-2.58229673549673
30
-2E-16
41
1
10
-1.79497698875892
20
-2.36156785000537
30
-1E-16
41
1
10
-1.79497698875892
20
-2.14590662689889
30
-1E-16
41
1
10
-1.79497698875892
20
-1.93498689932213
30
-1E-16
41
1
10
-1.79497698875892
20
-1.72845826904768
30
-1E-16
41
1
10
-1.79497698875892
20
-1.52594792857661
30
-1E-16
41
1
10
-1.79497698875892
20
-1.32706258887134
30
-1E-16
41
1
10
-1.79497698875892
20
-1.1313905037006
30
-1E-16
41
1
10
-1.79497698875892
20
-0.938503581110865
30
-1E-16
41
1
10
-1.79497698875892
20
-0.747959572115718
30
0
41
1
10
-1.79497698875892
20
-0.559304326314503
30
0
41
1
10
-1.79497698875892
20
-0.372074103819784
30
0
41
1
10
-1.79497698875892
20
-0.185797932585956
30
0
41
1
10
-1.79497698875892
20
2.84E-14
30
0
41
1
10
-1.79497698875892
20
0.185797932586013
30
0
41
1
10
-1.79497698875892
20
0.372074103819841
30
0
41
1
10
-1.79497698875892
20
0.55930432631456
30
0
41
1
10
-1.79497698875892
20
0.747959572115775
30
0
41
1
10
-1.79497698875892
20
0.938503581110922
30
1E-16
41
1
10
-1.79497698875892
20
1.13139050370066
30
1E-16
41
1
10
-1.79497698875892
20
1.32706258887137
30
1E-16
41
1
10
-1.79497698875892
20
1.52594792857667
30
1E-16
41
1
10
-1.79497698875892
20
1.72845826904774
30
1E-16
41
1
10
-1.79497698875892
20
1.93498689932218
30
1E-16
41
1
10
-1.79497698875892
20
2.14590662689895
30
1E-16
41
1
10
-1.79497698875892
20
2.36156785000543
30
1E-16
41
1
10
-1.79497698875892
20
2.58229673549678
30
2E-16
41
1
10
-1.79497698875892
20
2.80839351090205
30
2E-16
41
1
10
-1.79497698875892
20
3.04013087858593
30
2E-16
41
1
10
-1.79497698875892
20
3.2777525594129
30
2E-16
41
1
10
-1.79497698875892
20
3.52147197268269
30
2E-16
41
1
10
-1.79497698875892
20
3.77147105845407
30
2E-16
41
1
10
-1.79497698875892
20
4.02789924769468
30
2E-16
41
1
10
-1.79497698875892
20
4.29087258498481
30
3E-16
41
1
10
-1.79497698875892
20
4.56047300777325
30
3E-16
41
1
10
-1.79497698875892
20
4.83674778543076
30
3E-16
41
1
10
-1.79497698875892
20
5.1197091205803
30
3E-16
41
1
10
-1.79497698875892
20
5.40933391440302
30
3E-16
41
1
10
-1.79497698875892
20
5.70556369683223
30
3E-16
41
1
10
-1.79497698875892
20
6.00830472175406
30
4E-16
41
1
10
-1.79497698875892
20
6.31742822654317
30
4E-16
41
1
10
-1.79497698875892
20
6.63277085447169
30
4E-16
41
1
10
-1.79497698875892
20
6.95413523774909
30
4E-16
41
1
10
-1.79497698875892
20
7.2812907381809
30
4E-16
41
1
10
-1.79497698875892
20
7.61397434167915
30
5E-16
41
1
10
-1.79497698875892
20
7.95189170212154
30
5E-16
41
1
10
-1.79497698875892
20
8.29471832934277
30
5E-16
41
1
10
-1.79497698875892
20
8.6421009153533
30
5E-16
41
1
10
-1.79497698875892
20
8.99365879222228
30
6E-16
41
1
10
-1.79497698875892
20
9.34898551443445
30
6E-16
41
1
10
-1.79497698875892
20
9.70765055794021
30
6E-16
41
1
10
-1.79497698875892
20
10.0692011275641
30
6E-16
41
1
10
-1.79497698875892
20
10.4331640639256
30
6E-16
41
1
10
-1.79497698875892
20
10.7990478405568
30
7E-16
41
1
10
-1.79497698875892
20
11.1663446414773
30
7E-16
41
1
10
-1.79497698875892
20
11.5345325091133
30
7E-16
41
1
10
-1.79497698875892
20
11.9030775521178
30
7E-16
41
1
10
-1.79497698875892
20
12.2714362023768
30
8E-16
41
1
10
-1.79497698875895
20
12.6390575102617
30
8E-16
41
1
10
-1.79497698875895
20
13.0053854670175
30
8E-16
41
1
10
-1.79497698875895
20
13.3698613430623
30
8E-16
41
1
10
-1.79497698875895
20
13.7319260309119
30
8E-16
41
1
10
-1.79497698875895
20
14.091022381437
30
9E-16
41
1
10
-1.79497698875895
20
14.4465975222102
30
9E-16
41
1
10
-1.79497698875895
20
14.7981051468019
30
-9E-16
41
1
10
-1.79497698875895
20
15.1450077640454
30
-8E-16
41
1
10
-1.79497698875895
20
15.4867788964986
30
-8E-16
41
1
10
-1.79497698875895
20
15.8229052175966
30
-8E-16
41
1
10
-1.79497698875895
20
16.1528886173022
30
-8E-16
41
1
10
-1.79497698875895
20
16.4762481864257
30
-8E-16
41
1
10
-1.79497698875895
20
16.7925221101987
30
-7E-16
41
1
10
-1.79497698875895
20
17.1012694621411
30
-7E-16
41
1
10
-1.79497698875895
20
17.402071889764
30
-7E-16
41
1
10
-1.79497698875895
20
17.694535184192
30
-7E-16
41
1
10
-1.79497698875895
20
17.9782907263675
30
-7E-16
41
1
10
-1.79497698875895
20
18.2529968031172
30
-7E-16
41
1
10
-1.79497698875895
20
18.5183397870073
30
-6E-16
41
1
10
-1.79497698875895
20
18.7740351745906
30
-6E-16
41
1
10
-1.79497698875895
20
19.0198284783551
30
3E-16
41
1
10
-1.79497698875895
20
19.2554959684041
30
3E-16
41
1
10
-1.79497698875895
20
19.4808452606476
30
3E-16
41
1
10
-1.79497698875895
20
19.6957157490407
30
3E-16
41
1
10
-1.79497698875895
20
19.8999788801788
30
3E-16
41
1
10
-1.79497698875895
20
20.0935382693358
30
3E-16
41
1
10
-1.79497698875895
20
20.2763296578189
30
4E-16
41
1
10
-1.79497698875895
20
20.4483207122911
30
4E-16
41
1
10
-1.79497698875895
20
20.6095106674985
30
-1E-16
41
1
10
-1.79497698875895
20
20.7599298146064
30
-1E-16
41
1
10
-1.79497698875895
20
20.8996388381124
30
-1E-16
41
1
10
-1.79497698875895
20
21.0287280050487
30
0
41
1
10
-1.79497698875895
20
21.1473162109151
30
0
41
1
10
-1.79497698875895
20
21.2555498874868
30
0
41
1
10
-1.79497698875895
20
21.353601778322
30
0
41
1
10
-1.79497698875895
20
21.4416695884461
30
0
41
1
10
-1.79497698875895
20
21.519974515304
30
0
41
1
10
-1.79497698875895
20
21.5887596686594
30
0
41
1
10
-1.79497698875895
20
21.6482883876619
30
0
41
1
10
-1.79497698875895
20
21.69884246381
30
0
41
1
10
-1.79497698875895
20
21.7407202789965
30
0
41
1
10
-1.79497698875895
20
21.7742348682417
30
0
41
1
10
-1.79497698875895
20
21.7997119170873
30
0
41
1
10
-1.79497698875895
20
21.8174877039414
30
0
41
1
10
-1.79497698875895
20
21.8279069979382
30
0
41
1
10
-1.79497698875895
20
21.8313209230864
30
-4E-16
41
1
10
-1.79497698875895
20
21.828781202381
30
-4E-16
41
1
10
-1.79497698875895
20
21.8253974834109
30
-4E-16
41
1
10
-1.79497698875892
20
21.8244430013644
30
-4E-16
0
SPLINE
5
116
100
AcDbEntity
8
1
62
256
6
ByLayer
370
18
48
1
60
0
100
AcDbSpline
70
4
71
3
72
20
73
16
40
0
40
0
40
0
40
0
40
0.250000000000002
40
0.250000000000002
40
0.500000000000004
40
0.500000000000004
40
0.625000000000004
40
0.625000000000004
40
0.750000000000003
40
0.750000000000003
40
0.875000000000002
40
0.875000000000002
40
0.937500000000001
40
0.937500000000001
40
1
40
1
40
1
40
1
41
1
10
10.1056624327025
20
29.9139548464691
30
1E-16
41
1
10
10.1209750872916
20
29.932422906401
30
1E-16
41
1
10
10.1393883976259
20
29.9505718839342
30
1E-16
41
1
10
10.1852891845642
20
29.9861030022394
30
1E-16
41
1
10
10.2123394024354
20
30.0031792203673
30
1E-16
41
1
10
10.2620557325586
20
30.0269079771897
30
1E-16
41
1
10
10.2803237995691
20
30.0345618184731
30
1E-16
41
1
10
10.3207565113411
20
30.0488269761613
30
1E-16
41
1
10
10.3427370728471
20
30.0553978062802
30
1E-16
41
1
10
10.3918548424026
20
30.0669489283755
30
1E-16
41
1
10
10.4184932841828
20
30.0717955072761
30
1E-16
41
1
10
10.4619301312396
20
30.0769511627479
30
1E-16
41
1
10
10.4770677570639
20
30.0783119128593
30
1E-16
41
1
10
10.5075186667821
20
30.0801226069439
30
1E-16
41
1
10
10.5229730586134
20
30.0805927603169
30
1E-16
41
1
10
10.5386751345947
20
30.080592760317
30
1E-16
0
SPLINE
5
117
100
AcDbEntity
8
1
62
256
6
ByLayer
370
18
48
1
60
0
100
AcDbSpline
70
4
71
3
72
20
73
16
40
0
40
0
40
0
40
0
40
0.250000000000001
40
0.250000000000001
40
0.500000000000001
40
0.500000000000001
40
0.625000000000001
40
0.625000000000001
40
0.75
40
0.75
40
0.874999999999999
40
0.874999999999999
40
0.9375
40
0.9375
40
1
40
1
40
1
40
1
41
1
10
13.8943375672973
20
-29.913954846469
30
-1E-16
41
1
10
13.8790249127082
20
-29.9324229064009
30
-1E-16
41
1
10
13.8606116023739
20
-29.9505718839341
30
-1E-16
41
1
10
13.8147108154356
20
-29.9861030022394
30
-1E-16
41
1
10
13.7876605975645
20
-30.0031792203672
30
-1E-16
41
1
10
13.7379442674413
20
-30.0269079771895
30
-1E-16
41
1
10
13.7196762004308
20
-30.034561818473
30
-1E-16
41
1
10
13.6792434886587
20
-30.0488269761612
30
-1E-16
41
1
10
13.6572629271527
20
-30.0553978062801
30
-1E-16
41
1
10
13.6081451575972
20
-30.0669489283754
30
-1E-16
41
1
10
13.5815067158171
20
-30.0717955072761
30
-1E-16
41
1
10
13.5380698687603
20
-30.0769511627478
30
-1E-16
41
1
10
13.5229322429359
20
-30.0783119128592
30
-1E-16
41
1
10
13.4924813332178
20
-30.0801226069438
30
-1E-16
41
1
10
13.4770269413864
20
-30.0805927603169
30
-1E-16
41
1
10
13.4613248654051
20
-30.0805927603169
30
-1E-16
0
SPLINE
5
118
100
AcDbEntity
8
SK1
62
256
6
ByLayer
370
18
48
1
60
0
100
AcDbSpline
70
4
71
3
72
189
73
185
40
0
40
0
40
0
40
0
40
0.0046076404420061
40
0.0096415242957041
40
0.0148076148946955
40
0.0201053684360696
40
0.0255338802379441
40
0.0310918872191342
40
0.0367777713611712
40
0.0425895641431784
40
0.0485249519374492
40
0.0545812823509403
40
0.0607555714952975
40
0.0670445121654845
40
0.0734444829046041
40
0.0799515579300563
40
0.0865615178938406
40
0.0932698614474902
40
0.100071817579959
40
0.106962358694631
40
0.113936214389608
40
0.120987885903523
40
0.128111661187257
40
0.135301630560269
40
0.142551702908625
40
0.149855622380308
40
0.157206985532082
40
0.164599258880883
40
0.172025796811639
40
0.179479859792441
40
0.186954632847132
40
0.194443244234681
40
0.201938784284149
40
0.209434324333618
40
0.216922935721168
40
0.224397708775858
40
0.23185177175666
40
0.239278309687417
40
0.246670583036218
40
0.254021946187992
40
0.261325865659675
40
0.26857593800803
40
0.275765907381043
40
0.282889682664777
40
0.289941354178692
40
0.296915209873669
40
0.30380575098834
40
0.31060770712081
40
0.317316050674459
40
0.323926010638243
40
0.330433085663696
40
0.336833056402815
40
0.343121997073002
40
0.349296286217359
40
0.355352616630851
40
0.361288004425121
40
0.367099797207128
40
0.372785681349165
40
0.378343688330355
40
0.38377220013223
40
0.389069953673604
40
0.394236044272595
40
0.399269928126293
40
0.404171423801286
40
0.408940712730954
40
0.41357833871818
40
0.418085206444815
40
0.422462578992013
40
0.426712074378214
40
0.430835661124267
40
0.434835652857848
40
0.438714701971974
40
0.442475792354973
40
0.446122231211855
40
0.449657639999494
40
0.453085944500468
40
0.456411364062759
40
0.459638400034816
40
0.462771823427671
40
0.465816661837932
40
0.468778185667489
40
0.471661893677709
40
0.474473497917715
40
0.477218908068055
40
0.479904215242682
40
0.482535675293632
40
0.485119691664166
40
0.487662797837384
40
0.490171639428395
40
0.492652955969152
40
0.49511356243586
40
0.497560330569602
40
0.500000170041368
40
0.502440009513135
40
0.504886777646876
40
0.507347384113584
40
0.509828700654341
40
0.512337542245353
40
0.51488064841857
40
0.517464664789105
40
0.520096124840054
40
0.522781432014682
40
0.525526842165022
40
0.528338446405028
40
0.531222154415248
40
0.534183678244805
40
0.537228516655066
40
0.540361940047921
40
0.543588976019978
40
0.546914395582269
40
0.550342700083243
40
0.553878108870882
40
0.557524547727765
40
0.561285638110763
40
0.565164687224889
40
0.569164678958471
40
0.573288265704524
40
0.577537761090725
40
0.581915133637923
40
0.586422001364558
40
0.591059627351783
40
0.595828916281452
40
0.600730411956444
40
0.605764295810142
40
0.610930386409134
40
0.616228139950508
40
0.621656651752382
40
0.627214658733573
40
0.63290054287561
40
0.638712335657617
40
0.644647723451887
40
0.650704053865379
40
0.656878343009736
40
0.663167283679923
40
0.669567254419042
40
0.676074329444495
40
0.682684289408279
40
0.689392632961929
40
0.696194589094398
40
0.703085130209069
40
0.710058985904046
40
0.717110657417961
40
0.724234432701695
40
0.731424402074708
40
0.738674474423063
40
0.745978393894746
40
0.753329757046521
40
0.760722030395322
40
0.768148568326078
40
0.77560263130688
40
0.783077404361571
40
0.79056601574912
40
0.798061555798589
40
0.805557095848057
40
0.813045707235606
40
0.820520480290297
40
0.827974543271099
40
0.835401081201855
40
0.842793354550656
40
0.850144717702431
40
0.857448637174114
40
0.864698709522469
40
0.871888678895482
40
0.879012454179216
40
0.886064125693131
40
0.893037981388108
40
0.899928522502779
40
0.906730478635248
40
0.913438822188898
40
0.920048782152682
40
0.926555857178135
40
0.932955827917254
40
0.939244768587441
40
0.945419057731798
40
0.95147538814529
40
0.95741077593956
40
0.963222568721567
40
0.968908452863604
40
0.974466459844794
40
0.979894971646669
40
0.985192725188043
40
0.990358815787034
40
0.995392699640732
40
1
40
1
40
1
40
1
41
1
10
-36.5000001
20
-21.1555815424637
30
-4E-16
41
1
10
-36.5000001
20
-21.1574506826224
30
-4E-16
41
1
10
-36.5000001
20
-21.1593830504067
30
-4E-16
41
1
10
-36.5000001
20
-21.1561371947574
30
0
41
1
10
-36.5000001
20
-21.1460261066864
30
0
41
1
10
-36.5000001
20
-21.1287629778415
30
0
41
1
10
-36.5000001
20
-21.1040028796378
30
0
41
1
10
-36.5000001
20
-21.0714093126484
30
0
41
1
10
-36.5000001
20
-21.030656308722
30
0
41
1
10
-36.5000001
20
-20.9814304886427
30
0
41
1
10
-36.5000001
20
-20.9234330647691
30
1E-16
41
1
10
-36.5000001
20
-20.8563817783616
30
0
41
1
10
-36.5000001
20
-20.7800127616237
30
0
41
1
10
-36.5000001
20
-20.6940823148519
30
0
41
1
10
-36.5000001
20
-20.5983685895058
30
0
41
1
10
-36.5000001
20
-20.4926731684709
30
1E-16
41
1
10
-36.5000001
20
-20.3768225352917
30
1E-16
41
1
10
-36.5000001
20
-20.250669424696
30
1E-16
41
1
10
-36.5000001
20
-20.1140940473185
30
1E-16
41
1
10
-36.5000001
20
-19.9670051821449
30
1E-16
41
1
10
-36.5000001
20
-19.8093411308544
30
1E-16
41
1
10
-36.5000001
20
-19.6410705289117
30
-3E-16
41
1
10
-36.5000001
20
-19.4621930089699
30
-3E-16
41
1
10
-36.5000001
20
-19.2727397128701
30
-3E-16
41
1
10
-36.5000001
20
-19.0727736492706
30
-3E-16
41
1
10
-36.5000001
20
-18.862389894699
30
-3E-16
41
1
10
-36.5000001
20
-18.6417156365927
30
-3E-16
41
1
10
-36.5000001
20
-18.4109100576738
30
-2E-16
41
1
10
-36.5000001
20
-18.1701640617869
30
-2E-16
41
1
10
-36.5000001
20
-17.9196998421111
30
7E-16
41
1
10
-36.5000001
20
-17.659770293439
30
7E-16
41
1
10
-36.5000001
20
-17.390658270983
30
7E-16
41
1
10
-36.5000001
20
-17.1126756989335
30
7E-16
41
1
10
-36.5000001
20
-16.8261625327348
30
7E-16
41
1
10
-36.5000001
20
-16.5314855797708
30
8E-16
41
1
10
-36.5000001
20
-16.2290371838587
30
8E-16
41
1
10
-36.5000001
20
-15.9192337796194
30
8E-16
41
1
10
-36.5000001
20
-15.6025143234506
30
8E-16
41
1
10
-36.5000001
20
-15.2793386084344
30
8E-16
41
1
10
-36.5000001
20
-14.9501854710987
30
9E-16
41
1
10
-36.5000001
20
-14.6155508984899
30
9E-16
41
1
10
-36.5000001
20
-14.2759460445153
30
-9E-16
41
1
10
-36.5000001
20
-13.9318951649732
30
-9E-16
41
1
10
-36.5000001
20
-13.5839334810979
30
-8E-16
41
1
10
-36.5000001
20
-13.2326049818121
30
-8E-16
41
1
10
-36.5000001
20
-12.8784601751947
30
-8E-16
41
1
10
-36.5000001
20
-12.5220537999339
30
-8E-16
41
1
10
-36.5000001
20
-12.1639425077471
30
-7E-16
41
1
10
-36.5000001
20
-11.8046825279085
30
-7E-16
41
1
10
-36.5000001
20
-11.444827325127
30
-7E-16
41
1
10
-36.5000001
20
-11.0849252620674
30
-7E-16
41
1
10
-36.5000001
20
-10.7255172778001
30
-7E-16
41
1
10
-36.5000001
20
-10.3671345934063
30
-6E-16
41
1
10
-36.5000001
20
-10.0102964558474
30
-6E-16
41
1
10
-36.5000001
20
-9.65550793103867
30
-6E-16
41
1
10
-36.5000001
20
-9.30325775684395
30
-6E-16
41
1
10
-36.5000001
20
-8.95401626643235
30
-5E-16
41
1
10
-36.5000001
20
-8.60823339211186
30
-5E-16
41
1
10
-36.5000001
20
-8.26633675937865
30
-5E-16
41
1
10
-36.5000001
20
-7.92872988049601
30
-5E-16
41
1
10
-36.5000001
20
-7.59579045645052
30
-5E-16
41
1
10
-36.5000001
20
-7.26786879561701
30
-4E-16
41
1
10
-36.5000001
20
-6.94528635691262
30
-4E-16
41
1
10
-36.5000001
20
-6.62833442462772
30
-4E-16
41
1
10
-36.5000001
20
-6.31727292149321
30
-4E-16
41
1
10
-36.5000001
20
-6.01232936588553
30
-4E-16
41
1
10
-36.5000001
20
-5.71369797837994
30
-3E-16
41
1
10
-36.5000001
20
-5.42153894214826
30
-3E-16
41
1
10
-36.5000001
20
-5.13597782095928
30
-3E-16
41
1
10
-36.5000001
20
-4.85710513778386
30
-3E-16
41
1
10
-36.5000001
20
-4.58497611623255
30
-3E-16
41
1
10
-36.5000001
20
-4.31961058627385
30
-3E-16
41
1
10
-36.5000001
20
-4.06099305488775
30
-2E-16
41
1
10
-36.5000001
20
-3.80907294151362
30
-2E-16
41
1
10
-36.5000001
20
-3.56376497736355
30
-2E-16
41
1
10
-36.5000001
20
-3.3249497668794
30
-2E-16
41
1
10
-36.5000001
20
-3.09247450883504
30
-2E-16
41
1
10
-36.5000001
20
-2.86615387382398
30
-2E-16
41
1
10
-36.5000001
20
-2.64577103412452
30
-2E-16
41
1
10
-36.5000001
20
-2.43107884121616
30
-1E-16
41
1
10
-36.5000001
20
-2.22180114552455
30
-1E-16
41
1
10
-36.5000001
20
-2.0176342523105
30
-1E-16
41
1
10
-36.5000001
20
-1.81824850698743
30
-1E-16
41
1
10
-36.5000001
20
-1.62329000255698
30
-1E-16
41
1
10
-36.5000001
20
-1.43238240129042
30
-1E-16
41
1
10
-36.5000001
20
-1.24512886225858
30
-1E-16
41
1
10
-36.5000001
20
-1.06111406581377
30
-1E-16
41
1
10
-36.5000001
20
-0.87990632566499
30
-1E-16
41
1
10
-36.5000001
20
-0.701059778745957
30
0
41
1
10
-36.5000001
20
-0.524116642663699
30
0
41
1
10
-36.5000001
20
-0.348609530138589
30
0
41
1
10
-36.5000001
20
-0.174063809498733
30
0
41
1
10
-36.5000001
20
2.84E-14
30
0
41
1
10
-36.5000001
20
0.174063809498762
30
0
41
1
10
-36.5000001
20
0.348609530138617
30
0
41
1
10
-36.5000001
20
0.524116642663756
30
0
41
1
10
-36.5000001
20
0.701059778745986
30
0
41
1
10
-36.5000001
20
0.879906325665075
30
1E-16
41
1
10
-36.5000001
20
1.0611140658138
30
1E-16
41
1
10
-36.5000001
20
1.24512886225855
30
1E-16
41
1
10
-36.5000001
20
1.43238240129051
30
1E-16
41
1
10
-36.5000001
20
1.62329000255707
30
1E-16
41
1
10
-36.5000001
20
1.81824850698752
30
1E-16
41
1
10
-36.5000001
20
2.01763425231056
30
1E-16
41
1
10
-36.5000001
20
2.22180114552461
30
1E-16
41
1
10
-36.5000001
20
2.43107884121622
30
1E-16
41
1
10
-36.5000001
20
2.64577103412458
30
2E-16
41
1
10
-36.5000001
20
2.86615387382403
30
2E-16
41
1
10
-36.5000001
20
3.09247450883512
30
2E-16
41
1
10
-36.5000001
20
3.32494976687949
30
2E-16
41
1
10
-36.5000001
20
3.5637649773636
30
2E-16
41
1
10
-36.5000001
20
3.80907294151365
30
2E-16
41
1
10
-36.5000001
20
4.0609930548878
30
2E-16
41
1
10
-36.5000001
20
4.31961058627397
30
3E-16
41
1
10
-36.5000001
20
4.58497611623261
30
3E-16
41
1
10
-36.5000001
20
4.85710513778392
30
3E-16
41
1
10
-36.5000001
20
5.1359778209594
30
3E-16
41
1
10
-36.5000001
20
5.42153894214835
30
3E-16
41
1
10
-36.5000001
20
5.71369797838
30
3E-16
41
1
10
-36.5000001
20
6.01232936588562
30
4E-16
41
1
10
-36.5000001
20
6.3172729214933
30
4E-16
41
1
10
-36.5000001
20
6.62833442462781
30
4E-16
41
1
10
-36.5000001
20
6.9452863569127
30
4E-16
41
1
10
-36.5000001
20
7.26786879561709
30
4E-16
41
1
10
-36.5000001
20
7.5957904564506
30
5E-16
41
1
10
-36.5000001
20
7.92872988049609
30
5E-16
41
1
10
-36.5000001
20
8.26633675937879
30
5E-16
41
1
10
-36.5000001
20
8.60823339211197
30
5E-16
41
1
10
-36.5000001
20
8.95401626643243
30
5E-16
41
1
10
-36.5000001
20
9.30325775684406
30
6E-16
41
1
10
-36.5000001
20
9.65550793103878
30
6E-16
41
1
10
-36.5000001
20
10.0102964558475
30
6E-16
41
1
10
-36.5000001
20
10.3671345934063
30
6E-16
41
1
10
-36.5000001
20
10.7255172778002
30
7E-16
41
1
10
-36.5000001
20
11.0849252620675
30
7E-16
41
1
10
-36.5000001
20
11.4448273251271
30
7E-16
41
1
10
-36.5000001
20
11.8046825279086
30
7E-16
41
1
10
-36.5000001
20
12.1639425077472
30
7E-16
41
1
10
-36.5000001
20
12.522053799934
30
8E-16
41
1
10
-36.5000001
20
12.8784601751948
30
8E-16
41
1
10
-36.5000001
20
13.2326049818122
30
8E-16
41
1
10
-36.5000001
20
13.583933481098
30
8E-16
41
1
10
-36.5000001
20
13.9318951649733
30
9E-16
41
1
10
-36.5000001
20
14.2759460445154
30
9E-16
41
1
10
-36.5000001
20
14.61555089849
30
-9E-16
41
1
10
-36.5000001
20
14.9501854710988
30
-9E-16
41
1
10
-36.5000001
20
15.2793386084345
30
-8E-16
41
1
10
-36.5000001
20
15.6025143234507
30
-8E-16
41
1
10
-36.5000001
20
15.9192337796195
30
-8E-16
41
1
10
-36.5000001
20
16.2290371838587
30
-8E-16
41
1
10
-36.5000001
20
16.531485579771
30
-8E-16
41
1
10
-36.5000001
20
16.8261625327349
30
-7E-16
41
1
10
-36.5000001
20
17.1126756989336
30
-7E-16
41
1
10
-36.5000001
20
17.390658270983
30
-7E-16
41
1
10
-36.5000001
20
17.659770293439
30
-7E-16
41
1
10
-36.5000001
20
17.9196998421112
30
-7E-16
41
1
10
-36.5000001
20
18.1701640617869
30
2E-16
41
1
10
-36.5000001
20
18.4109100576739
30
2E-16
41
1
10
-36.5000001
20
18.6417156365928
30
3E-16
41
1
10
-36.5000001
20
18.8623898946991
30
3E-16
41
1
10
-36.5000001
20
19.0727736492707
30
3E-16
41
1
10
-36.5000001
20
19.2727397128701
30
3E-16
41
1
10
-36.5000001
20
19.4621930089699
30
3E-16
41
1
10
-36.5000001
20
19.6410705289118
30
3E-16
41
1
10
-36.5000001
20
19.8093411308545
30
-1E-16
41
1
10
-36.5000001
20
19.967005182145
30
-1E-16
41
1
10
-36.5000001
20
20.1140940473185
30
-1E-16
41
1
10
-36.5000001
20
20.2506694246961
30
-1E-16
41
1
10
-36.5000001
20
20.3768225352917
30
-1E-16
41
1
10
-36.5000001
20
20.492673168471
30
-1E-16
41
1
10
-36.5000001
20
20.5983685895058
30
0
41
1
10
-36.5000001
20
20.694082314852
30
0
41
1
10
-36.5000001
20
20.7800127616237
30
0
41
1
10
-36.5000001
20
20.8563817783616
30
0
41
1
10
-36.5000001
20
20.9234330647691
30
-1E-16
41
1
10
-36.5000001
20
20.9814304886427
30
0
41
1
10
-36.5000001
20
21.0306563087221
30
0
41
1
10
-36.5000001
20
21.0714093126484
30
0
41
1
10
-36.5000001
20
21.1040028796378
30
0
41
1
10
-36.5000001
20
21.1287629778415
30
0
41
1
10
-36.5000001
20
21.1460261066864
30
0
41
1
10
-36.5000001
20
21.1561371947574
30
0
41
1
10
-36.5000001
20
21.15938297586
30
4E-16
41
1
10
-36.5000001
20
21.1574508189371
30
4E-16
41
1
10
-36.5000001
20
21.1555819563232
30
4E-16
0
SPLINE
5
119
100
AcDbEntity
8
SK1
62
256
6
ByLayer
370
18
48
1
60
0
100
AcDbSpline
70
4
71
3
72
40
73
36
40
0
40
0
40
0
40
0
40
0.0624999999999993
40
0.0624999999999993
40
0.124999999999999
40
0.124999999999999
40
0.156249999999998
40
0.156249999999998
40
0.187499999999996
40
0.187499999999996
40
0.218749999999995
40
0.218749999999995
40
0.234374999999995
40
0.234374999999995
40
0.249999999999994
40
0.249999999999994
40
0.265624999999994
40
0.265624999999994
40
0.281249999999993
40
0.281249999999993
40
0.312499999999993
40
0.312499999999993
40
0.343749999999993
40
0.343749999999993
40
0.374999999999993
40
0.374999999999993
40
0.437499999999993
40
0.437499999999993
40
0.499999999999993
40
0.499999999999993
40
0.624999999999995
40
0.624999999999995
40
0.749999999999997
40
0.749999999999997
40
1
40
1
40
1
40
1
41
1
10
-0.194913899692011
20
-6.03894368023603
30
-4E-16
41
1
10
-0.21630870027667
20
-6.08279212789253
30
-4E-16
41
1
10
-0.239442705981418
20
-6.12573144150812
30
-4E-16
41
1
10
-0.291327639892302
20
-6.2088050732763
30
-4E-16
41
1
10
-0.320101542135063
20
-6.24909829159193
30
-4E-16
41
1
10
-0.369833557877399
20
-6.30388492719402
30
-4E-16
41
1
10
-0.387551839473531
20
-6.32124752660138
30
-4E-16
41
1
10
-0.42657735459855
20
-6.35317166963875
30
-4E-16
41
1
10
-0.448198356327396
20
-6.36790620860472
30
-4E-16
41
1
10
-0.495063521099894
20
-6.39098479397632
30
-4E-16
41
1
10
-0.520845823981517
20
-6.39942303232488
30
-4E-16
41
1
10
-0.560540747922886
20
-6.40431927433306
30
-4E-16
41
1
10
-0.574207681294723
20
-6.40470019046288
30
-4E-16
41
1
10
-0.601212911344277
20
-6.40278172202619
30
-4E-16
41
1
10
-0.614440647515409
20
-6.40053140012611
30
-4E-16
41
1
10
-0.640406724456568
20
-6.39373116464535
30
-4E-16
41
1
10
-0.653172563987908
20
-6.38914459080499
30
-4E-16
41
1
10
-0.677357039573053
20
-6.37839184184884
30
-4E-16
41
1
10
-0.688916782736982
20
-6.37219667357138
30
-4E-16
41
1
10
-0.722335129625634
20
-6.35166867849205
30
-4E-16
41
1
10
-0.742834148223636
20
-6.33544405436191
30
-4E-16
41
1
10
-0.780312974580511
20
-6.30093163753421
30
-4E-16
41
1
10
-0.797540688580114
20
-6.28244945746965
30
-4E-16
41
1
10
-0.82997345314601
20
-6.24382818653606
30
-4E-16
41
1
10
-0.845138623745527
20
-6.22369652831722
30
-4E-16
41
1
10
-0.887745413246734
20
-6.16246576136646
30
-4E-16
41
1
10
-0.912693515218763
20
-6.1201654340349
30
-4E-16
41
1
10
-0.958636096510816
20
-6.03379191929435
30
-4E-16
41
1
10
-0.979568807922448
20
-5.98969375501201
30
-4E-16
41
1
10
-1.03822203778526
20
-5.85544877302053
30
-4E-16
41
1
10
-1.0719038413495
20
-5.76323161407535
30
-4E-16
41
1
10
-1.1323626867559
20
-5.57738905494102
30
-3E-16
41
1
10
-1.15916733023192
20
-5.4834467310217
30
-3E-16
41
1
10
-1.23267055488898
20
-5.19917171450135
30
-3E-16
41
1
10
-1.2725725398974
20
-5.00641413656629
30
-3E-16
41
1
10
-1.30710678118766
20
-4.81101991917765
30
-3E-16
0
SPLINE
5
11A
100
AcDbEntity
8
SK1
62
256
6
ByLayer
370
18
48
1
60
0
100
AcDbSpline
70
4
71
3
72
188
73
184
40
0
40
0
40
0
40
0
40
0.0021025787697907
40
0.007046624504384
40
0.0121242076842062
40
0.0173351453008154
40
0.0226788888305283
40
0.0281545257378866
40
0.0337607819768528
40
0.0394960254828817
40
0.0453582706462963
40
0.0513451837547049
40
0.0574540893895454
40
0.0636819777592216
40
0.070025512948732
40
0.0764810420631821
40
0.0830446052401128
40
0.0897119465032119
40
0.0964785254276456
40
0.10333952958505
40
0.110289887734062
40
0.117324283720237
40
0.124437171047262
40
0.131622788079516
40
0.13887517383431
40
0.146188184320529
40
0.153555509378883
40
0.160970689977616
40
0.168427135916261
40
0.175918143888926
40
0.183436915857582
40
0.190976577685021
40
0.198530197976381
40
0.206090807077623
40
0.213651416178866
40
0.221205036470226
40
0.228744698297665
40
0.236263470266321
40
0.243754478238985
40
0.251210924177631
40
0.258626104776364
40
0.265993429834718
40
0.273306440320937
40
0.280558826075731
40
0.287744443107985
40
0.294857330435011
40
0.301891726421186
40
0.308842084570197
40
0.315703088727602
40
0.322469667652035
40
0.329137008915134
40
0.335700572092065
40
0.342156101206515
40
0.348499636396025
40
0.354727524765702
40
0.360836430400542
40
0.366823343508951
40
0.372685588672365
40
0.378420832178394
40
0.38402708841736
40
0.389502725324719
40
0.394846468854431
40
0.40005740647104
40
0.405134989650862
40
0.410079035385456
40
0.414889726683231
40
0.419567612067842
40
0.424113604074716
40
0.428528976749861
40
0.432815362157791
40
0.436974745908156
40
0.441009461713317
40
0.444922184991809
40
0.448715925535202
40
0.452394019258472
40
0.455960119056489
40
0.45941818479169
40
0.462772472440368
40
0.46602752242734
40
0.469188147180955
40
0.472259417942568
40
0.475246650866616
40
0.478155392449411
40
0.480991404326579
40
0.483760647480817
40
0.486469265903256
40
0.489123569753206
40
0.491730018062452
40
0.494295201031492
40
0.49682582196626
40
0.499328678904826
40
0.501810645984447
40
0.504278654600038
40
0.506739674405691
40
0.509200694211345
40
0.511668702826935
40
0.514150669906557
40
0.516653526845123
40
0.519184147779891
40
0.521749330748931
40
0.524355779058177
40
0.527010082908127
40
0.529718701330566
40
0.532487944484804
40
0.535323956361972
40
0.538232697944767
40
0.541219930868815
40
0.544291201630428
40
0.547451826384044
40
0.550706876371015
40
0.554061164019693
40
0.557519229754894
40
0.561085329552912
40
0.564763423276181
40
0.568557163819574
40
0.572469887098066
40
0.576504602903228
40
0.580663986653592
40
0.584950372061523
40
0.589365744736667
40
0.593911736743541
40
0.598589622128152
40
0.603400313425928
40
0.608344359160521
40
0.613421942340343
40
0.618632879956953
40
0.623976623486665
40
0.629452260394024
40
0.63505851663299
40
0.640793760139019
40
0.646656005302434
40
0.652642918410842
40
0.658751824045683
40
0.664979712415359
40
0.671323247604869
40
0.677778776719319
40
0.68434233989625
40
0.691009681159349
40
0.697776260083783
40
0.704637264241187
40
0.711587622390199
40
0.718622018376374
40
0.725734905703399
40
0.732920522735653
40
0.740172908490447
40
0.747485918976666
40
0.75485324403502
40
0.762268424633753
40
0.769724870572399
40
0.777215878545063
40
0.78473465051372
40
0.792274312341158
40
0.799827932632519
40
0.807388541733761
40
0.814949150835003
40
0.822502771126363
40
0.830042432953802
40
0.837561204922459
40
0.845052212895123
40
0.852508658833768
40
0.859923839432502
40
0.867291164490856
40
0.874604174977074
40
0.881856560731869
40
0.889042177764123
40
0.896155065091148
40
0.903189461077323
40
0.910139819226334
40
0.917000823383739
40
0.923767402308173
40
0.930434743571272
40
0.936998306748203
40
0.943453835862653
40
0.949797371052163
40
0.956025259421839
40
0.96213416505668
40
0.968121078165088
40
0.973983323328502
40
0.979718566834532
40
0.985324823073498
40
0.990800459980856
40
0.996144203510569
40
1
40
1
40
1
40
1
41
1
10
-38
20
-20.2861875184354
30
-4E-16
41
1
10
-38.0000000000001
20
-20.2874222380341
30
-4E-16
41
1
10
-38.0000000000001
20
-20.2909327425581
30
-4E-16
41
1
10
-38.0000000000001
20
-20.2933891586696
30
-4E-16
41
1
10
-38.0000000000001
20
-20.2902125039614
30
1E-16
41
1
10
-38.0000000000001
20
-20.2804986994834
30
1E-16
41
1
10
-38.0000000000001
20
-20.2638963970496
30
1E-16
41
1
10
-38.0000000000001
20
-20.2400604625399
30
1E-16
41
1
10
-38.0000000000001
20
-20.20865411163
30
1E-16
41
1
10
-38.0000000000001
20
-20.1693510118793
30
1E-16
41
1
10
-38.0000000000001
20
-20.1218373403965
30
1E-16
41
1
10
-38.0000000000001
20
-20.0658137865222
30
1E-16
41
1
10
-38.0000000000001
20
-20.0009974892339
30
0
41
1
10
-38.0000000000001
20
-19.9271238992987
30
0
41
1
10
-38.0000000000001
20
-19.8439485565688
30
0
41
1
10
-38.0000000000001
20
-19.7512487732287
30
0
41
1
10
-38.0000000000001
20
-19.6488252142669
30
-1E-16
41
1
10
-38.0000000000001
20
-19.5365033669478
30
-1E-16
41
1
10
-38.0000000000001
20
-19.414134891605
30
1E-16
41
1
10
-38.0000000000001
20
-19.2815988466624
30
2E-16
41
1
10
-38.0000000000001
20
-19.1388027814043
30
2E-16
41
1
10
-38.0000000000001
20
-18.9856836906711
30
2E-16
41
1
10
-38.0000000000001
20
-18.8222088263322
30
-3E-16
41
1
10
-38.0000000000001
20
-18.6483763610955
30
-3E-16
41
1
10
-38.0000000000001
20
-18.4642159009406
30
-2E-16
41
1
10
-38.0000000000001
20
-18.2697888432061
30
-2E-16
41
1
10
-38.0000000000001
20
-18.0651885781256
30
-2E-16
41
1
10
-38.0000000000001
20
-17.8505405323774
30
-2E-16
41
1
10
-38.0000000000001
20
-17.6260020539921
30
-2E-16
41
1
10
-38.0000000000001
20
-17.3917621387484
30
-2E-16
41
1
10
-38.0000000000001
20
-17.1480409989661
30
7E-16
41
1
10
-38.0000000000001
20
-16.8950894763901
30
7E-16
41
1
10
-38.0000000000001
20
-16.6331883016258
30
8E-16
41
1
10
-38.0000000000001
20
-16.3626472033486
30
8E-16
41
1
10
-38.0000000000001
20
-16.0838038712548
30
8E-16
41
1
10
-38.0000000000001
20
-15.7970227774454
30
8E-16
41
1
10
-38.0000000000001
20
-15.5026938616392
30
8E-16
41
1
10
-38.0000000000001
20
-15.2012310862879
30
8E-16
41
1
10
-38.0000000000001
20
-14.8930708683134
30
9E-16
41
1
10
-38.0000000000001
20
-14.5786703948037
30
9E-16
41
1
10
-38.0000000000001
20
-14.2585058305845
30
-9E-16
41
1
10
-38.0000000000001
20
-13.9330704261243
30
-9E-16
41
1
10
-38.0000000000001
20
-13.6028725347315
30
-8E-16
41
1
10
-38.0000000000001
20
-13.2684335484613
30
-8E-16
41
1
10
-38.0000000000001
20
-12.9302857625595
30
-8E-16
41
1
10
-38.0000000000001
20
-12.5889701786366
30
-8E-16
41
1
10
-38.0000000000001
20
-12.2450342570788
30
-7E-16
41
1
10
-38.0000000000001
20
-11.8990296294675
30
-7E-16
41
1
10
-38.0000000000001
20
-11.5515097819877
30
-7E-16
41
1
10
-38.0000000000001
20
-11.2030277209672
30
-7E-16
41
1
10
-38.0000000000001
20
-10.8541336317887
30
-7E-16
41
1
10
-38.0000000000001
20
-10.5053725424687
30
-6E-16
41
1
10
-38.0000000000001
20
-10.1572820031881
30
-6E-16
41
1
10
-38.0000000000001
20
-9.8103897930022
30
-6E-16
41
1
10
-38.0000000000001
20
-9.46521166483885
30
-6E-16
41
1
10
-38.0000000000001
20
-9.12224913972452
30
-6E-16
41
1
10
-38.0000000000001
20
-8.78198736095652
30
-5E-16
41
1
10
-38.0000000000001
20
-8.44489301866113
30
-5E-16
41
1
10
-38.0000000000001
20
-8.11141235485312
30
-5E-16
41
1
10
-38.0000000000001
20
-7.78196925873516
30
-5E-16
41
1
10
-38.0000000000001
20
-7.45696346155034
30
-5E-16
41
1
10
-38.0000000000001
20
-7.13676883983484
30
-4E-16
41
1
10
-38.0000000000001
20
-6.82173183540016
30
-4E-16
41
1
10
-38.0000000000001
20
-6.51216999982412
30
-4E-16
41
1
10
-38.0000000000001
20
-6.20837067063454
30
-4E-16
41
1
10
-38.0000000000001
20
-5.91058978574128
30
-4E-16
41
1
10
-38.0000000000001
20
-5.61905084201305
30
-3E-16
41
1
10
-38.0000000000001
20
-5.33394400320179
30
-3E-16
41
1
10
-38.0000000000001
20
-5.05542536170219
30
-3E-16
41
1
10
-38.0000000000001
20
-4.78361635789327
30
-3E-16
41
1
10
-38.0000000000001
20
-4.51860336004989
30
-3E-16
41
1
10
-38.0000000000001
20
-4.26043740703585
30
-3E-16
41
1
10
-38.0000000000001
20
-4.00913411520659
30
-2E-16
41
1
10
-38.0000000000001
20
-3.76467375015417
30
-2E-16
41
1
10
-38.0000000000001
20
-3.5270014631283
30
-2E-16
41
1
10
-38.0000000000001
20
-3.29602769117849
30
-2E-16
41
1
10
-38.0000000000001
20
-3.07162871926917
30
-2E-16
41
1
10
-38.0000000000001
20
-2.85364740184369
30
-2E-16
41
1
10
-38.0000000000001
20
-2.64189404055861
30
-2E-16
41
1
10
-38.0000000000001
20
-2.43614741416837
30
-1E-16
41
1
10
-38.0000000000001
20
-2.23615595583536
30
-1E-16
41
1
10
-38.0000000000001
20
-2.04163907246317
30
-1E-16
41
1
10
-38.0000000000001
20
-1.85228860000939
30
-1E-16
41
1
10
-38.0000000000001
20
-1.66777038813214
30
-1E-16
41
1
10
-38.0000000000001
20
-1.48772600695713
30
-1E-16
41
1
10
-38.0000000000001
20
-1.31177456821908
30
-1E-16
41
1
10
-38.0000000000001
20
-1.13951465252936
30
-1E-16
41
1
10
-38.0000000000001
20
-0.970526334035299
30
-1E-16
41
1
10
-38.0000000000001
20
-0.804373293273244
30
0
41
1
10
-38.0000000000001
20
-0.640605008555582
30
0
41
1
10
-38.0000000000001
20
-0.478759015778877
30
0
41
1
10
-38.0000000000001
20
-0.318363226102093
30
0
41
1
10
-38.0000000000001
20
-0.158938290521917
30
0
41
1
10
-38.0000000000001
20
2.84E-14
30
0
41
1
10
-38.0000000000001
20
0.158938290521917
30
0
41
1
10
-38.0000000000001
20
0.318363226102122
30
0
41
1
10
-38.0000000000001
20
0.478759015778962
30
0
41
1
10
-38.0000000000001
20
0.640605008555639
30
0
41
1
10
-38.0000000000001
20
0.804373293273301
30
0
41
1
10
-38.0000000000001
20
0.970526334035355
30
1E-16
41
1
10
-38.0000000000001
20
1.13951465252933
30
1E-16
41
1
10
-38.0000000000001
20
1.31177456821914
30
1E-16
41
1
10
-38.0000000000001
20
1.48772600695722
30
1E-16
41
1
10
-38.0000000000001
20
1.66777038813225
30
1E-16
41
1
10
-38.0000000000001
20
1.85228860000944
30
1E-16
41
1
10
-38.0000000000001
20
2.0416390724632
30
1E-16
41
1
10
-38.0000000000001
20
2.23615595583541
30
1E-16
41
1
10
-38.0000000000001
20
2.43614741416843
30
1E-16
41
1
10
-38.0000000000001
20
2.6418940405587
30
2E-16
41
1
10
-38.0000000000001
20
2.85364740184375
30
2E-16
41
1
10
-38.0000000000001
20
3.07162871926923
30
2E-16
41
1
10
-38.0000000000001
20
3.29602769117855
30
2E-16
41
1
10
-38.0000000000001
20
3.5270014631283
30
2E-16
41
1
10
-38.0000000000001
20
3.76467375015426
30
2E-16
41
1
10
-38.0000000000001
20
4.00913411520673
30
2E-16
41
1
10
-38.0000000000001
20
4.26043740703591
30
3E-16
41
1
10
-38.0000000000001
20
4.51860336004992
30
3E-16
41
1
10
-38.0000000000001
20
4.78361635789338
30
3E-16
41
1
10
-38.0000000000001
20
5.05542536170228
30
3E-16
41
1
10
-38.0000000000001
20
5.33394400320185
30
3E-16
41
1
10
-38.0000000000001
20
5.61905084201314
30
3E-16
41
1
10
-38.0000000000001
20
5.91058978574137
30
4E-16
41
1
10
-38.0000000000001
20
6.20837067063462
30
4E-16
41
1
10
-38.0000000000001
20
6.51216999982421
30
4E-16
41
1
10
-38.0000000000001
20
6.82173183540024
30
4E-16
41
1
10
-38.0000000000001
20
7.1367688398349
30
4E-16
41
1
10
-38.0000000000001
20
7.45696346155043
30
5E-16
41
1
10
-38.0000000000001
20
7.7819692587353
30
5E-16
41
1
10
-38.0000000000001
20
8.11141235485326
30
5E-16
41
1
10
-38.0000000000001
20
8.44489301866119
30
5E-16
41
1
10
-38.0000000000001
20
8.78198736095663
30
5E-16
41
1
10
-38.0000000000001
20
9.12224913972463
30
6E-16
41
1
10
-38.0000000000001
20
9.46521166483893
30
6E-16
41
1
10
-38.0000000000001
20
9.81038979300229
30
6E-16
41
1
10
-38.0000000000001
20
10.1572820031882
30
6E-16
41
1
10
-38.0000000000001
20
10.5053725424688
30
6E-16
41
1
10
-38.0000000000001
20
10.8541336317888
30
7E-16
41
1
10
-38.0000000000001
20
11.2030277209673
30
7E-16
41
1
10
-38.0000000000001
20
11.5515097819878
30
7E-16
41
1
10
-38.0000000000001
20
11.8990296294676
30
7E-16
41
1
10
-38.0000000000001
20
12.2450342570789
30
7E-16
41
1
10
-38.0000000000001
20
12.5889701786366
30
8E-16
41
1
10
-38.0000000000001
20
12.9302857625596
30
8E-16
41
1
10
-38.0000000000001
20
13.2684335484614
30
8E-16
41
1
10
-38.0000000000001
20
13.6028725347316
30
8E-16
41
1
10
-38.0000000000001
20
13.9330704261244
30
9E-16
41
1
10
-38.0000000000001
20
14.2585058305846
30
9E-16
41
1
10
-38.0000000000001
20
14.5786703948038
30
-9E-16
41
1
10
-38.0000000000001
20
14.8930708683135
30
-9E-16
41
1
10
-38.0000000000001
20
15.201231086288
30
-8E-16
41
1
10
-38.0000000000001
20
15.5026938616393
30
-8E-16
41
1
10
-38.0000000000001
20
15.7970227774454
30
-8E-16
41
1
10
-38.0000000000001
20
16.0838038712549
30
-8E-16
41
1
10
-38.0000000000001
20
16.3626472033488
30
-8E-16
41
1
10
-38.0000000000001
20
16.6331883016259
30
-8E-16
41
1
10
-38.0000000000001
20
16.8950894763902
30
-7E-16
41
1
10
-38.0000000000001
20
17.1480409989661
30
-7E-16
41
1
10
-38.0000000000001
20
17.3917621387485
30
2E-16
41
1
10
-38.0000000000001
20
17.6260020539922
30
2E-16
41
1
10
-38.0000000000001
20
17.8505405323774
30
2E-16
41
1
10
-38.0000000000001
20
18.0651885781256
30
2E-16
41
1
10
-38.0000000000001
20
18.2697888432062
30
2E-16
41
1
10
-38.0000000000001
20
18.4642159009407
30
2E-16
41
1
10
-38.0000000000001
20
18.6483763610956
30
3E-16
41
1
10
-38.0000000000001
20
18.8222088263322
30
3E-16
41
1
10
-38.0000000000001
20
18.9856836906711
30
-2E-16
41
1
10
-38.0000000000001
20
19.1388027814043
30
-2E-16
41
1
10
-38.0000000000001
20
19.2815988466624
30
-2E-16
41
1
10
-38.0000000000001
20
19.414134891605
30
-1E-16
41
1
10
-38.0000000000001
20
19.5365033669478
30
1E-16
41
1
10
-38.0000000000001
20
19.6488252142669
30
1E-16
41
1
10
-38.0000000000001
20
19.7512487732287
30
0
41
1
10
-38.0000000000001
20
19.8439485565689
30
0
41
1
10
-38.0000000000001
20
19.9271238992988
30
0
41
1
10
-38.0000000000001
20
20.0009974892339
30
0
41
1
10
-38.0000000000001
20
20.0658137865222
30
-1E-16
41
1
10
-38.0000000000001
20
20.1218373403965
30
-1E-16
41
1
10
-38.0000000000001
20
20.1693510118793
30
-1E-16
41
1
10
-38.0000000000001
20
20.20865411163
30
-1E-16
41
1
10
-38.0000000000001
20
20.2400604625399
30
-1E-16
41
1
10
-38.0000000000001
20
20.2638963970496
30
-1E-16
41
1
10
-38.0000000000001
20
20.2790952050076
30
-1E-16
41
1
10
-38.0000000000001
20
20.2853010848094
30
-1E-16
41
1
10
-38.0000000000001
20
20.2873089572032
30
-1E-16
0
SPLINE
5
11B
100
AcDbEntity
8
SK1
62
256
6
ByLayer
370
18
48
1
60
0
100
AcDbSpline
70
4
71
3
72
30
73
26
40
0
40
0
40
0
40
0
40
0.0624999999999979
40
0.0624999999999979
40
0.124999999999996
40
0.124999999999996
40
0.156249999999995
40
0.156249999999995
40
0.187499999999994
40
0.187499999999994
40
0.218749999999993
40
0.218749999999993
40
0.249999999999992
40
0.249999999999992
40
0.281249999999991
40
0.281249999999991
40
0.31249999999999
40
0.31249999999999
40
0.374999999999991
40
0.374999999999991
40
0.499999999999993
40
0.499999999999993
40
0.749999999999996
40
0.749999999999996
40
1
40
1
40
1
40
1
41
1
10
-0.194913899692011
20
6.03894368023603
30
4E-16
41
1
10
-0.1880582720473
20
6.02489313422876
30
4E-16
41
1
10
-0.180749921486836
20
6.01123599475469
30
4E-16
41
1
10
-0.164591480022466
20
5.98527723304341
30
4E-16
41
1
10
-0.155806521396556
20
5.97286785458445
30
4E-16
41
1
10
-0.140008532817177
20
5.95672168242649
30
4E-16
41
1
10
-0.134336015778899
20
5.95181858650705
30
4E-16
41
1
10
-0.121791130582949
20
5.94416520597369
30
4E-16
41
1
10
-0.114887633465827
20
5.94141411824495
30
4E-16
41
1
10
-0.100029321158189
20
5.94085274530261
30
4E-16
41
1
10
-0.0922711039227977
20
5.94343779030569
30
4E-16
41
1
10
-0.0789772184703281
20
5.95308591734593
30
4E-16
41
1
10
-0.0734178921939872
20
5.9597446543105
30
4E-16
41
1
10
-0.0640003201891091
20
5.97397056662842
30
4E-16
41
1
10
-0.0600287373599144
20
5.98170402699031
30
4E-16
41
1
10
-0.0530512981167135
20
5.99744283657301
30
4E-16
41
1
10
-0.0500523084384383
20
6.0054449087163
30
4E-16
41
1
10
-0.041926446794804
20
6.02968593114747
30
4E-16
41
1
10
-0.0376565930669983
20
6.04615584851919
30
4E-16
41
1
10
-0.026559442997609
20
6.09602198009162
30
4E-16
41
1
10
-0.0215555051175045
20
6.12931220208159
30
4E-16
41
1
10
-0.0094809446544843
20
6.22863021187612
30
4E-16
41
1
10
-0.0054442031289739
20
6.29449280778911
30
4E-16
41
1
10
-0.0004464211826871
20
6.42581612145116
30
4E-16
41
1
10
0.0003084452837072
20
6.49129163384478
30
4E-16
41
1
10
-9.99999656E-08
20
6.55638998421938
30
4E-16
0
SPLINE
5
11C
100
AcDbEntity
8
SK1
62
256
6
ByLayer
370
18
48
1
60
0
100
AcDbSpline
70
4
71
3
72
30
73
26
40
0
40
0
40
0
40
0
40
0.25
40
0.25
40
0.499999999999999
40
0.499999999999999
40
0.624999999999997
40
0.624999999999997
40
0.687499999999995
40
0.687499999999995
40
0.718749999999995
40
0.718749999999995
40
0.749999999999996
40
0.749999999999996
40
0.781249999999996
40
0.781249999999996
40
0.812499999999997
40
0.812499999999997
40
0.843749999999997
40
0.843749999999997
40
0.874999999999998
40
0.874999999999998
40
0.937499999999999
40
0.937499999999999
40
1
40
1
40
1
40
1
41
1
10
-9.99999372E-08
20
-6.55638998421946
30
-4E-16
41
1
10
0.0003094107747756
20
-6.49108792995557
30
-4E-16
41
1
10
-0.0004478573800384
20
-6.42554816644576
30
-4E-16
41
1
10
-0.0054792995627508
20
-6.29380249991425
30
-4E-16
41
1
10
-0.0095396389045845
20
-6.22756595932302
30
-4E-16
41
1
10
-0.0218185914821731
20
-6.12744948764652
30
-4E-16
41
1
10
-0.0269089328686789
20
-6.09400635423643
30
-4E-16
41
1
10
-0.0381288776640076
20
-6.0442760571778
30
-4E-16
41
1
10
-0.0424850566759289
20
-6.02771846012445
30
-4E-16
41
1
10
-0.0507542250382471
20
-6.00353004659658
30
-4E-16
41
1
10
-0.0538032323160564
20
-5.99557276832959
30
-4E-16
41
1
10
-0.0608764449505941
20
-5.98001034590314
30
-4E-16
41
1
10
-0.0649061006195382
20
-5.97237045409079
30
-4E-16
41
1
10
-0.0745352634830567
20
-5.95834328583246
30
-4E-16
41
1
10
-0.0801301069716374
20
-5.95194674487624
30
-4E-16
41
1
10
-0.0935962462806401
20
-5.94284001759087
30
-4E-16
41
1
10
-0.101234697519089
20
-5.94065578094106
30
-4E-16
41
1
10
-0.116024102420795
20
-5.94174135617615
30
-4E-16
41
1
10
-0.122835580858606
20
-5.94466925857358
30
-4E-16
41
1
10
-0.135141444567068
20
-5.95246477672518
30
-4E-16
41
1
10
-0.140682074348348
20
-5.9573438931991
30
-4E-16
41
1
10
-0.156252064808285
20
-5.97346770216322
30
-4E-16
41
1
10
-0.164906851058305
20
-5.98574796601818
30
-4E-16
41
1
10
-0.180883491005687
20
-6.01148751473102
30
-4E-16
41
1
10
-0.188120855715795
20
-6.02502139888361
30
-4E-16
41
1
10
-0.194913899692011
20
-6.03894368023603
30
-4E-16
0
SPLINE
5
11D
100
AcDbEntity
8
SK1
62
256
6
ByLayer
370
18
48
1
60
0
100
AcDbSpline
70
4
71
3
72
190
73
186
40
0
40
0
40
0
40
0
40
0.0047929122654466
40
0.0098140903736351
40
0.0149671415314439
40
0.0202515233085451
40
0.0256663333065134
40
0.0312103116322369
40
0.036881844351197
40
0.0426789679111503
40
0.0485993745240894
40
0.0546404184917285
40
0.0607991234571793
40
0.0670721905629375
40
0.0734560074928224
40
0.0799466583730847
40
0.0865399345055432
40
0.0932313459033348
40
0.100016133597656
40
0.106889282681766
40
0.113845536056496
40
0.120879408839595
40
0.127985203399408
40
0.135157024971691
40
0.142388797816748
40
0.149674281872611
40
0.15700708985862
40
0.164380704782507
40
0.17178849780303
40
0.179223746399154
40
0.186679652796025
40
0.19414936259719
40
0.201625983572025
40
0.20910260454686
40
0.216572314348025
40
0.224028220744895
40
0.23146346934102
40
0.238871262361542
40
0.24624487728543
40
0.253577685271438
40
0.260863169327302
40
0.268094942172359
40
0.275266763744642
40
0.282372558304455
40
0.289406431087554
40
0.296362684462284
40
0.303235833546394
40
0.310020621240715
40
0.316712032638506
40
0.323305308770965
40
0.329795959651227
40
0.336179776581112
40
0.342452843686871
40
0.348611548652321
40
0.354652592619961
40
0.360572999232899
40
0.366370122792853
40
0.372041655511813
40
0.377585633837537
40
0.383000443835505
40
0.388284825612606
40
0.393437876770415
40
0.398459054878604
40
0.403348178961706
40
0.408105429995157
40
0.412731350409255
40
0.417226842602397
40
0.421593166467662
40
0.425831935939542
40
0.42994511457025
40
0.433935010147765
40
0.437804268370346
40
0.441555865594854
40
0.445193100678769
40
0.448719585938248
40
0.452139237247018
40
0.455456263303241
40
0.458675154093763
40
0.461800668587375
40
0.464837821690807
40
0.467791870503222
40
0.47066829990687
40
0.473472807533408
40
0.476211288147093
40
0.478889817487632
40
0.481514635617016
40
0.484092129815933
40
0.486628817076681
40
0.489131326240544
40
0.491606379828596
40
0.494060775615743
40
0.496501367998487
40
0.498935049207506
40
0.501368730416525
40
0.503809322799269
40
0.506263718586416
40
0.508738772174469
40
0.511241281338331
40
0.513777968599079
40
0.516355462797996
40
0.51898028092738
40
0.52165881026792
40
0.524397290881604
40
0.527201798508142
40
0.53007822791179
40
0.533032276724205
40
0.536069429827637
40
0.539194944321248
40
0.54241383511177
40
0.545730861167994
40
0.549150512476764
40
0.552676997736242
40
0.556314232820157
40
0.560065830044666
40
0.563935088267246
40
0.567924983844762
40
0.572038162475469
40
0.576276931947349
40
0.580643255812615
40
0.585138748005756
40
0.589764668419854
40
0.594521919453306
40
0.599411043536408
40
0.604432221644596
40
0.609585272802405
40
0.614869654579506
40
0.620284464577474
40
0.625828442903198
40
0.631499975622158
40
0.637297099182111
40
0.64321750579505
40
0.649258549762689
40
0.65541725472814
40
0.661690321833898
40
0.668074138763783
40
0.674564789644046
40
0.681158065776504
40
0.687849477174295
40
0.694634264868617
40
0.701507413952727
40
0.708463667327457
40
0.715497540110555
40
0.722603334670369
40
0.729775156242652
40
0.737006929087709
40
0.744292413143572
40
0.75162522112958
40
0.758998836053468
40
0.766406629073991
40
0.773841877670115
40
0.781297784066986
40
0.78876749386815
40
0.796244114842986
40
0.80372073581782
40
0.811190445618985
40
0.818646352015856
40
0.826081600611981
40
0.833489393632503
40
0.840863008556391
40
0.848195816542399
40
0.855481300598262
40
0.862713073443319
40
0.869884895015602
40
0.876990689575415
40
0.884024562358514
40
0.890980815733244
40
0.897853964817354
40
0.904638752511675
40
0.911330163909467
40
0.917923440041925
40
0.924414090922187
40
0.930797907852073
40
0.937070974957831
40
0.943229679923282
40
0.949270723890921
40
0.95519113050386
40
0.960988254063814
40
0.966659786782774
40
0.972203765108497
40
0.977618575106465
40
0.982902956883567
40
0.988056008041376
40
0.993077186149564
40
0.997966310232666
40
1
40
1
40
1
40
1
41
1
10
-1.99993701093305
20
22.0219582151794
30
-4E-16
41
1
10
-1.99993701093308
20
22.0240782494595
30
-4E-16
41
1
10
-1.99993701093305
20
22.0262201435178
30
-4E-16
41
1
10
-1.99993701093305
20
22.0227981434459
30
0
41
1
10
-1.99993701093305
20
22.0122894339891
30
0
41
1
10
-1.99993701093305
20
21.9943649168613
30
0
41
1
10
-1.99993701093305
20
21.9686798691876
30
0
41
1
10
-1.99993701093305
20
21.9348980766807
30
0
41
1
10
-1.99993701093305
20
21.8926939357887
30
0
41
1
10
-1.99993701093305
20
21.8417545113478
30
0
41
1
10
-1.99993701093305
20
21.7817815391794
30
0
41
1
10
-1.99993701093305
20
21.7124933633393
30
0
41
1
10
-1.99993701093305
20
21.6336267980464
30
0
41
1
10
-1.99993701093305
20
21.5449389046883
30
0
41
1
10
-1.99993701093305
20
21.4462086747131
30
0
41
1
10
-1.99993701093305
20
21.3372386096839
30
0
41
1
10
-1.99993701093305
20
21.2178561902723
30
0
41
1
10
-1.99993701093305
20
21.087915226514
30
0
41
1
10
-1.99993701093305
20
20.9472970822338
30
0
41
1
10
-1.99993701093305
20
20.7959117671648
30
-1E-16
41
1
10
-1.99993701093305
20
20.6336988909358
30
4E-16
41
1
10
-1.99993701093305
20
20.4606284737833
30
4E-16
41
1
10
-1.99993701093305
20
20.2767016095469
30
4E-16
41
1
10
-1.99993701093305
20
20.0819509772353
30
3E-16
41
1
10
-1.99993701093305
20
19.8764411981965
30
3E-16
41
1
10
-1.99993701093305
20
19.6602690366857
30
3E-16
41
1
10
-1.99993701093305
20
19.4335634423965
30
3E-16
41
1
10
-1.99993701093305
20
19.1964854343024
30
3E-16
41
1
10
-1.99993701093305
20
18.9492278259364
30
-6E-16
41
1
10
-1.99993701093305
20
18.6920147930212
30
-6E-16
41
1
10
-1.99993701093305
20
18.4251012851426
30
-6E-16
41
1
10
-1.99993701093305
20
18.1487722839265
30
-7E-16
41
1
10
-1.99993701093305
20
17.863341910945
30
-7E-16
41
1
10
-1.99993701093305
20
17.5691523893169
30
-7E-16
41
1
10
-1.99993701093302
20
17.2665728636949
30
-7E-16
41
1
10
-1.99993701093302
20
16.9559980840378
30
-7E-16
41
1
10
-1.99993701093302
20
16.6378469592385
30
-8E-16
41
1
10
-1.99993701093302
20
16.3125609873295
30
-8E-16
41
1
10
-1.99993701093302
20
15.9806025696028
30
-8E-16
41
1
10
-1.99993701093302
20
15.6424532165601
30
-8E-16
41
1
10
-1.99993701093302
20
15.2986116541523
30
-8E-16
41
1
10
-1.99993701093302
20
14.9495918392671
30
-9E-16
41
1
10
-1.99993701093302
20
14.5959208938807
30
-9E-16
41
1
10
-1.99993701093302
20
14.2381369677036
30
9E-16
41
1
10
-1.99993701093302
20
13.8767870395108
30
8E-16
41
1
10
-1.99993701093302
20
13.5124246676654
30
8E-16
41
1
10
-1.99993701093302
20
13.145607700604
30
8E-16
41
1
10
-1.99993701093302
20
12.776895958268
30
8E-16
41
1
10
-1.99993701093302
20
12.4068488956182
30
8E-16
41
1
10
-1.99993701093302
20
12.0360232594783
30
7E-16
41
1
10
-1.99993701093302
20
11.6649707499964
30
7E-16
41
1
10
-1.99993701093302
20
11.2942356980139
30
7E-16
41
1
10
-1.99993701093302
20
10.9243527695645
30
7E-16
41
1
10
-1.99993701093302
20
10.555844708614
30
6E-16
41
1
10
-1.99993701093302
20
10.1892201289806
30
6E-16
41
1
10
-1.99993701093302
20
9.82497136615083
30
6E-16
41
1
10
-1.99993701093302
20
9.46357239943421
30
6E-16
41
1
10
-1.99993701093302
20
9.10547685456976
30
6E-16
41
1
10
-1.99993701093302
20
8.75111609652376
30
5E-16
41
1
10
-1.99993701093302
20
8.40089742179461
30
5E-16
41
1
10
-1.99993701093302
20
8.05520235907113
30
5E-16
41
1
10
-1.99993701093302
20
7.71438508657897
30
5E-16
41
1
10
-1.99993701093302
20
7.37877097389688
30
5E-16
41
1
10
-1.99993701093302
20
7.04865525543352
30
4E-16
41
1
10
-1.99993701093302
20
6.72430184212891
30
4E-16
41
1
10
-1.99993701093302
20
6.40594227728656
30
4E-16
41
1
10
-1.99993701093302
20
6.09377484175434
30
4E-16
41
1
10
-1.99993701093302
20
5.78796381295948
30
4E-16
41
1
10
-1.99993701093302
20
5.48863888156657
30
3E-16
41
1
10
-1.99993701093302
20
5.19589472877482
30
3E-16
41
1
10
-1.99993701093302
20
4.90979076649967
30
3E-16
41
1
10
-1.99993701093302
20
4.63035104190558
30
3E-16
41
1
10
-1.99993701093302
20
4.35756430696637
30
3E-16
41
1
10
-1.99993701093302
20
4.09138425294034
30
3E-16
41
1
10
-1.99993701093302
20
3.83172990885336
30
2E-16
41
1
10
-1.99993701093302
20
3.57848620229726
30
2E-16
41
1
10
-1.99993701093302
20
3.33150468007025
30
2E-16
41
1
10
-1.99993701093302
20
3.09060438541741
30
2E-16
41
1
10
-1.99993701093302
20
2.85557288787669
30
2E-16
41
1
10
-1.99993701093302
20
2.62616746100133
30
2E-16
41
1
10
-1.99993701093302
20
2.40211640251718
30
1E-16
41
1
10
-1.99993701093302
20
2.18312049078827
30
1E-16
41
1
10
-1.99993701093302
20
1.96885457080595
30
1E-16
41
1
10
-1.99993701093302
20
1.75896926229331
30
1E-16
41
1
10
-1.99993701093302
20
1.55309278192746
30
1E-16
41
1
10
-1.99993701093302
20
1.35083287113125
30
1E-16
41
1
10
-1.99993701093302
20
1.15177882037864
30
1E-16
41
1
10
-1.99993701093302
20
0.955503580490756
30
1E-16
41
1
10
-1.99993701093302
20
0.761565950983396
30
0
41
1
10
-1.99993701093302
20
0.569512835154939
30
0
41
1
10
-1.99993701093302
20
0.378881551284621
30
0
41
1
10
-1.99993701093302
20
0.189202189042874
30
0
41
1
10
-1.99993701093302
20
2.84E-14
30
0
41
1
10
-1.99993701093302
20
-0.189202189042817
30
0
41
1
10
-1.99993701093302
20
-0.378881551284565
30
0
41
1
10
-1.99993701093302
20
-0.569512835154882
30
0
41
1
10
-1.99993701093302
20
-0.761565950983339
30
0
41
1
10
-1.99993701093302
20
-0.955503580490699
30
-1E-16
41
1
10
-1.99993701093302
20
-1.15177882037858
30
-1E-16
41
1
10
-1.99993701093302
20
-1.35083287113119
30
-1E-16
41
1
10
-1.99993701093302
20
-1.5530927819274
30
-1E-16
41
1
10
-1.99993701093302
20
-1.75896926229325
30
-1E-16
41
1
10
-1.99993701093302
20
-1.96885457080586
30
-1E-16
41
1
10
-1.99993701093302
20
-2.18312049078821
30
-1E-16
41
1
10
-1.99993701093302
20
-2.40211640251712
30
-1E-16
41
1
10
-1.99993701093302
20
-2.62616746100127
30
-2E-16
41
1
10
-1.99993701093302
20
-2.85557288787663
30
-2E-16
41
1
10
-1.99993701093302
20
-3.09060438541735
30
-2E-16
41
1
10
-1.99993701093302
20
-3.33150468007017
30
-2E-16
41
1
10
-1.99993701093302
20
-3.57848620229717
30
-2E-16
41
1
10
-1.99993701093302
20
-3.83172990885328
30
-2E-16
41
1
10
-1.99993701093302
20
-4.09138425294029
30
-3E-16
41
1
10
-1.99993701093302
20
-4.35756430696631
30
-3E-16
41
1
10
-1.99993701093302
20
-4.6303510419055
30
-3E-16
41
1
10
-1.99993701093302
20
-4.90979076649961
30
-3E-16
41
1
10
-1.99993701093302
20
-5.19589472877473
30
-3E-16
41
1
10
-1.99993701093302
20
-5.48863888156652
30
-3E-16
41
1
10
-1.99993701093302
20
-5.78796381295939
30
-4E-16
41
1
10
-1.99993701093302
20
-6.09377484175428
30
-4E-16
41
1
10
-1.99993701093302
20
-6.40594227728647
30
-4E-16
41
1
10
-1.99993701093302
20
-6.72430184212882
30
-4E-16
41
1
10
-1.99993701093302
20
-7.04865525543343
30
-4E-16
41
1
10
-1.99993701093302
20
-7.37877097389676
30
-5E-16
41
1
10
-1.99993701093302
20
-7.71438508657886
30
-5E-16
41
1
10
-1.99993701093302
20
-8.05520235907105
30
-5E-16
41
1
10
-1.99993701093302
20
-8.40089742179453
30
-5E-16
41
1
10
-1.99993701093302
20
-8.75111609652367
30
-5E-16
41
1
10
-1.99993701093302
20
-9.10547685456964
30
-6E-16
41
1
10
-1.99993701093302
20
-9.46357239943413
30
-6E-16
41
1
10
-1.99993701093302
20
-9.82497136615072
30
-6E-16
41
1
10
-1.99993701093302
20
-10.1892201289805
30
-6E-16
41
1
10
-1.99993701093302
20
-10.5558447086139
30
-6E-16
41
1
10
-1.99993701093302
20
-10.9243527695643
30
-7E-16
41
1
10
-1.99993701093302
20
-11.2942356980138
30
-7E-16
41
1
10
-1.99993701093302
20
-11.6649707499963
30
-7E-16
41
1
10
-1.99993701093302
20
-12.0360232594782
30
-7E-16
41
1
10
-1.99993701093302
20
-12.4068488956181
30
-8E-16
41
1
10
-1.99993701093302
20
-12.7768959582679
30
-8E-16
41
1
10
-1.99993701093302
20
-13.145607700604
30
-8E-16
41
1
10
-1.99993701093302
20
-13.5124246676654
30
-8E-16
41
1
10
-1.99993701093302
20
-13.8767870395107
30
-8E-16
41
1
10
-1.99993701093302
20
-14.2381369677034
30
-9E-16
41
1
10
-1.99993701093302
20
-14.5959208938806
30
9E-16
41
1
10
-1.99993701093302
20
-14.949591839267
30
9E-16
41
1
10
-1.99993701093302
20
-15.2986116541522
30
8E-16
41
1
10
-1.99993701093302
20
-15.64245321656
30
8E-16
41
1
10
-1.99993701093302
20
-15.9806025696027
30
8E-16
41
1
10
-1.99993701093302
20
-16.3125609873294
30
8E-16
41
1
10
-1.99993701093302
20
-16.6378469592384
30
8E-16
41
1
10
-1.99993701093302
20
-16.9559980840377
30
7E-16
41
1
10
-1.99993701093302
20
-17.2665728636947
30
7E-16
41
1
10
-1.99993701093305
20
-17.5691523893168
30
7E-16
41
1
10
-1.99993701093305
20
-17.863341910945
30
7E-16
41
1
10
-1.99993701093305
20
-18.1487722839264
30
7E-16
41
1
10
-1.99993701093305
20
-18.4251012851425
30
6E-16
41
1
10
-1.99993701093305
20
-18.6920147930211
30
6E-16
41
1
10
-1.99993701093305
20
-18.9492278259363
30
6E-16
41
1
10
-1.99993701093305
20
-19.1964854343023
30
-3E-16
41
1
10
-1.99993701093305
20
-19.4335634423964
30
-3E-16
41
1
10
-1.99993701093305
20
-19.6602690366856
30
-3E-16
41
1
10
-1.99993701093305
20
-19.8764411981964
30
-3E-16
41
1
10
-1.99993701093305
20
-20.0819509772352
30
-3E-16
41
1
10
-1.99993701093305
20
-20.2767016095469
30
-4E-16
41
1
10
-1.99993701093305
20
-20.4606284737833
30
-4E-16
41
1
10
-1.99993701093305
20
-20.6336988909357
30
-4E-16
41
1
10
-1.99993701093305
20
-20.7959117671647
30
1E-16
41
1
10
-1.99993701093305
20
-20.9472970822337
30
0
41
1
10
-1.99993701093305
20
-21.0879152265139
30
0
41
1
10
-1.99993701093305
20
-21.2178561902723
30
0
41
1
10
-1.99993701093305
20
-21.3372386096839
30
0
41
1
10
-1.99993701093305
20
-21.446208674713
30
0
41
1
10
-1.99993701093305
20
-21.5449389046883
30
0
41
1
10
-1.99993701093305
20
-21.6336267980464
30
0
41
1
10
-1.99993701093305
20
-21.7124933633392
30
0
41
1
10
-1.99993701093305
20
-21.7817815391794
30
0
41
1
10
-1.99993701093305
20
-21.8417545113478
30
0
41
1
10
-1.99993701093305
20
-21.8926939357887
30
0
41
1
10
-1.99993701093305
20
-21.9348980766807
30
0
41
1
10
-1.99993701093305
20
-21.9686798691876
30
0
41
1
10
-1.99993701093305
20
-21.9943649168613
30
0
41
1
10
-1.99993701093305
20
-22.0122894339891
30
0
41
1
10
-1.99993701093305
20
-22.0227981434459
30
0
41
1
10
-1.99993701093305
20
-22.0262421408275
30
4E-16
41
1
10
-1.99993701093305
20
-22.0235830762441
30
4E-16
41
1
10
-1.99993701093305
20
-22.0198000689435
30
4E-16
41
1
10
-1.99993701093305
20
-22.0184929966757
30
4E-16
0
SPLINE
5
11E
100
AcDbEntity
8
1
62
256
6
ByLayer
370
18
48
1
60
0
100
AcDbSpline
70
4
71
3
72
18
73
14
40
0
40
0
40
0
40
0
40
0.125000000000002
40
0.125000000000002
40
0.250000000000005
40
0.250000000000005
40
0.375000000000007
40
0.375000000000007
40
0.500000000000009
40
0.500000000000009
40
0.750000000000005
40
0.750000000000005
40
1
40
1
40
1
40
1
41
1
10
10.5386751345947
20
-30.0805927603169
30
-1E-16
41
1
10
10.5072756412305
20
-30.0805927603169
30
-1E-16
41
1
10
10.4764586959747
20
-30.0786771838881
30
-1E-16
41
1
10
10.4183632336902
20
-30.0717784887141
30
-1E-16
41
1
10
10.3919291019262
20
-30.0669652862982
30
-1E-16
41
1
10
10.3427194975197
20
-30.0553947776175
30
-1E-16
41
1
10
10.3208062022522
20
-30.0488361341243
30
-1E-16
41
1
10
10.2806931514084
20
-30.0347004169091
30
-1E-16
41
1
10
10.2624018249832
20
-30.027061855979
30
-1E-16
41
1
10
10.2124241495698
20
-30.0032420175276
30
-1E-16
41
1
10
10.1856493851623
20
-29.9863265580874
30
-1E-16
41
1
10
10.1399780841698
20
-29.9510824829649
30
-1E-16
41
1
10
10.1211537798005
20
-29.9326384212186
30
-1E-16
41
1
10
10.1056624327025
20
-29.913954846469
30
-1E-16
0
SPLINE
5
11F
100
AcDbEntity
8
SK1
62
256
6
ByLayer
370
18
48
1
60
0
100
AcDbSpline
70
4
71
3
72
28
73
24
40
0
40
0
40
0
40
0
40
0.125
40
0.125
40
0.25
40
0.25
40
0.3125
40
0.3125
40
0.34375
40
0.34375
40
0.375
40
0.375
40
0.5
40
0.5
40
0.625
40
0.625
40
0.6875
40
0.6875
40
0.75
40
0.75
40
0.875
40
0.875
40
1
40
1
40
1
40
1
41
1
10
-1.30710678118655
20
4.81101991917751
30
3E-16
41
1
10
-1.37461336828275
20
4.42906866554009
30
3E-16
41
1
10
-1.43842277737798
20
4.04271351411217
30
2E-16
41
1
10
-1.55482827283632
20
3.25964495390284
30
2E-16
41
1
10
-1.60743606466261
20
2.86293836409121
30
2E-16
41
1
10
-1.67407856453932
20
2.25842370710018
30
1E-16
41
1
10
-1.69423542256672
20
2.05533651749963
30
1E-16
41
1
10
-1.72080085568879
20
1.74806382695323
30
1E-16
41
1
10
-1.72904382528586
20
1.64516593335514
30
1E-16
41
1
10
-1.7441261581063
20
1.43961429439389
30
1E-16
41
1
10
-1.75097824495569
20
1.33682032531706
30
1E-16
41
1
10
-1.78162925606148
20
0.822757365117099
30
1E-16
41
1
10
-1.79445356104946
20
0.411206954771444
30
0
41
1
10
-1.79442646754882
20
-0.412527976924366
30
0
41
1
10
-1.78157243876069
20
-0.824712542606534
30
-1E-16
41
1
10
-1.7445906093653
20
-1.44344348346155
30
-1E-16
41
1
10
-1.72930619669219
20
-1.65006397088797
30
-1E-16
41
1
10
-1.6939082292605
20
-2.05873540419779
30
-1E-16
41
1
10
-1.67377213524364
20
-2.26137320789732
30
-1E-16
41
1
10
-1.60720375364309
20
-2.86470264531454
30
-2E-16
41
1
10
-1.55465989265741
20
-3.2608348755588
30
-2E-16
41
1
10
-1.4383597270112
20
-4.04308032923637
30
-2E-16
41
1
10
-1.37459239752045
20
-4.42918731779784
30
-3E-16
41
1
10
-1.30710678118663
20
-4.81101991917745
30
-3E-16
0
SPLINE
5
120
100
AcDbEntity
8
1
62
256
6
ByLayer
370
18
48
1
60
0
100
AcDbSpline
70
4
71
3
72
18
73
14
40
0
40
0
40
0
40
0
40
0.124999999999999
40
0.124999999999999
40
0.249999999999998
40
0.249999999999998
40
0.374999999999997
40
0.374999999999997
40
0.499999999999996
40
0.499999999999996
40
0.749999999999998
40
0.749999999999998
40
1
40
1
40
1
40
1
41
1
10
13.4613248654051
20
-9.34922131452495
30
-6E-16
41
1
10
13.4927243587694
20
-9.34922131452495
30
-6E-16
41
1
10
13.5235413040251
20
-9.35538953951135
30
-6E-16
41
1
10
13.5816367663097
20
-9.37754088736816
30
-6E-16
41
1
10
13.6080708980736
20
-9.39297468348758
30
-6E-16
41
1
10
13.6572805024801
20
-9.42993211500823
30
-6E-16
41
1
10
13.6791937977476
20
-9.45082003408513
30
-6E-16
41
1
10
13.7193068485914
20
-9.49564759237808
30
-6E-16
41
1
10
13.7375981750167
20
-9.51978166417413
30
-6E-16
41
1
10
13.78757585043
20
-9.59469723248378
30
-6E-16
41
1
10
13.8143506148375
20
-9.64746044882483
30
-6E-16
41
1
10
13.86002191583
20
-9.75632777527105
30
-6E-16
41
1
10
13.8788462201994
20
-9.81278314839818
30
-6E-16
41
1
10
13.8943375672973
20
-9.86941261896607
30
-6E-16
0
LINE
5
78
100
AcDbEntity
8
81
62
256
6
ByLayer
370
13
48
0.05
60
0
100
AcDbLine
10
110
20
0
30
0
11
122
21
0
31
0
39
0
210
0
220
0
230
1
0
LINE
5
79
100
AcDbEntity
8
1
62
256
6
ByLayer
370
18
48
1
60
1
100
AcDbLine
10
301.795592
20
175.173124
30
0
11
301.377595
21
178.348123
31
0
39
0
210
0
220
0
230
1
0
LINE
5
7A
100
AcDbEntity
8
1
62
256
6
ByLayer
370
18
48
1
60
1
100
AcDbLine
10
301.377595
20
178.348123
30
0
11
302.213588
21
178.348126
31
0
39
0
210
0
220
0
230
1
0
LINE
5
7B
100
AcDbEntity
8
1
62
256
6
ByLayer
370
18
48
1
60
1
100
AcDbLine
10
302.213588
20
178.348126
30
0
11
301.795592
21
175.173124
31
0
39
0
210
0
220
0
230
1
0
LINE
5
7C
100
AcDbEntity
8
1
62
256
6
ByLayer
370
18
48
1
60
1
100
AcDbLine
10
301.795592
20
165.173124
30
0
11
302.213588
21
161.998126
31
0
39
0
210
0
220
0
230
1
0
LINE
5
7D
100
AcDbEntity
8
1
62
256
6
ByLayer
370
18
48
1
60
1
100
AcDbLine
10
302.213588
20
161.998126
30
0
11
301.377595
21
161.998123
31
0
39
0
210
0
220
0
230
1
0
LINE
5
7E
100
AcDbEntity
8
1
62
256
6
ByLayer
370
18
48
1
60
1
100
AcDbLine
10
301.377595
20
161.998123
30
0
11
301.795592
21
165.173124
31
0
39
0
210
0
220
0
230
1
0
LINE
5
7F
100
AcDbEntity
8
80
62
256
6
ByLayer
370
13
48
0.05
60
0
100
AcDbLine
10
0
20
0
30
0
11
-15
21
0
31
0
39
0
210
0
220
0
230
1
0
LINE
5
80
100
AcDbEntity
8
SK4
62
256
6
ByLayer
370
13
48
0.05
60
0
100
AcDbLine
10
-40
20
0
30
0
11
112
21
0
31
0
39
0
210
0
220
0
230
1
0
LINE
5
82
100
AcDbEntity
8
1
62
256
6
ByLayer
370
18
48
1
60
0
100
AcDbLine
10
110
20
30.5
30
0
11
108
21
32.5
31
0
39
0
210
0
220
0
230
1
0
LINE
5
83
100
AcDbEntity
8
1
62
256
6
ByLayer
370
18
48
1
60
0
100
AcDbLine
10
108
20
-32.5
30
0
11
110
21
-30.5
31
0
39
0
210
0
220
0
230
1
0
LINE
5
84
100
AcDbEntity
8
1
62
256
6
ByLayer
370
18
48
1
60
0
100
AcDbLine
10
23
20
-32.5
30
0
11
108
21
-32.5
31
0
39
0
210
0
220
0
230
1
0
LINE
5
85
100
AcDbEntity
8
1
62
256
6
ByLayer
370
18
48
1
60
0
100
AcDbLine
10
108
20
32.5
30
0
11
23
21
32.5
31
0
39
0
210
0
220
0
230
1
0
LINE
5
86
100
AcDbEntity
8
1
62
256
6
ByLayer
370
18
48
1
60
0
100
AcDbLine
10
23
20
32.5
30
0
11
22
21
31.5
31
0
39
0
210
0
220
0
230
1
0
LINE
5
87
100
AcDbEntity
8
1
62
256
6
ByLayer
370
18
48
1
60
0
100
AcDbLine
10
22
20
-31.5
30
0
11
23
21
-32.5
31
0
39
0
210
0
220
0
230
1
0
LINE
5
88
100
AcDbEntity
8
1
62
256
6
ByLayer
370
18
48
1
60
0
100
AcDbLine
10
0.3
20
31.5
30
0
11
0
21
31.2
31
0
39
0
210
0
220
0
230
1
0
LINE
5
89
100
AcDbEntity
8
1
62
256
6
ByLayer
370
18
48
1
60
0
100
AcDbLine
10
0
20
-31.2
30
0
11
0.3
21
-31.5
31
0
39
0
210
0
220
0
230
1
0
LINE
5
8A
100
AcDbEntity
8
1
62
256
6
ByLayer
370
18
48
1
60
0
100
AcDbLine
10
22
20
31.5
30
0
11
0.3
21
31.5
31
0
39
0
210
0
220
0
230
1
0
LINE
5
8B
100
AcDbEntity
8
1
62
256
6
ByLayer
370
18
48
1
60
0
100
AcDbLine
10
0.3
20
-31.5
30
0
11
22
21
-31.5
31
0
39
0
210
0
220
0
230
1
0
LINE
5
8C
100
AcDbEntity
8
1
62
256
6
ByLayer
370
18
48
1
60
0
100
AcDbLine
10
95
20
2.309401
30
0
11
94.785357
21
2.433325
31
0
39
0
210
0
220
0
230
1
0
LINE
5
8D
100
AcDbEntity
8
1
62
256
6
ByLayer
370
18
48
1
60
0
100
AcDbLine
10
95
20
2.061553
30
0
11
95
21
2.309401
31
0
39
0
210
0
220
0
230
1
0
LINE
5
8E
100
AcDbEntity
8
1
62
256
6
ByLayer
370
18
48
1
60
0
100
AcDbLine
10
91.214643
20
4.494878
30
0
11
91
21
4.618802
31
0
39
0
210
0
220
0
230
1
0
LINE
5
8F
100
AcDbEntity
8
1
62
256
6
ByLayer
370
18
48
1
60
0
100
AcDbLine
10
87.214643
20
2.433325
30
0
11
87
21
2.309401
31
0
39
0
210
0
220
0
230
1
0
LINE
5
90
100
AcDbEntity
8
1
62
256
6
ByLayer
370
18
48
1
60
0
100
AcDbLine
10
90.785357
20
-4.494878
30
0
11
91
21
-4.618802
31
0
39
0
210
0
220
0
230
1
0
LINE
5
91
100
AcDbEntity
8
1
62
256
6
ByLayer
370
18
48
1
60
0
100
AcDbLine
10
87
20
-2.061553
30
0
11
87
21
-2.309401
31
0
39
0
210
0
220
0
230
1
0
LINE
5
92
100
AcDbEntity
8
1
62
256
6
ByLayer
370
18
48
1
60
0
100
AcDbLine
10
95
20
-2.309401
30
0
11
95
21
-2.061553
31
0
39
0
210
0
220
0
230
1
0
LINE
5
93
100
AcDbEntity
8
1
62
256
6
ByLayer
370
18
48
1
60
0
100
AcDbLine
10
91
20
4.618802
30
0
11
90.785357
21
4.494878
31
0
39
0
210
0
220
0
230
1
0
LINE
5
94
100
AcDbEntity
8
1
62
256
6
ByLayer
370
18
48
1
60
0
100
AcDbLine
10
91
20
-4.618802
30
0
11
91.214643
21
-4.494878
31
0
39
0
210
0
220
0
230
1
0
LINE
5
95
100
AcDbEntity
8
1
62
256
6
ByLayer
370
18
48
1
60
0
100
AcDbLine
10
87
20
-2.309401
30
0
11
87.214643
21
-2.433325
31
0
39
0
210
0
220
0
230
1
0
LINE
5
96
100
AcDbEntity
8
1
62
256
6
ByLayer
370
18
48
1
60
0
100
AcDbLine
10
94.785357
20
-2.433325
30
0
11
95
21
-2.309401
31
0
39
0
210
0
220
0
230
1
0
LINE
5
97
100
AcDbEntity
8
1
62
256
6
ByLayer
370
18
48
1
60
0
100
AcDbLine
10
87
20
2.309401
30
0
11
87
21
2.061553
31
0
39
0
210
0
220
0
230
1
0
LINE
5
98
100
AcDbEntity
8
1
62
256
6
ByLayer
370
18
48
1
60
0
100
AcDbLine
10
53.5
20
2.309401
30
0
11
53.5
21
2.061553
31
0
39
0
210
0
220
0
230
1
0
LINE
5
99
100
AcDbEntity
8
1
62
256
6
ByLayer
370
18
48
1
60
0
100
AcDbLine
10
57.5
20
4.618802
30
0
11
57.285357
21
4.494878
31
0
39
0
210
0
220
0
230
1
0
LINE
5
9A
100
AcDbEntity
8
1
62
256
6
ByLayer
370
18
48
1
60
0
100
AcDbLine
10
61.5
20
2.309401
30
0
11
61.285357
21
2.433325
31
0
39
0
210
0
220
0
230
1
0
LINE
5
9B
100
AcDbEntity
8
1
62
256
6
ByLayer
370
18
48
1
60
0
100
AcDbLine
10
61.5
20
-2.309401
30
0
11
61.5
21
-2.061553
31
0
39
0
210
0
220
0
230
1
0
LINE
5
9C
100
AcDbEntity
8
1
62
256
6
ByLayer
370
18
48
1
60
0
100
AcDbLine
10
57.5
20
-4.618802
30
0
11
57.714643
21
-4.494878
31
0
39
0
210
0
220
0
230
1
0
LINE
5
9D
100
AcDbEntity
8
1
62
256
6
ByLayer
370
18
48
1
60
0
100
AcDbLine
10
53.5
20
-2.309401
30
0
11
53.714643
21
-2.433325
31
0
39
0
210
0
220
0
230
1
0
LINE
5
9E
100
AcDbEntity
8
1
62
256
6
ByLayer
370
18
48
1
60
0
100
AcDbLine
10
10.538675
20
9.349221
30
0
11
10.538675
21
30.080593
31
0
39
0
210
0
220
0
230
1
0
LINE
5
9F
100
AcDbEntity
8
1
62
256
6
ByLayer
370
18
48
1
60
0
100
AcDbLine
10
13.461325
20
-9.349221
30
0
11
10.538675
21
-9.349221
31
0
39
0
210
0
220
0
230
1
0
LINE
5
A0
100
AcDbEntity
8
1
62
256
6
ByLayer
370
18
48
1
60
0
100
AcDbLine
10
10.538675
20
9.349221
30
0
11
13.461325
21
9.349221
31
0
39
0
210
0
220
0
230
1
0
LINE
5
A1
100
AcDbEntity
8
1
62
256
6
ByLayer
370
18
48
1
60
0
100
AcDbLine
10
0
20
-31.2
30
0
11
0
21
31.2
31
0
39
0
210
0
220
0
230
1
0
LINE
5
A2
100
AcDbEntity
8
1
62
256
6
ByLayer
370
18
48
1
60
0
100
AcDbLine
10
10.105662
20
-29.913955
30
0
11
10.105662
21
-9.869413
31
0
39
0
210
0
220
0
230
1
0
LINE
5
A3
100
AcDbEntity
8
1
62
256
6
ByLayer
370
18
48
1
60
0
100
AcDbLine
10
13.894338
20
-29.913955
30
0
11
13.894338
21
-9.869413
31
0
39
0
210
0
220
0
230
1
0
LINE
5
A4
100
AcDbEntity
8
1
62
256
6
ByLayer
370
18
48
1
60
0
100
AcDbLine
10
10.538675
20
-30.080593
30
0
11
10.538675
21
-9.349221
31
0
39
0
210
0
220
0
230
1
0
LINE
5
A5
100
AcDbEntity
8
1
62
256
6
ByLayer
370
18
48
1
60
0
100
AcDbLine
10
10.538675
20
-30.080593
30
0
11
13.461325
21
-30.080593
31
0
39
0
210
0
220
0
230
1
0
LINE
5
A6
100
AcDbEntity
8
1
62
256
6
ByLayer
370
18
48
1
60
0
100
AcDbLine
10
13.461325
20
-30.080593
30
0
11
13.461325
21
-9.349221
31
0
39
0
210
0
220
0
230
1
0
LINE
5
A7
100
AcDbEntity
8
1
62
256
6
ByLayer
370
18
48
1
60
0
100
AcDbLine
10
22
20
0
30
0
11
22
21
31.5
31
0
39
0
210
0
220
0
230
1
0
LINE
5
A8
100
AcDbEntity
8
1
62
256
6
ByLayer
370
18
48
1
60
0
100
AcDbLine
10
22
20
-31.5
30
0
11
22
21
0
31
0
39
0
210
0
220
0
230
1
0
LINE
5
A9
100
AcDbEntity
8
1
62
256
6
ByLayer
370
18
48
1
60
0
100
AcDbLine
10
13.461325
20
9.349221
30
0
11
13.461325
21
30.080593
31
0
39
0
210
0
220
0
230
1
0
LINE
5
AA
100
AcDbEntity
8
1
62
256
6
ByLayer
370
18
48
1
60
0
100
AcDbLine
10
13.461325
20
30.080593
30
0
11
10.538675
21
30.080593
31
0
39
0
210
0
220
0
230
1
0
LINE
5
AB
100
AcDbEntity
8
1
62
256
6
ByLayer
370
18
48
1
60
0
100
AcDbLine
10
10.105662
20
9.869413
30
0
11
10.105662
21
29.913955
31
0
39
0
210
0
220
0
230
1
0
LINE
5
AC
100
AcDbEntity
8
1
62
256
6
ByLayer
370
18
48
1
60
0
100
AcDbLine
10
13.894338
20
9.869413
30
0
11
13.894338
21
29.913955
31
0
39
0
210
0
220
0
230
1
0
LINE
5
AD
100
AcDbEntity
8
1
62
256
6
ByLayer
370
18
48
1
60
0
100
AcDbLine
10
108
20
32.5
30
0
11
108
21
-32.5
31
0
39
0
210
0
220
0
230
1
0
LINE
5
AE
100
AcDbEntity
8
1
62
256
6
ByLayer
370
18
48
1
60
0
100
AcDbLine
10
110
20
30.5
30
0
11
110
21
-30.5
31
0
39
0
210
0
220
0
230
1
0
LINE
5
AF
100
AcDbEntity
8
SK1
62
256
6
ByLayer
370
18
48
1
60
0
100
AcDbLine
10
-1.307107
20
4.81102
30
0
11
-1.307107
21
-4.81102
31
0
39
0
210
0
220
0
230
1
0
LINE
5
B1
100
AcDbEntity
8
1
62
256
6
ByLayer
370
18
48
1
60
0
100
AcDbLine
10
0.3
20
31.5
30
0
11
0.3
21
0
31
0
39
0
210
0
220
0
230
1
0
LINE
5
B2
100
AcDbEntity
8
1
62
256
6
ByLayer
370
18
48
1
60
0
100
AcDbLine
10
0.3
20
0
30
0
11
0.3
21
-31.5
31
0
39
0
210
0
220
0
230
1
0
LINE
5
B3
100
AcDbEntity
8
1
62
256
6
ByLayer
370
18
48
1
60
0
100
AcDbLine
10
23
20
-32.5
30
0
11
23
21
32.5
31
0
39
0
210
0
220
0
230
1
0
LINE
5
B4
100
AcDbEntity
8
1
62
256
6
ByLayer
370
18
48
1
60
0
100
AcDbLine
10
57.285357
20
-4.494878
30
0
11
57.5
21
-4.618802
31
0
39
0
210
0
220
0
230
1
0
LINE
5
B5
100
AcDbEntity
8
1
62
256
6
ByLayer
370
18
48
1
60
0
100
AcDbLine
10
61.285357
20
-2.433325
30
0
11
61.5
21
-2.309401
31
0
39
0
210
0
220
0
230
1
0
LINE
5
B6
100
AcDbEntity
8
1
62
256
6
ByLayer
370
18
48
1
60
0
100
AcDbLine
10
61.5
20
2.061553
30
0
11
61.5
21
2.309401
31
0
39
0
210
0
220
0
230
1
0
LINE
5
B7
100
AcDbEntity
8
1
62
256
6
ByLayer
370
18
48
1
60
0
100
AcDbLine
10
57.714643
20
4.494878
30
0
11
57.5
21
4.618802
31
0
39
0
210
0
220
0
230
1
0
LINE
5
B8
100
AcDbEntity
8
1
62
256
6
ByLayer
370
18
48
1
60
0
100
AcDbLine
10
53.714643
20
2.433325
30
0
11
53.5
21
2.309401
31
0
39
0
210
0
220
0
230
1
0
LINE
5
B9
100
AcDbEntity
8
1
62
256
6
ByLayer
370
18
48
1
60
0
100
AcDbLine
10
53.5
20
-2.061553
30
0
11
53.5
21
-2.309401
31
0
39
0
210
0
220
0
230
1
0
LINE
5
BA
100
AcDbEntity
8
4
62
256
6
ByLayer
370
13
48
0.05
60
0
100
AcDbLine
10
0
20
0
30
0
11
110
21
0
31
0
39
0
210
0
220
0
230
1
0
LINE
5
BC
100
AcDbEntity
8
SK3
62
256
6
ByLayer
370
18
48
0.05
60
0
100
AcDbLine
10
110
20
20
30
0
11
8
21
20
31
0
39
0
210
0
220
0
230
1
0
LINE
5
BE
100
AcDbEntity
8
SK3
62
256
6
ByLayer
370
18
48
0.05
60
0
100
AcDbLine
10
8
20
-20
30
0
11
110
21
-20
31
0
39
0
210
0
220
0
230
1
0
LINE
5
BF
100
AcDbEntity
8
SK3
62
256
6
ByLayer
370
18
48
0.05
60
0
100
AcDbLine
10
8
20
-20
30
0
11
8
21
20
31
0
39
0
210
0
220
0
230
1
0
MTEXT
5
121
100
AcDbEntity
8
SK6
62
256
6
ByLayer
370
18
48
1
60
0
100
AcDbMText
10
5.583872
20
-16.939875
30
0
210
0
220
0
230
1
1
\W0.6521;C6-131-00110-40
40
3
41
0
44
1.084337
50
89.9999999999984
71
7
72
5
7
iso_b_vert
0
DIMENSION
5
130
100
AcDbEntity
8
SK2
62
256
6
ByLayer
370
13
48
1
60
0
100
AcDbDimension
2
DimnDraft3D1
10
-60.25
20
31.5
30
0
11
-60
21
0.833553
31
0
70
33
71
5
72
1
41
1
210
0
220
0
230
1
3
Standard
100
AcDbAlignedDimension
13
-1.7
23
-31.5
33
0
14
-1.7
24
31.5
34
0
1001
ACAD
1000
DSTYLE
1002
{
1070
   279
1070
     0
1070
    74
1070
     0
1070
   173
1070
     1
1070
   340
1005
122
1070
    77
1070
     1
1070
    73
1070
     0
1070
   171
1070
     4
1070
   274
1070
     4
1070
   177
1070
     7
1070
   176
1070
     7
1070
   178
1070
     7
1070
    78
1070
     8
1070
    41
1041
3.175
1070
   147
1041
1.75
1070
    42
1041
2.0
1070
    44
1041
2.0
1070
   140
1041
3.5
1070
   343
1005
0
1070
   344
1005
0
1002
}
0
DIMENSION
5
13B
100
AcDbEntity
8
2
62
256
6
ByLayer
370
13
48
1
60
0
100
AcDbDimension
2
DimnDraft3D2
10
0
20
58.25
30
0
11
52.476316
21
58.25
31
0
70
32
71
5
72
1
41
1
210
0
220
0
230
1
3
Standard
100
AcDbAlignedDimension
13
110
23
32.5
33
0
14
0
24
33.2
34
0
50
0
100
AcDbRotatedDimension
1001
ACAD
1000
DSTYLE
1002
{
1070
   279
1070
     0
1070
   172
1070
     1
1070
   173
1070
     1
1070
   340
1005
122
1070
    77
1070
     1
1070
    73
1070
     0
1070
   171
1070
     4
1070
   274
1070
     4
1070
   177
1070
     7
1070
   176
1070
     7
1070
   178
1070
     7
1070
    78
1070
     8
1070
    41
1041
3.175
1070
   147
1041
1.75
1070
    42
1041
2.0
1070
    44
1041
2.0
1070
   140
1041
3.5
1070
   343
1005
0
1070
   344
1005
0
1002
}
0
DIMENSION
5
146
100
AcDbEntity
8
SK2
62
256
6
ByLayer
370
13
48
1
60
0
100
AcDbDimension
2
DimnDraft3D3
10
153.75
20
32.5
30
0
11
150
21
0.833553
31
0
70
33
71
5
72
1
41
1
210
0
220
0
230
1
3
Standard
100
AcDbAlignedDimension
13
110
23
-32.5
33
0
14
110
24
32.5
34
0
1001
ACAD
1000
DSTYLE
1002
{
1070
   279
1070
     0
1070
    74
1070
     0
1070
   173
1070
     1
1070
   340
1005
122
1070
    77
1070
     1
1070
    73
1070
     0
1070
   171
1070
     4
1070
   274
1070
     4
1070
   177
1070
     7
1070
   176
1070
     7
1070
   178
1070
     7
1070
    78
1070
     8
1070
    41
1041
3.175
1070
   147
1041
1.75
1070
    42
1041
2.0
1070
    44
1041
2.0
1070
   140
1041
3.5
1070
   343
1005
0
1070
   344
1005
0
1002
}
0
DIMENSION
5
150
100
AcDbEntity
8
2
62
256
6
ByLayer
370
13
48
1
60
0
100
AcDbDimension
2
DimnDraft3D4
10
8
20
-46.75
30
0
11
56.038816
21
-46.75
31
0
70
32
71
5
72
1
41
1
210
0
220
0
230
1
3
Standard
100
AcDbAlignedDimension
13
110
23
-22
33
0
14
8
24
-22
34
0
50
0
100
AcDbRotatedDimension
1001
ACAD
1000
DSTYLE
1002
{
1070
   279
1070
     0
1070
   172
1070
     1
1070
   173
1070
     1
1070
   340
1005
122
1070
    77
1070
     1
1070
    73
1070
     0
1070
   171
1070
     4
1070
   274
1070
     4
1070
   177
1070
     7
1070
   176
1070
     7
1070
   178
1070
     7
1070
    78
1070
     8
1070
    41
1041
3.175
1070
   147
1041
1.75
1070
    42
1041
2.0
1070
    44
1041
2.0
1070
   140
1041
3.5
1070
   343
1005
0
1070
   344
1005
0
1002
}
0
DIMENSION
5
15A
100
AcDbEntity
8
2
62
256
6
ByLayer
370
13
48
1
60
0
100
AcDbDimension
2
DimnDraft3D5
10
22
20
43.25
30
0
11
8.909211
21
43.25
31
0
70
32
71
5
72
1
41
1
210
0
220
0
230
1
3
Standard
100
AcDbAlignedDimension
13
0
23
33.2
33
0
14
22
24
33.5
34
0
50
0
100
AcDbRotatedDimension
1001
ACAD
1000
DSTYLE
1002
{
1070
   279
1070
     0
1070
   172
1070
     1
1070
   173
1070
     1
1070
   340
1005
122
1070
    77
1070
     1
1070
    73
1070
     0
1070
   171
1070
     4
1070
   274
1070
     4
1070
   177
1070
     7
1070
   176
1070
     7
1070
   178
1070
     7
1070
    78
1070
     8
1070
    41
1041
3.175
1070
   147
1041
1.75
1070
    42
1041
2.0
1070
    44
1041
2.0
1070
   140
1041
3.5
1070
   343
1005
0
1070
   344
1005
0
1002
}
0
DIMENSION
5
165
100
AcDbEntity
8
SK2
62
256
6
ByLayer
370
13
48
1
60
0
100
AcDbDimension
2
DimnDraft3D6
10
138.75
20
-20
30
0
11
135
21
0.649342
31
0
70
33
71
5
72
1
41
1
210
0
220
0
230
1
3
Standard
100
AcDbAlignedDimension
13
112
23
20
33
0
14
112
24
-20
34
0
1001
ACAD
1000
DSTYLE
1002
{
1070
   279
1070
     0
1070
    74
1070
     0
1070
   173
1070
     1
1070
   340
1005
122
1070
    77
1070
     1
1070
    73
1070
     0
1070
   171
1070
     4
1070
   274
1070
     4
1070
   177
1070
     7
1070
   176
1070
     7
1070
   178
1070
     7
1070
    78
1070
     8
1070
    41
1041
3.175
1070
   147
1041
1.75
1070
    42
1041
2.0
1070
    44
1041
2.0
1070
   140
1041
3.5
1070
   343
1005
0
1070
   344
1005
0
1002
}
0
ENDSEC
0
SECTION
2
OBJECTS
0
DICTIONARY
5
1d1
330
0
100
AcDbDictionary
280
0
281
1
3
ACAD_GROUP
350
1d2
3
ACAD_MLINESTYLE
350
1d3
0
DICTIONARY
5
1d2
330
0
100
AcDbDictionary
280
0
281
1
0
DICTIONARY
5
1d3
330
0
100
AcDbDictionary
280
0
281
1
3
Standard
350
18
0
MLINESTYLE
5
18
330
1d3
100
AcDbMlineStyle
2
Standard
70
0
3

62
256
51
90
52
90
71
2
49
-0.5
62
256
6
ByLayer
49
0.5
62
256
6
ByLayer
0
RASTERVARIABLES
5
1be
330

100
AcDbRasterVariables
90
0
70
1
71
1
72
1
0
ENDSEC
0
EOF
