0
SECTION
2
HEADER
9
$ACADVER
1
AC1015
9
$DWGCODEPAGE
3
ANSI_1252
9
$HANDSEED
5
2cd
9
$ANGBASE
50
0
9
$ANGDIR
70
0
9
$ATTMODE
70
1
9
$AUNITS
70
0
9
$AUPREC
70
0
9
$CECOLOR
62
256
9
$CELTSCALE
40
1
9
$CELTYPE
6
ByLayer
9
$CELWEIGHT
370
18
9
$CLAYER
8
0
9
$CMLJUST
70
0
9
$CMLSCALE
40
1
9
$CMLSTYLE
2
Standard
9
$DIMSTYLE
2
Standard
9
$TEXTSIZE
40
0.2
9
$TEXTSTYLE
7
Standard
9
$LUNITS
70
2
9
$LUPREC
70
4
9
$EXTNAMES
290
1
9
$INSUNITS
70
4
9
$LTSCALE
40
1
9
$LWDISPLAY
290
1
9
$PDMODE
70
0
9
$PDSIZE
40
0
9
$PLINEGEN
70
0
0
ENDSEC
0
SECTION
2
CLASSES
0
CLASS
1
RASTERVARIABLES
2
AcDbRasterVariables
3
ISM
90
0
280
0
281
0
0
ENDSEC
0
SECTION
2
TABLES
0
TABLE
2
VPORT
5
2c3
100
AcDbSymbolTable
0
VPORT
5
1
100
AcDbSymbolTableRecord
100
AcDbViewportTableRecord
2
*Active
70
0
10
0
20
0
11
1
21
1
12
-1
22
1
13
0
23
0
14
0.5
24
0.5
15
10
25
10
16
0
26
0
36
1
17
0
27
0
37
0
0
ENDTAB
0
TABLE
2
LTYPE
5
2c4
100
AcDbSymbolTable
0
LTYPE
5
14
100
AcDbSymbolTableRecord
100
AcDbLinetypeTableRecord
70
0
2
ByBlock
3

72
65
73
0
40
0
0
LTYPE
5
15
100
AcDbSymbolTableRecord
100
AcDbLinetypeTableRecord
70
0
2
ByLayer
3

72
65
73
0
40
0
0
LTYPE
5
16
100
AcDbSymbolTableRecord
100
AcDbLinetypeTableRecord
70
0
2
CONTINUOUS
3
Solid line
72
65
73
0
40
0
0
LTYPE
5
6A
100
AcDbSymbolTableRecord
100
AcDbLinetypeTableRecord
70
0
2
CENTER
3
____ _ ____ _ ____ _ ____
72
65
73
4
40
47.5
49
22
74
0
49
-8.5
74
0
49
8.5
74
0
49
-8.5
74
0
0
LTYPE
5
6B
100
AcDbSymbolTableRecord
100
AcDbLinetypeTableRecord
70
0
2
DASHED
3
__ __ __ __ __ __ __ __ __
72
65
73
2
40
25.72
49
12.86
74
0
49
-12.86
74
0
0
ENDTAB
0
TABLE
2
LAYER
5
2c5
100
AcDbSymbolTable
0
LAYER
5
10
100
AcDbSymbolTableRecord
100
AcDbLayerTableRecord
2
0
70
0
62
7
6
CONTINUOUS
290
1
370
-3
390
0
0
LAYER
5
6D
100
AcDbSymbolTableRecord
100
AcDbLayerTableRecord
2
80
70
0
62
-6
6
CONTINUOUS
290
1
370
-3
390
0
0
LAYER
5
6F
100
AcDbSymbolTableRecord
100
AcDbLayerTableRecord
2
81
70
0
62
-3
6
CONTINUOUS
290
1
370
-3
390
0
0
LAYER
5
71
100
AcDbSymbolTableRecord
100
AcDbLayerTableRecord
2
1
70
0
62
4
6
CONTINUOUS
290
1
370
-3
390
0
0
LAYER
5
210
100
AcDbSymbolTableRecord
100
AcDbLayerTableRecord
2
2
70
0
62
7
6
CONTINUOUS
290
1
370
-3
390
0
0
LAYER
5
2af
100
AcDbSymbolTableRecord
100
AcDbLayerTableRecord
2
SK1
70
0
62
4
6
CONTINUOUS
290
1
370
-3
390
0
0
LAYER
5
2b0
100
AcDbSymbolTableRecord
100
AcDbLayerTableRecord
2
SK4
70
0
62
2
6
CENTER
290
1
370
-3
390
0
0
LAYER
5
2b1
100
AcDbSymbolTableRecord
100
AcDbLayerTableRecord
2
SK6
70
0
62
5
6
CONTINUOUS
290
1
370
-3
390
0
0
LAYER
5
2b2
100
AcDbSymbolTableRecord
100
AcDbLayerTableRecord
2
SK2
70
0
62
7
6
CONTINUOUS
290
1
370
-3
390
0
0
ENDTAB
0
TABLE
2
STYLE
5
2c6
100
AcDbSymbolTable
0
STYLE
5
11
100
AcDbSymbolTableRecord
100
AcDbTextStyleTableRecord
2
Standard
3
txt
70
0
71
0
40
0
41
1
42
0
50
0
0
STYLE
5
1F4
100
AcDbSymbolTableRecord
100
AcDbTextStyleTableRecord
2
iso_b_vert
3
simplex.shx
70
0
71
0
40
0
41
1
42
0
50
0
0
STYLE
5
1F5
100
AcDbSymbolTableRecord
100
AcDbTextStyleTableRecord
2
DWGDirectTextStyle
3
simplex
70
0
71
0
40
0
41
1
42
0
50
0
0
ENDTAB
0
TABLE
2
DIMSTYLE
5
2c7
100
AcDbSymbolTable
100
AcDbDimStyleTable
0
DIMSTYLE
105
27
100
AcDbSymbolTableRecord
100
AcDbDimStyleTableRecord
2
Standard
70
0
3
<>
41
0.18
42
0.0625
44
0.18
140
0.18
147
0.09
73
0
74
0
77
1
271
2
275
0
278
52
280
0
340
11
0
ENDTAB
0
TABLE
2
VIEW
5
2c8
100
AcDbSymbolTable
0
ENDTAB
0
TABLE
2
UCS
5
2c9
100
AcDbSymbolTable
0
ENDTAB
0
TABLE
2
APPID
5
2ca
100
AcDbSymbolTable
0
APPID
5
12
100
AcDbSymbolTableRecord
100
AcDbRegAppTableRecord
2
ACAD
70
0
0
ENDTAB
0
TABLE
2
BLOCK_RECORD
5
2cb
100
AcDbSymbolTable
0
BLOCK_RECORD
5
1F
100
AcDbSymbolTableRecord
100
AcDbBlockTableRecord
2
*Model_Space
340
0
70
0
0
BLOCK_RECORD
5
1B
100
AcDbSymbolTableRecord
100
AcDbBlockTableRecord
2
*Paper_Space
340
0
70
0
0
BLOCK_RECORD
5
23
100
AcDbSymbolTableRecord
100
AcDbBlockTableRecord
2
*Paper_Space0
340
0
70
0
0
BLOCK_RECORD
5
1F7
100
AcDbSymbolTableRecord
100
AcDbBlockTableRecord
2
DimnDraft3D1
340
0
70
0
0
BLOCK_RECORD
5
207
100
AcDbSymbolTableRecord
100
AcDbBlockTableRecord
2
_CLOSED
340
0
70
0
0
BLOCK_RECORD
5
20E
100
AcDbSymbolTableRecord
100
AcDbBlockTableRecord
2
DimnDraft3D2
340
0
70
0
0
BLOCK_RECORD
5
21D
100
AcDbSymbolTableRecord
100
AcDbBlockTableRecord
2
DimnDraft3D3
340
0
70
0
0
BLOCK_RECORD
5
22B
100
AcDbSymbolTableRecord
100
AcDbBlockTableRecord
2
DimnDraft3D4
340
0
70
0
0
BLOCK_RECORD
5
239
100
AcDbSymbolTableRecord
100
AcDbBlockTableRecord
2
DimnDraft3D5
340
0
70
0
0
BLOCK_RECORD
5
248
100
AcDbSymbolTableRecord
100
AcDbBlockTableRecord
2
DimnDraft3D6
340
0
70
0
0
ENDTAB
0
ENDSEC
0
SECTION
2
BLOCKS
0
BLOCK
5
20
100
AcDbEntity
8
0
100
AcDbBlockBegin
2
*Model_Space
70
0
10
0
20
0
30
0
3
*Model_Space
0
ENDBLK
5
21
100
AcDbEntity
8
0
100
AcDbBlockEnd
0
BLOCK
5
1C
100
AcDbEntity
8
0
100
AcDbBlockBegin
2
*Paper_Space
70
0
10
0
20
0
30
0
3
*Paper_Space
0
ENDBLK
5
1D
100
AcDbEntity
8
0
100
AcDbBlockEnd
0
BLOCK
5
24
100
AcDbEntity
8
0
100
AcDbBlockBegin
2
*Paper_Space0
70
0
10
0
20
0
30
0
3
*Paper_Space0
0
ENDBLK
5
25
100
AcDbEntity
8
0
100
AcDbBlockEnd
0
BLOCK
5
204
100
AcDbEntity
8
0
100
AcDbBlockBegin
2
DimnDraft3D1
70
0
10
0
20
0
30
0
3
DimnDraft3D1
0
MTEXT
5
1F8
100
AcDbEntity
8
SK2
62
256
6
ByLayer
370
18
48
1
60
0
100
AcDbMText
10
-48.320342
20
2.965835
30
0
210
0
220
0
230
1
1
\W0.6563;50
40
3
41
0
44
1.084337
50
90
71
7
72
5
7
iso_b_vert
0
MTEXT
5
1FA
100
AcDbEntity
8
SK2
62
256
6
ByLayer
370
18
48
1
60
0
100
AcDbMText
10
-48.320342
20
-4.510728
30
0
210
0
220
0
230
1
1
%%c
40
3
41
0
44
1.084337
50
90
71
7
72
5
7
iso_b_vert
0
LINE
5
1FB
100
AcDbEntity
8
SK2
62
256
6
ByLayer
370
13
48
1
60
0
100
AcDbLine
10
-1.7
20
-25
30
0
11
-48.820342
21
-25
31
0
39
0
210
0
220
0
230
1
0
LINE
5
1FC
100
AcDbEntity
8
SK2
62
256
6
ByLayer
370
13
48
1
60
0
100
AcDbLine
10
-1.7
20
25
30
0
11
-48.820342
21
25
31
0
39
0
210
0
220
0
230
1
0
LINE
5
1FD
100
AcDbEntity
8
SK2
62
256
6
ByLayer
370
13
48
1
60
0
100
AcDbLine
10
-46.820342
20
-25
30
0
11
-46.820342
21
25
31
0
39
0
210
0
220
0
230
1
0
LINE
5
1FE
100
AcDbEntity
8
SK2
62
256
6
ByLayer
370
13
48
1
60
0
100
AcDbLine
10
-46.820342
20
-25
30
0
11
-47.238338
21
-21.825002
31
0
39
0
210
0
220
0
230
1
0
LINE
5
1FF
100
AcDbEntity
8
SK2
62
256
6
ByLayer
370
13
48
1
60
0
100
AcDbLine
10
-46.820342
20
-25
30
0
11
-46.402345
21
-21.824998
31
0
39
0
210
0
220
0
230
1
0
LINE
5
200
100
AcDbEntity
8
SK2
62
256
6
ByLayer
370
13
48
1
60
0
100
AcDbLine
10
-47.238338
20
-21.825002
30
0
11
-46.402345
21
-21.824998
31
0
39
0
210
0
220
0
230
1
0
LINE
5
201
100
AcDbEntity
8
SK2
62
256
6
ByLayer
370
13
48
1
60
0
100
AcDbLine
10
-46.820342
20
25
30
0
11
-46.402345
21
21.825002
31
0
39
0
210
0
220
0
230
1
0
LINE
5
202
100
AcDbEntity
8
SK2
62
256
6
ByLayer
370
13
48
1
60
0
100
AcDbLine
10
-46.820342
20
25
30
0
11
-47.238338
21
21.824998
31
0
39
0
210
0
220
0
230
1
0
LINE
5
203
100
AcDbEntity
8
SK2
62
256
6
ByLayer
370
13
48
1
60
0
100
AcDbLine
10
-46.402345
20
21.825002
30
0
11
-47.238338
21
21.824998
31
0
39
0
210
0
220
0
230
1
0
ENDBLK
5
205
100
AcDbEntity
8
0
100
AcDbBlockEnd
0
BLOCK
5
208
100
AcDbEntity
8
0
100
AcDbBlockBegin
2
_CLOSED
70
0
10
0
20
0
30
0
3
_CLOSED
0
LINE
5
20A
100
AcDbEntity
8
0
62
256
6
ByLayer
370
-2
48
1
60
0
100
AcDbLine
10
-1
20
0.166667
30
0
11
0
21
0
31
0
39
0
210
0
220
0
230
1
0
LINE
5
20B
100
AcDbEntity
8
0
62
256
6
ByLayer
370
-2
48
1
60
0
100
AcDbLine
10
0
20
0
30
0
11
-1
21
-0.166667
31
0
39
0
210
0
220
0
230
1
0
LINE
5
20C
100
AcDbEntity
8
0
62
256
6
ByLayer
370
-2
48
1
60
0
100
AcDbLine
10
-1
20
0.166667
30
0
11
-1
21
-0.166667
31
0
39
0
210
0
220
0
230
1
0
LINE
5
20D
100
AcDbEntity
8
0
62
256
6
ByLayer
370
-2
48
1
60
0
100
AcDbLine
10
0
20
0
30
0
11
-1
21
0
31
0
39
0
210
0
220
0
230
1
0
ENDBLK
5
209
100
AcDbEntity
8
0
100
AcDbBlockEnd
0
BLOCK
5
21A
100
AcDbEntity
8
0
100
AcDbBlockBegin
2
DimnDraft3D2
70
0
10
0
20
0
30
0
3
DimnDraft3D2
0
MTEXT
5
20F
100
AcDbEntity
8
2
62
256
6
ByLayer
370
18
48
1
60
0
100
AcDbMText
10
56.364275
20
51.06158
30
0
210
0
220
0
230
1
1
\W0.5123;115
40
3
41
0
44
1.084337
50
0
71
7
72
5
7
iso_b_vert
0
LINE
5
211
100
AcDbEntity
8
2
62
256
6
ByLayer
370
13
48
1
60
0
100
AcDbLine
10
0
20
26.7
30
0
11
0
21
52.31158
31
0
39
0
210
0
220
0
230
1
0
LINE
5
212
100
AcDbEntity
8
2
62
256
6
ByLayer
370
13
48
1
60
0
100
AcDbLine
10
115.436444
20
1.472466
30
0
11
115.436444
21
52.31158
31
0
39
0
210
0
220
0
230
1
0
LINE
5
213
100
AcDbEntity
8
2
62
256
6
ByLayer
370
13
48
1
60
0
100
AcDbLine
10
0
20
50.31158
30
0
11
115.436444
21
50.31158
31
0
39
0
210
0
220
0
230
1
0
LINE
5
214
100
AcDbEntity
8
2
62
256
6
ByLayer
370
13
48
1
60
0
100
AcDbLine
10
0
20
50.31158
30
0
11
3.174998
21
50.729577
31
0
39
0
210
0
220
0
230
1
0
LINE
5
215
100
AcDbEntity
8
2
62
256
6
ByLayer
370
13
48
1
60
0
100
AcDbLine
10
0
20
50.31158
30
0
11
3.175002
21
49.893583
31
0
39
0
210
0
220
0
230
1
0
LINE
5
216
100
AcDbEntity
8
2
62
256
6
ByLayer
370
13
48
1
60
0
100
AcDbLine
10
3.174998
20
50.729577
30
0
11
3.175002
21
49.893583
31
0
39
0
210
0
220
0
230
1
0
LINE
5
217
100
AcDbEntity
8
2
62
256
6
ByLayer
370
13
48
1
60
0
100
AcDbLine
10
115.436444
20
50.31158
30
0
11
112.261446
21
49.893583
31
0
39
0
210
0
220
0
230
1
0
LINE
5
218
100
AcDbEntity
8
2
62
256
6
ByLayer
370
13
48
1
60
0
100
AcDbLine
10
115.436444
20
50.31158
30
0
11
112.261443
21
50.729577
31
0
39
0
210
0
220
0
230
1
0
LINE
5
219
100
AcDbEntity
8
2
62
256
6
ByLayer
370
13
48
1
60
0
100
AcDbLine
10
112.261446
20
49.893583
30
0
11
112.261443
21
50.729577
31
0
39
0
210
0
220
0
230
1
0
ENDBLK
5
21B
100
AcDbEntity
8
0
100
AcDbBlockEnd
0
BLOCK
5
228
100
AcDbEntity
8
0
100
AcDbBlockBegin
2
DimnDraft3D3
70
0
10
0
20
0
30
0
3
DimnDraft3D3
0
MTEXT
5
21E
100
AcDbEntity
8
2
62
256
6
ByLayer
370
18
48
1
60
0
100
AcDbMText
10
135.096995
20
-8.821787
30
0
210
0
220
0
230
1
1
\W0.6912;0.5
40
3
41
0
44
1.084337
50
90
71
7
72
5
7
iso_b_vert
0
LINE
5
21F
100
AcDbEntity
8
2
62
256
6
ByLayer
370
13
48
1
60
0
100
AcDbLine
10
117.436444
20
-0.527534
30
0
11
137.846995
21
-0.527534
31
0
39
0
210
0
220
0
230
1
0
LINE
5
220
100
AcDbEntity
8
2
62
256
6
ByLayer
370
13
48
1
60
0
100
AcDbLine
10
116.810493
20
-0.010312
30
0
11
137.846995
21
-0.010312
31
0
39
0
210
0
220
0
230
1
0
LINE
5
221
100
AcDbEntity
8
2
62
256
6
ByLayer
370
13
48
1
60
0
100
AcDbLine
10
135.846995
20
7.489688
30
0
11
135.846995
21
-9.571787
31
0
39
0
210
0
220
0
230
1
0
LINE
5
222
100
AcDbEntity
8
2
62
256
6
ByLayer
370
13
48
1
60
0
100
AcDbLine
10
135.846995
20
-0.527534
30
0
11
136.264992
21
-3.702533
31
0
39
0
210
0
220
0
230
1
0
LINE
5
223
100
AcDbEntity
8
2
62
256
6
ByLayer
370
13
48
1
60
0
100
AcDbLine
10
135.846995
20
-0.527534
30
0
11
135.428999
21
-3.702536
31
0
39
0
210
0
220
0
230
1
0
LINE
5
224
100
AcDbEntity
8
2
62
256
6
ByLayer
370
13
48
1
60
0
100
AcDbLine
10
136.264992
20
-3.702533
30
0
11
135.428999
21
-3.702536
31
0
39
0
210
0
220
0
230
1
0
LINE
5
225
100
AcDbEntity
8
2
62
256
6
ByLayer
370
13
48
1
60
0
100
AcDbLine
10
135.846995
20
-0.010312
30
0
11
135.428999
21
3.164687
31
0
39
0
210
0
220
0
230
1
0
LINE
5
226
100
AcDbEntity
8
2
62
256
6
ByLayer
370
13
48
1
60
0
100
AcDbLine
10
135.846995
20
-0.010312
30
0
11
136.264992
21
3.16469
31
0
39
0
210
0
220
0
230
1
0
LINE
5
227
100
AcDbEntity
8
2
62
256
6
ByLayer
370
13
48
1
60
0
100
AcDbLine
10
135.428999
20
3.164687
30
0
11
136.264992
21
3.16469
31
0
39
0
210
0
220
0
230
1
0
ENDBLK
5
229
100
AcDbEntity
8
0
100
AcDbBlockEnd
0
BLOCK
5
236
100
AcDbEntity
8
0
100
AcDbBlockBegin
2
DimnDraft3D4
70
0
10
0
20
0
30
0
3
DimnDraft3D4
0
MTEXT
5
22C
100
AcDbEntity
8
SK2
62
256
6
ByLayer
370
18
48
1
60
0
100
AcDbMText
10
101.108463
20
18.481247
30
0
210
0
220
0
230
1
1
\W0.8425;48%%d0'
40
3
41
0
44
1.084337
50
29.1841102787955
71
7
72
5
7
iso_b_vert
0
LINE
5
22D
100
AcDbEntity
8
SK2
62
256
6
ByLayer
370
13
48
1
60
0
100
AcDbLine
10
115.436444
20
2.527534
30
0
11
115.436444
21
24.430852
31
0
39
0
210
0
220
0
230
1
0
LINE
5
22E
100
AcDbEntity
8
SK2
62
256
6
ByLayer
370
13
48
1
60
0
100
AcDbLine
10
104.486903
20
10.322514
30
0
11
97.625103
21
16.499671
31
0
39
0
210
0
220
0
230
1
0
ARC
5
22F
100
AcDbEntity
8
SK2
62
256
6
ByLayer
370
13
48
1
60
0
100
AcDbCircle
39
0
10
115.436444
20
0.465475
30
0
40
21.965376880657
210
0
220
0
230
1
100
AcDbArc
50
90
51
138.0057
0
LINE
5
230
100
AcDbEntity
8
SK2
62
256
6
ByLayer
370
13
48
1
60
0
100
AcDbLine
10
115.436444
20
22.430852
30
0
11
112.278587
21
21.898618
31
0
39
0
210
0
220
0
230
1
0
LINE
5
231
100
AcDbEntity
8
SK2
62
256
6
ByLayer
370
13
48
1
60
0
100
AcDbLine
10
115.436444
20
22.430852
30
0
11
112.248433
21
22.734068
31
0
39
0
210
0
220
0
230
1
0
LINE
5
232
100
AcDbEntity
8
SK2
62
256
6
ByLayer
370
13
48
1
60
0
100
AcDbLine
10
112.278587
20
21.898618
30
0
11
112.248433
21
22.734068
31
0
39
0
210
0
220
0
230
1
0
LINE
5
233
100
AcDbEntity
8
SK2
62
256
6
ByLayer
370
13
48
1
60
0
100
AcDbLine
10
99.111526
20
15.161557
30
0
11
101.019131
21
17.73379
31
0
39
0
210
0
220
0
230
1
0
LINE
5
234
100
AcDbEntity
8
SK2
62
256
6
ByLayer
370
13
48
1
60
0
100
AcDbLine
10
99.111526
20
15.161557
30
0
11
101.619876
21
17.15242
31
0
39
0
210
0
220
0
230
1
0
LINE
5
235
100
AcDbEntity
8
SK2
62
256
6
ByLayer
370
13
48
1
60
0
100
AcDbLine
10
101.019131
20
17.73379
30
0
11
101.619876
21
17.15242
31
0
39
0
210
0
220
0
230
1
0
ENDBLK
5
237
100
AcDbEntity
8
0
100
AcDbBlockEnd
0
BLOCK
5
245
100
AcDbEntity
8
0
100
AcDbBlockBegin
2
DimnDraft3D5
70
0
10
0
20
0
30
0
3
DimnDraft3D5
0
MTEXT
5
23A
100
AcDbEntity
8
SK2
62
256
6
ByLayer
370
18
48
1
60
0
100
AcDbMText
10
120.874099
20
-23.246654
30
0
210
0
220
0
230
1
1
\W0.7959;49%%d41'
40
3
41
0
44
1.084337
50
24.8379035056817
71
7
72
5
7
iso_b_vert
0
LINE
5
23B
100
AcDbEntity
8
SK2
62
256
6
ByLayer
370
13
48
1
60
0
100
AcDbLine
10
104.645163
20
-9.681958
30
0
11
95.875168
21
-17.121692
31
0
39
0
210
0
220
0
230
1
0
LINE
5
23C
100
AcDbEntity
8
SK2
62
256
6
ByLayer
370
13
48
1
60
0
100
AcDbLine
10
115.436444
20
-2.527534
30
0
11
115.436444
21
-26.179232
31
0
39
0
210
0
220
0
230
1
0
ARC
5
23D
100
AcDbEntity
8
SK2
62
256
6
ByLayer
370
13
48
1
60
0
100
AcDbCircle
39
0
10
115.436444
20
-0.527534
30
0
40
23.6516975984839
210
0
220
0
230
1
100
AcDbArc
50
270
51
307.603388
0
ARC
5
23E
100
AcDbEntity
8
SK2
62
256
6
ByLayer
370
13
48
1
60
0
100
AcDbCircle
39
0
10
115.436444
20
-0.527534
30
0
40
23.6516975984839
210
0
220
0
230
1
100
AcDbArc
50
220.3085
51
270
0
LINE
5
23F
100
AcDbEntity
8
SK2
62
256
6
ByLayer
370
13
48
1
60
0
100
AcDbLine
10
97.400313
20
-15.827886
30
0
11
99.843707
21
-17.897949
31
0
39
0
210
0
220
0
230
1
0
LINE
5
240
100
AcDbEntity
8
SK2
62
256
6
ByLayer
370
13
48
1
60
0
100
AcDbLine
10
97.400313
20
-15.827886
30
0
11
99.224681
21
-18.459813
31
0
39
0
210
0
220
0
230
1
0
LINE
5
241
100
AcDbEntity
8
SK2
62
256
6
ByLayer
370
13
48
1
60
0
100
AcDbLine
10
99.843707
20
-17.897949
30
0
11
99.224681
21
-18.459813
31
0
39
0
210
0
220
0
230
1
0
LINE
5
242
100
AcDbEntity
8
SK2
62
256
6
ByLayer
370
13
48
1
60
0
100
AcDbLine
10
115.436444
20
-24.179232
30
0
11
112.249224
21
-24.49062
31
0
39
0
210
0
220
0
230
1
0
LINE
5
243
100
AcDbEntity
8
SK2
62
256
6
ByLayer
370
13
48
1
60
0
100
AcDbLine
10
115.436444
20
-24.179232
30
0
11
112.277229
21
-23.655096
31
0
39
0
210
0
220
0
230
1
0
LINE
5
244
100
AcDbEntity
8
SK2
62
256
6
ByLayer
370
13
48
1
60
0
100
AcDbLine
10
112.249224
20
-24.49062
30
0
11
112.277229
21
-23.655096
31
0
39
0
210
0
220
0
230
1
0
ENDBLK
5
246
100
AcDbEntity
8
0
100
AcDbBlockEnd
0
BLOCK
5
253
100
AcDbEntity
8
0
100
AcDbBlockBegin
2
DimnDraft3D6
70
0
10
0
20
0
30
0
3
DimnDraft3D6
0
MTEXT
5
249
100
AcDbEntity
8
2
62
256
6
ByLayer
370
18
48
1
60
0
100
AcDbMText
10
129.714725
20
4.400413
30
0
210
0
220
0
230
1
1
\W0.6912;0.5
40
3
41
0
44
1.084337
50
90
71
7
72
5
7
iso_b_vert
0
LINE
5
24A
100
AcDbEntity
8
2
62
256
6
ByLayer
370
13
48
1
60
0
100
AcDbLine
10
117.436444
20
0.527534
30
0
11
132.464725
21
0.527534
31
0
39
0
210
0
220
0
230
1
0
LINE
5
24B
100
AcDbEntity
8
2
62
256
6
ByLayer
370
13
48
1
60
0
100
AcDbLine
10
116.810493
20
-0.010312
30
0
11
132.464725
21
-0.010312
31
0
39
0
210
0
220
0
230
1
0
LINE
5
24C
100
AcDbEntity
8
2
62
256
6
ByLayer
370
13
48
1
60
0
100
AcDbLine
10
130.464725
20
-7.510312
30
0
11
130.464725
21
8.331991
31
0
39
0
210
0
220
0
230
1
0
LINE
5
24D
100
AcDbEntity
8
2
62
256
6
ByLayer
370
13
48
1
60
0
100
AcDbLine
10
130.464725
20
0.527534
30
0
11
130.046729
21
3.702533
31
0
39
0
210
0
220
0
230
1
0
LINE
5
24E
100
AcDbEntity
8
2
62
256
6
ByLayer
370
13
48
1
60
0
100
AcDbLine
10
130.464725
20
0.527534
30
0
11
130.882722
21
3.702536
31
0
39
0
210
0
220
0
230
1
0
LINE
5
24F
100
AcDbEntity
8
2
62
256
6
ByLayer
370
13
48
1
60
0
100
AcDbLine
10
130.046729
20
3.702533
30
0
11
130.882722
21
3.702536
31
0
39
0
210
0
220
0
230
1
0
LINE
5
250
100
AcDbEntity
8
2
62
256
6
ByLayer
370
13
48
1
60
0
100
AcDbLine
10
130.464725
20
-0.010312
30
0
11
130.882722
21
-3.18531
31
0
39
0
210
0
220
0
230
1
0
LINE
5
251
100
AcDbEntity
8
2
62
256
6
ByLayer
370
13
48
1
60
0
100
AcDbLine
10
130.464725
20
-0.010312
30
0
11
130.046729
21
-3.185313
31
0
39
0
210
0
220
0
230
1
0
LINE
5
252
100
AcDbEntity
8
2
62
256
6
ByLayer
370
13
48
1
60
0
100
AcDbLine
10
130.882722
20
-3.18531
30
0
11
130.046729
21
-3.185313
31
0
39
0
210
0
220
0
230
1
0
ENDBLK
5
254
100
AcDbEntity
8
0
100
AcDbBlockEnd
0
ENDSEC
0
SECTION
2
ENTITIES
0
ARC
5
FA
100
AcDbEntity
8
SK1
62
256
6
ByLayer
370
18
48
1
60
0
100
AcDbCircle
39
0
10
-0.6
20
-18.75
30
0
40
1
210
0
220
0
230
1
100
AcDbArc
50
53.130944
51
66.422663
0
ARC
5
FB
100
AcDbEntity
8
SK1
62
256
6
ByLayer
370
18
48
1
60
0
100
AcDbCircle
39
0
10
-0.6
20
18.75
30
0
40
1
210
0
220
0
230
1
100
AcDbArc
50
293.578178
51
306.869898
0
ELLIPSE
5
FC
100
AcDbEntity
8
1
62
256
6
ByLayer
370
18
48
1
60
0
100
AcDbEllipse
10
92.899539
20
3.582221
30
0
11
0.0022883337179076
21
-0.424993839400326
31
0
210
0
220
0
230
1
40
0.989133
41
-0.00427227623834701
42
0.713964174208271
0
ELLIPSE
5
FD
100
AcDbEntity
8
1
62
256
6
ByLayer
370
18
48
1
60
0
100
AcDbEllipse
10
104.091671
20
6.199567
30
0
11
0.00641069959525108
21
-1.19060774126101
31
0
210
0
220
0
230
1
40
0.989133
41
-3.14159265348568
42
-2.66279249928215
0
ELLIPSE
5
FE
100
AcDbEntity
8
1
62
256
6
ByLayer
370
18
48
1
60
0
100
AcDbEllipse
10
105.66544
20
-7.779888
30
0
11
0.00427514611412447
21
-0.793988490563598
31
0
210
0
220
0
230
1
40
0.989133
41
0
42
0.692756630833771
0
ELLIPSE
5
FF
100
AcDbEntity
8
1
62
256
6
ByLayer
370
18
48
1
60
0
100
AcDbEllipse
10
104.964634
20
6.722025
30
0
11
0.00427514610340705
21
-0.793988490565932
31
0
210
0
220
0
230
1
40
0.989133
41
3.14159265332727
42
-2.4488360227437
0
ELLIPSE
5
100
100
AcDbEntity
8
1
62
256
6
ByLayer
370
18
48
1
60
0
100
AcDbEllipse
10
102.276829
20
9.516355
30
0
11
-0.21039472510058
21
-0.813870045075078
31
0
210
0
220
0
230
1
40
0.984808
41
2.66786962912262
42
-2.67671618101245
0
ELLIPSE
5
101
100
AcDbEntity
8
1
62
256
6
ByLayer
370
18
48
1
60
0
100
AcDbEllipse
10
112.327192
20
0.982582
30
0
11
-0.297994015814469
21
-1.1527304356013
31
0
210
0
220
0
230
1
40
0.984808
41
1.93613903762335
42
2.66786962909313
0
ELLIPSE
5
102
100
AcDbEntity
8
1
62
256
6
ByLayer
370
18
48
1
60
0
100
AcDbEllipse
10
93.501242
20
0.990707
30
0
11
0.00228833375642692
21
-0.424993839400745
31
0
210
0
220
0
230
1
40
0.989133
41
3.14159265358979
42
-1.38043092827499
0
ELLIPSE
5
103
100
AcDbEntity
8
1
62
256
6
ByLayer
370
18
48
1
60
0
100
AcDbEllipse
10
104.965616
20
-7.783656
30
0
11
0.00427514600505784
21
-0.793988490543124
31
0
210
0
220
0
230
1
40
0.989133
41
-0.703506770623119
42
-1.40132345074151E-10
0
ELLIPSE
5
104
100
AcDbEntity
8
1
62
256
6
ByLayer
370
18
48
1
60
0
100
AcDbEllipse
10
89.504092
20
5.03791
30
0
11
-5.41826930493707
21
0.944646894062708
31
0
210
0
220
0
230
1
40
0.026308
41
-1.16928442271856
42
-0.7275166835171
0
ELLIPSE
5
105
100
AcDbEntity
8
1
62
256
6
ByLayer
370
18
48
1
60
0
100
AcDbEllipse
10
88.61128
20
-0.083044
30
0
11
-5.4182693035167
21
0.944646893787709
31
0
210
0
220
0
230
1
40
0.026308
41
-1.16928442285441
42
-0.727516683564297
0
ELLIPSE
5
106
100
AcDbEntity
8
1
62
256
6
ByLayer
370
18
48
1
60
0
100
AcDbEllipse
10
92.626354
20
2.015295
30
0
11
0.0123839238702311
21
-2.29996666028653
31
0
210
0
220
0
230
1
40
0.989133
41
0
42
6.28318530717959
0
ELLIPSE
5
107
100
AcDbEntity
8
1
62
256
6
ByLayer
370
18
48
1
60
0
100
AcDbEllipse
10
103.077507
20
9.30937
30
0
11
-0.297994016780178
21
-1.15273043548006
31
0
210
0
220
0
230
1
40
0.984808
41
2.66786962991693
42
-3.14159265280958
0
ELLIPSE
5
108
100
AcDbEntity
8
1
62
256
6
ByLayer
370
18
48
1
60
0
100
AcDbEllipse
10
113.147508
20
0.77606
30
0
11
-0.198725248257333
21
-0.768729000176344
31
0
210
0
220
0
230
1
40
0.984808
41
1.78817190968292
42
2.66786962925316
0
ELLIPSE
5
109
100
AcDbEntity
8
1
62
256
6
ByLayer
370
18
48
1
60
0
100
AcDbEllipse
10
93.832041
20
0.992488
30
0
11
0.00228833347645703
21
-0.424993839385054
31
0
210
0
220
0
230
1
40
0.989133
41
-3.14159265293385
42
-2.44993881515179
0
ELLIPSE
5
10A
100
AcDbEntity
8
1
62
256
6
ByLayer
370
18
48
1
60
0
100
AcDbEllipse
10
105.664949
20
-0.527048
30
0
11
0.0138915319935248
21
-2.57996260153883
31
0
210
0
220
0
230
1
40
0.989133
41
0.0546893337441174
42
2.72072164337361
0
ELLIPSE
5
10B
100
AcDbEntity
8
1
62
256
6
ByLayer
370
18
48
1
60
0
100
AcDbEllipse
10
92.498917
20
2.014609
30
0
11
0.0215372589040002
21
-3.99994201788962
31
0
210
0
220
0
230
1
40
0.989133
41
0
42
2.96168465870872
0
ELLIPSE
5
10C
100
AcDbEntity
8
1
62
256
6
ByLayer
370
18
48
1
60
0
100
AcDbEllipse
10
92.498917
20
2.014609
30
0
11
0.0215372589038616
21
-3.99994201788962
31
0
210
0
220
0
230
1
40
0.989133
41
3.14159265358979
42
-2.24484073350127E-16
0
ELLIPSE
5
10D
100
AcDbEntity
8
1
62
256
6
ByLayer
370
18
48
1
60
0
100
AcDbEllipse
10
104.092583
20
-7.2706
30
0
11
0.00641069987243647
21
-1.19060774124631
31
0
210
0
220
0
230
1
40
0.989133
41
-0.489092444547779
42
-1.26084019237978E-10
0
ELLIPSE
5
10E
100
AcDbEntity
8
1
62
256
6
ByLayer
370
18
48
1
60
0
100
AcDbEllipse
10
93.832041
20
0.992488
30
0
11
0.00228833365558973
21
-0.424993839396425
31
0
210
0
220
0
230
1
40
0.989133
41
-2.0986673784871
42
-1.38043092803309
0
ELLIPSE
5
10F
100
AcDbEntity
8
1
62
256
6
ByLayer
370
18
48
1
60
0
100
AcDbEllipse
10
102.335671
20
9.501143
30
0
11
-0.297994016560624
21
-1.15273043550358
31
0
210
0
220
0
230
1
40
0.984808
41
2.6678696297297
42
-3.14159265299016
0
ELLIPSE
5
110
100
AcDbEntity
8
1
62
256
6
ByLayer
370
18
48
1
60
0
100
AcDbEllipse
10
93.051005
20
0.83596
30
0
11
0.00204603955656557
21
-0.379994491701466
31
0
210
0
220
0
230
1
40
0.989133
41
-1.07378016377012
42
1.02420858465526E-10
0
ELLIPSE
5
111
100
AcDbEntity
8
1
62
256
6
ByLayer
370
18
48
1
60
0
100
AcDbEllipse
10
92.819486
20
1.88457
30
0
11
-0.0566755985541827
21
-4.1496129791257
31
0
210
0
220
0
230
1
40
0.986458
41
0.0602933460819458
42
2.98049520454284
0
ELLIPSE
5
112
100
AcDbEntity
8
1
62
256
6
ByLayer
370
18
48
1
60
0
100
AcDbEllipse
10
87.47122
20
8.527608
30
0
11
-0.0409702086187193
21
-2.99972020077333
31
0
210
0
220
0
230
1
40
0.986458
41
-0.161097483705873
42
-0.0623569841735475
0
ELLIPSE
5
113
100
AcDbEntity
8
1
62
256
6
ByLayer
370
18
48
1
60
0
100
AcDbEllipse
10
93.774427
20
2.557633
30
0
11
0.00228833375105127
21
-0.424993839401037
31
0
210
0
220
0
230
1
40
0.989133
41
-2.12097771505369
42
-0.333233377066498
0
ELLIPSE
5
114
100
AcDbEntity
8
1
62
256
6
ByLayer
370
18
48
1
60
0
100
AcDbEllipse
10
92.141182
20
2.012683
30
0
11
0.0215372589045437
21
-3.99994201788961
31
0
210
0
220
0
230
1
40
0.989133
41
3.14159265358979
42
-2.24484073350128E-16
0
ELLIPSE
5
115
100
AcDbEntity
8
1
62
256
6
ByLayer
370
18
48
1
60
0
100
AcDbEllipse
10
92.295555
20
2.013514
30
0
11
0.00619195942085052
21
-1.14998332990426
31
0
210
0
220
0
230
1
40
0.989133
41
-3.14159265142906
42
-2.73503559809347
0
ELLIPSE
5
116
100
AcDbEntity
8
1
62
256
6
ByLayer
370
18
48
1
60
0
100
AcDbEllipse
10
92.295555
20
2.013514
30
0
11
0.00619196193419734
21
-1.14998333014327
31
0
210
0
220
0
230
1
40
0.989133
41
0.0880226283067132
42
3.14159265358979
0
ELLIPSE
5
117
100
AcDbEntity
8
1
62
256
6
ByLayer
370
18
48
1
60
0
100
AcDbEllipse
10
92.170586
20
2.012841
30
0
11
0.00619196193473251
21
-1.14998333014326
31
0
210
0
220
0
230
1
40
0.989133
41
0.153758263639172
42
2.96168465870886
0
ELLIPSE
5
118
100
AcDbEntity
8
1
62
256
6
ByLayer
370
18
48
1
60
0
100
AcDbEllipse
10
85.512723
20
-1.119696
30
0
11
0.759894453379896
21
-1.85001632958253
31
0
210
0
220
0
230
1
40
0.769321
41
-2.03821325225946
42
-0.625537757999768
0
ELLIPSE
5
119
100
AcDbEntity
8
1
62
256
6
ByLayer
370
18
48
1
60
0
100
AcDbEllipse
10
91.147482
20
1.471177
30
0
11
0.00228833396045353
21
-0.424993839410043
31
0
210
0
220
0
230
1
40
0.989133
41
1.02061493805111
42
1.73885138847939
0
ELLIPSE
5
11A
100
AcDbEntity
8
1
62
256
6
ByLayer
370
18
48
1
60
0
100
AcDbEllipse
10
93.848872
20
1.797306
30
0
11
0.0020460395965243
21
-0.379994491699508
31
0
210
0
220
0
230
1
40
0.989133
41
0
42
2.80835927650457
0
ELLIPSE
5
11B
100
AcDbEntity
8
1
62
256
6
ByLayer
370
18
48
1
60
0
100
AcDbEllipse
10
93.518073
20
1.795525
30
0
11
0.00204603959454816
21
-0.379994491699508
31
0
210
0
220
0
230
1
40
0.989133
41
0.0386917264487568
42
2.80835927650993
0
ELLIPSE
5
11C
100
AcDbEntity
8
1
62
256
6
ByLayer
370
18
48
1
60
0
100
AcDbEllipse
10
92.201703
20
3.19463
30
0
11
0.00204603971995981
21
-0.379994491694186
31
0
210
0
220
0
230
1
40
0.989133
41
2.06781248938418
42
3.14159265326749
0
ELLIPSE
5
11D
100
AcDbEntity
8
1
62
256
6
ByLayer
370
18
48
1
60
0
100
AcDbEllipse
10
105.66544
20
-7.779888
30
0
11
0.00427514553672806
21
-0.793988490573553
31
0
210
0
220
0
230
1
40
0.989133
41
-0.703506770026623
42
4.43058052143058E-10
0
ELLIPSE
5
11E
100
AcDbEntity
8
1
62
256
6
ByLayer
370
18
48
1
60
0
100
AcDbEllipse
10
105.664458
20
6.725793
30
0
11
0.00427514625709585
21
-0.79398849057223
31
0
210
0
220
0
230
1
40
0.989133
41
3.141592653136
42
-2.44883602293835
0
ELLIPSE
5
11F
100
AcDbEntity
8
1
62
256
6
ByLayer
370
18
48
1
60
0
100
AcDbEllipse
10
92.353169
20
0.44837
30
0
11
0.00228833389726188
21
-0.424993839395292
31
0
210
0
220
0
230
1
40
0.989133
41
2.06781248938528
42
2.7860489398361
0
ELLIPSE
5
120
100
AcDbEntity
8
1
62
256
6
ByLayer
370
18
48
1
60
0
100
AcDbEllipse
10
94.105226
20
2.559414
30
0
11
0.00228833363974191
21
-0.424993839405465
31
0
210
0
220
0
230
1
40
0.989133
41
-1.05146982724741
42
-0.333233376806187
0
ELLIPSE
5
121
100
AcDbEntity
8
1
62
256
6
ByLayer
370
18
48
1
60
0
100
AcDbEllipse
10
94.105226
20
2.559414
30
0
11
0.00228833374095615
21
-0.424993839399399
31
0
210
0
220
0
230
1
40
0.989133
41
-2.12097771503208
42
-1.40274126458376
0
ELLIPSE
5
122
100
AcDbEntity
8
1
62
256
6
ByLayer
370
18
48
1
60
0
100
AcDbEllipse
10
93.424221
20
2.976641
30
0
11
0.00204603959381179
21
-0.379994491699586
31
0
210
0
220
0
230
1
40
0.989133
41
1.0206149385235
42
3.14159265358979
0
ELLIPSE
5
123
100
AcDbEntity
8
1
62
256
6
ByLayer
370
18
48
1
60
0
100
AcDbEllipse
10
92.899539
20
3.582221
30
0
11
0.00228833345360046
21
-0.424993839411679
31
0
210
0
220
0
230
1
40
0.989133
41
-1.07378016315351
42
-0.355543712718587
0
ELLIPSE
5
124
100
AcDbEntity
8
1
62
256
6
ByLayer
370
18
48
1
60
0
100
AcDbEllipse
10
91.420667
20
3.038103
30
0
11
0.00228833410221535
21
-0.424993839419269
31
0
210
0
220
0
230
1
40
0.989133
41
0
42
0.691653836950227
0
ELLIPSE
5
125
100
AcDbEntity
8
1
62
256
6
ByLayer
370
18
48
1
60
0
100
AcDbEllipse
10
91.147482
20
1.471177
30
0
11
0.00228833393865655
21
-0.424993839393482
31
0
210
0
220
0
230
1
40
0.989133
41
2.09012282563309
42
2.80835927608569
0
ELLIPSE
5
126
100
AcDbEntity
8
1
62
256
6
ByLayer
370
18
48
1
60
0
100
AcDbEllipse
10
91.828487
20
1.05395
30
0
11
0.00204603959688498
21
-0.379994491699486
31
0
210
0
220
0
230
1
40
0.989133
41
-2.12097771507463
42
0
0
ELLIPSE
5
127
100
AcDbEntity
8
1
62
256
6
ByLayer
370
18
48
1
60
0
100
AcDbEllipse
10
91.403836
20
2.233285
30
0
11
0.00204603959599918
21
-0.379994491699518
31
0
210
0
220
0
230
1
40
0.989133
41
3.14159265358979
42
-0.333233377083879
0
ELLIPSE
5
128
100
AcDbEntity
8
1
62
256
6
ByLayer
370
18
48
1
60
0
100
AcDbEllipse
10
91.420667
20
3.038103
30
0
11
0.00228833369829354
21
-0.424993839399319
31
0
210
0
220
0
230
1
40
0.989133
41
1.04292527500533
42
1.76116172545385
0
ELLIPSE
5
129
100
AcDbEntity
8
1
62
256
6
ByLayer
370
18
48
1
60
0
100
AcDbEllipse
10
92.295555
20
2.013514
30
0
11
0.00619196233221253
21
-1.14998333015892
31
0
210
0
220
0
230
1
40
0.989133
41
-2.12405722740245
42
-1.51564188803501
0
ELLIPSE
5
12A
100
AcDbEntity
8
1
62
256
6
ByLayer
370
18
48
1
60
0
100
AcDbEllipse
10
114.215079
20
0.50008
30
0
11
-0.198725248148968
21
-0.768729000199846
31
0
210
0
220
0
230
1
40
0.984808
41
1.12112869078958
42
2.66786962911554
0
ELLIPSE
5
12B
100
AcDbEntity
8
1
62
256
6
ByLayer
370
18
48
1
60
0
100
AcDbEllipse
10
90.750396
20
2.254517
30
0
11
-0.0355076035013998
21
-2.59975752912852
31
0
210
0
220
0
230
1
40
0.986458
41
-1.93619088236763
42
-1.52066231033719
0
ELLIPSE
5
12C
100
AcDbEntity
8
1
62
256
6
ByLayer
370
18
48
1
60
0
100
AcDbEllipse
10
92.02237
20
0.446588
30
0
11
0.00228833382765534
21
-0.424993839405576
31
0
210
0
220
0
230
1
40
0.989133
41
3.14159265342905
42
-2.42762847964205
0
ELLIPSE
5
12D
100
AcDbEntity
8
1
62
256
6
ByLayer
370
18
48
1
60
0
100
AcDbEllipse
10
92.56874
20
3.58044
30
0
11
0.00228833379678959
21
-0.424993839398801
31
0
210
0
220
0
230
1
40
0.989133
41
-1.07378016396675
42
0
0
ELLIPSE
5
12E
100
AcDbEntity
8
1
62
256
6
ByLayer
370
18
48
1
60
0
100
AcDbEllipse
10
92.353169
20
0.44837
30
0
11
0.002288333913293
21
-0.424993839409079
31
0
210
0
220
0
230
1
40
0.989133
41
3.13732037689736
42
-2.42762847984479
0
ELLIPSE
5
12F
100
AcDbEntity
8
1
62
256
6
ByLayer
370
18
48
1
60
0
100
AcDbEllipse
10
114.214622
20
-0.527473
30
0
11
0.00427514589076703
21
-0.793988490551093
31
0
210
0
220
0
230
1
40
0.989133
41
0.692756631118215
42
2.43808588311257
0
ELLIPSE
5
130
100
AcDbEntity
8
1
62
256
6
ByLayer
370
18
48
1
60
0
100
AcDbEllipse
10
86.957198
20
7.165471
30
0
11
-1.2558596437216
21
-1.55653993050931
31
0
210
0
220
0
230
1
40
0.786173
41
-2.58812058672345
42
-1.17544509246358
0
ELLIPSE
5
131
100
AcDbEntity
8
1
62
256
6
ByLayer
370
18
48
1
60
0
100
AcDbEllipse
10
102.335671
20
9.501143
30
0
11
-0.297994015935586
21
-1.15273043555856
31
0
210
0
220
0
230
1
40
0.984808
41
3.14159265358979
42
-2.6553845893809
0
ELLIPSE
5
132
100
AcDbEntity
8
1
62
256
6
ByLayer
370
18
48
1
60
0
100
AcDbEllipse
10
68.5
20
-13.589279
30
0
11
-3.00749999999999
21
1.70389865953614E-15
31
0
210
0
220
0
230
1
40
0.920505
41
0
42
3.14159265358979
0
ELLIPSE
5
133
100
AcDbEntity
8
1
62
256
6
ByLayer
370
18
48
1
60
0
100
AcDbEllipse
10
68.5
20
-13.589279
30
0
11
-2.5
21
1.41637461308075E-15
31
0
210
0
220
0
230
1
40
0.920505
41
0
42
6.28318530717959
0
ELLIPSE
5
134
100
AcDbEntity
8
1
62
256
6
ByLayer
370
18
48
1
60
0
100
AcDbEllipse
10
91.828487
20
1.05395
30
0
11
0.00204603977492914
21
-0.379994491706845
31
0
210
0
220
0
230
1
40
0.989133
41
0
42
0.713964173639089
0
ELLIPSE
5
135
100
AcDbEntity
8
1
62
256
6
ByLayer
370
18
48
1
60
0
100
AcDbEllipse
10
92.295555
20
2.013514
30
0
11
0.00619196176463933
21
-1.14998333015176
31
0
210
0
220
0
230
1
40
0.989133
41
-0.799179225028559
42
-0.179907994734141
0
ELLIPSE
5
136
100
AcDbEntity
8
1
62
256
6
ByLayer
370
18
48
1
60
0
100
AcDbEllipse
10
93.051005
20
0.83596
30
0
11
0.00204603960982089
21
-0.379994491699748
31
0
210
0
220
0
230
1
40
0.989133
41
0
42
1.76116172527243
0
ELLIPSE
5
137
100
AcDbEntity
8
1
62
256
6
ByLayer
370
18
48
1
60
0
100
AcDbEllipse
10
92.720206
20
0.834179
30
0
11
0.00204603957862875
21
-0.379994491699204
31
0
210
0
220
0
230
1
40
0.989133
41
0.455654763579391
42
1.76116172535578
0
ELLIPSE
5
138
100
AcDbEntity
8
1
62
256
6
ByLayer
370
18
48
1
60
0
100
AcDbEllipse
10
93.424221
20
2.976641
30
0
11
0.00204603952381225
21
-0.379994491693679
31
0
210
0
220
0
230
1
40
0.989133
41
-3.14159265340202
42
-2.42762847928304
0
ELLIPSE
5
139
100
AcDbEntity
8
1
62
256
6
ByLayer
370
18
48
1
60
0
100
AcDbEllipse
10
92.201703
20
3.19463
30
0
11
0.00204603958972953
21
-0.379994491699389
31
0
210
0
220
0
230
1
40
0.989133
41
3.14159265358979
42
-1.38043092826362
0
ELLIPSE
5
13A
100
AcDbEntity
8
1
62
256
6
ByLayer
370
18
48
1
60
0
100
AcDbEllipse
10
93.093422
20
2.97486
30
0
11
0.00204603959637572
21
-0.379994491699495
31
0
210
0
220
0
230
1
40
0.989133
41
1.02061493851662
42
2.68593789003723
0
ELLIPSE
5
13B
100
AcDbEntity
8
1
62
256
6
ByLayer
370
18
48
1
60
0
100
AcDbEllipse
10
92.498917
20
2.014609
30
0
11
0.0215372746772647
21
-3.99994201323185
31
0
210
0
220
0
230
1
40
0.989133
41
2.96168465469898
42
3.14159264968331
0
ELLIPSE
5
13C
100
AcDbEntity
8
1
62
256
6
ByLayer
370
18
48
1
60
0
100
AcDbEllipse
10
105.664458
20
6.725793
30
0
11
0.00427514606835181
21
-0.793988490538432
31
0
210
0
220
0
230
1
40
0.989133
41
2.4380858828858
42
3.14159265337082
0
ELLIPSE
5
13D
100
AcDbEntity
8
1
62
256
6
ByLayer
370
18
48
1
60
0
100
AcDbEllipse
10
105.190013
20
8.092213
30
0
11
-0.298087872533997
21
-1.15309350026173
31
0
210
0
220
0
230
1
40
0.984808
41
2.66786962938026
42
-3.13535013350948
0
ELLIPSE
5
13E
100
AcDbEntity
8
1
62
256
6
ByLayer
370
18
48
1
60
0
100
AcDbEllipse
10
-1.056258
20
0
30
0
11
-11.7092723497284
21
-24.6771864409388
31
0
210
0
220
0
230
1
40
0.341999
41
2.05975995310056
42
2.97437958168082
0
ELLIPSE
5
13F
100
AcDbEntity
8
1
62
256
6
ByLayer
370
18
48
1
60
0
100
AcDbEllipse
10
21.056258
20
0
30
0
11
11.7092723497278
21
-24.6771864409383
31
0
210
0
220
0
230
1
40
0.341999
41
-2.97437958168082
42
-2.05975995310054
0
ELLIPSE
5
140
100
AcDbEntity
8
1
62
256
6
ByLayer
370
18
48
1
60
0
100
AcDbEllipse
10
88.032504
20
-1.409023
30
0
11
-3.80561702281917
21
-2.06671620777344
31
0
210
0
220
0
230
1
40
0.511928
41
0.210356778019442
42
0.5699725113684
0
ELLIPSE
5
141
100
AcDbEntity
8
1
62
256
6
ByLayer
370
18
48
1
60
0
100
AcDbEllipse
10
-1.056258
20
0
30
0
11
-11.7092723497278
21
-24.677186440938
31
0
210
0
220
0
230
1
40
0.341999
41
2.05975995310054
42
2.97437958168082
0
ELLIPSE
5
142
100
AcDbEntity
8
1
62
256
6
ByLayer
370
18
48
1
60
0
100
AcDbEllipse
10
89.881071
20
7.200174
30
0
11
-5.38373588169734
21
1.14177270079971
31
0
210
0
220
0
230
1
40
0.211141
41
0.561844122859276
42
0.614836432085895
0
ELLIPSE
5
143
100
AcDbEntity
8
1
62
256
6
ByLayer
370
18
48
1
60
0
100
AcDbEllipse
10
106.208311
20
-0.543806
30
0
11
0.650051343223356
21
-2.13758275149113
31
0
210
0
220
0
230
1
40
0.792227
41
1.15887481536083
42
2.01408614883883
0
ELLIPSE
5
144
100
AcDbEntity
8
1
62
256
6
ByLayer
370
18
48
1
60
0
100
AcDbEllipse
10
90.306201
20
9.04331
30
0
11
-3.40987764172227
21
0.815036960637249
31
0
210
0
220
0
230
1
40
0.346072
41
-0.0945801927157484
42
0.628637913679464
0
ELLIPSE
5
145
100
AcDbEntity
8
1
62
256
6
ByLayer
370
18
48
1
60
0
100
AcDbEllipse
10
88.016944
20
-4.087324
30
0
11
-3.48588441419703
21
0.37695590360894
31
0
210
0
220
0
230
1
40
0.398448
41
-0.633039663226281
42
0.0901784431757635
0
ELLIPSE
5
146
100
AcDbEntity
8
1
62
256
6
ByLayer
370
18
48
1
60
0
100
AcDbEllipse
10
21.056258
20
0
30
0
11
11.7092723497282
21
-24.6771864409388
31
0
210
0
220
0
230
1
40
0.341999
41
-2.97437958168082
42
-2.05975995310056
0
ELLIPSE
5
147
100
AcDbEntity
8
1
62
256
6
ByLayer
370
18
48
1
60
0
100
AcDbEllipse
10
80.623482
20
-5.196536
30
0
11
-5.50650127237468
21
1.00466993660598
31
0
210
0
220
0
230
1
40
0.714359
41
2.45752043904183
42
-3.13598006217433
0
ELLIPSE
5
148
100
AcDbEntity
8
1
62
256
6
ByLayer
370
18
48
1
60
0
100
AcDbEllipse
10
71.650947
20
0
30
0
11
-0.00178168981322512
21
-34.9999999989987
31
0
210
0
220
0
230
1
40
0.148637
41
1.10794082855128
42
2.03366035254088
0
ELLIPSE
5
149
100
AcDbEntity
8
1
62
256
6
ByLayer
370
18
48
1
60
0
100
AcDbEllipse
10
89.474738
20
6.863288
30
0
11
-3.06717989721656
21
2.78949367936706
31
0
210
0
220
0
230
1
40
0.485046
41
-0.656793597949238
42
-0.55751276497138
0
ELLIPSE
5
14A
100
AcDbEntity
8
1
62
256
6
ByLayer
370
18
48
1
60
0
100
AcDbEllipse
10
21.056258
20
0
30
0
11
-11.7092723497281
21
-24.6771864409387
31
0
210
0
220
0
230
1
40
0.341999
41
-1.08183270048924
42
-0.167213071908965
0
ELLIPSE
5
14B
100
AcDbEntity
8
1
62
256
6
ByLayer
370
18
48
1
60
0
100
AcDbEllipse
10
88.234302
20
-2.245307
30
0
11
-5.45330190942592
21
0.742157528028271
31
0
210
0
220
0
230
1
40
0.263682
41
-0.617005682548343
42
-0.564013381125298
0
ELLIPSE
5
14C
100
AcDbEntity
8
1
62
256
6
ByLayer
370
18
48
1
60
0
100
AcDbEllipse
10
106.208311
20
-0.543806
30
0
11
-1.03815480509097
21
-2.03943010547455
31
0
210
0
220
0
230
1
40
0.799543
41
0.926857899120277
42
1.78206923259749
0
ELLIPSE
5
14D
100
AcDbEntity
8
1
62
256
6
ByLayer
370
18
48
1
60
0
100
AcDbEllipse
10
84.929466
20
-1.170028
30
0
11
0.890013880856388
21
-2.86695230821403
31
0
210
0
220
0
230
1
40
0.995285
41
-2.04633333154633
42
-0.994644268481816
0
ELLIPSE
5
14E
100
AcDbEntity
8
1
62
256
6
ByLayer
370
18
48
1
60
0
100
AcDbEllipse
10
89.474738
20
6.863288
30
0
11
-3.06717992763799
21
2.78949373623989
31
0
210
0
220
0
230
1
40
0.485046
41
-0.557512758771823
42
-0.297177857500241
0
ELLIPSE
5
14F
100
AcDbEntity
8
1
62
256
6
ByLayer
370
18
48
1
60
0
100
AcDbEllipse
10
86.3717
20
7.102283
30
0
11
0.890013880803544
21
-2.86695230823031
31
0
210
0
220
0
230
1
40
0.995285
41
-3.09802239459214
42
-2.0463333315277
0
ELLIPSE
5
150
100
AcDbEntity
8
1
62
256
6
ByLayer
370
18
48
1
60
0
100
AcDbEllipse
10
21.056258
20
0
30
0
11
-11.7092723497265
21
-24.6771864409366
31
0
210
0
220
0
230
1
40
0.341999
41
-1.08183270048931
42
-0.167213071908985
0
ELLIPSE
5
151
100
AcDbEntity
8
1
62
256
6
ByLayer
370
18
48
1
60
0
100
AcDbEllipse
10
83.713984
20
12.529844
30
0
11
-5.50650127234863
21
1.00466993660066
31
0
210
0
220
0
230
1
40
0.714359
41
-3.13598006217438
42
-2.51872561456389
0
ELLIPSE
5
152
100
AcDbEntity
8
1
62
256
6
ByLayer
370
18
48
1
60
0
100
AcDbEllipse
10
-1.056258
20
0
30
0
11
11.709272349728
21
-24.6771864409384
31
0
210
0
220
0
230
1
40
0.341999
41
0.167213071908973
42
1.08183270048925
0
ELLIPSE
5
153
100
AcDbEntity
8
1
62
256
6
ByLayer
370
18
48
1
60
0
100
AcDbEllipse
10
-1.056258
20
0
30
0
11
11.7092723497278
21
-24.6771864409381
31
0
210
0
220
0
230
1
40
0.341999
41
0.167213071908974
42
1.08183270048925
0
POINT
5
6C
100
AcDbEntity
8
80
62
256
6
ByLayer
370
18
48
1
60
0
100
AcDbPoint
10
0
20
0
30
0
39
0
210
0
220
0
230
1
50
360
0
POINT
5
6E
100
AcDbEntity
8
81
62
256
6
ByLayer
370
18
48
1
60
0
100
AcDbPoint
10
115.436444
20
-0.527534
30
0
39
0
210
0
220
0
230
1
50
360
0
POINT
5
70
100
AcDbEntity
8
1
62
256
6
ByLayer
370
18
48
1
60
0
100
AcDbPoint
10
115.436444
20
0.527534
30
0
39
0
210
0
220
0
230
1
50
360
0
SPLINE
5
154
100
AcDbEntity
8
1
62
256
6
ByLayer
370
18
48
1
60
0
100
AcDbSpline
70
4
71
3
72
19
73
15
40
0
40
0
40
0
40
0
40
0.100887001405219
40
0.2020804160029
40
0.303906078440373
40
0.407768028891367
40
0.520454629041139
40
0.643364751012663
40
0.724872140611936
40
0.785683642708363
40
0.83537220520664
40
0.889450173459103
40
0.94443292202557
40
1
40
1
40
1
40
1
41
1
10
80.0834359766625
20
-8.29411292060288
30
0
41
1
10
79.9604334828459
20
-8.16598868998391
30
0
41
1
10
79.7271715424459
20
-7.89455919552332
30
0
41
1
10
79.4139505281802
20
-7.43986262211861
30
0
41
1
10
79.1416637323738
20
-6.93943996829771
30
0
41
1
10
78.9010057777671
20
-6.38590042610472
30
0
41
1
10
78.7239553113974
20
-5.74579618443513
30
0
41
1
10
78.6250926490246
20
-5.12142586593404
30
0
41
1
10
78.5614287354188
20
-4.59403468211185
30
0
41
1
10
78.5372749848096
20
-4.20597398148335
30
0
41
1
10
78.5510392982298
20
-3.86944718947329
30
0
41
1
10
78.5675819334898
20
-3.54504244204858
30
0
41
1
10
78.6030560579034
20
-3.20840918199786
30
0
41
1
10
78.6368608058323
20
-2.98350494760032
30
0
41
1
10
78.6565834423167
20
-2.87064009921911
30
0
0
SPLINE
5
155
100
AcDbEntity
8
1
62
256
6
ByLayer
370
18
48
1
60
0
100
AcDbSpline
70
4
71
1
72
4
73
2
40
0
40
0
40
1
40
1
41
1
10
92.7309621592199
20
-4.2875671260613
30
0
41
1
10
92.1024657276676
20
-5.39321334236308
30
0
0
SPLINE
5
156
100
AcDbEntity
8
1
62
256
6
ByLayer
370
18
48
1
60
0
100
AcDbSpline
70
4
71
3
72
19
73
15
40
0
40
0
40
0
40
0
40
0.101356956348399
40
0.202814075967908
40
0.305120752948721
40
0.41020527190377
40
0.525075767117625
40
0.647716170743098
40
0.726330217393528
40
0.784812410734589
40
0.834831443738244
40
0.889198229478709
40
0.944311756543762
40
1
40
1
40
1
40
1
41
1
10
79.8928504146535
20
-8.16517270684635
30
0
41
1
10
79.7761469420104
20
-8.03563456158076
30
0
41
1
10
79.5553061342374
20
-7.76277862064415
30
0
41
1
10
79.259872082868
20
-7.30903933594396
30
0
41
1
10
79.0024349417864
20
-6.81233184705675
30
0
41
1
10
78.7771857062193
20
-6.25985988444045
30
0
41
1
10
78.6167679257493
20
-5.62604372450341
30
0
41
1
10
78.526398800877
20
-5.01993647503731
30
0
41
1
10
78.4680802026797
20
-4.51741311319505
30
0
41
1
10
78.4504265993203
20
-4.14914091697941
30
0
41
1
10
78.4644241486522
20
-3.82567645945422
30
0
41
1
10
78.4813850036355
20
-3.50900328586751
30
0
41
1
10
78.5166216376052
20
-3.18096895512254
30
0
41
1
10
78.5496595576482
20
-2.9620044003238
30
0
41
1
10
78.5688566627283
20
-2.85213282676095
30
0
0
SPLINE
5
157
100
AcDbEntity
8
1
62
256
6
ByLayer
370
18
48
1
60
0
100
AcDbSpline
70
4
71
1
72
4
73
2
40
0
40
0
40
1
40
1
41
1
10
102.477915654131
20
-4.77663783525477
30
0
41
1
10
104.32328615315
20
-4.00178153021625
30
0
0
SPLINE
5
158
100
AcDbEntity
8
SK1
62
256
6
ByLayer
370
18
48
1
60
0
100
AcDbSpline
70
4
71
2
72
6
73
3
40
0
40
0
40
0
40
1
40
1
40
1
41
1
10
-2.19904482312386
20
17.520122781987
30
0
41
1
10
-2.59952241156193
20
17.5100613910199
30
0
41
1
10
-3
20
17.5000000000527
30
0
0
SPLINE
5
159
100
AcDbEntity
8
1
62
256
6
ByLayer
370
18
48
1
60
0
100
AcDbSpline
70
4
71
3
72
10
73
6
40
0
40
0
40
0
40
0
40
0.319932238903569
40
0.65995423630991
40
1
40
1
40
1
40
1
41
1
10
79.7033381352261
20
-8.03007640060262
30
0
41
1
10
79.7233725999515
20
-8.0447345608351
30
0
41
1
10
79.7648156925101
20
-8.07480573335899
30
0
41
1
10
79.8279784842112
20
-8.11985512067903
30
0
41
1
10
79.8711838638521
20
-8.15012710817265
30
0
41
1
10
79.8928504133758
20
-8.1651727065768
30
0
0
SPLINE
5
15A
100
AcDbEntity
8
1
62
256
6
ByLayer
370
18
48
1
60
0
100
AcDbSpline
70
4
71
3
72
12
73
8
40
0
40
0
40
0
40
0
40
0.0777065243411894
40
0.182768991260506
40
0.355509705274325
40
0.661119206188192
40
1
40
1
40
1
40
1
41
1
10
11.4613248654052
20
-23.8391299750503
30
0
41
1
10
11.4811093857486
20
-23.8390510092635
30
0
41
1
10
11.526157507522
20
-23.8374170803539
30
0
41
1
10
11.609020665254
20
-23.8265956452496
30
0
41
1
10
11.7192097730177
20
-23.7967264721261
30
0
41
1
10
11.8218683998189
20
-23.7411879478121
30
0
41
1
10
11.875877712868
20
-23.6935586164053
30
0
41
1
10
11.8943375672974
20
-23.6665017920808
30
0
0
SPLINE
5
15B
100
AcDbEntity
8
SK1
62
256
6
ByLayer
370
18
48
1
60
0
100
AcDbSpline
70
4
71
3
72
13
73
9
40
0
40
0
40
0
40
0
40
0.239468143101076
40
0.368375717557484
40
0.500016413682626
40
0.631654380070984
40
0.760554427529335
40
1
40
1
40
1
40
1
41
1
10
-2
20
17.3251501409627
30
0
41
1
10
-2.02607195862894
20
17.3254032171873
30
0
41
1
10
-2.06363514911803
20
17.3325204701499
30
0
41
1
10
-2.11047805080219
20
17.3567460306058
30
0
41
1
10
-2.14242236455519
20
17.3827213492791
30
0
41
1
10
-2.16840047419731
20
17.4146623713531
30
0
41
1
10
-2.19262861856615
20
17.4615002450209
30
0
41
1
10
-2.19974657466873
20
17.4990601036782
30
0
41
1
10
-2.2
20
17.52512992499
30
0
0
SPLINE
5
15C
100
AcDbEntity
8
1
62
256
6
ByLayer
370
18
48
1
60
0
100
AcDbSpline
70
4
71
3
72
15
73
11
40
0
40
0
40
0
40
0
40
0.107744329443298
40
0.215491631157935
40
0.324136675684742
40
0.432783998240259
40
0.581492097357411
40
0.730322060579594
40
0.879046506854587
40
1
40
1
40
1
40
1
41
1
10
20
20
25.2088681924339
30
0
41
1
10
20.5094856396672
20
24.9936146204265
30
0
41
1
10
21.5411556062911
20
24.575119088031
30
0
41
1
10
23.1330644323102
20
23.9800203768001
30
0
41
1
10
24.7639305802267
20
23.423219077604
30
0
41
1
10
26.6351754578178
20
22.8439526568353
30
0
41
1
10
28.7524930649924
20
22.2684422530085
30
0
41
1
10
31.1206730544876
20
21.7258604890667
30
0
41
1
10
33.3740340495156
20
21.3046935695193
30
0
41
1
10
34.8395781843136
20
21.0870092370419
30
0
41
1
10
35.5
20
21.0000000000001
30
0
0
SPLINE
5
15D
100
AcDbEntity
8
1
62
256
6
ByLayer
370
18
48
1
60
0
100
AcDbSpline
70
4
71
3
72
12
73
8
40
0
40
0
40
0
40
0
40
0.0777065243411954
40
0.18276899126051
40
0.355509705274339
40
0.661119206188223
40
1
40
1
40
1
40
1
41
1
10
11.4613248654052
20
7.52966679426504
30
0
41
1
10
11.4811093857486
20
7.529924538954
30
0
41
1
10
11.526157507522
20
7.53508753718826
30
0
41
1
10
11.609020665254
20
7.56930040674389
30
0
41
1
10
11.7192097730177
20
7.66302821977544
30
0
41
1
10
11.8218683998189
20
7.83415197314233
30
0
41
1
10
11.875877712868
20
7.97612018956262
30
0
41
1
10
11.8943375672974
20
8.05584836782777
30
0
0
SPLINE
5
15E
100
AcDbEntity
8
1
62
256
6
ByLayer
370
18
48
1
60
0
100
AcDbSpline
70
4
71
3
72
13
73
9
40
0
40
0
40
0
40
0
40
0.204330994125536
40
0.400676228805532
40
0.597982045476153
40
0.798375109344018
40
0.899219237573994
40
1
40
1
40
1
40
1
41
1
10
99.9528464877996
20
-5.00494974851414
30
0
41
1
10
99.4268533829816
20
-5.12384494845929
30
0
41
1
10
98.3903263062835
20
-5.32155399405874
30
0
41
1
10
96.8263417024396
20
-5.52147848542415
30
0
41
1
10
95.2623155312767
20
-5.60183008618227
30
0
41
1
10
93.9488688233783
20
-5.5714700730277
30
0
41
1
10
92.8917224276413
20
-5.50290711563225
30
0
41
1
10
92.3650662067234
20
-5.43438279784913
30
0
41
1
10
92.1024657276676
20
-5.39321334236308
30
0
0
SPLINE
5
15F
100
AcDbEntity
8
SK1
62
256
6
ByLayer
370
18
48
1
60
0
100
AcDbSpline
70
4
71
3
72
17
73
13
40
0
40
0
40
0
40
0
40
0.465485506351372
40
0.669701843128609
40
0.77408435642114
40
0.856371664793534
40
0.897755153898637
40
0.917428272144485
40
0.93723777213198
40
0.955191624681792
40
0.984018190502029
40
1
40
1
40
1
40
1
41
1
10
-0.200000000000045
20
-5.8814239739334
30
0
41
1
10
-0.196064780878206
20
-5.75474600051126
30
0
41
1
10
-0.206716278472286
20
-5.57221313865738
30
0
41
1
10
-0.236369718937378
20
-5.35851195688532
30
0
41
1
10
-0.265123837646859
20
-5.25221197385764
30
0
41
1
10
-0.291115782477703
20
-5.1922034881848
30
0
41
1
10
-0.318091310485851
20
-5.15994791139134
30
0
41
1
10
-0.338430402128577
20
-5.14828626530387
30
0
41
1
10
-0.354699344248632
20
-5.14548380678128
30
0
41
1
10
-0.372899440263044
20
-5.14897430103636
30
0
41
1
10
-0.387749096358136
20
-5.15784519057126
30
0
41
1
10
-0.396918780971353
20
-5.16560053879502
30
0
41
1
10
-0.40000000000006
20
-5.16866679574497
30
0
0
SPLINE
5
160
100
AcDbEntity
8
1
62
256
6
ByLayer
370
18
48
1
60
0
100
AcDbSpline
70
4
71
2
72
6
73
3
40
0
40
0
40
0
40
1
40
1
40
1
41
1
10
104.527761432868
20
0.429409516370448
30
0
41
1
10
104.998879380074
20
-0.0033442765386127
30
0
41
1
10
105.471862711889
20
-0.387777049399659
30
0
0
SPLINE
5
161
100
AcDbEntity
8
SK1
62
256
6
ByLayer
370
18
48
1
60
0
100
AcDbSpline
70
4
71
2
72
6
73
3
40
0
40
0
40
0
40
1
40
1
40
1
41
1
10
-3
20
17.5000000000527
30
0
41
1
10
-15.7502365839532
20
17.1796696772132
30
0
41
1
10
-28.5004731679065
20
16.8593393543736
30
0
0
SPLINE
5
162
100
AcDbEntity
8
1
62
256
6
ByLayer
370
18
48
1
60
0
100
AcDbSpline
70
4
71
3
72
14
73
10
40
0
40
0
40
0
40
0
40
0.160358881527865
40
0.320619868274606
40
0.485251609247029
40
0.649816457427214
40
0.797514182329798
40
0.945225906727522
40
1
40
1
40
1
40
1
41
1
10
80.0834359763946
20
-8.29411292012659
30
0
41
1
10
80.2908422521874
20
-8.43125234049465
30
0
41
1
10
80.7209655461982
20
-8.66733482601425
30
0
41
1
10
81.4259839529864
20
-8.91810093487769
30
0
41
1
10
82.1698884487507
20
-9.03518572530824
30
0
41
1
10
82.9039336804071
20
-9.01337845247166
30
0
41
1
10
83.5943593293706
20
-8.85934266593222
30
0
41
1
10
84.0939234131278
20
-8.65493286268218
30
0
41
1
10
84.3651862985617
20
-8.50423461837686
30
0
41
1
10
84.4375017023909
20
-8.46102830973609
30
0
0
SPLINE
5
163
100
AcDbEntity
8
1
62
256
6
ByLayer
370
18
48
1
60
0
100
AcDbSpline
70
4
71
3
72
15
73
11
40
0
40
0
40
0
40
0
40
0.125
40
0.250000000000002
40
0.375
40
0.500000000000001
40
0.624999999999999
40
0.75
40
0.874999999999988
40
1
40
1
40
1
40
1
41
1
10
82.7129095565278
20
6.48382156363553
30
0
41
1
10
82.7584457777671
20
6.74500646919258
30
0
41
1
10
82.8182343877157
20
7.26222437275734
30
0
41
1
10
82.8129100858587
20
8.03584713565474
30
0
41
1
10
82.7160457247922
20
8.76751091550761
30
0
41
1
10
82.526772314385
20
9.42909153091745
30
0
41
1
10
82.2569425785527
20
9.99894848449391
30
0
41
1
10
81.9130954701197
20
10.4493908720026
30
0
41
1
10
81.5103033122298
20
10.7704457325774
30
0
41
1
10
81.215417487896
20
10.8838215082961
30
0
41
1
10
81.0603068975803
20
10.9165444005485
30
0
0
SPLINE
5
164
100
AcDbEntity
8
1
62
256
6
ByLayer
370
18
48
1
60
0
100
AcDbSpline
70
4
71
3
72
11
73
7
40
0
40
0
40
0
40
0
40
0.165080412346192
40
0.54069664712335
40
0.9165084671797
40
1
40
1
40
1
40
1
41
1
10
91.5615520183792
20
1.54449490704411
30
0
41
1
10
91.5597531921797
20
1.55222256815996
30
0
41
1
10
91.553295491496
20
1.57762007402577
30
0
41
1
10
91.5388441260581
20
1.62296211472324
30
0
41
1
10
91.5223637665868
20
1.66157718313385
30
0
41
1
10
91.5130170885622
20
1.68065010413162
30
0
41
1
10
91.5112963859721
20
1.68406426617418
30
0
0
SPLINE
5
165
100
AcDbEntity
8
1
62
256
6
ByLayer
370
18
48
1
60
0
100
AcDbSpline
70
4
71
3
72
17
73
13
40
0
40
0
40
0
40
0
40
0.02981590353237
40
0.140137003284928
40
0.250459503252115
40
0.360831571626869
40
0.471205144806909
40
0.58194400190397
40
0.692682123169983
40
0.803535114961707
40
0.914386231123939
40
1
40
1
40
1
40
1
41
1
10
65.4800000188714
20
-13.6759002711259
30
0
41
1
10
65.4800019885031
20
-13.7180208411765
30
0
41
1
10
65.4848580951675
20
-13.9153531938292
30
0
41
1
10
65.5352928513832
20
-14.2658787346143
30
0
41
1
10
65.683919403014
20
-14.709545355119
30
0
41
1
10
65.9135095980204
20
-15.1211714421119
30
0
41
1
10
66.2148324808721
20
-15.4915528594154
30
0
41
1
10
66.5824112105127
20
-15.8088739712353
30
0
41
1
10
67.0039465824488
20
-16.0670901069905
30
0
41
1
10
67.4688717551958
20
-16.2565742223944
30
0
41
1
10
67.926302656939
20
-16.3660704677141
30
0
41
1
10
68.2249525048233
20
-16.3959187776449
30
0
41
1
10
68.3569232329823
20
-16.4015032626587
30
0
0
SPLINE
5
166
100
AcDbEntity
8
1
62
256
6
ByLayer
370
18
48
1
60
0
100
AcDbSpline
70
4
71
3
72
13
73
9
40
0
40
0
40
0
40
0
40
0.0811068003230069
40
0.542059695793591
40
0.698217929308219
40
0.855466894270548
40
0.966212236972825
40
1
40
1
40
1
40
1
41
1
10
11.8943375672974
20
-8.05584836782768
30
0
41
1
10
11.8894428381777
20
-8.03725171409794
30
0
41
1
10
11.8534346287606
20
-7.91434257650653
30
0
41
1
10
11.7877522749416
20
-7.75704006565195
30
0
41
1
10
11.665625598013
20
-7.61365769814301
30
0
41
1
10
11.5793223070755
20
-7.55243803205592
30
0
41
1
10
11.5056611588718
20
-7.53148602816104
30
0
41
1
10
11.4698010058117
20
-7.5296926218967
30
0
41
1
10
11.4613248654052
20
-7.52966679426493
30
0
0
SPLINE
5
167
100
AcDbEntity
8
1
62
256
6
ByLayer
370
18
48
1
60
0
100
AcDbSpline
70
4
71
1
72
4
73
2
40
0
40
0
40
1
40
1
41
1
10
85.1829886556542
20
7.49207111777103
30
0
41
1
10
85.1965221750785
20
7.56083773779386
30
0
0
SPLINE
5
168
100
AcDbEntity
8
SK1
62
256
6
ByLayer
370
18
48
1
60
0
100
AcDbSpline
70
4
71
2
72
6
73
3
40
0
40
0
40
0
40
1
40
1
40
1
41
1
10
-2.00000000000002
20
-17.3251501414068
30
0
41
1
10
-1.20000000000003
20
-17.3251501414067
30
0
41
1
10
-0.400000000000042
20
-17.3251501414068
30
0
0
SPLINE
5
169
100
AcDbEntity
8
1
62
256
6
ByLayer
370
18
48
1
60
0
100
AcDbSpline
70
4
71
3
72
12
73
8
40
0
40
0
40
0
40
0
40
0.0777065243411922
40
0.182768991260506
40
0.355509705274336
40
0.661119206188219
40
1
40
1
40
1
40
1
41
1
10
11.4613248654052
20
7.52966679426504
30
0
41
1
10
11.4811093857486
20
7.529924538954
30
0
41
1
10
11.526157507522
20
7.53508753718826
30
0
41
1
10
11.609020665254
20
7.56930040674389
30
0
41
1
10
11.7192097730177
20
7.66302821977545
30
0
41
1
10
11.8218683998189
20
7.83415197314233
30
0
41
1
10
11.875877712868
20
7.97612018956262
30
0
41
1
10
11.8943375672974
20
8.05584836782777
30
0
0
SPLINE
5
16A
100
AcDbEntity
8
1
62
256
6
ByLayer
370
18
48
1
60
0
100
AcDbSpline
70
4
71
3
72
13
73
9
40
0
40
0
40
0
40
0
40
0.185540104433709
40
0.376970109381344
40
0.562319173928843
40
0.751995371395177
40
0.875492911618913
40
1
40
1
40
1
40
1
41
1
10
87.382328149155
20
9.00860668227759
30
0
41
1
10
87.48253154516
20
8.89371971389651
30
0
41
1
10
87.6944836227885
20
8.62205234599175
30
0
41
1
10
88.0406357743404
20
8.08961680527861
30
0
41
1
10
88.4056632427843
20
7.45892377500584
30
0
41
1
10
88.735122728783
20
6.8379593338318
30
0
41
1
10
89.0255472762326
20
6.25760484113209
30
0
41
1
10
89.1892823291211
20
5.91705651281941
30
0
41
1
10
89.2713877199508
20
5.74279817988019
30
0
0
SPLINE
5
16B
100
AcDbEntity
8
1
62
256
6
ByLayer
370
18
48
1
60
0
100
AcDbSpline
70
4
71
3
72
13
73
9
40
0
40
0
40
0
40
0
40
0.0811068003230412
40
0.542059695793728
40
0.698217929308317
40
0.8554668942706
40
0.966212236972871
40
1
40
1
40
1
40
1
41
1
10
8.10566243270259
20
8.05584836782779
30
0
41
1
10
8.11055716182228
20
8.03725171409805
30
0
41
1
10
8.14656537123943
20
7.91434257650662
30
0
41
1
10
8.21224772505842
20
7.75704006565201
30
0
41
1
10
8.33437440198707
20
7.61365769814308
30
0
41
1
10
8.42067769292451
20
7.55243803205599
30
0
41
1
10
8.49433884112822
20
7.53148602816119
30
0
41
1
10
8.5301989941883
20
7.52969262189679
30
0
41
1
10
8.5386751345948
20
7.52966679426503
30
0
0
SPLINE
5
16C
100
AcDbEntity
8
1
62
256
6
ByLayer
370
18
48
1
60
0
100
AcDbSpline
70
4
71
3
72
21
73
17
40
0
40
0
40
0
40
0
40
0.0387846401377717
40
0.0869206919819757
40
0.143208125785429
40
0.206285280139146
40
0.315676119314714
40
0.432650019752989
40
0.540774574236893
40
0.645946529716154
40
0.743522580534421
40
0.828841547094539
40
0.899151826986167
40
0.936215701463209
40
0.969831648815239
40
1
40
1
40
1
40
1
41
1
10
94.8179247780544
20
7.68275275702668
30
0
41
1
10
94.9495193594685
20
7.6382207727918
30
0
41
1
10
95.2400628360207
20
7.52865584107278
30
0
41
1
10
95.6987842510266
20
7.30073685563733
30
0
41
1
10
96.222307219019
20
7.01229878672851
30
0
41
1
10
96.9226567211595
20
6.59243587521011
30
0
41
1
10
97.7912418015291
20
6.03223871066227
30
0
41
1
10
98.7773752638113
20
5.35650095463897
30
0
41
1
10
99.7362411670477
20
4.66903998846456
30
0
41
1
10
100.627745921269
20
4.01038554639182
30
0
41
1
10
101.445847054759
20
3.39465935328176
30
0
41
1
10
102.157361844609
20
2.85190520280367
30
0
41
1
10
102.696699346049
20
2.4469799387708
30
0
41
1
10
103.107805639466
20
2.19907944613726
30
0
41
1
10
103.412690580665
20
2.08035613930024
30
0
41
1
10
103.602764776683
20
2.02697232627748
30
0
41
1
10
103.692737964439
20
2.00748525857929
30
0
0
SPLINE
5
16D
100
AcDbEntity
8
1
62
256
6
ByLayer
370
18
48
1
60
0
100
AcDbSpline
70
4
71
3
72
20
73
16
40
0
40
0
40
0
40
0
40
0.0954611577633991
40
0.190423686204095
40
0.286891044164501
40
0.385280336869945
40
0.485040453304319
40
0.585933952660488
40
0.641874070977274
40
0.702538367679673
40
0.76688903369734
40
0.820618933546103
40
0.860513065827668
40
0.928089036650723
40
1
40
1
40
1
40
1
41
1
10
85.4091679572608
20
-6.06733890244658
30
0
41
1
10
85.1696272492167
20
-6.03028595585248
30
0
41
1
10
84.7054444509089
20
-5.91389737222482
30
0
41
1
10
84.0408420137418
20
-5.60664098196132
30
0
41
1
10
83.4239025906031
20
-5.17526777382688
30
0
41
1
10
82.8696918504884
20
-4.61410323457933
30
0
41
1
10
82.3936355850575
20
-3.93820834073893
30
0
41
1
10
82.0629482527593
20
-3.28381264107077
30
0
41
1
10
81.8503837224529
20
-2.68267950516813
30
0
41
1
10
81.7255984018261
20
-2.15457350068289
30
0
41
1
10
81.6445013596195
20
-1.6175065442826
30
0
41
1
10
81.5857428850638
20
-1.13884317058289
30
0
41
1
10
81.5595426644169
20
-0.641898483467514
30
0
41
1
10
81.5910158879077
20
-0.081226451135116
30
0
41
1
10
81.6445988987124
20
0.35170710989398
30
0
41
1
10
81.6827423614147
20
0.575028206592286
30
0
0
SPLINE
5
16E
100
AcDbEntity
8
SK1
62
256
6
ByLayer
370
18
48
1
60
0
100
AcDbSpline
70
4
71
3
72
16
73
12
40
0
40
0
40
0
40
0
40
0.101870722793166
40
0.203718363389489
40
0.308089951926135
40
0.412415252766981
40
0.529161628394081
40
0.646391561672251
40
0.763296187326095
40
0.881625644108369
40
1
40
1
40
1
40
1
41
1
10
-1.30710678118655
20
3.80474436172747
30
0
41
1
10
-1.35281755127321
20
3.56030061780936
30
0
41
1
10
-1.43825474283596
20
3.06526047616158
30
0
41
1
10
-1.55260961619648
20
2.29746051127428
30
0
41
1
10
-1.64288396017674
20
1.50511996075527
30
0
41
1
10
-1.70375008696193
20
0.658796178987302
30
0
41
1
10
-1.7147764836759
20
-0.231403505662062
30
0
41
1
10
-1.67300909917651
20
-1.15039276708547
30
0
41
1
10
-1.58509270920931
20
-2.057851905127
30
0
41
1
10
-1.4586128239859
20
-2.94424663120597
30
0
41
1
10
-1.36053835676227
20
-3.52065829215738
30
0
41
1
10
-1.30710678118665
20
-3.8047466411329
30
0
0
SPLINE
5
16F
100
AcDbEntity
8
SK1
62
256
6
ByLayer
370
18
48
1
60
0
100
AcDbSpline
70
4
71
3
72
16
73
12
40
0
40
0
40
0
40
0
40
0.351058812479027
40
0.549490242882302
40
0.745650751445109
40
0.831752432968094
40
0.866430020907749
40
0.901364413669997
40
0.932606866569396
40
0.983122008469397
40
1
40
1
40
1
40
1
41
1
10
-1.30710678118656
20
3.80474436172746
30
0
41
1
10
-1.26978415806152
20
4.02733440489889
30
0
41
1
10
-1.18638534235564
20
4.36574772826716
30
0
41
1
10
-1.04345715092742
20
4.81143795815721
30
0
41
1
10
-0.896883993281805
20
5.07907048283345
30
0
41
1
10
-0.744504610413005
20
5.22449701225541
30
0
41
1
10
-0.644314188243225
20
5.26265754541686
30
0
41
1
10
-0.573027760448881
20
5.26521974999101
30
0
41
1
10
-0.495568383822391
20
5.24252370697405
30
0
41
1
10
-0.440485899594348
20
5.20534570545958
30
0
41
1
10
-0.407839795734875
20
5.17633421110909
30
0
41
1
10
-0.400000000000016
20
5.16866682996369
30
0
0
SPLINE
5
170
100
AcDbEntity
8
1
62
256
6
ByLayer
370
18
48
1
60
0
100
AcDbSpline
70
4
71
3
72
12
73
8
40
0
40
0
40
0
40
0
40
0.219904013035079
40
0.432990935431003
40
0.651963435730169
40
0.82478528858871
40
1
40
1
40
1
40
1
41
1
10
90.5835896517512
20
-1.88233980716351
30
0
41
1
10
90.3827297267257
20
-1.84640993317687
30
0
41
1
10
90.0015915845199
20
-1.74787358924847
30
0
41
1
10
89.4642696025705
20
-1.51432279927281
30
0
41
1
10
89.016426577989
20
-1.22660999265726
30
0
41
1
10
88.6430523486756
20
-0.902484627976563
30
0
41
1
10
88.4402081238333
20
-0.677258758542493
30
0
41
1
10
88.3446779314541
20
-0.556926302190746
30
0
0
SPLINE
5
171
100
AcDbEntity
8
1
62
256
6
ByLayer
370
18
48
1
60
0
100
AcDbSpline
70
4
71
3
72
11
73
7
40
0
40
0
40
0
40
0
40
0.0115642134185303
40
0.430474087587459
40
0.848615980977926
40
1
40
1
40
1
40
1
41
1
10
65.801166588948
20
-12.4178207069628
30
0
41
1
10
65.7991567900504
20
-12.4217784690045
30
0
41
1
10
65.7246611008933
20
-12.5692137125128
30
0
41
1
10
65.5920798503108
20
-12.8672013329932
30
0
41
1
10
65.5117344709282
20
-13.2338784505392
30
0
41
1
10
65.4898020171997
20
-13.4460331314595
30
0
41
1
10
65.4858334532603
20
-13.5026909247998
30
0
0
SPLINE
5
172
100
AcDbEntity
8
SK1
62
256
6
ByLayer
370
18
48
1
60
0
100
AcDbSpline
70
4
71
2
72
6
73
3
40
0
40
0
40
0
40
1
40
1
40
1
41
1
10
-3.00000000000001
20
-17.5000000000203
30
0
41
1
10
-2.59952241154488
20
-17.5100613909879
30
0
41
1
10
-2.19904482308974
20
-17.5201227819554
30
0
0
SPLINE
5
173
100
AcDbEntity
8
SK1
62
256
6
ByLayer
370
18
48
1
60
0
100
AcDbSpline
70
4
71
2
72
6
73
3
40
0
40
0
40
0
40
1
40
1
40
1
41
1
10
-3
20
17.5000000000527
30
0
41
1
10
-15.7502365839532
20
17.1796696772132
30
0
41
1
10
-28.5004731679065
20
16.8593393543736
30
0
0
SPLINE
5
174
100
AcDbEntity
8
1
62
256
6
ByLayer
370
18
48
1
60
0
100
AcDbSpline
70
4
71
3
72
11
73
7
40
0
40
0
40
0
40
0
40
0.0834915328203088
40
0.459303352876592
40
0.834919587653849
40
1
40
1
40
1
40
1
41
1
10
93.5621582588411
20
1.31837158541165
30
0
41
1
10
93.5589218482256
20
1.3158413346851
30
0
41
1
10
93.5413431571436
20
1.30156952220634
30
0
41
1
10
93.5103284831347
20
1.2714233742755
30
0
41
1
10
93.4832171525809
20
1.23349244883548
30
0
41
1
10
93.4711057145232
20
1.21140603779064
30
0
41
1
10
93.4677340182567
20
1.20460034136025
30
0
0
SPLINE
5
175
100
AcDbEntity
8
1
62
256
6
ByLayer
370
18
48
1
60
0
100
AcDbSpline
70
4
71
3
72
21
73
17
40
0
40
0
40
0
40
0
40
0.0547606056639228
40
0.127552603102396
40
0.200345198224012
40
0.27336562693874
40
0.346385126504973
40
0.419375096226088
40
0.492364044027124
40
0.565109957645092
40
0.637856356145253
40
0.710526306866816
40
0.783197467560513
40
0.856077172665864
40
0.928956935718187
40
1
40
1
40
1
40
1
41
1
10
71.3217916343398
20
-12.6786119353288
30
0
41
1
10
71.2760822677103
20
-12.5669245588279
30
0
41
1
10
71.1534416984603
20
-12.3151799981024
30
0
41
1
10
70.8981928216097
20
-11.946243155441
30
0
41
1
10
70.553544302666
20
-11.5913222784256
30
0
41
1
10
70.1490623624696
20
-11.2954701339152
30
0
41
1
10
69.6982292150542
20
-11.0657451606693
30
0
41
1
10
69.2125390634851
20
-10.912520262862
30
0
41
1
10
68.7075063280395
20
-10.8374640146113
30
0
41
1
10
68.1970099908626
20
-10.8460979092303
30
0
41
1
10
67.6957002442311
20
-10.9343173701387
30
0
41
1
10
67.2178759814519
20
-11.1025803143449
30
0
41
1
10
66.7752803513683
20
-11.3426355932029
30
0
41
1
10
66.3821520606002
20
-11.6498816751974
30
0
41
1
10
66.049763961202
20
-12.0109241920564
30
0
41
1
10
65.8761519817686
20
-12.2783284461647
30
0
41
1
10
65.801166588948
20
-12.4178207069628
30
0
0
SPLINE
5
176
100
AcDbEntity
8
1
62
256
6
ByLayer
370
18
48
1
60
0
100
AcDbSpline
70
4
71
3
72
13
73
9
40
0
40
0
40
0
40
0
40
0.0949456484626689
40
0.189945973245498
40
0.381303049084395
40
0.575126466778673
40
0.769958695721775
40
1
40
1
40
1
40
1
41
1
10
94.5741367592842
20
8.78370225123579
30
0
41
1
10
94.8197361127694
20
8.73472587164378
30
0
41
1
10
95.307957911828
20
8.62451984275721
30
0
41
1
10
96.2732378587226
20
8.34268646926349
30
0
41
1
10
97.4736608261341
20
7.93823812351371
30
0
41
1
10
98.8875543235126
20
7.34970299738059
30
0
41
1
10
100.344204402747
20
6.60741846208741
30
0
41
1
10
101.308519647821
20
6.03447065777962
30
0
41
1
10
101.819831606059
20
5.70363165147474
30
0
0
SPLINE
5
177
100
AcDbEntity
8
SK1
62
256
6
ByLayer
370
18
48
1
60
0
100
AcDbSpline
70
4
71
2
72
6
73
3
40
0
40
0
40
0
40
1
40
1
40
1
41
1
10
-28.5003904504266
20
16.8597456617469
30
0
41
1
10
-29.2501952787077
20
16.4010253845872
30
0
41
1
10
-30
20
15.9423013487187
30
0
0
SPLINE
5
178
100
AcDbEntity
8
1
62
256
6
ByLayer
370
18
48
1
60
0
100
AcDbSpline
70
4
71
1
72
4
73
2
40
0
40
0
40
1
40
1
41
1
10
102.477927783102
20
-4.77682878845078
30
0
41
1
10
102.165204378488
20
-4.76972655616621
30
0
0
SPLINE
5
179
100
AcDbEntity
8
1
62
256
6
ByLayer
370
18
48
1
60
0
100
AcDbSpline
70
4
71
3
72
10
73
6
40
0
40
0
40
0
40
0
40
0.392172072838181
40
0.78943741796367
40
1
40
1
40
1
40
1
41
1
10
92.4973562319933
20
0.847571058733003
30
0
41
1
10
92.4783157589329
20
0.854224383145748
30
0
41
1
10
92.4402674685287
20
0.865006004523607
30
0
41
1
10
92.3894472056396
20
0.872402113046938
30
0
41
1
10
92.3619950338937
20
0.873411496385721
30
0
41
1
10
92.3526763590018
20
0.873369173811639
30
0
0
SPLINE
5
17A
100
AcDbEntity
8
SK1
62
256
6
ByLayer
370
18
48
1
60
0
100
AcDbSpline
70
4
71
2
72
6
73
3
40
0
40
0
40
0
40
1
40
1
40
1
41
1
10
-28.5004731705584
20
16.8593346133699
30
0
41
1
10
-28.5004731648362
20
16.8593503680996
30
0
41
1
10
-28.5004731679065
20
16.8585848671634
30
0
0
SPLINE
5
17B
100
AcDbEntity
8
SK1
62
256
6
ByLayer
370
18
48
1
60
0
100
AcDbSpline
70
4
71
3
72
17
73
13
40
0
40
0
40
0
40
0
40
0.030351422025319
40
0.0536155087252465
40
0.0719362364152778
40
0.0902747582477808
40
0.115197940679835
40
0.159565658929417
40
0.298138202990397
40
0.587610881223517
40
0.878287013648285
40
1
40
1
40
1
40
1
41
1
10
-0.400000000000044
20
5.16866682996303
30
0
41
1
10
-0.394167575628448
20
5.16254689062892
30
0
41
1
10
-0.382671289712254
20
5.1540374818819
30
0
41
1
10
-0.364264031241598
20
5.14642716889604
30
0
41
1
10
-0.347332913984089
20
5.14606544583311
30
0
41
1
10
-0.330541138979944
20
5.15183291494156
30
0
41
1
10
-0.310401603395073
20
5.16756125175967
30
0
41
1
10
-0.276165558567061
20
5.2172288675411
30
0
41
1
10
-0.236739282710342
20
5.34658114116624
30
0
41
1
10
-0.207575999148842
20
5.54435821740563
30
0
41
1
10
-0.201433990875358
20
5.73654934889387
30
0
41
1
10
-0.199982261339109
20
5.84846084555259
30
0
41
1
10
-0.200000000000038
20
5.88142452370548
30
0
0
SPLINE
5
17C
100
AcDbEntity
8
1
62
256
6
ByLayer
370
18
48
1
60
0
100
AcDbSpline
70
4
71
3
72
12
73
8
40
0
40
0
40
0
40
0
40
0.0777065243411858
40
0.182768991260506
40
0.355509705274323
40
0.661119206188188
40
1
40
1
40
1
40
1
41
1
10
11.4613248654052
20
-23.8391299750503
30
0
41
1
10
11.4811093857486
20
-23.8390510092635
30
0
41
1
10
11.5261575075219
20
-23.8374170803539
30
0
41
1
10
11.609020665254
20
-23.8265956452496
30
0
41
1
10
11.7192097730177
20
-23.7967264721261
30
0
41
1
10
11.8218683998189
20
-23.7411879478121
30
0
41
1
10
11.875877712868
20
-23.6935586164053
30
0
41
1
10
11.8943375672974
20
-23.6665017920808
30
0
0
SPLINE
5
17D
100
AcDbEntity
8
1
62
256
6
ByLayer
370
18
48
1
60
0
100
AcDbSpline
70
4
71
1
72
4
73
2
40
0
40
0
40
1
40
1
41
1
10
88.2016941870547
20
-0.392708824450061
30
0
41
1
10
88.3446779314541
20
-0.55692630219076
30
0
0
SPLINE
5
17E
100
AcDbEntity
8
1
62
256
6
ByLayer
370
18
48
1
60
0
100
AcDbSpline
70
4
71
3
72
13
73
9
40
0
40
0
40
0
40
0
40
0.0811068003230487
40
0.542059695793738
40
0.698217929308322
40
0.855466894270602
40
0.966212236972876
40
1
40
1
40
1
40
1
41
1
10
11.8943375672974
20
23.6665017920809
30
0
41
1
10
11.8894428381777
20
23.6728293617709
30
0
41
1
10
11.8534346287606
20
23.7145200781299
30
0
41
1
10
11.7877522749416
20
23.7663890526223
30
0
41
1
10
11.6656255980129
20
23.8124861135429
30
0
41
1
10
11.5793223070755
20
23.8319383085953
30
0
41
1
10
11.5056611588718
20
23.8385548003315
30
0
41
1
10
11.4698010058117
20
23.8391220894067
30
0
41
1
10
11.4613248654052
20
23.8391299750504
30
0
0
SPLINE
5
17F
100
AcDbEntity
8
1
62
256
6
ByLayer
370
18
48
1
60
0
100
AcDbSpline
70
4
71
2
72
6
73
3
40
0
40
0
40
0
40
1
40
1
40
1
41
1
10
94.8344967401538
20
5.70080992477438
30
0
41
1
10
94.4314111681509
20
5.85886437350965
30
0
41
1
10
94.0095709205675
20
5.93470414077628
30
0
0
SPLINE
5
180
100
AcDbEntity
8
1
62
256
6
ByLayer
370
18
48
1
60
0
100
AcDbSpline
70
4
71
1
72
4
73
2
40
0
40
0
40
1
40
1
41
1
10
65.4858334532603
20
-13.5026909247998
30
0
41
1
10
65.4800000188714
20
-13.6759002711259
30
0
0
SPLINE
5
181
100
AcDbEntity
8
SK1
62
256
6
ByLayer
370
18
48
1
60
0
100
AcDbSpline
70
4
71
3
72
11
73
7
40
0
40
0
40
0
40
0
40
0.245755007744093
40
0.501794198211022
40
0.756953870258401
40
1
40
1
40
1
40
1
41
1
10
-0.200000000000014
20
17.5191731511753
30
0
41
1
10
-0.1999946476764
20
17.493844966999
30
0
41
1
10
-0.209350242264528
20
17.4456228534321
30
0
41
1
10
-0.25417818424664
20
17.3766360753193
30
0
41
1
10
-0.324420736760798
20
17.33275982811
30
0
41
1
10
-0.373991067023659
20
17.3239685556465
30
0
41
1
10
-0.400000000000016
20
17.3241476526065
30
0
0
SPLINE
5
182
100
AcDbEntity
8
1
62
256
6
ByLayer
370
18
48
1
60
0
100
AcDbSpline
70
4
71
2
72
6
73
3
40
0
40
0
40
0
40
1
40
1
40
1
41
1
10
87.7470334805142
20
5.4976421516605
30
0
41
1
10
87.5752874923446
20
5.51098541973553
30
0
41
1
10
87.4094513707703
20
5.53829748453626
30
0
0
SPLINE
5
183
100
AcDbEntity
8
1
62
256
6
ByLayer
370
18
48
1
60
0
100
AcDbSpline
70
4
71
1
72
4
73
2
40
0
40
0
40
1
40
1
41
1
10
105.580191041775
20
3.20741441104806
30
0
41
1
10
104.108120565885
20
4.5738294778041
30
0
0
SPLINE
5
184
100
AcDbEntity
8
SK1
62
256
6
ByLayer
370
18
48
1
60
0
100
AcDbSpline
70
4
71
3
72
17
73
13
40
0
40
0
40
0
40
0
40
0.465485506351371
40
0.669701843128607
40
0.774084356421138
40
0.856371664793534
40
0.897755153898639
40
0.917428272144484
40
0.937237772131978
40
0.955191624681792
40
0.984018190502028
40
1
40
1
40
1
40
1
41
1
10
-0.200000000000051
20
-5.8814239739334
30
0
41
1
10
-0.196064780878213
20
-5.75474600051126
30
0
41
1
10
-0.206716278472295
20
-5.57221313865738
30
0
41
1
10
-0.236369718937382
20
-5.35851195688533
30
0
41
1
10
-0.265123837646861
20
-5.25221197385764
30
0
41
1
10
-0.291115782477707
20
-5.1922034881848
30
0
41
1
10
-0.318091310485851
20
-5.15994791139134
30
0
41
1
10
-0.338430402128582
20
-5.14828626530387
30
0
41
1
10
-0.354699344248635
20
-5.14548380678128
30
0
41
1
10
-0.372899440263042
20
-5.14897430103637
30
0
41
1
10
-0.38774909635815
20
-5.15784519057127
30
0
41
1
10
-0.396918780971339
20
-5.16560053879502
30
0
41
1
10
-0.400000000000063
20
-5.16866679574498
30
0
0
SPLINE
5
185
100
AcDbEntity
8
1
62
256
6
ByLayer
370
18
48
1
60
0
100
AcDbSpline
70
4
71
1
72
4
73
2
40
0
40
0
40
1
40
1
41
1
10
105.58024242383
20
3.20733595069188
30
0
41
1
10
106.36709698504
20
2.26010607203457
30
0
0
SPLINE
5
186
100
AcDbEntity
8
SK1
62
256
6
ByLayer
370
18
48
1
60
0
100
AcDbSpline
70
4
71
3
72
13
73
9
40
0
40
0
40
0
40
0
40
0.239468143099999
40
0.368375717556587
40
0.500016413681892
40
0.631654380070501
40
0.76055442752897
40
1
40
1
40
1
40
1
41
1
10
-2.00000000000001
20
17.3251501409627
30
0
41
1
10
-2.02607195862882
20
17.3254032171873
30
0
41
1
10
-2.06363514911783
20
17.3325204701499
30
0
41
1
10
-2.11047805080196
20
17.3567460306056
30
0
41
1
10
-2.14242236455501
20
17.382721349279
30
0
41
1
10
-2.16840047419724
20
17.4146623713529
30
0
41
1
10
-2.19262861856611
20
17.4615002450208
30
0
41
1
10
-2.19974657466872
20
17.4990601036781
30
0
41
1
10
-2.2
20
17.52512992499
30
0
0
SPLINE
5
187
100
AcDbEntity
8
1
62
256
6
ByLayer
370
18
48
1
60
0
100
AcDbSpline
70
4
71
3
72
15
73
11
40
0
40
0
40
0
40
0
40
0.110693970960998
40
0.197429022400818
40
0.284502571977461
40
0.366456905950667
40
0.497678234372569
40
0.615432755100201
40
0.733526927629585
40
1
40
1
40
1
40
1
41
1
10
103.692737964429
20
2.00748525858163
30
0
41
1
10
103.662432690653
20
1.97893596819651
30
0
41
1
10
103.62512051125
20
1.91060947536447
30
0
41
1
10
103.607792656006
20
1.76611976463961
30
0
41
1
10
103.638121005082
20
1.60314030045797
30
0
41
1
10
103.716787286308
20
1.40165868263152
30
0
41
1
10
103.841471322024
20
1.18921786527427
30
0
41
1
10
103.997805868387
20
0.979011773710965
30
0
41
1
10
104.22404828604
20
0.718694610100968
30
0
41
1
10
104.401504937053
20
0.540880105516081
30
0
41
1
10
104.527761432868
20
0.429409516370448
30
0
0
SPLINE
5
188
100
AcDbEntity
8
SK1
62
256
6
ByLayer
370
18
48
1
60
0
100
AcDbSpline
70
4
71
2
72
6
73
3
40
0
40
0
40
0
40
1
40
1
40
1
41
1
10
-0.400000000000013
20
17.3251501409627
30
0
41
1
10
-1.20000000000001
20
17.3251501409627
30
0
41
1
10
-2.00000000000001
20
17.3251501409627
30
0
0
SPLINE
5
189
100
AcDbEntity
8
1
62
256
6
ByLayer
370
18
48
1
60
0
100
AcDbSpline
70
4
71
1
72
4
73
2
40
0
40
0
40
1
40
1
41
1
10
88.1506219654531
20
5.48796699319649
30
0
41
1
10
87.7470334805142
20
5.4976421516605
30
0
0
SPLINE
5
18A
100
AcDbEntity
8
1
62
256
6
ByLayer
370
18
48
1
60
0
100
AcDbSpline
70
4
71
3
72
11
73
7
40
0
40
0
40
0
40
0
40
0.302293823418383
40
0.613181578369844
40
0.805254037907248
40
1
40
1
40
1
40
1
41
1
10
99.9528464877996
20
-5.00494974851411
30
0
41
1
10
100.193020902411
20
-4.94805591491551
30
0
41
1
10
100.67080621095
20
-4.85347149112912
30
0
41
1
10
101.283404702751
20
-4.77105059554216
30
0
41
1
10
101.782151754966
20
-4.75821830706247
30
0
41
1
10
102.039820105567
20
-4.76312177621514
30
0
41
1
10
102.165204378496
20
-4.76972655616656
30
0
0
SPLINE
5
18B
100
AcDbEntity
8
1
62
256
6
ByLayer
370
18
48
1
60
0
100
AcDbSpline
70
4
71
2
72
6
73
3
40
0
40
0
40
0
40
1
40
1
40
1
41
1
10
93.4392973397432
20
-2.30172110902728
30
0
41
1
10
93.2141161541851
20
-2.30787552912825
30
0
41
1
10
92.9909918489622
20
-2.2907069997588
30
0
0
SPLINE
5
18C
100
AcDbEntity
8
SK1
62
256
6
ByLayer
370
18
48
1
60
0
100
AcDbSpline
70
4
71
3
72
16
73
12
40
0
40
0
40
0
40
0
40
0.101870722793165
40
0.203718363389488
40
0.308089951926134
40
0.41241525276698
40
0.52916162839408
40
0.646391561672251
40
0.763296187326094
40
0.881625644108369
40
1
40
1
40
1
40
1
41
1
10
-1.30710678118656
20
3.80474436172746
30
0
41
1
10
-1.35281755127321
20
3.56030061780936
30
0
41
1
10
-1.43825474283596
20
3.06526047616158
30
0
41
1
10
-1.55260961619648
20
2.29746051127428
30
0
41
1
10
-1.64288396017674
20
1.50511996075527
30
0
41
1
10
-1.70375008696194
20
0.658796178987301
30
0
41
1
10
-1.71477648367587
20
-0.231403505662063
30
0
41
1
10
-1.67300909917652
20
-1.15039276708547
30
0
41
1
10
-1.58509270920931
20
-2.057851905127
30
0
41
1
10
-1.4586128239859
20
-2.94424663120598
30
0
41
1
10
-1.36053835676227
20
-3.52065829215738
30
0
41
1
10
-1.30710678118665
20
-3.80474664113291
30
0
0
SPLINE
5
18D
100
AcDbEntity
8
1
62
256
6
ByLayer
370
18
48
1
60
0
100
AcDbSpline
70
4
71
3
72
15
73
11
40
0
40
0
40
0
40
0
40
0.0499811893192076
40
0.224350952939326
40
0.398752537194823
40
0.530982725634203
40
0.663312187447268
40
0.795055601397432
40
0.897599335567387
40
1
40
1
40
1
40
1
41
1
10
82.3326301425284
20
14.8343672731492
30
0
41
1
10
82.2536080366734
20
14.7840408849725
30
0
41
1
10
81.9044373881112
20
14.5509350321985
30
0
41
1
10
81.3221043031205
20
14.0766158516972
30
0
41
1
10
80.7167243251388
20
13.4027451989372
30
0
41
1
10
80.2276165479291
20
12.737841040406
30
0
41
1
10
79.8266811063697
20
12.1080176274367
30
0
41
1
10
79.5293158567529
20
11.4831906467916
30
0
41
1
10
79.3154791825377
20
10.884414422861
30
0
41
1
10
79.2249710421365
20
10.5089470840898
30
0
41
1
10
79.1889738792538
20
10.3184097785654
30
0
0
SPLINE
5
18E
100
AcDbEntity
8
1
62
256
6
ByLayer
370
18
48
1
60
0
100
AcDbSpline
70
4
71
1
72
4
73
2
40
0
40
0
40
1
40
1
41
1
10
94.8179247780544
20
7.68275275702668
30
0
41
1
10
94.5741367592842
20
8.78370225123577
30
0
0
SPLINE
5
18F
100
AcDbEntity
8
SK1
62
256
6
ByLayer
370
18
48
1
60
0
100
AcDbSpline
70
4
71
2
72
6
73
3
40
0
40
0
40
0
40
1
40
1
40
1
41
1
10
-28.5004731679065
20
-16.8593393543424
30
0
41
1
10
-15.7502365839533
20
-17.1796696771813
30
0
41
1
10
-3.00000000000001
20
-17.5000000000203
30
0
0
SPLINE
5
190
100
AcDbEntity
8
1
62
256
6
ByLayer
370
18
48
1
60
0
100
AcDbSpline
70
4
71
3
72
16
73
12
40
0
40
0
40
0
40
0
40
0.19317519417916
40
0.386603933897726
40
0.499007693810814
40
0.611232808940376
40
0.703623602274014
40
0.795912588408088
40
0.868506640166584
40
0.941036848444274
40
1
40
1
40
1
40
1
41
1
10
84.5316976650339
20
-3.83698299920444
30
0
41
1
10
84.4078122018562
20
-3.73460765856021
30
0
41
1
10
84.1885727810539
20
-3.50009278966089
30
0
41
1
10
84.0022576038907
20
-3.13407991703353
30
0
41
1
10
83.8654272937348
20
-2.75919725651318
30
0
41
1
10
83.7796509154756
20
-2.42788215113355
30
0
41
1
10
83.7193620574173
20
-2.07492960997058
30
0
41
1
10
83.6889998746801
20
-1.73948818876147
30
0
41
1
10
83.6844872830434
20
-1.41160389785229
30
0
41
1
10
83.6992062272935
20
-1.12043540829175
30
0
41
1
10
83.7191603464575
20
-0.933517578899483
30
0
41
1
10
83.730241013771
20
-0.849401324944203
30
0
0
SPLINE
5
191
100
AcDbEntity
8
1
62
256
6
ByLayer
370
18
48
1
60
0
100
AcDbSpline
70
4
71
3
72
10
73
6
40
0
40
0
40
0
40
0
40
0.129212245417955
40
0.556179020667158
40
1
40
1
40
1
40
1
41
1
10
86.8974861949517
20
10.0706631246034
30
0
41
1
10
86.8367961919904
20
10.07568068346
30
0
41
1
10
86.5723292734287
20
10.0912444297596
30
0
41
1
10
86.0631554160823
20
10.0856664171412
30
0
41
1
10
85.6009942795845
20
9.99381797051769
30
0
41
1
10
85.3582449747961
20
9.92793125971439
30
0
0
SPLINE
5
192
100
AcDbEntity
8
1
62
256
6
ByLayer
370
18
48
1
60
0
100
AcDbSpline
70
4
71
3
72
10
73
6
40
0
40
0
40
0
40
0
40
0.392172072840866
40
0.789437417966156
40
1
40
1
40
1
40
1
41
1
10
92.7553518584607
20
3.18301980871256
30
0
41
1
10
92.7720224942629
20
3.17635372416514
30
0
41
1
10
92.8071629519753
20
3.1655564458739
30
0
41
1
10
92.8592021619822
20
3.15816690064074
30
0
41
1
10
92.8894758234005
20
3.1571727093105
30
0
41
1
10
92.9000317314523
20
3.1572216936339
30
0
0
SPLINE
5
193
100
AcDbEntity
8
SK1
62
256
6
ByLayer
370
18
48
1
60
0
100
AcDbSpline
70
4
71
3
72
16
73
12
40
0
40
0
40
0
40
0
40
0.0439503849784334
40
0.0882962095956785
40
0.11982374874828
40
0.15133308032158
40
0.197785752387554
40
0.285208338526593
40
0.432294100651083
40
0.580085301699414
40
1
40
1
40
1
40
1
41
1
10
-0.400000000000051
20
-5.16866679574524
30
0
41
1
10
-0.420260552159732
20
-5.18959123991619
30
0
41
1
10
-0.465532793809287
20
-5.22459689576224
30
0
41
1
10
-0.540325064014489
20
-5.2597574638592
30
0
41
1
10
-0.61556627839365
20
-5.26603853608314
30
0
41
1
10
-0.689853412389398
20
-5.24890814810317
30
0
41
1
10
-0.785804329696922
20
-5.19137211714247
30
0
41
1
10
-0.905339112737138
20
-5.05378758708936
30
0
41
1
10
-1.02152968139803
20
-4.84183055168609
30
0
41
1
10
-1.17561394769092
20
-4.4203500326513
30
0
41
1
10
-1.26556409785408
20
-4.0723060500743
30
0
41
1
10
-1.30710678118656
20
-3.80474664113266
30
0
0
SPLINE
5
194
100
AcDbEntity
8
1
62
256
6
ByLayer
370
18
48
1
60
0
100
AcDbSpline
70
4
71
3
72
17
73
13
40
0
40
0
40
0
40
0
40
0.108719215855027
40
0.217270404071259
40
0.294328120231105
40
0.371327260579631
40
0.448434975389263
40
0.525603568929636
40
0.635088784503394
40
0.744867301945708
40
0.872388680375034
40
1
40
1
40
1
40
1
41
1
10
83.0320874050546
20
14.7422819786303
30
0
41
1
10
83.1733108300249
20
14.7236895618405
30
0
41
1
10
83.4812293368305
20
14.683151321068
30
0
41
1
10
83.970265940479
20
14.6187684301051
30
0
41
1
10
84.4560051795245
20
14.5548196462379
30
0
41
1
10
84.912317695344
20
14.4947449638194
30
0
41
1
10
85.3856075858593
20
14.4324351676583
30
0
41
1
10
85.9265920301462
20
14.3612132144097
30
0
41
1
10
86.5189819423103
20
14.2832236029282
30
0
41
1
10
87.175901396527
20
14.1967385160661
30
0
41
1
10
87.8295688498777
20
14.1106815632415
30
0
41
1
10
88.258636302939
20
14.0541937614127
30
0
41
1
10
88.4662272386635
20
14.0268638962482
30
0
0
SPLINE
5
195
100
AcDbEntity
8
1
62
256
6
ByLayer
370
18
48
1
60
0
100
AcDbSpline
70
4
71
1
72
4
73
2
40
0
40
0
40
1
40
1
41
1
10
92.9909918489622
20
-2.2907069997588
30
0
41
1
10
92.5845063006611
20
-2.23912666980024
30
0
0
SPLINE
5
196
100
AcDbEntity
8
SK1
62
256
6
ByLayer
370
18
48
1
60
0
100
AcDbSpline
70
4
71
3
72
11
73
7
40
0
40
0
40
0
40
0
40
0.243046950854366
40
0.498204668192155
40
0.754242469704666
40
1
40
1
40
1
40
1
41
1
10
-0.400000000000024
20
-17.3241468641747
30
0
41
1
10
-0.373991174653956
20
-17.3239674893689
30
0
41
1
10
-0.324421202647911
20
-17.3327583040748
30
0
41
1
10
-0.254178044541317
20
-17.3766339294129
30
0
41
1
10
-0.209350044376128
20
-17.4456203921354
30
0
41
1
10
-0.19999450067226
20
-17.4938412312526
30
0
41
1
10
-0.200000000000038
20
-17.5191688355709
30
0
0
SPLINE
5
197
100
AcDbEntity
8
1
62
256
6
ByLayer
370
18
48
1
60
0
100
AcDbSpline
70
4
71
3
72
10
73
6
40
0
40
0
40
0
40
0
40
0.249999999293294
40
0.624999999161139
40
1
40
1
40
1
40
1
41
1
10
82.937931623674
20
14.7546778219973
30
0
41
1
10
82.9457772859267
20
14.7536449206705
30
0
41
1
10
82.9653918495102
20
14.751062613807
30
0
41
1
10
82.9967767820444
20
14.7469307093726
30
0
41
1
10
83.0203169513869
20
14.7438315872049
30
0
41
1
10
83.0320874033669
20
14.742281977804
30
0
0
SPLINE
5
198
100
AcDbEntity
8
1
62
256
6
ByLayer
370
18
48
1
60
0
100
AcDbSpline
70
4
71
2
72
6
73
3
40
0
40
0
40
0
40
1
40
1
40
1
41
1
10
105.471862711904
20
-0.387777049412492
30
0
41
1
10
104.899947005586
20
-0.568637543297186
30
0
41
1
10
104.314126263147
20
-0.795950869470154
30
0
0
SPLINE
5
199
100
AcDbEntity
8
1
62
256
6
ByLayer
370
18
48
1
60
0
100
AcDbSpline
70
4
71
3
72
15
73
11
40
0
40
0
40
0
40
0
40
0.0745275399797382
40
0.149166569620986
40
0.296714101987988
40
0.404641565313067
40
0.512745133321922
40
0.692425899560705
40
0.872499590221634
40
1
40
1
40
1
40
1
41
1
10
85.1965221750784
20
7.56083773779387
30
0
41
1
10
85.219603636609
20
7.66626608601199
30
0
41
1
10
85.2715380682714
20
7.87276327649335
30
0
41
1
10
85.3981355553852
20
8.26994272863676
30
0
41
1
10
85.5753380494346
20
8.66742014493306
30
0
41
1
10
85.7890794909744
20
9.02772507903993
30
0
41
1
10
86.0276274558297
20
9.35217671611407
30
0
41
1
10
86.3041496422364
20
9.64110747975802
30
0
41
1
10
86.6074715555739
20
9.84806423205244
30
0
41
1
10
86.8379214783165
20
9.93701215149194
30
0
41
1
10
86.9382013236573
20
9.96614808401106
30
0
0
SPLINE
5
19A
100
AcDbEntity
8
1
62
256
6
ByLayer
370
18
48
1
60
0
100
AcDbSpline
70
4
71
1
72
4
73
2
40
0
40
0
40
1
40
1
41
1
10
89.4608124589333
20
5.84495517182722
30
0
41
1
10
89.2713877199508
20
5.7427981798802
30
0
0
SPLINE
5
19B
100
AcDbEntity
8
1
62
256
6
ByLayer
370
18
48
1
60
0
100
AcDbSpline
70
4
71
3
72
15
73
11
40
0
40
0
40
0
40
0
40
0.183386250225831
40
0.366943563492259
40
0.549390059764925
40
0.671720177598328
40
0.793783034055371
40
0.892517276585611
40
0.991241635188059
40
1
40
1
40
1
40
1
41
1
10
102.994081088765
20
-1.9998439645825
30
0
41
1
10
103.054961930125
20
-2.16978926764219
30
0
41
1
10
103.20164972915
20
-2.48933253361903
30
0
41
1
10
103.482992512976
20
-2.91998067105953
30
0
41
1
10
103.821778243696
20
-3.22409805982214
30
0
41
1
10
104.194679216053
20
-3.40918504971724
30
0
41
1
10
104.554281059289
20
-3.48697431734316
30
0
41
1
10
104.945060831873
20
-3.47580990053871
30
0
41
1
10
105.222987239796
20
-3.42005879733153
30
0
41
1
10
105.372625728832
20
-3.3773483965323
30
0
41
1
10
105.384858949827
20
-3.37377705096774
30
0
0
SPLINE
5
19C
100
AcDbEntity
8
1
62
256
6
ByLayer
370
18
48
1
60
0
100
AcDbSpline
70
4
71
3
72
12
73
8
40
0
40
0
40
0
40
0
40
0.0666763960077123
40
0.300007297005783
40
0.533338198003854
40
0.766669099001929
40
1
40
1
40
1
40
1
41
1
10
93.43929734052
20
-2.30172110613047
30
0
41
1
10
93.4231874599148
20
-2.36179548998377
30
0
41
1
10
93.3506252274308
20
-2.62788633006479
30
0
41
1
10
93.2199634014702
20
-3.07083542157443
30
0
41
1
10
93.0499830271714
20
-3.57400595684206
30
0
41
1
10
92.8847740241171
20
-3.9891950799663
30
0
41
1
10
92.7813139259337
20
-4.19883029623637
30
0
41
1
10
92.7309621592199
20
-4.2875671260613
30
0
0
SPLINE
5
19D
100
AcDbEntity
8
SK1
62
256
6
ByLayer
370
18
48
1
60
0
100
AcDbSpline
70
4
71
2
72
6
73
3
40
0
40
0
40
0
40
1
40
1
40
1
41
1
10
-0.400000000000014
20
17.3251501409627
30
0
41
1
10
-1.20000000000001
20
17.3251501409627
30
0
41
1
10
-2
20
17.3251501409627
30
0
0
SPLINE
5
19E
100
AcDbEntity
8
1
62
256
6
ByLayer
370
18
48
1
60
0
100
AcDbSpline
70
4
71
3
72
15
73
11
40
0
40
0
40
0
40
0
40
0.166515919972071
40
0.33277447359718
40
0.501628500721079
40
0.63096677658393
40
0.72235004379461
40
0.814286437217113
40
0.89617148633194
40
1
40
1
40
1
40
1
41
1
10
104.314126263147
20
-0.795950869470154
30
0
41
1
10
104.217313171178
20
-0.832107300379214
30
0
41
1
10
104.022594492069
20
-0.913671426070444
30
0
41
1
10
103.724396581386
20
-1.06013719606897
30
0
41
1
10
103.446554481439
20
-1.23033049471449
30
0
41
1
10
103.224090356353
20
-1.41434623829544
30
0
41
1
10
103.075563435945
20
-1.58758166244883
30
0
41
1
10
102.99329945467
20
-1.74088430871011
30
0
41
1
10
102.96592945233
20
-1.88405019348571
30
0
41
1
10
102.977283266627
20
-1.96161260751298
30
0
41
1
10
102.994081088765
20
-1.9998439645825
30
0
0
SPLINE
5
19F
100
AcDbEntity
8
1
62
256
6
ByLayer
370
18
48
1
60
0
100
AcDbSpline
70
4
71
3
72
12
73
8
40
0
40
0
40
0
40
0
40
0.0500360492041483
40
0.271326406401378
40
0.492107472558811
40
0.712892156084566
40
1
40
1
40
1
40
1
41
1
10
68.3569232329823
20
-16.4015032626587
30
0
41
1
10
68.3952267110513
20
-16.4030058089398
30
0
41
1
10
68.602710127167
20
-16.4077184844376
30
0
41
1
10
68.9806227330718
20
-16.3835871372082
30
0
41
1
10
69.4747077901182
20
-16.2739656702632
30
0
41
1
10
69.989468135485
20
-16.0750405317182
30
0
41
1
10
70.3080901235545
20
-15.878207358614
30
0
41
1
10
70.4770540855382
20
-15.7478931966756
30
0
0
SPLINE
5
1A0
100
AcDbEntity
8
1
62
256
6
ByLayer
370
18
48
1
60
0
100
AcDbSpline
70
4
71
3
72
13
73
9
40
0
40
0
40
0
40
0
40
0.0811068003230325
40
0.542059695793709
40
0.698217929308302
40
0.855466894270598
40
0.966212236972857
40
1
40
1
40
1
40
1
41
1
10
8.10566243270257
20
-23.6665017920808
30
0
41
1
10
8.11055716182227
20
-23.6728293617708
30
0
41
1
10
8.14656537123944
20
-23.7145200781298
30
0
41
1
10
8.21224772505838
20
-23.7663890526222
30
0
41
1
10
8.33437440198706
20
-23.8124861135427
30
0
41
1
10
8.42067769292449
20
-23.8319383085952
30
0
41
1
10
8.49433884112819
20
-23.8385548003314
30
0
41
1
10
8.53019899418829
20
-23.8391220894066
30
0
41
1
10
8.53867513459479
20
-23.8391299750503
30
0
0
SPLINE
5
1A1
100
AcDbEntity
8
SK1
62
256
6
ByLayer
370
18
48
1
60
0
100
AcDbSpline
70
4
71
2
72
6
73
3
40
0
40
0
40
0
40
1
40
1
40
1
41
1
10
-28.5021287870238
20
16.858682171346
30
0
41
1
10
-29.2510644468808
20
16.4004936350171
30
0
41
1
10
-30
20
15.9423013487187
30
0
0
SPLINE
5
1A2
100
AcDbEntity
8
SK1
62
256
6
ByLayer
370
18
48
1
60
0
100
AcDbSpline
70
4
71
2
72
6
73
3
40
0
40
0
40
0
40
1
40
1
40
1
41
1
10
-30
20
-15.9408160639394
30
0
41
1
10
-29.250201613525
20
-16.3993636736335
30
0
41
1
10
-28.5004032853135
20
-16.8579102610953
30
0
0
SPLINE
5
1A3
100
AcDbEntity
8
1
62
256
6
ByLayer
370
18
48
1
60
0
100
AcDbSpline
70
4
71
1
72
4
73
2
40
0
40
0
40
1
40
1
41
1
10
78.5688566627283
20
-2.85213282676096
30
0
41
1
10
78.48112988314
20
-2.8336255543028
30
0
0
SPLINE
5
1A4
100
AcDbEntity
8
1
62
256
6
ByLayer
370
18
48
1
60
0
100
AcDbSpline
70
4
71
1
72
4
73
2
40
0
40
0
40
1
40
1
41
1
10
70.4770540855382
20
-15.7478931966756
30
0
41
1
10
70.5515746649245
20
-15.6881487907303
30
0
0
SPLINE
5
1A5
100
AcDbEntity
8
1
62
256
6
ByLayer
370
18
48
1
60
0
100
AcDbSpline
70
4
71
3
72
11
73
7
40
0
40
0
40
0
40
0
40
0.287267503473749
40
0.570601528950327
40
0.783593067569504
40
1
40
1
40
1
40
1
41
1
10
97.5425832482323
20
2.33223803478955
30
0
41
1
10
97.5681382432385
20
2.0973414430574
30
0
41
1
10
97.5814131851692
20
1.63363153102327
30
0
41
1
10
97.4965109481098
20
0.996496470518196
30
0
41
1
10
97.3397953844279
20
0.436156433600132
30
0
41
1
10
97.2059535902704
20
0.114601324813044
30
0
41
1
10
97.1283175287292
20
-0.0438913382504253
30
0
0
SPLINE
5
1A6
100
AcDbEntity
8
1
62
256
6
ByLayer
370
18
48
1
60
0
100
AcDbSpline
70
4
71
3
72
10
73
6
40
0
40
0
40
0
40
0
40
0.47092308314619
40
0.891368634956736
40
1
40
1
40
1
40
1
41
1
10
87.2334044323688
20
0.227025961331037
30
0
41
1
10
87.406155176282
20
0.163895847307558
30
0
41
1
10
87.7119954938049
20
0.0149925894719019
30
0
41
1
10
88.0331073229199
20
-0.223448384355947
30
0
41
1
10
88.1736549134782
20
-0.363262464652507
30
0
41
1
10
88.2016941870548
20
-0.392708824450132
30
0
0
SPLINE
5
1A7
100
AcDbEntity
8
1
62
256
6
ByLayer
370
18
48
1
60
0
100
AcDbSpline
70
4
71
3
72
12
73
8
40
0
40
0
40
0
40
0
40
0.184066467691791
40
0.47058031673133
40
0.647524711087839
40
0.823055605643488
40
1
40
1
40
1
40
1
41
1
10
77.1190772856369
20
-1.55367964572184
30
0
41
1
10
77.1771314484365
20
-1.68353653816145
30
0
41
1
10
77.3385476806661
20
-1.99236669994304
30
0
41
1
10
77.6121861208255
20
-2.34047336504433
30
0
41
1
10
77.9173796412019
20
-2.59743062291651
30
0
41
1
10
78.1909113372901
20
-2.75146744328758
30
0
41
1
10
78.382322783422
20
-2.812952111794
30
0
41
1
10
78.48112988314
20
-2.8336255543028
30
0
0
SPLINE
5
1A8
100
AcDbEntity
8
1
62
256
6
ByLayer
370
18
48
1
60
0
100
AcDbSpline
70
4
71
3
72
10
73
6
40
0
40
0
40
0
40
0
40
0.324059532807387
40
0.65548831096722
40
1
40
1
40
1
40
1
41
1
10
84.8168071112551
20
-4.15541915675443
30
0
41
1
10
84.6326133599572
20
-4.13131141197148
30
0
41
1
10
84.2533254607047
20
-4.05044523656591
30
0
41
1
10
83.6344156110999
20
-3.84495222770261
30
0
41
1
10
83.2286033977769
20
-3.61365036009244
30
0
41
1
10
83.0215554431803
20
-3.47476264024887
30
0
0
SPLINE
5
1A9
100
AcDbEntity
8
SK1
62
256
6
ByLayer
370
18
48
1
60
0
100
AcDbSpline
70
4
71
3
72
11
73
7
40
0
40
0
40
0
40
0
40
0.243046950855202
40
0.498204668192626
40
0.754242469704769
40
1
40
1
40
1
40
1
41
1
10
-0.400000000000031
20
-17.3241468641747
30
0
41
1
10
-0.373991174653778
20
-17.3239674893689
30
0
41
1
10
-0.324421202647573
20
-17.3327583040749
30
0
41
1
10
-0.254178044541126
20
-17.3766339294131
30
0
41
1
10
-0.20935004437608
20
-17.4456203921355
30
0
41
1
10
-0.199994500672242
20
-17.4938412312525
30
0
41
1
10
-0.200000000000034
20
-17.5191688355707
30
0
0
SPLINE
5
1AA
100
AcDbEntity
8
1
62
256
6
ByLayer
370
18
48
1
60
0
100
AcDbSpline
70
4
71
1
72
4
73
2
40
0
40
0
40
1
40
1
41
1
10
81.0603068975805
20
10.9165444005485
30
0
41
1
10
80.972580117992
20
10.9350516730067
30
0
0
SPLINE
5
1AB
100
AcDbEntity
8
1
62
256
6
ByLayer
370
18
48
1
60
0
100
AcDbSpline
70
4
71
3
72
11
73
7
40
0
40
0
40
0
40
0
40
0.165080412346162
40
0.54069664712345
40
0.916508467179733
40
1
40
1
40
1
40
1
41
1
10
93.6911560720748
20
2.48609596040143
30
0
41
1
10
93.6919930505953
20
2.47836312031989
30
0
41
1
10
93.6958234499162
20
2.45295146803161
30
0
41
1
10
93.7084148286304
20
2.40759941243504
30
0
41
1
10
93.7274437368935
20
2.3689980664122
30
0
41
1
10
93.7392112207295
20
2.34993817998372
30
0
41
1
10
93.741411704482
20
2.34652660127137
30
0
0
SPLINE
5
1AC
100
AcDbEntity
8
1
62
256
6
ByLayer
370
18
48
1
60
0
100
AcDbSpline
70
4
71
2
72
6
73
3
40
0
40
0
40
0
40
1
40
1
40
1
41
1
10
87.2334044323688
20
0.227025961331044
30
0
41
1
10
86.8752185496664
20
0.360345781962742
30
0
41
1
10
86.5166398016725
20
0.417343241765394
30
0
0
SPLINE
5
1AD
100
AcDbEntity
8
1
62
256
6
ByLayer
370
18
48
1
60
0
100
AcDbSpline
70
4
71
3
72
13
73
9
40
0
40
0
40
0
40
0
40
0.260822121799801
40
0.395252665390482
40
0.529665972265147
40
0.740111661383763
40
0.95623349774607
40
1
40
1
40
1
40
1
41
1
10
88.1506219654531
20
5.4879669931965
30
0
41
1
10
87.872490483138
20
5.71009674781391
30
0
41
1
10
87.46106741195
20
6.03064762361851
30
0
41
1
10
86.9273815916985
20
6.43036112078062
30
0
41
1
10
86.4620610073208
20
6.76694271062119
30
0
41
1
10
85.949621635567
20
7.11745742455913
30
0
41
1
10
85.5662743434791
20
7.35382725319759
30
0
41
1
10
85.37576418473
20
7.45992089898234
30
0
41
1
10
85.344211974782
20
7.47715873078715
30
0
0
SPLINE
5
1AE
100
AcDbEntity
8
1
62
256
6
ByLayer
370
18
48
1
60
0
100
AcDbSpline
70
4
71
3
72
12
73
8
40
0
40
0
40
0
40
0
40
0.0777065243411383
40
0.182768991260449
40
0.355509705274234
40
0.661119206188008
40
1
40
1
40
1
40
1
41
1
10
8.53867513459481
20
23.8391299750504
30
0
41
1
10
8.5188906142514
20
23.8390510092636
30
0
41
1
10
8.47384249247805
20
23.837417080354
30
0
41
1
10
8.39097933474601
20
23.8265956452497
30
0
41
1
10
8.28079022698234
20
23.7967264721262
30
0
41
1
10
8.17813160018116
20
23.7411879478122
30
0
41
1
10
8.12412228713196
20
23.6935586164054
30
0
41
1
10
8.1056624327026
20
23.6665017920809
30
0
0
SPLINE
5
1AF
100
AcDbEntity
8
1
62
256
6
ByLayer
370
18
48
1
60
0
100
AcDbSpline
70
4
71
3
72
17
73
13
40
0
40
0
40
0
40
0
40
0.130238461442953
40
0.263334724599208
40
0.393954279849676
40
0.516373332164674
40
0.624775638272025
40
0.716205644748393
40
0.783807865778427
40
0.846432142252021
40
0.915848400434329
40
1
40
1
40
1
40
1
41
1
10
97.5425832483152
20
2.33223803476736
30
0
41
1
10
97.8680718720381
20
2.24500489207892
30
0
41
1
10
98.5203639123536
20
2.06737223838495
30
0
41
1
10
99.4784397779891
20
1.79718662194816
30
0
41
1
10
100.400468556677
20
1.52991903223381
30
0
41
1
10
101.248698738133
20
1.27801103427416
30
0
41
1
10
101.990906150012
20
1.05169488564196
30
0
41
1
10
102.592810580248
20
0.864051639106428
30
0
41
1
10
103.088810355419
20
0.72737809704175
30
0
41
1
10
103.537329706615
20
0.633858395940152
30
0
41
1
10
104.014731036807
20
0.541362559104094
30
0
41
1
10
104.347422888071
20
0.469434242597345
30
0
41
1
10
104.527761595714
20
0.429409480076423
30
0
0
SPLINE
5
1B0
100
AcDbEntity
8
SK1
62
256
6
ByLayer
370
18
48
1
60
0
100
AcDbSpline
70
4
71
2
72
6
73
3
40
0
40
0
40
0
40
1
40
1
40
1
41
1
10
-30
20
-15.9408160639394
30
0
41
1
10
-29.2502016135251
20
-16.3993636736335
30
0
41
1
10
-28.5004032853135
20
-16.8579102610953
30
0
0
SPLINE
5
1B1
100
AcDbEntity
8
1
62
256
6
ByLayer
370
18
48
1
60
0
100
AcDbSpline
70
4
71
1
72
4
73
2
40
0
40
0
40
1
40
1
41
1
10
80.9725801179922
20
10.9350516730066
30
0
41
1
10
80.8848533384037
20
10.9535589454648
30
0
0
SPLINE
5
1B2
100
AcDbEntity
8
1
62
256
6
ByLayer
370
18
48
1
60
0
100
AcDbSpline
70
4
71
3
72
12
73
8
40
0
40
0
40
0
40
0
40
0.0777065243411387
40
0.182768991260438
40
0.355509705274229
40
0.661119206188008
40
1
40
1
40
1
40
1
41
1
10
8.53867513459481
20
23.8391299750504
30
0
41
1
10
8.5188906142514
20
23.8390510092636
30
0
41
1
10
8.47384249247805
20
23.837417080354
30
0
41
1
10
8.39097933474601
20
23.8265956452497
30
0
41
1
10
8.28079022698235
20
23.7967264721263
30
0
41
1
10
8.17813160018115
20
23.7411879478122
30
0
41
1
10
8.12412228713196
20
23.6935586164054
30
0
41
1
10
8.10566243270259
20
23.6665017920809
30
0
0
SPLINE
5
1B3
100
AcDbEntity
8
SK1
62
256
6
ByLayer
370
18
48
1
60
0
100
AcDbSpline
70
4
71
3
72
11
73
7
40
0
40
0
40
0
40
0
40
0.245755007744285
40
0.501794198211325
40
0.756953870258774
40
1
40
1
40
1
40
1
41
1
10
-0.200000000000001
20
17.5191731511753
30
0
41
1
10
-0.199994647676394
20
17.4938449669989
30
0
41
1
10
-0.209350242264557
20
17.445622853432
30
0
41
1
10
-0.254178184246731
20
17.3766360753192
30
0
41
1
10
-0.32442073676099
20
17.33275982811
30
0
41
1
10
-0.373991067023736
20
17.3239685556465
30
0
41
1
10
-0.399999999999997
20
17.3241476526065
30
0
0
SPLINE
5
1B4
100
AcDbEntity
8
1
62
256
6
ByLayer
370
18
48
1
60
0
100
AcDbSpline
70
4
71
3
72
13
73
9
40
0
40
0
40
0
40
0
40
0.0811068003230306
40
0.542059695793711
40
0.698217929308302
40
0.855466894270593
40
0.966212236972864
40
1
40
1
40
1
40
1
41
1
10
8.10566243270257
20
-23.6665017920808
30
0
41
1
10
8.11055716182227
20
-23.6728293617708
30
0
41
1
10
8.14656537123943
20
-23.7145200781298
30
0
41
1
10
8.21224772505839
20
-23.7663890526222
30
0
41
1
10
8.33437440198705
20
-23.8124861135428
30
0
41
1
10
8.42067769292448
20
-23.8319383085952
30
0
41
1
10
8.4943388411282
20
-23.8385548003314
30
0
41
1
10
8.53019899418828
20
-23.8391220894066
30
0
41
1
10
8.53867513459478
20
-23.8391299750503
30
0
0
SPLINE
5
1B5
100
AcDbEntity
8
1
62
256
6
ByLayer
370
18
48
1
60
0
100
AcDbSpline
70
4
71
3
72
17
73
13
40
0
40
0
40
0
40
0
40
0.130238464739766
40
0.263334731265298
40
0.393954289822424
40
0.516373345236526
40
0.624775654088146
40
0.716205662879108
40
0.783807881193225
40
0.84643215473847
40
0.915848407520521
40
1
40
1
40
1
40
1
41
1
10
97.1283175288144
20
-0.0438913382588311
30
0
41
1
10
97.4632637873969
20
-0.0768777428440544
30
0
41
1
10
98.135305202801
20
-0.141232690852391
30
0
41
1
10
99.1250229313591
20
-0.229928127511322
30
0
41
1
10
100.079535430272
20
-0.310876844718386
30
0
41
1
10
100.95934275527
20
-0.381665877879683
30
0
41
1
10
101.730864928111
20
-0.439839548483988
30
0
41
1
10
102.357632806123
20
-0.484871928124427
30
0
41
1
10
102.867903179083
20
-0.539692604245197
30
0
41
1
10
103.319089250472
20
-0.617916423414464
30
0
41
1
10
103.796760278531
20
-0.708865073401917
30
0
41
1
10
104.132060568337
20
-0.765831805726108
30
0
41
1
10
104.314126263148
20
-0.79595086947036
30
0
0
SPLINE
5
1B6
100
AcDbEntity
8
SK1
62
256
6
ByLayer
370
18
48
1
60
0
100
AcDbSpline
70
4
71
3
72
13
73
9
40
0
40
0
40
0
40
0
40
0.239445575724615
40
0.368345624848072
40
0.499983592440207
40
0.631624288955042
40
0.760531862675222
40
1
40
1
40
1
40
1
41
1
10
-2.20000000000002
20
-17.5251299251291
30
0
41
1
10
-2.19974657467481
20
-17.4990601038703
30
0
41
1
10
-2.19262861856454
20
-17.461500245273
30
0
41
1
10
-2.16840047423859
20
-17.4146623717451
30
0
41
1
10
-2.14242236464555
20
-17.3827213497399
30
0
41
1
10
-2.11047805094367
20
-17.3567460311214
30
0
41
1
10
-2.06363514965126
20
-17.3325204707742
30
0
41
1
10
-2.02607195888455
20
-17.325403217799
30
0
41
1
10
-2.00000000000002
20
-17.3251501414068
30
0
0
SPLINE
5
1B7
100
AcDbEntity
8
1
62
256
6
ByLayer
370
18
48
1
60
0
100
AcDbSpline
70
4
71
3
72
13
73
9
40
0
40
0
40
0
40
0
40
0.0811068003230105
40
0.542059695793592
40
0.69821792930822
40
0.855466894270544
40
0.966212236972828
40
1
40
1
40
1
40
1
41
1
10
11.8943375672974
20
-8.05584836782767
30
0
41
1
10
11.8894428381777
20
-8.03725171409793
30
0
41
1
10
11.8534346287606
20
-7.91434257650652
30
0
41
1
10
11.7877522749416
20
-7.75704006565196
30
0
41
1
10
11.665625598013
20
-7.613657698143
30
0
41
1
10
11.5793223070755
20
-7.55243803205591
30
0
41
1
10
11.5056611588718
20
-7.53148602816105
30
0
41
1
10
11.4698010058117
20
-7.52969262189669
30
0
41
1
10
11.4613248654052
20
-7.52966679426493
30
0
0
SPLINE
5
1B8
100
AcDbEntity
8
1
62
256
6
ByLayer
370
18
48
1
60
0
100
AcDbSpline
70
4
71
2
72
6
73
3
40
0
40
0
40
0
40
1
40
1
40
1
41
1
10
71.5199999902141
20
-13.6758132901536
30
0
41
1
10
71.5198440945132
20
-13.3997234626145
30
0
41
1
10
71.4613873384843
20
-13.128599474428
30
0
0
SPLINE
5
1B9
100
AcDbEntity
8
1
62
256
6
ByLayer
370
18
48
1
60
0
100
AcDbSpline
70
4
71
3
72
17
73
13
40
0
40
0
40
0
40
0
40
0.10570749050097
40
0.214537987911687
40
0.331575768592226
40
0.458225429693495
40
0.576001106007797
40
0.66785135750475
40
0.747636543165547
40
0.829485807613322
40
0.914257050314338
40
1
40
1
40
1
40
1
41
1
10
82.9379316234553
20
14.7546778223344
30
0
41
1
10
82.8320019455259
20
14.6547374318291
30
0
41
1
10
82.6243547675527
20
14.4421272381836
30
0
41
1
10
82.3219674839159
20
14.0854477395338
30
0
41
1
10
82.0361666185258
20
13.6662131294376
30
0
41
1
10
81.7757628430363
20
13.208189211352
30
0
41
1
10
81.5521797374287
20
12.7690456525961
30
0
41
1
10
81.3698679764405
20
12.3834250261611
30
0
41
1
10
81.2458937411063
20
12.0269423293059
30
0
41
1
10
81.1381976713589
20
11.6760317940479
30
0
41
1
10
81.0445597160415
20
11.3108553355344
30
0
41
1
10
80.9945325505612
20
11.0613309955139
30
0
41
1
10
80.9725801179922
20
10.9350516730066
30
0
0
SPLINE
5
1BA
100
AcDbEntity
8
1
62
256
6
ByLayer
370
18
48
1
60
0
100
AcDbSpline
70
4
71
2
72
6
73
3
40
0
40
0
40
0
40
1
40
1
40
1
41
1
10
71.4613873384843
20
-13.128599474428
30
0
41
1
10
71.4108964789141
20
-12.8985996321658
30
0
41
1
10
71.3217916343398
20
-12.6786119353288
30
0
0
SPLINE
5
1BB
100
AcDbEntity
8
1
62
256
6
ByLayer
370
18
48
1
60
0
100
AcDbSpline
70
4
71
3
72
15
73
11
40
0
40
0
40
0
40
0
40
0.121432781348805
40
0.242857256103259
40
0.366312450963477
40
0.489949956517635
40
0.613040985309841
40
0.75432531892769
40
0.895551796214432
40
1
40
1
40
1
40
1
41
1
10
77.1191888491797
20
-1.55338355190121
30
0
41
1
10
77.0685220013238
20
-1.84767870775322
30
0
41
1
10
77.0143298508124
20
-2.43548313994413
30
0
41
1
10
77.0927640842823
20
-3.32914516881032
30
0
41
1
10
77.2794374858092
20
-4.2068519516955
30
0
41
1
10
77.5347676807028
20
-5.07180897855467
30
0
41
1
10
77.9098409167169
20
-5.94021416257079
30
0
41
1
10
78.4315180726124
20
-6.77920993962834
30
0
41
1
10
79.0463406084677
20
-7.49501503151919
30
0
41
1
10
79.4993064538011
20
-7.87834834217058
30
0
41
1
10
79.703338135002
20
-8.03007640091213
30
0
0
SPLINE
5
1BC
100
AcDbEntity
8
1
62
256
6
ByLayer
370
18
48
1
60
0
100
AcDbSpline
70
4
71
3
72
14
73
10
40
0
40
0
40
0
40
0
40
0.185711059846893
40
0.374949563144497
40
0.487831160119467
40
0.600699303268656
40
0.717935915299722
40
0.835152857895684
40
1
40
1
40
1
40
1
41
1
10
88.2016941870567
20
-0.392708824448313
30
0
41
1
10
87.9971069965436
20
-0.60009925025647
30
0
41
1
10
87.5899019114669
20
-1.00475731654286
30
0
41
1
10
87.0701780836355
20
-1.50074215917793
30
0
41
1
10
86.645809840329
20
-1.88860140446484
30
0
41
1
10
86.3081342992642
20
-2.18556282512604
30
0
41
1
10
85.9837098648544
20
-2.4570995552317
30
0
41
1
10
85.6347920550726
20
-2.73104936482205
30
0
41
1
10
85.4151811563197
20
-2.88475009565809
30
0
41
1
10
85.2953655303205
20
-2.9617132008104
30
0
0
SPLINE
5
1BD
100
AcDbEntity
8
1
62
256
6
ByLayer
370
18
48
1
60
0
100
AcDbSpline
70
4
71
3
72
11
73
7
40
0
40
0
40
0
40
0
40
0.275610306987171
40
0.551220613974345
40
0.776274487772622
40
1
40
1
40
1
40
1
41
1
10
80.8848533384038
20
10.9535589454648
30
0
41
1
10
80.7297427480882
20
10.9862818377172
30
0
41
1
10
80.4176335946986
20
11.0009475237719
30
0
41
1
10
79.96499199289
20
10.8748499218426
30
0
41
1
10
79.5512956220966
20
10.642271055915
30
0
41
1
10
79.3078230036421
20
10.4366731451894
30
0
41
1
10
79.1889702072326
20
10.3187009727459
30
0
0
SPLINE
5
1BE
100
AcDbEntity
8
1
62
256
6
ByLayer
370
18
48
1
60
0
100
AcDbSpline
70
4
71
3
72
10
73
6
40
0
40
0
40
0
40
0
40
0.323508598477532
40
0.66174297724657
40
1
40
1
40
1
40
1
41
1
10
79.8928504138001
20
-8.1651727056847
30
0
41
1
10
79.9132353482798
20
-8.17932831204198
30
0
41
1
10
79.9550437262243
20
-8.2081176687932
30
0
41
1
10
80.0185677328203
20
-8.25111035382365
30
0
41
1
10
80.0617736633594
20
-8.27983775437496
30
0
41
1
10
80.0834359760312
20
-8.29411292096796
30
0
0
SPLINE
5
1BF
100
AcDbEntity
8
SK1
62
256
6
ByLayer
370
18
48
1
60
0
100
AcDbSpline
70
4
71
2
72
6
73
3
40
0
40
0
40
0
40
1
40
1
40
1
41
1
10
-2.00000000000002
20
-17.3251501414068
30
0
41
1
10
-1.20000000000003
20
-17.3251501414068
30
0
41
1
10
-0.400000000000033
20
-17.3251501414068
30
0
0
SPLINE
5
1C0
100
AcDbEntity
8
1
62
256
6
ByLayer
370
18
48
1
60
0
100
AcDbSpline
70
4
71
3
72
14
73
10
40
0
40
0
40
0
40
0
40
0.121523556150925
40
0.222387548356989
40
0.323386695986748
40
0.48828259506176
40
0.65357796433999
40
0.826693836490473
40
1
40
1
40
1
40
1
41
1
10
106.36709698504
20
2.26010607203457
30
0
41
1
10
106.223163930205
20
2.37239684684506
30
0
41
1
10
105.966002759587
20
2.54238776765324
30
0
41
1
10
105.604066854611
20
2.69376148052117
30
0
41
1
10
105.221058568045
20
2.77124614051901
30
0
41
1
10
104.814010805623
20
2.74264805568442
30
0
41
1
10
104.396308574251
20
2.58945149631438
30
0
41
1
10
104.024890795831
20
2.33633221942264
30
0
41
1
10
103.798641969725
20
2.12530437027257
30
0
41
1
10
103.69273796443
20
2.0074852585816
30
0
0
SPLINE
5
1C1
100
AcDbEntity
8
1
62
256
6
ByLayer
370
18
48
1
60
0
100
AcDbSpline
70
4
71
3
72
16
73
12
40
0
40
0
40
0
40
0
40
0.1715937874071
40
0.27350596041992
40
0.37541722975462
40
0.477917285267696
40
0.580416016375345
40
0.684916554760251
40
0.789415117142602
40
0.894708918305685
40
1
40
1
40
1
40
1
41
1
10
35.5
20
-21
30
0
41
1
10
34.5626111339912
20
-21.1236135268956
30
0
41
1
10
33.0787499553684
20
-21.3545818319935
30
0
41
1
10
31.0627179865931
20
-21.7465864557429
30
0
41
1
10
29.4341620139407
20
-22.1104154351787
30
0
41
1
10
27.8212563112893
20
-22.5181925867544
30
0
41
1
10
26.216615254763
20
-22.9714148466074
30
0
41
1
10
24.6268594828042
20
-23.4686551087957
30
0
41
1
10
23.0519956699423
20
-24.0096007957589
30
0
41
1
10
21.5057730776715
20
-24.5892944006331
30
0
41
1
10
20.4978705899461
20
-24.9985298590304
30
0
41
1
10
20
20
-25.2088681924339
30
0
0
SPLINE
5
1C2
100
AcDbEntity
8
1
62
256
6
ByLayer
370
18
48
1
60
0
100
AcDbSpline
70
4
71
3
72
21
73
17
40
0
40
0
40
0
40
0
40
0.0387846401364345
40
0.086920691979509
40
0.143208125782052
40
0.20628528013509
40
0.315676119310102
40
0.432650019748522
40
0.540774574233189
40
0.645946529713627
40
0.743522580533252
40
0.828841547094683
40
0.899151826987374
40
0.936215701464884
40
0.969831648817189
40
1
40
1
40
1
40
1
41
1
10
92.7309621592199
20
-4.2875671260613
30
0
41
1
10
92.8698327657347
20
-4.29036556547297
30
0
41
1
10
93.1802811710035
20
-4.28576057294096
30
0
41
1
10
93.6892101791751
20
-4.22570077739302
30
0
41
1
10
94.2796602942437
20
-4.13026069137773
30
0
41
1
10
95.0810637432627
20
-3.97050226286594
30
0
41
1
10
96.088245565699
20
-3.73574156740543
30
0
41
1
10
97.2448782058179
20
-3.43353669996586
30
0
41
1
10
98.3793593560374
20
-3.11371049017708
30
0
41
1
10
99.4403626508199
20
-2.80016172564432
30
0
41
1
10
100.417474363051
20
-2.50384115999536
30
0
41
1
10
101.26937741425
20
-2.24136172322773
30
0
41
1
10
101.912535833515
20
-2.05079496187465
30
0
41
1
10
102.381788828992
20
-1.96517983834341
30
0
41
1
10
102.707438391683
20
-1.96480222823274
30
0
41
1
10
102.903339851228
20
-1.98476224731117
30
0
41
1
10
102.994081088768
20
-1.99984396458296
30
0
0
SPLINE
5
1C3
100
AcDbEntity
8
1
62
256
6
ByLayer
370
18
48
1
60
0
100
AcDbSpline
70
4
71
3
72
13
73
9
40
0
40
0
40
0
40
0
40
0.164656812167782
40
0.369462859191108
40
0.574290770920718
40
0.779115244547443
40
0.983491284732404
40
1
40
1
40
1
40
1
41
1
10
70.5515746649245
20
-15.6881487907303
30
0
41
1
10
70.6521665046338
20
-15.6044465210672
30
0
41
1
10
70.8614969749533
20
-15.4049091424513
30
0
41
1
10
71.1341250743647
20
-15.0504600490246
30
0
41
1
10
71.3486711363845
20
-14.62999325053
30
0
41
1
10
71.4849097479716
20
-14.1808637073804
30
0
41
1
10
71.5172207332485
20
-13.8567304487088
30
0
41
1
10
71.5198882499155
20
-13.6884038669671
30
0
41
1
10
71.5199999902141
20
-13.6758132901536
30
0
0
SPLINE
5
1C4
100
AcDbEntity
8
1
62
256
6
ByLayer
370
18
48
1
60
0
100
AcDbSpline
70
4
71
1
72
4
73
2
40
0
40
0
40
1
40
1
41
1
10
83.7407545824958
20
-0.780239582089592
30
0
41
1
10
83.730241013771
20
-0.849401324944182
30
0
0
SPLINE
5
1C5
100
AcDbEntity
8
1
62
256
6
ByLayer
370
18
48
1
60
0
100
AcDbSpline
70
4
71
3
72
19
73
15
40
0
40
0
40
0
40
0
40
0.10168037622568
40
0.203501214491097
40
0.306378583704415
40
0.413092332606495
40
0.530277269568468
40
0.651747916279097
40
0.727449293779334
40
0.783632059234835
40
0.83425611499937
40
0.888907073138865
40
0.944171114472243
40
1
40
1
40
1
40
1
41
1
10
79.7033381355055
20
-8.03007640101834
30
0
41
1
10
79.5931572645073
20
-7.8997024557149
30
0
41
1
10
79.3848141983442
20
-7.62626713102858
30
0
41
1
10
79.1072783113499
20
-7.17439392902849
30
0
41
1
10
78.863781717566
20
-6.68171491123147
30
0
41
1
10
78.6554031079669
20
-6.12938842916372
30
0
41
1
10
78.5107460262394
20
-5.50431721668193
30
0
41
1
10
78.4280311599604
20
-4.91849386925076
30
0
41
1
10
78.3753508850269
20
-4.44213041041611
30
0
41
1
10
78.3641802128942
20
-4.09285769820872
30
0
41
1
10
78.3776980746706
20
-3.7818994502214
30
0
41
1
10
78.3953127576168
20
-3.47266122672886
30
0
41
1
10
78.430195379857
20
-3.15341223553651
30
0
41
1
10
78.4624649549779
20
-2.94046503719416
30
0
41
1
10
78.48112988314
20
-2.83362555430281
30
0
0
SPLINE
5
1C6
100
AcDbEntity
8
1
62
256
6
ByLayer
370
18
48
1
60
0
100
AcDbSpline
70
4
71
3
72
11
73
7
40
0
40
0
40
0
40
0
40
0.277489935641916
40
0.563277494184228
40
0.780107031837763
40
1
40
1
40
1
40
1
41
1
10
103.813729286425
20
4.68581917572747
30
0
41
1
10
103.641941611729
20
4.74344129286368
30
0
41
1
10
103.285066925883
20
4.88212163498403
30
0
41
1
10
102.757100761187
20
5.13433377159893
30
0
41
1
10
102.266690980214
20
5.41982759669527
30
0
41
1
10
101.96959649868
20
5.6055784707853
30
0
41
1
10
101.819831606058
20
5.70363165147474
30
0
0
SPLINE
5
1C7
100
AcDbEntity
8
1
62
256
6
ByLayer
370
18
48
1
60
0
100
AcDbSpline
70
4
71
1
72
4
73
2
40
0
40
0
40
1
40
1
41
1
10
91.6093899420088
20
6.34251516092471
30
0
41
1
10
92.0086542716576
20
6.29149100341298
30
0
0
SPLINE
5
1C8
100
AcDbEntity
8
1
62
256
6
ByLayer
370
18
48
1
60
0
100
AcDbSpline
70
4
71
1
72
4
73
2
40
0
40
0
40
1
40
1
41
1
10
78.6565834423167
20
-2.87064009921911
30
0
41
1
10
78.5688566627283
20
-2.85213282676096
30
0
0
SPLINE
5
1C9
100
AcDbEntity
8
1
62
256
6
ByLayer
370
18
48
1
60
0
100
AcDbSpline
70
4
71
3
72
20
73
16
40
0
40
0
40
0
40
0
40
0.0954611577633985
40
0.190423686204095
40
0.2868910441645
40
0.385280336869946
40
0.485040453304319
40
0.585933952660488
40
0.641874070977273
40
0.702538367679674
40
0.76688903369734
40
0.820618933546103
40
0.860513065827668
40
0.928089036650723
40
1
40
1
40
1
40
1
41
1
10
88.4996695426
20
11.6590411686832
30
0
41
1
10
88.2600913561216
20
11.6958791479162
30
0
41
1
10
87.7806959053071
20
11.7250115846765
30
0
41
1
10
87.0465653599106
20
11.6334713271897
30
0
41
1
10
86.3154567812178
20
11.4099974861092
30
0
41
1
10
85.5997200486062
20
11.0446874530905
30
0
41
1
10
84.9190872377183
20
10.5471800695748
30
0
41
1
10
84.3835109754857
20
10.0263817290215
30
0
41
1
10
83.9779575023001
20
9.52057631254436
30
0
41
1
10
83.6803834972578
20
9.05760762984334
30
0
41
1
10
83.4211671386961
20
8.57302466549943
30
0
41
1
10
83.2029510188396
20
8.137077013191
30
0
41
1
10
83.0093805577567
20
7.67402591559659
30
0
41
1
10
82.8488240888152
20
7.13326142735019
30
0
41
1
10
82.7525943786124
20
6.70690494799749
30
0
41
1
10
82.7129095565278
20
6.48382156363553
30
0
0
SPLINE
5
1CA
100
AcDbEntity
8
1
62
256
6
ByLayer
370
18
48
1
60
0
100
AcDbSpline
70
4
71
3
72
17
73
13
40
0
40
0
40
0
40
0
40
0.105656240140695
40
0.214354543473196
40
0.331222279942313
40
0.457712066316305
40
0.575768874469961
40
0.667853452375195
40
0.747735242551599
40
0.82952987398672
40
0.914278614890834
40
1
40
1
40
1
40
1
41
1
10
83.0320874046933
20
14.7422819791891
30
0
41
1
10
82.9258925427742
20
14.642330671964
30
0
41
1
10
82.717764203846
20
14.4297703081574
30
0
41
1
10
82.4145204382559
20
14.0733876078704
30
0
41
1
10
82.1279822500596
20
13.6542831688624
30
0
41
1
10
81.8665922572293
20
13.1956925092889
30
0
41
1
10
81.6422145485681
20
12.755188178485
30
0
41
1
10
81.4588955243233
20
12.3680741776811
30
0
41
1
10
81.3342473531472
20
12.0105483773801
30
0
41
1
10
81.2263104425697
20
11.6588540981065
30
0
41
1
10
81.1324293862489
20
11.2930592313584
30
0
41
1
10
81.0823008655128
20
11.0430640338904
30
0
41
1
10
81.0603068975805
20
10.9165444005485
30
0
0
SPLINE
5
1CB
100
AcDbEntity
8
1
62
256
6
ByLayer
370
18
48
1
60
0
100
AcDbSpline
70
4
71
3
72
17
73
13
40
0
40
0
40
0
40
0
40
0.105759030524134
40
0.214723929075466
40
0.331931992914066
40
0.458735642795414
40
0.576230705722592
40
0.667847075210026
40
0.747537807047714
40
0.829441573179429
40
0.91423540185292
40
1
40
1
40
1
40
1
41
1
10
82.8437920364345
20
14.7670715335116
30
0
41
1
10
82.7381263221667
20
14.6671432628485
30
0
41
1
10
82.5309568923403
20
14.4544833878048
30
0
41
1
10
82.2294284761392
20
14.0975018617556
30
0
41
1
10
81.9443653134846
20
13.6781476179061
30
0
41
1
10
81.6849421720438
20
13.2207031953894
30
0
41
1
10
81.4621571459481
20
12.7829216828524
30
0
41
1
10
81.2808481900298
20
12.398786332423
30
0
41
1
10
81.1575418995169
20
12.0433423991288
30
0
41
1
10
81.0500858335052
20
11.6932110888462
30
0
41
1
10
80.9566902758758
20
11.3286526322667
30
0
41
1
10
80.9067643039924
20
11.0795983589477
30
0
41
1
10
80.8848533384038
20
10.9535589454648
30
0
0
SPLINE
5
1CC
100
AcDbEntity
8
SK1
62
256
6
ByLayer
370
18
48
1
60
0
100
AcDbSpline
70
4
71
3
72
16
73
12
40
0
40
0
40
0
40
0
40
0.0439503849784339
40
0.0882962095956774
40
0.119823748748281
40
0.151333080321582
40
0.197785752387554
40
0.285208338526593
40
0.432294100651084
40
0.580085301699413
40
1
40
1
40
1
40
1
41
1
10
-0.400000000000053
20
-5.16866679574524
30
0
41
1
10
-0.420260552159733
20
-5.1895912399162
30
0
41
1
10
-0.465532793809286
20
-5.22459689576225
30
0
41
1
10
-0.540325064014492
20
-5.2597574638592
30
0
41
1
10
-0.615566278393652
20
-5.26603853608316
30
0
41
1
10
-0.689853412389399
20
-5.24890814810316
30
0
41
1
10
-0.785804329696925
20
-5.19137211714247
30
0
41
1
10
-0.905339112737141
20
-5.05378758708936
30
0
41
1
10
-1.02152968139803
20
-4.8418305516861
30
0
41
1
10
-1.17561394769093
20
-4.42035003265131
30
0
41
1
10
-1.26556409785408
20
-4.07230605007431
30
0
41
1
10
-1.30710678118656
20
-3.80474664113266
30
0
0
SPLINE
5
1CD
100
AcDbEntity
8
1
62
256
6
ByLayer
370
18
48
1
60
0
100
AcDbSpline
70
4
71
3
72
12
73
8
40
0
40
0
40
0
40
0
40
0.0777065243411259
40
0.182768991260431
40
0.355509705274206
40
0.661119206187954
40
1
40
1
40
1
40
1
41
1
10
8.53867513459479
20
-7.52966679426495
30
0
41
1
10
8.51889061425138
20
-7.52992453895391
30
0
41
1
10
8.47384249247804
20
-7.53508753718815
30
0
41
1
10
8.390979334746
20
-7.56930040674377
30
0
41
1
10
8.28079022698235
20
-7.66302821977526
30
0
41
1
10
8.17813160018114
20
-7.83415197314216
30
0
41
1
10
8.12412228713195
20
-7.97612018956247
30
0
41
1
10
8.10566243270258
20
-8.05584836782769
30
0
0
SPLINE
5
1CE
100
AcDbEntity
8
1
62
256
6
ByLayer
370
18
48
1
60
0
100
AcDbSpline
70
4
71
3
72
10
73
6
40
0
40
0
40
0
40
0
40
0.405363710191616
40
0.814678719510206
40
1
40
1
40
1
40
1
41
1
10
89.2713877199508
20
5.74279817988019
30
0
41
1
10
89.1306882231152
20
5.67660854115715
30
0
41
1
10
88.8404440072734
20
5.5692271545708
30
0
41
1
10
88.4468751824398
20
5.50405403707009
30
0
41
1
10
88.2211380398465
20
5.48983986009848
30
0
41
1
10
88.1506219654531
20
5.48796699319649
30
0
0
SPLINE
5
1CF
100
AcDbEntity
8
1
62
256
6
ByLayer
370
18
48
1
60
0
100
AcDbSpline
70
4
71
3
72
12
73
8
40
0
40
0
40
0
40
0
40
0.066676401822621
40
0.300007301366964
40
0.533338200911311
40
0.766669100455654
40
1
40
1
40
1
40
1
41
1
10
94.8344967385691
20
5.70080990507445
30
0
41
1
10
94.8393235754152
20
5.7608235423555
30
0
41
1
10
94.8594952528361
20
6.0266322969692
30
0
41
1
10
94.8831847192544
20
6.46900541245439
30
0
41
1
10
94.8885000656398
20
6.97128932653208
30
0
41
1
10
94.8678887264926
20
7.38547791994902
30
0
41
1
10
94.8374004910043
20
7.59439190577879
30
0
41
1
10
94.8179247780544
20
7.68275275702668
30
0
0
SPLINE
5
1D0
100
AcDbEntity
8
1
62
256
6
ByLayer
370
18
48
1
60
0
100
AcDbSpline
70
4
71
3
72
17
73
13
40
0
40
0
40
0
40
0
40
0.119959689389113
40
0.239919378778225
40
0.305322849737373
40
0.370037878967395
40
0.499985978379669
40
0.629934077791945
40
0.759882177204221
40
0.840135148658704
40
0.919747028545515
40
1
40
1
40
1
40
1
41
1
10
78.6565834423167
20
-2.87064009921912
30
0
41
1
10
78.8053240566137
20
-2.9020191500324
30
0
41
1
10
79.1047139627563
20
-2.91801299908027
30
0
41
1
10
79.497497531276
20
-2.81603108087403
30
0
41
1
10
79.8135272802579
20
-2.66137151151828
30
0
41
1
10
80.1359345202127
20
-2.44863089508505
30
0
41
1
10
80.5198839676919
20
-2.08700409195814
30
0
41
1
10
80.9332558559794
20
-1.52579853816111
30
0
41
1
10
81.2347676058832
20
-0.938587126937534
30
0
41
1
10
81.4443051073028
20
-0.393253381529611
30
0
41
1
10
81.5845123146975
20
0.0829338186655733
30
0
41
1
10
81.6538419362233
20
0.408678456340091
30
0
41
1
10
81.6827423614147
20
0.575028206592286
30
0
0
SPLINE
5
1D1
100
AcDbEntity
8
1
62
256
6
ByLayer
370
18
48
1
60
0
100
AcDbSpline
70
4
71
3
72
13
73
9
40
0
40
0
40
0
40
0
40
0.0811068003230498
40
0.542059695793741
40
0.698217929308326
40
0.855466894270596
40
0.966212236972868
40
1
40
1
40
1
40
1
41
1
10
11.8943375672974
20
23.6665017920809
30
0
41
1
10
11.8894428381777
20
23.6728293617709
30
0
41
1
10
11.8534346287606
20
23.7145200781299
30
0
41
1
10
11.7877522749416
20
23.7663890526223
30
0
41
1
10
11.6656255980129
20
23.8124861135429
30
0
41
1
10
11.5793223070755
20
23.8319383085953
30
0
41
1
10
11.5056611588718
20
23.8385548003315
30
0
41
1
10
11.4698010058117
20
23.8391220894067
30
0
41
1
10
11.4613248654052
20
23.8391299750504
30
0
0
SPLINE
5
1D2
100
AcDbEntity
8
SK1
62
256
6
ByLayer
370
18
48
1
60
0
100
AcDbSpline
70
4
71
3
72
17
73
13
40
0
40
0
40
0
40
0
40
0.030351422025319
40
0.0536155087252501
40
0.0719362364152821
40
0.0902747582477805
40
0.115197940679837
40
0.15956565892942
40
0.298138202990395
40
0.587610881223524
40
0.878287013648289
40
1
40
1
40
1
40
1
41
1
10
-0.400000000000044
20
5.16866682996303
30
0
41
1
10
-0.394167575628449
20
5.16254689062892
30
0
41
1
10
-0.382671289712254
20
5.1540374818819
30
0
41
1
10
-0.364264031241598
20
5.14642716889604
30
0
41
1
10
-0.347332913984089
20
5.1460654458331
30
0
41
1
10
-0.330541138979943
20
5.15183291494155
30
0
41
1
10
-0.310401603395076
20
5.16756125175967
30
0
41
1
10
-0.276165558567058
20
5.21722886754109
30
0
41
1
10
-0.236739282710344
20
5.34658114116624
30
0
41
1
10
-0.207575999148843
20
5.54435821740563
30
0
41
1
10
-0.201433990875361
20
5.73654934889387
30
0
41
1
10
-0.199982261339112
20
5.84846084555258
30
0
41
1
10
-0.200000000000042
20
5.88142452370548
30
0
0
SPLINE
5
1D3
100
AcDbEntity
8
1
62
256
6
ByLayer
370
18
48
1
60
0
100
AcDbSpline
70
4
71
1
72
4
73
2
40
0
40
0
40
1
40
1
41
1
10
103.813729286425
20
4.68581917572746
30
0
41
1
10
104.108196730234
20
4.57400510595349
30
0
0
SPLINE
5
1D4
100
AcDbEntity
8
SK1
62
256
6
ByLayer
370
18
48
1
60
0
100
AcDbSpline
70
4
71
2
72
6
73
3
40
0
40
0
40
0
40
1
40
1
40
1
41
1
10
-3.00000000000001
20
-17.5000000000203
30
0
41
1
10
-2.59746056758974
20
-17.5101131916847
30
0
41
1
10
-2.19492113517948
20
-17.5202263833491
30
0
0
SPLINE
5
1D5
100
AcDbEntity
8
1
62
256
6
ByLayer
370
18
48
1
60
0
100
AcDbSpline
70
4
71
3
72
12
73
8
40
0
40
0
40
0
40
0
40
0.18142966613487
40
0.366867448225739
40
0.582033047866573
40
0.802198386802958
40
1
40
1
40
1
40
1
41
1
10
83.8997365270602
20
-0.808007959047039
30
0
41
1
10
84.0504122155186
20
-0.773832089552634
30
0
41
1
10
84.3773388156223
20
-0.692672671764825
30
0
41
1
10
84.9749249677203
20
-0.52181116281065
30
0
41
1
10
85.6779997237688
20
-0.302467062970599
30
0
41
1
10
86.4498015657348
20
-0.0458800567939903
30
0
41
1
10
86.9780089861835
20
0.136931634293291
30
0
41
1
10
87.2334044323688
20
0.227025961331051
30
0
0
SPLINE
5
1D6
100
AcDbEntity
8
1
62
256
6
ByLayer
370
18
48
1
60
0
100
AcDbSpline
70
4
71
1
72
4
73
2
40
0
40
0
40
1
40
1
41
1
10
104.323383182851
20
-4.00170891570967
30
0
41
1
10
105.384858949829
20
-3.37377705097137
30
0
0
SPLINE
5
1D7
100
AcDbEntity
8
1
62
256
6
ByLayer
370
18
48
1
60
0
100
AcDbSpline
70
4
71
1
72
4
73
2
40
0
40
0
40
1
40
1
41
1
10
107.319870846407
20
1.01971872249935
30
0
41
1
10
107.148642842155
20
1.20105351882959
30
0
0
SPLINE
5
1D8
100
AcDbEntity
8
1
62
256
6
ByLayer
370
18
48
1
60
0
100
AcDbSpline
70
4
71
3
72
13
73
9
40
0
40
0
40
0
40
0
40
0.0811068003230431
40
0.542059695793728
40
0.698217929308316
40
0.855466894270605
40
0.966212236972873
40
1
40
1
40
1
40
1
41
1
10
8.10566243270259
20
8.0558483678278
30
0
41
1
10
8.11055716182229
20
8.03725171409806
30
0
41
1
10
8.14656537123943
20
7.91434257650661
30
0
41
1
10
8.21224772505842
20
7.75704006565201
30
0
41
1
10
8.33437440198707
20
7.61365769814308
30
0
41
1
10
8.42067769292451
20
7.55243803205599
30
0
41
1
10
8.49433884112822
20
7.5314860281612
30
0
41
1
10
8.5301989941883
20
7.52969262189679
30
0
41
1
10
8.5386751345948
20
7.52966679426503
30
0
0
SPLINE
5
1D9
100
AcDbEntity
8
1
62
256
6
ByLayer
370
18
48
1
60
0
100
AcDbSpline
70
4
71
3
72
14
73
10
40
0
40
0
40
0
40
0
40
0.160803108009516
40
0.321601255345764
40
0.482749910745025
40
0.643860957375049
40
0.777689287683293
40
0.911384844345288
40
1
40
1
40
1
40
1
41
1
10
94.8344967401538
20
5.70080992477442
30
0
41
1
10
95.0625884858921
20
5.61013822093614
30
0
41
1
10
95.4975996401582
20
5.39560905945346
30
0
41
1
10
96.094739887724
20
4.96780430461507
30
0
41
1
10
96.6131978864507
20
4.45222708453914
30
0
41
1
10
97.0176260588675
20
3.892836470684
30
0
41
1
10
97.3074153083317
20
3.3129368339709
30
0
41
1
10
97.4721423355018
20
2.7968599030585
30
0
41
1
10
97.5275540304253
20
2.46603115356631
30
0
41
1
10
97.5425832482323
20
2.33223803478954
30
0
0
SPLINE
5
1DA
100
AcDbEntity
8
1
62
256
6
ByLayer
370
18
48
1
60
0
100
AcDbSpline
70
4
71
1
72
4
73
2
40
0
40
0
40
1
40
1
41
1
10
106.475685156905
20
-2.65887127691398
30
0
41
1
10
106.697125726532
20
-2.55219877293704
30
0
0
SPLINE
5
1DB
100
AcDbEntity
8
1
62
256
6
ByLayer
370
18
48
1
60
0
100
AcDbSpline
70
4
71
3
72
12
73
8
40
0
40
0
40
0
40
0
40
0.077706524341121
40
0.182768991260432
40
0.355509705274203
40
0.661119206187955
40
1
40
1
40
1
40
1
41
1
10
8.5386751345948
20
-7.52966679426495
30
0
41
1
10
8.51889061425139
20
-7.52992453895391
30
0
41
1
10
8.47384249247805
20
-7.53508753718816
30
0
41
1
10
8.390979334746
20
-7.56930040674376
30
0
41
1
10
8.28079022698236
20
-7.66302821977527
30
0
41
1
10
8.17813160018113
20
-7.83415197314215
30
0
41
1
10
8.12412228713195
20
-7.97612018956247
30
0
41
1
10
8.10566243270258
20
-8.05584836782768
30
0
0
SPLINE
5
1DC
100
AcDbEntity
8
SK1
62
256
6
ByLayer
370
18
48
1
60
0
100
AcDbSpline
70
4
71
3
72
13
73
9
40
0
40
0
40
0
40
0
40
0.239445575724926
40
0.368345624848606
40
0.499983592440959
40
0.631624288955868
40
0.760531862676271
40
1
40
1
40
1
40
1
41
1
10
-2.20000000000002
20
-17.5251299251291
30
0
41
1
10
-2.19974657467482
20
-17.4990601038702
30
0
41
1
10
-2.19262861856453
20
-17.4615002452729
30
0
41
1
10
-2.16840047423852
20
-17.4146623717449
30
0
41
1
10
-2.14242236464538
20
-17.3827213497398
30
0
41
1
10
-2.11047805094346
20
-17.3567460311212
30
0
41
1
10
-2.06363514965106
20
-17.3325204707742
30
0
41
1
10
-2.02607195888445
20
-17.325403217799
30
0
41
1
10
-2.00000000000003
20
-17.3251501414068
30
0
0
SPLINE
5
1DD
100
AcDbEntity
8
SK1
62
256
6
ByLayer
370
18
48
1
60
0
100
AcDbSpline
70
4
71
2
72
6
73
3
40
0
40
0
40
0
40
1
40
1
40
1
41
1
10
-28.5004731679065
20
-16.8593393543424
30
0
41
1
10
-15.7502365839533
20
-17.1796696771814
30
0
41
1
10
-3.00000000000002
20
-17.5000000000203
30
0
0
SPLINE
5
1DE
100
AcDbEntity
8
1
62
256
6
ByLayer
370
18
48
1
60
0
100
AcDbSpline
70
4
71
3
72
15
73
11
40
0
40
0
40
0
40
0
40
0.113786908237007
40
0.227653188155212
40
0.353581282196474
40
0.479574247219071
40
0.630452573936686
40
0.783301151728223
40
0.93613137364749
40
1
40
1
40
1
40
1
41
1
10
97.1283175287292
20
-0.0438913382504182
30
0
41
1
10
97.0516095589308
20
-0.198603062761229
30
0
41
1
10
96.8786327132141
20
-0.494602866447259
30
0
41
1
10
96.5450298117909
20
-0.915834668340707
30
0
41
1
10
96.1432795430443
20
-1.29806433439372
30
0
41
1
10
95.6486614428131
20
-1.65507350114215
30
0
41
1
10
95.0712248873984
20
-1.95730029200128
30
0
41
1
10
94.4154277412514
20
-2.18120579540025
30
0
41
1
10
93.8624771178587
20
-2.27923267218309
30
0
41
1
10
93.5359745126017
20
-2.29904377940961
30
0
41
1
10
93.4392973397432
20
-2.30172110902728
30
0
0
SPLINE
5
1DF
100
AcDbEntity
8
1
62
256
6
ByLayer
370
18
48
1
60
0
100
AcDbSpline
70
4
71
3
72
12
73
8
40
0
40
0
40
0
40
0
40
0.274797187723457
40
0.55673237895765
40
0.805349385434208
40
0.987352125428149
40
1
40
1
40
1
40
1
41
1
10
89.4608124589333
20
5.84495517182722
30
0
41
1
10
89.6352208123212
20
5.94953232826924
30
0
41
1
10
90.0018729373935
20
6.12895531267746
30
0
41
1
10
90.5746125973947
20
6.29649857238623
30
0
41
1
10
91.1086425685255
20
6.35940908533061
30
0
41
1
10
91.4495063973898
20
6.3542660290563
30
0
41
1
10
91.5996307929579
20
6.34326685991028
30
0
41
1
10
91.6093899420088
20
6.34251516092471
30
0
0
SPLINE
5
1E0
100
AcDbEntity
8
1
62
256
6
ByLayer
370
18
48
1
60
0
100
AcDbSpline
70
4
71
3
72
10
73
6
40
0
40
0
40
0
40
0
40
0.362728479242273
40
0.681364239621137
40
1
40
1
40
1
40
1
41
1
10
88.4662272386635
20
14.0268638962482
30
0
41
1
10
88.5257285162146
20
13.7615448178372
30
0
41
1
10
88.5997126721351
20
13.2486802365023
30
0
41
1
10
88.6042718033055
20
12.4368481743175
30
0
41
1
10
88.5449010475732
20
11.9201903810018
30
0
41
1
10
88.4996695426
20
11.6590411686832
30
0
0
SPLINE
5
1E1
100
AcDbEntity
8
1
62
256
6
ByLayer
370
18
48
1
60
0
100
AcDbSpline
70
4
71
3
72
11
73
7
40
0
40
0
40
0
40
0
40
0.284610243839607
40
0.569220487679214
40
0.784610243839605
40
1
40
1
40
1
40
1
41
1
10
85.4091679572607
20
-6.06733890244657
30
0
41
1
10
85.3633606441975
20
-6.32836663946131
30
0
41
1
10
85.2445503579485
20
-6.83294225925383
30
0
41
1
10
85.0018466433581
20
-7.49212618434994
30
0
41
1
10
84.7268582311879
20
-8.03555085771672
30
0
41
1
10
84.5380784411276
20
-8.32505451699592
30
0
41
1
10
84.4375016384943
20
-8.46102839599912
30
0
0
SPLINE
5
1E2
100
AcDbEntity
8
1
62
256
6
ByLayer
370
18
48
1
60
0
100
AcDbSpline
70
4
71
3
72
11
73
7
40
0
40
0
40
0
40
0
40
0.0834915328202637
40
0.459303352876629
40
0.834919587653776
40
1
40
1
40
1
40
1
41
1
10
91.6905498316129
20
2.71221928203389
30
0
41
1
10
91.6933064610661
20
2.71474694943023
30
0
41
1
10
91.7084643463366
20
2.72900572733966
30
0
41
1
10
91.7369304715538
20
2.75913815288283
30
0
41
1
10
91.7659017888314
20
2.7970790932219
30
0
41
1
10
91.7806405282518
20
2.81917965068924
30
0
41
1
10
91.7849740721973
20
2.82599052608533
30
0
0
SPLINE
5
1E3
100
AcDbEntity
8
1
62
256
6
ByLayer
370
18
48
1
60
0
100
AcDbSpline
70
4
71
3
72
10
73
6
40
0
40
0
40
0
40
0
40
0.249999999300507
40
0.624999999169718
40
1
40
1
40
1
40
1
41
1
10
82.8437920365197
20
14.7670715333807
30
0
41
1
10
82.8516363527463
20
14.7660388094423
30
0
41
1
10
82.8712475491075
20
14.7634569462354
30
0
41
1
10
82.902627084883
20
14.7593257521021
30
0
41
1
10
82.9261631997529
20
14.7562271637648
30
0
41
1
10
82.9379316226557
20
14.7546778214969
30
0
0
SPLINE
5
1E4
100
AcDbEntity
8
SK1
62
256
6
ByLayer
370
18
48
1
60
0
100
AcDbSpline
70
4
71
3
72
16
73
12
40
0
40
0
40
0
40
0
40
0.351058812479026
40
0.5494902428823
40
0.745650751445107
40
0.831752432968092
40
0.866430020907747
40
0.901364413669995
40
0.932606866569395
40
0.983122008469397
40
1
40
1
40
1
40
1
41
1
10
-1.30710678118655
20
3.80474436172747
30
0
41
1
10
-1.26978415806151
20
4.0273344048989
30
0
41
1
10
-1.18638534235562
20
4.36574772826716
30
0
41
1
10
-1.04345715092743
20
4.81143795815722
30
0
41
1
10
-0.896883993281798
20
5.07907048283344
30
0
41
1
10
-0.744504610413006
20
5.22449701225541
30
0
41
1
10
-0.644314188243223
20
5.26265754541686
30
0
41
1
10
-0.573027760448879
20
5.26521974999102
30
0
41
1
10
-0.49556838382239
20
5.24252370697406
30
0
41
1
10
-0.440485899594327
20
5.20534570545958
30
0
41
1
10
-0.407839795734883
20
5.17633421110909
30
0
41
1
10
-0.400000000000015
20
5.16866682996369
30
0
0
SPLINE
5
1E5
100
AcDbEntity
8
SK1
62
256
6
ByLayer
370
18
48
1
60
0
100
AcDbSpline
70
4
71
2
72
6
73
3
40
0
40
0
40
0
40
1
40
1
40
1
41
1
10
-2.19492113517945
20
17.5202263833815
30
0
41
1
10
-2.59746056758972
20
17.5101131917171
30
0
41
1
10
-3
20
17.5000000000527
30
0
0
SPLINE
5
1E6
100
AcDbEntity
8
1
62
256
6
ByLayer
370
18
48
1
60
0
100
AcDbSpline
70
4
71
2
72
6
73
3
40
0
40
0
40
0
40
1
40
1
40
1
41
0.500500306583632
10
92.4973562319934
20
0.84757105873298
30
0
41
0.499499693416368
10
92.4242088355822
20
0.85583871876058
30
0
41
0.500500306583632
10
92.3526763590018
20
0.87336917381161
30
0
0
SPLINE
5
1E7
100
AcDbEntity
8
1
62
256
6
ByLayer
370
18
48
1
60
0
100
AcDbSpline
70
4
71
2
72
6
73
3
40
0
40
0
40
0
40
1
40
1
40
1
41
0.50001902614473
10
92.3509148805193
20
0.877363048986659
30
0
41
0.49998097385527
10
92.337058094486
20
0.875115402551515
30
0
41
0.50001902614473
10
92.323150635266
20
0.873214074391681
30
0
0
SPLINE
5
1E8
100
AcDbEntity
8
1
62
256
6
ByLayer
370
18
48
1
60
0
100
AcDbSpline
70
4
71
2
72
6
73
3
40
0
40
0
40
0
40
1
40
1
40
1
41
0.500006827532375
10
84.8168071112551
20
-4.15541915675443
30
0
41
0.499993172467625
10
84.8543411274551
20
-4.16102372699877
30
0
41
0.500006827532375
10
84.8913614347818
20
-4.16652386232894
30
0
0
SPLINE
5
1E9
100
AcDbEntity
8
1
62
256
6
ByLayer
370
18
48
1
60
0
100
AcDbSpline
70
4
71
2
72
6
73
3
40
0
40
0
40
0
40
1
40
1
40
1
41
0.500080730012783
10
92.15527154974
20
0.872310147456403
30
0
41
0.499919269987217
10
92.1265797852922
20
0.875918383150997
30
0
41
0.500080730012783
10
92.0981062122227
20
0.880995554560944
30
0
0
SPLINE
5
1EA
100
AcDbEntity
8
1
62
256
6
ByLayer
370
18
48
1
60
0
100
AcDbSpline
70
4
71
2
72
6
73
3
40
0
40
0
40
0
40
1
40
1
40
1
41
0.500500306583632
10
93.5621582588412
20
1.31837158541161
30
0
41
0.499499693416369
10
93.5185098144987
20
1.25846282971153
30
0
41
0.500500306583632
10
93.4677340182567
20
1.20460034136022
30
0
0
SPLINE
5
1EB
100
AcDbEntity
8
1
62
256
6
ByLayer
370
18
48
1
60
0
100
AcDbSpline
70
4
71
2
72
6
73
3
40
0
40
0
40
0
40
1
40
1
40
1
41
0.500500306583632
10
93.6911560720748
20
2.48609596040141
30
0
41
0.499499693416368
10
93.7206550241435
20
2.41791954467377
30
0
41
0.500500306583632
10
93.741411704482
20
2.34652660127135
30
0
0
SPLINE
5
1EC
100
AcDbEntity
8
1
62
256
6
ByLayer
370
18
48
1
60
0
100
AcDbSpline
70
4
71
2
72
6
73
3
40
0
40
0
40
0
40
1
40
1
40
1
41
0.500500306583632
10
92.7553518584607
20
3.18301980871251
30
0
41
0.499499693416368
10
92.828499254872
20
3.17475214868488
30
0
41
0.500500306583632
10
92.9000317314523
20
3.15722169363388
30
0
0
SPLINE
5
1ED
100
AcDbEntity
8
1
62
256
6
ByLayer
370
18
48
1
60
0
100
AcDbSpline
70
4
71
2
72
6
73
3
40
0
40
0
40
0
40
1
40
1
40
1
41
0.500500306583632
10
91.6905498316129
20
2.71221928203385
30
0
41
0.499499693416368
10
91.7341982759554
20
2.77212803773391
30
0
41
0.500500306583632
10
91.7849740721973
20
2.82599052608529
30
0
0
SPLINE
5
1EE
100
AcDbEntity
8
1
62
256
6
ByLayer
370
18
48
1
60
0
100
AcDbSpline
70
4
71
2
72
6
73
3
40
0
40
0
40
0
40
1
40
1
40
1
41
0.502090927917608
10
91.6649245853618
20
0.711834276937365
30
0
41
0.497909072082392
10
91.7086435331598
20
0.733788024027689
30
0
41
0.502090927917608
10
91.7453636457603
20
0.766304612823708
30
0
0
SPLINE
5
1EF
100
AcDbEntity
8
1
62
256
6
ByLayer
370
18
48
1
60
0
100
AcDbSpline
70
4
71
2
72
6
73
3
40
0
40
0
40
0
40
1
40
1
40
1
41
0.500488196060936
10
92.2268880335373
20
3.16142481607179
30
0
41
0.499511803939064
10
92.2979580457418
20
3.15785568394063
30
0
41
0.500488196060936
10
92.3680350803421
20
3.14536012830041
30
0
0
SPLINE
5
1F0
100
AcDbEntity
8
1
62
256
6
ByLayer
370
18
48
1
60
0
100
AcDbSpline
70
4
71
2
72
6
73
3
40
0
40
0
40
0
40
1
40
1
40
1
41
0.512132657488161
10
92.2003175033971
20
3.37581144289771
30
0
41
0.48786734251184
10
92.1425211500942
20
3.48215359968993
30
0
41
0.512132657488161
10
92.0344664937492
20
3.53496468968968
30
0
0
SPLINE
5
1F1
100
AcDbEntity
8
1
62
256
6
ByLayer
370
18
48
1
60
0
100
AcDbSpline
70
4
71
2
72
6
73
3
40
0
40
0
40
0
40
1
40
1
40
1
41
0.500500306583632
10
91.5615520183792
20
1.54449490704408
30
0
41
0.499499693416368
10
91.5320530663106
20
1.61267132277175
30
0
41
0.500500306583632
10
91.5112963859721
20
1.68406426617416
30
0
0
SPLINE
5
1F2
100
AcDbEntity
8
1
62
256
6
ByLayer
370
18
48
1
60
0
100
AcDbSpline
70
4
71
2
72
6
73
3
40
0
40
0
40
0
40
1
40
1
40
1
41
0.499999957016564
10
88.6050941817911
20
14.0085817163531
30
0
41
0.500000042983436
10
88.5356820074178
20
14.0177200024723
30
0
41
0.499999957016564
10
88.4662272386634
20
14.0268638962482
30
0
0
LINE
5
72
100
AcDbEntity
8
1
62
256
6
ByLayer
370
18
48
1
60
0
100
AcDbLine
10
83.584699
20
6.068236
30
0
11
84.325694
21
6.011164
31
0
39
0
210
0
220
0
230
1
0
LINE
5
73
100
AcDbEntity
8
1
62
256
6
ByLayer
370
18
48
1
60
0
100
AcDbLine
10
91.540641
20
6.327537
30
0
11
93.532018
21
5.971485
31
0
39
0
210
0
220
0
230
1
0
LINE
5
74
100
AcDbEntity
8
1
62
256
6
ByLayer
370
18
48
1
60
0
100
AcDbLine
10
106.889116
20
-2.431999
30
0
11
106.697126
21
-2.552199
31
0
39
0
210
0
220
0
230
1
0
LINE
5
75
100
AcDbEntity
8
1
62
256
6
ByLayer
370
18
48
1
60
0
100
AcDbLine
10
82.674718
20
0.848801
30
0
11
82.597827
21
1.019339
31
0
39
0
210
0
220
0
230
1
0
LINE
5
76
100
AcDbEntity
8
1
62
256
6
ByLayer
370
18
48
1
60
0
100
AcDbLine
10
114.719409
20
0.080741
30
0
11
106.169244
21
7.334007
31
0
39
0
210
0
220
0
230
1
0
LINE
5
77
100
AcDbEntity
8
1
62
256
6
ByLayer
370
18
48
1
60
0
100
AcDbLine
10
100.960803
20
-4.82529
30
0
11
105.160654
21
-8.388102
31
0
39
0
210
0
220
0
230
1
0
LINE
5
78
100
AcDbEntity
8
1
62
256
6
ByLayer
370
18
48
1
60
0
100
AcDbLine
10
105.660183
20
7.519781
30
0
11
104.960359
21
7.516013
31
0
39
0
210
0
220
0
230
1
0
LINE
5
79
100
AcDbEntity
8
1
62
256
6
ByLayer
370
18
48
1
60
0
100
AcDbLine
10
102.829703
20
10.146074
30
0
11
105.752658
21
7.514759
31
0
39
0
210
0
220
0
230
1
0
LINE
5
7A
100
AcDbEntity
8
1
62
256
6
ByLayer
370
18
48
1
60
0
100
AcDbLine
10
103.118738
20
10.39305
30
0
11
102.829703
21
10.146074
31
0
39
0
210
0
220
0
230
1
0
LINE
5
7B
100
AcDbEntity
8
1
62
256
6
ByLayer
370
18
48
1
60
0
100
AcDbLine
10
113.110259
20
1.874489
30
0
11
112.383451
21
2.062377
31
0
39
0
210
0
220
0
230
1
0
LINE
5
7C
100
AcDbEntity
8
1
62
256
6
ByLayer
370
18
48
1
60
0
100
AcDbLine
10
86.801974
20
-4.450385
30
0
11
86.807453
21
-4.449051
31
0
39
0
210
0
220
0
230
1
0
LINE
5
7D
100
AcDbEntity
8
1
62
256
6
ByLayer
370
18
48
1
60
0
100
AcDbLine
10
82.597827
20
1.019339
30
0
11
83.25943
21
0.968382
31
0
39
0
210
0
220
0
230
1
0
LINE
5
7E
100
AcDbEntity
8
1
62
256
6
ByLayer
370
18
48
1
60
0
100
AcDbLine
10
83.415713
20
0.79173
30
0
11
83.25943
21
0.968382
31
0
39
0
210
0
220
0
230
1
0
LINE
5
7F
100
AcDbEntity
8
1
62
256
6
ByLayer
370
18
48
1
60
0
100
AcDbLine
10
85.295366
20
-2.961713
30
0
11
92.730962
21
-4.287567
31
0
39
0
210
0
220
0
230
1
0
LINE
5
80
100
AcDbEntity
8
1
62
256
6
ByLayer
370
18
48
1
60
0
100
AcDbLine
10
104.969891
20
-8.577645
30
0
11
105.669715
21
-8.573877
31
0
39
0
210
0
220
0
230
1
0
LINE
5
81
100
AcDbEntity
8
1
62
256
6
ByLayer
370
18
48
1
60
0
100
AcDbLine
10
85.182989
20
7.492071
30
0
11
83.740755
21
-0.78024
31
0
39
0
210
0
220
0
230
1
0
LINE
5
82
100
AcDbEntity
8
1
62
256
6
ByLayer
370
18
48
1
60
0
100
AcDbLine
10
85.474103
20
5.838195
30
0
11
84.581291
21
0.71724
31
0
39
0
210
0
220
0
230
1
0
LINE
5
83
100
AcDbEntity
8
1
62
256
6
ByLayer
370
18
48
1
60
0
100
AcDbLine
10
104.098994
20
-8.461208
30
0
11
104.55231
21
-8.458767
31
0
39
0
210
0
220
0
230
1
0
LINE
5
84
100
AcDbEntity
8
1
62
256
6
ByLayer
370
18
48
1
60
0
100
AcDbLine
10
104.271071
20
6.636081
30
0
11
102.609179
21
5.226269
31
0
39
0
210
0
220
0
230
1
0
LINE
5
85
100
AcDbEntity
8
1
62
256
6
ByLayer
370
18
48
1
60
0
100
AcDbLine
10
76.310767
20
-15.627161
30
0
11
98.358256
21
-12.724554
31
0
39
0
210
0
220
0
230
1
0
LINE
5
86
100
AcDbEntity
8
1
62
256
6
ByLayer
370
18
48
1
60
0
100
AcDbLine
10
102.06867
20
10.657415
30
0
11
101.817536
21
10.596069
31
0
39
0
210
0
220
0
230
1
0
LINE
5
87
100
AcDbEntity
8
1
62
256
6
ByLayer
370
18
48
1
60
0
100
AcDbLine
10
89.274375
20
9.730719
30
0
11
89.279124
21
9.727865
31
0
39
0
210
0
220
0
230
1
0
LINE
5
88
100
AcDbEntity
8
1
62
256
6
ByLayer
370
18
48
1
60
0
100
AcDbLine
10
83.584699
20
6.068236
30
0
11
83.4563
21
5.943333
31
0
39
0
210
0
220
0
230
1
0
LINE
5
89
100
AcDbEntity
8
1
62
256
6
ByLayer
370
18
48
1
60
0
100
AcDbLine
10
92.162719
20
-1.987259
30
0
11
92.520454
21
-1.985333
31
0
39
0
210
0
220
0
230
1
0
LINE
5
8A
100
AcDbEntity
8
1
62
256
6
ByLayer
370
18
48
1
60
0
100
AcDbLine
10
104.207605
20
7.116377
30
0
11
103.708068
21
7.113687
31
0
39
0
210
0
220
0
230
1
0
LINE
5
8B
100
AcDbEntity
8
1
62
256
6
ByLayer
370
18
48
1
60
0
100
AcDbLine
10
103.375501
20
10.462101
30
0
11
102.633665
21
10.653874
31
0
39
0
210
0
220
0
230
1
0
LINE
5
8C
100
AcDbEntity
8
1
62
256
6
ByLayer
370
18
48
1
60
0
100
AcDbLine
10
100.743051
20
-4.852372
30
0
11
104.205817
21
-7.763969
31
0
39
0
210
0
220
0
230
1
0
LINE
5
8D
100
AcDbEntity
8
1
62
256
6
ByLayer
370
18
48
1
60
0
100
AcDbLine
10
87.245928
20
5.536237
30
0
11
87.747819
21
5.497581
31
0
39
0
210
0
220
0
230
1
0
LINE
5
8E
100
AcDbEntity
8
1
62
256
6
ByLayer
370
18
48
1
60
0
100
AcDbLine
10
87.409451
20
5.538297
30
0
11
86.956136
21
5.573212
31
0
39
0
210
0
220
0
230
1
0
LINE
5
8F
100
AcDbEntity
8
1
62
256
6
ByLayer
370
18
48
1
60
0
100
AcDbLine
10
92.008654
20
6.291491
30
0
11
91.540641
21
6.327537
31
0
39
0
210
0
220
0
230
1
0
LINE
5
90
100
AcDbEntity
8
1
62
256
6
ByLayer
370
18
48
1
60
0
100
AcDbLine
10
93.088894
20
0.908068
30
0
11
93.419693
21
0.909849
31
0
39
0
210
0
220
0
230
1
0
LINE
5
91
100
AcDbEntity
8
1
62
256
6
ByLayer
370
18
48
1
60
0
100
AcDbLine
10
93.639085
20
2.155278
30
0
11
93.969884
21
2.157059
31
0
39
0
210
0
220
0
230
1
0
LINE
5
92
100
AcDbEntity
8
1
62
256
6
ByLayer
370
18
48
1
60
0
100
AcDbLine
10
113.669717
20
1.370851
30
0
11
114.737288
21
1.094872
31
0
39
0
210
0
220
0
230
1
0
LINE
5
93
100
AcDbEntity
8
1
62
256
6
ByLayer
370
18
48
1
60
0
100
AcDbLine
10
105.973326
20
8.9844
30
0
11
104.905755
21
9.26038
31
0
39
0
210
0
220
0
230
1
0
LINE
5
94
100
AcDbEntity
8
1
62
256
6
ByLayer
370
18
48
1
60
0
100
AcDbLine
10
104.694687
20
9.450389
30
0
11
105.481006
21
9.247116
31
0
39
0
210
0
220
0
230
1
0
LINE
5
95
100
AcDbEntity
8
1
62
256
6
ByLayer
370
18
48
1
60
0
100
AcDbLine
10
84.325694
20
6.011164
30
0
11
83.415713
21
0.79173
31
0
39
0
210
0
220
0
230
1
0
LINE
5
96
100
AcDbEntity
8
1
62
256
6
ByLayer
370
18
48
1
60
0
100
AcDbLine
10
104.20864
20
-8.177933
30
0
11
103.7147
21
-8.180593
31
0
39
0
210
0
220
0
230
1
0
LINE
5
97
100
AcDbEntity
8
1
62
256
6
ByLayer
370
18
48
1
60
0
100
AcDbLine
10
83.4563
20
5.943333
30
0
11
82.597827
21
1.019339
31
0
39
0
210
0
220
0
230
1
0
LINE
5
98
100
AcDbEntity
8
1
62
256
6
ByLayer
370
18
48
1
60
0
100
AcDbLine
10
87.587868
20
10.017499
30
0
11
86.891973
21
10.071096
31
0
39
0
210
0
220
0
230
1
0
LINE
5
99
100
AcDbEntity
8
1
62
256
6
ByLayer
370
18
48
1
60
0
100
AcDbLine
10
92.47738
20
6.014551
30
0
11
92.119645
21
6.012625
31
0
39
0
210
0
220
0
230
1
0
LINE
5
9A
100
AcDbEntity
8
1
62
256
6
ByLayer
370
18
48
1
60
0
100
AcDbLine
10
94.574137
20
8.783702
30
0
11
89.279124
21
9.727865
31
0
39
0
210
0
220
0
230
1
0
LINE
5
9B
100
AcDbEntity
8
1
62
256
6
ByLayer
370
18
48
1
60
0
100
AcDbLine
10
92.584506
20
-2.239127
30
0
11
90.58359
21
-1.88234
31
0
39
0
210
0
220
0
230
1
0
LINE
5
9C
100
AcDbEntity
8
1
62
256
6
ByLayer
370
18
48
1
60
0
100
AcDbLine
10
103.118738
20
10.39305
30
0
11
112.197656
21
2.219991
31
0
39
0
210
0
220
0
230
1
0
LINE
5
9D
100
AcDbEntity
8
1
62
256
6
ByLayer
370
18
48
1
60
0
100
AcDbLine
10
105.159589
20
7.334057
30
0
11
104.459766
21
7.330289
31
0
39
0
210
0
220
0
230
1
0
LINE
5
9E
100
AcDbEntity
8
1
62
256
6
ByLayer
370
18
48
1
60
0
100
AcDbLine
10
83.740755
20
-0.78024
30
0
11
81.985166
21
-0.645025
31
0
39
0
210
0
220
0
230
1
0
LINE
5
9F
100
AcDbEntity
8
1
62
256
6
ByLayer
370
18
48
1
60
0
100
AcDbLine
10
82.71291
20
6.483822
30
0
11
81.682742
21
0.575028
31
0
39
0
210
0
220
0
230
1
0
LINE
5
A0
100
AcDbEntity
8
1
62
256
6
ByLayer
370
18
48
1
60
0
100
AcDbLine
10
107.148643
20
1.201054
30
0
11
107.023369
21
1.405725
31
0
39
0
210
0
220
0
230
1
0
LINE
5
A1
100
AcDbEntity
8
1
62
256
6
ByLayer
370
18
48
1
60
0
100
AcDbLine
10
92.571029
20
3.155446
30
0
11
92.901828
21
3.157227
31
0
39
0
210
0
220
0
230
1
0
LINE
5
A2
100
AcDbEntity
8
1
62
256
6
ByLayer
370
18
48
1
60
0
100
AcDbLine
10
102.503567
20
5.286924
30
0
11
104.182516
21
6.711204
31
0
39
0
210
0
220
0
230
1
0
LINE
5
A3
100
AcDbEntity
8
1
62
256
6
ByLayer
370
18
48
1
60
0
100
AcDbLine
10
99.640974
20
12.555681
30
0
11
105.236932
21
7.517502
31
0
39
0
210
0
220
0
230
1
0
LINE
5
A4
100
AcDbEntity
8
1
62
256
6
ByLayer
370
18
48
1
60
0
100
AcDbLine
10
107.023369
20
1.405725
30
0
11
106.367097
21
2.260106
31
0
39
0
210
0
220
0
230
1
0
LINE
5
A5
100
AcDbEntity
8
1
62
256
6
ByLayer
370
18
48
1
60
0
100
AcDbLine
10
107.459266
20
0.838245
30
0
11
107.319871
21
1.019719
31
0
39
0
210
0
220
0
230
1
0
LINE
5
A6
100
AcDbEntity
8
1
62
256
6
ByLayer
370
18
48
1
60
0
100
AcDbLine
10
76.308651
20
15.627439
30
0
11
76.308653
21
15.600501
31
0
39
0
210
0
220
0
230
1
0
LINE
5
A7
100
AcDbEntity
8
1
62
256
6
ByLayer
370
18
48
1
60
0
100
AcDbLine
10
76.310762
20
-15.550962
30
0
11
76.310767
21
-15.627161
31
0
39
0
210
0
220
0
230
1
0
LINE
5
A8
100
AcDbEntity
8
1
62
256
6
ByLayer
370
18
48
1
60
0
100
AcDbLine
10
92.008654
20
6.291491
30
0
11
94.009571
21
5.934704
31
0
39
0
210
0
220
0
230
1
0
LINE
5
A9
100
AcDbEntity
8
1
62
256
6
ByLayer
370
18
48
1
60
0
100
AcDbLine
10
106.28875
20
-2.807873
30
0
11
106.475685
21
-2.658871
31
0
39
0
210
0
220
0
230
1
0
LINE
5
AA
100
AcDbEntity
8
1
62
256
6
ByLayer
370
18
48
1
60
0
100
AcDbLine
10
81.985166
20
-0.645025
30
0
11
83.4274
21
7.627286
31
0
39
0
210
0
220
0
230
1
0
LINE
5
AB
100
AcDbEntity
8
1
62
256
6
ByLayer
370
18
48
1
60
0
100
AcDbLine
10
85.399406
20
-4.200291
30
0
11
84.816807
21
-4.155419
31
0
39
0
210
0
220
0
230
1
0
LINE
5
AC
100
AcDbEntity
8
1
62
256
6
ByLayer
370
18
48
1
60
0
100
AcDbLine
10
85.399406
20
-4.200291
30
0
11
86.801974
21
-4.450385
31
0
39
0
210
0
220
0
230
1
0
LINE
5
AD
100
AcDbEntity
8
1
62
256
6
ByLayer
370
18
48
1
60
0
100
AcDbLine
10
82.674718
20
0.848801
30
0
11
83.415713
21
0.79173
31
0
39
0
210
0
220
0
230
1
0
LINE
5
AE
100
AcDbEntity
8
1
62
256
6
ByLayer
370
18
48
1
60
0
100
AcDbLine
10
92.102466
20
-5.393213
30
0
11
86.807453
21
-4.449051
31
0
39
0
210
0
220
0
230
1
0
LINE
5
AF
100
AcDbEntity
8
1
62
256
6
ByLayer
370
18
48
1
60
0
100
AcDbLine
10
105.471863
20
-0.387777
30
0
11
108.020371
21
-0.92772
31
0
39
0
210
0
220
0
230
1
0
LINE
5
B0
100
AcDbEntity
8
1
62
256
6
ByLayer
370
18
48
1
60
0
100
AcDbLine
10
94.009571
20
5.934704
30
0
11
93.532018
21
5.971485
31
0
39
0
210
0
220
0
230
1
0
LINE
5
B1
100
AcDbEntity
8
1
62
256
6
ByLayer
370
18
48
1
60
0
100
AcDbLine
10
103.860574
20
10.201277
30
0
11
103.118738
21
10.39305
31
0
39
0
210
0
220
0
230
1
0
LINE
5
B2
100
AcDbEntity
8
1
62
256
6
ByLayer
370
18
48
1
60
0
100
AcDbLine
10
105.973326
20
8.9844
30
0
11
114.737288
21
1.094872
31
0
39
0
210
0
220
0
230
1
0
LINE
5
B3
100
AcDbEntity
8
1
62
256
6
ByLayer
370
18
48
1
60
0
100
AcDbLine
10
84.325694
20
6.011164
30
0
11
84.117903
21
5.892377
31
0
39
0
210
0
220
0
230
1
0
LINE
5
B4
100
AcDbEntity
8
1
62
256
6
ByLayer
370
18
48
1
60
0
100
AcDbLine
10
104.544083
20
7.392645
30
0
11
104.085261
21
7.390175
31
0
39
0
210
0
220
0
230
1
0
LINE
5
B5
100
AcDbEntity
8
1
62
256
6
ByLayer
370
18
48
1
60
0
100
AcDbLine
10
85.182989
20
7.492071
30
0
11
83.4274
21
7.627286
31
0
39
0
210
0
220
0
230
1
0
LINE
5
B6
100
AcDbEntity
8
1
62
256
6
ByLayer
370
18
48
1
60
0
100
AcDbLine
10
93.41489
20
2.777908
30
0
11
93.74569
21
2.779689
31
0
39
0
210
0
220
0
230
1
0
LINE
5
B7
100
AcDbEntity
8
1
62
256
6
ByLayer
370
18
48
1
60
0
100
AcDbLine
10
93.829753
20
1.417482
30
0
11
93.498954
21
1.415701
31
0
39
0
210
0
220
0
230
1
0
LINE
5
B8
100
AcDbEntity
8
1
62
256
6
ByLayer
370
18
48
1
60
0
100
AcDbLine
10
87.382328
20
9.008607
30
0
11
94.817925
21
7.682753
31
0
39
0
210
0
220
0
230
1
0
LINE
5
B9
100
AcDbEntity
8
1
62
256
6
ByLayer
370
18
48
1
60
0
100
AcDbLine
10
86.444577
20
-4.397286
30
0
11
86.133925
21
-6.179113
31
0
39
0
210
0
220
0
230
1
0
LINE
5
BA
100
AcDbEntity
8
1
62
256
6
ByLayer
370
18
48
1
60
0
100
AcDbLine
10
89.224426
20
11.547267
30
0
11
88.918776
21
9.794127
31
0
39
0
210
0
220
0
230
1
0
LINE
5
BB
100
AcDbEntity
8
1
62
256
6
ByLayer
370
18
48
1
60
0
100
AcDbLine
10
105.159589
20
7.334057
30
0
11
102.648379
21
5.203755
31
0
39
0
210
0
220
0
230
1
0
LINE
5
BC
100
AcDbEntity
8
1
62
256
6
ByLayer
370
18
48
1
60
0
100
AcDbLine
10
89.224426
20
11.547267
30
0
11
88.49967
21
11.659041
31
0
39
0
210
0
220
0
230
1
0
LINE
5
BD
100
AcDbEntity
8
1
62
256
6
ByLayer
370
18
48
1
60
0
100
AcDbLine
10
92.200318
20
3.375811
30
0
11
92.531117
21
3.377593
31
0
39
0
210
0
220
0
230
1
0
LINE
5
BE
100
AcDbEntity
8
1
62
256
6
ByLayer
370
18
48
1
60
0
100
AcDbLine
10
92.35088
20
0.873363
30
0
11
92.020081
21
0.871582
31
0
39
0
210
0
220
0
230
1
0
LINE
5
BF
100
AcDbEntity
8
1
62
256
6
ByLayer
370
18
48
1
60
0
100
AcDbLine
10
91.745364
20
0.766305
30
0
11
92.076163
21
0.768086
31
0
39
0
210
0
220
0
230
1
0
LINE
5
C0
100
AcDbEntity
8
1
62
256
6
ByLayer
370
18
48
1
60
0
100
AcDbLine
10
102.06867
20
10.657415
30
0
11
102.087065
21
10.353406
31
0
39
0
210
0
220
0
230
1
0
LINE
5
C1
100
AcDbEntity
8
1
62
256
6
ByLayer
370
18
48
1
60
0
100
AcDbLine
10
86.956136
20
5.573212
30
0
11
85.474103
21
5.838195
31
0
39
0
210
0
220
0
230
1
0
LINE
5
C2
100
AcDbEntity
8
1
62
256
6
ByLayer
370
18
48
1
60
0
100
AcDbLine
10
84.117903
20
5.892377
30
0
11
83.25943
21
0.968382
31
0
39
0
210
0
220
0
230
1
0
LINE
5
C3
100
AcDbEntity
8
1
62
256
6
ByLayer
370
18
48
1
60
0
100
AcDbLine
10
79.189036
20
10.318766
30
0
11
77.11912
21
-1.553776
31
0
39
0
210
0
220
0
230
1
0
LINE
5
C4
100
AcDbEntity
8
1
62
256
6
ByLayer
370
18
48
1
60
0
100
AcDbLine
10
106.170308
20
-8.388153
30
0
11
114.719491
21
-1.135738
31
0
39
0
210
0
220
0
230
1
0
LINE
5
C5
100
AcDbEntity
8
1
62
256
6
ByLayer
370
18
48
1
60
0
100
AcDbLine
10
89.274375
20
9.730719
30
0
11
87.871807
21
9.980813
31
0
39
0
210
0
220
0
230
1
0
LINE
5
C6
100
AcDbEntity
8
1
62
256
6
ByLayer
370
18
48
1
60
0
100
AcDbLine
10
86.801974
20
-4.450385
30
0
11
84.891361
21
-4.166524
31
0
39
0
210
0
220
0
230
1
0
LINE
5
C7
100
AcDbEntity
8
1
62
256
6
ByLayer
370
18
48
1
60
0
100
AcDbLine
10
106.28875
20
-2.807873
30
0
11
105.384859
21
-3.373777
31
0
39
0
210
0
220
0
230
1
0
LINE
5
C8
100
AcDbEntity
8
1
62
256
6
ByLayer
370
18
48
1
60
0
100
AcDbLine
10
83.4563
20
5.943333
30
0
11
84.117903
21
5.892377
31
0
39
0
210
0
220
0
230
1
0
LINE
5
C9
100
AcDbEntity
8
1
62
256
6
ByLayer
370
18
48
1
60
0
100
AcDbLine
10
104.46083
20
-8.39187
30
0
11
105.160654
21
-8.388102
31
0
39
0
210
0
220
0
230
1
0
LINE
5
CA
100
AcDbEntity
8
1
62
256
6
ByLayer
370
18
48
1
60
0
100
AcDbLine
10
86.133925
20
-6.179113
30
0
11
85.409168
21
-6.067339
31
0
39
0
210
0
220
0
230
1
0
LINE
5
CB
100
AcDbEntity
8
SK1
62
256
6
ByLayer
370
18
48
1
60
0
100
AcDbLine
10
-2.194921
20
17.520226
30
0
11
-2.199045
21
17.520123
31
0
39
0
210
0
220
0
230
1
0
LINE
5
CD
100
AcDbEntity
8
SK1
62
256
6
ByLayer
370
18
48
1
60
0
100
AcDbLine
10
-28.50039
20
16.859746
30
0
11
-28.502129
21
16.858682
31
0
39
0
210
0
220
0
230
1
0
LINE
5
CE
100
AcDbEntity
8
SK1
62
256
6
ByLayer
370
18
48
1
60
0
100
AcDbLine
10
-2.199045
20
-17.520123
30
0
11
-2.194921
21
-17.520226
31
0
39
0
210
0
220
0
230
1
0
LINE
5
CF
100
AcDbEntity
8
1
62
256
6
ByLayer
370
18
48
1
60
0
100
AcDbLine
10
20
20
25.208868
30
0
11
20
21
-25.208868
31
0
39
0
210
0
220
0
230
1
0
LINE
5
D0
100
AcDbEntity
8
1
62
256
6
ByLayer
370
18
48
1
60
0
100
AcDbLine
10
35.5
20
-21
30
0
11
76.305068
21
-15.627911
31
0
39
0
210
0
220
0
230
1
0
LINE
5
D1
100
AcDbEntity
8
1
62
256
6
ByLayer
370
18
48
1
60
0
100
AcDbLine
10
8.105662
20
8.055848
30
0
11
8.105662
21
23.666502
31
0
39
0
210
0
220
0
230
1
0
LINE
5
D2
100
AcDbEntity
8
1
62
256
6
ByLayer
370
18
48
1
60
0
100
AcDbLine
10
8.538675
20
7.529667
30
0
11
8.538675
21
23.83913
31
0
39
0
210
0
220
0
230
1
0
LINE
5
D3
100
AcDbEntity
8
1
62
256
6
ByLayer
370
18
48
1
60
0
100
AcDbLine
10
0
20
-24.7
30
0
11
0
21
24.7
31
0
39
0
210
0
220
0
230
1
0
LINE
5
D4
100
AcDbEntity
8
1
62
256
6
ByLayer
370
18
48
1
60
0
100
AcDbLine
10
11.894338
20
8.055848
30
0
11
11.894338
21
23.666502
31
0
39
0
210
0
220
0
230
1
0
LINE
5
D5
100
AcDbEntity
8
SK1
62
256
6
ByLayer
370
18
48
1
60
0
100
AcDbLine
10
-30
20
-15.941004
30
0
11
-30
21
15.941952
31
0
39
0
210
0
220
0
230
1
0
LINE
5
D6
100
AcDbEntity
8
SK1
62
256
6
ByLayer
370
18
48
1
60
0
100
AcDbLine
10
-3
20
-17.5
30
0
11
-3
21
17.5
31
0
39
0
210
0
220
0
230
1
0
LINE
5
D7
100
AcDbEntity
8
1
62
256
6
ByLayer
370
18
48
1
60
0
100
AcDbLine
10
11.461325
20
-23.83913
30
0
11
11.461325
21
-7.529667
31
0
39
0
210
0
220
0
230
1
0
LINE
5
D8
100
AcDbEntity
8
1
62
256
6
ByLayer
370
18
48
1
60
0
100
AcDbLine
10
11.894338
20
-23.666502
30
0
11
11.894338
21
-8.055848
31
0
39
0
210
0
220
0
230
1
0
LINE
5
D9
100
AcDbEntity
8
1
62
256
6
ByLayer
370
18
48
1
60
0
100
AcDbLine
10
8.538675
20
-23.83913
30
0
11
8.538675
21
-7.529667
31
0
39
0
210
0
220
0
230
1
0
LINE
5
DA
100
AcDbEntity
8
1
62
256
6
ByLayer
370
18
48
1
60
0
100
AcDbLine
10
8.105662
20
-23.666502
30
0
11
8.105662
21
-8.055848
31
0
39
0
210
0
220
0
230
1
0
LINE
5
DB
100
AcDbEntity
8
1
62
256
6
ByLayer
370
18
48
1
60
0
100
AcDbLine
10
11.461325
20
7.529667
30
0
11
11.461325
21
23.83913
31
0
39
0
210
0
220
0
230
1
0
LINE
5
DC
100
AcDbEntity
8
1
62
256
6
ByLayer
370
18
48
1
60
0
100
AcDbLine
10
0.3
20
-25
30
0
11
0
21
-24.7
31
0
39
0
210
0
220
0
230
1
0
LINE
5
DD
100
AcDbEntity
8
1
62
256
6
ByLayer
370
18
48
1
60
0
100
AcDbLine
10
113.669717
20
1.370851
30
0
11
103.860574
21
10.201277
31
0
39
0
210
0
220
0
230
1
0
LINE
5
DE
100
AcDbEntity
8
1
62
256
6
ByLayer
370
18
48
1
60
0
100
AcDbLine
10
104.271071
20
6.636081
30
0
11
96.861716
21
12.921577
31
0
39
0
210
0
220
0
230
1
0
LINE
5
DF
100
AcDbEntity
8
1
62
256
6
ByLayer
370
18
48
1
60
0
100
AcDbLine
10
104.46083
20
-8.39187
30
0
11
103.963238
21
-7.969754
31
0
39
0
210
0
220
0
230
1
0
LINE
5
E0
100
AcDbEntity
8
1
62
256
6
ByLayer
370
18
48
1
60
0
100
AcDbLine
10
99.640974
20
12.555681
30
0
11
88.605094
21
14.008582
31
0
39
0
210
0
220
0
230
1
0
LINE
5
E1
100
AcDbEntity
8
1
62
256
6
ByLayer
370
18
48
1
60
0
100
AcDbLine
10
82.843792
20
14.767072
30
0
11
35.5
21
21
31
0
39
0
210
0
220
0
230
1
0
LINE
5
E2
100
AcDbEntity
8
1
62
256
6
ByLayer
370
18
48
1
60
0
100
AcDbLine
10
91.422955
20
2.613109
30
0
11
91.40179
21
2.613279
31
0
39
0
210
0
220
0
230
1
0
LINE
5
E3
100
AcDbEntity
8
1
62
256
6
ByLayer
370
18
48
1
60
0
100
AcDbLine
10
93.850918
20
1.417312
30
0
11
93.829753
21
1.417482
31
0
39
0
210
0
220
0
230
1
0
LINE
5
E4
100
AcDbEntity
8
1
62
256
6
ByLayer
370
18
48
1
60
0
100
AcDbLine
10
11.461325
20
7.529667
30
0
11
8.538675
21
7.529667
31
0
39
0
210
0
220
0
230
1
0
LINE
5
E5
100
AcDbEntity
8
1
62
256
6
ByLayer
370
18
48
1
60
0
100
AcDbLine
10
20
20
-25
30
0
11
0.3
21
-25
31
0
39
0
210
0
220
0
230
1
0
LINE
5
E6
100
AcDbEntity
8
1
62
256
6
ByLayer
370
18
48
1
60
0
100
AcDbLine
10
11.461325
20
-23.83913
30
0
11
8.538675
21
-23.83913
31
0
39
0
210
0
220
0
230
1
0
LINE
5
E7
100
AcDbEntity
8
1
62
256
6
ByLayer
370
18
48
1
60
0
100
AcDbLine
10
11.461325
20
-7.529667
30
0
11
8.538675
21
-7.529667
31
0
39
0
210
0
220
0
230
1
0
LINE
5
E8
100
AcDbEntity
8
1
62
256
6
ByLayer
370
18
48
1
60
0
100
AcDbLine
10
11.461325
20
23.83913
30
0
11
8.538675
21
23.83913
31
0
39
0
210
0
220
0
230
1
0
LINE
5
E9
100
AcDbEntity
8
1
62
256
6
ByLayer
370
18
48
1
60
0
100
AcDbLine
10
20
20
25
30
0
11
0.3
21
25
31
0
39
0
210
0
220
0
230
1
0
LINE
5
EA
100
AcDbEntity
8
1
62
256
6
ByLayer
370
18
48
1
60
0
100
AcDbLine
10
91.422955
20
2.613109
30
0
11
91.387252
21
2.612916
31
0
39
0
210
0
220
0
230
1
0
LINE
5
EB
100
AcDbEntity
8
1
62
256
6
ByLayer
370
18
48
1
60
0
100
AcDbLine
10
104.294095
20
-7.689082
30
0
11
98.358256
21
-12.724554
31
0
39
0
210
0
220
0
230
1
0
LINE
5
EC
100
AcDbEntity
8
1
62
256
6
ByLayer
370
18
48
1
60
0
100
AcDbLine
10
104.459766
20
7.330289
30
0
11
103.956251
21
6.903149
31
0
39
0
210
0
220
0
230
1
0
LINE
5
ED
100
AcDbEntity
8
1
62
256
6
ByLayer
370
18
48
1
60
0
100
AcDbLine
10
0.3
20
25
30
0
11
0
21
24.7
31
0
39
0
210
0
220
0
230
1
0
LINE
5
EE
100
AcDbEntity
8
SK1
62
256
6
ByLayer
370
18
48
1
60
0
100
AcDbLine
10
-28.500473
20
16.858585
30
0
11
-28.500473
21
-16.858922
31
0
39
0
210
0
220
0
230
1
0
LINE
5
EF
100
AcDbEntity
8
SK1
62
256
6
ByLayer
370
18
48
1
60
0
100
AcDbLine
10
-0.4
20
17.32408
30
0
11
-0.4
21
5.168667
31
0
39
0
210
0
220
0
230
1
0
LINE
5
F0
100
AcDbEntity
8
SK1
62
256
6
ByLayer
370
18
48
1
60
0
100
AcDbLine
10
-1.307107
20
3.804744
30
0
11
-1.307107
21
-3.804747
31
0
39
0
210
0
220
0
230
1
0
LINE
5
F1
100
AcDbEntity
8
SK1
62
256
6
ByLayer
370
18
48
1
60
0
100
AcDbLine
10
-0.4
20
-5.168667
30
0
11
-0.4
21
-17.324079
31
0
39
0
210
0
220
0
230
1
0
LINE
5
F2
100
AcDbEntity
8
SK1
62
256
6
ByLayer
370
18
48
1
60
0
100
AcDbLine
10
-0.2
20
17.833485
30
0
11
-0.2
21
5.881425
31
0
39
0
210
0
220
0
230
1
0
LINE
5
F3
100
AcDbEntity
8
1
62
256
6
ByLayer
370
18
48
1
60
0
100
AcDbLine
10
0.3
20
25
30
0
11
0.3
21
-25
31
0
39
0
210
0
220
0
230
1
0
LINE
5
F4
100
AcDbEntity
8
SK1
62
256
6
ByLayer
370
18
48
1
60
0
100
AcDbLine
10
-2
20
17.32515
30
0
11
-2
21
-17.32515
31
0
39
0
210
0
220
0
230
1
0
LINE
5
F5
100
AcDbEntity
8
SK1
62
256
6
ByLayer
370
18
48
1
60
0
100
AcDbLine
10
-0.2
20
-5.881424
30
0
11
-0.2
21
-17.833485
31
0
39
0
210
0
220
0
230
1
0
LINE
5
F6
100
AcDbEntity
8
80
62
256
6
ByLayer
370
18
48
1
60
0
100
AcDbLine
10
0
20
0
30
0
11
-32.710162
21
0
31
0
39
0
210
0
220
0
230
1
0
LINE
5
F7
100
AcDbEntity
8
SK4
62
256
6
ByLayer
370
18
48
0.05
60
0
100
AcDbLine
10
-30
20
0
30
0
11
117.225731
21
0
31
0
39
0
210
0
220
0
230
1
0
LINE
5
F9
100
AcDbEntity
8
81
62
256
6
ByLayer
370
18
48
1
60
0
100
AcDbLine
10
148.146606
20
-0.527534
30
0
11
115.436444
21
-0.527534
31
0
39
0
210
0
220
0
230
1
0
MTEXT
5
1F3
100
AcDbEntity
8
SK6
62
256
6
ByLayer
370
18
48
1
60
0
100
AcDbMText
10
16.007731
20
-53.987253
30
0
210
0
220
0
230
1
1
\W0.7569;C5_T_DCM12DDM15L115
40
3
41
0
44
1.084337
50
0
71
7
72
5
7
iso_b_vert
0
DIMENSION
5
206
100
AcDbEntity
8
SK2
62
256
6
ByLayer
370
13
48
1
60
0
100
AcDbDimension
2
DimnDraft3D1
10
-48.820342
20
25
30
0
11
-49.070342
21
2.215835
31
0
70
33
71
5
72
1
41
1
210
0
220
0
230
1
3
Standard
100
AcDbAlignedDimension
13
-1.7
23
-25
33
0
14
-1.7
24
25
34
0
1001
ACAD
1000
DSTYLE
1002
{
1070
   279
1070
     0
1070
    74
1070
     0
1070
   173
1070
     1
1070
   340
1005
1F4
1070
    77
1070
     1
1070
    73
1070
     0
1070
   171
1070
     3
1070
   274
1070
     4
1070
   177
1070
   254
1070
   176
1070
   254
1070
   178
1070
   254
1070
    78
1070
     8
1070
    41
1041
3.175
1070
   147
1041
1.5
1070
    42
1041
2.0
1070
    44
1041
2.0
1070
   140
1041
3.0
1070
   343
1005
207
1070
   344
1005
207
1002
}
0
DIMENSION
5
21C
100
AcDbEntity
8
2
62
256
6
ByLayer
370
13
48
1
60
0
100
AcDbDimension
2
DimnDraft3D2
10
-50.31158
20
115.436444
30
0
11
-50.31158
21
55.614275
31
0
70
32
71
5
72
1
41
1
210
0
220
0
230
1
3
Standard
100
AcDbAlignedDimension
13
-26.7
23
0
33
0
14
-1.472466
24
115.436444
34
0
50
90
100
AcDbRotatedDimension
1001
ACAD
1000
DSTYLE
1002
{
1070
    74
1070
     0
1070
   279
1070
     0
1070
   172
1070
     1
1070
   173
1070
     1
1070
   340
1005
1F4
1070
   271
1070
     0
1070
    77
1070
     1
1070
    73
1070
     0
1070
   171
1070
     3
1070
   274
1070
     4
1070
   177
1070
   254
1070
   176
1070
   254
1070
   178
1070
   254
1070
    78
1070
     8
1070
    41
1041
3.175
1070
   147
1041
1.5
1070
    42
1041
2.0
1070
    44
1041
2.0
1070
   140
1041
3.0
1070
   343
1005
207
1070
   344
1005
207
1002
}
0
DIMENSION
5
22A
100
AcDbEntity
8
2
62
256
6
ByLayer
370
13
48
1
60
0
100
AcDbDimension
2
DimnDraft3D3
10
-0.010312
20
-135.846995
30
0
11
-9.571787
21
-135.846995
31
0
70
32
71
5
72
1
41
1
210
0
220
0
230
1
3
Standard
100
AcDbAlignedDimension
13
-0.527534
23
-117.436444
33
0
14
-0.010312
24
-116.810493
34
0
50
0
100
AcDbRotatedDimension
1001
ACAD
1000
DSTYLE
1002
{
1070
   279
1070
     0
1070
   172
1070
     1
1070
   173
1070
     1
1070
   340
1005
1F4
1070
   271
1070
     1
1070
    77
1070
     1
1070
    73
1070
     0
1070
   171
1070
     3
1070
   274
1070
     4
1070
   177
1070
   254
1070
   176
1070
   254
1070
   178
1070
   254
1070
    78
1070
     8
1070
    41
1041
3.175
1070
   147
1041
1.5
1070
    42
1041
2.0
1070
    44
1041
2.0
1070
   140
1041
3.0
1070
   343
1005
207
1070
   344
1005
207
1002
}
0
DIMENSION
5
238
100
AcDbEntity
8
SK2
62
256
6
ByLayer
370
13
48
1
60
0
100
AcDbDimension
2
DimnDraft3D4
10
114.737288
20
1.094872
30
0
11
22.261681
21
-103.262888
31
0
70
34
71
5
72
1
41
1
210
0
220
0
230
1
3
Standard
100
AcDb2LineAngularDimension
13
115.436444
23
0.527534
33
0
14
116.436444
24
0.527534
34
0
15
105.973326
25
8.9844
35
0
16
20.531401
26
-106.501322
36
0
40
0
0
DIMENSION
5
247
100
AcDbEntity
8
SK2
62
256
6
ByLayer
370
13
48
1
60
0
100
AcDbDimension
2
DimnDraft3D5
10
114.436444
20
-0.527534
30
0
11
-19.268945
21
-124.111242
31
0
70
34
71
5
72
1
41
1
210
0
220
0
230
1
3
Standard
100
AcDb2LineAngularDimension
13
106.170308
23
-8.388153
33
0
14
114.719491
24
-1.135738
34
0
15
115.436444
25
-0.527534
35
0
16
-21.990084
26
-105.49855
36
0
40
0
0
DIMENSION
5
255
100
AcDbEntity
8
2
62
256
6
ByLayer
370
13
48
1
60
0
100
AcDbDimension
2
DimnDraft3D6
10
-0.010312
20
-130.464725
30
0
11
3.650413
21
-130.464725
31
0
70
32
71
5
72
1
41
1
210
0
220
0
230
1
3
Standard
100
AcDbAlignedDimension
13
0.527534
23
-117.436444
33
0
14
-0.010312
24
-116.810493
34
0
50
0
100
AcDbRotatedDimension
1001
ACAD
1000
DSTYLE
1002
{
1070
   279
1070
     0
1070
   172
1070
     1
1070
   173
1070
     1
1070
   340
1005
1F4
1070
   271
1070
     1
1070
    77
1070
     1
1070
    73
1070
     0
1070
   171
1070
     3
1070
   274
1070
     4
1070
   177
1070
   254
1070
   176
1070
   254
1070
   178
1070
   254
1070
    78
1070
     8
1070
    41
1041
3.175
1070
   147
1041
1.5
1070
    42
1041
2.0
1070
    44
1041
2.0
1070
   140
1041
3.0
1070
   343
1005
207
1070
   344
1005
207
1002
}
0
ENDSEC
0
SECTION
2
OBJECTS
0
DICTIONARY
5
2c0
330
0
100
AcDbDictionary
280
0
281
1
3
ACAD_GROUP
350
2c1
3
ACAD_MLINESTYLE
350
2c2
0
DICTIONARY
5
2c1
330
0
100
AcDbDictionary
280
0
281
1
0
DICTIONARY
5
2c2
330
0
100
AcDbDictionary
280
0
281
1
3
Standard
350
18
0
MLINESTYLE
5
18
330
2c2
100
AcDbMlineStyle
2
Standard
70
0
3

62
256
51
90
52
90
71
2
49
-0.5
62
256
6
ByLayer
49
0.5
62
256
6
ByLayer
0
RASTERVARIABLES
5
2ae
330

100
AcDbRasterVariables
90
0
70
1
71
1
72
1
0
ENDSEC
0
EOF
