0
SECTION
2
HEADER
9
$ACADVER
1
AC1015
9
$DWGCODEPAGE
3
ANSI_1252
9
$HANDSEED
5
19d
9
$ANGBASE
50
0
9
$ANGDIR
70
0
9
$ATTMODE
70
1
9
$AUNITS
70
0
9
$AUPREC
70
0
9
$CECOLOR
62
256
9
$CELTSCALE
40
1
9
$CELTYPE
6
ByLayer
9
$CELWEIGHT
370
-1
9
$CLAYER
8
0
9
$CMLJUST
70
0
9
$CMLSCALE
40
1
9
$CMLSTYLE
2
Standard
9
$DIMSTYLE
2
Standard
9
$TEXTSIZE
40
0.2
9
$TEXTSTYLE
7
Standard
9
$LUNITS
70
2
9
$LUPREC
70
4
9
$EXTNAMES
290
1
9
$INSUNITS
70
4
9
$LTSCALE
40
1
9
$LWDISPLAY
290
0
9
$PDMODE
70
0
9
$PDSIZE
40
0
9
$PLINEGEN
70
0
0
ENDSEC
0
SECTION
2
CLASSES
0
CLASS
1
RASTERVARIABLES
2
AcDbRasterVariables
3
ISM
90
0
280
0
281
0
0
ENDSEC
0
SECTION
2
TABLES
0
TABLE
2
VPORT
5
193
100
AcDbSymbolTable
0
VPORT
5
1
100
AcDbSymbolTableRecord
100
AcDbViewportTableRecord
2
*Active
70
0
10
0
20
0
11
1
21
1
12
-1
22
1
13
0
23
0
14
0.5
24
0.5
15
10
25
10
16
0
26
0
36
1
17
0
27
0
37
0
0
ENDTAB
0
TABLE
2
LTYPE
5
194
100
AcDbSymbolTable
0
LTYPE
5
14
100
AcDbSymbolTableRecord
100
AcDbLinetypeTableRecord
70
0
2
ByBlock
3

72
65
73
0
40
0
0
LTYPE
5
15
100
AcDbSymbolTableRecord
100
AcDbLinetypeTableRecord
70
0
2
ByLayer
3

72
65
73
0
40
0
0
LTYPE
5
16
100
AcDbSymbolTableRecord
100
AcDbLinetypeTableRecord
70
0
2
CONTINUOUS
3
Solid line
72
65
73
0
40
0
0
LTYPE
5
3B
100
AcDbSymbolTableRecord
100
AcDbLinetypeTableRecord
70
0
2
DASHED
3
__ __ __ __ __ __ __ __ __
72
65
73
2
40
25.72
49
12.86
74
0
49
-12.86
74
0
0
LTYPE
5
3C
100
AcDbSymbolTableRecord
100
AcDbLinetypeTableRecord
70
0
2
HIDDEN
3
_ _ _ _ _ _ _ _ _ _ _ _ _ _ _
72
65
73
2
40
0.5
49
0.25
74
0
49
-0.25
74
0
0
LTYPE
5
3D
100
AcDbSymbolTableRecord
100
AcDbLinetypeTableRecord
70
0
2
PHANTOM
3
____ _ _ ____ _ _ _____ _ _ ____
72
65
73
6
40
50.5
49
18
74
0
49
-6.5
74
0
49
6.5
74
0
49
-6.5
74
0
49
6.5
74
0
49
-6.5
74
0
0
LTYPE
5
3E
100
AcDbSymbolTableRecord
100
AcDbLinetypeTableRecord
70
0
2
CENTER
3
____ _ ____ _ ____ _ ____
72
65
73
4
40
47.5
49
22
74
0
49
-8.5
74
0
49
8.5
74
0
49
-8.5
74
0
0
LTYPE
5
3F
100
AcDbSymbolTableRecord
100
AcDbLinetypeTableRecord
70
0
2
DOT
3
.........................
72
65
73
2
40
10
49
0
74
0
49
-10
74
0
0
LTYPE
5
40
100
AcDbSymbolTableRecord
100
AcDbLinetypeTableRecord
70
0
2
DASHDOT
3
_._._._._._._._._._._._._._._._.
72
65
73
4
40
70
49
31
74
0
49
-13
74
0
49
13
74
0
49
-13
74
0
0
ENDTAB
0
TABLE
2
LAYER
5
195
100
AcDbSymbolTable
0
LAYER
5
10
100
AcDbSymbolTableRecord
100
AcDbLayerTableRecord
2
0
70
0
62
7
6
CONTINUOUS
290
1
370
-3
390
0
0
LAYER
5
44
100
AcDbSymbolTableRecord
100
AcDbLayerTableRecord
2
81
70
0
62
-3
6
CONTINUOUS
290
1
370
-3
390
0
0
LAYER
5
46
100
AcDbSymbolTableRecord
100
AcDbLayerTableRecord
2
80
70
0
62
-6
6
CONTINUOUS
290
1
370
-3
390
0
0
LAYER
5
49
100
AcDbSymbolTableRecord
100
AcDbLayerTableRecord
2
2
70
0
62
7
6
CONTINUOUS
290
1
370
-3
390
0
0
LAYER
5
50
100
AcDbSymbolTableRecord
100
AcDbLayerTableRecord
2
1
70
0
62
4
6
CONTINUOUS
290
1
370
-3
390
0
0
LAYER
5
58
100
AcDbSymbolTableRecord
100
AcDbLayerTableRecord
2
4
70
0
62
-2
6
CENTER
290
1
370
-3
390
0
0
LAYER
5
17f
100
AcDbSymbolTableRecord
100
AcDbLayerTableRecord
2
SK2
70
0
62
7
6
CONTINUOUS
290
1
370
-3
390
0
0
LAYER
5
180
100
AcDbSymbolTableRecord
100
AcDbLayerTableRecord
2
SK4
70
0
62
2
6
CENTER
290
1
370
-3
390
0
0
LAYER
5
181
100
AcDbSymbolTableRecord
100
AcDbLayerTableRecord
2
SK1
70
0
62
4
6
CONTINUOUS
290
1
370
-3
390
0
0
LAYER
5
182
100
AcDbSymbolTableRecord
100
AcDbLayerTableRecord
2
SK6
70
0
62
5
6
CONTINUOUS
290
1
370
-3
390
0
0
ENDTAB
0
TABLE
2
STYLE
5
196
100
AcDbSymbolTable
0
STYLE
5
11
100
AcDbSymbolTableRecord
100
AcDbTextStyleTableRecord
2
Standard
3
txt
70
0
71
0
40
0
41
1
42
0
50
0
0
STYLE
5
FC
100
AcDbSymbolTableRecord
100
AcDbTextStyleTableRecord
2
DEFAULT
3
simplex.shx
70
0
71
0
40
0
41
1
42
0
50
0
0
STYLE
5
11F
100
AcDbSymbolTableRecord
100
AcDbTextStyleTableRecord
2
DWGDirectTextStyle
3
SIMPLEX
70
0
71
0
40
0
41
1
42
0
50
0
0
ENDTAB
0
TABLE
2
DIMSTYLE
5
197
100
AcDbSymbolTable
100
AcDbDimStyleTable
0
DIMSTYLE
105
27
100
AcDbSymbolTableRecord
100
AcDbDimStyleTableRecord
2
Standard
70
0
3
<>
41
0.18
42
0.0625
44
0.18
140
0.18
147
0.09
73
0
74
0
77
1
271
2
275
0
278
52
280
0
340
11
0
ENDTAB
0
TABLE
2
VIEW
5
198
100
AcDbSymbolTable
0
ENDTAB
0
TABLE
2
UCS
5
199
100
AcDbSymbolTable
0
ENDTAB
0
TABLE
2
APPID
5
19a
100
AcDbSymbolTable
0
APPID
5
12
100
AcDbSymbolTableRecord
100
AcDbRegAppTableRecord
2
ACAD
70
0
0
ENDTAB
0
TABLE
2
BLOCK_RECORD
5
19b
100
AcDbSymbolTable
0
BLOCK_RECORD
5
1F
100
AcDbSymbolTableRecord
100
AcDbBlockTableRecord
2
*Model_Space
340
0
70
0
0
BLOCK_RECORD
5
1B
100
AcDbSymbolTableRecord
100
AcDbBlockTableRecord
2
*Paper_Space
340
0
70
0
0
BLOCK_RECORD
5
23
100
AcDbSymbolTableRecord
100
AcDbBlockTableRecord
2
*Paper_Space0
340
0
70
0
0
BLOCK_RECORD
5
121
100
AcDbSymbolTableRecord
100
AcDbBlockTableRecord
2
DimnDraft3D11
340
0
70
0
0
BLOCK_RECORD
5
12F
100
AcDbSymbolTableRecord
100
AcDbBlockTableRecord
2
DimnDraft3D2
340
0
70
0
0
BLOCK_RECORD
5
13D
100
AcDbSymbolTableRecord
100
AcDbBlockTableRecord
2
_CLOSED
340
0
70
0
0
BLOCK_RECORD
5
144
100
AcDbSymbolTableRecord
100
AcDbBlockTableRecord
2
DimnDraft3D3
340
0
70
0
0
BLOCK_RECORD
5
152
100
AcDbSymbolTableRecord
100
AcDbBlockTableRecord
2
DimnDraft3D4
340
0
70
0
0
ENDTAB
0
ENDSEC
0
SECTION
2
BLOCKS
0
BLOCK
5
20
100
AcDbEntity
8
0
100
AcDbBlockBegin
2
*Model_Space
70
0
10
0
20
0
30
0
3
*Model_Space
0
ENDBLK
5
21
100
AcDbEntity
8
0
100
AcDbBlockEnd
0
BLOCK
5
1C
100
AcDbEntity
8
0
100
AcDbBlockBegin
2
*Paper_Space
70
0
10
0
20
0
30
0
3
*Paper_Space
0
ENDBLK
5
1D
100
AcDbEntity
8
0
100
AcDbBlockEnd
0
BLOCK
5
24
100
AcDbEntity
8
0
100
AcDbBlockBegin
2
*Paper_Space0
70
0
10
0
20
0
30
0
3
*Paper_Space0
0
ENDBLK
5
25
100
AcDbEntity
8
0
100
AcDbBlockEnd
0
BLOCK
5
122
100
AcDbEntity
8
0
100
AcDbBlockBegin
2
DimnDraft3D11
70
0
10
0
20
0
30
0
3
DimnDraft3D11
0
LINE
5
124
100
AcDbEntity
8
2
62
256
6
ByLayer
370
-1
48
1
60
0
100
AcDbLine
10
60
20
37
30
0
11
60
21
56.75
31
0
39
0
210
0
220
0
230
1
0
LINE
5
125
100
AcDbEntity
8
2
62
256
6
ByLayer
370
-1
48
1
60
0
100
AcDbLine
10
0
20
27
30
0
11
0
21
56.75
31
0
39
0
210
0
220
0
230
1
0
LINE
5
126
100
AcDbEntity
8
2
62
256
6
ByLayer
370
-1
48
1
60
0
100
AcDbLine
10
60
20
54.75
30
0
11
0
21
54.75
31
0
39
0
210
0
220
0
230
1
0
LINE
5
127
100
AcDbEntity
8
2
62
256
6
ByLayer
370
-1
48
1
60
0
100
AcDbLine
10
60
20
54.75
30
0
11
56.825002
21
54.332003
31
0
39
0
210
0
220
0
230
1
0
LINE
5
128
100
AcDbEntity
8
2
62
256
6
ByLayer
370
-1
48
1
60
0
100
AcDbLine
10
60
20
54.75
30
0
11
56.824998
21
55.167997
31
0
39
0
210
0
220
0
230
1
0
LINE
5
129
100
AcDbEntity
8
2
62
256
6
ByLayer
370
-1
48
1
60
0
100
AcDbLine
10
56.825002
20
54.332003
30
0
11
56.824998
21
55.167997
31
0
39
0
210
0
220
0
230
1
0
LINE
5
12A
100
AcDbEntity
8
2
62
256
6
ByLayer
370
-1
48
1
60
0
100
AcDbLine
10
0
20
54.75
30
0
11
3.174998
21
55.167997
31
0
39
0
210
0
220
0
230
1
0
LINE
5
12B
100
AcDbEntity
8
2
62
256
6
ByLayer
370
-1
48
1
60
0
100
AcDbLine
10
0
20
54.75
30
0
11
3.175002
21
54.332003
31
0
39
0
210
0
220
0
230
1
0
LINE
5
12C
100
AcDbEntity
8
2
62
256
6
ByLayer
370
-1
48
1
60
0
100
AcDbLine
10
3.174998
20
55.167997
30
0
11
3.175002
21
54.332003
31
0
39
0
210
0
220
0
230
1
0
MTEXT
5
12D
100
AcDbEntity
8
2
62
256
6
ByLayer
370
-1
48
1
60
0
100
AcDbMText
10
28.496053
20
55.875
30
0
210
0
220
0
230
1
1
\W00.656;\fsimplex.shx,bigfont.shx;60 
40
4.5
41
0
44
1.084337
50
0
71
7
72
5
7
DEFAULT
0
ENDBLK
5
123
100
AcDbEntity
8
0
100
AcDbBlockEnd
0
BLOCK
5
13A
100
AcDbEntity
8
0
100
AcDbBlockBegin
2
DimnDraft3D2
70
0
10
0
20
0
30
0
3
DimnDraft3D2
0
MTEXT
5
130
100
AcDbEntity
8
2
62
256
6
ByLayer
370
-1
48
1
60
0
100
AcDbMText
10
46.548859
20
40.575144
30
0
210
0
220
0
230
1
1
\W01.000;\fsimplex.shx,bigfont.shx;93%%d0' 
40
4.5
41
0
44
1.084337
50
46.5000000000004
71
7
72
5
7
DEFAULT
0
LINE
5
131
100
AcDbEntity
8
2
62
256
6
ByLayer
370
-1
48
1
60
0
100
AcDbLine
10
60
20
37
30
0
11
60
21
49.483093
31
0
39
0
210
0
220
0
230
1
0
LINE
5
132
100
AcDbEntity
8
2
62
256
6
ByLayer
370
-1
48
1
60
0
100
AcDbLine
10
56.16882
20
34.841904
30
0
11
45.579385
21
34.286936
31
0
39
0
210
0
220
0
230
1
0
ARC
5
133
100
AcDbEntity
8
2
62
256
6
ByLayer
370
-1
48
1
60
0
100
AcDbCircle
39
0
10
60
20
35.042688
30
0
40
12.4404046838469
210
0
220
0
230
1
100
AcDbArc
50
90
51
183
0
LINE
5
134
100
AcDbEntity
8
2
62
256
6
ByLayer
370
-1
48
1
60
0
100
AcDbLine
10
60
20
47.483093
30
0
11
56.857902
21
46.864583
31
0
39
0
210
0
220
0
230
1
0
LINE
5
135
100
AcDbEntity
8
2
62
256
6
ByLayer
370
-1
48
1
60
0
100
AcDbLine
10
60
20
47.483093
30
0
11
56.804881
21
47.698894
31
0
39
0
210
0
220
0
230
1
0
LINE
5
136
100
AcDbEntity
8
2
62
256
6
ByLayer
370
-1
48
1
60
0
100
AcDbLine
10
56.857902
20
46.864583
30
0
11
56.804881
21
47.698894
31
0
39
0
210
0
220
0
230
1
0
LINE
5
137
100
AcDbEntity
8
2
62
256
6
ByLayer
370
-1
48
1
60
0
100
AcDbLine
10
47.576644
20
34.391607
30
0
11
47.19392
21
37.571051
31
0
39
0
210
0
220
0
230
1
0
LINE
5
138
100
AcDbEntity
8
2
62
256
6
ByLayer
370
-1
48
1
60
0
100
AcDbLine
10
47.576644
20
34.391607
30
0
11
48.029861
21
37.561773
31
0
39
0
210
0
220
0
230
1
0
LINE
5
139
100
AcDbEntity
8
2
62
256
6
ByLayer
370
-1
48
1
60
0
100
AcDbLine
10
47.19392
20
37.571051
30
0
11
48.029861
21
37.561773
31
0
39
0
210
0
220
0
230
1
0
ENDBLK
5
13B
100
AcDbEntity
8
0
100
AcDbBlockEnd
0
BLOCK
5
13E
100
AcDbEntity
8
0
100
AcDbBlockBegin
2
_CLOSED
70
0
10
0
20
0
30
0
3
_CLOSED
0
LINE
5
140
100
AcDbEntity
8
0
62
256
6
ByLayer
370
-2
48
1
60
0
100
AcDbLine
10
-1
20
0.166667
30
0
11
0
21
0
31
0
39
0
210
0
220
0
230
1
0
LINE
5
141
100
AcDbEntity
8
0
62
256
6
ByLayer
370
-2
48
1
60
0
100
AcDbLine
10
0
20
0
30
0
11
-1
21
-0.166667
31
0
39
0
210
0
220
0
230
1
0
LINE
5
142
100
AcDbEntity
8
0
62
256
6
ByLayer
370
-2
48
1
60
0
100
AcDbLine
10
-1
20
0.166667
30
0
11
-1
21
-0.166667
31
0
39
0
210
0
220
0
230
1
0
LINE
5
143
100
AcDbEntity
8
0
62
256
6
ByLayer
370
-2
48
1
60
0
100
AcDbLine
10
0
20
0
30
0
11
-1
21
0
31
0
39
0
210
0
220
0
230
1
0
ENDBLK
5
13F
100
AcDbEntity
8
0
100
AcDbBlockEnd
0
BLOCK
5
14F
100
AcDbEntity
8
0
100
AcDbBlockBegin
2
DimnDraft3D3
70
0
10
0
20
0
30
0
3
DimnDraft3D3
0
MTEXT
5
145
100
AcDbEntity
8
SK2
62
256
6
ByLayer
370
-1
48
1
60
0
100
AcDbMText
10
-40.875
20
-3.659211
30
0
210
0
220
0
230
1
1
\W01.000;\fsimplex.shx,bigfont.shx;%%c50 
40
4.5
41
0
44
1.084337
50
90
71
7
72
5
7
DEFAULT
0
LINE
5
146
100
AcDbEntity
8
SK2
62
256
6
ByLayer
370
-1
48
1
60
0
100
AcDbLine
10
-2
20
-25
30
0
11
-41.75
21
-25
31
0
39
0
210
0
220
0
230
1
0
LINE
5
147
100
AcDbEntity
8
SK2
62
256
6
ByLayer
370
-1
48
1
60
0
100
AcDbLine
10
-2
20
25
30
0
11
-41.75
21
25
31
0
39
0
210
0
220
0
230
1
0
LINE
5
148
100
AcDbEntity
8
SK2
62
256
6
ByLayer
370
-1
48
1
60
0
100
AcDbLine
10
-39.75
20
-25
30
0
11
-39.75
21
25
31
0
39
0
210
0
220
0
230
1
0
LINE
5
149
100
AcDbEntity
8
SK2
62
256
6
ByLayer
370
-1
48
1
60
0
100
AcDbLine
10
-39.75
20
-25
30
0
11
-40.167997
21
-21.825002
31
0
39
0
210
0
220
0
230
1
0
LINE
5
14A
100
AcDbEntity
8
SK2
62
256
6
ByLayer
370
-1
48
1
60
0
100
AcDbLine
10
-39.75
20
-25
30
0
11
-39.332003
21
-21.824998
31
0
39
0
210
0
220
0
230
1
0
LINE
5
14B
100
AcDbEntity
8
SK2
62
256
6
ByLayer
370
-1
48
1
60
0
100
AcDbLine
10
-40.167997
20
-21.825002
30
0
11
-39.332003
21
-21.824998
31
0
39
0
210
0
220
0
230
1
0
LINE
5
14C
100
AcDbEntity
8
SK2
62
256
6
ByLayer
370
-1
48
1
60
0
100
AcDbLine
10
-39.75
20
25
30
0
11
-39.332003
21
21.825002
31
0
39
0
210
0
220
0
230
1
0
LINE
5
14D
100
AcDbEntity
8
SK2
62
256
6
ByLayer
370
-1
48
1
60
0
100
AcDbLine
10
-39.75
20
25
30
0
11
-40.167997
21
21.824998
31
0
39
0
210
0
220
0
230
1
0
LINE
5
14E
100
AcDbEntity
8
SK2
62
256
6
ByLayer
370
-1
48
1
60
0
100
AcDbLine
10
-39.332003
20
21.825002
30
0
11
-40.167997
21
21.824998
31
0
39
0
210
0
220
0
230
1
0
ENDBLK
5
150
100
AcDbEntity
8
0
100
AcDbBlockEnd
0
BLOCK
5
15D
100
AcDbEntity
8
0
100
AcDbBlockBegin
2
DimnDraft3D4
70
0
10
0
20
0
30
0
3
DimnDraft3D4
0
MTEXT
5
153
100
AcDbEntity
8
2
62
256
6
ByLayer
370
-1
48
1
60
0
100
AcDbMText
10
86.125
20
15.996053
30
0
210
0
220
0
230
1
1
\W01.000;\fsimplex.shx,bigfont.shx;35 
40
4.5
41
0
44
1.084337
50
90
71
7
72
5
7
DEFAULT
0
LINE
5
154
100
AcDbEntity
8
2
62
256
6
ByLayer
370
-1
48
1
60
0
100
AcDbLine
10
62
20
0
30
0
11
89.25
21
0
31
0
39
0
210
0
220
0
230
1
0
LINE
5
155
100
AcDbEntity
8
2
62
256
6
ByLayer
370
-1
48
1
60
0
100
AcDbLine
10
62
20
35
30
0
11
89.25
21
35
31
0
39
0
210
0
220
0
230
1
0
LINE
5
156
100
AcDbEntity
8
2
62
256
6
ByLayer
370
-1
48
1
60
0
100
AcDbLine
10
87.25
20
0
30
0
11
87.25
21
35
31
0
39
0
210
0
220
0
230
1
0
LINE
5
157
100
AcDbEntity
8
2
62
256
6
ByLayer
370
-1
48
1
60
0
100
AcDbLine
10
87.25
20
0
30
0
11
86.832003
21
3.174998
31
0
39
0
210
0
220
0
230
1
0
LINE
5
158
100
AcDbEntity
8
2
62
256
6
ByLayer
370
-1
48
1
60
0
100
AcDbLine
10
87.25
20
0
30
0
11
87.667997
21
3.175002
31
0
39
0
210
0
220
0
230
1
0
LINE
5
159
100
AcDbEntity
8
2
62
256
6
ByLayer
370
-1
48
1
60
0
100
AcDbLine
10
86.832003
20
3.174998
30
0
11
87.667997
21
3.175002
31
0
39
0
210
0
220
0
230
1
0
LINE
5
15A
100
AcDbEntity
8
2
62
256
6
ByLayer
370
-1
48
1
60
0
100
AcDbLine
10
87.25
20
35
30
0
11
87.667997
21
31.825002
31
0
39
0
210
0
220
0
230
1
0
LINE
5
15B
100
AcDbEntity
8
2
62
256
6
ByLayer
370
-1
48
1
60
0
100
AcDbLine
10
87.25
20
35
30
0
11
86.832003
21
31.824998
31
0
39
0
210
0
220
0
230
1
0
LINE
5
15C
100
AcDbEntity
8
2
62
256
6
ByLayer
370
-1
48
1
60
0
100
AcDbLine
10
87.667997
20
31.825002
30
0
11
86.832003
21
31.824998
31
0
39
0
210
0
220
0
230
1
0
ENDBLK
5
15E
100
AcDbEntity
8
0
100
AcDbBlockEnd
0
ENDSEC
0
SECTION
2
ENTITIES
0
ARC
5
92
100
AcDbEntity
8
SK1
62
256
6
ByLayer
370
-1
48
1
60
0
100
AcDbCircle
39
0
10
0.6
20
-18.75
30
0
40
1.00000000000001
210
0
220
0
230
-1
100
AcDbArc
50
113.578178
51
126.869898
0
ARC
5
93
100
AcDbEntity
8
SK1
62
256
6
ByLayer
370
-1
48
1
60
0
100
AcDbCircle
39
0
10
0.6
20
18.75
30
0
40
1.00000000000001
210
0
220
0
230
-1
100
AcDbArc
50
233.130102
51
246.421822
0
ARC
5
94
100
AcDbEntity
8
1
62
256
6
ByLayer
370
-1
48
1
60
0
100
AcDbCircle
39
0
10
34.954875
20
23.791561
30
0
40
1.625
210
0
220
0
230
1
100
AcDbArc
50
208.890012
51
308
0
ARC
5
95
100
AcDbEntity
8
1
62
256
6
ByLayer
370
-1
48
1
60
0
100
AcDbCircle
39
0
10
31.200379
20
19.323403
30
0
40
3.2
210
0
220
0
230
1
100
AcDbArc
50
58.5
51
68.310953
0
ARC
5
96
100
AcDbEntity
8
1
62
256
6
ByLayer
370
-1
48
1
60
0
100
AcDbCircle
39
0
10
-32.96246
20
24.394099
30
0
40
1.5
210
0
220
0
230
-1
100
AcDbArc
50
260.988387
51
130.225057
0
ARC
5
97
100
AcDbEntity
8
1
62
256
6
ByLayer
370
-1
48
1
60
0
100
AcDbCircle
39
0
10
32.96246
20
24.394099
30
0
40
1.5
210
0
220
0
230
1
100
AcDbArc
50
292.319174
51
351.227371
0
ARC
5
98
100
AcDbEntity
8
1
62
256
6
ByLayer
370
-1
48
1
60
0
100
AcDbCircle
39
0
10
40.475296
20
13.639726
30
0
40
1.60000000000145
210
0
220
0
230
1
100
AcDbArc
50
11.165521
51
58.5
0
ARC
5
99
100
AcDbEntity
8
1
62
256
6
ByLayer
370
-1
48
1
60
0
100
AcDbCircle
39
0
10
40.475296
20
13.639726
30
0
40
3.2
210
0
220
0
230
1
100
AcDbArc
50
37.706408
51
58.5
0
ARC
5
9A
100
AcDbEntity
8
1
62
256
6
ByLayer
370
-1
48
1
60
0
100
AcDbCircle
39
0
10
47.463492
20
41.563147
30
0
40
8.10000000000001
210
0
220
0
230
1
100
AcDbArc
50
248.665465
51
250.027435
0
ARC
5
9B
100
AcDbEntity
8
1
62
256
6
ByLayer
370
-1
48
1
60
0
100
AcDbCircle
39
0
10
34.954875
20
23.791561
30
0
40
1.965
210
0
220
0
230
1
100
AcDbArc
50
206.57066
51
308
0
ARC
5
9C
100
AcDbEntity
8
1
62
256
6
ByLayer
370
-1
48
1
60
0
100
AcDbCircle
39
0
10
31.200379
20
19.323403
30
0
40
1.60000000036693
210
0
220
0
230
1
100
AcDbArc
50
58.5
51
68.310953
0
ARC
5
9D
100
AcDbEntity
8
1
62
256
6
ByLayer
370
-1
48
1
60
0
100
AcDbCircle
39
0
10
-46.843942
20
29.584172
30
0
40
1.2065
210
0
220
0
230
-1
100
AcDbArc
50
245.544721
51
253.455279
0
ARC
5
9E
100
AcDbEntity
8
1
62
256
6
ByLayer
370
-1
48
1
60
0
100
AcDbCircle
39
0
10
-46.843942
20
29.584172
30
0
40
1.2065
210
0
220
0
230
-1
100
AcDbArc
50
9.420057
51
65.544721
0
ARC
5
9F
100
AcDbEntity
8
1
62
256
6
ByLayer
370
-1
48
1
60
0
100
AcDbCircle
39
0
10
-46.843942
20
29.584172
30
0
40
1.6765
210
0
220
0
230
-1
100
AcDbArc
50
279.659887
51
339.5
0
ARC
5
A0
100
AcDbEntity
8
1
62
256
6
ByLayer
370
-1
48
1
60
0
100
AcDbCircle
39
0
10
46.843942
20
29.584172
30
0
40
1.2065
210
0
220
0
230
1
100
AcDbArc
50
350.579943
51
50.420057
0
ARC
5
A1
100
AcDbEntity
8
1
62
256
6
ByLayer
370
-1
48
1
60
0
100
AcDbCircle
39
0
10
46.843942
20
29.584172
30
0
40
1.2065
210
0
220
0
230
1
100
AcDbArc
50
50.420057
51
106.544721
0
ARC
5
A2
100
AcDbEntity
8
1
62
256
6
ByLayer
370
-1
48
1
60
0
100
AcDbCircle
39
0
10
46.843942
20
29.584172
30
0
40
1.2065
210
0
220
0
230
1
100
AcDbArc
50
170.579943
51
230.420057
0
ARC
5
A3
100
AcDbEntity
8
1
62
256
6
ByLayer
370
-1
48
1
60
0
100
AcDbCircle
39
0
10
-46.843942
20
29.584172
30
0
40
1.2065
210
0
220
0
230
-1
100
AcDbArc
50
65.544721
51
73.455279
0
ARC
5
A4
100
AcDbEntity
8
1
62
256
6
ByLayer
370
-1
48
1
60
0
100
AcDbCircle
39
0
10
46.843942
20
29.584172
30
0
40
1.2065
210
0
220
0
230
1
100
AcDbArc
50
230.420057
51
286.544721
0
ARC
5
A6
100
AcDbEntity
8
1
62
256
6
ByLayer
370
-1
48
1
60
0
100
AcDbCircle
39
0
10
-46.843942
20
29.584172
30
0
40
1.6765
210
0
220
0
230
-1
100
AcDbArc
50
39.340113
51
99.659887
0
ARC
5
A7
100
AcDbEntity
8
1
62
256
6
ByLayer
370
-1
48
1
60
0
100
AcDbCircle
39
0
10
-46.843942
20
29.584172
30
0
40
1.6765
210
0
220
0
230
-1
100
AcDbArc
50
159.5
51
219.340113
0
ARC
5
A9
100
AcDbEntity
8
1
62
256
6
ByLayer
370
-1
48
1
60
0
100
AcDbCircle
39
0
10
-46.843942
20
29.584172
30
0
40
1.6765
210
0
220
0
230
-1
100
AcDbArc
50
219.340113
51
279.659887
0
ARC
5
AA
100
AcDbEntity
8
1
62
256
6
ByLayer
370
-1
48
1
60
0
100
AcDbCircle
39
0
10
46.843942
20
29.584172
30
0
40
1.2065
210
0
220
0
230
1
100
AcDbArc
50
294.455279
51
350.579943
0
ARC
5
AB
100
AcDbEntity
8
1
62
256
6
ByLayer
370
-1
48
1
60
0
100
AcDbCircle
39
0
10
-46.843942
20
29.584172
30
0
40
1.6765
210
0
220
0
230
-1
100
AcDbArc
50
339.5
51
39.340113
0
ARC
5
AD
100
AcDbEntity
8
1
62
256
6
ByLayer
370
-1
48
1
60
0
100
AcDbCircle
39
0
10
-46.843942
20
29.584172
30
0
40
1.6765
210
0
220
0
230
-1
100
AcDbArc
50
99.659887
51
159.5
0
CIRCLE
5
A5
100
AcDbEntity
8
1
62
256
6
ByLayer
370
-1
48
1
60
0
100
AcDbCircle
10
-46.843942
20
29.584172
30
0
40
3.04453416176668
39
0
210
0
220
0
230
-1
0
CIRCLE
5
A8
100
AcDbEntity
8
1
62
256
6
ByLayer
370
-1
48
1
60
0
100
AcDbCircle
10
-46.843942
20
29.584172
30
0
40
2.94445165909343
39
0
210
0
220
0
230
-1
0
CIRCLE
5
AC
100
AcDbEntity
8
1
62
256
6
ByLayer
370
-1
48
1
60
0
100
AcDbCircle
10
-46.843942
20
29.584172
30
0
40
3
39
0
210
0
220
0
230
-1
0
CIRCLE
5
AE
100
AcDbEntity
8
1
62
256
6
ByLayer
370
-1
48
1
60
0
100
AcDbCircle
10
-46.843942
20
29.584172
30
0
40
2.625
39
0
210
0
220
0
230
-1
0
CIRCLE
5
AF
100
AcDbEntity
8
1
62
256
6
ByLayer
370
-1
48
1
60
0
100
AcDbCircle
10
-46.843942
20
29.584172
30
0
40
1.8
39
0
210
0
220
0
230
-1
0
ELLIPSE
5
B0
100
AcDbEntity
8
1
62
256
6
ByLayer
370
-1
48
1
60
0
100
AcDbEllipse
10
-1.056258
20
0
30
0
11
-11.7092723497271
21
24.6771864409373
31
0
210
0
220
0
230
1
40
0.341999
41
-2.97437958168082
42
-2.05975995310051
0
ELLIPSE
5
B1
100
AcDbEntity
8
1
62
256
6
ByLayer
370
-1
48
1
60
0
100
AcDbEllipse
10
-1.056258
20
0
30
0
11
-11.7092723497278
21
-24.6771864409381
31
0
210
0
220
0
230
1
40
0.341999
41
2.05975995310054
42
2.97437958168082
0
ELLIPSE
5
B2
100
AcDbEntity
8
1
62
256
6
ByLayer
370
-1
48
1
60
0
100
AcDbEllipse
10
24
20
17.928141
30
0
11
-2.91318737431216
21
4.89923798653915
31
0
210
0
220
0
230
1
40
0.559484
41
-0.815833246823853
42
-0.55753765726937
0
ELLIPSE
5
B3
100
AcDbEntity
8
1
62
256
6
ByLayer
370
-1
48
1
60
0
100
AcDbEllipse
10
21.056258
20
0
30
0
11
-11.7092723497275
21
24.6771864409378
31
0
210
0
220
0
230
1
40
0.341999
41
0.167213071908977
42
1.08183270048926
0
ELLIPSE
5
B4
100
AcDbEntity
8
1
62
256
6
ByLayer
370
-1
48
1
60
0
100
AcDbEllipse
10
21.056258
20
0
30
0
11
-11.7092723497278
21
-24.6771864409381
31
0
210
0
220
0
230
1
40
0.341999
41
-1.08183270048926
42
-0.167213071908978
0
ELLIPSE
5
B5
100
AcDbEntity
8
1
62
256
6
ByLayer
370
-1
48
1
60
0
100
AcDbEllipse
10
34.550072
20
18.326253
30
0
11
-0.914195155901987
21
1.3131059427652
31
0
210
0
220
0
230
1
40
0.207912
41
-0.615950726697473
42
-0.270276931621298
0
ELLIPSE
5
B6
100
AcDbEntity
8
1
62
256
6
ByLayer
370
-1
48
1
60
0
100
AcDbEllipse
10
48.445302
20
25.301139
30
0
11
0.140671130879122
21
-0.37624203022429
31
0
210
0
220
0
230
1
40
0.995819
41
-0.304233038584743
42
0.304233038584704
0
ELLIPSE
5
B7
100
AcDbEntity
8
1
62
256
6
ByLayer
370
-1
48
1
60
0
100
AcDbEllipse
10
34.46469
20
24.95576
30
0
11
-0.746558599125102
21
-0.279126822550515
31
0
210
0
220
0
230
1
40
0.996195
41
-1.14164284817401
42
1.14164284817926
0
ELLIPSE
5
B8
100
AcDbEntity
8
1
62
256
6
ByLayer
370
-1
48
1
60
0
100
AcDbEllipse
10
59.223194
20
34.212585
30
0
11
0.746558599125102
21
0.279126822550515
31
0
210
0
220
0
230
1
40
0.996195
41
-1.14164284817432
42
1.14164284817874
0
ELLIPSE
5
B9
100
AcDbEntity
8
1
62
256
6
ByLayer
370
-1
48
1
60
0
100
AcDbEllipse
10
45.242581
20
33.867205
30
0
11
-0.140671130879121
21
0.37624203022429
31
0
210
0
220
0
230
1
40
0.995819
41
-0.304233038584735
42
0.304233038584712
0
POINT
5
41
100
AcDbEntity
8
SK2
62
256
6
ByLayer
370
-1
48
1
60
0
100
AcDbPoint
10
110
20
85
30
0
39
0
210
0
220
0
230
1
50
360
0
POINT
5
43
100
AcDbEntity
8
81
62
256
6
ByLayer
370
-1
48
1
60
0
100
AcDbPoint
10
60
20
35
30
0
39
0
210
0
220
0
230
1
50
360
0
POINT
5
45
100
AcDbEntity
8
80
62
256
6
ByLayer
370
-1
48
1
60
0
100
AcDbPoint
10
0
20
0
30
0
39
0
210
0
220
0
230
1
50
360
0
POINT
5
47
100
AcDbEntity
8
SK2
62
256
6
ByLayer
370
-1
48
1
60
0
100
AcDbPoint
10
60
20
35
30
0
39
0
210
0
220
0
230
1
50
360
0
POINT
5
48
100
AcDbEntity
8
2
62
256
6
ByLayer
370
-1
48
1
60
0
100
AcDbPoint
10
60
20
35
30
0
39
0
210
0
220
0
230
1
50
360
0
POINT
5
4A
100
AcDbEntity
8
SK2
62
256
6
ByLayer
370
-1
48
1
60
0
100
AcDbPoint
10
60
20
35
30
0
39
0
210
0
220
0
230
1
50
360
0
POINT
5
4B
100
AcDbEntity
8
SK2
62
256
6
ByLayer
370
-1
48
1
60
0
100
AcDbPoint
10
25.792879
20
0
30
0
39
0
210
0
220
0
230
1
50
360
0
POINT
5
4C
100
AcDbEntity
8
SK2
62
256
6
ByLayer
370
-1
48
1
60
0
100
AcDbPoint
10
110
20
85
30
0
39
0
210
0
220
0
230
1
50
360
0
POINT
5
4D
100
AcDbEntity
8
SK2
62
256
6
ByLayer
370
-1
48
1
60
0
100
AcDbPoint
10
60
20
35
30
0
39
0
210
0
220
0
230
1
50
360
0
POINT
5
4E
100
AcDbEntity
8
SK2
62
256
6
ByLayer
370
-1
48
1
60
0
100
AcDbPoint
10
60
20
35
30
0
39
0
210
0
220
0
230
1
50
360
0
SPLINE
5
BA
100
AcDbEntity
8
SK1
62
256
6
ByLayer
370
-1
48
1
60
0
100
AcDbSpline
70
4
71
2
72
6
73
3
40
0
40
0
40
0
40
1
40
1
40
1
41
1
10
-28.5
20
-16.8542724489282
30
0
41
1
10
-15.3499999999286
20
-17.1845422635703
30
0
41
1
10
-2.2
20
-17.5148116792767
30
0
0
SPLINE
5
BB
100
AcDbEntity
8
SK1
62
256
6
ByLayer
370
-1
48
1
60
0
100
AcDbSpline
70
4
71
2
72
6
73
3
40
0
40
0
40
0
40
1
40
1
40
1
41
1
10
-2.2
20
17.5148117187522
30
0
41
1
10
-15.3499999999294
20
17.1845422725478
30
0
41
1
10
-28.5
20
16.854272429841
30
0
0
SPLINE
5
BC
100
AcDbEntity
8
SK1
62
256
6
ByLayer
370
-1
48
1
60
0
100
AcDbSpline
70
4
71
3
72
13
73
9
40
0
40
0
40
0
40
0
40
0.239456135733032
40
0.36835972189653
40
0.499998983985283
40
0.631638415256102
40
0.76054246776243
40
1
40
1
40
1
40
1
41
1
10
-2.2
20
-17.520098551796
30
0
41
1
10
-2.19909198642199
20
-17.4940410756898
30
0
41
1
10
-2.19103284106865
20
-17.4566684913667
30
0
41
1
10
-2.16563592203264
20
-17.410449317548
30
0
41
1
10
-2.13886378679183
20
-17.3791677636995
30
0
41
1
10
-2.10627712749809
20
-17.3540003935064
30
0
41
1
10
-2.05884064234172
20
-17.3309565910454
30
0
41
1
10
-2.02111030873063
20
-17.3247843360228
30
0
41
1
10
-1.9950399779393
20
-17.3251859759625
30
0
0
SPLINE
5
BD
100
AcDbEntity
8
SK1
62
256
6
ByLayer
370
-1
48
1
60
0
100
AcDbSpline
70
4
71
3
72
13
73
9
40
0
40
0
40
0
40
0
40
0.239457532282982
40
0.368361584804877
40
0.500001016081699
40
0.631640278165302
40
0.760543864313669
40
1
40
1
40
1
40
1
41
1
10
-1.9950399779393
20
17.3251861589552
30
0
41
1
10
-2.02111030872966
20
17.324784519015
30
0
41
1
10
-2.05884064233987
20
17.3309567740351
30
0
41
1
10
-2.10627712749673
20
17.3540005764861
30
0
41
1
10
-2.13886378679055
20
17.3791679466684
30
0
41
1
10
-2.16563592203168
20
17.4104495005038
30
0
41
1
10
-2.19103284106792
20
17.4566686743028
30
0
41
1
10
-2.19909198642127
20
17.4940412586114
30
0
41
1
10
-2.19999999999999
20
17.5200987347078
30
0
0
SPLINE
5
BE
100
AcDbEntity
8
SK1
62
256
6
ByLayer
370
-1
48
1
60
0
100
AcDbSpline
70
4
71
2
72
6
73
3
40
0
40
0
40
0
40
1
40
1
40
1
41
1
10
-1.9950399779393
20
-17.3199593099743
30
0
41
1
10
-1.19500843340704
20
-17.340052552406
30
0
41
1
10
-0.394976888875291
20
-17.3601457933935
30
0
0
SPLINE
5
BF
100
AcDbEntity
8
SK1
62
256
6
ByLayer
370
-1
48
1
60
0
100
AcDbSpline
70
4
71
2
72
6
73
3
40
0
40
0
40
0
40
1
40
1
40
1
41
1
10
-0.394976888875291
20
17.3601458189993
30
0
41
1
10
-1.19500843340704
20
17.3400525762132
30
0
41
1
10
-1.9950399779393
20
17.3199593319919
30
0
0
SPLINE
5
C0
100
AcDbEntity
8
SK1
62
256
6
ByLayer
370
-1
48
1
60
0
100
AcDbSpline
70
4
71
2
72
6
73
3
40
0
40
0
40
0
40
1
40
1
40
1
41
1
10
-30
20
-15.9924794145163
30
0
41
1
10
-29.2499999991495
20
-16.4254650261933
30
0
41
1
10
-28.5
20
-16.8584504491481
30
0
0
SPLINE
5
C1
100
AcDbEntity
8
SK1
62
256
6
ByLayer
370
-1
48
1
60
0
100
AcDbSpline
70
4
71
2
72
6
73
3
40
0
40
0
40
0
40
1
40
1
40
1
41
1
10
-28.5
20
16.8584505716142
30
0
41
1
10
-29.2499999991496
20
16.4254651505507
30
0
41
1
10
-30
20
15.99247954079
30
0
0
SPLINE
5
C2
100
AcDbEntity
8
SK1
62
256
6
ByLayer
370
-1
48
1
60
0
100
AcDbSpline
70
4
71
2
72
6
73
3
40
0
40
0
40
0
40
1
40
1
40
1
41
1
10
-0.394976888875291
20
-17.359696795897
30
0
41
1
10
-0.305277226309741
20
-17.3671842624703
30
0
41
1
10
-0.258658740615687
20
-17.4310145299901
30
0
0
SPLINE
5
C3
100
AcDbEntity
8
SK1
62
256
6
ByLayer
370
-1
48
1
60
0
100
AcDbSpline
70
4
71
2
72
6
73
3
40
0
40
0
40
0
40
1
40
1
40
1
41
1
10
-0.258442643302431
20
17.4312381196178
30
0
41
1
10
-0.305123774552598
20
17.3672404580573
30
0
41
1
10
-0.394976888875291
20
17.3596982935394
30
0
0
SPLINE
5
C4
100
AcDbEntity
8
1
62
256
6
ByLayer
370
-1
48
1
60
0
100
AcDbSpline
70
4
71
3
72
16
73
12
40
0
40
0
40
0
40
0
40
0.461208588217085
40
0.461208588217085
40
0.643534962278541
40
0.643534962278541
40
0.828408472975291
40
0.828408472975291
40
0.943003644159993
40
0.943003644159993
40
1
40
1
40
1
40
1
41
1
10
11.8943375672974
20
23.6665017920809
30
0
41
1
10
11.8660503915152
20
23.7022583261632
30
0
41
1
10
11.8273339192908
20
23.7370095736338
30
0
41
1
10
11.7473160248315
20
23.7800170858174
30
0
41
1
10
11.7212784637477
20
23.7917125768793
30
0
41
1
10
11.6606543989164
20
23.8127037684951
30
0
41
1
10
11.6251722226874
20
23.8222104320954
30
0
41
1
10
11.5599225851958
20
23.8331586856493
30
0
41
1
10
11.5324782774944
20
23.836332378473
30
0
41
1
10
11.4901684747699
20
23.8387183279986
30
0
41
1
10
11.4757173930754
20
23.8391299750505
30
0
41
1
10
11.4613248654053
20
23.8391299750505
30
0
0
SPLINE
5
C5
100
AcDbEntity
8
1
62
256
6
ByLayer
370
-1
48
1
60
0
100
AcDbSpline
70
4
71
3
72
12
73
8
40
0
40
0
40
0
40
0
40
0.416759463226159
40
0.416759463226159
40
0.960950473726509
40
0.960950473726509
40
1
40
1
40
1
40
1
41
1
10
21.0150156979657
20
25.3501675277707
30
0
41
1
10
21.2970089701398
20
25.3812863706107
30
0
41
1
10
21.6243854653295
20
25.4271613002947
30
0
41
1
10
22.3834364642153
20
25.575994659631
30
0
41
1
10
22.8369801833286
20
25.6952078533048
30
0
41
1
10
23.3079116257926
20
25.8582662884486
30
0
41
1
10
23.3398149578252
20
25.8695028372681
30
0
41
1
10
23.3716542841874
20
25.8809076874752
30
0
0
SPLINE
5
C6
100
AcDbEntity
8
1
62
256
6
ByLayer
370
-1
48
1
60
0
100
AcDbSpline
70
4
71
3
72
8
73
4
40
0
40
0
40
0
40
0
40
1
40
1
40
1
40
1
41
1
10
20.92079238
20
-21.3516092265187
30
0
41
1
10
20.9473195545924
20
-21.487011838698
30
0
41
1
10
20.9741195589126
20
-21.6225182165656
30
0
41
1
10
21.0011771377293
20
-21.7581244230646
30
0
0
SPLINE
5
C7
100
AcDbEntity
8
1
62
256
6
ByLayer
370
-1
48
1
60
0
100
AcDbSpline
70
4
71
3
72
10
73
6
40
0
40
0
40
0
40
0
40
0.5
40
0.5
40
1
40
1
40
1
40
1
41
1
10
30.8151182750134
20
31.3170557225537
30
0
41
1
10
31.2954163464054
20
31.7201229856366
30
0
41
1
10
31.7948248016992
20
32.1008202164819
30
0
41
1
10
32.8324732111726
20
32.8167597105294
30
0
41
1
10
33.3737507165128
20
33.1535984196452
30
0
41
1
10
33.9266415309549
20
33.4620932533172
30
0
0
SPLINE
5
C8
100
AcDbEntity
8
1
62
256
6
ByLayer
370
-1
48
1
60
0
100
AcDbSpline
70
4
71
3
72
10
73
6
40
0
40
0
40
0
40
0
40
0.452151547700207
40
0.452151547700207
40
1
40
1
40
1
40
1
41
1
10
33.1974120027313
20
22.9126140760038
30
0
41
1
10
33.2504884803149
20
22.9210315923734
30
0
41
1
10
33.3024213623062
20
22.9321871256547
30
0
41
1
10
33.4146025554936
20
22.9624498938076
30
0
41
1
10
33.4742846875726
20
22.9827370243088
30
0
41
1
10
33.5321086624425
20
23.0064749736204
30
0
0
SPLINE
5
C9
100
AcDbEntity
8
1
62
256
6
ByLayer
370
-1
48
1
60
0
100
AcDbSpline
70
4
71
3
72
16
73
12
40
0
40
0
40
0
40
0
40
0.461208588217088
40
0.461208588217088
40
0.643534962278544
40
0.643534962278544
40
0.82840847297529
40
0.82840847297529
40
0.943003644159989
40
0.943003644159989
40
1
40
1
40
1
40
1
41
1
10
8.1056624327026
20
8.05584836782774
30
0
41
1
10
8.13394960848487
20
7.95080268681445
30
0
41
1
10
8.17266608070922
20
7.84628670970801
30
0
41
1
10
8.25268397516849
20
7.71442469145123
30
0
41
1
10
8.27872153625232
20
7.67825379650728
30
0
41
1
10
8.33934560108361
20
7.61290523367228
30
0
41
1
10
8.37482777731263
20
7.5830592305141
30
0
41
1
10
8.44007741480421
20
7.54855881865589
30
0
41
1
10
8.46752172250564
20
7.5385201810229
30
0
41
1
10
8.50983152523006
20
7.53097042135255
30
0
41
1
10
8.52428260692459
20
7.52966679426473
30
0
41
1
10
8.53867513459474
20
7.52966679426473
30
0
0
SPLINE
5
CA
100
AcDbEntity
8
1
62
256
6
ByLayer
370
-1
48
1
60
0
100
AcDbSpline
70
4
71
3
72
16
73
12
40
0
40
0
40
0
40
0
40
0.461208588217066
40
0.461208588217066
40
0.643534962278522
40
0.643534962278522
40
0.828408472975271
40
0.828408472975271
40
0.943003644159981
40
0.943003644159981
40
1
40
1
40
1
40
1
41
1
10
11.8943375672974
20
-8.05584836782774
30
0
41
1
10
11.8660503915152
20
-7.95080268681445
30
0
41
1
10
11.8273339192908
20
-7.84628670970801
30
0
41
1
10
11.7473160248315
20
-7.71442469145123
30
0
41
1
10
11.7212784637477
20
-7.67825379650728
30
0
41
1
10
11.6606543989164
20
-7.61290523367228
30
0
41
1
10
11.6251722226874
20
-7.58305923051407
30
0
41
1
10
11.5599225851958
20
-7.54855881865589
30
0
41
1
10
11.5324782774944
20
-7.5385201810229
30
0
41
1
10
11.49016847477
20
-7.53097042135255
30
0
41
1
10
11.4757173930754
20
-7.5296667942647
30
0
41
1
10
11.4613248654053
20
-7.5296667942647
30
0
0
SPLINE
5
CB
100
AcDbEntity
8
1
62
256
6
ByLayer
370
-1
48
1
60
0
100
AcDbSpline
70
4
71
3
72
8
73
4
40
0
40
0
40
0
40
0
40
1
40
1
40
1
40
1
41
1
10
20.92079238
20
-21.3516092265187
30
0
41
1
10
20.2785314721746
20
-20.8798398476592
30
0
41
1
10
20
20
-20.259049291803
30
0
41
1
10
20
20
-19.5696181922613
30
0
0
SPLINE
5
CC
100
AcDbEntity
8
1
62
256
6
ByLayer
370
-1
48
1
60
0
100
AcDbSpline
70
4
71
3
72
10
73
6
40
0
40
0
40
0
40
0
40
0.610921801174243
40
0.610921801174243
40
1
40
1
40
1
40
1
41
1
10
21.0150156979657
20
25.3501675277707
30
0
41
1
10
20.991207885323
20
25.2596737099063
30
0
41
1
10
20.9742122167687
20
25.1929474912305
30
0
41
1
10
20.9600928022301
20
25.1314988209428
30
0
41
1
10
20.9578984868274
20
25.1190179965289
30
0
41
1
10
20.9591212828711
20
25.1185316576392
30
0
0
SPLINE
5
CD
100
AcDbEntity
8
1
62
256
6
ByLayer
370
-1
48
1
60
0
100
AcDbSpline
70
4
71
3
72
16
73
12
40
0
40
0
40
0
40
0
40
0.111430279628047
40
0.111430279628047
40
0.248747543515467
40
0.248747543515467
40
0.465535329195252
40
0.465535329195252
40
0.883855351867553
40
0.883855351867553
40
1
40
1
40
1
40
1
41
1
10
8.53867513459481
20
-7.52966679426501
30
0
41
1
10
8.51081528400577
20
-7.52966679426501
30
0
41
1
10
8.48260885722448
20
-7.53471706780857
30
0
41
1
10
8.42415079676071
20
-7.55489210221029
30
0
41
1
10
8.39395861076945
20
-7.57218953888446
30
0
41
1
10
8.32484624564243
20
-7.62460019394089
30
0
41
1
10
8.28921459142954
20
-7.66489294253907
30
0
41
1
10
8.20100610925398
20
-7.78941367630352
30
0
41
1
10
8.16026799314912
20
-7.88247511004147
30
0
41
1
10
8.12070829847319
20
-8.00269269538009
30
0
41
1
10
8.11283840142688
20
-8.02920008991578
30
0
41
1
10
8.10566243270245
20
-8.05584836782771
30
0
0
SPLINE
5
CE
100
AcDbEntity
8
1
62
256
6
ByLayer
370
-1
48
1
60
0
100
AcDbSpline
70
4
71
3
72
16
73
12
40
0
40
0
40
0
40
0
40
0.111430279628047
40
0.111430279628047
40
0.248747543515475
40
0.248747543515475
40
0.465535329195272
40
0.465535329195272
40
0.883855351867603
40
0.883855351867603
40
1
40
1
40
1
40
1
41
1
10
11.4613248654052
20
7.52966679426504
30
0
41
1
10
11.4891847159942
20
7.52966679426504
30
0
41
1
10
11.5173911427755
20
7.53471706780854
30
0
41
1
10
11.5758492032393
20
7.55489210221029
30
0
41
1
10
11.6060413892306
20
7.57218953888446
30
0
41
1
10
11.6751537543576
20
7.62460019394089
30
0
41
1
10
11.7107854085705
20
7.66489294253907
30
0
41
1
10
11.798993890746
20
7.78941367630352
30
0
41
1
10
11.8397320068509
20
7.8824751100415
30
0
41
1
10
11.8792917015268
20
8.00269269538009
30
0
41
1
10
11.8871615985731
20
8.02920008991578
30
0
41
1
10
11.8943375672976
20
8.05584836782771
30
0
0
SPLINE
5
CF
100
AcDbEntity
8
1
62
256
6
ByLayer
370
-1
48
1
60
0
100
AcDbSpline
70
4
71
3
72
10
73
6
40
0
40
0
40
0
40
0
40
0.5
40
0.5
40
1
40
1
40
1
40
1
41
1
10
26.4278760968654
20
27.6352118146641
30
0
41
1
10
25.9791449966635
20
27.2586225302832
30
0
41
1
10
25.4956712035892
20
26.9199964133572
30
0
41
1
10
24.4665333173869
20
26.328711899173
30
0
41
1
10
23.9300392756814
20
26.080921252883
30
0
41
1
10
23.3716542841874
20
25.8809076874752
30
0
0
SPLINE
5
D0
100
AcDbEntity
8
1
62
256
6
ByLayer
370
-1
48
1
60
0
100
AcDbSpline
70
4
71
3
72
8
73
4
40
0
40
0
40
0
40
0
40
1
40
1
40
1
40
1
41
1
10
30.8151182750133
20
31.3170557225537
30
0
41
1
10
29.3526943628496
20
30.0897861604784
30
0
41
1
10
27.8902789908258
20
28.8625064217577
30
0
41
1
10
26.4278760968654
20
27.6352118146641
30
0
0
SPLINE
5
D1
100
AcDbEntity
8
1
62
256
6
ByLayer
370
-1
48
1
60
0
100
AcDbSpline
70
4
71
3
72
8
73
4
40
0
40
0
40
0
40
0
40
1
40
1
40
1
40
1
41
1
10
23.8798615842772
20
23.9568746480863
30
0
41
1
10
23.5781751851259
20
23.6213763717632
30
0
41
1
10
23.2765965969349
20
23.2857903421687
30
0
41
1
10
22.9782677835643
20
22.947809652022
30
0
0
SPLINE
5
D2
100
AcDbEntity
8
1
62
256
6
ByLayer
370
-1
48
1
60
0
100
AcDbSpline
70
4
71
3
72
8
73
4
40
0
40
0
40
0
40
0
40
1
40
1
40
1
40
1
41
1
10
21.0150156979657
20
25.0963009447417
30
0
41
1
10
21.6966859015846
20
24.82518236229
30
0
41
1
10
22.788482838095
20
24.3909453424227
30
0
41
1
10
23.8798615842924
20
23.9568746480956
30
0
0
SPLINE
5
D3
100
AcDbEntity
8
1
62
256
6
ByLayer
370
-1
48
1
60
0
100
AcDbSpline
70
4
71
3
72
8
73
4
40
0
40
0
40
0
40
0
40
1
40
1
40
1
40
1
41
1
10
21.1413056537123
20
-21.846867306949
30
0
41
1
10
21.0930805999421
20
-21.8180891737956
30
0
41
1
10
21.0463509819052
20
-21.7884900604179
30
0
41
1
10
21.0011771377293
20
-21.7581244230647
30
0
0
SPLINE
5
D4
100
AcDbEntity
8
1
62
256
6
ByLayer
370
-1
48
1
60
0
100
AcDbSpline
70
4
71
3
72
16
73
12
40
0
40
0
40
0
40
0
40
0.111430279628052
40
0.111430279628052
40
0.248747543515474
40
0.248747543515474
40
0.465535329195271
40
0.465535329195271
40
0.883855351867598
40
0.883855351867598
40
1
40
1
40
1
40
1
41
1
10
11.4613248654052
20
-23.8391299750503
30
0
41
1
10
11.4891847159942
20
-23.8391299750503
30
0
41
1
10
11.5173911427755
20
-23.8375361275706
30
0
41
1
10
11.5758492032393
20
-23.831150658589
30
0
41
1
10
11.6060413892306
20
-23.825666877018
30
0
41
1
10
11.6751537543576
20
-23.8089605749788
30
0
41
1
10
11.7107854085705
20
-23.796037970776
30
0
41
1
10
11.798993890746
20
-23.7556824246832
30
0
41
1
10
11.8397320068509
20
-23.7250165399981
30
0
41
1
10
11.8792917015268
20
-23.6845451449633
30
0
41
1
10
11.8871615985731
20
-23.6755726082078
30
0
41
1
10
11.8943375672976
20
-23.6665017920809
30
0
0
SPLINE
5
D5
100
AcDbEntity
8
1
62
256
6
ByLayer
370
-1
48
1
60
0
100
AcDbSpline
70
4
71
3
72
8
73
4
40
0
40
0
40
0
40
0
40
1
40
1
40
1
40
1
41
1
10
21.0150156979657
20
21.8273767997954
30
0
41
1
10
20.9832511090737
20
21.6686525080703
30
0
41
1
10
20.9518341254703
20
21.510055555156
30
0
41
1
10
20.92079238
20
21.3516092265187
30
0
0
SPLINE
5
D6
100
AcDbEntity
8
1
62
256
6
ByLayer
370
-1
48
1
60
0
100
AcDbSpline
70
4
71
3
72
8
73
4
40
0
40
0
40
0
40
0
40
1
40
1
40
1
40
1
41
1
10
20
20
19.5696181922613
30
0
41
1
10
20
20
20.2591846321012
30
0
41
1
10
20.278272741848
20
20.8796497986558
30
0
41
1
10
20.92079238
20
21.3516092265187
30
0
0
SPLINE
5
D7
100
AcDbEntity
8
1
62
256
6
ByLayer
370
-1
48
1
60
0
100
AcDbSpline
70
4
71
3
72
8
73
4
40
0
40
0
40
0
40
0
40
1
40
1
40
1
40
1
41
1
10
21.0150156979657
20
21.8273767997954
30
0
41
1
10
21.5301769434112
20
22.2295966886485
30
0
41
1
10
22.2254206056434
20
22.5828896485443
30
0
41
1
10
22.9782677835643
20
22.947809652022
30
0
0
SPLINE
5
D8
100
AcDbEntity
8
1
62
256
6
ByLayer
370
-1
48
1
60
0
100
AcDbSpline
70
4
71
3
72
16
73
12
40
0
40
0
40
0
40
0
40
0.11143027962805
40
0.11143027962805
40
0.248747543515472
40
0.248747543515472
40
0.465535329195252
40
0.465535329195252
40
0.88385535186756
40
0.88385535186756
40
1
40
1
40
1
40
1
41
1
10
8.53867513459481
20
23.8391299750503
30
0
41
1
10
8.51081528400577
20
23.8391299750503
30
0
41
1
10
8.48260885722448
20
23.8375361275706
30
0
41
1
10
8.42415079676071
20
23.831150658589
30
0
41
1
10
8.39395861076943
20
23.825666877018
30
0
41
1
10
8.32484624564243
20
23.8089605749788
30
0
41
1
10
8.28921459142956
20
23.796037970776
30
0
41
1
10
8.20100610925398
20
23.7556824246832
30
0
41
1
10
8.16026799314912
20
23.7250165399981
30
0
41
1
10
8.12070829847319
20
23.6845451449633
30
0
41
1
10
8.11283840142688
20
23.6755726082077
30
0
41
1
10
8.10566243270245
20
23.6665017920809
30
0
0
SPLINE
5
D9
100
AcDbEntity
8
1
62
256
6
ByLayer
370
-1
48
1
60
0
100
AcDbSpline
70
4
71
3
72
8
73
4
40
0
40
0
40
0
40
0
40
1
40
1
40
1
40
1
41
1
10
20.92079238
20
-22.2244839243881
30
0
41
1
10
20.9466977569982
20
-22.1801224187479
30
0
41
1
10
20.9735014214423
20
-22.1342226462218
30
0
41
1
10
21.0011771377293
20
-22.0868295338092
30
0
0
SPLINE
5
DA
100
AcDbEntity
8
1
62
256
6
ByLayer
370
-1
48
1
60
0
100
AcDbSpline
70
4
71
3
72
16
73
12
40
0
40
0
40
0
40
0
40
0.461208588217095
40
0.461208588217095
40
0.643534962278547
40
0.643534962278547
40
0.828408472975285
40
0.828408472975285
40
0.943003644159988
40
0.943003644159988
40
1
40
1
40
1
40
1
41
1
10
8.1056624327026
20
-23.6665017920809
30
0
41
1
10
8.13394960848487
20
-23.7022583261632
30
0
41
1
10
8.17266608070922
20
-23.7370095736338
30
0
41
1
10
8.25268397516849
20
-23.7800170858174
30
0
41
1
10
8.27872153625232
20
-23.7917125768793
30
0
41
1
10
8.33934560108361
20
-23.8127037684951
30
0
41
1
10
8.37482777731263
20
-23.8222104320954
30
0
41
1
10
8.44007741480421
20
-23.8331586856493
30
0
41
1
10
8.46752172250565
20
-23.836332378473
30
0
41
1
10
8.50983152523006
20
-23.8387183279986
30
0
41
1
10
8.5242826069246
20
-23.8391299750505
30
0
41
1
10
8.53867513459475
20
-23.8391299750505
30
0
0
SPLINE
5
DB
100
AcDbEntity
8
1
62
256
6
ByLayer
370
-1
48
1
60
0
100
AcDbSpline
70
4
71
3
72
18
73
14
40
0
40
0
40
0
40
0
40
0.0871842675992073
40
0.0871842675992073
40
0.315353113402097
40
0.315353113402097
40
0.564521984507276
40
0.564521984507276
40
0.780275558303862
40
0.780275558303862
40
0.930129436961475
40
0.930129436961475
40
1
40
1
40
1
40
1
41
1
10
43.0069925948848
20
15.596895609022
30
0
41
1
10
42.9670657847751
20
15.5285231853355
30
0
41
1
10
42.9270634045561
20
15.4600213520738
30
0
41
1
10
42.784239274067
20
15.2154430365102
30
0
41
1
10
42.6820727131545
20
15.0404885292477
30
0
41
1
10
42.4847342703183
20
14.7025575103118
30
0
41
1
10
42.3882475299262
20
14.5373293772329
30
0
41
1
10
42.233709351309
20
14.2726914110361
30
0
41
1
10
42.1701689250029
20
14.1638819935874
30
0
41
1
10
42.0907509944109
20
14.027883240273
30
0
41
1
10
42.0658667057536
20
13.9852702911657
30
0
41
1
10
42.0479847433031
20
13.9546484330797
30
0
41
1
10
42.0450056058006
20
13.9495468271417
30
0
41
1
10
42.0450135489293
20
13.9495604293041
30
0
0
SPLINE
5
DC
100
AcDbEntity
8
SK1
62
256
6
ByLayer
370
-1
48
1
60
0
100
AcDbSpline
70
4
71
3
72
284
73
280
40
0
40
0
40
0
40
0
40
0.0001431033415913
40
0.0037135108462076
40
0.0072839183508238
40
0.01085432585544
40
0.0144247333600562
40
0.0179951408646724
40
0.0215655483692886
40
0.0251359558739048
40
0.028706363378521
40
0.0322767708831372
40
0.0358471783877534
40
0.0429879933969858
40
0.046558400901602
40
0.0501288084062182
40
0.0536992159108345
40
0.0572696234154507
40
0.0644104384246831
40
0.0679808459292993
40
0.0715512534339155
40
0.0786920684431479
40
0.0822624759477641
40
0.0858328834523803
40
0.0929736984616127
40
0.0965441059662289
40
0.100114513470845
40
0.103684920975461
40
0.107255328480078
40
0.110825735984694
40
0.11439614348931
40
0.117966550993926
40
0.121536958498542
40
0.128677773507775
40
0.132248181012391
40
0.135818588517007
40
0.139388996021623
40
0.14295940352624
40
0.150100218535472
40
0.153670626040088
40
0.157241033544705
40
0.160811441049321
40
0.164381848553937
40
0.171522663563169
40
0.175093071067785
40
0.178663478572402
40
0.182233886077018
40
0.185804293581634
40
0.192945108590866
40
0.196515516095483
40
0.200085923600099
40
0.203656331104715
40
0.207226738609331
40
0.214367553618564
40
0.21793796112318
40
0.221508368627796
40
0.225078776132412
40
0.228649183637029
40
0.235789998646261
40
0.239360406150877
40
0.242930813655493
40
0.24650122116011
40
0.250071628664726
40
0.257212443673958
40
0.260782851178575
40
0.264353258683191
40
0.271494073692423
40
0.278634888701655
40
0.282205296206272
40
0.285775703710888
40
0.29291651872012
40
0.296486926224736
40
0.300057333729353
40
0.303627741233969
40
0.307198148738585
40
0.310768556243201
40
0.314338963747818
40
0.32147977875705
40
0.328620593766282
40
0.332191001270899
40
0.335761408775515
40
0.339331816280131
40
0.342902223784747
40
0.346472631289363
40
0.35004303879398
40
0.357183853803212
40
0.364324668812445
40
0.371465483821677
40
0.375035891326293
40
0.378606298830909
40
0.382176706335525
40
0.385747113840142
40
0.389317521344758
40
0.392887928849374
40
0.39645833635399
40
0.400028743858606
40
0.403599151363223
40
0.407169558867839
40
0.410739966372455
40
0.414310373877071
40
0.417880781381687
40
0.421451188886304
40
0.42502159639092
40
0.428592003895536
40
0.432162411400152
40
0.433947615152461
40
0.435732818904769
40
0.437518022657077
40
0.439303226409385
40
0.442873633914001
40
0.446444041418617
40
0.448229245170925
40
0.450014448923233
40
0.451799652675542
40
0.45358485642785
40
0.455370060180158
40
0.457155263932466
40
0.460725671437082
40
0.46251087518939
40
0.464296078941698
40
0.466081282694006
40
0.467866486446315
40
0.469651690198623
40
0.471436893950931
40
0.473222097703239
40
0.475007301455547
40
0.476792505207855
40
0.478577708960163
40
0.480362912712471
40
0.482148116464779
40
0.483933320217087
40
0.485718523969396
40
0.487503727721704
40
0.489288931474012
40
0.49107413522632
40
0.492859338978628
40
0.494644542730936
40
0.496429746483244
40
0.498214950235552
40
0.50000015398786
40
0.501785357740168
40
0.503570561492476
40
0.505355765244785
40
0.507140968997093
40
0.508926172749401
40
0.510711376501709
40
0.512496580254017
40
0.514281784006325
40
0.516066987758633
40
0.517852191510941
40
0.519637395263249
40
0.521422599015558
40
0.523207802767866
40
0.524993006520174
40
0.526778210272482
40
0.52856341402479
40
0.530348617777098
40
0.532133821529406
40
0.533919025281714
40
0.535704229034022
40
0.537489432786331
40
0.539274636538639
40
0.541059840290947
40
0.542845044043255
40
0.544630247795563
40
0.546415451547871
40
0.549985859052487
40
0.551771062804795
40
0.553556266557103
40
0.55712667406172
40
0.560697081566336
40
0.562482285318644
40
0.564267489070952
40
0.56605269282326
40
0.567837896575568
40
0.571408304080185
40
0.574978711584801
40
0.578549119089417
40
0.582119526594033
40
0.585689934098649
40
0.589260341603265
40
0.592830749107882
40
0.596401156612498
40
0.599971564117114
40
0.60354197162173
40
0.607112379126347
40
0.610682786630963
40
0.614253194135579
40
0.617823601640195
40
0.621394009144811
40
0.624964416649428
40
0.628534824154044
40
0.635675639163276
40
0.642816454172509
40
0.649957269181741
40
0.653527676686357
40
0.657098084190973
40
0.66066849169559
40
0.664238899200206
40
0.667809306704822
40
0.671379714209438
40
0.678520529218671
40
0.685661344227903
40
0.689231751732519
40
0.692802159237136
40
0.696372566741752
40
0.699942974246368
40
0.703513381750984
40
0.7070837892556
40
0.714224604264833
40
0.717795011769449
40
0.721365419274065
40
0.728506234283298
40
0.73564704929253
40
0.739217456797146
40
0.742787864301762
40
0.749928679310995
40
0.753499086815611
40
0.757069494320227
40
0.760639901824843
40
0.76421030932946
40
0.771351124338692
40
0.774921531843308
40
0.778491939347924
40
0.782062346852541
40
0.785632754357157
40
0.792773569366389
40
0.796343976871006
40
0.799914384375622
40
0.803484791880238
40
0.807055199384854
40
0.814196014394087
40
0.817766421898703
40
0.821336829403319
40
0.824907236907935
40
0.828477644412551
40
0.835618459421784
40
0.8391888669264
40
0.842759274431016
40
0.844544478183324
40
0.846329681935632
40
0.849900089440249
40
0.857040904449481
40
0.860611311954097
40
0.864181719458713
40
0.86775212696333
40
0.871322534467946
40
0.878463349477178
40
0.882033756981795
40
0.885604164486411
40
0.889174571991027
40
0.892744979495643
40
0.896315387000259
40
0.899885794504875
40
0.903456202009492
40
0.907026609514108
40
0.91416742452334
40
0.917737832027957
40
0.921308239532573
40
0.928449054541805
40
0.932019462046421
40
0.935589869551038
40
0.94273068456027
40
0.946301092064886
40
0.949871499569502
40
0.953441907074119
40
0.957012314578735
40
0.964153129587967
40
0.967723537092584
40
0.9712939445972
40
0.974864352101816
40
0.978434759606432
40
0.982005167111048
40
0.985575574615664
40
0.989145982120281
40
0.992716389624897
40
0.996286797129513
40
0.999857204634129
40
1
40
1
40
1
40
1
41
1
10
-1.9950399779393
20
17.3206892209972
30
0
41
1
10
-1.9950399779393
20
17.3206252256438
30
0
41
1
10
-1.99503997793928
20
17.3189470263386
30
0
41
1
10
-1.9950399779393
20
17.3147637003649
30
0
41
1
10
-1.9950399779393
20
17.3061342577567
30
0
41
1
10
-1.9950399779393
20
17.295067771448
30
0
41
1
10
-1.9950399779393
20
17.2816041041457
30
0
41
1
10
-1.9950399779393
20
17.2657805776118
30
0
41
1
10
-1.9950399779393
20
17.2476335117891
30
0
41
1
10
-1.9950399779393
20
17.2271975457697
30
0
41
1
10
-1.9950399779393
20
17.2045053960087
30
0
41
1
10
-1.9950399779393
20
17.1795895960111
30
0
41
1
10
-1.9950399779393
20
17.143423992764
30
0
41
1
10
-1.9950399779393
20
17.1029924242496
30
0
41
1
10
-1.9950399779393
20
17.0582791326422
30
0
41
1
10
-1.9950399779393
20
17.0226787925821
30
0
41
1
10
-1.9950399779393
20
16.9850205529168
30
0
41
1
10
-1.9950399779393
20
16.9320728615657
30
0
41
1
10
-1.9950399779393
20
16.8751872660894
30
0
41
1
10
-1.9950399779393
20
16.8142877036056
30
0
41
1
10
-1.9950399779393
20
16.7507929832779
30
0
41
1
10
-1.9950399779393
20
16.6835453056651
30
0
41
1
10
-1.9950399779393
20
16.6124299551482
30
0
41
1
10
-1.9950399779393
20
16.5388242186582
30
0
41
1
10
-1.9950399779393
20
16.4616240004255
30
0
41
1
10
-1.9950399779393
20
16.3806869939664
30
0
41
1
10
-1.9950399779393
20
16.3182114219941
30
0
41
1
10
-1.9950399779393
20
16.2539521138773
30
0
41
1
10
-1.9950399779393
20
16.1879246249361
30
0
41
1
10
-1.9950399779393
20
16.1201424382026
30
0
41
1
10
-1.9950399779393
20
16.0506207732709
30
0
41
1
10
-1.9950399779393
20
15.979373490825
30
0
41
1
10
-1.9950399779393
20
15.8820499794418
30
0
41
1
10
-1.9950399779393
20
15.7814584486047
30
0
41
1
10
-1.9950399779393
20
15.677384958149
30
0
41
1
10
-1.9950399779393
20
15.5977008436634
30
0
41
1
10
-1.9950399779393
20
15.5163656256123
30
0
41
1
10
-1.9950399779393
20
15.4056838451686
30
0
41
1
10
-1.9950399779393
20
15.2918890118945
30
0
41
1
10
-1.9950399779393
20
15.1747311694574
30
0
41
1
10
-1.9950399779393
20
15.0853020659337
30
0
41
1
10
-1.9950399779393
20
14.9942846604514
30
0
41
1
10
-1.9950399779393
20
14.8707702235387
30
0
41
1
10
-1.9950399779393
20
14.7442755428493
30
0
41
1
10
-1.9950399779393
20
14.6145160455858
30
0
41
1
10
-1.9950399779393
20
14.5156939096276
30
0
41
1
10
-1.9950399779393
20
14.4153366771621
30
0
41
1
10
-1.9950399779393
20
14.2794333721973
30
0
41
1
10
-1.9950399779393
20
14.1406647198644
30
0
41
1
10
-1.9950399779393
20
13.9987118830366
30
0
41
1
10
-1.9950399779393
20
13.8907947247769
30
0
41
1
10
-1.9950399779393
20
13.7813876415877
30
0
41
1
10
-1.9950399779393
20
13.6334713769854
30
0
41
1
10
-1.9950399779393
20
13.482790135872
30
0
41
1
10
-1.9950399779393
20
13.328990109671
30
0
41
1
10
-1.9950399779393
20
13.2122307400427
30
0
41
1
10
-1.9950399779393
20
13.09401974916
30
0
41
1
10
-1.9950399779393
20
12.9344093145834
30
0
41
1
10
-1.9950399779393
20
12.7721223429484
30
0
41
1
10
-1.9950399779393
20
12.606768466692
30
0
41
1
10
-1.9950399779393
20
12.4813812679684
30
0
41
1
10
-1.9950399779393
20
12.3545748152048
30
0
41
1
10
-1.9950399779393
20
12.1835401119863
30
0
41
1
10
-1.9950399779393
20
12.0099077332894
30
0
41
1
10
-1.9950399779393
20
11.8332480165124
30
0
41
1
10
-1.9950399779393
20
11.6547268261542
30
0
41
1
10
-1.9950399779393
20
11.4282697000141
30
0
41
1
10
-1.9950399779393
20
11.1972001365959
30
0
41
1
10
-1.9950399779393
20
11.00944356136
30
0
41
1
10
-1.9950399779393
20
10.8198574498995
30
0
41
1
10
-1.9950399779393
20
10.627787937013
30
0
41
1
10
-1.9950399779393
20
10.4327334855784
30
0
41
1
10
-1.9950399779393
20
10.2851499168301
30
0
41
1
10
-1.9950399779393
20
10.13621047024
30
0
41
1
10
-1.9950399779393
20
9.98591879047714
30
0
41
1
10
-1.9950399779393
20
9.83427692622885
30
0
41
1
10
-1.9950399779393
20
9.63019833168175
30
0
41
1
10
-1.9950399779393
20
9.37195865327328
30
0
41
1
10
-1.9950399779393
20
9.1092571782612
30
0
41
1
10
-1.9950399779393
20
8.89624559944801
30
0
41
1
10
-1.9950399779393
20
8.73523611643316
30
0
41
1
10
-1.9950399779393
20
8.57289871794615
30
0
41
1
10
-1.9950399779393
20
8.40923673354897
30
0
41
1
10
-1.9950399779393
20
8.24425232954013
30
0
41
1
10
-1.9950399779393
20
8.0224014648056
30
0
41
1
10
-1.9950399779393
20
7.7420578132905
30
0
41
1
10
-1.9950399779393
20
7.40025290593451
30
0
41
1
10
-1.9950399779393
20
7.11118461088941
30
0
41
1
10
-1.9950399779393
20
6.87709665618266
30
0
41
1
10
-1.9950399779393
20
6.70033531356589
30
0
41
1
10
-1.9950399779393
20
6.52228078287743
30
0
41
1
10
-1.9950399779393
20
6.3429370741791
30
0
41
1
10
-1.9950399779393
20
6.16230788845579
30
0
41
1
10
-1.9950399779393
20
5.98039789106801
30
0
41
1
10
-1.9950399779393
20
5.79721186805691
30
0
41
1
10
-1.9950399779393
20
5.61275496243289
30
0
41
1
10
-1.9950399779393
20
5.42703270327695
30
0
41
1
10
-1.9950399779393
20
5.24005175731475
30
0
41
1
10
-1.9950399779393
20
5.05181945337139
30
0
41
1
10
-1.9950399779393
20
4.86234332329403
30
0
41
1
10
-1.9950399779393
20
4.67163207713236
30
0
41
1
10
-1.9950399779393
20
4.47969614999016
30
0
41
1
10
-1.9950399779393
20
4.28654656517494
30
0
41
1
10
-1.9950399779393
20
4.09219634432211
30
0
41
1
10
-1.9950399779393
20
3.92934661081907
30
0
41
1
10
-1.9950399779393
20
3.7982972967292
30
0
41
1
10
-1.9950399779393
20
3.69979994526253
30
0
41
1
10
-1.9950399779393
20
3.6010147061962
30
0
41
1
10
-1.9950399779393
20
3.46881385164499
30
0
41
1
10
-1.9950399779393
20
3.30310841087518
30
0
41
1
10
-1.9950399779393
20
3.13647579824178
30
0
41
1
10
-1.9950399779393
20
3.00241852965871
30
0
41
1
10
-1.9950399779393
20
2.90170218623106
30
0
41
1
10
-1.9950399779393
20
2.80072442890969
30
0
41
1
10
-1.9950399779393
20
2.69948931487846
30
0
41
1
10
-1.9950399779393
20
2.5980019734576
30
0
41
1
10
-1.9950399779393
20
2.46222694501739
30
0
41
1
10
-1.9950399779393
20
2.3263670801044
30
0
41
1
10
-1.9950399779393
20
2.18963187963746
30
0
41
1
10
-1.9950399779393
20
2.08696367451518
30
0
41
1
10
-1.9950399779393
20
1.98407765086858
30
0
41
1
10
-1.9950399779393
20
1.88098143773604
30
0
41
1
10
-1.9950399779393
20
1.77768276547397
30
0
41
1
10
-1.9950399779393
20
1.67418894734925
30
0
41
1
10
-1.9950399779393
20
1.57050946303122
30
0
41
1
10
-1.9950399779393
20
1.46665209995737
30
0
41
1
10
-1.9950399779393
20
1.36262724011792
30
0
41
1
10
-1.9950399779393
20
1.25844372920938
30
0
41
1
10
-1.9950399779393
20
1.15411255471386
30
0
41
1
10
-1.9950399779393
20
1.04964378000579
30
0
41
1
10
-1.9950399779393
20
0.945048899580655
30
0
41
1
10
-1.9950399779393
20
0.840338961204225
30
0
41
1
10
-1.9950399779393
20
0.735526073032332
30
0
41
1
10
-1.9950399779393
20
0.630622105582688
30
0
41
1
10
-1.9950399779393
20
0.525639721157262
30
0
41
1
10
-1.9950399779393
20
0.420591350928703
30
0
41
1
10
-1.9950399779393
20
0.315490126623814
30
0
41
1
10
-1.9950399779393
20
0.210348939519435
30
0
41
1
10
-1.9950399779393
20
0.105181165306249
30
0
41
1
10
-1.9950399779393
20
-2.6093687E-09
30
0
41
1
10
-1.9950399779393
20
-0.10518117389941
30
0
41
1
10
-1.9950399779393
20
-0.21034895445402
30
0
41
1
10
-1.9950399779393
20
-0.315490140896543
30
0
41
1
10
-1.9950399779393
20
-0.420591355720489
30
0
41
1
10
-1.9950399779393
20
-0.525639723935797
30
0
41
1
10
-1.9950399779393
20
-0.630622120770227
30
0
41
1
10
-1.9950399779393
20
-0.735526093018507
30
0
41
1
10
-1.9950399779393
20
-0.840338966235578
30
0
41
1
10
-1.9950399779393
20
-0.945048896197648
30
0
41
1
10
-1.9950399779393
20
-1.04964379294299
30
0
41
1
10
-1.9950399779393
20
-1.15411258033262
30
0
41
1
10
-1.9950399779393
20
-1.25844373877697
30
0
41
1
10
-1.9950399779393
20
-1.36262723194542
30
0
41
1
10
-1.9950399779393
20
-1.46665210416356
30
0
41
1
10
-1.9950399779393
20
-1.57050948928742
30
0
41
1
10
-1.9950399779393
20
-1.67418896894682
30
0
41
1
10
-1.9950399779393
20
-1.77768276258209
30
0
41
1
10
-1.9950399779393
20
-1.88098142742643
30
0
41
1
10
-1.9950399779393
20
-1.98407766278629
30
0
41
1
10
-1.9950399779393
20
-2.08696370566375
30
0
41
1
10
-1.9950399779393
20
-2.18963189754737
30
0
41
1
10
-1.9950399779393
20
-2.29207637206397
30
0
41
1
10
-1.9950399779393
20
-2.39428973936722
30
0
41
1
10
-1.9950399779393
20
-2.49626703199883
30
0
41
1
10
-1.9950399779393
20
-2.59800197223717
30
0
41
1
10
-1.9950399779393
20
-2.73345090264118
30
0
41
1
10
-1.9950399779393
20
-2.86801083241156
30
0
41
1
10
-1.9950399779393
20
-3.00241855173454
30
0
41
1
10
-1.9950399779393
20
-3.13647582573117
30
0
41
1
10
-1.9950399779393
20
-3.30310842941955
30
0
41
1
10
-1.9950399779393
20
-3.46881383607317
30
0
41
1
10
-1.9950399779393
20
-3.60101470543907
30
0
41
1
10
-1.9950399779393
20
-3.69979996514493
30
0
41
1
10
-1.9950399779393
20
-3.79829732832764
30
0
41
1
10
-1.9950399779393
20
-3.92934662557204
30
0
41
1
10
-1.9950399779393
20
-4.09219631216948
30
0
41
1
10
-1.9950399779393
20
-4.28654650347451
30
0
41
1
10
-1.9950399779393
20
-4.47969611179559
30
0
41
1
10
-1.9950399779393
20
-4.67163198724225
30
0
41
1
10
-1.9950399779393
20
-4.86234315765492
30
0
41
1
10
-1.9950399779393
20
-5.05181944357969
30
0
41
1
10
-1.9950399779393
20
-5.24005183821342
30
0
41
1
10
-1.9950399779393
20
-5.42703263168386
30
0
41
1
10
-1.9950399779393
20
-5.61275497462711
30
0
41
1
10
-1.9950399779393
20
-5.79721217482029
30
0
41
1
10
-1.9950399779393
20
-5.98039819956611
30
0
41
1
10
-1.9950399779393
20
-6.16230794338162
30
0
41
1
10
-1.9950399779393
20
-6.34293700639154
30
0
41
1
10
-1.9950399779393
20
-6.52228076981257
30
0
41
1
10
-1.9950399779393
20
-6.70033533418757
30
0
41
1
10
-1.9950399779393
20
-6.87709665926303
30
0
41
1
10
-1.9950399779393
20
-7.11118459991687
30
0
41
1
10
-1.9950399779393
20
-7.40025292645402
30
0
41
1
10
-1.9950399779393
20
-7.74205781809903
30
0
41
1
10
-1.9950399779393
20
-8.02240145976876
30
0
41
1
10
-1.9950399779393
20
-8.24425235284596
30
0
41
1
10
-1.9950399779393
20
-8.40923674956807
30
0
41
1
10
-1.9950399779393
20
-8.57289871422529
30
0
41
1
10
-1.9950399779393
20
-8.73523610803539
30
0
41
1
10
-1.9950399779393
20
-8.89624560664996
30
0
41
1
10
-1.9950399779393
20
-9.10925720032841
30
0
41
1
10
-1.9950399779393
20
-9.37195865915049
30
0
41
1
10
-1.9950399779393
20
-9.6301983246166
30
0
41
1
10
-1.9950399779393
20
-9.83427694277646
30
0
41
1
10
-1.9950399779393
20
-9.98591881051331
30
0
41
1
10
-1.9950399779393
20
-10.1362104789651
30
0
41
1
10
-1.9950399779393
20
-10.2851499142426
30
0
41
1
10
-1.9950399779393
20
-10.432733482583
30
0
41
1
10
-1.9950399779393
20
-10.6277879483349
30
0
41
1
10
-1.9950399779393
20
-10.8198574709635
30
0
41
1
10
-1.9950399779393
20
-11.0094435667743
30
0
41
1
10
-1.9950399779393
20
-11.1972001338813
30
0
41
1
10
-1.9950399779393
20
-11.4282697094187
30
0
41
1
10
-1.9950399779393
20
-11.6547268446385
30
0
41
1
10
-1.9950399779393
20
-11.8332480225582
30
0
41
1
10
-1.9950399779393
20
-12.0099077334538
30
0
41
1
10
-1.9950399779393
20
-12.1835401209566
30
0
41
1
10
-1.9950399779393
20
-12.3545748313203
30
0
41
1
10
-1.9950399779393
20
-12.4813812819682
30
0
41
1
10
-1.9950399779393
20
-12.6067684751262
30
0
41
1
10
-1.9950399779393
20
-12.7721223466594
30
0
41
1
10
-1.9950399779393
20
-12.9344093235711
30
0
41
1
10
-1.9950399779393
20
-13.0940197637218
30
0
41
1
10
-1.9950399779393
20
-13.2122307543484
30
0
41
1
10
-1.9950399779393
20
-13.3289901210133
30
0
41
1
10
-1.9950399779393
20
-13.4827901435456
30
0
41
1
10
-1.9950399779393
20
-13.6334713858817
30
0
41
1
10
-1.9950399779393
20
-13.7813876543746
30
0
41
1
10
-1.9950399779393
20
-13.8907947392413
30
0
41
1
10
-1.9950399779393
20
-13.99871189727
30
0
41
1
10
-1.9950399779393
20
-14.1406647319193
30
0
41
1
10
-1.9950399779393
20
-14.2794333813788
30
0
41
1
10
-1.9950399779393
20
-14.4153366880849
30
0
41
1
10
-1.9950399779393
20
-14.5156939237825
30
0
41
1
10
-1.9950399779393
20
-14.614516060936
30
0
41
1
10
-1.9950399779393
20
-14.7442755571137
30
0
41
1
10
-1.9950399779393
20
-14.8707702595594
30
0
41
1
10
-1.9950399779393
20
-14.9942845913974
30
0
41
1
10
-1.9950399779393
20
-15.070107125687
30
0
41
1
10
-1.9950399779393
20
-15.130016414734
30
0
41
1
10
-1.9950399779393
20
-15.1893946011099
30
0
41
1
10
-1.9950399779393
20
-15.2918890331241
30
0
41
1
10
-1.9950399779393
20
-15.4056838559475
30
0
41
1
10
-1.9950399779393
20
-15.5163656330196
30
0
41
1
10
-1.9950399779393
20
-15.5977008570348
30
0
41
1
10
-1.9950399779393
20
-15.677384979663
30
0
41
1
10
-1.9950399779393
20
-15.781458474053
30
0
41
1
10
-1.9950399779393
20
-15.8820499896637
30
0
41
1
10
-1.9950399779393
20
-15.9793734967038
30
0
41
1
10
-1.9950399779393
20
-16.0506207879892
30
0
41
1
10
-1.9950399779393
20
-16.1201424632647
30
0
41
1
10
-1.9950399779393
20
-16.1879246525291
30
0
41
1
10
-1.9950399779393
20
-16.2539521307207
30
0
41
1
10
-1.9950399779393
20
-16.3182114280861
30
0
41
1
10
-1.9950399779393
20
-16.3806869997558
30
0
41
1
10
-1.9950399779393
20
-16.4616240235723
30
0
41
1
10
-1.9950399779393
20
-16.538824252381
30
0
41
1
10
-1.9950399779393
20
-16.6124299668847
30
0
41
1
10
-1.9950399779393
20
-16.6835453043615
30
0
41
1
10
-1.9950399779393
20
-16.7507930080793
30
0
41
1
10
-1.9950399779393
20
-16.8142877377232
30
0
41
1
10
-1.9950399779393
20
-16.8751872797734
30
0
41
1
10
-1.9950399779393
20
-16.9320728583858
30
0
41
1
10
-1.9950399779393
20
-16.9850205784631
30
0
41
1
10
-1.9950399779393
20
-17.0226788299273
30
0
41
1
10
-1.9950399779393
20
-17.0582791544304
30
0
41
1
10
-1.9950399779393
20
-17.1029924178939
30
0
41
1
10
-1.9950399779393
20
-17.1434240170936
30
0
41
1
10
-1.9950399779393
20
-17.1795896288677
30
0
41
1
10
-1.9950399779393
20
-17.204505416066
30
0
41
1
10
-1.9950399779393
20
-17.2271975480507
30
0
41
1
10
-1.9950399779393
20
-17.2476335178127
30
0
41
1
10
-1.9950399779393
20
-17.2657806121613
30
0
41
1
10
-1.9950399779393
20
-17.2816041393821
30
0
41
1
10
-1.9950399779393
20
-17.2950677779805
30
0
41
1
10
-1.9950399779393
20
-17.3061342543252
30
0
41
1
10
-1.9950399779393
20
-17.3147637210185
30
0
41
1
10
-1.9950399779393
20
-17.3189468513596
30
0
41
1
10
-1.9950399779393
20
-17.3206249200388
30
0
41
1
10
-1.9950399779393
20
-17.32068877942
30
0
0
SPLINE
5
DD
100
AcDbEntity
8
SK1
62
256
6
ByLayer
370
-1
48
1
60
0
100
AcDbSpline
70
4
71
3
72
282
73
278
40
0
40
0
40
0
40
0
40
0.0031455721532592
40
0.0067200638112102
40
0.0102945554691613
40
0.0138690471271123
40
0.0174435387850634
40
0.0210180304430144
40
0.0245925221009655
40
0.0281670137589165
40
0.0317415054168676
40
0.0353159970748186
40
0.0424649803907208
40
0.0460394720486718
40
0.0496139637066229
40
0.0531884553645739
40
0.056762947022525
40
0.0639119303384271
40
0.0674864219963781
40
0.0710609136543292
40
0.0782098969702313
40
0.0817843886281824
40
0.0853588802861334
40
0.0925078636020355
40
0.0960823552599866
40
0.0996568469179376
40
0.103231338575889
40
0.10680583023384
40
0.110380321891791
40
0.113954813549742
40
0.117529305207693
40
0.121103796865644
40
0.128252780181546
40
0.131827271839497
40
0.135401763497448
40
0.138976255155399
40
0.14255074681335
40
0.149699730129252
40
0.153274221787204
40
0.156848713445154
40
0.160423205103106
40
0.163997696761057
40
0.171146680076959
40
0.17472117173491
40
0.178295663392861
40
0.181870155050812
40
0.185444646708763
40
0.192593630024665
40
0.196168121682616
40
0.199742613340567
40
0.203317104998518
40
0.206891596656469
40
0.214040579972371
40
0.217615071630322
40
0.221189563288273
40
0.224764054946225
40
0.228338546604176
40
0.235487529920078
40
0.239062021578029
40
0.24263651323598
40
0.246211004893931
40
0.249785496551882
40
0.256934479867784
40
0.260508971525735
40
0.264083463183686
40
0.271232446499588
40
0.27838142981549
40
0.281955921473442
40
0.285530413131392
40
0.292679396447295
40
0.296253888105246
40
0.299828379763197
40
0.303402871421148
40
0.306977363079099
40
0.31055185473705
40
0.314126346395001
40
0.321275329710903
40
0.328424313026805
40
0.331998804684756
40
0.335573296342707
40
0.339147788000658
40
0.342722279658609
40
0.34629677131656
40
0.349871262974511
40
0.357020246290414
40
0.364169229606316
40
0.371318212922218
40
0.374892704580169
40
0.37846719623812
40
0.382041687896071
40
0.385616179554022
40
0.389190671211973
40
0.392765162869924
40
0.396339654527875
40
0.399914146185826
40
0.403488637843777
40
0.407063129501728
40
0.410637621159679
40
0.41421211281763
40
0.417786604475582
40
0.421361096133533
40
0.424935587791484
40
0.428510079449435
40
0.432084571107386
40
0.433871816936361
40
0.435659062765337
40
0.437446308594312
40
0.439233554423288
40
0.442808046081239
40
0.44638253773919
40
0.448169783568165
40
0.449957029397141
40
0.451744275226116
40
0.453531521055092
40
0.455318766884068
40
0.457106012713043
40
0.460680504370994
40
0.46246775019997
40
0.464254996028945
40
0.466042241857921
40
0.467829487686896
40
0.469616733515872
40
0.471403979344847
40
0.473191225173823
40
0.474978471002798
40
0.476765716831774
40
0.478552962660749
40
0.480340208489725
40
0.482127454318701
40
0.483914700147676
40
0.485701945976652
40
0.487489191805627
40
0.489276437634602
40
0.491063683463578
40
0.492850929292554
40
0.494638175121529
40
0.496425420950505
40
0.49821266677948
40
0.499999912608456
40
0.501787158437431
40
0.503574404266407
40
0.505361650095382
40
0.507148895924358
40
0.508936141753333
40
0.510723387582309
40
0.512510633411284
40
0.51429787924026
40
0.516085125069236
40
0.517872370898211
40
0.519659616727187
40
0.521446862556162
40
0.523234108385138
40
0.525021354214113
40
0.526808600043089
40
0.528595845872064
40
0.53038309170104
40
0.532170337530015
40
0.533957583358991
40
0.535744829187966
40
0.537532075016942
40
0.539319320845917
40
0.541106566674893
40
0.542893812503868
40
0.544681058332844
40
0.546468304161819
40
0.55004279581977
40
0.551830041648746
40
0.553617287477722
40
0.557191779135673
40
0.560766270793624
40
0.562553516622599
40
0.564340762451575
40
0.56612800828055
40
0.567915254109526
40
0.571489745767477
40
0.575064237425428
40
0.578638729083379
40
0.58221322074133
40
0.585787712399281
40
0.589362204057232
40
0.592936695715183
40
0.596511187373134
40
0.600085679031085
40
0.603660170689036
40
0.607234662346987
40
0.610809154004938
40
0.61438364566289
40
0.617958137320841
40
0.621532628978792
40
0.625107120636743
40
0.628681612294694
40
0.635830595610596
40
0.642979578926498
40
0.6501285622424
40
0.653703053900351
40
0.657277545558302
40
0.660852037216253
40
0.664426528874204
40
0.668001020532155
40
0.671575512190106
40
0.678724495506009
40
0.685873478821911
40
0.689447970479862
40
0.693022462137813
40
0.696596953795764
40
0.700171445453715
40
0.703745937111666
40
0.707320428769617
40
0.714469412085519
40
0.71804390374347
40
0.721618395401421
40
0.728767378717323
40
0.735916362033225
40
0.739490853691176
40
0.743065345349127
40
0.75021432866503
40
0.753788820322981
40
0.757363311980932
40
0.760937803638883
40
0.764512295296834
40
0.771661278612736
40
0.775235770270687
40
0.778810261928638
40
0.782384753586589
40
0.78595924524454
40
0.793108228560442
40
0.796682720218393
40
0.800257211876344
40
0.803831703534295
40
0.807406195192247
40
0.814555178508149
40
0.8181296701661
40
0.821704161824051
40
0.825278653482002
40
0.828853145139953
40
0.836002128455855
40
0.839576620113806
40
0.843151111771757
40
0.844938357600733
40
0.846725603429708
40
0.850300095087659
40
0.857449078403561
40
0.861023570061512
40
0.864598061719463
40
0.868172553377414
40
0.871747045035365
40
0.878896028351267
40
0.882470520009219
40
0.88604501166717
40
0.889619503325121
40
0.893193994983072
40
0.896768486641023
40
0.900342978298974
40
0.903917469956925
40
0.907491961614876
40
0.914640944930778
40
0.918215436588729
40
0.92178992824668
40
0.928938911562582
40
0.932513403220533
40
0.936087894878484
40
0.943236878194387
40
0.946811369852338
40
0.950385861510289
40
0.95396035316824
40
0.957534844826191
40
0.964683828142093
40
0.968258319800044
40
0.971832811457995
40
0.975407303115946
40
0.978981794773897
40
0.982556286431848
40
0.986130778089799
40
0.98970526974775
40
0.993279761405701
40
0.996854253063652
40
1
40
1
40
1
40
1
41
1
10
-2.2
20
17.5147448798811
30
0
41
1
10
-2.2
20
17.513205014116
30
0
41
1
10
-2.2
20
17.5092143171099
30
0
41
1
10
-2.2
20
17.5008423359265
30
0
41
1
10
-2.2
20
17.4896606050755
30
0
41
1
10
-2.2
20
17.4760589345483
30
0
41
1
10
-2.2
20
17.4600756660116
30
0
41
1
10
-2.2
20
17.4417480829298
30
0
41
1
10
-2.2
20
17.4211116708093
30
0
41
1
10
-2.2
20
17.3981999720817
30
0
41
1
10
-2.2
20
17.373046254225
30
0
41
1
10
-2.2
20
17.3365615480365
30
0
41
1
10
-2.2
20
17.2957083393221
30
0
41
1
10
-2.2
20
17.2506132986913
30
0
41
1
10
-2.2
20
17.2146924230801
30
0
41
1
10
-2.2
20
17.1766986759847
30
0
41
1
10
-2.2
20
17.1233138560685
30
0
41
1
10
-2.2
20
17.0658713749173
30
0
41
1
10
-2.2
20
17.0044820563696
30
0
41
1
10
-2.2
20
16.9404819965209
30
0
41
1
10
-2.2
20
16.8725984751516
30
0
41
1
10
-2.2
20
16.8009296734765
30
0
41
1
10
-2.2
20
16.72675615712
30
0
41
1
10
-2.2
20
16.6488472996884
30
0
41
1
10
-2.2
20
16.5672977573629
30
0
41
1
10
-2.2
20
16.5043209819811
30
0
41
1
10
-2.2
20
16.4395493732765
30
0
41
1
10
-2.2
20
16.3729983406747
30
0
41
1
10
-2.2
20
16.3046816133433
30
0
41
1
10
-2.2
20
16.2346146587631
30
0
41
1
10
-2.2
20
16.1628111167189
30
0
41
1
10
-2.2
20
16.0647793469533
30
0
41
1
10
-2.2
20
15.9633134995801
30
0
41
1
10
-2.2
20
15.8584913887799
30
0
41
1
10
-2.2
20
15.7781982427732
30
0
41
1
10
-2.2
20
15.6962433497342
30
0
41
1
10
-2.2
20
15.5847743861311
30
0
41
1
10
-2.2
20
15.4700110710185
30
0
41
1
10
-2.2
20
15.3520264687641
30
0
41
1
10
-2.2
20
15.2619258251736
30
0
41
1
10
-2.2
20
15.1702262286607
30
0
41
1
10
-2.2
20
15.0458463802595
30
0
41
1
10
-2.2
20
14.9182892137509
30
0
41
1
10
-2.2
20
14.7876243835494
30
0
41
1
10
-2.2
20
14.6880675684927
30
0
41
1
10
-2.2
20
14.5869647024964
30
0
41
1
10
-2.2
20
14.4501162009323
30
0
41
1
10
-2.2
20
14.310188578504
30
0
41
1
10
-2.2
20
14.1672492498436
30
0
41
1
10
-2.2
20
14.0585319196999
30
0
41
1
10
-2.2
20
13.9483131149779
30
0
41
1
10
-2.2
20
13.7993681823229
30
0
41
1
10
-2.2
20
13.6474264445925
30
0
41
1
10
-2.2
20
13.4925540283558
30
0
41
1
10
-2.2
20
13.3749248852381
30
0
41
1
10
-2.2
20
13.2558316845062
30
0
41
1
10
-2.2
20
13.0951031858018
30
0
41
1
10
-2.2
20
12.9314463879873
30
0
41
1
10
-2.2
20
12.7649271524075
30
0
41
1
10
-2.2
20
12.6385945304865
30
0
41
1
10
-2.2
20
12.510828990928
30
0
41
1
10
-2.2
20
12.3385783725546
30
0
41
1
10
-2.2
20
12.1634558634281
30
0
41
1
10
-2.2
20
11.9855279960913
30
0
41
1
10
-2.2
20
11.8057193844339
30
0
41
1
10
-2.2
20
11.5774197426994
30
0
41
1
10
-2.2
20
11.3444552561941
30
0
41
1
10
-2.2
20
11.1553144466797
30
0
41
1
10
-2.2
20
10.96432157968
30
0
41
1
10
-2.2
20
10.7705258372791
30
0
41
1
10
-2.2
20
10.5740001677826
30
0
41
1
10
-2.2
20
10.4252200954492
30
0
41
1
10
-2.2
20
10.2750653600417
30
0
41
1
10
-2.2
20
10.1235384488298
30
0
41
1
10
-2.2
20
9.97064122920807
30
0
41
1
10
-2.2
20
9.76496631801302
30
0
41
1
10
-2.2
20
9.50443392738597
30
0
41
1
10
-2.2
20
9.23936570098886
30
0
41
1
10
-2.2
20
9.02461799380217
30
0
41
1
10
-2.2
20
8.86219304475887
30
0
41
1
10
-2.2
20
8.69841428000512
30
0
41
1
10
-2.2
20
8.53328405958746
30
0
41
1
10
-2.2
20
8.36680339868337
30
0
41
1
10
-2.2
20
8.14304412571011
30
0
41
1
10
-2.2
20
7.85994707617317
30
0
41
1
10
-2.2
20
7.51487111531026
30
0
41
1
10
-2.2
20
7.22282329277962
30
0
41
1
10
-2.2
20
6.98653548716825
30
0
41
1
10
-2.2
20
6.80797157864473
30
0
41
1
10
-2.2
20
6.62807270531451
30
0
41
1
10
-2.2
20
6.44684086969582
30
0
41
1
10
-2.2
20
6.26427776637016
30
0
41
1
10
-2.2
20
6.0803858592752
30
0
41
1
10
-2.2
20
5.89516728223867
30
0
41
1
10
-2.2
20
5.70862469092603
30
0
41
1
10
-2.2
20
5.52076103085633
30
0
41
1
10
-2.2
20
5.33157993388585
30
0
41
1
10
-2.2
20
5.14108511996025
30
0
41
1
10
-2.2
20
4.94928086714648
30
0
41
1
10
-2.2
20
4.75617251627347
30
0
41
1
10
-2.2
20
4.56176620564526
30
0
41
1
10
-2.2
20
4.36606873641344
30
0
41
1
10
-2.2
20
4.16908849962459
30
0
41
1
10
-2.2
20
4.00386590607064
30
0
41
1
10
-2.2
20
3.87107810854147
30
0
41
1
10
-2.2
20
3.77116418570387
30
0
41
1
10
-2.2
20
3.67093805129474
30
0
41
1
10
-2.2
20
3.5369018254882
30
0
41
1
10
-2.2
20
3.36855658184018
30
0
41
1
10
-2.2
20
3.19919951970698
30
0
41
1
10
-2.2
20
3.06314133422208
30
0
41
1
10
-2.2
20
2.96079189341756
30
0
41
1
10
-2.2
20
2.85815023786418
30
0
41
1
10
-2.2
20
2.75522026664268
30
0
41
1
10
-2.2
20
2.65200561172494
30
0
41
1
10
-2.2
20
2.51402705629772
30
0
41
1
10
-2.2
20
2.375450816946
30
0
41
1
10
-2.2
20
2.23639085040648
30
0
41
1
10
-2.2
20
2.13182395998015
30
0
41
1
10
-2.2
20
2.02700348752293
30
0
41
1
10
-2.2
20
1.92193653735015
30
0
41
1
10
-2.2
20
1.81663008016324
30
0
41
1
10
-2.2
20
1.71109231328518
30
0
41
1
10
-2.2
20
1.60533155404698
30
0
41
1
10
-2.2
20
1.49935698477981
30
0
41
1
10
-2.2
20
1.39317847233161
30
0
41
1
10
-2.2
20
1.28680633401083
30
0
41
1
10
-2.2
20
1.18025197439016
30
0
41
1
10
-2.2
20
1.073527020087
30
0
41
1
10
-2.2
20
0.96664434311532
30
0
41
1
10
-2.2
20
0.859616995486334
30
0
41
1
10
-2.2
20
0.752459219961509
30
0
41
1
10
-2.2
20
0.645185453734172
30
0
41
1
10
-2.2
20
0.537811163545626
30
0
41
1
10
-2.2
20
0.430352024765995
30
0
41
1
10
-2.2
20
0.322824496958617
30
0
41
1
10
-2.2
20
0.215245213108545
30
0
41
1
10
-2.2
20
0.107631302158183
30
0
41
1
10
-2.2
20
-5.9909553E-09
30
0
41
1
10
-2.2
20
-0.107631313716837
30
0
41
1
10
-2.2
20
-0.21524522393176
30
0
41
1
10
-2.2
20
-0.322824507999513
30
0
41
1
10
-2.2
20
-0.430352036900842
30
0
41
1
10
-2.2
20
-0.537811175438549
30
0
41
1
10
-2.2
20
-0.645185463980482
30
0
41
1
10
-2.2
20
-0.752459230354134
30
0
41
1
10
-2.2
20
-0.859617007920519
30
0
41
1
10
-2.2
20
-0.966644355262389
30
0
41
1
10
-2.2
20
-1.07352702949097
30
0
41
1
10
-2.2
20
-1.18025198377217
30
0
41
1
10
-2.2
20
-1.2868063464968
30
0
41
1
10
-2.2
20
-1.39317848503856
30
0
41
1
10
-2.2
20
-1.49935699380708
30
0
41
1
10
-2.2
20
-1.60533156181745
30
0
41
1
10
-2.2
20
-1.71109232444707
30
0
41
1
10
-2.2
20
-1.81663009373557
30
0
41
1
10
-2.2
20
-1.92193654804359
30
0
41
1
10
-2.2
20
-2.02700349385552
30
0
41
1
10
-2.2
20
-2.13182396747069
30
0
41
1
10
-2.2
20
-2.23639086291988
30
0
41
1
10
-2.2
20
-2.34069812940876
30
0
41
1
10
-2.2
20
-2.44473977839391
30
0
41
1
10
-2.2
20
-2.54851063247165
30
0
41
1
10
-2.2
20
-2.65200559968281
30
0
41
1
10
-2.2
20
-2.78960994504098
30
0
41
1
10
-2.2
20
-2.92668912429065
30
0
41
1
10
-2.2
20
-3.06314133551615
30
0
41
1
10
-2.2
20
-3.19919952332836
30
0
41
1
10
-2.2
20
-3.36855659963138
30
0
41
1
10
-2.2
20
-3.53690183437428
30
0
41
1
10
-2.2
20
-3.67093805397229
30
0
41
1
10
-2.2
20
-3.77116418775421
30
0
41
1
10
-2.2
20
-3.87107811616198
30
0
41
1
10
-2.2
20
-4.00386592221614
30
0
41
1
10
-2.2
20
-4.169088511784
30
0
41
1
10
-2.2
20
-4.36606871643775
30
0
41
1
10
-2.2
20
-4.56176617271484
30
0
41
1
10
-2.2
20
-4.75617249379653
30
0
41
1
10
-2.2
20
-4.94928076863457
30
0
41
1
10
-2.2
20
-5.14108500618136
30
0
41
1
10
-2.2
20
-5.33157993903225
30
0
41
1
10
-2.2
20
-5.52076102284181
30
0
41
1
10
-2.2
20
-5.70862461825791
30
0
41
1
10
-2.2
20
-5.89516734859464
30
0
41
1
10
-2.2
20
-6.0803860968085
30
0
41
1
10
-2.2
20
-6.26427796235188
30
0
41
1
10
-2.2
20
-6.44684092947378
30
0
41
1
10
-2.2
20
-6.62807271786153
30
0
41
1
10
-2.2
20
-6.80797159432129
30
0
41
1
10
-2.2
20
-6.98653550324826
30
0
41
1
10
-2.2
20
-7.22282328452872
30
0
41
1
10
-2.2
20
-7.51487112820209
30
0
41
1
10
-2.2
20
-7.85994708827315
30
0
41
1
10
-2.2
20
-8.14304411844034
30
0
41
1
10
-2.2
20
-8.36680341033821
30
0
41
1
10
-2.2
20
-8.53328407858575
30
0
41
1
10
-2.2
20
-8.69841428877766
30
0
41
1
10
-2.2
20
-8.86219304073114
30
0
41
1
10
-2.2
20
-9.02461799205523
30
0
41
1
10
-2.2
20
-9.23936571773672
30
0
41
1
10
-2.2
20
-9.50443394039922
30
0
41
1
10
-2.2
20
-9.76496631110049
30
0
41
1
10
-2.2
20
-9.97064123613964
30
0
41
1
10
-2.2
20
-10.123538466054
30
0
41
1
10
-2.2
20
-10.2750653748105
30
0
41
1
10
-2.2
20
-10.4252201002359
30
0
41
1
10
-2.2
20
-10.5740001651574
30
0
41
1
10
-2.2
20
-10.7705258416001
30
0
41
1
10
-2.2
20
-10.9643215989582
30
0
41
1
10
-2.2
20
-11.1553144582602
30
0
41
1
10
-2.2
20
-11.3444552554371
30
0
41
1
10
-2.2
20
-11.5774197477568
30
0
41
1
10
-2.2
20
-11.8057194023465
30
0
41
1
10
-2.2
20
-11.9855280067157
30
0
41
1
10
-2.2
20
-12.1634558646821
30
0
41
1
10
-2.2
20
-12.3385783781737
30
0
41
1
10
-2.2
20
-12.510829004708
30
0
41
1
10
-2.2
20
-12.6385945454976
30
0
41
1
10
-2.2
20
-12.7649271637091
30
0
41
1
10
-2.2
20
-12.9314463925932
30
0
41
1
10
-2.2
20
-13.0951031927999
30
0
41
1
10
-2.2
20
-13.2558316973182
30
0
41
1
10
-2.2
20
-13.3749248996582
30
0
41
1
10
-2.2
20
-13.4925540411334
30
0
41
1
10
-2.2
20
-13.6474264531923
30
0
41
1
10
-2.2
20
-13.7993681905533
30
0
41
1
10
-2.2
20
-13.9483131264862
30
0
41
1
10
-2.2
20
-14.0585319334344
30
0
41
1
10
-2.2
20
-14.1672492642274
30
0
41
1
10
-2.2
20
-14.3101885914782
30
0
41
1
10
-2.2
20
-14.4501162106047
30
0
41
1
10
-2.2
20
-14.5869647126432
30
0
41
1
10
-2.2
20
-14.6880675812844
30
0
41
1
10
-2.2
20
-14.7876243995297
30
0
41
1
10
-2.2
20
-14.9182892218295
30
0
41
1
10
-2.2
20
-15.0458464314392
30
0
41
1
10
-2.2
20
-15.1702261509224
30
0
41
1
10
-2.2
20
-15.2466455133785
30
0
41
1
10
-2.2
20
-15.3069761679616
30
0
41
1
10
-2.2
20
-15.3667724139347
30
0
41
1
10
-2.2
20
-15.4700110929875
30
0
41
1
10
-2.2
20
-15.5847743990242
30
0
41
1
10
-2.2
20
-15.6962433571227
30
0
41
1
10
-2.2
20
-15.7781982539187
30
0
41
1
10
-2.2
20
-15.8584914079188
30
0
41
1
10
-2.2
20
-15.9633135259672
30
0
41
1
10
-2.2
20
-16.0647793597711
30
0
41
1
10
-2.2
20
-16.1628111223414
30
0
41
1
10
-2.2
20
-16.2346146707391
30
0
41
1
10
-2.2
20
-16.3046816359758
30
0
41
1
10
-2.2
20
-16.3729983688048
30
0
41
1
10
-2.2
20
-16.439549393056
30
0
41
1
10
-2.2
20
-16.5043209901434
30
0
41
1
10
-2.2
20
-16.5672977619412
30
0
41
1
10
-2.2
20
-16.6488473199257
30
0
41
1
10
-2.2
20
-16.7267561914694
30
0
41
1
10
-2.2
20
-16.8009296884544
30
0
41
1
10
-2.2
20
-16.8725984731112
30
0
41
1
10
-2.2
20
-16.9404820184079
30
0
41
1
10
-2.2
20
-17.0044820909957
30
0
41
1
10
-2.2
20
-17.0658713913631
30
0
41
1
10
-2.2
20
-17.123313852319
30
0
41
1
10
-2.2
20
-17.1766986986672
30
0
41
1
10
-2.2
20
-17.2146924603873
30
0
41
1
10
-2.2
20
-17.250613323192
30
0
41
1
10
-2.2
20
-17.2957083328928
30
0
41
1
10
-2.2
20
-17.3365615705832
30
0
41
1
10
-2.2
20
-17.3730462873428
30
0
41
1
10
-2.2
20
-17.398199993695
30
0
41
1
10
-2.2
20
-17.4211116738093
30
0
41
1
10
-2.2
20
-17.4417480876219
30
0
41
1
10
-2.2
20
-17.4600756994924
30
0
41
1
10
-2.2
20
-17.4760589706817
30
0
41
1
10
-2.2
20
-17.4896606126055
30
0
41
1
10
-2.2
20
-17.5008423321234
30
0
41
1
10
-2.19999999999999
20
-17.5092144790717
30
0
41
1
10
-2.2
20
-17.5132052272921
30
0
41
1
10
-2.2
20
-17.514745122037
30
0
0
SPLINE
5
DE
100
AcDbEntity
8
SK1
62
256
6
ByLayer
370
-1
48
1
60
0
100
AcDbSpline
70
4
71
3
72
287
73
283
40
0
40
0
40
0
40
0
40
0.0019139573875173
40
0.0054376964149189
40
0.0089614354423205
40
0.0124851744697221
40
0.0160089134971237
40
0.0195326525245253
40
0.0230563915519268
40
0.0265801305793285
40
0.03010386960673
40
0.0336276086341316
40
0.0371513476615332
40
0.0441988257163364
40
0.047722564743738
40
0.0512463037711395
40
0.0547700427985411
40
0.0582937818259427
40
0.0653412598807459
40
0.0688649989081475
40
0.072388737935549
40
0.0794362159903522
40
0.0829599550177538
40
0.0864836940451554
40
0.0935311720999586
40
0.0970549111273602
40
0.100578650154762
40
0.104102389182163
40
0.107626128209565
40
0.111149867236967
40
0.114673606264368
40
0.11819734529177
40
0.121721084319171
40
0.128768562373974
40
0.132292301401376
40
0.135816040428778
40
0.139339779456179
40
0.142863518483581
40
0.149910996538384
40
0.153434735565786
40
0.156958474593187
40
0.160482213620589
40
0.16400595264799
40
0.171053430702793
40
0.174577169730195
40
0.178100908757597
40
0.181624647784998
40
0.1851483868124
40
0.192195864867203
40
0.195719603894605
40
0.199243342922006
40
0.202767081949408
40
0.206290820976809
40
0.213338299031613
40
0.216862038059014
40
0.220385777086416
40
0.223909516113817
40
0.227433255141219
40
0.234480733196022
40
0.238004472223424
40
0.241528211250825
40
0.245051950278227
40
0.248575689305628
40
0.255623167360432
40
0.259146906387833
40
0.262670645415235
40
0.269718123470038
40
0.276765601524841
40
0.280289340552243
40
0.283813079579644
40
0.290860557634448
40
0.294384296661849
40
0.297908035689251
40
0.301431774716652
40
0.304955513744054
40
0.308479252771455
40
0.312002991798857
40
0.31905046985366
40
0.326097947908463
40
0.329621686935865
40
0.333145425963267
40
0.336669164990668
40
0.34019290401807
40
0.343716643045471
40
0.347240382072873
40
0.354287860127676
40
0.361335338182479
40
0.368382816237282
40
0.371906555264684
40
0.375430294292086
40
0.378954033319487
40
0.382477772346889
40
0.38600151137429
40
0.389525250401692
40
0.393048989429093
40
0.396572728456495
40
0.400096467483897
40
0.403620206511298
40
0.4071439455387
40
0.410667684566101
40
0.414191423593503
40
0.417715162620905
40
0.421238901648306
40
0.424762640675708
40
0.428286379703109
40
0.43004824921681
40
0.431810118730511
40
0.433571988244212
40
0.435333857757912
40
0.438857596785314
40
0.442381335812716
40
0.444143205326416
40
0.445905074840117
40
0.447666944353818
40
0.449428813867519
40
0.451190683381219
40
0.45295255289492
40
0.456476291922322
40
0.458238161436023
40
0.460000030949724
40
0.461761900463425
40
0.463523769977125
40
0.465285639490826
40
0.467047509004527
40
0.468809378518228
40
0.470571248031928
40
0.472333117545629
40
0.47409498705933
40
0.475856856573031
40
0.477618726086732
40
0.479380595600432
40
0.481142465114133
40
0.482904334627834
40
0.484666204141535
40
0.486428073655236
40
0.488189943168936
40
0.489951812682637
40
0.491713682196338
40
0.493475551710039
40
0.495237421223739
40
0.49699929073744
40
0.498761160251141
40
0.500523029764842
40
0.502284899278543
40
0.504046768792243
40
0.505808638305944
40
0.507570507819645
40
0.509332377333346
40
0.511094246847047
40
0.512856116360747
40
0.514617985874448
40
0.516379855388149
40
0.51814172490185
40
0.519903594415551
40
0.521665463929251
40
0.523427333442952
40
0.525189202956653
40
0.526951072470354
40
0.528712941984055
40
0.530474811497755
40
0.532236681011456
40
0.533998550525157
40
0.535760420038858
40
0.537522289552559
40
0.539284159066259
40
0.54104602857996
40
0.544569767607362
40
0.546331637121062
40
0.548093506634763
40
0.551617245662165
40
0.555140984689566
40
0.556902854203267
40
0.558664723716968
40
0.560426593230669
40
0.56218846274437
40
0.565712201771771
40
0.569235940799173
40
0.572759679826574
40
0.576283418853976
40
0.579807157881377
40
0.583330896908779
40
0.586854635936181
40
0.590378374963582
40
0.593902113990984
40
0.597425853018385
40
0.600949592045787
40
0.604473331073189
40
0.60799707010059
40
0.611520809127992
40
0.615044548155393
40
0.618568287182795
40
0.622092026210197
40
0.629139504265
40
0.636186982319803
40
0.643234460374606
40
0.646758199402008
40
0.650281938429409
40
0.653805677456811
40
0.657329416484212
40
0.660853155511614
40
0.664376894539015
40
0.671424372593819
40
0.678471850648622
40
0.681995589676023
40
0.685519328703425
40
0.689043067730826
40
0.692566806758228
40
0.69609054578563
40
0.699614284813031
40
0.706661762867835
40
0.710185501895236
40
0.713709240922638
40
0.720756718977441
40
0.727804197032244
40
0.731327936059646
40
0.734851675087047
40
0.74189915314185
40
0.745422892169252
40
0.748946631196654
40
0.752470370224055
40
0.755994109251457
40
0.76304158730626
40
0.766565326333661
40
0.770089065361063
40
0.773612804388465
40
0.777136543415866
40
0.784184021470669
40
0.787707760498071
40
0.791231499525473
40
0.794755238552874
40
0.798278977580276
40
0.805326455635079
40
0.808850194662481
40
0.812373933689882
40
0.815897672717284
40
0.819421411744685
40
0.826468889799488
40
0.82999262882689
40
0.833516367854292
40
0.835278237367992
40
0.837040106881693
40
0.840563845909095
40
0.847611323963898
40
0.851135062991299
40
0.854658802018701
40
0.858182541046103
40
0.861706280073504
40
0.868753758128308
40
0.872277497155709
40
0.875801236183111
40
0.879324975210512
40
0.882848714237914
40
0.886372453265315
40
0.889896192292717
40
0.893419931320119
40
0.89694367034752
40
0.903991148402323
40
0.907514887429725
40
0.911038626457127
40
0.91808610451193
40
0.921609843539331
40
0.925133582566733
40
0.932181060621536
40
0.935704799648938
40
0.939228538676339
40
0.942752277703741
40
0.946276016731142
40
0.953323494785945
40
0.956847233813347
40
0.960370972840749
40
0.963894711868151
40
0.967418450895552
40
0.970942189922953
40
0.974465928950355
40
0.977989667977757
40
0.981513407005158
40
0.98503714603256
40
0.988560885059962
40
0.992084624087363
40
0.995608363114765
40
0.999132102142166
40
1
40
1
40
1
40
1
41
1
10
-28.5
20
16.8570111679205
30
0
41
1
10
-28.5
20
16.856391377873
30
0
41
1
10
-28.5
20
16.8542840062266
30
0
41
1
10
-28.5
20
16.8492032887544
30
0
41
1
10
-28.5
20
16.8407921788659
30
0
41
1
10
-28.5
20
16.8300011209595
30
0
41
1
10
-28.5
20
16.8168672741156
30
0
41
1
10
-28.5
20
16.8014255225769
30
0
41
1
10
-28.5
20
16.783709883521
30
0
41
1
10
-28.5
20
16.7637529731542
30
0
41
1
10
-28.5
20
16.7415855338906
30
0
41
1
10
-28.5
20
16.7172383450784
30
0
41
1
10
-28.5
20
16.6818353810987
30
0
41
1
10
-28.5
20
16.642411510514
30
0
41
1
10
-28.5
20
16.5986105790194
30
0
41
1
10
-28.5
20
16.5637763020887
30
0
41
1
10
-28.5
20
16.5269199075572
30
0
41
1
10
-28.5
20
16.4750169305147
30
0
41
1
10
-28.5
20
16.4194622625482
30
0
41
1
10
-28.5
20
16.3597331913305
30
0
41
1
10
-28.5
20
16.2974462059125
30
0
41
1
10
-28.5
20
16.2317181614777
30
0
41
1
10
-28.5
20
16.1619255301562
30
0
41
1
10
-28.5
20
16.0896767577218
30
0
41
1
10
-28.5
20
16.0141701499498
30
0
41
1
10
-28.5
20
15.9346970720351
30
0
41
1
10
-28.5
20
15.8734193498834
30
0
41
1
10
-28.5
20
15.8103844132608
30
0
41
1
10
-28.5
20
15.745608166167
30
0
41
1
10
-28.5
20
15.6791035033831
30
0
41
1
10
-28.5
20
15.6108850520675
30
0
41
1
10
-28.5
20
15.5409672008416
30
0
41
1
10
-28.5
20
15.4453363897878
30
0
41
1
10
-28.5
20
15.3468344295442
30
0
41
1
10
-28.5
20
15.2445501023872
30
0
41
1
10
-28.5
20
15.1663215412447
30
0
41
1
10
-28.5
20
15.0864673138636
30
0
41
1
10
-28.5
20
14.9776668598204
30
0
41
1
10
-28.5
20
14.8661866472663
30
0
41
1
10
-28.5
20
14.7510047173632
30
0
41
1
10
-28.5
20
14.6631805593238
30
0
41
1
10
-28.5
20
14.5737935545692
30
0
41
1
10
-28.5
20
14.4523474056541
30
0
41
1
10
-28.5
20
14.3283920102608
30
0
41
1
10
-28.5
20
14.2007962111626
30
0
41
1
10
-28.5
20
14.1037299196573
30
0
41
1
10
-28.5
20
14.0051547121626
30
0
41
1
10
-28.5
20
13.8715103774192
30
0
41
1
10
-28.5
20
13.7355116027341
30
0
41
1
10
-28.5
20
13.5959164295663
30
0
41
1
10
-28.5
20
13.4899116400767
30
0
41
1
10
-28.5
20
13.3824445287113
30
0
41
1
10
-28.5
20
13.2369867267196
30
0
41
1
10
-28.5
20
13.0893180063072
30
0
41
1
10
-28.5
20
12.9380809359595
30
0
41
1
10
-28.5
20
12.8234002792818
30
0
41
1
10
-28.5
20
12.7072977235968
30
0
41
1
10
-28.5
20
12.550359403554
30
0
41
1
10
-28.5
20
12.3913462445321
30
0
41
1
10
-28.5
20
12.2287775158425
30
0
41
1
10
-28.5
20
12.1056498288981
30
0
41
1
10
-28.5
20
11.9811355431936
30
0
41
1
10
-28.5
20
11.8130068133241
30
0
41
1
10
-28.5
20
11.642935768078
30
0
41
1
10
-28.5
20
11.4693068645233
30
0
41
1
10
-28.5
20
11.2938625434425
30
0
41
1
10
-28.5
20
11.0718089327865
30
0
41
1
10
-28.5
20
10.8452681360072
30
0
41
1
10
-28.5
20
10.6608198079832
30
0
41
1
10
-28.5
20
10.4745957683654
30
0
41
1
10
-28.5
20
10.2866518533399
30
0
41
1
10
-28.5
20
10.0951135357909
30
0
41
1
10
-28.5
20
9.9503895477591
30
0
41
1
10
-28.5
20
9.8043545776041
30
0
41
1
10
-28.5
20
9.65701503611822
30
0
41
1
10
-28.5
20
9.50837340526911
30
0
41
1
10
-28.5
20
9.30810992365679
30
0
41
1
10
-28.5
20
9.05534970701544
30
0
41
1
10
-28.5
20
8.79830464348922
30
0
41
1
10
-28.5
20
8.58944232029054
30
0
41
1
10
-28.5
20
8.43181572672981
30
0
41
1
10
-28.5
20
8.27292311790592
30
0
41
1
10
-28.5
20
8.11277014047184
30
0
41
1
10
-28.5
20
7.9513617118449
30
0
41
1
10
-28.5
20
7.73407184255308
30
0
41
1
10
-28.5
20
7.46030866767529
30
0
41
1
10
-28.5
20
7.12632140637373
30
0
41
1
10
-28.5
20
6.84437402550569
30
0
41
1
10
-28.5
20
6.61554359890371
30
0
41
1
10
-28.5
20
6.44309029411608
30
0
41
1
10
-28.5
20
6.26944364545889
30
0
41
1
10
-28.5
20
6.09461246091772
30
0
41
1
10
-28.5
20
5.91860523667609
30
0
41
1
10
-28.5
20
5.74143189937953
30
0
41
1
10
-28.5
20
5.56310357372001
30
0
41
1
10
-28.5
20
5.38363134733163
30
0
41
1
10
-28.5
20
5.20302692387261
30
0
41
1
10
-28.5
20
5.0213042232472
30
0
41
1
10
-28.5
20
4.83847919931264
30
0
41
1
10
-28.5
20
4.65456716028004
30
0
41
1
10
-28.5
20
4.46958486845949
30
0
41
1
10
-28.5
20
4.28355302808069
30
0
41
1
10
-28.5
20
4.09649275318182
30
0
41
1
10
-28.5
20
3.90842813226232
30
0
41
1
10
-28.5
20
3.75124940963562
30
0
41
1
10
-28.5
20
3.6243549796439
30
0
41
1
10
-28.5
20
3.52924315934183
30
0
41
1
10
-28.5
20
3.43390158445521
30
0
41
1
10
-28.5
20
3.30608717079298
30
0
41
1
10
-28.5
20
3.14669072023423
30
0
41
1
10
-28.5
20
2.9865693987912
30
0
41
1
10
-28.5
20
2.85729421649611
30
0
41
1
10
-28.5
20
2.76048089001324
30
0
41
1
10
-28.5
20
2.66347976206254
30
0
41
1
10
-28.5
20
2.56629526768592
30
0
41
1
10
-28.5
20
2.46893611478751
30
0
41
1
10
-28.5
20
2.33842740009587
30
0
41
1
10
-28.5
20
2.20905952740142
30
0
41
1
10
-28.5
20
2.07788039572898
30
0
41
1
10
-28.5
20
1.97974994874616
30
0
41
1
10
-28.5
20
1.88148715614122
30
0
41
1
10
-28.5
20
1.78310090101277
30
0
41
1
10
-28.5
20
1.68460072925305
30
0
41
1
10
-28.5
20
1.58599184128096
30
0
41
1
10
-28.5
20
1.48728649469356
30
0
41
1
10
-28.5
20
1.38848914320587
30
0
41
1
10
-28.5
20
1.28961139997082
30
0
41
1
10
-28.5
20
1.19065859360987
30
0
41
1
10
-28.5
20
1.09164071478048
30
0
41
1
10
-28.5
20
0.992564090788449
30
0
41
1
10
-28.5
20
0.893436923932512
30
0
41
1
10
-28.5
20
0.794265471937166
30
0
41
1
10
-28.5
20
0.695056741362833
30
0
41
1
10
-28.5
20
0.595816468507252
30
0
41
1
10
-28.5
20
0.49655061320999
30
0
41
1
10
-28.5
20
0.397263853181812
30
0
41
1
10
-28.5
20
0.297961366795107
30
0
41
1
10
-28.5
20
0.198647102840738
30
0
41
1
10
-28.5
20
0.0993254669347436
30
0
41
1
10
-28.5
20
5.4725149E-09
30
0
41
1
10
-28.5
20
-0.0993254684405827
30
0
41
1
10
-28.5
20
-0.198647127601248
30
0
41
1
10
-28.5
20
-0.297961388791691
30
0
41
1
10
-28.5
20
-0.397263840424017
30
0
41
1
10
-28.5
20
-0.496550594205559
30
0
41
1
10
-28.5
20
-0.595816495504096
30
0
41
1
10
-28.5
20
-0.695056784277028
30
0
41
1
10
-28.5
20
-0.794265459276176
30
0
41
1
10
-28.5
20
-0.89343688343348
30
0
41
1
10
-28.5
20
-0.992564112169902
30
0
41
1
10
-28.5
20
-1.0916407792042
30
0
41
1
10
-28.5
20
-1.19065859620264
30
0
41
1
10
-28.5
20
-1.28961134189754
30
0
41
1
10
-28.5
20
-1.38848913588993
30
0
41
1
10
-28.5
20
-1.48728656512978
30
0
41
1
10
-28.5
20
-1.58599188781932
30
0
41
1
10
-28.5
20
-1.6846006870125
30
0
41
1
10
-28.5
20
-1.78310084050699
30
0
41
1
10
-28.5
20
-1.88148718140701
30
0
41
1
10
-28.5
20
-1.9797500364362
30
0
41
1
10
-28.5
20
-2.0778804265363
30
0
41
1
10
-28.5
20
-2.17587292609082
30
0
41
1
10
-28.5
20
-2.27371679621319
30
0
41
1
10
-28.5
20
-2.37140757120355
30
0
41
1
10
-28.5
20
-2.46893613943033
30
0
41
1
10
-28.5
20
-2.59923374131699
30
0
41
1
10
-28.5
20
-2.72777279716706
30
0
41
1
10
-28.5
20
-2.8572942882393
30
0
41
1
10
-28.5
20
-2.98656948332388
30
0
41
1
10
-28.5
20
-3.14669074057869
30
0
41
1
10
-28.5
20
-3.30608709676798
30
0
41
1
10
-28.5
20
-3.43390157548936
30
0
41
1
10
-28.5
20
-3.52924322184191
30
0
41
1
10
-28.5
20
-3.62435506854831
30
0
41
1
10
-28.5
20
-3.75124942106058
30
0
41
1
10
-28.5
20
-3.90842799420625
30
0
41
1
10
-28.5
20
-4.09649259176146
30
0
41
1
10
-28.5
20
-4.28355297730505
30
0
41
1
10
-28.5
20
-4.4695846174555
30
0
41
1
10
-28.5
20
-4.65456683421039
30
0
41
1
10
-28.5
20
-4.83847943804494
30
0
41
1
10
-28.5
20
-5.0213044851898
30
0
41
1
10
-28.5
20
-5.2030267003301
30
0
41
1
10
-28.5
20
-5.38363156234237
30
0
41
1
10
-28.5
20
-5.56310445504442
30
0
41
1
10
-28.5
20
-5.74143237747984
30
0
41
1
10
-28.5
20
-5.91860495448572
30
0
41
1
10
-28.5
20
-6.09461208825527
30
0
41
1
10
-28.5
20
-6.26944357118299
30
0
41
1
10
-28.5
20
-6.4430903265563
30
0
41
1
10
-28.5
20
-6.61554357091572
30
0
41
1
10
-28.5
20
-6.84437400802861
30
0
41
1
10
-28.5
20
-7.12632144512301
30
0
41
1
10
-28.5
20
-7.46030865505762
30
0
41
1
10
-28.5
20
-7.73407184285279
30
0
41
1
10
-28.5
20
-7.95136176299604
30
0
41
1
10
-28.5
20
-8.11277014937085
30
0
41
1
10
-28.5
20
-8.27292308432649
30
0
41
1
10
-28.5
20
-8.43181570788789
30
0
41
1
10
-28.5
20
-8.5894423488798
30
0
41
1
10
-28.5
20
-8.79830467826932
30
0
41
1
10
-28.5
20
-9.05534969583792
30
0
41
1
10
-28.5
20
-9.30810991622684
30
0
41
1
10
-28.5
20
-9.50837344479851
30
0
41
1
10
-28.5
20
-9.65701506287493
30
0
41
1
10
-28.5
20
-9.80435457188474
30
0
41
1
10
-28.5
20
-9.95038952754788
30
0
41
1
10
-28.5
20
-10.095113531911
30
0
41
1
10
-28.5
20
-10.2866518813937
30
0
41
1
10
-28.5
20
-10.4745957936973
30
0
41
1
10
-28.5
20
-10.6608197986608
30
0
41
1
10
-28.5
20
-10.8452681286137
30
0
41
1
10
-28.5
20
-11.0718089525805
30
0
41
1
10
-28.5
20
-11.2938625632929
30
0
41
1
10
-28.5
20
-11.4693068596264
30
0
41
1
10
-28.5
20
-11.6429357656381
30
0
41
1
10
-28.5
20
-11.8130068303033
30
0
41
1
10
-28.5
20
-11.9811355648908
30
0
41
1
10
-28.5
20
-12.1056498404809
30
0
41
1
10
-28.5
20
-12.2287775174238
30
0
41
1
10
-28.5
20
-12.3913462461042
30
0
41
1
10
-28.5
20
-12.5503594172971
30
0
41
1
10
-28.5
20
-12.7072977423403
30
0
41
1
10
-28.5
20
-12.8234002933141
30
0
41
1
10
-28.5
20
-12.9380809438717
30
0
41
1
10
-28.5
20
-13.0893180117675
30
0
41
1
10
-28.5
20
-13.2369867372074
30
0
41
1
10
-28.5
20
-13.3824445445542
30
0
41
1
10
-28.5
20
-13.4899116562855
30
0
41
1
10
-28.5
20
-13.5959164434403
30
0
41
1
10
-28.5
20
-13.7355116125921
30
0
41
1
10
-28.5
20
-13.8715103854275
30
0
41
1
10
-28.5
20
-14.0051547249398
30
0
41
1
10
-28.5
20
-14.1037299370701
30
0
41
1
10
-28.5
20
-14.2007962250068
30
0
41
1
10
-28.5
20
-14.328392039309
30
0
41
1
10
-28.5
20
-14.4523474054459
30
0
41
1
10
-28.5
20
-14.5737935062701
30
0
41
1
10
-28.5
20
-14.6481896525931
30
0
41
1
10
-28.5
20
-14.7070919001429
30
0
41
1
10
-28.5
20
-14.7654709460418
30
0
41
1
10
-28.5
20
-14.8661866667289
30
0
41
1
10
-28.5
20
-14.9776668655465
30
0
41
1
10
-28.5
20
-15.0864673213159
30
0
41
1
10
-28.5
20
-15.1663215599361
30
0
41
1
10
-28.5
20
-15.2445501295776
30
0
41
1
10
-28.5
20
-15.3468344527491
30
0
41
1
10
-28.5
20
-15.4453363938053
30
0
41
1
10
-28.5
20
-15.5409672073329
30
0
41
1
10
-28.5
20
-15.6108850733398
30
0
41
1
10
-28.5
20
-15.679103534252
30
0
41
1
10
-28.5
20
-15.7456081924762
30
0
41
1
10
-28.5
20
-15.810384423087
30
0
41
1
10
-28.5
20
-15.8734193510279
30
0
41
1
10
-28.5
20
-15.9346970807191
30
0
41
1
10
-28.5
20
-16.0141701800502
30
0
41
1
10
-28.5
20
-16.0896767899468
30
0
41
1
10
-28.5
20
-16.1619255341458
30
0
41
1
10
-28.5
20
-16.2317181619347
30
0
41
1
10
-28.5
20
-16.2974462376793
30
0
41
1
10
-28.5
20
-16.3597332242326
30
0
41
1
10
-28.5
20
-16.4194622696319
30
0
41
1
10
-28.5
20
-16.4750169286961
30
0
41
1
10
-28.5
20
-16.5269199399481
30
0
41
1
10
-28.5
20
-16.5637763395248
30
0
41
1
10
-28.5
20
-16.5986105943247
30
0
41
1
10
-28.5
20
-16.642411504334
30
0
41
1
10
-28.5
20
-16.6818354096897
30
0
41
1
10
-28.5
20
-16.7172383773105
30
0
41
1
10
-28.5
20
-16.741585550229
30
0
41
1
10
-28.5
20
-16.7637529737167
30
0
41
1
10
-28.5
20
-16.7837098927271
30
0
41
1
10
-28.5
20
-16.8014255596809
30
0
41
1
10
-28.5
20
-16.816867307208
30
0
41
1
10
-28.5
20
-16.8300011251081
30
0
41
1
10
-28.5
20
-16.8407921763224
30
0
41
1
10
-28.5
20
-16.8492033090471
30
0
41
1
10
-28.5
20
-16.8551966659016
30
0
41
1
10
-28.5
20
-16.8587319423621
30
0
41
1
10
-28.5
20
-16.8597680746869
30
0
41
1
10
-28.5
20
-16.8586398967081
30
0
41
1
10
-28.5
20
-16.8573438948713
30
0
41
1
10
-28.5
20
-16.8570614847293
30
0
0
SPLINE
5
DF
100
AcDbEntity
8
SK1
62
256
6
ByLayer
370
-1
48
1
60
0
100
AcDbSpline
70
4
71
3
72
107
73
103
40
0
40
0
40
0
40
0
40
0.0027087431779291
40
0.0112406780955636
40
0.0197726130131982
40
0.0283045479308327
40
0.0368364828484672
40
0.0453684177661017
40
0.0539003526837363
40
0.0624322876013708
40
0.0709642225190053
40
0.0794961574366398
40
0.0965600272719089
40
0.113623897107178
40
0.130687766942447
40
0.139219701860082
40
0.147751636777716
40
0.156283571695351
40
0.164815506612985
40
0.17334744153062
40
0.181879376448254
40
0.198943246283523
40
0.216007116118792
40
0.224539051036427
40
0.233070985954061
40
0.241602920871696
40
0.25013485578933
40
0.258666790706965
40
0.267198725624599
40
0.284262595459868
40
0.292794530377503
40
0.301326465295137
40
0.318390335130406
40
0.335454204965676
40
0.34398613988331
40
0.352518074800944
40
0.369581944636214
40
0.378113879553848
40
0.386645814471483
40
0.395177749389117
40
0.403709684306752
40
0.420773554142021
40
0.429305489059655
40
0.43783742397729
40
0.446369358894924
40
0.454901293812559
40
0.471965163647828
40
0.480497098565462
40
0.489029033483097
40
0.497560968400731
40
0.506092903318366
40
0.523156773153635
40
0.53168870807127
40
0.540220642988904
40
0.548752577906538
40
0.557284512824173
40
0.574348382659442
40
0.582880317577077
40
0.591412252494711
40
0.595678219953528
40
0.599944187412346
40
0.60847612232998
40
0.625539992165249
40
0.634071927082884
40
0.642603862000518
40
0.651135796918153
40
0.659667731835787
40
0.676731601671056
40
0.685263536588691
40
0.693795471506325
40
0.70232740642396
40
0.710859341341594
40
0.719391276259229
40
0.727923211176864
40
0.736455146094498
40
0.744987081012133
40
0.762050950847402
40
0.770582885765036
40
0.779114820682671
40
0.79617869051794
40
0.804710625435574
40
0.813242560353209
40
0.830306430188478
40
0.838838365106112
40
0.847370300023747
40
0.855902234941381
40
0.864434169859016
40
0.881498039694285
40
0.890029974611919
40
0.898561909529554
40
0.907093844447188
40
0.915625779364823
40
0.924157714282457
40
0.932689649200092
40
0.941221584117727
40
0.949753519035361
40
0.958285453952996
40
0.96681738887063
40
0.975349323788265
40
0.983881258705899
40
0.992413193623534
40
1
40
1
40
1
40
1
41
1
10
-0.394976888875291
20
-5.38678189578289
30
0
41
1
10
-0.394976888875291
20
-5.4065930765673
30
0
41
1
10
-0.394976888875291
20
-5.48871660168982
30
0
41
1
10
-0.394976888875291
20
-5.63252719489225
30
0
41
1
10
-0.394976888875291
20
-5.8174145162354
30
0
41
1
10
-0.394976888875291
20
-6.00101977124669
30
0
41
1
10
-0.394976888875291
20
-6.18333830919048
30
0
41
1
10
-0.394976888875291
20
-6.3643662218949
30
0
41
1
10
-0.394976888875291
20
-6.54409937286439
30
0
41
1
10
-0.394976888875291
20
-6.72253430941348
30
0
41
1
10
-0.394976888875291
20
-6.89966740060396
30
0
41
1
10
-0.394976888875291
20
-7.13420903787926
30
0
41
1
10
-0.394976888875291
20
-7.42389186204957
30
0
41
1
10
-0.394976888875291
20
-7.76637138106329
30
0
41
1
10
-0.394976888875291
20
-8.04728288344245
30
0
41
1
10
-0.394976888875291
20
-8.26952736598562
30
0
41
1
10
-0.394976888875291
20
-8.434820354761
30
0
41
1
10
-0.394976888875291
20
-8.59878513137221
30
0
41
1
10
-0.394976888875291
20
-8.76141979186249
30
0
41
1
10
-0.394976888875291
20
-8.922721214403
30
0
41
1
10
-0.394976888875291
20
-9.1360908691222
30
0
41
1
10
-0.394976888875291
20
-9.39928045092248
30
0
41
1
10
-0.394976888875291
20
-9.65799296546987
30
0
41
1
10
-0.394976888875291
20
-9.86240080704218
30
0
41
1
10
-0.394976888875291
20
-10.0143015815252
30
0
41
1
10
-0.394976888875291
20
-10.1648480067744
30
0
41
1
10
-0.394976888875291
20
-10.3140380843155
30
0
41
1
10
-0.394976888875291
20
-10.4618684189216
30
0
41
1
10
-0.394976888875291
20
-10.6572263081632
30
0
41
1
10
-0.394976888875291
20
-10.8496518506122
30
0
41
1
10
-0.394976888875291
20
-11.0395280782787
30
0
41
1
10
-0.394976888875291
20
-11.2275701299333
30
0
41
1
10
-0.394976888875291
20
-11.4590305143918
30
0
41
1
10
-0.394976888875291
20
-11.685867652055
30
0
41
1
10
-0.394976888875291
20
-11.864654349678
30
0
41
1
10
-0.394976888875291
20
-12.0415756040849
30
0
41
1
10
-0.394976888875291
20
-12.2155153161813
30
0
41
1
10
-0.394976888875291
20
-12.3868007979199
30
0
41
1
10
-0.394976888875291
20
-12.5138050519686
30
0
41
1
10
-0.394976888875291
20
-12.6393872302303
30
0
41
1
10
-0.394976888875291
20
-12.8049814458532
30
0
41
1
10
-0.394976888875291
20
-12.9675509360494
30
0
41
1
10
-0.394976888875291
20
-13.1273919665529
30
0
41
1
10
-0.394976888875291
20
-13.2457849051211
30
0
41
1
10
-0.394976888875291
20
-13.3627236547323
30
0
41
1
10
-0.394976888875291
20
-13.5167448476072
30
0
41
1
10
-0.394976888875291
20
-13.6676860552913
30
0
41
1
10
-0.394976888875291
20
-13.8158144768541
30
0
41
1
10
-0.394976888875291
20
-13.9253889718329
30
0
41
1
10
-0.394976888875291
20
-14.0334711580348
30
0
41
1
10
-0.394976888875291
20
-14.1756274475866
30
0
41
1
10
-0.394976888875291
20
-14.3146351237356
30
0
41
1
10
-0.394976888875291
20
-14.4507333681675
30
0
41
1
10
-0.394976888875291
20
-14.5512443837086
30
0
41
1
10
-0.394976888875291
20
-14.6502180419884
30
0
41
1
10
-0.394976888875291
20
-14.780164253239
30
0
41
1
10
-0.394976888875291
20
-14.9068780878822
30
0
41
1
10
-0.394976888875291
20
-15.0305708978545
30
0
41
1
10
-0.394976888875291
20
-15.1065165223896
30
0
41
1
10
-0.394976888875291
20
-15.1665127141503
30
0
41
1
10
-0.394976888875291
20
-15.2259771214207
30
0
41
1
10
-0.394976888875291
20
-15.3286250474485
30
0
41
1
10
-0.394976888875291
20
-15.4426196109061
30
0
41
1
10
-0.394976888875291
20
-15.5534637367265
30
0
41
1
10
-0.394976888875291
20
-15.6349267624759
30
0
41
1
10
-0.394976888875291
20
-15.7147364921469
30
0
41
1
10
-0.394976888875291
20
-15.8189643831875
30
0
41
1
10
-0.394976888875291
20
-15.9197362187748
30
0
41
1
10
-0.394976888875291
20
-16.0172057969154
30
0
41
1
10
-0.394976888875291
20
-16.0885678110446
30
0
41
1
10
-0.394976888875291
20
-16.1582019472912
30
0
41
1
10
-0.394976888875291
20
-16.2260943811825
30
0
41
1
10
-0.394976888875291
20
-16.2922298358683
30
0
41
1
10
-0.394976888875291
20
-16.3565947902754
30
0
41
1
10
-0.394976888875291
20
-16.4191737297992
30
0
41
1
10
-0.394976888875291
20
-16.5002370830775
30
0
41
1
10
-0.394976888875291
20
-16.5775834628441
30
0
41
1
10
-0.394976888875291
20
-16.6513062771915
30
0
41
1
10
-0.394976888875291
20
-16.7225357579897
30
0
41
1
10
-0.394976888875291
20
-16.7899145981056
30
0
41
1
10
-0.394976888875291
20
-16.8535135500206
30
0
41
1
10
-0.394976888875291
20
-16.9145141001581
30
0
41
1
10
-0.394976888875291
20
-16.9715145305624
30
0
41
1
10
-0.394976888875291
20
-17.024552403858
30
0
41
1
10
-0.394976888875291
20
-17.0622798511847
30
0
41
1
10
-0.394976888875291
20
-17.0979462837243
30
0
41
1
10
-0.394976888875291
20
-17.1427382787905
30
0
41
1
10
-0.394976888875291
20
-17.1832568369982
30
0
41
1
10
-0.394976888875291
20
-17.2194882612007
30
0
41
1
10
-0.394976888875291
20
-17.2444531170066
30
0
41
1
10
-0.394976888875291
20
-17.2671905287463
30
0
41
1
10
-0.394976888875291
20
-17.2876678382251
30
0
41
1
10
-0.394976888875291
20
-17.3058521626298
30
0
41
1
10
-0.394976888875291
20
-17.3217086355548
30
0
41
1
10
-0.394976888875291
20
-17.3352007360526
30
0
41
1
10
-0.394976888875291
20
-17.3462909802274
30
0
41
1
10
-0.394976888875291
20
-17.3549392880652
30
0
41
1
10
-0.394976888875291
20
-17.3611046305144
30
0
41
1
10
-0.394976888875291
20
-17.3647432146661
30
0
41
1
10
-0.394976888875291
20
-17.3658102005923
30
0
41
1
10
-0.394976888875291
20
-17.3643150511263
30
0
41
1
10
-0.394976888875291
20
-17.3617494022632
30
0
41
1
10
-0.394976888875291
20
-17.360183859747
30
0
0
SPLINE
5
E0
100
AcDbEntity
8
SK1
62
256
6
ByLayer
370
-1
48
1
60
0
100
AcDbSpline
70
4
71
3
72
106
73
102
40
0
40
0
40
0
40
0
40
0.0075864942082545
40
0.0161184319375677
40
0.0246503696668809
40
0.0331823073961942
40
0.0417142451255074
40
0.0502461828548206
40
0.0587781205841338
40
0.067310058313447
40
0.0758419960427602
40
0.0843739337720734
40
0.0929058715013866
40
0.1014378092307
40
0.109969746960013
40
0.118501684689326
40
0.135565560147953
40
0.144097497877266
40
0.152629435606579
40
0.161161373335892
40
0.169693311065205
40
0.186757186523832
40
0.195289124253145
40
0.203821061982458
40
0.220884937441085
40
0.229416875170398
40
0.237948812899711
40
0.255012688358338
40
0.263544626087651
40
0.272076563816964
40
0.280608501546277
40
0.28914043927559
40
0.297672377004904
40
0.306204314734217
40
0.31473625246353
40
0.323268190192843
40
0.34033206565147
40
0.348864003380783
40
0.357395941110096
40
0.365927878839409
40
0.374459816568723
40
0.391523692027349
40
0.400055629756662
40
0.408587567485975
40
0.417119505215289
40
0.425651442944602
40
0.442715318403228
40
0.451247256132541
40
0.459779193861855
40
0.468311131591168
40
0.476843069320481
40
0.493906944779107
40
0.502438882508421
40
0.510970820237734
40
0.519502757967047
40
0.52803469569636
40
0.545098571154987
40
0.5536305088843
40
0.562162446613613
40
0.570694384342926
40
0.579226322072239
40
0.596290197530866
40
0.604822135260179
40
0.613354072989492
40
0.621886010718805
40
0.630417948448119
40
0.647481823906745
40
0.656013761636058
40
0.664545699365371
40
0.681609574823998
40
0.698673450282624
40
0.707205388011938
40
0.715737325741251
40
0.732801201199877
40
0.74133313892919
40
0.749865076658504
40
0.758397014387817
40
0.76692895211713
40
0.775460889846443
40
0.783992827575756
40
0.801056703034383
40
0.818120578493009
40
0.826652516222323
40
0.835184453951636
40
0.843716391680949
40
0.852248329410262
40
0.860780267139575
40
0.869312204868888
40
0.886376080327515
40
0.903439955786141
40
0.920503831244768
40
0.929035768974081
40
0.937567706703394
40
0.946099644432707
40
0.954631582162021
40
0.963163519891334
40
0.971695457620647
40
0.98022739534996
40
0.988759333079273
40
0.997291270808587
40
1
40
1
40
1
40
1
41
1
10
-0.394976888875277
20
17.3601838878806
30
0
41
1
10
-0.39497688887532
20
17.3617494124845
30
0
41
1
10
-0.394976888875291
20
17.3643151423783
30
0
41
1
10
-0.394976888875291
20
17.3658104187982
30
0
41
1
10
-0.394976888875291
20
17.364743357607
30
0
41
1
10
-0.394976888875291
20
17.3611046370287
30
0
41
1
10
-0.394976888875291
20
17.3549392673806
30
0
41
1
10
-0.394976888875291
20
17.3462909837355
30
0
41
1
10
-0.394976888875291
20
17.3352007293143
30
0
41
1
10
-0.394976888875291
20
17.3217086001335
30
0
41
1
10
-0.394976888875291
20
17.3058521283006
30
0
41
1
10
-0.394976888875291
20
17.2876678324761
30
0
41
1
10
-0.394976888875291
20
17.267190526317
30
0
41
1
10
-0.394976888875291
20
17.2444530966284
30
0
41
1
10
-0.394976888875291
20
17.2194882282903
30
0
41
1
10
-0.394976888875291
20
17.1832568130363
30
0
41
1
10
-0.394976888875291
20
17.1427382851614
30
0
41
1
10
-0.394976888875291
20
17.0979462613767
30
0
41
1
10
-0.394976888875291
20
17.0622798138473
30
0
41
1
10
-0.394976888875291
20
17.0245523789023
30
0
41
1
10
-0.394976888875291
20
16.9715145338597
30
0
41
1
10
-0.394976888875291
20
16.9145140859045
30
0
41
1
10
-0.394976888875291
20
16.8535135157982
30
0
41
1
10
-0.394976888875291
20
16.7899145739052
30
0
41
1
10
-0.394976888875291
20
16.7225357594453
30
0
41
1
10
-0.394976888875291
20
16.6513062647865
30
0
41
1
10
-0.394976888875291
20
16.577583428992
30
0
41
1
10
-0.394976888875291
20
16.5002370605308
30
0
41
1
10
-0.394976888875291
20
16.4191737242595
30
0
41
1
10
-0.394976888875291
20
16.3565947837564
30
0
41
1
10
-0.394976888875291
20
16.2922298184193
30
0
41
1
10
-0.394976888875291
20
16.2260943534788
30
0
41
1
10
-0.394976888875291
20
16.1582019227301
30
0
41
1
10
-0.394976888875291
20
16.0885677968918
30
0
41
1
10
-0.394976888875291
20
16.0172057910894
30
0
41
1
10
-0.394976888875291
20
15.9197362080175
30
0
41
1
10
-0.394976888875291
20
15.8189643575456
30
0
41
1
10
-0.394976888875291
20
15.7147364711228
30
0
41
1
10
-0.394976888875291
20
15.6349267495635
30
0
41
1
10
-0.394976888875291
20
15.553463729323
30
0
41
1
10
-0.394976888875291
20
15.4426195996911
30
0
41
1
10
-0.394976888875291
20
15.3286250260664
30
0
41
1
10
-0.394976888875291
20
15.2112966721243
30
0
41
1
10
-0.394976888875291
20
15.1217290697223
30
0
41
1
10
-0.394976888875291
20
15.0305709686995
30
0
41
1
10
-0.394976888875291
20
14.906878048735
30
0
41
1
10
-0.394976888875291
20
14.7801642402503
30
0
41
1
10
-0.394976888875291
20
14.6502180265082
30
0
41
1
10
-0.394976888875291
20
14.5512443698349
30
0
41
1
10
-0.394976888875291
20
14.4507333574048
30
0
41
1
10
-0.394976888875291
20
14.3146351144528
30
0
41
1
10
-0.394976888875291
20
14.1756274353422
30
0
41
1
10
-0.394976888875291
20
14.0334711437704
30
0
41
1
10
-0.394976888875291
20
13.9253889575191
30
0
41
1
10
-0.394976888875291
20
13.8158144643309
30
0
41
1
10
-0.394976888875291
20
13.6676860465324
30
0
41
1
10
-0.394976888875291
20
13.5167448397425
30
0
41
1
10
-0.394976888875291
20
13.3627236430939
30
0
41
1
10
-0.394976888875291
20
13.2457848907918
30
0
41
1
10
-0.394976888875291
20
13.127391952352
30
0
41
1
10
-0.394976888875291
20
12.9675509274721
30
0
41
1
10
-0.394976888875291
20
12.8049814419576
30
0
41
1
10
-0.394976888875291
20
12.6393872212047
30
0
41
1
10
-0.394976888875291
20
12.5138050377602
30
0
41
1
10
-0.394976888875291
20
12.3868007822861
30
0
41
1
10
-0.394976888875291
20
12.2155153079022
30
0
41
1
10
-0.394976888875291
20
12.0415756036957
30
0
41
1
10
-0.394976888875291
20
11.8646543426879
30
0
41
1
10
-0.394976888875291
20
11.6858676336886
30
0
41
1
10
-0.394976888875291
20
11.4590305058839
30
0
41
1
10
-0.394976888875291
20
11.2275701322441
30
0
41
1
10
-0.394976888875291
20
11.0395280715927
30
0
41
1
10
-0.394976888875291
20
10.8496518299165
30
0
41
1
10
-0.394976888875291
20
10.6572262982852
30
0
41
1
10
-0.394976888875291
20
10.4618684218406
30
0
41
1
10
-0.394976888875291
20
10.3140380853821
30
0
41
1
10
-0.394976888875291
20
10.1648479968029
30
0
41
1
10
-0.394976888875291
20
10.0143015620689
30
0
41
1
10
-0.394976888875291
20
9.86240079247779
30
0
41
1
10
-0.394976888875291
20
9.65799297250354
30
0
41
1
10
-0.394976888875291
20
9.3992804435735
30
0
41
1
10
-0.394976888875291
20
9.13609084815204
30
0
41
1
10
-0.394976888875291
20
8.92272120904667
30
0
41
1
10
-0.394976888875291
20
8.76141979935898
30
0
41
1
10
-0.394976888875291
20
8.59878513251641
30
0
41
1
10
-0.394976888875291
20
8.43482033812748
30
0
41
1
10
-0.394976888875291
20
8.26952734508268
30
0
41
1
10
-0.394976888875291
20
8.04728288893983
30
0
41
1
10
-0.394976888875291
20
7.76637137475095
30
0
41
1
10
-0.394976888875291
20
7.42389184310318
30
0
41
1
10
-0.394976888875291
20
7.13420904829047
30
0
41
1
10
-0.394976888875291
20
6.89966739484251
30
0
41
1
10
-0.394976888875291
20
6.7225342898117
30
0
41
1
10
-0.394976888875291
20
6.54409938064705
30
0
41
1
10
-0.394976888875291
20
6.36436626337326
30
0
41
1
10
-0.394976888875291
20
6.18333822517317
30
0
41
1
10
-0.394976888875291
20
6.0010194773844
30
0
41
1
10
-0.394976888875291
20
5.81741425905383
30
0
41
1
10
-0.394976888875291
20
5.63252720020009
30
0
41
1
10
-0.394976888875291
20
5.48871675629277
30
0
41
1
10
-0.394976888875291
20
5.40659331253005
30
0
41
1
10
-0.394976888875291
20
5.38678223324203
30
0
0
SPLINE
5
E1
100
AcDbEntity
8
SK1
62
256
6
ByLayer
370
-1
48
1
60
0
100
AcDbSpline
70
4
71
3
72
288
73
284
40
0
40
0
40
0
40
0
40
0.0022851307405158
40
0.0057901713241454
40
0.009295211907775
40
0.0128002524914046
40
0.0163052930750342
40
0.0198103336586638
40
0.0233153742422935
40
0.0268204148259231
40
0.0303254554095527
40
0.0338304959931823
40
0.0373355365768119
40
0.0408405771604415
40
0.0443456177440712
40
0.0513556989113304
40
0.05486073949496
40
0.0583657800785896
40
0.0618708206622192
40
0.0653758612458488
40
0.0723859424131081
40
0.0758909829967377
40
0.0793960235803673
40
0.0864061047476265
40
0.0899111453312561
40
0.0934161859148857
40
0.100426267082145
40
0.103931307665775
40
0.107436348249404
40
0.110941388833034
40
0.114446429416663
40
0.117951470000293
40
0.121456510583923
40
0.124961551167552
40
0.128466591751182
40
0.135476672918441
40
0.138981713502071
40
0.1424867540857
40
0.14599179466933
40
0.14949683525296
40
0.156506916420219
40
0.160011957003848
40
0.163516997587478
40
0.167022038171108
40
0.170527078754737
40
0.177537159921997
40
0.181042200505626
40
0.184547241089256
40
0.188052281672885
40
0.191557322256515
40
0.198567403423774
40
0.202072444007404
40
0.205577484591034
40
0.209082525174663
40
0.212587565758293
40
0.219597646925552
40
0.223102687509182
40
0.226607728092811
40
0.230112768676441
40
0.23361780926007
40
0.24062789042733
40
0.244132931010959
40
0.247637971594589
40
0.251143012178218
40
0.254648052761848
40
0.261658133929107
40
0.265163174512737
40
0.268668215096367
40
0.275678296263626
40
0.282688377430885
40
0.286193418014515
40
0.289698458598144
40
0.296708539765404
40
0.300213580349033
40
0.303718620932663
40
0.307223661516292
40
0.310728702099922
40
0.314233742683552
40
0.317738783267181
40
0.324748864434441
40
0.3317589456017
40
0.335263986185329
40
0.338769026768959
40
0.342274067352588
40
0.345779107936218
40
0.349284148519848
40
0.352789189103477
40
0.359799270270737
40
0.366809351437996
40
0.373819432605255
40
0.377324473188885
40
0.380829513772514
40
0.384334554356144
40
0.387839594939773
40
0.391344635523403
40
0.394849676107033
40
0.398354716690662
40
0.401859757274292
40
0.405364797857922
40
0.408869838441551
40
0.412374879025181
40
0.41587991960881
40
0.41938496019244
40
0.42289000077607
40
0.426395041359699
40
0.429900081943329
40
0.433405122526958
40
0.435157642818773
40
0.436910163110588
40
0.438662683402403
40
0.440415203694218
40
0.443920244277847
40
0.447425284861477
40
0.449177805153292
40
0.450930325445106
40
0.452682845736921
40
0.454435366028736
40
0.456187886320551
40
0.457940406612366
40
0.461445447195995
40
0.46319796748781
40
0.464950487779625
40
0.46670300807144
40
0.468455528363254
40
0.470208048655069
40
0.471960568946884
40
0.473713089238699
40
0.475465609530514
40
0.477218129822329
40
0.478970650114143
40
0.480723170405958
40
0.482475690697773
40
0.484228210989588
40
0.485980731281403
40
0.487733251573218
40
0.489485771865032
40
0.491238292156847
40
0.492990812448662
40
0.494743332740477
40
0.496495853032292
40
0.498248373324106
40
0.500000893615921
40
0.501753413907736
40
0.503505934199551
40
0.505258454491366
40
0.50701097478318
40
0.508763495074995
40
0.51051601536681
40
0.512268535658625
40
0.51402105595044
40
0.515773576242255
40
0.517526096534069
40
0.519278616825884
40
0.521031137117699
40
0.522783657409514
40
0.524536177701329
40
0.526288697993143
40
0.528041218284958
40
0.529793738576773
40
0.531546258868588
40
0.533298779160403
40
0.535051299452217
40
0.536803819744032
40
0.538556340035847
40
0.540308860327662
40
0.542061380619477
40
0.543813900911291
40
0.545566421203106
40
0.549071461786736
40
0.550823982078551
40
0.552576502370365
40
0.556081542953995
40
0.559586583537625
40
0.56133910382944
40
0.563091624121254
40
0.564844144413069
40
0.566596664704884
40
0.570101705288514
40
0.573606745872143
40
0.577111786455773
40
0.580616827039402
40
0.584121867623032
40
0.587626908206662
40
0.591131948790291
40
0.594636989373921
40
0.59814202995755
40
0.60164707054118
40
0.60515211112481
40
0.608657151708439
40
0.612162192292069
40
0.615667232875698
40
0.619172273459328
40
0.622677314042958
40
0.626182354626587
40
0.633192435793846
40
0.640202516961106
40
0.647212598128365
40
0.650717638711995
40
0.654222679295624
40
0.657727719879254
40
0.661232760462883
40
0.664737801046513
40
0.668242841630143
40
0.675252922797402
40
0.682263003964661
40
0.685768044548291
40
0.68927308513192
40
0.69277812571555
40
0.69628316629918
40
0.699788206882809
40
0.703293247466439
40
0.710303328633698
40
0.713808369217328
40
0.717313409800957
40
0.724323490968217
40
0.731333572135476
40
0.734838612719105
40
0.738343653302735
40
0.745353734469994
40
0.748858775053624
40
0.752363815637253
40
0.755868856220883
40
0.759373896804513
40
0.766383977971772
40
0.769889018555401
40
0.773394059139031
40
0.776899099722661
40
0.78040414030629
40
0.78741422147355
40
0.790919262057179
40
0.794424302640809
40
0.797929343224438
40
0.801434383808068
40
0.808444464975327
40
0.811949505558957
40
0.815454546142586
40
0.818959586726216
40
0.822464627309846
40
0.829474708477105
40
0.832979749060735
40
0.836484789644364
40
0.838237309936179
40
0.839989830227994
40
0.843494870811623
40
0.850504951978883
40
0.854009992562512
40
0.857515033146142
40
0.861020073729772
40
0.864525114313401
40
0.87153519548066
40
0.87504023606429
40
0.878545276647919
40
0.882050317231549
40
0.885555357815179
40
0.889060398398808
40
0.892565438982438
40
0.896070479566068
40
0.899575520149697
40
0.906585601316957
40
0.910090641900586
40
0.913595682484216
40
0.920605763651475
40
0.924110804235105
40
0.927615844818734
40
0.934625925985993
40
0.938130966569623
40
0.941636007153253
40
0.945141047736882
40
0.948646088320512
40
0.955656169487771
40
0.959161210071401
40
0.96266625065503
40
0.96617129123866
40
0.96967633182229
40
0.973181372405919
40
0.976686412989549
40
0.980191453573178
40
0.983696494156808
40
0.987201534740438
40
0.990706575324067
40
0.994211615907697
40
0.997716656491327
40
1
40
1
40
1
40
1
41
1
10
-30
20
15.9926656712263
30
0
41
1
10
-30
20
15.9930575024726
30
0
41
1
10
-30
20
15.9936130021606
30
0
41
1
10
-30
20
15.992743696334
30
0
41
1
10
-30
20
15.9893850921089
30
0
41
1
10
-30
20
15.9836860314146
30
0
41
1
10
-30
20
15.9756808210229
30
0
41
1
10
-30
20
15.9654018084481
30
0
41
1
10
-30
20
15.9528811264941
30
0
41
1
10
-30
20
15.9381491278438
30
0
41
1
10
-30
20
15.9212355486336
30
0
41
1
10
-30
20
15.9021692443494
30
0
41
1
10
-30
20
15.8809772874923
30
0
41
1
10
-30
20
15.85768719628
30
0
41
1
10
-30
20
15.8237020449635
30
0
41
1
10
-30
20
15.786151572388
30
0
41
1
10
-30
20
15.7440467976174
30
0
41
1
10
-30
20
15.7106366986067
30
0
41
1
10
-30
20
15.6752710038507
30
0
41
1
10
-30
20
15.6253102414823
30
0
41
1
10
-30
20
15.5722298833996
30
0
41
1
10
-30
20
15.5146768571488
30
0
41
1
10
-30
20
15.454635155867
30
0
41
1
10
-30
20
15.3917322415494
30
0
41
1
10
-30
20
15.3243986601424
30
0
41
1
10
-30
20
15.2546726017927
30
0
41
1
10
-30
20
15.1823145630236
30
0
41
1
10
-30
20
15.1055630554725
30
0
41
1
10
-30
20
15.0465122402176
30
0
41
1
10
-30
20
14.985753516587
30
0
41
1
10
-30
20
14.9233034368069
30
0
41
1
10
-30
20
14.8591738020485
30
0
41
1
10
-30
20
14.7933781380804
30
0
41
1
10
-30
20
14.7259318150055
30
0
41
1
10
-30
20
14.6334478809413
30
0
41
1
10
-30
20
14.5388306139923
30
0
41
1
10
-30
20
14.4398724968665
30
0
41
1
10
-30
20
14.3643499358607
30
0
41
1
10
-30
20
14.2872489988171
30
0
41
1
10
-30
20
14.1819460940194
30
0
41
1
10
-30
20
14.0747689624993
30
0
41
1
10
-30
20
13.9632604256822
30
0
41
1
10
-30
20
13.8784200007502
30
0
41
1
10
-30
20
13.7920640526129
30
0
41
1
10
-30
20
13.674463030797
30
0
41
1
10
-30
20
13.5552283874056
30
0
41
1
10
-30
20
13.4316550911985
30
0
41
1
10
-30
20
13.337853067095
30
0
41
1
10
-30
20
13.2425907988595
30
0
41
1
10
-30
20
13.1131460860381
30
0
41
1
10
-30
20
12.9822967545723
30
0
41
1
10
-30
20
12.847084683004
30
0
41
1
10
-30
20
12.7446351532221
30
0
41
1
10
-30
20
12.6407746180399
30
0
41
1
10
-30
20
12.499887311655
30
0
41
1
10
-30
20
12.3578191289812
30
0
41
1
10
-30
20
12.2113468162578
30
0
41
1
10
-30
20
12.100530667573
30
0
41
1
10
-30
20
11.9883478761207
30
0
41
1
10
-30
20
11.836377249174
30
0
41
1
10
-30
20
11.6834503922585
30
0
41
1
10
-30
20
11.5260594948948
30
0
41
1
10
-30
20
11.4071324366749
30
0
41
1
10
-30
20
11.2868794886981
30
0
41
1
10
-30
20
11.1241532157817
30
0
41
1
10
-30
20
10.9607029988619
30
0
41
1
10
-30
20
10.7927086404326
30
0
41
1
10
-30
20
10.6229844866849
30
0
41
1
10
-30
20
10.4091173939315
30
0
41
1
10
-30
20
10.1909959678347
30
0
41
1
10
-30
20
10.0126979588287
30
0
41
1
10
-30
20
9.83272430289384
30
0
41
1
10
-30
20
9.65245023276196
30
0
41
1
10
-30
20
9.46744871362009
30
0
41
1
10
-30
20
9.32804093460692
30
0
41
1
10
-30
20
9.18740563851225
30
0
41
1
10
-30
20
9.0455543785921
30
0
41
1
10
-30
20
8.90249044231982
30
0
41
1
10
-30
20
8.70931958714519
30
0
41
1
10
-30
20
8.46674616603482
30
0
41
1
10
-30
20
8.22021686294167
30
0
41
1
10
-30
20
8.01906836645577
30
0
41
1
10
-30
20
7.86773085832667
30
0
41
1
10
-30
20
7.71524241280142
30
0
41
1
10
-30
20
7.56161298420645
30
0
41
1
10
-30
20
7.40685260452798
30
0
41
1
10
-30
20
7.19804202206524
30
0
41
1
10
-30
20
6.93651252502835
30
0
41
1
10
-30
20
6.61705894701072
30
0
41
1
10
-30
20
6.34834996432815
30
0
41
1
10
-30
20
6.12929373929515
30
0
41
1
10
-30
20
5.96484945115367
30
0
41
1
10
-30
20
5.7993974381898
30
0
41
1
10
-30
20
5.63295542814623
30
0
41
1
10
-30
20
5.46554083189747
30
0
41
1
10
-30
20
5.29717335727497
30
0
41
1
10
-30
20
5.12787591307327
30
0
41
1
10
-30
20
4.9576706384986
30
0
41
1
10
-30
20
4.78658071628459
30
0
41
1
10
-30
20
4.6146335506248
30
0
41
1
10
-30
20
4.44186113006069
30
0
41
1
10
-30
20
4.26829321973949
30
0
41
1
10
-30
20
4.09396155182321
30
0
41
1
10
-30
20
3.91890592173868
30
0
41
1
10
-30
20
3.74316620306936
30
0
41
1
10
-30
20
3.56678705857649
30
0
41
1
10
-30
20
3.42015123791836
30
0
41
1
10
-30
20
3.3009810984795
30
0
41
1
10
-30
20
3.21216327477833
30
0
41
1
10
-30
20
3.12322377081893
30
0
41
1
10
-30
20
3.00356413190352
30
0
41
1
10
-30
20
2.85589664233001
30
0
41
1
10
-30
20
2.70788037697056
30
0
41
1
10
-30
20
2.58749550859633
30
0
41
1
10
-30
20
2.49793822974365
30
0
41
1
10
-30
20
2.40833000131903
30
0
41
1
10
-30
20
2.31867596083524
30
0
41
1
10
-30
20
2.22899146909501
30
0
41
1
10
-30
20
2.10827328924756
30
0
41
1
10
-30
20
1.99097459417121
30
0
41
1
10
-30
20
1.87012467714987
30
0
41
1
10
-30
20
1.78043031683035
30
0
41
1
10
-30
20
1.69076251244053
30
0
41
1
10
-30
20
1.60113247848605
30
0
41
1
10
-30
20
1.51155313609783
30
0
41
1
10
-30
20
1.422025757727
30
0
41
1
10
-30
20
1.33256776537959
30
0
41
1
10
-30
20
1.24317741509074
30
0
41
1
10
-30
20
1.15386860885192
30
0
41
1
10
-30
20
1.06464013673647
30
0
41
1
10
-30
20
0.975500136218244
30
0
41
1
10
-30
20
0.886447988926847
30
0
41
1
10
-30
20
0.797485776681128
30
0
41
1
10
-30
20
0.708610852102623
30
0
41
1
10
-30
20
0.61982073744278
30
0
41
1
10
-30
20
0.531109764951225
30
0
41
1
10
-30
20
0.442471434007643
30
0
41
1
10
-30
20
0.35389600796347
30
0
41
1
10
-30
20
0.265373879214224
30
0
41
1
10
-30
20
0.176892371692162
30
0
41
1
10
-30
20
0.0884392148653887
30
0
41
1
10
-30
20
2.04973958E-08
30
0
41
1
10
-30
20
-0.0884392031952927
30
0
41
1
10
-30
20
-0.17689241471993
30
0
41
1
10
-30
20
-0.265373915570137
30
0
41
1
10
-30
20
-0.353895962579486
30
0
41
1
10
-30
20
-0.442471374506823
30
0
41
1
10
-30
20
-0.531109813902646
30
0
41
1
10
-30
20
-0.61982082298212
30
0
41
1
10
-30
20
-0.70861080655007
30
0
41
1
10
-30
20
-0.797485667180155
30
0
41
1
10
-30
20
-0.886448026006832
30
0
41
1
10
-30
20
-0.97550027278379
30
0
41
1
10
-30
20
-1.06464012636249
30
0
41
1
10
-30
20
-1.1538684580087
30
0
41
1
10
-30
20
-1.24317738635406
30
0
41
1
10
-30
20
-1.33256791795026
30
0
41
1
10
-30
20
-1.42202585063245
30
0
41
1
10
-30
20
-1.5115530207047
30
0
41
1
10
-30
20
-1.60113232466117
30
0
41
1
10
-30
20
-1.69076256252157
30
0
41
1
10
-30
20
-1.78043050963589
30
0
41
1
10
-30
20
-1.87012473193457
30
0
41
1
10
-30
20
-1.95984062320625
30
0
41
1
10
-30
20
-2.04956121840735
30
0
41
1
10
-30
20
-2.13928298465069
30
0
41
1
10
-30
20
-2.22899154181988
30
0
41
1
10
-30
20
-2.34971237639812
30
0
41
1
10
-30
20
-2.4670581044816
30
0
41
1
10
-30
20
-2.58749567267543
30
0
41
1
10
-30
20
-2.70788056755165
30
0
41
1
10
-30
20
-2.85589666602098
30
0
41
1
10
-30
20
-3.00356394920902
30
0
41
1
10
-30
20
-3.12322374659235
30
0
41
1
10
-30
20
-3.21216341650842
30
0
41
1
10
-30
20
-3.3009812939207
30
0
41
1
10
-30
20
-3.4201512431562
30
0
41
1
10
-30
20
-3.56678672363677
30
0
41
1
10
-30
20
-3.74316585626101
30
0
41
1
10
-30
20
-3.91890584757377
30
0
41
1
10
-30
20
-4.09396100129445
30
0
41
1
10
-30
20
-4.26829259541552
30
0
41
1
10
-30
20
-4.44186183082067
30
0
41
1
10
-30
20
-4.61463414914383
30
0
41
1
10
-30
20
-4.78658021025493
30
0
41
1
10
-30
20
-4.95767123056282
30
0
41
1
10
-30
20
-5.1278778625566
30
0
41
1
10
-30
20
-5.29717415068043
30
0
41
1
10
-30
20
-5.46553992297876
30
0
41
1
10
-30
20
-5.63295448869491
30
0
41
1
10
-30
20
-5.79939725011727
30
0
41
1
10
-30
20
-5.96484950556561
30
0
41
1
10
-30
20
-6.1292936535483
30
0
41
1
10
-30
20
-6.34834993475852
30
0
41
1
10
-30
20
-6.6170590196507
30
0
41
1
10
-30
20
-6.93651248001379
30
0
41
1
10
-30
20
-7.19804203228608
30
0
41
1
10
-30
20
-7.40685270744595
30
0
41
1
10
-30
20
-7.56161297986856
30
0
41
1
10
-30
20
-7.71524232371232
30
0
41
1
10
-30
20
-7.86773082006812
30
0
41
1
10
-30
20
-8.01906843480592
30
0
41
1
10
-30
20
-8.22021692135615
30
0
41
1
10
-30
20
-8.46674612315107
30
0
41
1
10
-30
20
-8.7093195790371
30
0
41
1
10
-30
20
-8.90249052457438
30
0
41
1
10
-30
20
-9.04555441784282
30
0
41
1
10
-30
20
-9.18740560593943
30
0
41
1
10
-30
20
-9.32804088163152
30
0
41
1
10
-30
20
-9.46744870809565
30
0
41
1
10
-30
20
-9.65245029192155
30
0
41
1
10
-30
20
-9.83272433616031
30
0
41
1
10
-30
20
-10.0126979221092
30
0
41
1
10
-30
20
-10.1909959517429
30
0
41
1
10
-30
20
-10.4091174330404
30
0
41
1
10
-30
20
-10.6229845090751
30
0
41
1
10
-30
20
-10.7927086151923
30
0
41
1
10
-30
20
-10.9607029915804
30
0
41
1
10
-30
20
-11.1241532476502
30
0
41
1
10
-30
20
-11.286879520772
30
0
41
1
10
-30
20
-11.4071324437642
30
0
41
1
10
-30
20
-11.526059483736
30
0
41
1
10
-30
20
-11.6834503898541
30
0
41
1
10
-30
20
-11.8363772717575
30
0
41
1
10
-30
20
-11.9883479026383
30
0
41
1
10
-30
20
-12.100530681097
30
0
41
1
10
-30
20
-12.211346817793
30
0
41
1
10
-30
20
-12.3578191303265
30
0
41
1
10
-30
20
-12.4998873251013
30
0
41
1
10
-30
20
-12.640774639564
30
0
41
1
10
-30
20
-12.7446351726738
30
0
41
1
10
-30
20
-12.8470846962099
30
0
41
1
10
-30
20
-12.9822967603461
30
0
41
1
10
-30
20
-13.1131460918651
30
0
41
1
10
-30
20
-13.2425908150843
30
0
41
1
10
-30
20
-13.3378530905647
30
0
41
1
10
-30
20
-13.431655102243
30
0
41
1
10
-30
20
-13.5552284439381
30
0
41
1
10
-30
20
-13.6744629632361
30
0
41
1
10
-30
20
-13.7920640428987
30
0
41
1
10
-30
20
-13.8638084100541
30
0
41
1
10
-30
20
-13.9208384799595
30
0
41
1
10
-30
20
-13.9773600368974
30
0
41
1
10
-30
20
-14.0747689786766
30
0
41
1
10
-30
20
-14.1819460903518
30
0
41
1
10
-30
20
-14.2872490063531
30
0
41
1
10
-30
20
-14.3643499644422
30
0
41
1
10
-30
20
-14.4398725346097
30
0
41
1
10
-30
20
-14.5388306330265
30
0
41
1
10
-30
20
-14.6334478734244
30
0
41
1
10
-30
20
-14.7259318226356
30
0
41
1
10
-30
20
-14.793378171537
30
0
41
1
10
-30
20
-14.8591738437125
30
0
41
1
10
-30
20
-14.9233034607296
30
0
41
1
10
-30
20
-14.9857535133679
30
0
41
1
10
-30
20
-15.0465122321639
30
0
41
1
10
-30
20
-15.1055630695376
30
0
41
1
10
-30
20
-15.1823146060513
30
0
41
1
10
-30
20
-15.2546726312332
30
0
41
1
10
-30
20
-15.3243986497297
30
0
41
1
10
-30
20
-15.3917322452796
30
0
41
1
10
-30
20
-15.4546352005829
30
0
41
1
10
-30
20
-15.5146768877911
30
0
41
1
10
-30
20
-15.5722298782127
30
0
41
1
10
-30
20
-15.6253102421943
30
0
41
1
10
-30
20
-15.6752710489662
30
0
41
1
10
-30
20
-15.7106367362118
30
0
41
1
10
-30
20
-15.7440468008705
30
0
41
1
10
-30
20
-15.7861515665346
30
0
41
1
10
-30
20
-15.8237020814765
30
0
41
1
10
-30
20
-15.8576872273509
30
0
41
1
10
-30
20
-15.8809772969169
30
0
41
1
10
-30
20
-15.9021692417172
30
0
41
1
10
-30
20
-15.921235563756
30
0
41
1
10
-30
20
-15.9381491696965
30
0
41
1
10
-30
20
-15.9528811556007
30
0
41
1
10
-30
20
-15.9654018081648
30
0
41
1
10
-30
20
-15.9756808201301
30
0
41
1
10
-30
20
-15.9836860510364
30
0
41
1
10
-30
20
-15.989385071505
30
0
41
1
10
-30
20
-15.992743547039
30
0
41
1
10
-30
20
-15.9936126285571
30
0
41
1
10
-30
20
-15.9930576923951
30
0
41
1
10
-30
20
-15.9926664681477
30
0
0
SPLINE
5
E2
100
AcDbEntity
8
1
62
256
6
ByLayer
370
-1
48
1
60
0
100
AcDbSpline
70
4
71
3
72
14
73
10
40
0
40
0
40
0
40
0
40
0.282327806953573
40
0.282327806953573
40
0.567040357098372
40
0.567040357098372
40
0.824646052553944
40
0.824646052553944
40
1
40
1
40
1
40
1
41
1
10
45.8958205288704
20
30.7268322289993
30
0
41
1
10
45.8653182673839
20
30.7409494741804
30
0
41
1
10
45.8313626384296
20
30.7501098391949
30
0
41
1
10
45.761455767675
20
30.7557145714243
30
0
41
1
10
45.7244008905429
20
30.7520752764232
30
0
41
1
10
45.6572763772313
20
30.7319145025081
30
0
41
1
10
45.6258798474792
20
30.7162886369794
30
0
41
1
10
45.5796296115817
20
30.681732231603
30
0
41
1
10
45.5622934282369
20
30.6651838445164
30
0
41
1
10
45.547342494327
20
30.6469434423181
30
0
0
SPLINE
5
E3
100
AcDbEntity
8
1
62
256
6
ByLayer
370
-1
48
1
60
0
100
AcDbSpline
70
4
71
3
72
14
73
10
40
0
40
0
40
0
40
0
40
0.282327806953568
40
0.282327806953568
40
0.567040357098367
40
0.567040357098367
40
0.824646052553938
40
0.824646052553938
40
1
40
1
40
1
40
1
41
1
10
47.7920632036155
20
28.4415125424365
30
0
41
1
10
47.822565465102
20
28.4273952972553
30
0
41
1
10
47.8565210940564
20
28.4182349322408
30
0
41
1
10
47.926427964811
20
28.4126302000114
30
0
41
1
10
47.963482841943
20
28.4162694950125
30
0
41
1
10
48.0306073552546
20
28.4364302689276
30
0
41
1
10
48.0620038850067
20
28.4520561344563
30
0
41
1
10
48.1082541209043
20
28.4866125398327
30
0
41
1
10
48.1255903042491
20
28.5031609269193
30
0
41
1
10
48.140541238159
20
28.5214013291177
30
0
0
SPLINE
5
E4
100
AcDbEntity
8
1
62
256
6
ByLayer
370
-1
48
1
60
0
100
AcDbSpline
70
4
71
3
72
18
73
14
40
0
40
0
40
0
40
0
40
0.212496242261601
40
0.212496242261601
40
0.386622029784713
40
0.386622029784713
40
0.562429266891299
40
0.562429266891299
40
0.715391167688989
40
0.715391167688989
40
0.918252772018725
40
0.918252772018725
40
1
40
1
40
1
40
1
41
1
10
47.3669152565761
20
30.977032340618
30
0
41
1
10
47.3737187527355
20
30.9063843997121
30
0
41
1
10
47.3918854246603
20
30.8344237822995
30
0
41
1
10
47.4469436755532
20
30.7096389051115
30
0
41
1
10
47.4806303027603
20
30.6543625754954
30
0
41
1
10
47.5635184515532
20
30.55452567778
30
0
41
1
10
47.6142409808655
20
30.508715414308
30
0
41
1
10
47.7166851524424
20
30.4403250808886
30
0
41
1
10
47.7685932123023
20
30.4146115884167
30
0
41
1
10
47.8897830156844
20
30.3717010069189
30
0
41
1
10
47.9612288661144
20
30.3590417812928
30
0
41
1
10
48.0582250732534
20
30.3562683760861
30
0
41
1
10
48.0861133305094
20
30.3571992814223
30
0
41
1
10
48.1135923092953
20
30.35976749492
30
0
0
SPLINE
5
E5
100
AcDbEntity
8
1
62
256
6
ByLayer
370
-1
48
1
60
0
100
AcDbSpline
70
4
71
3
72
16
73
12
40
0
40
0
40
0
40
0
40
0.0627989567307707
40
0.0627989567307707
40
0.285675216612741
40
0.285675216612741
40
0.511338873430779
40
0.511338873430779
40
0.751452088491952
40
0.751452088491952
40
1
40
1
40
1
40
1
41
1
10
48.4142727915179
20
30.1712950603994
30
0
41
1
10
48.4113305530662
20
30.1791644346027
30
0
41
1
10
48.408044425565
20
30.186915430407
30
0
41
1
10
48.3917224626187
20
30.2212182586598
30
0
41
1
10
48.3746925024736
20
30.2462080869174
30
0
41
1
10
48.3348114048657
20
30.2892192627515
30
0
41
1
10
48.3113998873311
20
30.3077131226394
30
0
41
1
10
48.2601955376896
20
30.337229488674
30
0
41
1
10
48.2315928901074
20
30.3480951023511
30
0
41
1
10
48.1732389207481
20
30.3608097221301
30
0
41
1
10
48.1428305876168
20
30.362500134354
30
0
41
1
10
48.1135923092953
20
30.35976749492
30
0
0
SPLINE
5
E6
100
AcDbEntity
8
1
62
256
6
ByLayer
370
-1
48
1
60
0
100
AcDbSpline
70
4
71
3
72
18
73
14
40
0
40
0
40
0
40
0
40
0.212462773214204
40
0.212462773214204
40
0.386594404082527
40
0.386594404082527
40
0.562407877450744
40
0.562407877450744
40
0.715370920128882
40
0.715370920128882
40
0.918226546078023
40
0.918226546078023
40
1
40
1
40
1
40
1
41
1
10
48.3109953933816
20
29.8317889632553
30
0
41
1
10
48.2533385574728
20
29.7904184325198
30
0
41
1
10
48.200254479965
20
29.7385669873367
30
0
41
1
10
48.1200250059058
20
29.6282816154788
30
0
41
1
10
48.0891527117398
20
29.5713837972174
30
0
41
1
10
48.044468485783
20
29.4495555490594
30
0
41
1
10
48.0303401514583
20
29.382681961109
30
0
41
1
10
48.0226729223328
20
29.2597428665784
30
0
41
1
10
48.0265177888224
20
29.2019419497863
30
0
41
1
10
48.0502994384181
20
29.0755991558467
30
0
41
1
10
48.0752463931827
20
29.0074655365231
30
0
41
1
10
48.1215810419996
20
28.92219812408
30
0
41
1
10
48.1364017447234
20
28.8985449632797
30
0
41
1
10
48.1524332436606
20
28.8760690484958
30
0
0
SPLINE
5
E7
100
AcDbEntity
8
1
62
256
6
ByLayer
370
-1
48
1
60
0
100
AcDbSpline
70
4
71
3
72
12
73
8
40
0
40
0
40
0
40
0
40
0.495889931782256
40
0.495889931782256
40
0.900331235330534
40
0.900331235330534
40
1
40
1
40
1
40
1
41
1
10
45.8958205288704
20
30.7268322289992
30
0
41
1
10
45.9605620455154
20
30.696868160129
30
0
41
1
10
46.0322125482144
20
30.6761561732082
30
0
41
1
10
46.1681215733022
20
30.6608200066576
30
0
41
1
10
46.2328516548944
20
30.6620759162777
30
0
41
1
10
46.3126625183338
20
30.6753751904946
30
0
41
1
10
46.3286163421901
20
30.6786149750905
30
0
41
1
10
46.3444715477441
20
30.682430848439
30
0
0
SPLINE
5
E8
100
AcDbEntity
8
1
62
256
6
ByLayer
370
-1
48
1
60
0
100
AcDbSpline
70
4
71
3
72
14
73
10
40
0
40
0
40
0
40
0
40
0.283977000840762
40
0.283977000840762
40
0.570298525672826
40
0.570298525672826
40
0.829462894104633
40
0.829462894104633
40
1
40
1
40
1
40
1
41
1
10
46.3209684759099
20
28.1913124308176
30
0
41
1
10
46.3241824147104
20
28.1579386839774
30
0
41
1
10
46.3333907729064
20
28.124079838918
30
0
41
1
10
46.3637402867122
20
28.0610356750093
30
0
41
1
10
46.3855056260608
20
28.030942035142
30
0
41
1
10
46.4365991167098
20
27.9832204391087
30
0
41
1
10
46.4658268278845
20
27.964004522622
30
0
41
1
10
46.5180887242296
20
27.9417683014104
30
0
41
1
10
46.5402206387351
20
27.9352569146089
30
0
41
1
10
46.5626264459795
20
27.9314431627893
30
0
0
SPLINE
5
E9
100
AcDbEntity
8
SK1
62
256
6
ByLayer
370
-1
48
1
60
0
100
AcDbSpline
70
4
71
3
72
24
73
20
40
0
40
0
40
0
40
0
40
0.469770575826712
40
0.469770575826712
40
0.663612078687295
40
0.663612078687295
40
0.860454184613411
40
0.860454184613411
40
0.903064590395674
40
0.903064590395674
40
0.923089343972159
40
0.923089343972159
40
0.943389594779288
40
0.943389594779288
40
0.961332284531898
40
0.961332284531898
40
0.988068136377815
40
0.988068136377815
40
1
40
1
40
1
40
1
41
1
10
-0.199999999999989
20
-6.10344849123027
30
0
41
1
10
-0.199999999999989
20
-5.97798788494984
30
0
41
1
10
-0.204016575726513
20
-5.8509635670122
30
0
41
1
10
-0.223752631922082
20
-5.67079358995508
30
0
41
1
10
-0.231244965282215
20
-5.61789623093799
30
0
41
1
10
-0.253819137983143
20
-5.51250015101135
30
0
41
1
10
-0.267096215270385
20
-5.45724004647028
30
0
41
1
10
-0.303692478692526
20
-5.40035311573845
30
0
41
1
10
-0.311479622041318
20
-5.39039941672755
30
0
41
1
10
-0.325477757614365
20
-5.37891036834915
30
0
41
1
10
-0.330455622185014
20
-5.3756771312581
30
0
41
1
10
-0.341078704143143
20
-5.37102422840917
30
0
41
1
10
-0.346883276538151
20
-5.36960762575521
30
0
41
1
10
-0.357630415747778
20
-5.36914354197148
30
0
41
1
10
-0.362713068049587
20
-5.36981917830482
30
0
41
1
10
-0.374583401808834
20
-5.37316903610403
30
0
41
1
10
-0.3812109954861
20
-5.37664910167555
30
0
41
1
10
-0.38989246528871
20
-5.38265091141974
30
0
41
1
10
-0.392483363308571
20
-5.38466360919151
30
0
41
1
10
-0.394976888875334
20
-5.38678189578178
30
0
0
SPLINE
5
EA
100
AcDbEntity
8
1
62
256
6
ByLayer
370
-1
48
1
60
0
100
AcDbSpline
70
4
71
3
72
18
73
14
40
0
40
0
40
0
40
0
40
0.212496242261603
40
0.212496242261603
40
0.38662202978472
40
0.38662202978472
40
0.562429266891309
40
0.562429266891309
40
0.715391167689
40
0.715391167689
40
0.918252772018737
40
0.918252772018737
40
1
40
1
40
1
40
1
41
1
10
46.3209684759099
20
28.1913124308176
30
0
41
1
10
46.3141649797504
20
28.2619603717236
30
0
41
1
10
46.2959983078257
20
28.3339209891362
30
0
41
1
10
46.2409400569327
20
28.4587058663242
30
0
41
1
10
46.2072534297257
20
28.5139821959403
30
0
41
1
10
46.1243652809328
20
28.6138190936557
30
0
41
1
10
46.0736427516205
20
28.6596293571277
30
0
41
1
10
45.9711985800435
20
28.7280196905471
30
0
41
1
10
45.9192905201837
20
28.7537331830189
30
0
41
1
10
45.7981007168016
20
28.7966437645168
30
0
41
1
10
45.7266548663715
20
28.8093029901429
30
0
41
1
10
45.6296586592326
20
28.8120763953496
30
0
41
1
10
45.6017704019765
20
28.8111454900134
30
0
41
1
10
45.5742914231907
20
28.8085772765157
30
0
0
SPLINE
5
EB
100
AcDbEntity
8
1
62
256
6
ByLayer
370
-1
48
1
60
0
100
AcDbSpline
70
4
71
3
72
12
73
8
40
0
40
0
40
0
40
0
40
0.422118773115145
40
0.422118773115145
40
0.843213897189599
40
0.843213897189599
40
1
40
1
40
1
40
1
41
1
10
46.5003745200175
20
30.7407205812582
30
0
41
1
10
46.5606638419536
20
30.7720623931581
30
0
41
1
10
46.615962638159
20
30.8125878470722
30
0
41
1
10
46.708817397968
20
30.9029341769655
30
0
41
1
10
46.7478227608793
20
30.9538594049265
30
0
41
1
10
46.7900710675655
20
31.0272781151297
30
0
41
1
10
46.8005113926028
20
31.0477673587431
30
0
41
1
10
46.809845815522
20
31.06857228034
30
0
0
SPLINE
5
EC
100
AcDbEntity
8
SK1
62
256
6
ByLayer
370
-1
48
1
60
0
100
AcDbSpline
70
4
71
3
72
22
73
18
40
0
40
0
40
0
40
0
40
0.359503326352592
40
0.359503326352592
40
0.722215553677066
40
0.722215553677066
40
0.826527133697721
40
0.826527133697721
40
0.863141914878009
40
0.863141914878009
40
0.900378805007221
40
0.900378805007221
40
0.933500873078508
40
0.933500873078508
40
0.972947835056124
40
0.972947835056124
40
1
40
1
40
1
40
1
41
1
10
-1.30710678118655
20
3.91806548153781
30
0
41
1
10
-1.26486058419175
20
4.15139729989579
30
0
41
1
10
-1.21446435132795
20
4.3814323255595
30
0
41
1
10
-1.08204001032738
20
4.82987250608483
30
0
41
1
10
-1.00537527699572
20
5.05527264511531
30
0
41
1
10
-0.832356114396674
20
5.30654108347395
30
0
41
1
10
-0.787238294886336
20
5.36152992388779
30
0
41
1
10
-0.709490490588578
20
5.41877880440927
30
0
41
1
10
-0.687203973712826
20
5.43218986569767
30
0
41
1
10
-0.639076749164033
20
5.45244590583036
30
0
41
1
10
-0.612446414061694
20
5.45928056674788
30
0
41
1
10
-0.562058433231044
20
5.46233960302246
30
0
41
1
10
-0.537713914852588
20
5.45964677314575
30
0
41
1
10
-0.48805385269695
20
5.44628701250068
30
0
41
1
10
-0.462609559288765
20
5.43420976008088
30
0
41
1
10
-0.423860760477325
20
5.40985221311715
30
0
41
1
10
-0.408979654247759
20
5.39867780521598
30
0
41
1
10
-0.394976888875405
20
5.38678223323953
30
0
0
SPLINE
5
ED
100
AcDbEntity
8
1
62
256
6
ByLayer
370
-1
48
1
60
0
100
AcDbSpline
70
4
71
3
72
16
73
12
40
0
40
0
40
0
40
0
40
0.0570588531353462
40
0.0570588531353462
40
0.280018610133935
40
0.280018610133935
40
0.505438197806976
40
0.505438197806976
40
0.745040834370497
40
0.745040834370497
40
1
40
1
40
1
40
1
41
1
10
48.140541238159
20
28.5214013291177
30
0
41
1
10
48.1453834237457
20
28.5273088806561
30
0
41
1
10
48.1499978415013
20
28.533412414185
30
0
41
1
10
48.1712765335389
20
28.563979085685
30
0
41
1
10
48.1845512116909
20
28.5911812382067
30
0
41
1
10
48.2021336286997
20
28.6471588608911
30
0
41
1
10
48.2065871052964
20
28.6766543443605
30
0
41
1
10
48.2068341972687
20
28.7357185636611
30
0
41
1
10
48.2021002361954
20
28.7659147900829
30
0
41
1
10
48.1840004547165
20
28.8236344032359
30
0
41
1
10
48.1699168903462
20
28.8515572449173
30
0
41
1
10
48.1524332436606
20
28.8760690484958
30
0
0
SPLINE
5
EE
100
AcDbEntity
8
1
62
256
6
ByLayer
370
-1
48
1
60
0
100
AcDbSpline
70
4
71
3
72
14
73
10
40
0
40
0
40
0
40
0
40
0.283977000840767
40
0.283977000840767
40
0.570298525672829
40
0.570298525672829
40
0.829462894104601
40
0.829462894104601
40
1
40
1
40
1
40
1
41
1
10
47.3669152565761
20
30.977032340618
30
0
41
1
10
47.3637013177756
20
31.0104060874583
30
0
41
1
10
47.3544929595795
20
31.0442649325177
30
0
41
1
10
47.3241434457737
20
31.1073090964264
30
0
41
1
10
47.3023781064251
20
31.1374027362937
30
0
41
1
10
47.2512846157761
20
31.185124332327
30
0
41
1
10
47.2220569046015
20
31.2043402488137
30
0
41
1
10
47.1697950082563
20
31.2265764700253
30
0
41
1
10
47.1476630937508
20
31.2330878568268
30
0
41
1
10
47.1252572865064
20
31.2369016086464
30
0
0
SPLINE
5
EF
100
AcDbEntity
8
1
62
256
6
ByLayer
370
-1
48
1
60
0
100
AcDbSpline
70
4
71
3
72
12
73
8
40
0
40
0
40
0
40
0
40
0.495889931782324
40
0.495889931782324
40
0.90033123533067
40
0.90033123533067
40
1
40
1
40
1
40
1
41
1
10
47.7920632036155
20
28.4415125424364
30
0
41
1
10
47.7273216869706
20
28.4714766113067
30
0
41
1
10
47.6556711842716
20
28.4921885982275
30
0
41
1
10
47.5197621591838
20
28.5075247647781
30
0
41
1
10
47.4550320775915
20
28.506268855158
30
0
41
1
10
47.3752212141522
20
28.4929695809411
30
0
41
1
10
47.3592673902959
20
28.4897297963452
30
0
41
1
10
47.3434121847419
20
28.4859139229967
30
0
0
SPLINE
5
F0
100
AcDbEntity
8
1
62
256
6
ByLayer
370
-1
48
1
60
0
100
AcDbSpline
70
4
71
3
72
16
73
12
40
0
40
0
40
0
40
0
40
0.0624550825589817
40
0.0624550825589817
40
0.283215118569502
40
0.283215118569502
40
0.506750443118235
40
0.506750443118235
40
0.744609991968485
40
0.744609991968485
40
1
40
1
40
1
40
1
41
1
10
47.1252572865064
20
31.2369016086464
30
0
41
1
10
47.1169417476583
20
31.2383170185474
30
0
41
1
10
47.108555181558
20
31.2393727462442
30
0
41
1
10
47.0706617731052
20
31.2424841584533
30
0
41
1
10
47.0405007358204
20
31.2403045680854
30
0
41
1
10
46.9832803575176
20
31.2274127224449
30
0
41
1
10
46.9555312680135
20
31.2164525873904
30
0
41
1
10
46.9042933119106
20
31.186991191127
30
0
41
1
10
46.8805337999681
20
31.1677104808827
30
0
41
1
10
46.8394901002138
20
31.1228116046891
30
0
41
1
10
46.8222918277519
20
31.0963124321284
30
0
41
1
10
46.809845815522
20
31.06857228034
30
0
0
SPLINE
5
F1
100
AcDbEntity
8
SK1
62
256
6
ByLayer
370
-1
48
1
60
0
100
AcDbSpline
70
4
71
3
72
22
73
18
40
0
40
0
40
0
40
0
40
0.0394331151890913
40
0.0394331151890913
40
0.0795339708694828
40
0.0795339708694828
40
0.109637917244288
40
0.109637917244288
40
0.13957706301322
40
0.13957706301322
40
0.189266399657458
40
0.189266399657458
40
0.289571152403382
40
0.289571152403382
40
0.658284396834382
40
0.658284396834382
40
1
40
1
40
1
40
1
41
1
10
-0.394976888875291
20
-5.38678189578292
30
0
41
1
10
-0.415237014773382
20
-5.40399317028476
30
0
41
1
10
-0.437419275645468
20
-5.41977813092004
30
0
41
1
10
-0.486103141154984
20
-5.44521655864725
30
0
41
1
10
-0.51341298093098
20
-5.45496005292577
30
0
41
1
10
-0.562874322366525
20
-5.46212264681108
30
0
41
1
10
-0.585106616517606
20
-5.46199323188387
30
0
41
1
10
-0.627692822126718
20
-5.45533455005088
30
0
41
1
10
-0.648523068172736
20
-5.44883772858989
30
0
41
1
10
-0.699826196362139
20
-5.42613682765011
30
0
41
1
10
-0.728695564403452
20
-5.40623396070797
30
0
41
1
10
-0.806075449923839
20
-5.34007786619352
30
0
41
1
10
-0.847522380016557
20
-5.28655870152033
30
0
41
1
10
-1.01570466784385
20
-5.03084699030373
30
0
41
1
10
-1.09210771407481
20
-4.80149729085085
30
0
41
1
10
-1.21929875138234
20
-4.35887826398974
30
0
41
1
10
-1.26692602208389
20
-4.13998960128646
30
0
41
1
10
-1.30710678118655
20
-3.91806548057696
30
0
0
SPLINE
5
F2
100
AcDbEntity
8
1
62
256
6
ByLayer
370
-1
48
1
60
0
100
AcDbSpline
70
4
71
3
72
14
73
10
40
0
40
0
40
0
40
0
40
0.28362409341077
40
0.28362409341077
40
0.56998993813671
40
0.56998993813671
40
0.829189870569486
40
0.829189870569486
40
1
40
1
40
1
40
1
41
1
10
45.3768883391044
20
29.3365558081804
30
0
41
1
10
45.349680990364
20
29.3170337092036
30
0
41
1
10
45.3250598630385
20
29.2920991748124
30
0
41
1
10
45.2857954973737
20
29.2342359559813
30
0
41
1
10
45.2706946284788
20
29.2003004856736
30
0
41
1
10
45.2550737332582
20
29.1321469011817
30
0
41
1
10
45.2531294967626
20
29.0972183907371
30
0
41
1
10
45.2601444783534
20
29.0408175078115
30
0
41
1
10
45.2656387099927
20
29.0183724113576
30
0
41
1
10
45.273610940968
20
28.9970497110364
30
0
0
SPLINE
5
F3
100
AcDbEntity
8
1
62
256
6
ByLayer
370
-1
48
1
60
0
100
AcDbSpline
70
4
71
3
72
16
73
12
40
0
40
0
40
0
40
0
40
0.0624550825590262
40
0.0624550825590262
40
0.283215118569561
40
0.283215118569561
40
0.506750443118335
40
0.506750443118335
40
0.744609991968626
40
0.744609991968626
40
1
40
1
40
1
40
1
41
1
10
46.5626264459795
20
27.9314431627893
30
0
41
1
10
46.5709419848276
20
27.9300277528883
30
0
41
1
10
46.5793285509279
20
27.9289720251915
30
0
41
1
10
46.6172219593808
20
27.9258606129824
30
0
41
1
10
46.6473829966656
20
27.9280402033503
30
0
41
1
10
46.7046033749684
20
27.9409320489909
30
0
41
1
10
46.7323524644724
20
27.9518921840453
30
0
41
1
10
46.7835904205753
20
27.9813535803087
30
0
41
1
10
46.8073499325179
20
28.0006342905531
30
0
41
1
10
46.8483936322721
20
28.0455331667467
30
0
41
1
10
46.865591904734
20
28.0720323393073
30
0
41
1
10
46.8780379169639
20
28.0997724910957
30
0
0
SPLINE
5
F4
100
AcDbEntity
8
1
62
256
6
ByLayer
370
-1
48
1
60
0
100
AcDbSpline
70
4
71
3
72
14
73
10
40
0
40
0
40
0
40
0
40
0.283624093410737
40
0.283624093410737
40
0.569989938136657
40
0.569989938136657
40
0.829189870569429
40
0.829189870569429
40
1
40
1
40
1
40
1
41
1
10
48.3109953933816
20
29.8317889632553
30
0
41
1
10
48.338202742122
20
29.8513110622321
30
0
41
1
10
48.3628238694474
20
29.8762455966233
30
0
41
1
10
48.4020882351123
20
29.9341088154544
30
0
41
1
10
48.4171891040071
20
29.9680442857621
30
0
41
1
10
48.4328099992278
20
30.036197870254
30
0
41
1
10
48.4347542357233
20
30.0711263806986
30
0
41
1
10
48.4277392541325
20
30.1275272636242
30
0
41
1
10
48.4222450224933
20
30.1499723600781
30
0
41
1
10
48.4142727915179
20
30.1712950603994
30
0
0
SPLINE
5
F5
100
AcDbEntity
8
SK1
62
256
6
ByLayer
370
-1
48
1
60
0
100
AcDbSpline
70
4
71
3
72
22
73
18
40
0
40
0
40
0
40
0
40
0.0260455644157247
40
0.0260455644157247
40
0.0526262165848557
40
0.0526262165848557
40
0.0706056579866928
40
0.0706056579866928
40
0.0884949509195805
40
0.0884949509195805
40
0.11748921873202
40
0.11748921873202
40
0.17459086731972
40
0.17459086731972
40
0.37652425293745
40
0.37652425293745
40
1
40
1
40
1
40
1
41
1
10
-0.394976888872947
20
5.38678223324206
30
0
41
1
10
-0.389612432086423
20
5.38222504185003
30
0
41
1
10
-0.383763200778972
20
5.37811700449893
30
0
41
1
10
-0.370972888875414
20
5.37184824531644
30
0
41
1
10
-0.363785592650899
20
5.36968256852501
30
0
41
1
10
-0.351475656346565
20
5.3691458249703
30
0
41
1
10
-0.346317238365032
20
5.36979468027801
30
0
41
1
10
-0.336550133197363
20
5.3727304206256
30
0
41
1
10
-0.33182986596411
20
5.3750241182685
30
0
41
1
10
-0.320511111438336
20
5.38234306083376
30
0
41
1
10
-0.31432144813617
20
5.3882440687963
30
0
41
1
10
-0.298260159254525
20
5.40702817233921
30
0
41
1
10
-0.290032841564667
20
5.42147709180324
30
0
41
1
10
-0.258449669573651
20
5.48745345024415
30
0
41
1
10
-0.24608390551893
20
5.5434138926733
30
0
41
1
10
-0.204764795451908
20
5.7670899064446
30
0
41
1
10
-0.200000000000358
20
5.93709576978202
30
0
41
1
10
-0.200000000000358
20
6.10344667966001
30
0
0
SPLINE
5
F6
100
AcDbEntity
8
SK1
62
256
6
ByLayer
370
-1
48
1
60
0
100
AcDbSpline
70
4
71
3
72
10
73
6
40
0
40
0
40
0
40
0
40
0.5
40
0.5
40
1
40
1
40
1
40
1
41
1
10
-1.30710678118655
20
3.91806548153784
30
0
41
1
10
-1.53227959010833
20
2.67440369212437
30
0
41
1
10
-1.71681589069691
20
1.34075776539186
30
0
41
1
10
-1.71598271729604
20
-1.35050010337164
30
0
41
1
10
-1.53230696904974
20
-2.67425240209695
30
0
41
1
10
-1.30710678118655
20
-3.91806548057698
30
0
0
SPLINE
5
F7
100
AcDbEntity
8
1
62
256
6
ByLayer
370
-1
48
1
60
0
100
AcDbSpline
70
4
71
3
72
18
73
14
40
0
40
0
40
0
40
0
40
0.212462773214194
40
0.212462773214194
40
0.386594404082522
40
0.386594404082522
40
0.562407877450746
40
0.562407877450746
40
0.715370920128885
40
0.715370920128885
40
0.91822654607803
40
0.91822654607803
40
1
40
1
40
1
40
1
41
1
10
45.3768883391044
20
29.3365558081804
30
0
41
1
10
45.4345451750131
20
29.3779263389159
30
0
41
1
10
45.487629252521
20
29.429777784099
30
0
41
1
10
45.5678587265802
20
29.5400631559569
30
0
41
1
10
45.5987310207461
20
29.5969609742183
30
0
41
1
10
45.6434152467029
20
29.7187892223763
30
0
41
1
10
45.6575435810276
20
29.7856628103267
30
0
41
1
10
45.6652108101532
20
29.9086019048573
30
0
41
1
10
45.6613659436635
20
29.9664028216494
30
0
41
1
10
45.6375842940678
20
30.092745615589
30
0
41
1
10
45.6126373393032
20
30.1608792349126
30
0
41
1
10
45.5663026904864
20
30.2461466473557
30
0
41
1
10
45.5514819877625
20
30.269799808156
30
0
41
1
10
45.5354504888254
20
30.2922757229398
30
0
0
SPLINE
5
F8
100
AcDbEntity
8
1
62
256
6
ByLayer
370
-1
48
1
60
0
100
AcDbSpline
70
4
71
3
72
16
73
12
40
0
40
0
40
0
40
0
40
0.0570588531353509
40
0.0570588531353509
40
0.280018610133934
40
0.280018610133934
40
0.505438197806969
40
0.505438197806969
40
0.745040834370485
40
0.745040834370485
40
1
40
1
40
1
40
1
41
1
10
45.547342494327
20
30.6469434423181
30
0
41
1
10
45.5425003087403
20
30.6410358907796
30
0
41
1
10
45.5378858909847
20
30.6349323572508
30
0
41
1
10
45.5166071989471
20
30.6043656857507
30
0
41
1
10
45.503332520795
20
30.577163533229
30
0
41
1
10
45.4857501037862
20
30.5211859105446
30
0
41
1
10
45.4812966271895
20
30.4916904270752
30
0
41
1
10
45.4810495352172
20
30.4326262077746
30
0
41
1
10
45.4857834962906
20
30.4024299813528
30
0
41
1
10
45.5038832777694
20
30.3447103681998
30
0
41
1
10
45.5179668421398
20
30.3167875265184
30
0
41
1
10
45.5354504888254
20
30.2922757229399
30
0
0
SPLINE
5
F9
100
AcDbEntity
8
1
62
256
6
ByLayer
370
-1
48
1
60
0
100
AcDbSpline
70
4
71
3
72
12
73
8
40
0
40
0
40
0
40
0
40
0.422118773104564
40
0.422118773104564
40
0.843213897177156
40
0.843213897177156
40
1
40
1
40
1
40
1
41
1
10
47.1875092124684
20
28.4276241901775
30
0
41
1
10
47.1272198905338
20
28.3962823782783
30
0
41
1
10
47.0719210943297
20
28.3557569243655
30
0
41
1
10
46.9790663345212
20
28.2654105944741
30
0
41
1
10
46.9400609716097
20
28.2144853665135
30
0
41
1
10
46.8978126649221
20
28.1410666563092
30
0
41
1
10
46.8873723398838
20
28.1205774126942
30
0
41
1
10
46.8780379169639
20
28.0997724910957
30
0
0
SPLINE
5
FA
100
AcDbEntity
8
1
62
256
6
ByLayer
370
-1
48
1
60
0
100
AcDbSpline
70
4
71
3
72
16
73
12
40
0
40
0
40
0
40
0
40
0.0627989567308149
40
0.0627989567308149
40
0.285675216612786
40
0.285675216612786
40
0.511338873430843
40
0.511338873430843
40
0.751452088491982
40
0.751452088491982
40
1
40
1
40
1
40
1
41
1
10
45.273610940968
20
28.9970497110364
30
0
41
1
10
45.2765531794198
20
28.989180336833
30
0
41
1
10
45.2798393069209
20
28.9814293410287
30
0
41
1
10
45.2961612698673
20
28.9471265127759
30
0
41
1
10
45.3131912300124
20
28.9221366845183
30
0
41
1
10
45.3530723276202
20
28.8791255086841
30
0
41
1
10
45.3764838451549
20
28.8606316487963
30
0
41
1
10
45.4276881947964
20
28.8311152827617
30
0
41
1
10
45.4562908423786
20
28.8202496690846
30
0
41
1
10
45.5146448117378
20
28.8075350493056
30
0
41
1
10
45.5450531448692
20
28.8058446370818
30
0
41
1
10
45.5742914231907
20
28.8085772765157
30
0
0
INSERT
5
12E
100
AcDbEntity
8
2
62
256
6
ByLayer
370
-1
48
1
60
0
100
AcDbBlockReference
2
DimnDraft3D11
10
0
20
0
30
0
41
1
42
1
43
1
50
0
210
0
220
0
230
1
0
LINE
5
4F
100
AcDbEntity
8
1
62
256
6
ByLayer
370
-1
48
1
60
0
100
AcDbLine
10
0.3
20
25
30
0
11
0
21
24.7
31
0
39
0
210
0
220
0
230
1
0
LINE
5
51
100
AcDbEntity
8
1
62
256
6
ByLayer
370
-1
48
1
60
0
100
AcDbLine
10
0
20
-24.7
30
0
11
0.3
21
-25
31
0
39
0
210
0
220
0
230
1
0
LINE
5
52
100
AcDbEntity
8
1
62
256
6
ByLayer
370
-1
48
1
60
0
100
AcDbLine
10
0.3
20
-25
30
0
11
19.3
21
-25
31
0
39
0
210
0
220
0
230
1
0
LINE
5
53
100
AcDbEntity
8
1
62
256
6
ByLayer
370
-1
48
1
60
0
100
AcDbLine
10
20.920792
20
25
30
0
11
0.3
21
25
31
0
39
0
210
0
220
0
230
1
0
LINE
5
54
100
AcDbEntity
8
1
62
256
6
ByLayer
370
-1
48
1
60
0
100
AcDbLine
10
21.015016
20
25.351646
30
0
11
20.920792
21
25
31
0
39
0
210
0
220
0
230
1
0
LINE
5
55
100
AcDbEntity
8
SK4
62
256
6
ByLayer
370
-1
48
0.05
60
0
100
AcDbLine
10
-35
20
0
30
0
11
60
21
0
31
0
39
0
210
0
220
0
230
1
0
LINE
5
57
100
AcDbEntity
8
4
62
256
6
ByLayer
370
-1
48
0.05
60
0
100
AcDbLine
10
0
20
0
30
0
11
60
21
0
31
0
39
0
210
0
220
0
230
1
0
LINE
5
59
100
AcDbEntity
8
81
62
256
6
ByLayer
370
-1
48
1
60
0
100
AcDbLine
10
60
20
35
30
0
11
70
21
35
31
0
39
0
210
0
220
0
230
1
0
LINE
5
5A
100
AcDbEntity
8
80
62
256
6
ByLayer
370
-1
48
1
60
0
100
AcDbLine
10
0
20
0
30
0
11
-5
21
0
31
0
39
0
210
0
220
0
230
1
0
LINE
5
5B
100
AcDbEntity
8
1
62
256
6
ByLayer
370
-1
48
1
60
0
100
AcDbLine
10
32.036376
20
20.687627
30
0
11
32.872374
21
22.051851
31
0
39
0
210
0
220
0
230
1
0
LINE
5
5C
100
AcDbEntity
8
1
62
256
6
ByLayer
370
-1
48
1
60
0
100
AcDbLine
10
40.954755
20
12.082553
30
0
11
42.045011
21
13.949556
31
0
39
0
210
0
220
0
230
1
0
LINE
5
5D
100
AcDbEntity
8
1
62
256
6
ByLayer
370
-1
48
1
60
0
100
AcDbLine
10
47.59801
20
24.854646
30
0
11
47.916193
21
24.003627
31
0
39
0
210
0
220
0
230
1
0
LINE
5
5E
100
AcDbEntity
8
1
62
256
6
ByLayer
370
-1
48
1
60
0
100
AcDbLine
10
11.461325
20
-23.83913
30
0
11
11.461325
21
-7.529667
31
0
39
0
210
0
220
0
230
1
0
LINE
5
5F
100
AcDbEntity
8
1
62
256
6
ByLayer
370
-1
48
1
60
0
100
AcDbLine
10
21.015016
20
25.096301
30
0
11
21.015016
21
21.827377
31
0
39
0
210
0
220
0
230
1
0
LINE
5
60
100
AcDbEntity
8
1
62
256
6
ByLayer
370
-1
48
1
60
0
100
AcDbLine
10
43.82253
20
33.981773
30
0
11
44.178528
21
34.000468
31
0
39
0
210
0
220
0
230
1
0
LINE
5
61
100
AcDbEntity
8
1
62
256
6
ByLayer
370
-1
48
1
60
0
100
AcDbLine
10
32.036376
20
20.687627
30
0
11
41.311294
21
15.00395
31
0
39
0
210
0
220
0
230
1
0
LINE
5
62
100
AcDbEntity
8
1
62
256
6
ByLayer
370
-1
48
1
60
0
100
AcDbLine
10
11.461325
20
23.83913
30
0
11
8.538675
21
23.83913
31
0
39
0
210
0
220
0
230
1
0
LINE
5
63
100
AcDbEntity
8
1
62
256
6
ByLayer
370
-1
48
1
60
0
100
AcDbLine
10
20.920792
20
-22.224484
30
0
11
20.920792
21
-21.351609
31
0
39
0
210
0
220
0
230
1
0
LINE
5
64
100
AcDbEntity
8
1
62
256
6
ByLayer
370
-1
48
1
60
0
100
AcDbLine
10
8.538675
20
7.529667
30
0
11
11.461325
21
7.529667
31
0
39
0
210
0
220
0
230
1
0
LINE
5
65
100
AcDbEntity
8
1
62
256
6
ByLayer
370
-1
48
1
60
0
100
AcDbLine
10
44.178528
20
34.000468
30
0
11
44.516609
21
34.018223
31
0
39
0
210
0
220
0
230
1
0
LINE
5
66
100
AcDbEntity
8
1
62
256
6
ByLayer
370
-1
48
1
60
0
100
AcDbLine
10
23.879862
20
23.956875
30
0
11
31.791689
21
20.810128
31
0
39
0
210
0
220
0
230
1
0
LINE
5
67
100
AcDbEntity
8
1
62
256
6
ByLayer
370
-1
48
1
60
0
100
AcDbLine
10
8.105662
20
8.055848
30
0
11
8.105662
21
23.666502
31
0
39
0
210
0
220
0
230
1
0
LINE
5
68
100
AcDbEntity
8
1
62
256
6
ByLayer
370
-1
48
1
60
0
100
AcDbLine
10
44.178528
20
34.000468
30
0
11
44.310203
21
33.648286
31
0
39
0
210
0
220
0
230
1
0
LINE
5
69
100
AcDbEntity
8
1
62
256
6
ByLayer
370
-1
48
1
60
0
100
AcDbLine
10
11.894338
20
-23.666502
30
0
11
11.894338
21
-8.055848
31
0
39
0
210
0
220
0
230
1
0
LINE
5
6A
100
AcDbEntity
8
1
62
256
6
ByLayer
370
-1
48
1
60
0
100
AcDbLine
10
11.461325
20
-7.529667
30
0
11
8.538675
21
-7.529667
31
0
39
0
210
0
220
0
230
1
0
LINE
5
6B
100
AcDbEntity
8
1
62
256
6
ByLayer
370
-1
48
1
60
0
100
AcDbLine
10
0.3
20
-25
30
0
11
0.3
21
25
31
0
39
0
210
0
220
0
230
1
0
LINE
5
6C
100
AcDbEntity
8
1
62
256
6
ByLayer
370
-1
48
1
60
0
100
AcDbLine
10
21.001177
20
-21.758124
30
0
11
21.001177
21
-22.08683
31
0
39
0
210
0
220
0
230
1
0
LINE
5
6D
100
AcDbEntity
8
1
62
256
6
ByLayer
370
-1
48
1
60
0
100
AcDbLine
10
43.82253
20
33.981773
30
0
11
44.029274
21
33.428812
31
0
39
0
210
0
220
0
230
1
0
LINE
5
6E
100
AcDbEntity
8
1
62
256
6
ByLayer
370
-1
48
1
60
0
100
AcDbLine
10
43.006993
20
15.596896
30
0
11
47.694894
21
23.624665
31
0
39
0
210
0
220
0
230
1
0
LINE
5
6F
100
AcDbEntity
8
1
62
256
6
ByLayer
370
-1
48
1
60
0
100
AcDbLine
10
36.16465
20
22.24312
30
0
11
35.955325
21
22.511043
31
0
39
0
210
0
220
0
230
1
0
LINE
5
70
100
AcDbEntity
8
1
62
256
6
ByLayer
370
-1
48
1
60
0
100
AcDbLine
10
35.955325
20
22.511043
30
0
11
38.333562
21
24.369126
31
0
39
0
210
0
220
0
230
1
0
LINE
5
71
100
AcDbEntity
8
1
62
256
6
ByLayer
370
-1
48
1
60
0
100
AcDbLine
10
8.538675
20
7.529667
30
0
11
8.538675
21
23.83913
31
0
39
0
210
0
220
0
230
1
0
LINE
5
72
100
AcDbEntity
8
1
62
256
6
ByLayer
370
-1
48
1
60
0
100
AcDbLine
10
24
20
-16.951514
30
0
11
21.141306
21
-21.846867
31
0
39
0
210
0
220
0
230
1
0
LINE
5
73
100
AcDbEntity
8
1
62
256
6
ByLayer
370
-1
48
1
60
0
100
AcDbLine
10
42.147292
20
16.368174
30
0
11
32.872374
21
22.051851
31
0
39
0
210
0
220
0
230
1
0
LINE
5
74
100
AcDbEntity
8
1
62
256
6
ByLayer
370
-1
48
1
60
0
100
AcDbLine
10
20.920792
20
25
30
0
11
20.920792
21
21.351609
31
0
39
0
210
0
220
0
230
1
0
LINE
5
75
100
AcDbEntity
8
1
62
256
6
ByLayer
370
-1
48
1
60
0
100
AcDbLine
10
32.383
20
22.296853
30
0
11
23.371654
21
25.880908
31
0
39
0
210
0
220
0
230
1
0
LINE
5
76
100
AcDbEntity
8
1
62
256
6
ByLayer
370
-1
48
1
60
0
100
AcDbLine
10
8.538675
20
-23.83913
30
0
11
8.538675
21
-7.529667
31
0
39
0
210
0
220
0
230
1
0
LINE
5
77
100
AcDbEntity
8
1
62
256
6
ByLayer
370
-1
48
1
60
0
100
AcDbLine
10
36.16465
20
22.24312
30
0
11
38.925486
21
24.400121
31
0
39
0
210
0
220
0
230
1
0
LINE
5
78
100
AcDbEntity
8
1
62
256
6
ByLayer
370
-1
48
1
60
0
100
AcDbLine
10
47.242
20
24.835985
30
0
11
47.694894
21
23.624665
31
0
39
0
210
0
220
0
230
1
0
LINE
5
79
100
AcDbEntity
8
1
62
256
6
ByLayer
370
-1
48
1
60
0
100
AcDbLine
10
47.916193
20
24.003627
30
0
11
48.438894
21
24.898723
31
0
39
0
210
0
220
0
230
1
0
LINE
5
7A
100
AcDbEntity
8
1
62
256
6
ByLayer
370
-1
48
1
60
0
100
AcDbLine
10
21.015016
20
25.351646
30
0
11
21.015016
21
25.350168
31
0
39
0
210
0
220
0
230
1
0
LINE
5
7B
100
AcDbEntity
8
1
62
256
6
ByLayer
370
-1
48
1
60
0
100
AcDbLine
10
11.894338
20
8.055848
30
0
11
11.894338
21
23.666502
31
0
39
0
210
0
220
0
230
1
0
LINE
5
7C
100
AcDbEntity
8
1
62
256
6
ByLayer
370
-1
48
1
60
0
100
AcDbLine
10
11.461325
20
7.529667
30
0
11
11.461325
21
23.83913
31
0
39
0
210
0
220
0
230
1
0
LINE
5
7D
100
AcDbEntity
8
1
62
256
6
ByLayer
370
-1
48
1
60
0
100
AcDbLine
10
24
20
22.472441
30
0
11
40.954755
21
12.082553
31
0
39
0
210
0
220
0
230
1
0
LINE
5
7E
100
AcDbEntity
8
1
62
256
6
ByLayer
370
-1
48
1
60
0
100
AcDbLine
10
21.141306
20
-21.846867
30
0
11
21.001177
21
-22.08683
31
0
39
0
210
0
220
0
230
1
0
LINE
5
7F
100
AcDbEntity
8
1
62
256
6
ByLayer
370
-1
48
1
60
0
100
AcDbLine
10
40.954755
20
12.082553
30
0
11
24
21
-16.951514
31
0
39
0
210
0
220
0
230
1
0
LINE
5
80
100
AcDbEntity
8
1
62
256
6
ByLayer
370
-1
48
1
60
0
100
AcDbLine
10
0
20
-24.7
30
0
11
0
21
24.7
31
0
39
0
210
0
220
0
230
1
0
LINE
5
81
100
AcDbEntity
8
1
62
256
6
ByLayer
370
-1
48
1
60
0
100
AcDbLine
10
47.694894
20
23.624665
30
0
11
47.916193
21
24.003627
31
0
39
0
210
0
220
0
230
1
0
LINE
5
82
100
AcDbEntity
8
1
62
256
6
ByLayer
370
-1
48
1
60
0
100
AcDbLine
10
8.105662
20
-23.666502
30
0
11
8.105662
21
-8.055848
31
0
39
0
210
0
220
0
230
1
0
LINE
5
83
100
AcDbEntity
8
1
62
256
6
ByLayer
370
-1
48
1
60
0
100
AcDbLine
10
24
20
-16.951514
30
0
11
24
21
22.472441
31
0
39
0
210
0
220
0
230
1
0
LINE
5
84
100
AcDbEntity
8
1
62
256
6
ByLayer
370
-1
48
1
60
0
100
AcDbLine
10
41.311294
20
15.00395
30
0
11
42.147292
21
16.368174
31
0
39
0
210
0
220
0
230
1
0
LINE
5
85
100
AcDbEntity
8
1
62
256
6
ByLayer
370
-1
48
1
60
0
100
AcDbLine
10
20
20
-19.569618
30
0
11
20
21
19.569618
31
0
39
0
210
0
220
0
230
1
0
LINE
5
86
100
AcDbEntity
8
1
62
256
6
ByLayer
370
-1
48
1
60
0
100
AcDbLine
10
20.920792
20
-22.224484
30
0
11
19.3
21
-25
31
0
39
0
210
0
220
0
230
1
0
LINE
5
87
100
AcDbEntity
8
1
62
256
6
ByLayer
370
-1
48
1
60
0
100
AcDbLine
10
43.82253
20
33.981773
30
0
11
33.926642
21
33.462093
31
0
39
0
210
0
220
0
230
1
0
LINE
5
88
100
AcDbEntity
8
1
62
256
6
ByLayer
370
-1
48
1
60
0
100
AcDbLine
10
8.538675
20
-23.83913
30
0
11
11.461325
21
-23.83913
31
0
39
0
210
0
220
0
230
1
0
LINE
5
89
100
AcDbEntity
8
1
62
256
6
ByLayer
370
-1
48
1
60
0
100
AcDbLine
10
31.791689
20
20.810128
30
0
11
32.383
21
22.296853
31
0
39
0
210
0
220
0
230
1
0
LINE
5
8A
100
AcDbEntity
8
SK1
62
256
6
ByLayer
370
-1
48
1
60
0
100
AcDbLine
10
-0.2
20
6.103447
30
0
11
-0.2
21
17.833485
31
0
39
0
210
0
220
0
230
1
0
LINE
5
8C
100
AcDbEntity
8
SK1
62
256
6
ByLayer
370
-1
48
1
60
0
100
AcDbLine
10
-0.2
20
-17.833485
30
0
11
-0.2
21
-6.103448
31
0
39
0
210
0
220
0
230
1
0
LINE
5
8D
100
AcDbEntity
8
SK1
62
256
6
ByLayer
370
-1
48
1
60
0
100
AcDbLine
10
-1.307107
20
-3.918065
30
0
11
-1.307107
21
3.918065
31
0
39
0
210
0
220
0
230
1
0
LINE
5
8E
100
AcDbEntity
8
1
62
256
6
ByLayer
370
-1
48
1
60
0
100
AcDbLine
10
45.220607
20
34.268133
30
0
11
59.280988
21
35.005006
31
0
39
0
210
0
220
0
230
1
0
LINE
5
8F
100
AcDbEntity
8
1
62
256
6
ByLayer
370
-1
48
1
60
0
100
AcDbLine
10
33.901197
20
25.515891
30
0
11
44.996134
21
34.184206
31
0
39
0
210
0
220
0
230
1
0
LINE
5
90
100
AcDbEntity
8
1
62
256
6
ByLayer
370
-1
48
1
60
0
100
AcDbLine
10
48.467277
20
24.900212
30
0
11
34.406895
21
24.163339
31
0
39
0
210
0
220
0
230
1
0
LINE
5
91
100
AcDbEntity
8
1
62
256
6
ByLayer
370
-1
48
1
60
0
100
AcDbLine
10
59.786687
20
33.652454
30
0
11
48.69175
21
24.984139
31
0
39
0
210
0
220
0
230
1
0
MTEXT
5
FB
100
AcDbEntity
8
SK6
62
256
6
ByLayer
370
-1
48
1
60
0
100
AcDbMText
10
11.938674
20
-37.463937
30
0
210
0
220
0
230
1
1
\W00.758;\fsimplex.shx,bigfont.shx;C5-SVJBR-35060-16HPA 
40
3.5
41
0
44
1.084337
50
0
71
7
72
5
7
DEFAULT
0
DIMENSION
5
13C
100
AcDbEntity
8
2
62
256
6
ByLayer
370
-3
48
1
60
0
100
AcDbDimension
2
DimnDraft3D2
10
45.579385
20
34.286936
30
0
11
44.958414
21
40.533497
31
0
70
34
71
5
72
1
41
1
210
0
220
0
230
1
3
Standard
100
AcDb2LineAngularDimension
13
60
23
37
33
0
14
60
24
49.483093
34
0
15
56.16882
25
34.841904
35
0
16
47.711865
26
46.703693
36
0
40
0
0
DIMENSION
5
151
100
AcDbEntity
8
SK2
62
256
6
ByLayer
370
-3
48
1
60
0
100
AcDbDimension
2
DimnDraft3D3
10
-39.75
20
25
30
0
11
-39.75
21
-4.784211
31
0
70
32
71
5
72
1
41
1
210
0
220
0
230
1
3
Standard
100
AcDbAlignedDimension
13
-2
23
-25
33
0
14
-2
24
25
34
0
50
90
100
AcDbRotatedDimension
1001
ACAD
1000
DSTYLE
1002
{
1070
    74
1070
     0
1070
   279
1070
     0
1070
   172
1070
     1
1070
   173
1070
     1
1070
   340
1005
FC
1070
    77
1070
     1
1070
    73
1070
     0
1070
   171
1070
     3
1070
   274
1070
     4
1070
   177
1070
     2
1070
   176
1070
     2
1070
   178
1070
     7
1070
    78
1070
     8
1070
    41
1041
3.175
1070
   147
1041
2.25
1070
    42
1041
2.0
1070
    44
1041
2.0
1070
   140
1041
4.5
1070
   343
1005
13D
1070
   344
1005
13D
1002
}
0
DIMENSION
5
15F
100
AcDbEntity
8
2
62
256
6
ByLayer
370
-3
48
1
60
0
100
AcDbDimension
2
DimnDraft3D4
10
87.25
20
35
30
0
11
87.25
21
14.871053
31
0
70
32
71
5
72
1
41
1
210
0
220
0
230
1
3
Standard
100
AcDbAlignedDimension
13
62
23
0
33
0
14
62
24
35
34
0
50
90
100
AcDbRotatedDimension
1001
ACAD
1000
DSTYLE
1002
{
1070
    74
1070
     0
1070
   279
1070
     0
1070
   172
1070
     1
1070
   173
1070
     1
1070
   340
1005
FC
1070
    77
1070
     1
1070
    73
1070
     0
1070
   171
1070
     3
1070
   274
1070
     4
1070
   177
1070
     2
1070
   176
1070
     2
1070
   178
1070
     7
1070
    78
1070
     8
1070
    41
1041
3.175
1070
   147
1041
2.25
1070
    42
1041
2.0
1070
    44
1041
2.0
1070
   140
1041
4.5
1070
   343
1005
13D
1070
   344
1005
13D
1002
}
0
ENDSEC
0
SECTION
2
OBJECTS
0
DICTIONARY
5
190
330
0
100
AcDbDictionary
280
0
281
1
3
ACAD_GROUP
350
191
3
ACAD_MLINESTYLE
350
192
0
DICTIONARY
5
191
330
0
100
AcDbDictionary
280
0
281
1
0
DICTIONARY
5
192
330
0
100
AcDbDictionary
280
0
281
1
3
Standard
350
18
0
MLINESTYLE
5
18
330
192
100
AcDbMlineStyle
2
Standard
70
0
3

62
256
51
90
52
90
71
2
49
-0.5
62
256
6
ByLayer
49
0.5
62
256
6
ByLayer
0
RASTERVARIABLES
5
17e
330

100
AcDbRasterVariables
90
0
70
1
71
1
72
1
0
ENDSEC
0
EOF
