0
SECTION
2
HEADER
9
$ACADVER
1
AC1015
9
$DWGCODEPAGE
3
ANSI_1252
9
$HANDSEED
5
21d
9
$ANGBASE
50
0
9
$ANGDIR
70
0
9
$ATTMODE
70
1
9
$AUNITS
70
0
9
$AUPREC
70
0
9
$CECOLOR
62
256
9
$CELTSCALE
40
1
9
$CELTYPE
6
ByLayer
9
$CELWEIGHT
370
18
9
$CLAYER
8
0
9
$CMLJUST
70
0
9
$CMLSCALE
40
1
9
$CMLSTYLE
2
Standard
9
$DIMSTYLE
2
Standard
9
$TEXTSIZE
40
0.2
9
$TEXTSTYLE
7
Standard
9
$LUNITS
70
2
9
$LUPREC
70
4
9
$EXTNAMES
290
1
9
$INSUNITS
70
4
9
$LTSCALE
40
1
9
$LWDISPLAY
290
1
9
$PDMODE
70
0
9
$PDSIZE
40
0
9
$PLINEGEN
70
0
0
ENDSEC
0
SECTION
2
CLASSES
0
CLASS
1
RASTERVARIABLES
2
AcDbRasterVariables
3
ISM
90
0
280
0
281
0
0
ENDSEC
0
SECTION
2
TABLES
0
TABLE
2
VPORT
5
213
100
AcDbSymbolTable
0
VPORT
5
1
100
AcDbSymbolTableRecord
100
AcDbViewportTableRecord
2
*Active
70
0
10
0
20
0
11
1
21
1
12
-1
22
1
13
0
23
0
14
0.5
24
0.5
15
10
25
10
16
0
26
0
36
1
17
0
27
0
37
0
0
ENDTAB
0
TABLE
2
LTYPE
5
214
100
AcDbSymbolTable
0
LTYPE
5
14
100
AcDbSymbolTableRecord
100
AcDbLinetypeTableRecord
70
0
2
ByBlock
3

72
65
73
0
40
0
0
LTYPE
5
15
100
AcDbSymbolTableRecord
100
AcDbLinetypeTableRecord
70
0
2
ByLayer
3

72
65
73
0
40
0
0
LTYPE
5
16
100
AcDbSymbolTableRecord
100
AcDbLinetypeTableRecord
70
0
2
CONTINUOUS
3
Solid line
72
65
73
0
40
0
0
LTYPE
5
6A
100
AcDbSymbolTableRecord
100
AcDbLinetypeTableRecord
70
0
2
CENTER
3
____ _ ____ _ ____ _ ____
72
65
73
4
40
47.5
49
22
74
0
49
-8.5
74
0
49
8.5
74
0
49
-8.5
74
0
0
LTYPE
5
6B
100
AcDbSymbolTableRecord
100
AcDbLinetypeTableRecord
70
0
2
DASHED
3
__ __ __ __ __ __ __ __ __
72
65
73
2
40
25.72
49
12.86
74
0
49
-12.86
74
0
0
ENDTAB
0
TABLE
2
LAYER
5
215
100
AcDbSymbolTable
0
LAYER
5
10
100
AcDbSymbolTableRecord
100
AcDbLayerTableRecord
2
0
70
0
62
7
6
CONTINUOUS
290
1
370
-3
390
0
0
LAYER
5
6D
100
AcDbSymbolTableRecord
100
AcDbLayerTableRecord
2
80
70
0
62
-6
6
CONTINUOUS
290
1
370
-3
390
0
0
LAYER
5
6F
100
AcDbSymbolTableRecord
100
AcDbLayerTableRecord
2
81
70
0
62
-3
6
CONTINUOUS
290
1
370
-3
390
0
0
LAYER
5
72
100
AcDbSymbolTableRecord
100
AcDbLayerTableRecord
2
4
70
0
62
-2
6
CENTER
290
1
370
-3
390
0
0
LAYER
5
77
100
AcDbSymbolTableRecord
100
AcDbLayerTableRecord
2
1
70
0
62
4
6
CONTINUOUS
290
1
370
-3
390
0
0
LAYER
5
16A
100
AcDbSymbolTableRecord
100
AcDbLayerTableRecord
2
2
70
0
62
7
6
CONTINUOUS
290
1
370
-3
390
0
0
LAYER
5
1ff
100
AcDbSymbolTableRecord
100
AcDbLayerTableRecord
2
SK4
70
0
62
2
6
CENTER
290
1
370
-3
390
0
0
LAYER
5
200
100
AcDbSymbolTableRecord
100
AcDbLayerTableRecord
2
SK1
70
0
62
4
6
CONTINUOUS
290
1
370
-3
390
0
0
LAYER
5
201
100
AcDbSymbolTableRecord
100
AcDbLayerTableRecord
2
SK6
70
0
62
5
6
CONTINUOUS
290
1
370
-3
390
0
0
LAYER
5
202
100
AcDbSymbolTableRecord
100
AcDbLayerTableRecord
2
SK2
70
0
62
7
6
CONTINUOUS
290
1
370
-3
390
0
0
ENDTAB
0
TABLE
2
STYLE
5
216
100
AcDbSymbolTable
0
STYLE
5
11
100
AcDbSymbolTableRecord
100
AcDbTextStyleTableRecord
2
Standard
3
txt
70
0
71
0
40
0
41
1
42
0
50
0
0
STYLE
5
165
100
AcDbSymbolTableRecord
100
AcDbTextStyleTableRecord
2
iso_b_vert
3
simplex.shx
70
0
71
0
40
0
41
1
42
0
50
0
0
STYLE
5
166
100
AcDbSymbolTableRecord
100
AcDbTextStyleTableRecord
2
DWGDirectTextStyle
3
simplex
70
0
71
0
40
0
41
1
42
0
50
0
0
ENDTAB
0
TABLE
2
DIMSTYLE
5
217
100
AcDbSymbolTable
100
AcDbDimStyleTable
0
DIMSTYLE
105
27
100
AcDbSymbolTableRecord
100
AcDbDimStyleTableRecord
2
Standard
70
0
3
<>
41
0.18
42
0.0625
44
0.18
140
0.18
147
0.09
73
0
74
0
77
1
271
2
275
0
278
52
280
0
340
11
0
ENDTAB
0
TABLE
2
VIEW
5
218
100
AcDbSymbolTable
0
ENDTAB
0
TABLE
2
UCS
5
219
100
AcDbSymbolTable
0
ENDTAB
0
TABLE
2
APPID
5
21a
100
AcDbSymbolTable
0
APPID
5
12
100
AcDbSymbolTableRecord
100
AcDbRegAppTableRecord
2
ACAD
70
0
0
ENDTAB
0
TABLE
2
BLOCK_RECORD
5
21b
100
AcDbSymbolTable
0
BLOCK_RECORD
5
1F
100
AcDbSymbolTableRecord
100
AcDbBlockTableRecord
2
*Model_Space
340
0
70
0
0
BLOCK_RECORD
5
1B
100
AcDbSymbolTableRecord
100
AcDbBlockTableRecord
2
*Paper_Space
340
0
70
0
0
BLOCK_RECORD
5
23
100
AcDbSymbolTableRecord
100
AcDbBlockTableRecord
2
*Paper_Space0
340
0
70
0
0
BLOCK_RECORD
5
168
100
AcDbSymbolTableRecord
100
AcDbBlockTableRecord
2
DimnDraft3D1
340
0
70
0
0
BLOCK_RECORD
5
173
100
AcDbSymbolTableRecord
100
AcDbBlockTableRecord
2
DimnDraft3D2
340
0
70
0
0
BLOCK_RECORD
5
17C
100
AcDbSymbolTableRecord
100
AcDbBlockTableRecord
2
DimnDraft3D3
340
0
70
0
0
BLOCK_RECORD
5
187
100
AcDbSymbolTableRecord
100
AcDbBlockTableRecord
2
DimnDraft3D4
340
0
70
0
0
BLOCK_RECORD
5
191
100
AcDbSymbolTableRecord
100
AcDbBlockTableRecord
2
DimnDraft3D55
340
0
70
0
0
BLOCK_RECORD
5
19B
100
AcDbSymbolTableRecord
100
AcDbBlockTableRecord
2
DimnDraft3D6
340
0
70
0
0
ENDTAB
0
ENDSEC
0
SECTION
2
BLOCKS
0
BLOCK
5
20
100
AcDbEntity
8
0
100
AcDbBlockBegin
2
*Model_Space
70
0
10
0
20
0
30
0
3
*Model_Space
0
ENDBLK
5
21
100
AcDbEntity
8
0
100
AcDbBlockEnd
0
BLOCK
5
1C
100
AcDbEntity
8
0
100
AcDbBlockBegin
2
*Paper_Space
70
0
10
0
20
0
30
0
3
*Paper_Space
0
ENDBLK
5
1D
100
AcDbEntity
8
0
100
AcDbBlockEnd
0
BLOCK
5
24
100
AcDbEntity
8
0
100
AcDbBlockBegin
2
*Paper_Space0
70
0
10
0
20
0
30
0
3
*Paper_Space0
0
ENDBLK
5
25
100
AcDbEntity
8
0
100
AcDbBlockEnd
0
BLOCK
5
170
100
AcDbEntity
8
0
100
AcDbBlockBegin
2
DimnDraft3D1
70
0
10
0
20
0
30
0
3
DimnDraft3D1
0
MTEXT
5
169
100
AcDbEntity
8
2
62
256
6
ByLayer
370
13
48
1
60
0
100
AcDbMText
10
112.710658
20
53.930737
30
0
210
0
220
0
230
1
1
\W0.7138;230
40
3.175
41
0
44
1.084337
50
0
71
7
72
5
7
iso_b_vert
0
LINE
5
16B
100
AcDbEntity
8
2
62
256
6
ByLayer
370
13
48
1
60
0
100
AcDbLine
10
0
20
1.5875
30
0
11
0
21
56.311987
31
0
39
0
210
0
220
0
230
1
0
LINE
5
16C
100
AcDbEntity
8
2
62
256
6
ByLayer
370
13
48
1
60
0
100
AcDbLine
10
230
20
1.5875
30
0
11
230
21
56.311987
31
0
39
0
210
0
220
0
230
1
0
LINE
5
16D
100
AcDbEntity
8
2
62
256
6
ByLayer
370
13
48
1
60
0
100
AcDbLine
10
0
20
53.136987
30
0
11
230
21
53.136987
31
0
39
0
210
0
220
0
230
1
0
SOLID
5
16E
100
AcDbEntity
8
2
62
256
6
ByLayer
370
13
48
1
60
0
100
AcDbTrace
10
0
20
53.136987
30
0
11
3.174998
21
53.554984
31
0
12
3.175002
22
52.71899
32
0
13
0
23
53.136987
33
0
39
0
210
0
220
0
230
1
0
SOLID
5
16F
100
AcDbEntity
8
2
62
256
6
ByLayer
370
13
48
1
60
0
100
AcDbTrace
10
230
20
53.136987
30
0
11
226.825002
21
52.71899
31
0
12
226.824998
22
53.554984
32
0
13
230
23
53.136987
33
0
39
0
210
0
220
0
230
1
0
ENDBLK
5
171
100
AcDbEntity
8
0
100
AcDbBlockEnd
0
BLOCK
5
179
100
AcDbEntity
8
0
100
AcDbBlockBegin
2
DimnDraft3D2
70
0
10
0
20
0
30
0
3
DimnDraft3D2
0
MTEXT
5
174
100
AcDbEntity
8
SK2
62
256
6
ByLayer
370
13
48
1
60
0
100
AcDbMText
10
44.198882
20
35.823567
30
0
210
0
220
0
230
1
1
\W0.5404;8
40
3.175
41
0
44
1.084337
50
44.0271300893474
71
7
72
5
7
iso_b_vert
0
MTEXT
5
176
100
AcDbEntity
8
SK2
62
256
6
ByLayer
370
13
48
1
60
0
100
AcDbMText
10
41.225157
20
32.949152
30
0
210
0
220
0
230
1
1
\W0.6380;R
40
3.175
41
0
44
1.084337
50
44.0271300893474
71
7
72
5
7
iso_b_vert
0
LINE
5
177
100
AcDbEntity
8
SK2
62
256
6
ByLayer
370
13
48
1
60
0
100
AcDbLine
10
23.735894
20
14.940009
30
0
11
45.201101
21
35.68837
31
0
39
0
210
0
220
0
230
1
0
SOLID
5
178
100
AcDbEntity
8
SK2
62
256
6
ByLayer
370
13
48
1
60
0
100
AcDbTrace
10
23.735894
20
14.940009
30
0
11
25.728245
21
17.447173
31
0
12
26.309262
22
16.846087
32
0
13
23.735894
23
14.940009
33
0
39
0
210
0
220
0
230
1
0
ENDBLK
5
17A
100
AcDbEntity
8
0
100
AcDbBlockEnd
0
BLOCK
5
184
100
AcDbEntity
8
0
100
AcDbBlockBegin
2
DimnDraft3D3
70
0
10
0
20
0
30
0
3
DimnDraft3D3
0
MTEXT
5
17D
100
AcDbEntity
8
SK2
62
256
6
ByLayer
370
13
48
1
60
0
100
AcDbMText
10
-49.10415
20
-4.25309
30
0
210
0
220
0
230
1
1
%%c
40
3.175
41
0
44
1.084337
50
90
71
7
72
5
7
iso_b_vert
0
MTEXT
5
17E
100
AcDbEntity
8
SK2
62
256
6
ByLayer
370
13
48
1
60
0
100
AcDbMText
10
-49.10415
20
3.659605
30
0
210
0
220
0
230
1
1
\W0.6740;50
40
3.175
41
0
44
1.084337
50
90
71
7
72
5
7
iso_b_vert
0
LINE
5
17F
100
AcDbEntity
8
SK2
62
256
6
ByLayer
370
13
48
1
60
0
100
AcDbLine
10
-1.2875
20
25
30
0
11
-50.69165
21
25
31
0
39
0
210
0
220
0
230
1
0
LINE
5
180
100
AcDbEntity
8
SK2
62
256
6
ByLayer
370
13
48
1
60
0
100
AcDbLine
10
-1.2875
20
-25
30
0
11
-50.69165
21
-25
31
0
39
0
210
0
220
0
230
1
0
LINE
5
181
100
AcDbEntity
8
SK2
62
256
6
ByLayer
370
13
48
1
60
0
100
AcDbLine
10
-47.51665
20
25
30
0
11
-47.51665
21
-25
31
0
39
0
210
0
220
0
230
1
0
SOLID
5
182
100
AcDbEntity
8
SK2
62
256
6
ByLayer
370
13
48
1
60
0
100
AcDbTrace
10
-47.51665
20
25
30
0
11
-47.098653
21
21.825002
31
0
12
-47.934647
22
21.824998
32
0
13
-47.51665
23
25
33
0
39
0
210
0
220
0
230
1
0
SOLID
5
183
100
AcDbEntity
8
SK2
62
256
6
ByLayer
370
13
48
1
60
0
100
AcDbTrace
10
-47.51665
20
-25
30
0
11
-47.934647
21
-21.825002
31
0
12
-47.098653
22
-21.824998
32
0
13
-47.51665
23
-25
33
0
39
0
210
0
220
0
230
1
0
ENDBLK
5
185
100
AcDbEntity
8
0
100
AcDbBlockEnd
0
BLOCK
5
18E
100
AcDbEntity
8
0
100
AcDbBlockBegin
2
DimnDraft3D4
70
0
10
0
20
0
30
0
3
DimnDraft3D4
0
MTEXT
5
188
100
AcDbEntity
8
SK2
62
256
6
ByLayer
370
13
48
1
60
0
100
AcDbMText
10
8.897105
20
-33.055837
30
0
210
0
220
0
230
1
1
\W0.6740;20
40
3.175
41
0
44
1.084337
50
0
71
7
72
5
7
iso_b_vert
0
LINE
5
189
100
AcDbEntity
8
SK2
62
256
6
ByLayer
370
13
48
1
60
0
100
AcDbLine
10
0
20
-26.2875
30
0
11
0
21
-37.024587
31
0
39
0
210
0
220
0
230
1
0
LINE
5
18A
100
AcDbEntity
8
SK2
62
256
6
ByLayer
370
13
48
1
60
0
100
AcDbLine
10
20
20
-26.5875
30
0
11
20
21
-37.024587
31
0
39
0
210
0
220
0
230
1
0
LINE
5
18B
100
AcDbEntity
8
SK2
62
256
6
ByLayer
370
13
48
1
60
0
100
AcDbLine
10
0
20
-33.849587
30
0
11
20
21
-33.849587
31
0
39
0
210
0
220
0
230
1
0
SOLID
5
18C
100
AcDbEntity
8
SK2
62
256
6
ByLayer
370
13
48
1
60
0
100
AcDbTrace
10
0
20
-33.849587
30
0
11
3.174998
21
-33.43159
31
0
12
3.175002
22
-34.267583
32
0
13
0
23
-33.849587
33
0
39
0
210
0
220
0
230
1
0
SOLID
5
18D
100
AcDbEntity
8
SK2
62
256
6
ByLayer
370
13
48
1
60
0
100
AcDbTrace
10
20
20
-33.849587
30
0
11
16.825002
21
-34.267583
31
0
12
16.824998
22
-33.43159
32
0
13
20
23
-33.849587
33
0
39
0
210
0
220
0
230
1
0
ENDBLK
5
18F
100
AcDbEntity
8
0
100
AcDbBlockEnd
0
BLOCK
5
192
100
AcDbEntity
8
0
100
AcDbBlockBegin
2
DimnDraft3D55
70
0
10
0
20
0
30
0
3
DimnDraft3D55
0
LINE
5
194
100
AcDbEntity
8
SK2
62
256
6
ByLayer
370
25
48
1
60
0
100
AcDbLine
10
230
20
-1.5875
30
0
11
230
21
-36.94847
31
0
39
0
210
0
220
0
230
1
0
LINE
5
195
100
AcDbEntity
8
SK2
62
256
6
ByLayer
370
25
48
1
60
0
100
AcDbLine
10
29.487981
20
-14.0875
30
0
11
29.487981
21
-36.94847
31
0
39
0
210
0
220
0
230
1
0
LINE
5
196
100
AcDbEntity
8
SK2
62
256
6
ByLayer
370
25
48
1
60
0
100
AcDbLine
10
230
20
-33.77347
30
0
11
29.487981
21
-33.77347
31
0
39
0
210
0
220
0
230
1
0
SOLID
5
197
100
AcDbEntity
8
SK2
62
256
6
ByLayer
370
25
48
1
60
0
100
AcDbTrace
10
230
20
-33.77347
30
0
11
226.825002
21
-34.191467
31
0
12
226.824998
22
-33.355473
32
0
13
230
23
-33.77347
33
0
39
0
210
0
220
0
230
1
0
SOLID
5
198
100
AcDbEntity
8
SK2
62
256
6
ByLayer
370
25
48
1
60
0
100
AcDbTrace
10
29.487981
20
-33.77347
30
0
11
32.662979
21
-33.355473
31
0
12
32.662982
22
-34.191467
32
0
13
29.487981
23
-33.77347
33
0
39
0
210
0
220
0
230
1
0
MTEXT
5
199
100
AcDbEntity
8
SK2
62
256
6
ByLayer
370
13
48
1
60
0
100
AcDbMText
10
125.708398
20
-32.97972
30
0
210
0
220
0
230
1
1
\W0.7317;200,5
40
3.175
41
0
44
1.084337
50
0
71
7
72
5
7
iso_b_vert
0
ENDBLK
5
193
100
AcDbEntity
8
0
100
AcDbBlockEnd
0
BLOCK
5
1A3
100
AcDbEntity
8
0
100
AcDbBlockBegin
2
DimnDraft3D6
70
0
10
0
20
0
30
0
3
DimnDraft3D6
0
MTEXT
5
19C
100
AcDbEntity
8
SK2
62
256
6
ByLayer
370
13
48
1
60
0
100
AcDbMText
10
265.967649
20
24.601768
30
0
210
0
220
0
230
1
1
%%c
40
3.175
41
0
44
1.084337
50
90
71
7
72
5
7
iso_b_vert
0
MTEXT
5
19D
100
AcDbEntity
8
SK2
62
256
6
ByLayer
370
13
48
1
60
0
100
AcDbMText
10
265.967649
20
32.514464
30
0
210
0
220
0
230
1
1
\W0.6740;25
40
3.175
41
0
44
1.084337
50
90
71
7
72
5
7
iso_b_vert
0
LINE
5
19E
100
AcDbEntity
8
SK2
62
256
6
ByLayer
370
13
48
1
60
0
100
AcDbLine
10
229.3875
20
12.5
30
0
11
270.730149
21
12.5
31
0
39
0
210
0
220
0
230
1
0
LINE
5
19F
100
AcDbEntity
8
SK2
62
256
6
ByLayer
370
13
48
1
60
0
100
AcDbLine
10
229.3875
20
-12.5
30
0
11
270.730149
21
-12.5
31
0
39
0
210
0
220
0
230
1
0
LINE
5
1A0
100
AcDbEntity
8
SK2
62
256
6
ByLayer
370
13
48
1
60
0
100
AcDbLine
10
267.555149
20
-12.5
30
0
11
267.555149
21
35.514003
31
0
39
0
210
0
220
0
230
1
0
SOLID
5
1A1
100
AcDbEntity
8
SK2
62
256
6
ByLayer
370
13
48
1
60
0
100
AcDbTrace
10
267.555149
20
12.5
30
0
11
267.973145
21
9.325002
31
0
12
267.137152
22
9.324998
32
0
13
267.555149
23
12.5
33
0
39
0
210
0
220
0
230
1
0
SOLID
5
1A2
100
AcDbEntity
8
SK2
62
256
6
ByLayer
370
13
48
1
60
0
100
AcDbTrace
10
267.555149
20
-12.5
30
0
11
267.137152
21
-9.325002
31
0
12
267.973145
22
-9.324998
32
0
13
267.555149
23
-12.5
33
0
39
0
210
0
220
0
230
1
0
ENDBLK
5
1A4
100
AcDbEntity
8
0
100
AcDbBlockEnd
0
ENDSEC
0
SECTION
2
ENTITIES
0
ARC
5
EC
100
AcDbEntity
8
1
62
256
6
ByLayer
370
18
48
1
60
0
100
AcDbCircle
39
0
10
228.2
20
-12.3
30
0
40
0.2
210
0
220
0
230
1
100
AcDbArc
50
180
51
270
0
ARC
5
ED
100
AcDbEntity
8
1
62
256
6
ByLayer
370
18
48
1
60
0
100
AcDbCircle
39
0
10
228.2
20
12.3
30
0
40
0.2
210
0
220
0
230
1
100
AcDbArc
50
90
51
180
0
ARC
5
EE
100
AcDbEntity
8
SK1
62
256
6
ByLayer
370
18
48
1
60
0
100
AcDbCircle
39
0
10
0.6
20
18.75
30
0
40
1
210
0
220
0
230
-1
100
AcDbArc
50
233.130102
51
246.421822
0
ARC
5
EF
100
AcDbEntity
8
SK1
62
256
6
ByLayer
370
18
48
1
60
0
100
AcDbCircle
39
0
10
0.6
20
-18.75
30
0
40
1
210
0
220
0
230
-1
100
AcDbArc
50
113.578178
51
126.869898
0
ARC
5
F0
100
AcDbEntity
8
1
62
256
6
ByLayer
370
18
48
1
60
0
100
AcDbCircle
39
0
10
-29.487981
20
20.5
30
0
40
8
210
0
220
0
230
-1
100
AcDbArc
50
270
51
345
0
ARC
5
F1
100
AcDbEntity
8
1
62
256
6
ByLayer
370
18
48
1
60
0
100
AcDbCircle
39
0
10
-29.487981
20
-20.5
30
0
40
8
210
0
220
0
230
-1
100
AcDbArc
50
15
51
90
0
ARC
5
F2
100
AcDbEntity
8
1
62
256
6
ByLayer
370
18
48
1
60
0
100
AcDbCircle
39
0
10
227.8
20
12.3
30
0
40
0.2
210
0
220
0
230
1
100
AcDbArc
50
0
51
90
0
ARC
5
F3
100
AcDbEntity
8
1
62
256
6
ByLayer
370
18
48
1
60
0
100
AcDbCircle
39
0
10
227.8
20
-12.3
30
0
40
0.2
210
0
220
0
230
1
100
AcDbArc
50
270
51
0
0
CIRCLE
5
F4
100
AcDbEntity
8
1
62
256
6
ByLayer
370
18
48
1
60
0
100
AcDbCircle
10
222
20
0
30
0
40
1
39
0
210
0
220
0
230
1
0
ELLIPSE
5
F5
100
AcDbEntity
8
1
62
256
6
ByLayer
370
18
48
1
60
0
100
AcDbEllipse
10
-1.056258
20
0
30
0
11
11.7092723497253
21
24.677186440935
31
0
210
0
220
0
230
1
40
0.341999
41
-1.08183270048935
42
-0.16721307190899
0
ELLIPSE
5
F6
100
AcDbEntity
8
1
62
256
6
ByLayer
370
18
48
1
60
0
100
AcDbEllipse
10
21.056258
20
0
30
0
11
-11.7092723497294
21
24.6771864409402
31
0
210
0
220
0
230
1
40
0.341999
41
0.167213071908968
42
1.08183270048919
0
ELLIPSE
5
F7
100
AcDbEntity
8
1
62
256
6
ByLayer
370
18
48
1
60
0
100
AcDbEllipse
10
-1.056258
20
0
30
0
11
-11.7092723497256
21
24.6771864409354
31
0
210
0
220
0
230
1
40
0.341999
41
-2.97437958168081
42
-2.05975995310045
0
ELLIPSE
5
F8
100
AcDbEntity
8
1
62
256
6
ByLayer
370
18
48
1
60
0
100
AcDbEllipse
10
21.056258
20
0
30
0
11
11.7092723497299
21
24.6771864409408
31
0
210
0
220
0
230
1
40
0.341999
41
2.05975995310062
42
2.97437958168083
0
POINT
5
6C
100
AcDbEntity
8
80
62
256
6
ByLayer
370
18
48
1
60
0
100
AcDbPoint
10
0
20
0
30
0
39
0
210
0
220
0
230
1
50
360
0
POINT
5
6E
100
AcDbEntity
8
81
62
256
6
ByLayer
370
18
48
1
60
0
100
AcDbPoint
10
230
20
0
30
0
39
0
210
0
220
0
230
1
50
360
0
SPLINE
5
F9
100
AcDbEntity
8
1
62
256
6
ByLayer
370
18
48
1
60
0
100
AcDbSpline
70
4
71
3
72
12
73
8
40
0
40
0
40
0
40
0
40
0.0803877123706553
40
0.281343279569894
40
0.494236421170219
40
0.82904146628464
40
1
40
1
40
1
40
1
41
1
10
229.641
20
12.38
30
0
41
1
10
229.641013476882
20
12.3799861944927
30
0
41
1
10
229.641944478628
20
12.3790417650631
30
0
41
1
10
229.649614566707
20
12.3712588527912
30
0
41
1
10
229.671467138981
20
12.3491100828145
30
0
41
1
10
229.701142393209
20
12.3190958093908
30
0
41
1
10
229.724092935496
20
12.2959537688679
30
0
41
1
10
229.732250000005
20
12.2877335939083
30
0
0
SPLINE
5
FA
100
AcDbEntity
8
1
62
256
6
ByLayer
370
18
48
1
60
0
100
AcDbSpline
70
4
71
3
72
10
73
6
40
0
40
0
40
0
40
0
40
0.525934623504234
40
0.82462281810474
40
1
40
1
40
1
40
1
41
1
10
229.73225
20
-4.5683454401687
30
0
41
1
10
229.706220797638
20
-4.67396709893657
30
0
41
1
10
229.674366906058
20
-4.83778484638592
30
0
41
1
10
229.644503167958
20
-5.03646938686784
30
0
41
1
10
229.641208193085
20
-5.12715336956575
30
0
41
1
10
229.641027593363
20
-5.16040734629456
30
0
0
SPLINE
5
FB
100
AcDbEntity
8
1
62
256
6
ByLayer
370
18
48
1
60
0
100
AcDbSpline
70
4
71
1
72
4
73
2
40
0
40
0
40
1
40
1
41
1
10
229.73225
20
-5.28980280249555
30
0
41
1
10
230.271
20
-4.67275427615121
30
0
0
SPLINE
5
FC
100
AcDbEntity
8
1
62
256
6
ByLayer
370
18
48
1
60
0
100
AcDbSpline
70
4
71
1
72
4
73
2
40
0
40
0
40
1
40
1
41
1
10
230.271
20
-5.33483889563079
30
0
41
1
10
229.73225
20
-6.91573598044248
30
0
0
SPLINE
5
FD
100
AcDbEntity
8
1
62
256
6
ByLayer
370
18
48
1
60
0
100
AcDbSpline
70
4
71
2
72
6
73
3
40
0
40
0
40
0
40
1
40
1
40
1
41
1
10
229.73225
20
-6.91573598044249
30
0
41
1
10
229.647341250578
20
-7.12057655727494
30
0
41
1
10
229.64100051912
20
-7.29764901403886
30
0
0
SPLINE
5
FE
100
AcDbEntity
8
1
62
256
6
ByLayer
370
18
48
1
60
0
100
AcDbSpline
70
4
71
1
72
4
73
2
40
0
40
0
40
1
40
1
41
1
10
229.73225
20
-7.35862688270121
30
0
41
1
10
230.271
20
-6.87200042134734
30
0
0
SPLINE
5
FF
100
AcDbEntity
8
1
62
256
6
ByLayer
370
18
48
1
60
0
100
AcDbSpline
70
4
71
1
72
4
73
2
40
0
40
0
40
1
40
1
41
1
10
230.271
20
-7.28496731472603
30
0
41
1
10
229.73225
20
-8.46522464212636
30
0
0
SPLINE
5
100
100
AcDbEntity
8
1
62
256
6
ByLayer
370
18
48
1
60
0
100
AcDbSpline
70
4
71
3
72
10
73
6
40
0
40
0
40
0
40
0
40
0.645741552554971
40
0.977472555209754
40
1
40
1
40
1
40
1
41
1
10
229.73225
20
-8.46522464212637
30
0
41
1
10
229.697315858198
20
-8.53382923621456
30
0
41
1
10
229.661112963557
20
-8.63044234160286
30
0
41
1
10
229.641463524552
20
-8.72628753385643
30
0
41
1
10
229.641011251805
20
-8.75569705641509
30
0
41
1
10
229.641000449002
20
-8.75755697857319
30
0
0
SPLINE
5
101
100
AcDbEntity
8
1
62
256
6
ByLayer
370
18
48
1
60
0
100
AcDbSpline
70
4
71
1
72
4
73
2
40
0
40
0
40
1
40
1
41
1
10
229.73225
20
-8.78588444656179
30
0
41
1
10
230.271
20
-8.33601505857005
30
0
0
SPLINE
5
102
100
AcDbEntity
8
1
62
256
6
ByLayer
370
18
48
1
60
0
100
AcDbSpline
70
4
71
1
72
4
73
2
40
0
40
0
40
1
40
1
41
1
10
230.271
20
-8.63458114276066
30
0
41
1
10
229.73225
20
-9.61080914034506
30
0
0
SPLINE
5
103
100
AcDbEntity
8
1
62
256
6
ByLayer
370
18
48
1
60
0
100
AcDbSpline
70
4
71
3
72
10
73
6
40
0
40
0
40
0
40
0
40
0.545679595672349
40
0.822040952922005
40
1
40
1
40
1
40
1
41
1
10
229.73225
20
-9.61080914034506
30
0
41
1
10
229.704102118531
20
-9.65864874010422
30
0
41
1
10
229.671578235156
20
-9.72653713101796
30
0
41
1
10
229.645330471689
20
-9.80611535457746
30
0
41
1
10
229.641527699899
20
-9.83687106211838
30
0
41
1
10
229.641007037684
20
-9.8483593764131
30
0
0
SPLINE
5
104
100
AcDbEntity
8
1
62
256
6
ByLayer
370
18
48
1
60
0
100
AcDbSpline
70
4
71
1
72
4
73
2
40
0
40
0
40
1
40
1
41
1
10
229.73225
20
-9.85439706008743
30
0
41
1
10
230.271
20
-9.41429255559945
30
0
0
SPLINE
5
105
100
AcDbEntity
8
1
62
256
6
ByLayer
370
18
48
1
60
0
100
AcDbSpline
70
4
71
1
72
4
73
2
40
0
40
0
40
1
40
1
41
1
10
230.271
20
-9.63930673052837
30
0
41
1
10
229.73225
20
-10.4857177352157
30
0
0
SPLINE
5
106
100
AcDbEntity
8
1
62
256
6
ByLayer
370
18
48
1
60
0
100
AcDbSpline
70
4
71
3
72
10
73
6
40
0
40
0
40
0
40
0
40
0.526917465956957
40
0.808564407963994
40
1
40
1
40
1
40
1
41
1
10
229.73225
20
-10.4857177352157
30
0
41
1
10
229.705076955431
20
-10.5263368124714
30
0
41
1
10
229.672737278581
20
-10.5839549418005
30
0
41
1
10
229.645469848686
20
-10.6514284861078
30
0
41
1
10
229.641483416015
20
-10.6767751808335
30
0
41
1
10
229.641000443446
20
-10.6862930857991
30
0
0
SPLINE
5
107
100
AcDbEntity
8
1
62
256
6
ByLayer
370
18
48
1
60
0
100
AcDbSpline
70
4
71
1
72
4
73
2
40
0
40
0
40
1
40
1
41
1
10
229.73225
20
-10.672465381878
30
0
41
1
10
230.271
20
-10.2295484547522
30
0
0
SPLINE
5
108
100
AcDbEntity
8
1
62
256
6
ByLayer
370
18
48
1
60
0
100
AcDbSpline
70
4
71
1
72
4
73
2
40
0
40
0
40
1
40
1
41
1
10
230.271
20
-10.3995902313265
30
0
41
1
10
229.73225
20
-11.1538289619795
30
0
0
SPLINE
5
109
100
AcDbEntity
8
1
62
256
6
ByLayer
370
18
48
1
60
0
100
AcDbSpline
70
4
71
3
72
11
73
7
40
0
40
0
40
0
40
0
40
0.480609355804182
40
0.770968203727926
40
0.996743393635323
40
1
40
1
40
1
40
1
41
1
10
229.73225
20
-11.1538289619795
30
0
41
1
10
229.707756501219
20
-11.1868640022235
30
0
41
1
10
229.676074980673
20
-11.2356212246286
30
0
41
1
10
229.647127234278
20
-11.2935532216921
30
0
41
1
10
229.641040607638
20
-11.3172665208873
30
0
41
1
10
229.641000135914
20
-11.3252530445039
30
0
41
1
10
229.641000006299
20
-11.3253662263497
30
0
0
SPLINE
5
10A
100
AcDbEntity
8
1
62
256
6
ByLayer
370
18
48
1
60
0
100
AcDbSpline
70
4
71
1
72
4
73
2
40
0
40
0
40
1
40
1
41
1
10
229.73225
20
-11.2946400224578
30
0
41
1
10
230.271
20
-10.8412830815283
30
0
0
SPLINE
5
10B
100
AcDbEntity
8
1
62
256
6
ByLayer
370
18
48
1
60
0
100
AcDbSpline
70
4
71
1
72
4
73
2
40
0
40
0
40
1
40
1
41
1
10
230.271
20
-10.9663904596632
30
0
41
1
10
229.73225
20
-11.6507735624537
30
0
0
SPLINE
5
10C
100
AcDbEntity
8
1
62
256
6
ByLayer
370
18
48
1
60
0
100
AcDbSpline
70
4
71
3
72
11
73
7
40
0
40
0
40
0
40
0
40
0.442944605750128
40
0.73405779805608
40
0.961334347078452
40
1
40
1
40
1
40
1
41
1
10
229.73225
20
-11.6507735624537
30
0
41
1
10
229.709952755053
20
-11.6783205754549
30
0
41
1
10
229.679343684123
20
-11.7199159520568
30
0
41
1
10
229.649582559341
20
-11.7690068420046
30
0
41
1
10
229.641519733339
20
-11.7903216832456
30
0
41
1
10
229.641013824334
20
-11.7973188971531
30
0
41
1
10
229.641000283227
20
-11.7982829874517
30
0
0
SPLINE
5
10D
100
AcDbEntity
8
1
62
256
6
ByLayer
370
18
48
1
60
0
100
AcDbSpline
70
4
71
1
72
4
73
2
40
0
40
0
40
1
40
1
41
1
10
229.73225
20
-11.7520750995911
30
0
41
1
10
230.271
20
-11.282649339563
30
0
0
SPLINE
5
10E
100
AcDbEntity
8
1
62
256
6
ByLayer
370
18
48
1
60
0
100
AcDbSpline
70
4
71
1
72
4
73
2
40
0
40
0
40
1
40
1
41
1
10
230.271
20
-11.3686834087366
30
0
41
1
10
229.73225
20
-11.9978393343988
30
0
0
SPLINE
5
10F
100
AcDbEntity
8
1
62
256
6
ByLayer
370
18
48
1
60
0
100
AcDbSpline
70
4
71
3
72
11
73
7
40
0
40
0
40
0
40
0
40
0.333087953316361
40
0.644813062810241
40
0.882871267765044
40
1
40
1
40
1
40
1
41
1
10
229.73225
20
-11.9978393343988
30
0
41
1
10
229.715897099759
20
-12.0165880876396
30
0
41
1
10
229.687920771365
20
-12.0502576314821
30
0
41
1
10
229.65664016433
20
-12.092105413282
30
0
41
1
10
229.642933659516
20
-12.1156284907934
30
0
41
1
10
229.641099965024
20
-12.1229478471312
30
0
41
1
10
229.641000150798
20
-12.1249009548997
30
0
0
SPLINE
5
110
100
AcDbEntity
8
1
62
256
6
ByLayer
370
18
48
1
60
0
100
AcDbSpline
70
4
71
1
72
4
73
2
40
0
40
0
40
1
40
1
41
1
10
229.73225
20
-12.0635253991507
30
0
41
1
10
230.271
20
-11.5731557228463
30
0
0
SPLINE
5
111
100
AcDbEntity
8
1
62
256
6
ByLayer
370
18
48
1
60
0
100
AcDbSpline
70
4
71
1
72
4
73
2
40
0
40
0
40
1
40
1
41
1
10
230.271
20
-11.6235624996115
30
0
41
1
10
229.73225
20
-12.2078160530262
30
0
0
SPLINE
5
112
100
AcDbEntity
8
1
62
256
6
ByLayer
370
18
48
1
60
0
100
AcDbSpline
70
4
71
3
72
11
73
7
40
0
40
0
40
0
40
0
40
0.349370500438205
40
0.638637293876411
40
0.869106903891301
40
1
40
1
40
1
40
1
41
1
10
229.73225
20
-12.2078160530262
30
0
41
1
10
229.715068446075
20
-12.2262074939963
30
0
41
1
10
229.687476651846
20
-12.2565788574195
30
0
41
1
10
229.656718127131
20
-12.2925596197082
30
0
41
1
10
229.643107492336
20
-12.3109044679547
30
0
41
1
10
229.641097696745
20
-12.3156176109689
30
0
41
1
10
229.641000066466
20
-12.3167166460803
30
0
0
SPLINE
5
113
100
AcDbEntity
8
1
62
256
6
ByLayer
370
18
48
1
60
0
100
AcDbSpline
70
4
71
1
72
4
73
2
40
0
40
0
40
1
40
1
41
1
10
229.73225
20
-12.240139744524
30
0
41
1
10
230.271
20
-11.7240219485873
30
0
0
SPLINE
5
114
100
AcDbEntity
8
1
62
256
6
ByLayer
370
18
48
1
60
0
100
AcDbSpline
70
4
71
1
72
4
73
2
40
0
40
0
40
1
40
1
41
1
10
230.271
20
-11.7406323473937
30
0
41
1
10
229.73225
20
-12.2877335939139
30
0
0
SPLINE
5
115
100
AcDbEntity
8
1
62
256
6
ByLayer
370
18
48
1
60
0
100
AcDbSpline
70
4
71
3
72
11
73
7
40
0
40
0
40
0
40
0
40
0.363287111290102
40
0.632578006283338
40
0.855518608046196
40
1
40
1
40
1
40
1
41
1
10
229.73225
20
-12.2877335939139
30
0
41
1
10
229.714309344944
20
-12.305822034923
30
0
41
1
10
229.687021951371
20
-12.3333607295675
30
0
41
1
10
229.656736184429
20
-12.3640364762848
30
0
41
1
10
229.643242804848
20
-12.3777243681483
30
0
41
1
10
229.641081162625
20
-12.3799169186725
30
0
41
1
10
229.641
20
-12.38
30
0
0
SPLINE
5
116
100
AcDbEntity
8
1
62
256
6
ByLayer
370
18
48
1
60
0
100
AcDbSpline
70
4
71
1
72
4
73
2
40
0
40
0
40
1
40
1
41
1
10
229.73225
20
12.2877335939139
30
0
41
1
10
230.271
20
11.7406323473937
30
0
0
SPLINE
5
117
100
AcDbEntity
8
1
62
256
6
ByLayer
370
18
48
1
60
0
100
AcDbSpline
70
4
71
1
72
4
73
2
40
0
40
0
40
1
40
1
41
1
10
230.271
20
11.7240219485873
30
0
41
1
10
229.73225
20
12.240139744524
30
0
0
SPLINE
5
118
100
AcDbEntity
8
1
62
256
6
ByLayer
370
18
48
1
60
0
100
AcDbSpline
70
4
71
3
72
10
73
6
40
0
40
0
40
0
40
0
40
0.426569557599578
40
0.712208699620429
40
1
40
1
40
1
40
1
41
1
10
229.73225
20
12.240139744524
30
0
41
1
10
229.713599904728
20
12.2579945218035
30
0
41
1
10
229.68667098847
20
12.2829323666806
30
0
41
1
10
229.655124268718
20
12.3101334825465
30
0
41
1
10
229.645740559122
20
12.316302034386
30
0
41
1
10
229.64273705906
20
12.3175103883151
30
0
0
SPLINE
5
119
100
AcDbEntity
8
1
62
256
6
ByLayer
370
18
48
1
60
0
100
AcDbSpline
70
4
71
1
72
4
73
2
40
0
40
0
40
1
40
1
41
1
10
229.73225
20
12.2078160530262
30
0
41
1
10
230.271
20
11.6235624996115
30
0
0
SPLINE
5
11A
100
AcDbEntity
8
1
62
256
6
ByLayer
370
18
48
1
60
0
100
AcDbSpline
70
4
71
1
72
4
73
2
40
0
40
0
40
1
40
1
41
1
10
230.271
20
11.5731557228463
30
0
41
1
10
229.73225
20
12.0635253991507
30
0
0
SPLINE
5
11B
100
AcDbEntity
8
1
62
256
6
ByLayer
370
18
48
1
60
0
100
AcDbSpline
70
4
71
3
72
12
73
8
40
0
40
0
40
0
40
0
40
0.290983322097176
40
0.547294733627012
40
0.762967008538239
40
0.97920413011536
40
1
40
1
40
1
40
1
41
1
10
229.73225
20
12.0635253991507
30
0
41
1
10
229.718037755791
20
12.0765081431125
30
0
41
1
10
229.693730705964
20
12.0975441788766
30
0
41
1
10
229.663921863982
20
12.1203534086869
30
0
41
1
10
229.645762867167
20
12.1301210985049
30
0
41
1
10
229.641179049469
20
12.1283485956463
30
0
41
1
10
229.640999091514
20
12.1252304965168
30
0
41
1
10
229.641000006457
20
12.1249394678571
30
0
0
SPLINE
5
11C
100
AcDbEntity
8
1
62
256
6
ByLayer
370
18
48
1
60
0
100
AcDbSpline
70
4
71
1
72
4
73
2
40
0
40
0
40
1
40
1
41
1
10
229.73225
20
11.9978393343988
30
0
41
1
10
230.271
20
11.3686834087366
30
0
0
SPLINE
5
11D
100
AcDbEntity
8
1
62
256
6
ByLayer
370
18
48
1
60
0
100
AcDbSpline
70
4
71
1
72
4
73
2
40
0
40
0
40
1
40
1
41
1
10
230.271
20
11.282649339563
30
0
41
1
10
229.73225
20
11.7520750995911
30
0
0
SPLINE
5
11E
100
AcDbEntity
8
1
62
256
6
ByLayer
370
18
48
1
60
0
100
AcDbSpline
70
4
71
3
72
12
73
8
40
0
40
0
40
0
40
0
40
0.261950786946854
40
0.506820095807977
40
0.753518780296035
40
0.962397106901302
40
1
40
1
40
1
40
1
41
1
10
229.73225
20
11.7520750995911
30
0
41
1
10
229.719457057234
20
11.7633166138184
30
0
41
1
10
229.696605576442
20
11.7818651776419
30
0
41
1
10
229.665919907703
20
11.802547568362
30
0
41
1
10
229.646386257931
20
11.8091517857849
30
0
41
1
10
229.641309208965
20
11.8038910801296
30
0
41
1
10
229.640994952719
20
11.7991200467866
30
0
41
1
10
229.641000064647
20
11.7983365902929
30
0
0
SPLINE
5
11F
100
AcDbEntity
8
1
62
256
6
ByLayer
370
18
48
1
60
0
100
AcDbSpline
70
4
71
1
72
4
73
2
40
0
40
0
40
1
40
1
41
1
10
229.73225
20
11.6507735624537
30
0
41
1
10
230.271
20
10.9663904596632
30
0
0
SPLINE
5
120
100
AcDbEntity
8
1
62
256
6
ByLayer
370
18
48
1
60
0
100
AcDbSpline
70
4
71
1
72
4
73
2
40
0
40
0
40
1
40
1
41
1
10
230.271
20
10.8412830815283
30
0
41
1
10
229.73225
20
11.2946400224578
30
0
0
SPLINE
5
121
100
AcDbEntity
8
1
62
256
6
ByLayer
370
18
48
1
60
0
100
AcDbSpline
70
4
71
3
72
12
73
8
40
0
40
0
40
0
40
0
40
0.231480102558318
40
0.462123651622581
40
0.694380869318173
40
0.893083043456572
40
1
40
1
40
1
40
1
41
1
10
229.73225
20
11.2946400224578
30
0
41
1
10
229.720885070444
20
11.3043276532536
30
0
41
1
10
229.699624154611
20
11.3206922624265
30
0
41
1
10
229.670008557052
20
11.3384806826822
30
0
41
1
10
229.649612503947
20
11.3428461089969
30
0
41
1
10
229.64197820197
20
11.3355180180312
30
0
41
1
10
229.640943894422
20
11.328156115494
30
0
41
1
10
229.641000908894
20
11.3251321151027
30
0
0
SPLINE
5
122
100
AcDbEntity
8
1
62
256
6
ByLayer
370
18
48
1
60
0
100
AcDbSpline
70
4
71
1
72
4
73
2
40
0
40
0
40
1
40
1
41
1
10
229.73225
20
11.1538289619795
30
0
41
1
10
230.271
20
10.3995902313265
30
0
0
SPLINE
5
123
100
AcDbEntity
8
1
62
256
6
ByLayer
370
18
48
1
60
0
100
AcDbSpline
70
4
71
1
72
4
73
2
40
0
40
0
40
1
40
1
41
1
10
230.271
20
10.2295484547522
30
0
41
1
10
229.73225
20
10.672465381878
30
0
0
SPLINE
5
124
100
AcDbEntity
8
1
62
256
6
ByLayer
370
18
48
1
60
0
100
AcDbSpline
70
4
71
3
72
12
73
8
40
0
40
0
40
0
40
0
40
0.20018190041481
40
0.414389023711277
40
0.63002844442954
40
0.815820213355137
40
1
40
1
40
1
40
1
41
1
10
229.73225
20
10.6724653818778
30
0
41
1
10
229.722350770154
20
10.6807412049953
30
0
41
1
10
229.70285888451
20
10.6951744690972
30
0
41
1
10
229.67465213726
20
10.7105743498161
30
0
41
1
10
229.653651694288
20
10.7131954498675
30
0
41
1
10
229.642892486012
20
10.7035659632027
30
0
41
1
10
229.640813208929
20
10.6928448237194
30
0
41
1
10
229.641001095817
20
10.6861577308969
30
0
0
SPLINE
5
125
100
AcDbEntity
8
1
62
256
6
ByLayer
370
18
48
1
60
0
100
AcDbSpline
70
4
71
1
72
4
73
2
40
0
40
0
40
1
40
1
41
1
10
229.73225
20
10.4857177352157
30
0
41
1
10
230.271
20
9.63930673052837
30
0
0
SPLINE
5
126
100
AcDbEntity
8
1
62
256
6
ByLayer
370
18
48
1
60
0
100
AcDbSpline
70
4
71
1
72
4
73
2
40
0
40
0
40
1
40
1
41
1
10
230.271
20
9.41429255559945
30
0
41
1
10
229.73225
20
9.85439706008743
30
0
0
SPLINE
5
127
100
AcDbEntity
8
1
62
256
6
ByLayer
370
18
48
1
60
0
100
AcDbSpline
70
4
71
3
72
13
73
9
40
0
40
0
40
0
40
0
40
0.167240470114983
40
0.36201512541812
40
0.558092142198181
40
0.72701161238461
40
0.96620918330411
40
1
40
1
40
1
40
1
41
1
10
229.732250000001
20
9.85439706008715
30
0
41
1
10
229.723889335677
20
9.8613627454527
30
0
41
1
10
229.706408324265
20
9.87407950636638
30
0
41
1
10
229.68002421729
20
9.88764270671052
30
0
41
1
10
229.658795135828
20
9.88901189296133
30
0
41
1
10
229.6446930768
20
9.87779025991198
30
0
41
1
10
229.641211388179
20
9.8619635946508
30
0
41
1
10
229.640991603466
20
9.85073318741976
30
0
41
1
10
229.641000369587
20
9.84930867733357
30
0
0
SPLINE
5
128
100
AcDbEntity
8
1
62
256
6
ByLayer
370
18
48
1
60
0
100
AcDbSpline
70
4
71
1
72
4
73
2
40
0
40
0
40
1
40
1
41
1
10
229.73225
20
9.61080914034506
30
0
41
1
10
230.271
20
8.63458114276066
30
0
0
SPLINE
5
129
100
AcDbEntity
8
1
62
256
6
ByLayer
370
18
48
1
60
0
100
AcDbSpline
70
4
71
1
72
4
73
2
40
0
40
0
40
1
40
1
41
1
10
230.271
20
8.33601505857005
30
0
41
1
10
229.73225
20
8.78588444656179
30
0
0
SPLINE
5
12A
100
AcDbEntity
8
1
62
256
6
ByLayer
370
18
48
1
60
0
100
AcDbSpline
70
4
71
3
72
13
73
9
40
0
40
0
40
0
40
0
40
0.130307103749939
40
0.323908710135307
40
0.494817830063463
40
0.639384076730611
40
0.86683658065959
40
1
40
1
40
1
40
1
41
1
10
229.732250000002
20
8.78588444656102
30
0
41
1
10
229.725538358709
20
8.79161630959275
30
0
41
1
10
229.709210578845
20
8.80369891602728
30
0
41
1
10
229.683879739629
20
8.81617024418503
30
0
41
1
10
229.662748752799
20
8.81515089058575
30
0
41
1
10
229.647921319459
20
8.80213138192732
30
0
41
1
10
229.64190188829
20
8.78097308248885
30
0
41
1
10
229.640842118157
20
8.76353317479932
30
0
41
1
10
229.641005277412
20
8.75656778647347
30
0
0
SPLINE
5
12B
100
AcDbEntity
8
1
62
256
6
ByLayer
370
18
48
1
60
0
100
AcDbSpline
70
4
71
1
72
4
73
2
40
0
40
0
40
1
40
1
41
1
10
229.73225
20
8.46522464212636
30
0
41
1
10
230.271
20
7.28496731472603
30
0
0
SPLINE
5
12C
100
AcDbEntity
8
1
62
256
6
ByLayer
370
18
48
1
60
0
100
AcDbSpline
70
4
71
1
72
4
73
2
40
0
40
0
40
1
40
1
41
1
10
230.271
20
6.87200042134735
30
0
41
1
10
229.73225
20
7.35862688270121
30
0
0
SPLINE
5
12D
100
AcDbEntity
8
1
62
256
6
ByLayer
370
18
48
1
60
0
100
AcDbSpline
70
4
71
3
72
14
73
10
40
0
40
0
40
0
40
0
40
0.0907799683164932
40
0.242088607027816
40
0.355695581184165
40
0.46918035696848
40
0.63253963426244
40
0.912014528228847
40
1
40
1
40
1
40
1
41
1
10
229.732250000006
20
7.35862688269814
30
0
41
1
10
229.727395342641
20
7.36309200926983
30
0
41
1
10
229.71446466206
20
7.37348895244816
30
0
41
1
10
229.694483105227
20
7.38461738912767
30
0
41
1
10
229.675240870768
20
7.38626791884762
30
0
41
1
10
229.659631515193
20
7.37846582208443
30
0
41
1
10
229.645717173161
20
7.35534584137324
30
0
41
1
10
229.641483505943
20
7.32455555062662
30
0
41
1
10
229.640930912185
20
7.3020073690269
30
0
41
1
10
229.641004696959
20
7.29644401145867
30
0
0
SPLINE
5
12E
100
AcDbEntity
8
1
62
256
6
ByLayer
370
18
48
1
60
0
100
AcDbSpline
70
4
71
1
72
4
73
2
40
0
40
0
40
1
40
1
41
1
10
229.73225
20
6.91573598044248
30
0
41
1
10
230.271
20
5.33483889563079
30
0
0
SPLINE
5
12F
100
AcDbEntity
8
1
62
256
6
ByLayer
370
18
48
1
60
0
100
AcDbSpline
70
4
71
1
72
4
73
2
40
0
40
0
40
1
40
1
41
1
10
230.271
20
4.67275427615121
30
0
41
1
10
229.73225
20
5.28980280249552
30
0
0
SPLINE
5
130
100
AcDbEntity
8
1
62
256
6
ByLayer
370
18
48
1
60
0
100
AcDbSpline
70
4
71
3
72
14
73
10
40
0
40
0
40
0
40
0
40
0.109342584805029
40
0.182599253080245
40
0.256361666700858
40
0.323283419577413
40
0.426821569309507
40
0.620067492932236
40
1
40
1
40
1
40
1
41
1
10
229.732250000024
20
5.28980280247635
30
0
41
1
10
229.725687804626
20
5.297560282759
30
0
41
1
10
229.714353399258
20
5.30777349770063
30
0
41
1
10
229.696968508131
20
5.31729474570021
30
0
41
1
10
229.682858246388
20
5.31822483399799
30
0
41
1
10
229.669531938377
20
5.31136225733768
30
0
41
1
10
229.655485794365
20
5.29135768964447
30
0
41
1
10
229.642912628438
20
5.24024681003284
30
0
41
1
10
229.638980621897
20
5.19359825871477
30
0
41
1
10
229.641039150681
20
5.15905671087025
30
0
0
SPLINE
5
131
100
AcDbEntity
8
1
62
256
6
ByLayer
370
18
48
1
60
0
100
AcDbSpline
70
4
71
3
72
11
73
7
40
0
40
0
40
0
40
0
40
0.248526186175638
40
0.497040139624488
40
0.748524082917505
40
1
40
1
40
1
40
1
41
1
10
229.73225
20
4.5683454401687
30
0
41
1
10
229.805459341296
20
4.26687842228724
30
0
41
1
10
229.937939171842
20
3.66046917564503
30
0
41
1
10
230.09675258107
20
2.73589430605017
30
0
41
1
10
230.211230276758
20
1.7987436542431
30
0
41
1
10
230.256267691987
20
1.16804616795771
30
0
41
1
10
230.271
20
0.851623924067246
30
0
0
SPLINE
5
132
100
AcDbEntity
8
1
62
256
6
ByLayer
370
18
48
1
60
0
100
AcDbSpline
70
4
71
3
72
11
73
7
40
0
40
0
40
0
40
0
40
0.248446567394347
40
0.496900742500827
40
0.748443959932929
40
1
40
1
40
1
40
1
41
1
10
230.271
20
-0.851623924067246
30
0
41
1
10
230.256450868135
20
-1.16422594794378
30
0
41
1
10
230.212143149793
20
-1.78734756068544
30
0
41
1
10
230.098964335469
20
-2.72083609264107
30
0
41
1
10
229.940282958595
20
-3.64934993872741
30
0
41
1
10
229.806358705741
20
-4.26319663066539
30
0
41
1
10
229.73225
20
-4.5683454401687
30
0
0
SPLINE
5
133
100
AcDbEntity
8
1
62
256
6
ByLayer
370
18
48
1
60
0
100
AcDbSpline
70
4
71
3
72
14
73
10
40
0
40
0
40
0
40
0
40
0.26712046690693
40
0.575029237593565
40
0.67037203610031
40
0.743598405040155
40
0.81720349558984
40
0.884392368803747
40
1
40
1
40
1
40
1
41
1
10
229.641027593363
20
-5.16040734629456
30
0
41
1
10
229.640074209011
20
-5.18399829609844
30
0
41
1
10
229.64280075747
20
-5.23110439232335
30
0
41
1
10
229.651390926651
20
-5.28535142767697
30
0
41
1
10
229.669601020314
20
-5.31133846389614
30
0
41
1
10
229.682704964574
20
-5.31829009007506
30
0
41
1
10
229.696754376304
20
-5.31724730425011
30
0
41
1
10
229.71401352582
20
-5.30807017581154
30
0
41
1
10
229.725334917773
20
-5.29799592781705
30
0
41
1
10
229.73225
20
-5.28980280249555
30
0
0
SPLINE
5
134
100
AcDbEntity
8
1
62
256
6
ByLayer
370
18
48
1
60
0
100
AcDbSpline
70
4
71
3
72
10
73
6
40
0
40
0
40
0
40
0
40
0.103288009068175
40
0.55096707356765
40
1
40
1
40
1
40
1
41
1
10
229.641039150681
20
5.15905671087025
30
0
41
1
10
229.641432470523
20
5.13946378441799
30
0
41
1
10
229.645099443266
20
5.03450250879099
30
0
41
1
10
229.672470237674
20
4.83600437177487
30
0
41
1
10
229.709256831476
20
4.6582743889595
30
0
41
1
10
229.73225
20
4.56834544016871
30
0
0
SPLINE
5
135
100
AcDbEntity
8
1
62
256
6
ByLayer
370
18
48
1
60
0
100
AcDbSpline
70
4
71
3
72
12
73
8
40
0
40
0
40
0
40
0
40
0.0585550559660213
40
0.505901505794956
40
0.736227137721714
40
0.928456612796874
40
1
40
1
40
1
40
1
41
1
10
229.64100051912
20
-7.29764901403886
30
0
41
1
10
229.640988669223
20
-7.30008174002103
30
0
41
1
10
229.641216041929
20
-7.32084285608795
30
0
41
1
10
229.64427768656
20
-7.34978028172717
30
0
41
1
10
229.65699069701
20
-7.37535509800581
30
0
41
1
10
229.669037494525
20
-7.38381427669773
30
0
41
1
10
229.676939942809
20
-7.38511331710665
30
0
41
1
10
229.679195815964
20
-7.38526606449689
30
0
0
SPLINE
5
136
100
AcDbEntity
8
1
62
256
6
ByLayer
370
18
48
1
60
0
100
AcDbSpline
70
4
71
3
72
10
73
6
40
0
40
0
40
0
40
0
40
0.244570774377473
40
0.584399881961234
40
1
40
1
40
1
40
1
41
1
10
229.679195815964
20
-7.38526606449689
30
0
41
1
10
229.683149805951
20
-7.38542441980644
30
0
41
1
10
229.69284372932
20
-7.38440131055013
30
0
41
1
10
229.711317282727
20
-7.37571116166504
30
0
41
1
10
229.72477625305
20
-7.36558081082204
30
0
41
1
10
229.73225
20
-7.35862688270121
30
0
0
SPLINE
5
137
100
AcDbEntity
8
1
62
256
6
ByLayer
370
18
48
1
60
0
100
AcDbSpline
70
4
71
2
72
6
73
3
40
0
40
0
40
0
40
1
40
1
40
1
41
1
10
229.641004696959
20
7.29644401145867
30
0
41
1
10
229.649760437173
20
7.11785984629924
30
0
41
1
10
229.73225
20
6.91573598044247
30
0
0
SPLINE
5
138
100
AcDbEntity
8
1
62
256
6
ByLayer
370
18
48
1
60
0
100
AcDbSpline
70
4
71
3
72
11
73
7
40
0
40
0
40
0
40
0
40
0.299885116516655
40
0.658561874791559
40
0.885752752629671
40
1
40
1
40
1
40
1
41
1
10
229.641000449002
20
-8.75755697857319
30
0
41
1
10
229.640670355196
20
-8.76802344691722
30
0
41
1
10
229.642849766409
20
-8.78800236210634
30
0
41
1
10
229.652707565318
20
-8.80952447083736
30
0
41
1
10
229.668663893731
20
-8.81573620781158
30
0
41
1
10
229.678173792228
20
-8.81502278081466
30
0
41
1
10
229.68157584797
20
-8.81439513288842
30
0
0
SPLINE
5
139
100
AcDbEntity
8
1
62
256
6
ByLayer
370
18
48
1
60
0
100
AcDbSpline
70
4
71
3
72
10
73
6
40
0
40
0
40
0
40
0
40
0.219670322496212
40
0.749029864082783
40
1
40
1
40
1
40
1
41
1
10
229.68157584797
20
-8.81439513288842
30
0
41
1
10
229.684993644765
20
-8.81370469227019
30
0
41
1
10
229.696842043427
20
-8.81033766198599
30
0
41
1
10
229.71450077754
20
-8.79993311773665
30
0
41
1
10
229.727901031238
20
-8.78956030944886
30
0
41
1
10
229.732250000033
20
-8.78588444655162
30
0
0
SPLINE
5
13A
100
AcDbEntity
8
1
62
256
6
ByLayer
370
18
48
1
60
0
100
AcDbSpline
70
4
71
3
72
10
73
6
40
0
40
0
40
0
40
0
40
0.158074141884683
40
0.618723320980861
40
1
40
1
40
1
40
1
41
1
10
229.641005277412
20
8.75656778647347
30
0
41
1
10
229.641509504893
20
8.74313839359063
30
0
41
1
10
229.646174533825
20
8.68935801067675
30
0
41
1
10
229.677340766494
20
8.58857099215642
30
0
41
1
10
229.712930301786
20
8.5044024755659
30
0
41
1
10
229.73225
20
8.46522464212637
30
0
0
SPLINE
5
13B
100
AcDbEntity
8
1
62
256
6
ByLayer
370
18
48
1
60
0
100
AcDbSpline
70
4
71
3
72
13
73
9
40
0
40
0
40
0
40
0
40
0.1490914209996
40
0.342542673938133
40
0.537436452174658
40
0.709329403864463
40
0.925170870121832
40
1
40
1
40
1
40
1
41
1
10
229.641007037684
20
-9.84835937641311
30
0
41
1
10
229.64081143298
20
-9.85490965216278
30
0
41
1
10
229.642105620229
20
-9.86817996442208
30
0
41
1
10
229.649602776803
20
-9.88424598499666
30
0
41
1
10
229.666558963067
20
-9.88994274271425
30
0
41
1
10
229.69148433463
20
-9.88290254486098
30
0
41
1
10
229.714287821628
20
-9.86854415598924
30
0
41
1
10
229.728542939606
20
-9.85744887478989
30
0
41
1
10
229.732250000003
20
-9.85439706008651
30
0
0
SPLINE
5
13C
100
AcDbEntity
8
1
62
256
6
ByLayer
370
18
48
1
60
0
100
AcDbSpline
70
4
71
3
72
10
73
6
40
0
40
0
40
0
40
0
40
0.231487098965093
40
0.670623613354818
40
1
40
1
40
1
40
1
41
1
10
229.641000369587
20
9.84930867733357
30
0
41
1
10
229.641884898263
20
9.83403972200337
30
0
41
1
10
229.648550907168
20
9.78772811218212
30
0
41
1
10
229.682448406439
20
9.70356230246135
30
0
41
1
10
229.715730844018
20
9.63922941005738
30
0
41
1
10
229.73225
20
9.61080914034506
30
0
0
SPLINE
5
13D
100
AcDbEntity
8
1
62
256
6
ByLayer
370
18
48
1
60
0
100
AcDbSpline
70
4
71
3
72
13
73
9
40
0
40
0
40
0
40
0
40
0.0474900768900375
40
0.262176384730771
40
0.478365749104857
40
0.665736863586071
40
0.907797407895759
40
1
40
1
40
1
40
1
41
1
10
229.641000443446
20
-10.6862930857991
30
0
41
1
10
229.640985630284
20
-10.6879440243469
30
0
41
1
10
229.641330344465
20
-10.6966292438395
30
0
41
1
10
229.645715173158
20
-10.7092414453006
30
0
41
1
10
229.661908261157
20
-10.7135427262871
30
0
41
1
10
229.687321347321
20
-10.7047460876007
30
0
41
1
10
229.711867750692
20
-10.6886761888625
30
0
41
1
10
229.727786622405
20
-10.6761589357035
30
0
41
1
10
229.732250000005
20
-10.6724653818764
30
0
0
SPLINE
5
13E
100
AcDbEntity
8
1
62
256
6
ByLayer
370
18
48
1
60
0
100
AcDbSpline
70
4
71
3
72
11
73
7
40
0
40
0
40
0
40
0
40
0.0483188377386062
40
0.321676692793128
40
0.760544060736363
40
1
40
1
40
1
40
1
41
1
10
229.641001095817
20
10.6861577308969
30
0
41
1
10
229.641036468705
20
10.6838642190676
30
0
41
1
10
229.64185702375
20
10.6681603154257
30
0
41
1
10
229.655423283263
20
10.6213509600996
30
0
41
1
10
229.690032029038
20
10.5530332434686
30
0
41
1
10
229.720478739271
20
10.5035635793041
30
0
41
1
10
229.732249999995
20
10.4857177352159
30
0
0
SPLINE
5
13F
100
AcDbEntity
8
1
62
256
6
ByLayer
370
18
48
1
60
0
100
AcDbSpline
70
4
71
3
72
12
73
8
40
0
40
0
40
0
40
0
40
0.213484102384079
40
0.432168674349031
40
0.628620877039036
40
0.893256422038366
40
1
40
1
40
1
40
1
41
1
10
229.641000006299
20
-11.3253662263497
30
0
41
1
10
229.640891758172
20
-11.3315613616354
30
0
41
1
10
229.643993477246
20
-11.3402431446011
30
0
41
1
10
229.658815665029
20
-11.3420594990345
30
0
41
1
10
229.683909325859
20
-11.3310850013292
30
0
41
1
10
229.709758570348
20
-11.3130368323155
30
0
41
1
10
229.727142031516
20
-11.2989573809917
30
0
41
1
10
229.732250000006
20
-11.2946400224557
30
0
0
SPLINE
5
140
100
AcDbEntity
8
1
62
256
6
ByLayer
370
18
48
1
60
0
100
AcDbSpline
70
4
71
3
72
11
73
7
40
0
40
0
40
0
40
0
40
0.114908749294128
40
0.397853912834112
40
0.828489753563168
40
1
40
1
40
1
40
1
41
1
10
229.641000908894
20
11.3251321151027
30
0
41
1
10
229.641159414802
20
11.3209561428857
30
0
41
1
10
229.643297472435
20
11.3052649910631
30
0
41
1
10
229.661986939534
20
11.260521717925
30
0
41
1
10
229.696422459188
20
11.2042674299904
30
0
41
1
10
229.723938246981
20
11.165168813805
30
0
41
1
10
229.73225
20
11.1538289619795
30
0
0
SPLINE
5
141
100
AcDbEntity
8
1
62
256
6
ByLayer
370
18
48
1
60
0
100
AcDbSpline
70
4
71
3
72
11
73
7
40
0
40
0
40
0
40
0
40
0.143612839063688
40
0.415788673195533
40
0.813100232698575
40
1
40
1
40
1
40
1
41
1
10
229.641000064647
20
11.7983365902929
30
0
41
1
10
229.641196935113
20
11.7945588509816
30
0
41
1
10
229.643826138242
20
11.7819032940043
30
0
41
1
10
229.663209853271
20
11.7444605532104
30
0
41
1
10
229.696704781508
20
11.6962103252866
30
0
41
1
10
229.723221037978
20
11.6620103753937
30
0
41
1
10
229.73225
20
11.6507735624533
30
0
0
SPLINE
5
142
100
AcDbEntity
8
1
62
256
6
ByLayer
370
18
48
1
60
0
100
AcDbSpline
70
4
71
3
72
12
73
8
40
0
40
0
40
0
40
0
40
0.17065955756196
40
0.387451261764468
40
0.5896659892951
40
0.87160539755496
40
1
40
1
40
1
40
1
41
1
10
229.641000283227
20
-11.7982829874517
30
0
41
1
10
229.640952071143
20
-11.8019637786855
30
0
41
1
10
229.643266227553
20
-11.8076075159008
30
0
41
1
10
229.655736710408
20
-11.8068897417832
30
0
41
1
10
229.68000598631
20
-11.7938342496183
30
0
41
1
10
229.707117248023
20
-11.7734439340102
30
0
41
1
10
229.726121115317
20
-11.7574269990051
30
0
41
1
10
229.732250000011
20
-11.7520750995866
30
0
0
SPLINE
5
143
100
AcDbEntity
8
1
62
256
6
ByLayer
370
18
48
1
60
0
100
AcDbSpline
70
4
71
3
72
12
73
8
40
0
40
0
40
0
40
0
40
0.0875404208707901
40
0.306019354289531
40
0.511065355130472
40
0.794892985150602
40
1
40
1
40
1
40
1
41
1
10
229.641000150798
20
-12.1249009548997
30
0
41
1
10
229.640988042082
20
-12.1261473956113
30
0
41
1
10
229.641964833701
20
-12.1294168157099
30
0
41
1
10
229.649924908218
20
-12.1284642409282
30
0
41
1
10
229.671321865837
20
-12.1151467098039
30
0
41
1
10
229.700224472356
20
-12.091987134192
30
0
41
1
10
229.722390423519
20
-12.0725084367706
30
0
41
1
10
229.73225
20
-12.0635253991507
30
0
0
SPLINE
5
144
100
AcDbEntity
8
1
62
256
6
ByLayer
370
18
48
1
60
0
100
AcDbSpline
70
4
71
3
72
11
73
7
40
0
40
0
40
0
40
0
40
0.165252999317445
40
0.425192053112732
40
0.791705976488172
40
1
40
1
40
1
40
1
41
1
10
229.641000006457
20
12.1249394678571
30
0
41
1
10
229.64122382811
20
12.1220767441879
30
0
41
1
10
229.644217894085
20
12.1125470916562
30
0
41
1
10
229.663709176019
20
12.0817929418507
30
0
41
1
10
229.696333454391
20
12.0399776818316
30
0
41
1
10
229.722209659759
20
12.0093765331493
30
0
41
1
10
229.73225
20
11.997839334396
30
0
0
SPLINE
5
145
100
AcDbEntity
8
1
62
256
6
ByLayer
370
18
48
1
60
0
100
AcDbSpline
70
4
71
3
72
12
73
8
40
0
40
0
40
0
40
0
40
0.0917271355055288
40
0.286891182087244
40
0.569760075617017
40
0.965249206079287
40
1
40
1
40
1
40
1
41
1
10
229.641000074585
20
12.3167157001201
30
0
41
1
10
229.641037100151
20
12.3159829169107
30
0
41
1
10
229.642176033522
20
12.3126941274602
30
0
41
1
10
229.651614824072
20
12.2990246027895
30
0
41
1
10
229.67923473731
20
12.2658008367054
30
0
41
1
10
229.710484089983
20
12.2312239130685
30
0
41
1
10
229.730609710998
20
12.2095761454434
30
0
41
1
10
229.73225
20
12.2078160530262
30
0
0
SPLINE
5
146
100
AcDbEntity
8
1
62
256
6
ByLayer
370
18
48
1
60
0
100
AcDbSpline
70
4
71
3
72
11
73
7
40
0
40
0
40
0
40
0
40
0.234552863643648
40
0.47021200106246
40
0.827105985047052
40
1
40
1
40
1
40
1
41
1
10
229.642402908281
20
-12.3175938795946
30
0
41
1
10
229.644517089693
20
-12.3169647909606
30
0
41
1
10
229.651426166446
20
-12.3127908741979
30
0
41
1
10
229.674523855728
20
-12.2937111416798
30
0
41
1
10
229.703330478243
20
-12.2674873555943
30
0
41
1
10
229.724907147914
20
-12.2471450854789
30
0
41
1
10
229.732250000007
20
-12.2401397445188
30
0
0
SPLINE
5
147
100
AcDbEntity
8
1
62
256
6
ByLayer
370
18
48
1
60
0
100
AcDbSpline
70
4
71
3
72
13
73
9
40
0
40
0
40
0
40
0
40
0.0811068003230501
40
0.54205969579374
40
0.698217929308328
40
0.855466894270602
40
0.966212236972897
40
1
40
1
40
1
40
1
41
1
10
11.8943375672974
20
23.6665017920809
30
0
41
1
10
11.8894428381777
20
23.6728293617709
30
0
41
1
10
11.8534346287606
20
23.7145200781299
30
0
41
1
10
11.7877522749415
20
23.7663890526222
30
0
41
1
10
11.6656255980129
20
23.8124861135428
30
0
41
1
10
11.5793223070755
20
23.8319383085952
30
0
41
1
10
11.5056611588718
20
23.8385548003315
30
0
41
1
10
11.4698010058117
20
23.8391220894067
30
0
41
1
10
11.4613248654052
20
23.8391299750504
30
0
0
SPLINE
5
148
100
AcDbEntity
8
1
62
256
6
ByLayer
370
18
48
1
60
0
100
AcDbSpline
70
4
71
3
72
12
73
8
40
0
40
0
40
0
40
0
40
0.0777065243411475
40
0.182768991260447
40
0.355509705274232
40
0.661119206188002
40
1
40
1
40
1
40
1
41
1
10
8.53867513459481
20
23.8391299750504
30
0
41
1
10
8.51889061425139
20
23.8390510092636
30
0
41
1
10
8.47384249247805
20
23.837417080354
30
0
41
1
10
8.390979334746
20
23.8265956452496
30
0
41
1
10
8.28079022698233
20
23.7967264721263
30
0
41
1
10
8.17813160018114
20
23.7411879478121
30
0
41
1
10
8.12412228713196
20
23.6935586164053
30
0
41
1
10
8.10566243270259
20
23.6665017920809
30
0
0
SPLINE
5
149
100
AcDbEntity
8
1
62
256
6
ByLayer
370
18
48
1
60
0
100
AcDbSpline
70
4
71
3
72
13
73
9
40
0
40
0
40
0
40
0
40
0.0811068003230366
40
0.542059695793718
40
0.698217929308301
40
0.855466894270596
40
0.966212236972867
40
1
40
1
40
1
40
1
41
1
10
8.10566243270259
20
8.05584836782774
30
0
41
1
10
8.11055716182229
20
8.037251714098
30
0
41
1
10
8.14656537123944
20
7.91434257650656
30
0
41
1
10
8.21224772505842
20
7.75704006565195
30
0
41
1
10
8.33437440198708
20
7.61365769814303
30
0
41
1
10
8.42067769292451
20
7.55243803205592
30
0
41
1
10
8.49433884112822
20
7.53148602816117
30
0
41
1
10
8.53019899418831
20
7.52969262189673
30
0
41
1
10
8.53867513459481
20
7.52966679426498
30
0
0
SPLINE
5
14A
100
AcDbEntity
8
1
62
256
6
ByLayer
370
18
48
1
60
0
100
AcDbSpline
70
4
71
3
72
12
73
8
40
0
40
0
40
0
40
0
40
0.0777065243411817
40
0.182768991260496
40
0.355509705274344
40
0.661119206188212
40
1
40
1
40
1
40
1
41
1
10
11.4613248654052
20
7.52966679426499
30
0
41
1
10
11.4811093857486
20
7.52992453895395
30
0
41
1
10
11.526157507522
20
7.53508753718822
30
0
41
1
10
11.609020665254
20
7.56930040674385
30
0
41
1
10
11.7192097730177
20
7.66302821977538
30
0
41
1
10
11.8218683998189
20
7.83415197314229
30
0
41
1
10
11.875877712868
20
7.97612018956257
30
0
41
1
10
11.8943375672974
20
8.05584836782772
30
0
0
SPLINE
5
14B
100
AcDbEntity
8
1
62
256
6
ByLayer
370
18
48
1
60
0
100
AcDbSpline
70
4
71
3
72
13
73
9
40
0
40
0
40
0
40
0
40
0.081106800323012
40
0.542059695793596
40
0.698217929308227
40
0.855466894270571
40
0.966212236972817
40
1
40
1
40
1
40
1
41
1
10
11.8943375672974
20
-8.05584836782772
30
0
41
1
10
11.8894428381777
20
-8.03725171409799
30
0
41
1
10
11.8534346287606
20
-7.91434257650657
30
0
41
1
10
11.7877522749416
20
-7.75704006565199
30
0
41
1
10
11.665625598013
20
-7.61365769814305
30
0
41
1
10
11.5793223070755
20
-7.55243803205596
30
0
41
1
10
11.5056611588718
20
-7.53148602816111
30
0
41
1
10
11.4698010058117
20
-7.52969262189673
30
0
41
1
10
11.4613248654052
20
-7.52966679426498
30
0
0
SPLINE
5
14C
100
AcDbEntity
8
1
62
256
6
ByLayer
370
18
48
1
60
0
100
AcDbSpline
70
4
71
3
72
12
73
8
40
0
40
0
40
0
40
0
40
0.0777065243411248
40
0.182768991260443
40
0.355509705274211
40
0.661119206187974
40
1
40
1
40
1
40
1
41
1
10
8.53867513459481
20
-7.529666794265
30
0
41
1
10
8.5188906142514
20
-7.52992453895396
30
0
41
1
10
8.47384249247806
20
-7.53508753718821
30
0
41
1
10
8.39097933474603
20
-7.56930040674382
30
0
41
1
10
8.28079022698235
20
-7.66302821977532
30
0
41
1
10
8.17813160018116
20
-7.8341519731422
30
0
41
1
10
8.12412228713197
20
-7.97612018956252
30
0
41
1
10
8.10566243270259
20
-8.05584836782773
30
0
0
SPLINE
5
14D
100
AcDbEntity
8
1
62
256
6
ByLayer
370
18
48
1
60
0
100
AcDbSpline
70
4
71
3
72
13
73
9
40
0
40
0
40
0
40
0
40
0.081106800323024
40
0.542059695793695
40
0.69821792930829
40
0.855466894270574
40
0.966212236972855
40
1
40
1
40
1
40
1
41
1
10
8.10566243270259
20
-23.6665017920809
30
0
41
1
10
8.11055716182229
20
-23.6728293617709
30
0
41
1
10
8.14656537123945
20
-23.7145200781299
30
0
41
1
10
8.21224772505843
20
-23.7663890526222
30
0
41
1
10
8.33437440198707
20
-23.8124861135428
30
0
41
1
10
8.4206776929245
20
-23.8319383085952
30
0
41
1
10
8.49433884112822
20
-23.8385548003315
30
0
41
1
10
8.5301989941883
20
-23.8391220894067
30
0
41
1
10
8.53867513459481
20
-23.8391299750504
30
0
0
SPLINE
5
14E
100
AcDbEntity
8
1
62
256
6
ByLayer
370
18
48
1
60
0
100
AcDbSpline
70
4
71
3
72
12
73
8
40
0
40
0
40
0
40
0
40
0.0777065243411798
40
0.182768991260499
40
0.355509705274316
40
0.66111920618818
40
1
40
1
40
1
40
1
41
1
10
11.4613248654052
20
-23.8391299750504
30
0
41
1
10
11.4811093857486
20
-23.8390510092636
30
0
41
1
10
11.526157507522
20
-23.837417080354
30
0
41
1
10
11.609020665254
20
-23.8265956452496
30
0
41
1
10
11.7192097730177
20
-23.7967264721261
30
0
41
1
10
11.8218683998189
20
-23.7411879478122
30
0
41
1
10
11.875877712868
20
-23.6935586164053
30
0
41
1
10
11.8943375672974
20
-23.6665017920809
30
0
0
SPLINE
5
14F
100
AcDbEntity
8
SK1
62
256
6
ByLayer
370
18
48
1
60
0
100
AcDbSpline
70
4
71
3
72
17
73
13
40
0
40
0
40
0
40
0
40
0.465485506351383
40
0.669701843128612
40
0.774084356421135
40
0.856371664793533
40
0.897755153898635
40
0.917428272144475
40
0.937237772131972
40
0.955191624681787
40
0.984018190502026
40
1
40
1
40
1
40
1
41
1
10
-0.200000000000038
20
-5.88142397393346
30
0
41
1
10
-0.1960647808782
20
-5.75474600051132
30
0
41
1
10
-0.206716278472284
20
-5.57221313865745
30
0
41
1
10
-0.236369718937367
20
-5.35851195688537
30
0
41
1
10
-0.265123837646852
20
-5.2522119738577
30
0
41
1
10
-0.291115782477693
20
-5.19220348818486
30
0
41
1
10
-0.318091310485836
20
-5.15994791139139
30
0
41
1
10
-0.338430402128573
20
-5.14828626530394
30
0
41
1
10
-0.354699344248621
20
-5.14548380678132
30
0
41
1
10
-0.372899440263032
20
-5.14897430103643
30
0
41
1
10
-0.387749096358135
20
-5.15784519057131
30
0
41
1
10
-0.39691878097133
20
-5.16560053879508
30
0
41
1
10
-0.400000000000051
20
-5.16866679574503
30
0
0
SPLINE
5
150
100
AcDbEntity
8
SK1
62
256
6
ByLayer
370
18
48
1
60
0
100
AcDbSpline
70
4
71
3
72
16
73
12
40
0
40
0
40
0
40
0
40
0.0439503849784364
40
0.0882962095956771
40
0.119823748748281
40
0.151333080321581
40
0.197785752387551
40
0.285208338526594
40
0.432294100651084
40
0.58008530169941
40
1
40
1
40
1
40
1
41
1
10
-0.40000000000004
20
-5.16866679574529
30
0
41
1
10
-0.420260552159719
20
-5.18959123991625
30
0
41
1
10
-0.465532793809269
20
-5.2245968957623
30
0
41
1
10
-0.540325064014482
20
-5.25975746385926
30
0
41
1
10
-0.61556627839364
20
-5.26603853608321
30
0
41
1
10
-0.689853412389385
20
-5.24890814810322
30
0
41
1
10
-0.785804329696922
20
-5.19137211714253
30
0
41
1
10
-0.905339112737123
20
-5.05378758708942
30
0
41
1
10
-1.02152968139801
20
-4.84183055168614
30
0
41
1
10
-1.17561394769092
20
-4.42035003265136
30
0
41
1
10
-1.26556409785408
20
-4.07230605007437
30
0
41
1
10
-1.30710678118655
20
-3.80474664113272
30
0
0
SPLINE
5
151
100
AcDbEntity
8
SK1
62
256
6
ByLayer
370
18
48
1
60
0
100
AcDbSpline
70
4
71
3
72
16
73
12
40
0
40
0
40
0
40
0
40
0.351058812479026
40
0.5494902428823
40
0.745650751445105
40
0.831752432968096
40
0.866430020907749
40
0.901364413669998
40
0.932606866569399
40
0.9831220084694
40
1
40
1
40
1
40
1
41
1
10
-1.30710678118655
20
3.80474436172741
30
0
41
1
10
-1.26978415806151
20
4.02733440489884
30
0
41
1
10
-1.18638534235563
20
4.36574772826711
30
0
41
1
10
-1.04345715092741
20
4.81143795815714
30
0
41
1
10
-0.896883993281788
20
5.07907048283341
30
0
41
1
10
-0.744504610413007
20
5.22449701225534
30
0
41
1
10
-0.644314188243217
20
5.26265754541682
30
0
41
1
10
-0.573027760448872
20
5.26521974999095
30
0
41
1
10
-0.49556838382239
20
5.24252370697401
30
0
41
1
10
-0.440485899594335
20
5.20534570545953
30
0
41
1
10
-0.407839795734877
20
5.17633421110904
30
0
41
1
10
-0.400000000000011
20
5.16866682996364
30
0
0
SPLINE
5
152
100
AcDbEntity
8
SK1
62
256
6
ByLayer
370
18
48
1
60
0
100
AcDbSpline
70
4
71
3
72
17
73
13
40
0
40
0
40
0
40
0
40
0.030351422025331
40
0.053615508725247
40
0.0719362364152785
40
0.0902747582477841
40
0.115197940679842
40
0.159565658929424
40
0.2981382029904
40
0.587610881223527
40
0.878287013648287
40
1
40
1
40
1
40
1
41
1
10
-0.40000000000004
20
5.16866682996297
30
0
41
1
10
-0.394167575628449
20
5.16254689062886
30
0
41
1
10
-0.38267128971226
20
5.15403748188184
30
0
41
1
10
-0.364264031241587
20
5.14642716889599
30
0
41
1
10
-0.347332913984079
20
5.14606544583305
30
0
41
1
10
-0.330541138979943
20
5.15183291494149
30
0
41
1
10
-0.310401603395069
20
5.16756125175962
30
0
41
1
10
-0.276165558567053
20
5.21722886754103
30
0
41
1
10
-0.236739282710337
20
5.34658114116619
30
0
41
1
10
-0.207575999148844
20
5.54435821740557
30
0
41
1
10
-0.201433990875352
20
5.73654934889382
30
0
41
1
10
-0.199982261339106
20
5.84846084555253
30
0
41
1
10
-0.200000000000038
20
5.88142452370542
30
0
0
SPLINE
5
153
100
AcDbEntity
8
SK1
62
256
6
ByLayer
370
18
48
1
60
0
100
AcDbSpline
70
4
71
3
72
14
73
10
40
0
40
0
40
0
40
0
40
0.106385868855732
40
0.253705813711891
40
0.401007656750247
40
0.548297602518327
40
0.695579676619922
40
0.84285651901813
40
1
40
1
40
1
40
1
41
1
10
-2.19993687480718
20
-17.5201003687863
30
0
41
1
10
-2.19994421610192
20
-17.5193673450503
30
0
41
1
10
-2.19995986090332
20
-17.4927860913816
30
0
41
1
10
-2.19997656138666
20
-17.3524594073249
30
0
41
1
10
-2.1999882010107
20
-17.0884031980282
30
0
41
1
10
-2.19999491450112
20
-16.7229200646697
30
0
41
1
10
-2.19999839687952
20
-16.2635090711791
30
0
41
1
10
-2.19999979498391
20
-15.702993954098
30
0
41
1
10
-2.20000009281284
20
-15.2662928156273
30
0
41
1
10
-2.2
20
-15.024780864565
30
0
0
SPLINE
5
154
100
AcDbEntity
8
SK1
62
256
6
ByLayer
370
18
48
1
60
0
100
AcDbSpline
70
4
71
2
72
6
73
3
40
0
40
0
40
0
40
1
40
1
40
1
41
1
10
-2.19492113517946
20
17.5202263833815
30
0
41
1
10
-2.59746056758973
20
17.5101131917171
30
0
41
1
10
-3
20
17.5000000000527
30
0
0
SPLINE
5
155
100
AcDbEntity
8
SK1
62
256
6
ByLayer
370
18
48
1
60
0
100
AcDbSpline
70
4
71
2
72
6
73
3
40
0
40
0
40
0
40
1
40
1
40
1
41
1
10
-3
20
-17.5000000000204
30
0
41
1
10
-2.60962946156203
20
-17.5098074667118
30
0
41
1
10
-2.21925892312405
20
-17.5196149334032
30
0
0
SPLINE
5
156
100
AcDbEntity
8
SK1
62
256
6
ByLayer
370
18
48
1
60
0
100
AcDbSpline
70
4
71
1
72
4
73
2
40
0
40
0
40
1
40
1
41
1
10
-2.21925892312405
20
-17.5196149334032
30
0
41
1
10
-2.19492113517946
20
-17.5202263833491
30
0
0
SPLINE
5
157
100
AcDbEntity
8
SK1
62
256
6
ByLayer
370
18
48
1
60
0
100
AcDbSpline
70
4
71
3
72
15
73
11
40
0
40
0
40
0
40
0
40
0.0482444824239489
40
0.186325294515882
40
0.324838366494798
40
0.462925346447214
40
0.601017879197507
40
0.73911849271798
40
0.877230953544085
40
1
40
1
40
1
40
1
41
1
10
-2.2
20
15.0247809138972
30
0
41
1
10
-2.20000000464518
20
15.0987890669644
30
0
41
1
10
-2.19999996083217
20
15.3789129024177
30
0
41
1
10
-2.1999996140758
20
15.829707793837
30
0
41
1
10
-2.19999801160332
20
16.3302819971791
30
0
41
1
10
-2.19999447065123
20
16.752240062316
30
0
41
1
10
-2.1999879804146
20
17.0906743060054
30
0
41
1
10
-2.19997713306249
20
17.3398329959724
30
0
41
1
10
-2.19996107278978
20
17.4876542352199
30
0
41
1
10
-2.19994531729302
20
17.5191036010008
30
0
41
1
10
-2.19993687627273
20
17.5201003696443
30
0
0
SPLINE
5
158
100
AcDbEntity
8
SK1
62
256
6
ByLayer
370
18
48
1
60
0
100
AcDbSpline
70
4
71
2
72
6
73
3
40
0
40
0
40
0
40
1
40
1
40
1
41
1
10
-3
20
17.5000000000527
30
0
41
1
10
-15.7502365839532
20
17.1796696772131
30
0
41
1
10
-28.5004731679065
20
16.8593393543735
30
0
0
SPLINE
5
159
100
AcDbEntity
8
SK1
62
256
6
ByLayer
370
18
48
1
60
0
100
AcDbSpline
70
4
71
2
72
6
73
3
40
0
40
0
40
0
40
1
40
1
40
1
41
1
10
-28.5004731679065
20
-16.8593393543424
30
0
41
1
10
-15.7502365839532
20
-17.1796696771814
30
0
41
1
10
-3
20
-17.5000000000204
30
0
0
SPLINE
5
15A
100
AcDbEntity
8
SK1
62
256
6
ByLayer
370
18
48
1
60
0
100
AcDbSpline
70
4
71
1
72
4
73
2
40
0
40
0
40
1
40
1
41
1
10
-2
20
17.3251500916744
30
0
41
1
10
-2
20
17.3251282954199
30
0
0
SPLINE
5
15B
100
AcDbEntity
8
SK1
62
256
6
ByLayer
370
18
48
1
60
0
100
AcDbSpline
70
4
71
3
72
13
73
9
40
0
40
0
40
0
40
0
40
0.239468143101076
40
0.368375717557467
40
0.500016413682604
40
0.631654380070979
40
0.760554427529312
40
1
40
1
40
1
40
1
41
1
10
-2
20
17.3251501409626
30
0
41
1
10
-2.02607195862894
20
17.3254032171872
30
0
41
1
10
-2.06363514911804
20
17.3325204701499
30
0
41
1
10
-2.11047805080219
20
17.3567460306058
30
0
41
1
10
-2.14242236455519
20
17.382721349279
30
0
41
1
10
-2.1684004741973
20
17.414662371353
30
0
41
1
10
-2.19262861856615
20
17.4615002450208
30
0
41
1
10
-2.19974657466873
20
17.4990601036781
30
0
41
1
10
-2.2
20
17.5251299249899
30
0
0
SPLINE
5
15C
100
AcDbEntity
8
SK1
62
256
6
ByLayer
370
18
48
1
60
0
100
AcDbSpline
70
4
71
3
72
13
73
9
40
0
40
0
40
0
40
0
40
0.239445575724636
40
0.368345624848073
40
0.499983592440204
40
0.631624288955064
40
0.760531862675224
40
1
40
1
40
1
40
1
41
1
10
-2.2
20
-17.5251299251292
30
0
41
1
10
-2.19974657467479
20
-17.4990601038703
30
0
41
1
10
-2.19262861856452
20
-17.4615002452731
30
0
41
1
10
-2.16840047423857
20
-17.4146623717452
30
0
41
1
10
-2.14242236464553
20
-17.38272134974
30
0
41
1
10
-2.11047805094366
20
-17.3567460311214
30
0
41
1
10
-2.06363514965123
20
-17.3325204707743
30
0
41
1
10
-2.02607195888454
20
-17.3254032177991
30
0
41
1
10
-2
20
-17.3251501414068
30
0
0
SPLINE
5
15D
100
AcDbEntity
8
SK1
62
256
6
ByLayer
370
18
48
1
60
0
100
AcDbSpline
70
4
71
3
72
16
73
12
40
0
40
0
40
0
40
0
40
0.101870722793165
40
0.203718363389488
40
0.308089951926134
40
0.41241525276698
40
0.52916162839408
40
0.64639156167225
40
0.763296187326094
40
0.881625644108369
40
1
40
1
40
1
40
1
41
1
10
-1.30710678118655
20
3.80474436172741
30
0
41
1
10
-1.35281755127321
20
3.56030061780931
30
0
41
1
10
-1.43825474283597
20
3.06526047616153
30
0
41
1
10
-1.55260961619649
20
2.29746051127423
30
0
41
1
10
-1.64288396017671
20
1.5051199607552
30
0
41
1
10
-1.70375008696193
20
0.658796178987245
30
0
41
1
10
-1.71477648367589
20
-0.231403505662118
30
0
41
1
10
-1.67300909917653
20
-1.15039276708553
30
0
41
1
10
-1.5850927092093
20
-2.05785190512705
30
0
41
1
10
-1.45861282398588
20
-2.94424663120603
30
0
41
1
10
-1.36053835676226
20
-3.52065829215743
30
0
41
1
10
-1.30710678118664
20
-3.80474664113296
30
0
0
SPLINE
5
15E
100
AcDbEntity
8
SK1
62
256
6
ByLayer
370
18
48
1
60
0
100
AcDbSpline
70
4
71
2
72
6
73
3
40
0
40
0
40
0
40
1
40
1
40
1
41
1
10
-0.400000000000017
20
17.3251501409626
30
0
41
1
10
-1.20000000000001
20
17.3251501409626
30
0
41
1
10
-2
20
17.3251501409626
30
0
0
SPLINE
5
15F
100
AcDbEntity
8
SK1
62
256
6
ByLayer
370
18
48
1
60
0
100
AcDbSpline
70
4
71
2
72
6
73
3
40
0
40
0
40
0
40
1
40
1
40
1
41
1
10
-2
20
-17.3251501414068
30
0
41
1
10
-1.20000000000001
20
-17.3251501414068
30
0
41
1
10
-0.400000000000017
20
-17.3251501414068
30
0
0
SPLINE
5
160
100
AcDbEntity
8
SK1
62
256
6
ByLayer
370
18
48
1
60
0
100
AcDbSpline
70
4
71
2
72
6
73
3
40
0
40
0
40
0
40
1
40
1
40
1
41
1
10
-28.5003904504266
20
16.8597456617469
30
0
41
1
10
-29.2501952787077
20
16.4010253845871
30
0
41
1
10
-30
20
15.9423013487186
30
0
0
SPLINE
5
161
100
AcDbEntity
8
SK1
62
256
6
ByLayer
370
18
48
1
60
0
100
AcDbSpline
70
4
71
2
72
6
73
3
40
0
40
0
40
0
40
1
40
1
40
1
41
1
10
-30
20
-15.9408160639395
30
0
41
1
10
-29.250201613525
20
-16.3993636736336
30
0
41
1
10
-28.5004032853135
20
-16.8579102610953
30
0
0
SPLINE
5
162
100
AcDbEntity
8
SK1
62
256
6
ByLayer
370
18
48
1
60
0
100
AcDbSpline
70
4
71
3
72
11
73
7
40
0
40
0
40
0
40
0
40
0.245755007744109
40
0.501794198211038
40
0.756953870258406
40
1
40
1
40
1
40
1
41
1
10
-0.200000000000015
20
17.5191731511753
30
0
41
1
10
-0.199994647676402
20
17.493844966999
30
0
41
1
10
-0.209350242264538
20
17.4456228534321
30
0
41
1
10
-0.254178184246646
20
17.3766360753192
30
0
41
1
10
-0.324420736760804
20
17.33275982811
30
0
41
1
10
-0.373991067023655
20
17.3239685556465
30
0
41
1
10
-0.400000000000017
20
17.3241476526065
30
0
0
SPLINE
5
163
100
AcDbEntity
8
SK1
62
256
6
ByLayer
370
18
48
1
60
0
100
AcDbSpline
70
4
71
3
72
11
73
7
40
0
40
0
40
0
40
0
40
0.243046950854861
40
0.498204668192408
40
0.754242469704643
40
1
40
1
40
1
40
1
41
1
10
-0.400000000000017
20
-17.3241468641747
30
0
41
1
10
-0.373991174653844
20
-17.3239674893689
30
0
41
1
10
-0.324421202647711
20
-17.332758304075
30
0
41
1
10
-0.254178044541194
20
-17.376633929413
30
0
41
1
10
-0.20935004437607
20
-17.4456203921355
30
0
41
1
10
-0.199994500672228
20
-17.4938412312525
30
0
41
1
10
-0.200000000000015
20
-17.5191688355708
30
0
0
INSERT
5
19A
100
AcDbEntity
8
SK2
62
256
6
ByLayer
370
25
48
1
60
0
100
AcDbBlockReference
2
DimnDraft3D55
10
0
20
0
30
0
41
1
42
1
43
1
50
0
210
0
220
0
230
1
0
LINE
5
70
100
AcDbEntity
8
81
62
256
6
ByLayer
370
18
48
1
60
0
100
AcDbLine
10
230
20
0
30
0
11
253
21
0
31
0
39
0
210
0
220
0
230
1
0
LINE
5
71
100
AcDbEntity
8
4
62
256
6
ByLayer
370
18
48
0.05
60
0
100
AcDbLine
10
0
20
0
30
0
11
230
21
0
31
0
39
0
210
0
220
0
230
1
0
LINE
5
73
100
AcDbEntity
8
SK4
62
256
6
ByLayer
370
18
48
0.05
60
0
100
AcDbLine
10
-35
20
0
30
0
11
235
21
0
31
0
39
0
210
0
220
0
230
1
0
LINE
5
75
100
AcDbEntity
8
80
62
256
6
ByLayer
370
18
48
1
60
0
100
AcDbLine
10
0
20
0
30
0
11
-23
21
0
31
0
39
0
210
0
220
0
230
1
0
LINE
5
76
100
AcDbEntity
8
1
62
256
6
ByLayer
370
18
48
1
60
0
100
AcDbLine
10
229.521
20
12.5
30
0
11
228.2
21
12.5
31
0
39
0
210
0
220
0
230
1
0
LINE
5
78
100
AcDbEntity
8
1
62
256
6
ByLayer
370
18
48
1
60
0
100
AcDbLine
10
228.2
20
-12.5
30
0
11
229.521
21
-12.5
31
0
39
0
210
0
220
0
230
1
0
LINE
5
79
100
AcDbEntity
8
1
62
256
6
ByLayer
370
18
48
1
60
0
100
AcDbLine
10
229.521
20
-12.5
30
0
11
229.642492
21
-12.378508
31
0
39
0
210
0
220
0
230
1
0
LINE
5
7A
100
AcDbEntity
8
1
62
256
6
ByLayer
370
18
48
1
60
0
100
AcDbLine
10
229.642492
20
12.378508
30
0
11
229.521
21
12.5
31
0
39
0
210
0
220
0
230
1
0
LINE
5
7B
100
AcDbEntity
8
1
62
256
6
ByLayer
370
18
48
1
60
0
100
AcDbLine
10
229.73225
20
5.289803
30
0
11
229.73225
21
4.568345
31
0
39
0
210
0
220
0
230
1
0
LINE
5
7C
100
AcDbEntity
8
1
62
256
6
ByLayer
370
18
48
1
60
0
100
AcDbLine
10
229.73225
20
-4.568345
30
0
11
229.73225
21
-5.289803
31
0
39
0
210
0
220
0
230
1
0
LINE
5
7D
100
AcDbEntity
8
1
62
256
6
ByLayer
370
18
48
1
60
0
100
AcDbLine
10
230.271
20
4.672754
30
0
11
230.271
21
0.851624
31
0
39
0
210
0
220
0
230
1
0
LINE
5
7E
100
AcDbEntity
8
1
62
256
6
ByLayer
370
18
48
1
60
0
100
AcDbLine
10
230.271
20
-0.851624
30
0
11
230.271
21
-4.672754
31
0
39
0
210
0
220
0
230
1
0
LINE
5
7F
100
AcDbEntity
8
1
62
256
6
ByLayer
370
18
48
1
60
0
100
AcDbLine
10
229.73225
20
7.358627
30
0
11
229.73225
21
6.915736
31
0
39
0
210
0
220
0
230
1
0
LINE
5
80
100
AcDbEntity
8
1
62
256
6
ByLayer
370
18
48
1
60
0
100
AcDbLine
10
229.73225
20
-6.915736
30
0
11
229.73225
21
-7.358627
31
0
39
0
210
0
220
0
230
1
0
LINE
5
81
100
AcDbEntity
8
1
62
256
6
ByLayer
370
18
48
1
60
0
100
AcDbLine
10
230.271
20
6.872
30
0
11
230.271
21
5.334839
31
0
39
0
210
0
220
0
230
1
0
LINE
5
82
100
AcDbEntity
8
1
62
256
6
ByLayer
370
18
48
1
60
0
100
AcDbLine
10
230.271
20
-5.334839
30
0
11
230.271
21
-6.872
31
0
39
0
210
0
220
0
230
1
0
LINE
5
83
100
AcDbEntity
8
1
62
256
6
ByLayer
370
18
48
1
60
0
100
AcDbLine
10
229.73225
20
8.785884
30
0
11
229.73225
21
8.465225
31
0
39
0
210
0
220
0
230
1
0
LINE
5
84
100
AcDbEntity
8
1
62
256
6
ByLayer
370
18
48
1
60
0
100
AcDbLine
10
229.73225
20
-8.465225
30
0
11
229.73225
21
-8.785884
31
0
39
0
210
0
220
0
230
1
0
LINE
5
85
100
AcDbEntity
8
1
62
256
6
ByLayer
370
18
48
1
60
0
100
AcDbLine
10
230.271
20
8.336015
30
0
11
230.271
21
7.284967
31
0
39
0
210
0
220
0
230
1
0
LINE
5
86
100
AcDbEntity
8
1
62
256
6
ByLayer
370
18
48
1
60
0
100
AcDbLine
10
230.271
20
-7.284967
30
0
11
230.271
21
-8.336015
31
0
39
0
210
0
220
0
230
1
0
LINE
5
87
100
AcDbEntity
8
1
62
256
6
ByLayer
370
18
48
1
60
0
100
AcDbLine
10
229.73225
20
-9.610809
30
0
11
229.73225
21
-9.854397
31
0
39
0
210
0
220
0
230
1
0
LINE
5
88
100
AcDbEntity
8
1
62
256
6
ByLayer
370
18
48
1
60
0
100
AcDbLine
10
229.73225
20
9.854397
30
0
11
229.73225
21
9.610809
31
0
39
0
210
0
220
0
230
1
0
LINE
5
89
100
AcDbEntity
8
1
62
256
6
ByLayer
370
18
48
1
60
0
100
AcDbLine
10
230.271
20
9.414293
30
0
11
230.271
21
8.634581
31
0
39
0
210
0
220
0
230
1
0
LINE
5
8A
100
AcDbEntity
8
1
62
256
6
ByLayer
370
18
48
1
60
0
100
AcDbLine
10
230.271
20
-8.634581
30
0
11
230.271
21
-9.414293
31
0
39
0
210
0
220
0
230
1
0
LINE
5
8B
100
AcDbEntity
8
1
62
256
6
ByLayer
370
18
48
1
60
0
100
AcDbLine
10
229.73225
20
-10.485718
30
0
11
229.73225
21
-10.672465
31
0
39
0
210
0
220
0
230
1
0
LINE
5
8C
100
AcDbEntity
8
1
62
256
6
ByLayer
370
18
48
1
60
0
100
AcDbLine
10
229.73225
20
10.672465
30
0
11
229.73225
21
10.485718
31
0
39
0
210
0
220
0
230
1
0
LINE
5
8D
100
AcDbEntity
8
1
62
256
6
ByLayer
370
18
48
1
60
0
100
AcDbLine
10
230.271
20
10.229548
30
0
11
230.271
21
9.639307
31
0
39
0
210
0
220
0
230
1
0
LINE
5
8E
100
AcDbEntity
8
1
62
256
6
ByLayer
370
18
48
1
60
0
100
AcDbLine
10
230.271
20
-9.639307
30
0
11
230.271
21
-10.229548
31
0
39
0
210
0
220
0
230
1
0
LINE
5
8F
100
AcDbEntity
8
1
62
256
6
ByLayer
370
18
48
1
60
0
100
AcDbLine
10
229.73225
20
-11.153829
30
0
11
229.73225
21
-11.29464
31
0
39
0
210
0
220
0
230
1
0
LINE
5
90
100
AcDbEntity
8
1
62
256
6
ByLayer
370
18
48
1
60
0
100
AcDbLine
10
229.73225
20
11.29464
30
0
11
229.73225
21
11.153829
31
0
39
0
210
0
220
0
230
1
0
LINE
5
91
100
AcDbEntity
8
1
62
256
6
ByLayer
370
18
48
1
60
0
100
AcDbLine
10
230.271
20
10.841283
30
0
11
230.271
21
10.39959
31
0
39
0
210
0
220
0
230
1
0
LINE
5
92
100
AcDbEntity
8
1
62
256
6
ByLayer
370
18
48
1
60
0
100
AcDbLine
10
230.271
20
-10.39959
30
0
11
230.271
21
-10.841283
31
0
39
0
210
0
220
0
230
1
0
LINE
5
93
100
AcDbEntity
8
1
62
256
6
ByLayer
370
18
48
1
60
0
100
AcDbLine
10
229.73225
20
11.752075
30
0
11
229.73225
21
11.650774
31
0
39
0
210
0
220
0
230
1
0
LINE
5
94
100
AcDbEntity
8
1
62
256
6
ByLayer
370
18
48
1
60
0
100
AcDbLine
10
229.73225
20
-11.650774
30
0
11
229.73225
21
-11.752075
31
0
39
0
210
0
220
0
230
1
0
LINE
5
95
100
AcDbEntity
8
1
62
256
6
ByLayer
370
18
48
1
60
0
100
AcDbLine
10
230.271
20
11.282649
30
0
11
230.271
21
10.96639
31
0
39
0
210
0
220
0
230
1
0
LINE
5
96
100
AcDbEntity
8
1
62
256
6
ByLayer
370
18
48
1
60
0
100
AcDbLine
10
230.271
20
-10.96639
30
0
11
230.271
21
-11.282649
31
0
39
0
210
0
220
0
230
1
0
LINE
5
97
100
AcDbEntity
8
1
62
256
6
ByLayer
370
18
48
1
60
0
100
AcDbLine
10
229.73225
20
-11.997839
30
0
11
229.73225
21
-12.063525
31
0
39
0
210
0
220
0
230
1
0
LINE
5
98
100
AcDbEntity
8
1
62
256
6
ByLayer
370
18
48
1
60
0
100
AcDbLine
10
229.73225
20
12.063525
30
0
11
229.73225
21
11.997839
31
0
39
0
210
0
220
0
230
1
0
LINE
5
99
100
AcDbEntity
8
1
62
256
6
ByLayer
370
18
48
1
60
0
100
AcDbLine
10
230.271
20
11.573156
30
0
11
230.271
21
11.368683
31
0
39
0
210
0
220
0
230
1
0
LINE
5
9A
100
AcDbEntity
8
1
62
256
6
ByLayer
370
18
48
1
60
0
100
AcDbLine
10
230.271
20
-11.368683
30
0
11
230.271
21
-11.573156
31
0
39
0
210
0
220
0
230
1
0
LINE
5
9B
100
AcDbEntity
8
1
62
256
6
ByLayer
370
18
48
1
60
0
100
AcDbLine
10
229.73225
20
12.24014
30
0
11
229.73225
21
12.207816
31
0
39
0
210
0
220
0
230
1
0
LINE
5
9C
100
AcDbEntity
8
1
62
256
6
ByLayer
370
18
48
1
60
0
100
AcDbLine
10
229.73225
20
-12.207816
30
0
11
229.73225
21
-12.24014
31
0
39
0
210
0
220
0
230
1
0
LINE
5
9D
100
AcDbEntity
8
1
62
256
6
ByLayer
370
18
48
1
60
0
100
AcDbLine
10
230.271
20
11.724022
30
0
11
230.271
21
11.623562
31
0
39
0
210
0
220
0
230
1
0
LINE
5
9E
100
AcDbEntity
8
1
62
256
6
ByLayer
370
18
48
1
60
0
100
AcDbLine
10
230.271
20
-11.623562
30
0
11
230.271
21
-11.724022
31
0
39
0
210
0
220
0
230
1
0
LINE
5
9F
100
AcDbEntity
8
SK1
62
256
6
ByLayer
370
18
48
1
60
0
100
AcDbLine
10
237
20
-2.156854
30
0
11
233
21
-2.156854
31
0
39
0
210
0
220
0
230
1
0
LINE
5
A1
100
AcDbEntity
8
SK1
62
256
6
ByLayer
370
18
48
1
60
0
100
AcDbLine
10
233
20
-9.156854
30
0
11
237
21
-9.156854
31
0
39
0
210
0
220
0
230
1
0
LINE
5
A2
100
AcDbEntity
8
SK1
62
256
6
ByLayer
370
18
48
1
60
0
100
AcDbLine
10
233
20
-3.656854
30
0
11
230.271
21
-3.656854
31
0
39
0
210
0
220
0
230
1
0
LINE
5
A3
100
AcDbEntity
8
SK1
62
256
6
ByLayer
370
18
48
1
60
0
100
AcDbLine
10
230.271
20
-7.656854
30
0
11
233
21
-7.656854
31
0
39
0
210
0
220
0
230
1
0
LINE
5
A4
100
AcDbEntity
8
1
62
256
6
ByLayer
370
18
48
1
60
0
100
AcDbLine
10
0.3
20
25
30
0
11
0
21
24.7
31
0
39
0
210
0
220
0
230
1
0
LINE
5
A5
100
AcDbEntity
8
1
62
256
6
ByLayer
370
18
48
1
60
0
100
AcDbLine
10
0
20
-24.7
30
0
11
0.3
21
-25
31
0
39
0
210
0
220
0
230
1
0
LINE
5
A6
100
AcDbEntity
8
1
62
256
6
ByLayer
370
18
48
1
60
0
100
AcDbLine
10
20
20
-25
30
0
11
21.760574
21
-18.429448
31
0
39
0
210
0
220
0
230
1
0
LINE
5
A7
100
AcDbEntity
8
1
62
256
6
ByLayer
370
18
48
1
60
0
100
AcDbLine
10
21.760574
20
18.429448
30
0
11
20
21
25
31
0
39
0
210
0
220
0
230
1
0
LINE
5
A8
100
AcDbEntity
8
1
62
256
6
ByLayer
370
18
48
1
60
0
100
AcDbLine
10
20
20
25
30
0
11
0.3
21
25
31
0
39
0
210
0
220
0
230
1
0
LINE
5
A9
100
AcDbEntity
8
1
62
256
6
ByLayer
370
18
48
1
60
0
100
AcDbLine
10
0.3
20
-25
30
0
11
20
21
-25
31
0
39
0
210
0
220
0
230
1
0
LINE
5
AA
100
AcDbEntity
8
1
62
256
6
ByLayer
370
18
48
1
60
0
100
AcDbLine
10
8.538675
20
23.83913
30
0
11
11.461325
21
23.83913
31
0
39
0
210
0
220
0
230
1
0
LINE
5
AB
100
AcDbEntity
8
1
62
256
6
ByLayer
370
18
48
1
60
0
100
AcDbLine
10
11.461325
20
7.529667
30
0
11
8.538675
21
7.529667
31
0
39
0
210
0
220
0
230
1
0
LINE
5
AC
100
AcDbEntity
8
1
62
256
6
ByLayer
370
18
48
1
60
0
100
AcDbLine
10
8.538675
20
-7.529667
30
0
11
11.461325
21
-7.529667
31
0
39
0
210
0
220
0
230
1
0
LINE
5
AD
100
AcDbEntity
8
1
62
256
6
ByLayer
370
18
48
1
60
0
100
AcDbLine
10
11.461325
20
-23.83913
30
0
11
8.538675
21
-23.83913
31
0
39
0
210
0
220
0
230
1
0
LINE
5
AE
100
AcDbEntity
8
1
62
256
6
ByLayer
370
18
48
1
60
0
100
AcDbLine
10
8.105662
20
8.055848
30
0
11
8.105662
21
23.666502
31
0
39
0
210
0
220
0
230
1
0
LINE
5
AF
100
AcDbEntity
8
1
62
256
6
ByLayer
370
18
48
1
60
0
100
AcDbLine
10
8.538675
20
7.529667
30
0
11
8.538675
21
23.83913
31
0
39
0
210
0
220
0
230
1
0
LINE
5
B0
100
AcDbEntity
8
1
62
256
6
ByLayer
370
18
48
1
60
0
100
AcDbLine
10
11.461325
20
-23.83913
30
0
11
11.461325
21
-7.529667
31
0
39
0
210
0
220
0
230
1
0
LINE
5
B1
100
AcDbEntity
8
1
62
256
6
ByLayer
370
18
48
1
60
0
100
AcDbLine
10
11.894338
20
-23.666502
30
0
11
11.894338
21
-8.055848
31
0
39
0
210
0
220
0
230
1
0
LINE
5
B2
100
AcDbEntity
8
1
62
256
6
ByLayer
370
18
48
1
60
0
100
AcDbLine
10
11.461325
20
7.529667
30
0
11
11.461325
21
23.83913
31
0
39
0
210
0
220
0
230
1
0
LINE
5
B3
100
AcDbEntity
8
1
62
256
6
ByLayer
370
18
48
1
60
0
100
AcDbLine
10
11.894338
20
8.055848
30
0
11
11.894338
21
23.666502
31
0
39
0
210
0
220
0
230
1
0
LINE
5
B4
100
AcDbEntity
8
1
62
256
6
ByLayer
370
18
48
1
60
0
100
AcDbLine
10
8.105662
20
-23.666502
30
0
11
8.105662
21
-8.055848
31
0
39
0
210
0
220
0
230
1
0
LINE
5
B5
100
AcDbEntity
8
1
62
256
6
ByLayer
370
18
48
1
60
0
100
AcDbLine
10
8.538675
20
-23.83913
30
0
11
8.538675
21
-7.529667
31
0
39
0
210
0
220
0
230
1
0
LINE
5
B6
100
AcDbEntity
8
1
62
256
6
ByLayer
370
18
48
1
60
0
100
AcDbLine
10
227.8
20
12.5
30
0
11
29.487981
21
12.5
31
0
39
0
210
0
220
0
230
1
0
LINE
5
B7
100
AcDbEntity
8
1
62
256
6
ByLayer
370
18
48
1
60
0
100
AcDbLine
10
29.487981
20
-12.5
30
0
11
227.8
21
-12.5
31
0
39
0
210
0
220
0
230
1
0
LINE
5
B8
100
AcDbEntity
8
SK1
62
256
6
ByLayer
370
18
48
1
60
0
100
AcDbLine
10
237
20
9.156854
30
0
11
233
21
9.156854
31
0
39
0
210
0
220
0
230
1
0
LINE
5
B9
100
AcDbEntity
8
SK1
62
256
6
ByLayer
370
18
48
1
60
0
100
AcDbLine
10
233
20
2.156854
30
0
11
237
21
2.156854
31
0
39
0
210
0
220
0
230
1
0
LINE
5
BA
100
AcDbEntity
8
SK1
62
256
6
ByLayer
370
18
48
1
60
0
100
AcDbLine
10
233
20
7.656854
30
0
11
230.271
21
7.656854
31
0
39
0
210
0
220
0
230
1
0
LINE
5
BB
100
AcDbEntity
8
SK1
62
256
6
ByLayer
370
18
48
1
60
0
100
AcDbLine
10
230.271
20
3.656854
30
0
11
233
21
3.656854
31
0
39
0
210
0
220
0
230
1
0
LINE
5
BC
100
AcDbEntity
8
1
62
256
6
ByLayer
370
18
48
1
60
0
100
AcDbLine
10
228.2
20
12.5
30
0
11
228.2
21
0
31
0
39
0
210
0
220
0
230
1
0
LINE
5
BD
100
AcDbEntity
8
1
62
256
6
ByLayer
370
18
48
1
60
0
100
AcDbLine
10
228
20
-12.3
30
0
11
228
21
0
31
0
39
0
210
0
220
0
230
1
0
LINE
5
BE
100
AcDbEntity
8
1
62
256
6
ByLayer
370
18
48
1
60
0
100
AcDbLine
10
228.2
20
0
30
0
11
228.2
21
-12.5
31
0
39
0
210
0
220
0
230
1
0
LINE
5
BF
100
AcDbEntity
8
1
62
256
6
ByLayer
370
18
48
1
60
0
100
AcDbLine
10
228
20
0
30
0
11
228
21
12.3
31
0
39
0
210
0
220
0
230
1
0
LINE
5
C0
100
AcDbEntity
8
1
62
256
6
ByLayer
370
18
48
1
60
0
100
AcDbLine
10
229.521
20
12.5
30
0
11
229.521
21
-12.5
31
0
39
0
210
0
220
0
230
1
0
LINE
5
C1
100
AcDbEntity
8
1
62
256
6
ByLayer
370
18
48
1
60
0
100
AcDbLine
10
230.271
20
-4.672754
30
0
11
230.271
21
-5.334839
31
0
39
0
210
0
220
0
230
1
0
LINE
5
C2
100
AcDbEntity
8
1
62
256
6
ByLayer
370
18
48
1
60
0
100
AcDbLine
10
230.271
20
-6.872
30
0
11
230.271
21
-7.284967
31
0
39
0
210
0
220
0
230
1
0
LINE
5
C3
100
AcDbEntity
8
1
62
256
6
ByLayer
370
18
48
1
60
0
100
AcDbLine
10
230.271
20
-8.336015
30
0
11
230.271
21
-8.634581
31
0
39
0
210
0
220
0
230
1
0
LINE
5
C4
100
AcDbEntity
8
1
62
256
6
ByLayer
370
18
48
1
60
0
100
AcDbLine
10
230.271
20
-9.414293
30
0
11
230.271
21
-9.639307
31
0
39
0
210
0
220
0
230
1
0
LINE
5
C5
100
AcDbEntity
8
1
62
256
6
ByLayer
370
18
48
1
60
0
100
AcDbLine
10
230.271
20
-10.229548
30
0
11
230.271
21
-10.39959
31
0
39
0
210
0
220
0
230
1
0
LINE
5
C6
100
AcDbEntity
8
1
62
256
6
ByLayer
370
18
48
1
60
0
100
AcDbLine
10
230.271
20
-10.841283
30
0
11
230.271
21
-10.96639
31
0
39
0
210
0
220
0
230
1
0
LINE
5
C7
100
AcDbEntity
8
1
62
256
6
ByLayer
370
18
48
1
60
0
100
AcDbLine
10
230.271
20
-11.282649
30
0
11
230.271
21
-11.368683
31
0
39
0
210
0
220
0
230
1
0
LINE
5
C8
100
AcDbEntity
8
1
62
256
6
ByLayer
370
18
48
1
60
0
100
AcDbLine
10
230.271
20
-11.573156
30
0
11
230.271
21
-11.623562
31
0
39
0
210
0
220
0
230
1
0
LINE
5
C9
100
AcDbEntity
8
1
62
256
6
ByLayer
370
18
48
1
60
0
100
AcDbLine
10
230.271
20
-11.724022
30
0
11
230.271
21
-11.740632
31
0
39
0
210
0
220
0
230
1
0
LINE
5
CA
100
AcDbEntity
8
1
62
256
6
ByLayer
370
18
48
1
60
0
100
AcDbLine
10
230.271
20
11.740632
30
0
11
230.271
21
11.724022
31
0
39
0
210
0
220
0
230
1
0
LINE
5
CB
100
AcDbEntity
8
1
62
256
6
ByLayer
370
18
48
1
60
0
100
AcDbLine
10
230.271
20
11.623562
30
0
11
230.271
21
11.573156
31
0
39
0
210
0
220
0
230
1
0
LINE
5
CC
100
AcDbEntity
8
1
62
256
6
ByLayer
370
18
48
1
60
0
100
AcDbLine
10
230.271
20
11.368683
30
0
11
230.271
21
11.282649
31
0
39
0
210
0
220
0
230
1
0
LINE
5
CD
100
AcDbEntity
8
1
62
256
6
ByLayer
370
18
48
1
60
0
100
AcDbLine
10
230.271
20
10.96639
30
0
11
230.271
21
10.841283
31
0
39
0
210
0
220
0
230
1
0
LINE
5
CE
100
AcDbEntity
8
1
62
256
6
ByLayer
370
18
48
1
60
0
100
AcDbLine
10
230.271
20
10.39959
30
0
11
230.271
21
10.229548
31
0
39
0
210
0
220
0
230
1
0
LINE
5
CF
100
AcDbEntity
8
1
62
256
6
ByLayer
370
18
48
1
60
0
100
AcDbLine
10
230.271
20
9.639307
30
0
11
230.271
21
9.414293
31
0
39
0
210
0
220
0
230
1
0
LINE
5
D0
100
AcDbEntity
8
1
62
256
6
ByLayer
370
18
48
1
60
0
100
AcDbLine
10
230.271
20
8.634581
30
0
11
230.271
21
8.336015
31
0
39
0
210
0
220
0
230
1
0
LINE
5
D1
100
AcDbEntity
8
1
62
256
6
ByLayer
370
18
48
1
60
0
100
AcDbLine
10
230.271
20
7.284967
30
0
11
230.271
21
6.872
31
0
39
0
210
0
220
0
230
1
0
LINE
5
D2
100
AcDbEntity
8
1
62
256
6
ByLayer
370
18
48
1
60
0
100
AcDbLine
10
230.271
20
5.334839
30
0
11
230.271
21
4.672754
31
0
39
0
210
0
220
0
230
1
0
LINE
5
D3
100
AcDbEntity
8
1
62
256
6
ByLayer
370
18
48
1
60
0
100
AcDbLine
10
230.271
20
0.851624
30
0
11
230.271
21
-0.851624
31
0
39
0
210
0
220
0
230
1
0
LINE
5
D4
100
AcDbEntity
8
SK1
62
256
6
ByLayer
370
18
48
1
60
0
100
AcDbLine
10
233
20
-2.156854
30
0
11
233
21
-9.156854
31
0
39
0
210
0
220
0
230
1
0
LINE
5
D5
100
AcDbEntity
8
SK1
62
256
6
ByLayer
370
18
48
1
60
0
100
AcDbLine
10
237
20
-2.156854
30
0
11
237
21
-9.156854
31
0
39
0
210
0
220
0
230
1
0
LINE
5
D6
100
AcDbEntity
8
1
62
256
6
ByLayer
370
18
48
1
60
0
100
AcDbLine
10
0.3
20
25
30
0
11
0.3
21
-25
31
0
39
0
210
0
220
0
230
1
0
LINE
5
D7
100
AcDbEntity
8
1
62
256
6
ByLayer
370
18
48
1
60
0
100
AcDbLine
10
0
20
-24.7
30
0
11
0
21
24.7
31
0
39
0
210
0
220
0
230
1
0
LINE
5
D8
100
AcDbEntity
8
1
62
256
6
ByLayer
370
18
48
1
60
0
100
AcDbLine
10
21.760574
20
18.429448
30
0
11
21.760574
21
-18.429448
31
0
39
0
210
0
220
0
230
1
0
LINE
5
D9
100
AcDbEntity
8
1
62
256
6
ByLayer
370
18
48
1
60
0
100
AcDbLine
10
20
20
25
30
0
11
20
21
-25
31
0
39
0
210
0
220
0
230
1
0
LINE
5
DA
100
AcDbEntity
8
SK1
62
256
6
ByLayer
370
18
48
1
60
0
100
AcDbLine
10
-0.2
20
17.833485
30
0
11
-0.2
21
5.881425
31
0
39
0
210
0
220
0
230
1
0
LINE
5
DB
100
AcDbEntity
8
SK1
62
256
6
ByLayer
370
18
48
1
60
0
100
AcDbLine
10
-1.307107
20
3.804744
30
0
11
-1.307107
21
-3.804747
31
0
39
0
210
0
220
0
230
1
0
LINE
5
DC
100
AcDbEntity
8
SK1
62
256
6
ByLayer
370
18
48
1
60
0
100
AcDbLine
10
-0.2
20
-5.881424
30
0
11
-0.2
21
-17.833485
31
0
39
0
210
0
220
0
230
1
0
LINE
5
DD
100
AcDbEntity
8
1
62
256
6
ByLayer
370
18
48
1
60
0
100
AcDbLine
10
29.487981
20
12.5
30
0
11
29.487981
21
-12.5
31
0
39
0
210
0
220
0
230
1
0
LINE
5
DE
100
AcDbEntity
8
1
62
256
6
ByLayer
370
18
48
1
60
0
100
AcDbLine
10
227.8
20
-12.5
30
0
11
227.8
21
12.5
31
0
39
0
210
0
220
0
230
1
0
LINE
5
DF
100
AcDbEntity
8
1
62
256
6
ByLayer
370
18
48
1
60
0
100
AcDbLine
10
228
20
12.3
30
0
11
228
21
0
31
0
39
0
210
0
220
0
230
1
0
LINE
5
E0
100
AcDbEntity
8
1
62
256
6
ByLayer
370
18
48
1
60
0
100
AcDbLine
10
228
20
0
30
0
11
228
21
-12.3
31
0
39
0
210
0
220
0
230
1
0
LINE
5
E1
100
AcDbEntity
8
SK1
62
256
6
ByLayer
370
18
48
1
60
0
100
AcDbLine
10
233
20
9.156854
30
0
11
233
21
2.156854
31
0
39
0
210
0
220
0
230
1
0
LINE
5
E2
100
AcDbEntity
8
SK1
62
256
6
ByLayer
370
18
48
1
60
0
100
AcDbLine
10
237
20
9.156854
30
0
11
237
21
2.156854
31
0
39
0
210
0
220
0
230
1
0
LINE
5
E3
100
AcDbEntity
8
SK1
62
256
6
ByLayer
370
18
48
1
60
0
100
AcDbLine
10
-3
20
-17.5
30
0
11
-3
21
17.5
31
0
39
0
210
0
220
0
230
1
0
LINE
5
E4
100
AcDbEntity
8
SK1
62
256
6
ByLayer
370
18
48
1
60
0
100
AcDbLine
10
-2.2
20
10.241692
30
0
11
-2.2
21
15.024781
31
0
39
0
210
0
220
0
230
1
0
LINE
5
E5
100
AcDbEntity
8
SK1
62
256
6
ByLayer
370
18
48
1
60
0
100
AcDbLine
10
-2.2
20
-10.241692
30
0
11
-2.2
21
10.241692
31
0
39
0
210
0
220
0
230
1
0
LINE
5
E6
100
AcDbEntity
8
SK1
62
256
6
ByLayer
370
18
48
1
60
0
100
AcDbLine
10
-2.2
20
-15.024781
30
0
11
-2.2
21
-10.241692
31
0
39
0
210
0
220
0
230
1
0
LINE
5
E7
100
AcDbEntity
8
SK1
62
256
6
ByLayer
370
18
48
1
60
0
100
AcDbLine
10
-2
20
17.325128
30
0
11
-2
21
-17.32515
31
0
39
0
210
0
220
0
230
1
0
LINE
5
E8
100
AcDbEntity
8
SK1
62
256
6
ByLayer
370
18
48
1
60
0
100
AcDbLine
10
-0.4
20
-5.168667
30
0
11
-0.4
21
-17.324079
31
0
39
0
210
0
220
0
230
1
0
LINE
5
E9
100
AcDbEntity
8
SK1
62
256
6
ByLayer
370
18
48
1
60
0
100
AcDbLine
10
-28.500473
20
16.858585
30
0
11
-28.500473
21
-16.858922
31
0
39
0
210
0
220
0
230
1
0
LINE
5
EA
100
AcDbEntity
8
SK1
62
256
6
ByLayer
370
18
48
1
60
0
100
AcDbLine
10
-30
20
-15.941004
30
0
11
-30
21
15.941952
31
0
39
0
210
0
220
0
230
1
0
LINE
5
EB
100
AcDbEntity
8
SK1
62
256
6
ByLayer
370
18
48
1
60
0
100
AcDbLine
10
-0.4
20
17.32408
30
0
11
-0.4
21
5.168667
31
0
39
0
210
0
220
0
230
1
0
MTEXT
5
164
100
AcDbEntity
8
SK6
62
256
6
ByLayer
370
13
48
1
60
0
100
AcDbMText
10
-29.552028
20
66.479076
30
0
210
0
220
0
230
1
1
\W0.7261;C5-SL-3C 25 230
40
3.175
41
0
44
1.084337
50
0
71
7
72
5
7
iso_b_vert
0
DIMENSION
5
172
100
AcDbEntity
8
2
62
256
6
ByLayer
370
13
48
1
60
0
100
AcDbDimension
2
DimnDraft3D1
10
230
20
53.136987
30
0
11
111.916908
21
53.136987
31
0
70
32
71
5
72
1
41
1
210
0
220
0
230
1
3
Standard
100
AcDbAlignedDimension
13
0
23
1.5875
33
0
14
230
24
1.5875
34
0
50
0
100
AcDbRotatedDimension
1001
ACAD
1000
DSTYLE
1002
{
1070
   279
1070
     0
1070
   173
1070
     1
1070
   340
1005
165
1070
   271
1070
     1
1070
   272
1070
     2
1070
    77
1070
     1
1070
    73
1070
     0
1070
   171
1070
     3
1070
   274
1070
     4
1070
   177
1070
     7
1070
   176
1070
     7
1070
   178
1070
     7
1070
    78
1070
     8
1070
    48
1040
-0.005
1070
    41
1041
3.175
1070
   147
1041
1.5875
1070
    42
1041
1.5875
1070
    44
1041
3.175
1070
   140
1041
3.175
1070
   343
1005
0
1070
   344
1005
0
1002
}
0
DIMENSION
5
17B
100
AcDbEntity
8
SK2
62
256
6
ByLayer
370
13
48
1
60
0
100
AcDbDimension
2
DimnDraft3D2
10
29.487981
20
20.5
30
0
11
43.076512
21
35.842626
31
0
70
36
71
5
72
1
41
1
210
0
220
0
230
1
3
Standard
100
AcDbRadialDimension
15
0
25
0
35
0
40
0
1001
ACAD
1000
DSTYLE
1002
{
1070
   279
1070
     0
1070
   173
1070
     1
1070
   340
1005
165
1070
    75
1070
     1
1070
    76
1070
     1
1070
   271
1070
     1
1070
   272
1070
     2
1070
    77
1070
     1
1070
    73
1070
     0
1070
   171
1070
     3
1070
   274
1070
     4
1070
   177
1070
     7
1070
   176
1070
     7
1070
   178
1070
     7
1070
    78
1070
     8
1070
    48
1040
-0.005
1070
    41
1041
3.175
1070
   147
1041
1.5875
1070
    42
1041
1.5875
1070
    44
1041
3.175
1070
   140
1041
3.175
1070
   343
1005
0
1070
   344
1005
0
1002
}
0
DIMENSION
5
186
100
AcDbEntity
8
SK2
62
256
6
ByLayer
370
13
48
1
60
0
100
AcDbDimension
2
DimnDraft3D3
10
-47.51665
20
-25
30
0
11
-47.51665
21
-6.659145
31
0
70
32
71
5
72
1
41
1
210
0
220
0
230
1
3
Standard
100
AcDbAlignedDimension
13
-1.2875
23
25
33
0
14
-1.2875
24
-25
34
0
50
90
100
AcDbRotatedDimension
1001
ACAD
1000
DSTYLE
1002
{
1070
    74
1070
     0
1070
   279
1070
     0
1070
   173
1070
     1
1070
   340
1005
165
1070
   271
1070
     1
1070
   272
1070
     2
1070
    77
1070
     1
1070
    73
1070
     0
1070
   171
1070
     3
1070
   274
1070
     4
1070
   177
1070
     7
1070
   176
1070
     7
1070
   178
1070
     7
1070
    78
1070
     8
1070
    48
1040
-0.005
1070
    41
1041
3.175
1070
   147
1041
1.5875
1070
    42
1041
1.5875
1070
    44
1041
3.175
1070
   140
1041
3.175
1070
   343
1005
0
1070
   344
1005
0
1002
}
0
DIMENSION
5
190
100
AcDbEntity
8
SK2
62
256
6
ByLayer
370
13
48
1
60
0
100
AcDbDimension
2
DimnDraft3D4
10
20
20
-33.849587
30
0
11
8.103355
21
-33.849587
31
0
70
32
71
5
72
1
41
1
210
0
220
0
230
1
3
Standard
100
AcDbAlignedDimension
13
0
23
-26.2875
33
0
14
20
24
-26.5875
34
0
50
0
100
AcDbRotatedDimension
1001
ACAD
1000
DSTYLE
1002
{
1070
   279
1070
     0
1070
   173
1070
     1
1070
   340
1005
165
1070
   271
1070
     1
1070
   272
1070
     2
1070
    77
1070
     1
1070
    73
1070
     0
1070
   171
1070
     3
1070
   274
1070
     4
1070
   177
1070
     7
1070
   176
1070
     7
1070
   178
1070
     7
1070
    78
1070
     8
1070
    48
1040
-0.005
1070
    41
1041
3.175
1070
   147
1041
1.5875
1070
    42
1041
1.5875
1070
    44
1041
3.175
1070
   140
1041
3.175
1070
   343
1005
0
1070
   344
1005
0
1002
}
0
DIMENSION
5
1A5
100
AcDbEntity
8
SK2
62
256
6
ByLayer
370
13
48
1
60
0
100
AcDbDimension
2
DimnDraft3D6
10
267.555149
20
-12.5
30
0
11
267.555149
21
22.195714
31
0
70
32
71
5
72
1
41
1
210
0
220
0
230
1
3
Standard
100
AcDbAlignedDimension
13
229.3875
23
12.5
33
0
14
229.3875
24
-12.5
34
0
50
90
100
AcDbRotatedDimension
1001
ACAD
1000
DSTYLE
1002
{
1070
    74
1070
     0
1070
   279
1070
     0
1070
   173
1070
     1
1070
   340
1005
165
1070
   271
1070
     1
1070
   272
1070
     2
1070
    77
1070
     1
1070
    73
1070
     0
1070
   171
1070
     3
1070
   274
1070
     4
1070
   177
1070
     7
1070
   176
1070
     7
1070
   178
1070
     7
1070
    78
1070
     8
1070
    48
1040
-0.005
1070
    41
1041
3.175
1070
   147
1041
1.5875
1070
    42
1041
1.5875
1070
    44
1041
3.175
1070
   140
1041
3.175
1070
   343
1005
0
1070
   344
1005
0
1002
}
0
ENDSEC
0
SECTION
2
OBJECTS
0
DICTIONARY
5
210
330
0
100
AcDbDictionary
280
0
281
1
3
ACAD_GROUP
350
211
3
ACAD_MLINESTYLE
350
212
0
DICTIONARY
5
211
330
0
100
AcDbDictionary
280
0
281
1
0
DICTIONARY
5
212
330
0
100
AcDbDictionary
280
0
281
1
3
Standard
350
18
0
MLINESTYLE
5
18
330
212
100
AcDbMlineStyle
2
Standard
70
0
3

62
256
51
90
52
90
71
2
49
-0.5
62
256
6
ByLayer
49
0.5
62
256
6
ByLayer
0
RASTERVARIABLES
5
1fe
330

100
AcDbRasterVariables
90
0
70
1
71
1
72
1
0
ENDSEC
0
EOF
