0
SECTION
2
HEADER
9
$ACADVER
1
AC1015
9
$DWGCODEPAGE
3
ANSI_1252
9
$HANDSEED
5
30c
9
$ANGBASE
50
0
9
$ANGDIR
70
0
9
$ATTMODE
70
1
9
$AUNITS
70
0
9
$AUPREC
70
0
9
$CECOLOR
62
256
9
$CELTSCALE
40
1
9
$CELTYPE
6
ByLayer
9
$CELWEIGHT
370
18
9
$CLAYER
8
0
9
$CMLJUST
70
0
9
$CMLSCALE
40
1
9
$CMLSTYLE
2
Standard
9
$DIMSTYLE
2
Standard
9
$TEXTSIZE
40
0.2
9
$TEXTSTYLE
7
Standard
9
$LUNITS
70
2
9
$LUPREC
70
4
9
$EXTNAMES
290
1
9
$INSUNITS
70
4
9
$LTSCALE
40
1
9
$LWDISPLAY
290
1
9
$PDMODE
70
0
9
$PDSIZE
40
0
9
$PLINEGEN
70
0
0
ENDSEC
0
SECTION
2
CLASSES
0
CLASS
1
RASTERVARIABLES
2
AcDbRasterVariables
3
ISM
90
0
280
0
281
0
0
ENDSEC
0
SECTION
2
TABLES
0
TABLE
2
VPORT
5
302
100
AcDbSymbolTable
0
VPORT
5
1
100
AcDbSymbolTableRecord
100
AcDbViewportTableRecord
2
*Active
70
0
10
0
20
0
11
1
21
1
12
-1
22
1
13
0
23
0
14
0.5
24
0.5
15
10
25
10
16
0
26
0
36
1
17
0
27
0
37
0
0
ENDTAB
0
TABLE
2
LTYPE
5
303
100
AcDbSymbolTable
0
LTYPE
5
14
100
AcDbSymbolTableRecord
100
AcDbLinetypeTableRecord
70
0
2
ByBlock
3

72
65
73
0
40
0
0
LTYPE
5
15
100
AcDbSymbolTableRecord
100
AcDbLinetypeTableRecord
70
0
2
ByLayer
3

72
65
73
0
40
0
0
LTYPE
5
16
100
AcDbSymbolTableRecord
100
AcDbLinetypeTableRecord
70
0
2
CONTINUOUS
3
Solid line
72
65
73
0
40
0
0
LTYPE
5
6A
100
AcDbSymbolTableRecord
100
AcDbLinetypeTableRecord
70
0
2
CENTER
3
____ _ ____ _ ____ _ ____
72
65
73
4
40
47.5
49
22
74
0
49
-8.5
74
0
49
8.5
74
0
49
-8.5
74
0
0
LTYPE
5
6B
100
AcDbSymbolTableRecord
100
AcDbLinetypeTableRecord
70
0
2
DASHED
3
__ __ __ __ __ __ __ __ __
72
65
73
2
40
25.72
49
12.86
74
0
49
-12.86
74
0
0
ENDTAB
0
TABLE
2
LAYER
5
304
100
AcDbSymbolTable
0
LAYER
5
10
100
AcDbSymbolTableRecord
100
AcDbLayerTableRecord
2
0
70
0
62
7
6
CONTINUOUS
290
1
370
-3
390
0
0
LAYER
5
6D
100
AcDbSymbolTableRecord
100
AcDbLayerTableRecord
2
81
70
0
62
-3
6
CONTINUOUS
290
1
370
-3
390
0
0
LAYER
5
6F
100
AcDbSymbolTableRecord
100
AcDbLayerTableRecord
2
80
70
0
62
-6
6
CONTINUOUS
290
1
370
-3
390
0
0
LAYER
5
71
100
AcDbSymbolTableRecord
100
AcDbLayerTableRecord
2
1
70
0
62
4
6
CONTINUOUS
290
1
370
-3
390
0
0
LAYER
5
249
100
AcDbSymbolTableRecord
100
AcDbLayerTableRecord
2
2
70
0
62
7
6
CONTINUOUS
290
1
370
-3
390
0
0
LAYER
5
2ef
100
AcDbSymbolTableRecord
100
AcDbLayerTableRecord
2
SK1
70
0
62
4
6
CONTINUOUS
290
1
370
-3
390
0
0
LAYER
5
2f0
100
AcDbSymbolTableRecord
100
AcDbLayerTableRecord
2
SK6
70
0
62
5
6
CONTINUOUS
290
1
370
-3
390
0
0
LAYER
5
2f1
100
AcDbSymbolTableRecord
100
AcDbLayerTableRecord
2
SK2
70
0
62
7
6
CONTINUOUS
290
1
370
-3
390
0
0
ENDTAB
0
TABLE
2
STYLE
5
305
100
AcDbSymbolTable
0
STYLE
5
11
100
AcDbSymbolTableRecord
100
AcDbTextStyleTableRecord
2
Standard
3
txt
70
0
71
0
40
0
41
1
42
0
50
0
0
STYLE
5
244
100
AcDbSymbolTableRecord
100
AcDbTextStyleTableRecord
2
iso_b_vert
3
simplex.shx
70
0
71
0
40
0
41
1
42
0
50
0
0
STYLE
5
245
100
AcDbSymbolTableRecord
100
AcDbTextStyleTableRecord
2
DWGDirectTextStyle
3
simplex
70
0
71
0
40
0
41
1
42
0
50
0
0
ENDTAB
0
TABLE
2
DIMSTYLE
5
306
100
AcDbSymbolTable
100
AcDbDimStyleTable
0
DIMSTYLE
105
27
100
AcDbSymbolTableRecord
100
AcDbDimStyleTableRecord
2
Standard
70
0
3
<>
41
0.18
42
0.0625
44
0.18
140
0.18
147
0.09
73
0
74
0
77
1
271
2
275
0
278
52
280
0
340
11
0
ENDTAB
0
TABLE
2
VIEW
5
307
100
AcDbSymbolTable
0
ENDTAB
0
TABLE
2
UCS
5
308
100
AcDbSymbolTable
0
ENDTAB
0
TABLE
2
APPID
5
309
100
AcDbSymbolTable
0
APPID
5
12
100
AcDbSymbolTableRecord
100
AcDbRegAppTableRecord
2
ACAD
70
0
0
ENDTAB
0
TABLE
2
BLOCK_RECORD
5
30a
100
AcDbSymbolTable
0
BLOCK_RECORD
5
1F
100
AcDbSymbolTableRecord
100
AcDbBlockTableRecord
2
*Model_Space
340
0
70
0
0
BLOCK_RECORD
5
1B
100
AcDbSymbolTableRecord
100
AcDbBlockTableRecord
2
*Paper_Space
340
0
70
0
0
BLOCK_RECORD
5
23
100
AcDbSymbolTableRecord
100
AcDbBlockTableRecord
2
*Paper_Space0
340
0
70
0
0
BLOCK_RECORD
5
247
100
AcDbSymbolTableRecord
100
AcDbBlockTableRecord
2
DimnDraft3D1
340
0
70
0
0
BLOCK_RECORD
5
256
100
AcDbSymbolTableRecord
100
AcDbBlockTableRecord
2
_CLOSED
340
0
70
0
0
BLOCK_RECORD
5
25D
100
AcDbSymbolTableRecord
100
AcDbBlockTableRecord
2
DimnDraft3D2
340
0
70
0
0
BLOCK_RECORD
5
26C
100
AcDbSymbolTableRecord
100
AcDbBlockTableRecord
2
DimnDraft3D3
340
0
70
0
0
BLOCK_RECORD
5
27A
100
AcDbSymbolTableRecord
100
AcDbBlockTableRecord
2
DimnDraft3D4
340
0
70
0
0
BLOCK_RECORD
5
288
100
AcDbSymbolTableRecord
100
AcDbBlockTableRecord
2
DimnDraft3D5
340
0
70
0
0
ENDTAB
0
ENDSEC
0
SECTION
2
BLOCKS
0
BLOCK
5
20
100
AcDbEntity
8
0
100
AcDbBlockBegin
2
*Model_Space
70
0
10
0
20
0
30
0
3
*Model_Space
0
ENDBLK
5
21
100
AcDbEntity
8
0
100
AcDbBlockEnd
0
BLOCK
5
1C
100
AcDbEntity
8
0
100
AcDbBlockBegin
2
*Paper_Space
70
0
10
0
20
0
30
0
3
*Paper_Space
0
ENDBLK
5
1D
100
AcDbEntity
8
0
100
AcDbBlockEnd
0
BLOCK
5
24
100
AcDbEntity
8
0
100
AcDbBlockBegin
2
*Paper_Space0
70
0
10
0
20
0
30
0
3
*Paper_Space0
0
ENDBLK
5
25
100
AcDbEntity
8
0
100
AcDbBlockEnd
0
BLOCK
5
253
100
AcDbEntity
8
0
100
AcDbBlockBegin
2
DimnDraft3D1
70
0
10
0
20
0
30
0
3
DimnDraft3D1
0
MTEXT
5
248
100
AcDbEntity
8
2
62
256
6
ByLayer
370
18
48
1
60
0
100
AcDbMText
10
94.225
20
16.284211
30
0
210
0
220
0
230
1
1
\W0.6740;35
40
3.5
41
0
44
1.084337
50
90
71
7
72
5
7
iso_b_vert
0
LINE
5
24A
100
AcDbEntity
8
2
62
256
6
ByLayer
370
13
48
1
60
0
100
AcDbLine
10
40
20
0
30
0
11
97.1
21
0
31
0
39
0
210
0
220
0
230
1
0
LINE
5
24B
100
AcDbEntity
8
2
62
256
6
ByLayer
370
13
48
1
60
0
100
AcDbLine
10
72
20
35
30
0
11
97.1
21
35
31
0
39
0
210
0
220
0
230
1
0
LINE
5
24C
100
AcDbEntity
8
2
62
256
6
ByLayer
370
13
48
1
60
0
100
AcDbLine
10
95.1
20
0
30
0
11
95.1
21
35
31
0
39
0
210
0
220
0
230
1
0
LINE
5
24D
100
AcDbEntity
8
2
62
256
6
ByLayer
370
13
48
1
60
0
100
AcDbLine
10
95.1
20
0
30
0
11
94.682003
21
3.174998
31
0
39
0
210
0
220
0
230
1
0
LINE
5
24E
100
AcDbEntity
8
2
62
256
6
ByLayer
370
13
48
1
60
0
100
AcDbLine
10
95.1
20
0
30
0
11
95.517997
21
3.175002
31
0
39
0
210
0
220
0
230
1
0
LINE
5
24F
100
AcDbEntity
8
2
62
256
6
ByLayer
370
13
48
1
60
0
100
AcDbLine
10
94.682003
20
3.174998
30
0
11
95.517997
21
3.175002
31
0
39
0
210
0
220
0
230
1
0
LINE
5
250
100
AcDbEntity
8
2
62
256
6
ByLayer
370
13
48
1
60
0
100
AcDbLine
10
95.1
20
35
30
0
11
95.517997
21
31.825002
31
0
39
0
210
0
220
0
230
1
0
LINE
5
251
100
AcDbEntity
8
2
62
256
6
ByLayer
370
13
48
1
60
0
100
AcDbLine
10
95.1
20
35
30
0
11
94.682003
21
31.824998
31
0
39
0
210
0
220
0
230
1
0
LINE
5
252
100
AcDbEntity
8
2
62
256
6
ByLayer
370
13
48
1
60
0
100
AcDbLine
10
95.517997
20
31.825002
30
0
11
94.682003
21
31.824998
31
0
39
0
210
0
220
0
230
1
0
ENDBLK
5
254
100
AcDbEntity
8
0
100
AcDbBlockEnd
0
BLOCK
5
257
100
AcDbEntity
8
0
100
AcDbBlockBegin
2
_CLOSED
70
0
10
0
20
0
30
0
3
_CLOSED
0
LINE
5
259
100
AcDbEntity
8
0
62
256
6
ByLayer
370
-2
48
1
60
0
100
AcDbLine
10
-1
20
0.166667
30
0
11
0
21
0
31
0
39
0
210
0
220
0
230
1
0
LINE
5
25A
100
AcDbEntity
8
0
62
256
6
ByLayer
370
-2
48
1
60
0
100
AcDbLine
10
0
20
0
30
0
11
-1
21
-0.166667
31
0
39
0
210
0
220
0
230
1
0
LINE
5
25B
100
AcDbEntity
8
0
62
256
6
ByLayer
370
-2
48
1
60
0
100
AcDbLine
10
-1
20
0.166667
30
0
11
-1
21
-0.166667
31
0
39
0
210
0
220
0
230
1
0
LINE
5
25C
100
AcDbEntity
8
0
62
256
6
ByLayer
370
-2
48
1
60
0
100
AcDbLine
10
0
20
0
30
0
11
-1
21
0
31
0
39
0
210
0
220
0
230
1
0
ENDBLK
5
258
100
AcDbEntity
8
0
100
AcDbBlockEnd
0
BLOCK
5
269
100
AcDbEntity
8
0
100
AcDbBlockBegin
2
DimnDraft3D2
70
0
10
0
20
0
30
0
3
DimnDraft3D2
0
MTEXT
5
25E
100
AcDbEntity
8
SK2
62
256
6
ByLayer
370
18
48
1
60
0
100
AcDbMText
10
33.784211
20
58.487462
30
0
210
0
220
0
230
1
1
\W0.6740;70
40
3.5
41
0
44
1.084337
50
0
71
7
72
5
7
iso_b_vert
0
LINE
5
260
100
AcDbEntity
8
SK2
62
256
6
ByLayer
370
13
48
1
60
0
100
AcDbLine
10
0
20
2
30
0
11
0
21
59.612462
31
0
39
0
210
0
220
0
230
1
0
LINE
5
261
100
AcDbEntity
8
SK2
62
256
6
ByLayer
370
13
48
1
60
0
100
AcDbLine
10
70
20
37
30
0
11
70
21
59.612462
31
0
39
0
210
0
220
0
230
1
0
LINE
5
262
100
AcDbEntity
8
SK2
62
256
6
ByLayer
370
13
48
1
60
0
100
AcDbLine
10
0
20
57.612462
30
0
11
70
21
57.612462
31
0
39
0
210
0
220
0
230
1
0
LINE
5
263
100
AcDbEntity
8
SK2
62
256
6
ByLayer
370
13
48
1
60
0
100
AcDbLine
10
0
20
57.612462
30
0
11
3.174998
21
58.030459
31
0
39
0
210
0
220
0
230
1
0
LINE
5
264
100
AcDbEntity
8
SK2
62
256
6
ByLayer
370
13
48
1
60
0
100
AcDbLine
10
0
20
57.612462
30
0
11
3.175002
21
57.194465
31
0
39
0
210
0
220
0
230
1
0
LINE
5
265
100
AcDbEntity
8
SK2
62
256
6
ByLayer
370
13
48
1
60
0
100
AcDbLine
10
3.174998
20
58.030459
30
0
11
3.175002
21
57.194465
31
0
39
0
210
0
220
0
230
1
0
LINE
5
266
100
AcDbEntity
8
SK2
62
256
6
ByLayer
370
13
48
1
60
0
100
AcDbLine
10
70
20
57.612462
30
0
11
66.825002
21
57.194465
31
0
39
0
210
0
220
0
230
1
0
LINE
5
267
100
AcDbEntity
8
SK2
62
256
6
ByLayer
370
13
48
1
60
0
100
AcDbLine
10
70
20
57.612462
30
0
11
66.824998
21
58.030459
31
0
39
0
210
0
220
0
230
1
0
LINE
5
268
100
AcDbEntity
8
SK2
62
256
6
ByLayer
370
13
48
1
60
0
100
AcDbLine
10
66.825002
20
57.194465
30
0
11
66.824998
21
58.030459
31
0
39
0
210
0
220
0
230
1
0
ENDBLK
5
26A
100
AcDbEntity
8
0
100
AcDbBlockEnd
0
BLOCK
5
277
100
AcDbEntity
8
0
100
AcDbBlockBegin
2
DimnDraft3D3
70
0
10
0
20
0
30
0
3
DimnDraft3D3
0
MTEXT
5
26D
100
AcDbEntity
8
2
62
256
6
ByLayer
370
18
48
1
60
0
100
AcDbMText
10
52.784211
20
-37.225
30
0
210
0
220
0
230
1
1
\W0.6740;32
40
3.5
41
0
44
1.084337
50
0
71
7
72
5
7
iso_b_vert
0
LINE
5
26E
100
AcDbEntity
8
2
62
256
6
ByLayer
370
13
48
1
60
0
100
AcDbLine
10
70
20
33
30
0
11
70
21
-40.1
31
0
39
0
210
0
220
0
230
1
0
LINE
5
26F
100
AcDbEntity
8
2
62
256
6
ByLayer
370
13
48
1
60
0
100
AcDbLine
10
38
20
-2
30
0
11
38
21
-40.1
31
0
39
0
210
0
220
0
230
1
0
LINE
5
270
100
AcDbEntity
8
2
62
256
6
ByLayer
370
13
48
1
60
0
100
AcDbLine
10
70
20
-38.1
30
0
11
38
21
-38.1
31
0
39
0
210
0
220
0
230
1
0
LINE
5
271
100
AcDbEntity
8
2
62
256
6
ByLayer
370
13
48
1
60
0
100
AcDbLine
10
70
20
-38.1
30
0
11
66.825002
21
-38.517997
31
0
39
0
210
0
220
0
230
1
0
LINE
5
272
100
AcDbEntity
8
2
62
256
6
ByLayer
370
13
48
1
60
0
100
AcDbLine
10
70
20
-38.1
30
0
11
66.824998
21
-37.682003
31
0
39
0
210
0
220
0
230
1
0
LINE
5
273
100
AcDbEntity
8
2
62
256
6
ByLayer
370
13
48
1
60
0
100
AcDbLine
10
66.825002
20
-38.517997
30
0
11
66.824998
21
-37.682003
31
0
39
0
210
0
220
0
230
1
0
LINE
5
274
100
AcDbEntity
8
2
62
256
6
ByLayer
370
13
48
1
60
0
100
AcDbLine
10
38
20
-38.1
30
0
11
41.174998
21
-37.682003
31
0
39
0
210
0
220
0
230
1
0
LINE
5
275
100
AcDbEntity
8
2
62
256
6
ByLayer
370
13
48
1
60
0
100
AcDbLine
10
38
20
-38.1
30
0
11
41.175002
21
-38.517997
31
0
39
0
210
0
220
0
230
1
0
LINE
5
276
100
AcDbEntity
8
2
62
256
6
ByLayer
370
13
48
1
60
0
100
AcDbLine
10
41.174998
20
-37.682003
30
0
11
41.175002
21
-38.517997
31
0
39
0
210
0
220
0
230
1
0
ENDBLK
5
278
100
AcDbEntity
8
0
100
AcDbBlockEnd
0
BLOCK
5
285
100
AcDbEntity
8
0
100
AcDbBlockBegin
2
DimnDraft3D4
70
0
10
0
20
0
30
0
3
DimnDraft3D4
0
MTEXT
5
27B
100
AcDbEntity
8
SK2
62
256
6
ByLayer
370
18
48
1
60
0
100
AcDbMText
10
-40.475
20
-1.215789
30
0
210
0
220
0
230
1
1
\W0.6740;50
40
3.5
41
0
44
1.084337
50
90
71
7
72
5
7
iso_b_vert
0
LINE
5
27C
100
AcDbEntity
8
SK2
62
256
6
ByLayer
370
13
48
1
60
0
100
AcDbLine
10
-2
20
25
30
0
11
-41.6
21
25
31
0
39
0
210
0
220
0
230
1
0
LINE
5
27D
100
AcDbEntity
8
SK2
62
256
6
ByLayer
370
13
48
1
60
0
100
AcDbLine
10
-2
20
-25
30
0
11
-41.6
21
-25
31
0
39
0
210
0
220
0
230
1
0
LINE
5
27E
100
AcDbEntity
8
SK2
62
256
6
ByLayer
370
13
48
1
60
0
100
AcDbLine
10
-39.6
20
25
30
0
11
-39.6
21
-25
31
0
39
0
210
0
220
0
230
1
0
LINE
5
27F
100
AcDbEntity
8
SK2
62
256
6
ByLayer
370
13
48
1
60
0
100
AcDbLine
10
-39.6
20
25
30
0
11
-39.182003
21
21.825002
31
0
39
0
210
0
220
0
230
1
0
LINE
5
280
100
AcDbEntity
8
SK2
62
256
6
ByLayer
370
13
48
1
60
0
100
AcDbLine
10
-39.6
20
25
30
0
11
-40.017997
21
21.824998
31
0
39
0
210
0
220
0
230
1
0
LINE
5
281
100
AcDbEntity
8
SK2
62
256
6
ByLayer
370
13
48
1
60
0
100
AcDbLine
10
-39.182003
20
21.825002
30
0
11
-40.017997
21
21.824998
31
0
39
0
210
0
220
0
230
1
0
LINE
5
282
100
AcDbEntity
8
SK2
62
256
6
ByLayer
370
13
48
1
60
0
100
AcDbLine
10
-39.6
20
-25
30
0
11
-40.017997
21
-21.825002
31
0
39
0
210
0
220
0
230
1
0
LINE
5
283
100
AcDbEntity
8
SK2
62
256
6
ByLayer
370
13
48
1
60
0
100
AcDbLine
10
-39.6
20
-25
30
0
11
-39.182003
21
-21.824998
31
0
39
0
210
0
220
0
230
1
0
LINE
5
284
100
AcDbEntity
8
SK2
62
256
6
ByLayer
370
13
48
1
60
0
100
AcDbLine
10
-40.017997
20
-21.825002
30
0
11
-39.182003
21
-21.824998
31
0
39
0
210
0
220
0
230
1
0
ENDBLK
5
286
100
AcDbEntity
8
0
100
AcDbBlockEnd
0
BLOCK
5
293
100
AcDbEntity
8
0
100
AcDbBlockBegin
2
DimnDraft3D5
70
0
10
0
20
0
30
0
3
DimnDraft3D5
0
MTEXT
5
289
100
AcDbEntity
8
2
62
256
6
ByLayer
370
18
48
1
60
0
100
AcDbMText
10
87.225
20
32.092105
30
0
210
0
220
0
230
1
1
\W0.5404;6
40
3.5
41
0
44
1.084337
50
90
71
7
72
5
7
iso_b_vert
0
LINE
5
28A
100
AcDbEntity
8
2
62
256
6
ByLayer
370
13
48
1
60
0
100
AcDbLine
10
72
20
35
30
0
11
90.1
21
35
31
0
39
0
210
0
220
0
230
1
0
LINE
5
28B
100
AcDbEntity
8
2
62
256
6
ByLayer
370
13
48
1
60
0
100
AcDbLine
10
72
20
29
30
0
11
90.1
21
29
31
0
39
0
210
0
220
0
230
1
0
LINE
5
28C
100
AcDbEntity
8
2
62
256
6
ByLayer
370
13
48
1
60
0
100
AcDbLine
10
88.1
20
43.75
30
0
11
88.1
21
20.25
31
0
39
0
210
0
220
0
230
1
0
LINE
5
28D
100
AcDbEntity
8
2
62
256
6
ByLayer
370
13
48
1
60
0
100
AcDbLine
10
88.1
20
35
30
0
11
87.682003
21
38.174998
31
0
39
0
210
0
220
0
230
1
0
LINE
5
28E
100
AcDbEntity
8
2
62
256
6
ByLayer
370
13
48
1
60
0
100
AcDbLine
10
88.1
20
35
30
0
11
88.517997
21
38.175002
31
0
39
0
210
0
220
0
230
1
0
LINE
5
28F
100
AcDbEntity
8
2
62
256
6
ByLayer
370
13
48
1
60
0
100
AcDbLine
10
87.682003
20
38.174998
30
0
11
88.517997
21
38.175002
31
0
39
0
210
0
220
0
230
1
0
LINE
5
290
100
AcDbEntity
8
2
62
256
6
ByLayer
370
13
48
1
60
0
100
AcDbLine
10
88.1
20
29
30
0
11
88.517997
21
25.825002
31
0
39
0
210
0
220
0
230
1
0
LINE
5
291
100
AcDbEntity
8
2
62
256
6
ByLayer
370
13
48
1
60
0
100
AcDbLine
10
88.1
20
29
30
0
11
87.682003
21
25.824998
31
0
39
0
210
0
220
0
230
1
0
LINE
5
292
100
AcDbEntity
8
2
62
256
6
ByLayer
370
13
48
1
60
0
100
AcDbLine
10
88.517997
20
25.825002
30
0
11
87.682003
21
25.824998
31
0
39
0
210
0
220
0
230
1
0
ENDBLK
5
294
100
AcDbEntity
8
0
100
AcDbBlockEnd
0
ENDSEC
0
SECTION
2
ENTITIES
0
ARC
5
FA
100
AcDbEntity
8
1
62
256
6
ByLayer
370
13
48
1
60
0
100
AcDbCircle
39
0
10
-20.279208
20
26.2
30
0
40
1.2
210
0
220
0
230
-1
100
AcDbArc
50
195
51
270
0
ARC
5
FB
100
AcDbEntity
8
1
62
256
6
ByLayer
370
13
48
1
60
0
100
AcDbCircle
39
0
10
-24.129527
20
-14.5
30
0
40
4.00000000000002
210
0
220
0
230
-1
100
AcDbArc
50
0.5
51
90
0
ARC
5
FC
100
AcDbEntity
8
1
62
256
6
ByLayer
370
13
48
1
60
0
100
AcDbCircle
39
0
10
-38
20
27.725
30
0
40
1.6
210
0
220
0
230
-1
100
AcDbArc
50
0
51
90
0
ELLIPSE
5
FD
100
AcDbEntity
8
1
62
256
6
ByLayer
370
13
48
1
60
0
100
AcDbEllipse
10
64.735957
20
32
30
0
11
2.68288299088737
21
0.988903456657753
31
0
210
0
220
0
230
-1
40
0.055374
41
-2.11297994904524
42
-2.0381553888515
0
ELLIPSE
5
FE
100
AcDbEntity
8
1
62
256
6
ByLayer
370
13
48
1
60
0
100
AcDbEllipse
10
64.735956
20
32
30
0
11
2.68288259107433
21
-0.988903326237572
31
0
210
0
220
0
230
-1
40
0.055374
41
2.03815533559841
42
2.11297990479074
0
ELLIPSE
5
FF
100
AcDbEntity
8
1
62
256
6
ByLayer
370
13
48
1
60
0
100
AcDbEllipse
10
-1.056258
20
0
30
0
11
11.7092723497279
21
-24.6771864409391
31
0
210
0
220
0
230
-1
40
0.341999
41
-1.08183270048922
42
-0.167213071909008
0
ELLIPSE
5
100
100
AcDbEntity
8
1
62
256
6
ByLayer
370
13
48
1
60
0
100
AcDbEllipse
10
20.218172
20
0
30
0
11
-1.53075794227799E-15
21
25.0000000000003
31
0
210
0
220
0
230
-1
40
0.008727
41
-2.47882671351478
42
-0.417646052691242
0
ELLIPSE
5
101
100
AcDbEntity
8
1
62
256
6
ByLayer
370
13
48
1
60
0
100
AcDbEllipse
10
63.82724
20
32
30
0
11
0.445740891859874
21
-0.984984750083211
31
0
210
0
220
0
230
-1
40
0.387313
41
2.20299947839682
42
2.78944434837376
0
ELLIPSE
5
102
100
AcDbEntity
8
1
62
256
6
ByLayer
370
13
48
1
60
0
100
AcDbEllipse
10
62.286405
20
32
30
0
11
1.97468475797198
21
1.99569353788235E-15
31
0
210
0
220
0
230
-1
40
0.50641
41
1.04513734524344
42
-1.0451373452434
0
ELLIPSE
5
103
100
AcDbEntity
8
1
62
256
6
ByLayer
370
13
48
1
60
0
100
AcDbEllipse
10
63.82724
20
32
30
0
11
0.445740891845628
21
0.98498475006594
31
0
210
0
220
0
230
-1
40
0.387313
41
-2.78944434836905
42
-2.20299947838482
0
ELLIPSE
5
104
100
AcDbEntity
8
1
62
256
6
ByLayer
370
13
48
1
60
0
100
AcDbEllipse
10
64.008588
20
32
30
0
11
-6.12303176902157E-17
21
0.99999999998525
31
0
210
0
220
0
230
-1
40
0.452723
41
-1.74550750766749
42
-1.39608514592211
0
ELLIPSE
5
105
100
AcDbEntity
8
1
62
256
6
ByLayer
370
13
48
1
60
0
100
AcDbEllipse
10
-1.056258
20
0
30
0
11
11.7092723497278
21
24.677186440939
31
0
210
0
220
0
230
-1
40
0.341999
41
0.167213071908998
42
1.08183270048923
0
ELLIPSE
5
106
100
AcDbEntity
8
1
62
256
6
ByLayer
370
13
48
1
60
0
100
AcDbEllipse
10
21.056258
20
0
30
0
11
11.7092723497274
21
24.6771864409366
31
0
210
0
220
0
230
-1
40
0.341999
41
-2.9743795816808
42
-2.05975995310054
0
ELLIPSE
5
107
100
AcDbEntity
8
1
62
256
6
ByLayer
370
13
48
1
60
0
100
AcDbEllipse
10
21.056258
20
0
30
0
11
11.7092723497283
21
-24.6771864409377
31
0
210
0
220
0
230
-1
40
0.341999
41
2.05975995310057
42
2.9743795816808
0
ELLIPSE
5
108
100
AcDbEntity
8
1
62
256
6
ByLayer
370
13
48
1
60
0
100
AcDbEllipse
10
67.936428
20
29.719724
30
0
11
0.0344757044900429
21
0.298012459135378
31
0
210
0
220
0
230
1
40
0.004013
41
0.696394960504265
42
1.5361210956774
0
ELLIPSE
5
109
100
AcDbEntity
8
1
62
256
6
ByLayer
370
13
48
1
60
0
100
AcDbEllipse
10
65.789628
20
29.766445
30
0
11
-0.0230464571345713
21
0.299113458094992
31
0
210
0
220
0
230
1
40
0.565336
41
-1.58546383862666
42
-0.788535504423525
0
ELLIPSE
5
10A
100
AcDbEntity
8
1
62
256
6
ByLayer
370
13
48
1
60
0
100
AcDbEllipse
10
67.936428
20
34.280276
30
0
11
0.0344757044900425
21
-0.298012459135378
31
0
210
0
220
0
230
1
40
0.004013
41
-1.53612109567721
42
-0.696394960515402
0
ELLIPSE
5
10B
100
AcDbEntity
8
1
62
256
6
ByLayer
370
13
48
1
60
0
100
AcDbEllipse
10
65.789628
20
34.233555
30
0
11
-0.0230464571345715
21
-0.299113458094992
31
0
210
0
220
0
230
1
40
0.565336
41
0.788535504423603
42
1.58546383862671
0
ELLIPSE
5
10C
100
AcDbEntity
8
1
62
256
6
ByLayer
370
13
48
1
60
0
100
AcDbEllipse
10
64.633727
20
30.673004
30
0
11
0.145654533590935
21
-0.137057494667045
31
0
210
0
220
0
230
1
40
0.824654
41
1.55829671735586
42
2.276150661971
0
ELLIPSE
5
10D
100
AcDbEntity
8
1
62
256
6
ByLayer
370
13
48
1
60
0
100
AcDbEllipse
10
64.633721
20
33.32699
30
0
11
-0.145655094548329
21
-0.137056898520714
31
0
210
0
220
0
230
1
40
0.824655
41
0.865445253601617
42
1.58330062290273
0
ELLIPSE
5
10E
100
AcDbEntity
8
1
62
256
6
ByLayer
370
13
48
1
60
0
100
AcDbEllipse
10
63.946601
20
30.625278
30
0
11
0.0356112644714499
21
0.196804059517949
31
0
210
0
220
0
230
1
40
0.337181
41
0.552952312025172
42
1.63173288093478
0
ELLIPSE
5
10F
100
AcDbEntity
8
1
62
256
6
ByLayer
370
13
48
1
60
0
100
AcDbEllipse
10
63.946601
20
33.374718
30
0
11
-0.0356101531982815
21
0.19680426059716
31
0
210
0
220
0
230
1
40
0.337181
41
1.50986167657772
42
2.58863944787008
0
ELLIPSE
5
110
100
AcDbEntity
8
1
62
256
6
ByLayer
370
13
48
1
60
0
100
AcDbEllipse
10
63.794567
20
30.656387
30
0
11
-0.0446222323637904
21
-0.194958601705264
31
0
210
0
220
0
230
1
40
0.334374
41
-2.52315165181324
42
-1.49441356325141
0
ELLIPSE
5
111
100
AcDbEntity
8
1
62
256
6
ByLayer
370
13
48
1
60
0
100
AcDbEllipse
10
63.794568
20
33.343611
30
0
11
0.0446208929096927
21
-0.194958908275415
31
0
210
0
220
0
230
1
40
0.334374
41
-1.64717679303883
42
-0.618441579562972
0
ELLIPSE
5
112
100
AcDbEntity
8
1
62
256
6
ByLayer
370
13
48
1
60
0
100
AcDbEllipse
10
63.794568
20
33.343611
30
0
11
-0.189843150463845
21
0.0629251795544686
31
0
210
0
220
0
230
1
40
0.824862
41
0.783492188047297
42
1.83037412070846
0
ELLIPSE
5
113
100
AcDbEntity
8
1
62
256
6
ByLayer
370
13
48
1
60
0
100
AcDbEllipse
10
63.794568
20
33.343611
30
0
11
0.181415923983448
21
0.0841918198237332
31
0
210
0
220
0
230
1
40
0.151449
41
1.88624128123234
42
2.72609499686328
0
ELLIPSE
5
114
100
AcDbEntity
8
1
62
256
6
ByLayer
370
13
48
1
60
0
100
AcDbEllipse
10
63.794567
20
30.656387
30
0
11
-0.181415923982124
21
0.0841918198265856
31
0
210
0
220
0
230
1
40
0.151449
41
0.415497656646257
42
1.25535137230865
0
ELLIPSE
5
115
100
AcDbEntity
8
1
62
256
6
ByLayer
370
13
48
1
60
0
100
AcDbEllipse
10
63.794567
20
30.656387
30
0
11
0.189843211592928
21
0.0629249951297794
31
0
210
0
220
0
230
1
40
0.824861
41
1.31121310851463
42
2.3581012668609
0
ELLIPSE
5
116
100
AcDbEntity
8
1
62
256
6
ByLayer
370
13
48
1
60
0
100
AcDbEllipse
10
63.218964
20
34.583917
30
0
11
0.195374877001351
21
0.0540538505247155
31
0
210
0
220
0
230
-1
40
0.095151
41
-2.68744170644035
42
-1.90204354310244
0
ELLIPSE
5
117
100
AcDbEntity
8
1
62
256
6
ByLayer
370
13
48
1
60
0
100
AcDbEllipse
10
63.218964
20
29.416083
30
0
11
0.195374876967336
21
-0.0540538505178248
31
0
210
0
220
0
230
-1
40
0.095151
41
1.90204354299212
42
2.68744170642726
0
ELLIPSE
5
118
100
AcDbEntity
8
1
62
256
6
ByLayer
370
13
48
1
60
0
100
AcDbEllipse
10
63.795109
20
32.583986
30
0
11
0.196520244347652
21
0.0371455725698103
31
0
210
0
220
0
230
1
40
0.382233
41
-2.69513202135763
42
-1.53760525501861
0
ELLIPSE
5
119
100
AcDbEntity
8
1
62
256
6
ByLayer
370
13
48
1
60
0
100
AcDbEllipse
10
63.795108
20
31.416014
30
0
11
-0.196520211828147
21
0.0371457446152342
31
0
210
0
220
0
230
1
40
0.382232
41
-1.60399008004375
42
-0.446460297603196
0
ELLIPSE
5
11A
100
AcDbEntity
8
1
62
256
6
ByLayer
370
13
48
1
60
0
100
AcDbEllipse
10
64.717675
20
33.143097
30
0
11
-0.199367740021547
21
-0.0158903819557831
31
0
210
0
220
0
230
1
40
0.789046
41
1.51750942137637
42
2.14132768530243
0
ELLIPSE
5
11B
100
AcDbEntity
8
1
62
256
6
ByLayer
370
13
48
1
60
0
100
AcDbEllipse
10
64.717682
20
30.8569
30
0
11
0.199367879080839
21
-0.0158886371601793
31
0
210
0
220
0
230
1
40
0.789045
41
1.00025908098126
42
1.62407577006624
0
ELLIPSE
5
11C
100
AcDbEntity
8
1
62
256
6
ByLayer
370
13
48
1
60
0
100
AcDbEllipse
10
63.218964
20
29.416083
30
0
11
0.199990731930824
21
-0.0330226536401254
31
0
210
0
220
0
230
-1
40
0.058305
41
1.91023508111164
42
2.6956332446306
0
ELLIPSE
5
11D
100
AcDbEntity
8
1
62
256
6
ByLayer
370
13
48
1
60
0
100
AcDbEllipse
10
63.218964
20
34.583917
30
0
11
0.199990732004959
21
0.0330226536491304
31
0
210
0
220
0
230
-1
40
0.058305
41
-2.69563324465796
42
-1.91023508134698
0
ELLIPSE
5
11E
100
AcDbEntity
8
1
62
256
6
ByLayer
370
13
48
1
60
0
100
AcDbEllipse
10
63.083018
20
29.440846
30
0
11
-0.0181929836887898
21
-0.0465726888261718
31
0
210
0
220
0
230
1
40
0.894204
41
-1.55767207624758
42
-1.23473760232691
0
ELLIPSE
5
11F
100
AcDbEntity
8
1
62
256
6
ByLayer
370
13
48
1
60
0
100
AcDbEllipse
10
63.083018
20
34.559154
30
0
11
-0.0181929836887866
21
0.0465726888261731
31
0
210
0
220
0
230
1
40
0.894204
41
1.23473760232675
42
1.55767207624772
0
ELLIPSE
5
120
100
AcDbEntity
8
1
62
256
6
ByLayer
370
13
48
1
60
0
100
AcDbEllipse
10
68.939269
20
34.248035
30
0
11
-0.0770752947303412
21
-0.184551886856328
31
0
210
0
220
0
230
1
40
0.173493
41
0.733007810210776
42
1.6059687894984
0
ELLIPSE
5
121
100
AcDbEntity
8
1
62
256
6
ByLayer
370
13
48
1
60
0
100
AcDbEllipse
10
68.939269
20
29.751965
30
0
11
-0.0770752947303411
21
0.184551886856328
31
0
210
0
220
0
230
1
40
0.173493
41
-1.60596878949833
42
-0.7330078102109
0
ELLIPSE
5
122
100
AcDbEntity
8
1
62
256
6
ByLayer
370
13
48
1
60
0
100
AcDbEllipse
10
65.425098
20
32.96828
30
0
11
0.0825713280238043
21
-0.288412856489418
31
0
210
0
220
0
230
1
40
0.558425
41
-2.51294443030668
42
-1.72932944862263
0
ELLIPSE
5
123
100
AcDbEntity
8
1
62
256
6
ByLayer
370
13
48
1
60
0
100
AcDbEllipse
10
65.425098
20
31.03172
30
0
11
0.0825713280238046
21
0.288412856489417
31
0
210
0
220
0
230
1
40
0.558425
41
1.72932944862263
42
2.51294443030671
0
ELLIPSE
5
124
100
AcDbEntity
8
1
62
256
6
ByLayer
370
13
48
1
60
0
100
AcDbEllipse
10
64.891168
20
32.891601
30
0
11
-0.122268173255619
21
-0.158273477906862
31
0
210
0
220
0
230
1
40
0.484684
41
1.08447344820008
42
1.92906217311913
0
ELLIPSE
5
125
100
AcDbEntity
8
1
62
256
6
ByLayer
370
13
48
1
60
0
100
AcDbEllipse
10
64.891173
20
31.108397
30
0
11
0.122268826309626
21
-0.158272973412603
31
0
210
0
220
0
230
1
40
0.484683
41
1.21252848060916
42
2.05711531973198
0
ELLIPSE
5
126
100
AcDbEntity
8
1
62
256
6
ByLayer
370
13
48
1
60
0
100
AcDbEllipse
10
68.136428
20
29.698544
30
0
11
0.0261610012051277
21
0.29885715988737
31
0
210
0
220
0
230
1
40
0.003045
41
0.693560700120174
42
1.53602277096679
0
ELLIPSE
5
127
100
AcDbEntity
8
1
62
256
6
ByLayer
370
13
48
1
60
0
100
AcDbEllipse
10
68.878728
20
29.676828
30
0
11
-0.00449393620032675
21
0.299966339007275
31
0
210
0
220
0
230
1
40
0.224443
41
0.739818792193819
42
1.42518632678387
0
ELLIPSE
5
128
100
AcDbEntity
8
1
62
256
6
ByLayer
370
13
48
1
60
0
100
AcDbEllipse
10
68.136428
20
34.301456
30
0
11
0.0261610012051277
21
-0.29885715988737
31
0
210
0
220
0
230
1
40
0.003045
41
-1.53602277096702
42
-0.693560700120143
0
ELLIPSE
5
129
100
AcDbEntity
8
1
62
256
6
ByLayer
370
13
48
1
60
0
100
AcDbEllipse
10
68.878728
20
34.323172
30
0
11
-0.00449393620032683
21
-0.299966339007275
31
0
210
0
220
0
230
1
40
0.224443
41
-1.42518632678388
42
-0.739818792193639
0
ELLIPSE
5
12A
100
AcDbEntity
8
1
62
256
6
ByLayer
370
13
48
1
60
0
100
AcDbEllipse
10
66.298594
20
30.829575
30
0
11
0.0475300676839183
21
0.296210892213575
31
0
210
0
220
0
230
1
40
0.247095
41
1.61042446202161
42
2.50923124540568
0
ELLIPSE
5
12B
100
AcDbEntity
8
1
62
256
6
ByLayer
370
13
48
1
60
0
100
AcDbEllipse
10
63.079474
20
34.558479
30
0
11
1.41637461308075E-17
21
0.05
31
0
210
0
220
0
230
1
40
0.906308
41
1.5707963267949
42
1.90677220780388
0
ELLIPSE
5
12C
100
AcDbEntity
8
1
62
256
6
ByLayer
370
13
48
1
60
0
100
AcDbEllipse
10
63.079474
20
29.441521
30
0
11
1.41637461308075E-17
21
0.05
31
0
210
0
220
0
230
1
40
0.906308
41
1.23482044578594
42
1.5707963267949
0
ELLIPSE
5
12D
100
AcDbEntity
8
1
62
256
6
ByLayer
370
13
48
1
60
0
100
AcDbEllipse
10
66.298594
20
33.170425
30
0
11
0.0475300676839182
21
-0.296210892213575
31
0
210
0
220
0
230
1
40
0.247095
41
-2.50923124540568
42
-1.61042446202156
0
ELLIPSE
5
12E
100
AcDbEntity
8
1
62
256
6
ByLayer
370
13
48
1
60
0
100
AcDbEllipse
10
65.138309
20
32.667501
30
0
11
-0.147116653644523
21
-0.13548686364529
31
0
210
0
220
0
230
1
40
0.428574
41
1.29393973964905
42
2.00635086389117
0
ELLIPSE
5
12F
100
AcDbEntity
8
1
62
256
6
ByLayer
370
13
48
1
60
0
100
AcDbEllipse
10
65.138309
20
31.332494
30
0
11
0.147116931807192
21
-0.135486561605342
31
0
210
0
220
0
230
1
40
0.428573
41
1.13524090981105
42
1.84765347921685
0
ELLIPSE
5
130
100
AcDbEntity
8
1
62
256
6
ByLayer
370
13
48
1
60
0
100
AcDbEllipse
10
63.960376
20
31.48284
30
0
11
-0.0689676156404999
21
0.187732437242114
31
0
210
0
220
0
230
1
40
0.223087
41
-1.29134485432426
42
-0.148829673704464
0
ELLIPSE
5
131
100
AcDbEntity
8
1
62
256
6
ByLayer
370
13
48
1
60
0
100
AcDbEllipse
10
64.205153
20
31.868114
30
0
11
-0.199848046799084
21
-0.00779475404301651
31
0
210
0
220
0
230
1
40
0.083289
41
-1.69354097241415
42
-0.437958800565596
0
ELLIPSE
5
132
100
AcDbEntity
8
1
62
256
6
ByLayer
370
13
48
1
60
0
100
AcDbEllipse
10
63.960377
20
32.51716
30
0
11
0.0689675934147269
21
0.187732445407236
31
0
210
0
220
0
230
1
40
0.223086
41
-2.99276300629684
42
-1.85025134770705
0
ELLIPSE
5
133
100
AcDbEntity
8
1
62
256
6
ByLayer
370
13
48
1
60
0
100
AcDbEllipse
10
64.205153
20
32.131886
30
0
11
0.199848033790471
21
-0.00779508756094016
31
0
210
0
220
0
230
1
40
0.083293
41
-2.70363371402358
42
-1.44805176546428
0
ELLIPSE
5
134
100
AcDbEntity
8
1
62
256
6
ByLayer
370
13
48
1
60
0
100
AcDbEllipse
10
63.795109
20
32.583986
30
0
11
0.0817083505375211
21
0.182547926453405
31
0
210
0
220
0
230
1
40
0.256764
41
-2.96631956466346
42
-1.86992384235507
0
ELLIPSE
5
135
100
AcDbEntity
8
1
62
256
6
ByLayer
370
13
48
1
60
0
100
AcDbEllipse
10
63.951068
20
32.52058
30
0
11
0.0689885705881151
21
0.187724737656519
31
0
210
0
220
0
230
1
40
0.223794
41
-2.99273803865042
42
-1.85208974570175
0
ELLIPSE
5
136
100
AcDbEntity
8
1
62
256
6
ByLayer
370
13
48
1
60
0
100
AcDbEllipse
10
63.795108
20
31.416014
30
0
11
-0.0817084005627237
21
0.182547904062143
31
0
210
0
220
0
230
1
40
0.256765
41
-1.27167207778631
42
-0.175273159290067
0
ELLIPSE
5
137
100
AcDbEntity
8
1
62
256
6
ByLayer
370
13
48
1
60
0
100
AcDbEllipse
10
69.61054
20
30.546278
30
0
11
-0.00934290352952681
21
0.29985448163007
31
0
210
0
220
0
230
1
40
0.37445
41
-2.32799563318292
42
-1.58246296899161
0
ELLIPSE
5
138
100
AcDbEntity
8
1
62
256
6
ByLayer
370
13
48
1
60
0
100
AcDbEllipse
10
63.951068
20
31.47942
30
0
11
-0.0689885942162015
21
0.187724728973229
31
0
210
0
220
0
230
1
40
0.223795
41
-1.28950643621438
42
-0.148854643107667
0
ELLIPSE
5
139
100
AcDbEntity
8
1
62
256
6
ByLayer
370
13
48
1
60
0
100
AcDbEllipse
10
69.61054
20
33.453722
30
0
11
-0.00934290352952708
21
-0.29985448163007
31
0
210
0
220
0
230
1
40
0.37445
41
1.58246296899165
42
2.32799563318294
0
ELLIPSE
5
13A
100
AcDbEntity
8
1
62
256
6
ByLayer
370
13
48
1
60
0
100
AcDbEllipse
10
69.830531
20
33.503126
30
0
11
0.160247744810277
21
-0.253615181492001
31
0
210
0
220
0
230
1
40
0.323223
41
1.3693368130958
42
1.88751235157058
0
ELLIPSE
5
13B
100
AcDbEntity
8
1
62
256
6
ByLayer
370
13
48
1
60
0
100
AcDbEllipse
10
69.830531
20
30.496874
30
0
11
0.160247744810277
21
0.253615181492001
31
0
210
0
220
0
230
1
40
0.323223
41
-1.88751235157064
42
-1.3693368130958
0
ELLIPSE
5
13C
100
AcDbEntity
8
1
62
256
6
ByLayer
370
13
48
1
60
0
100
AcDbEllipse
10
69.947855
20
30.425013
30
0
11
0.149040840011555
21
0.26035903673322
31
0
210
0
220
0
230
1
40
0.070614
41
-1.79230411601776
42
-1.53039607364757
0
ELLIPSE
5
13D
100
AcDbEntity
8
1
62
256
6
ByLayer
370
13
48
1
60
0
100
AcDbEllipse
10
69.947855
20
33.574987
30
0
11
0.149040840011555
21
-0.26035903673322
31
0
210
0
220
0
230
1
40
0.070614
41
1.53039607364758
42
1.79230411601768
0
ELLIPSE
5
13E
100
AcDbEntity
8
1
62
256
6
ByLayer
370
13
48
1
60
0
100
AcDbEllipse
10
69.962359
20
33.583575
30
0
11
0.15877234148459
21
-0.254541437843626
31
0
210
0
220
0
230
1
40
0.050686
41
1.56451084021989
42
1.77698417590524
0
ELLIPSE
5
13F
100
AcDbEntity
8
1
62
256
6
ByLayer
370
13
48
1
60
0
100
AcDbEllipse
10
69.962359
20
30.416425
30
0
11
0.158772341484591
21
0.254541437843626
31
0
210
0
220
0
230
1
40
0.050686
41
-1.77698417590492
42
-1.56451084021989
0
ELLIPSE
5
140
100
AcDbEntity
8
1
62
256
6
ByLayer
370
13
48
1
60
0
100
AcDbEllipse
10
70.855208
20
33.574987
30
0
11
0.857468680858817
21
1.49262006233059E-08
31
0
210
0
220
0
230
-1
40
0.466489
41
-3.14159264547095
42
-3.10721591858205
0
ELLIPSE
5
141
100
AcDbEntity
8
1
62
256
6
ByLayer
370
13
48
1
60
0
100
AcDbEllipse
10
69.980891
20
33.592172
30
0
11
0.0998194591515971
21
-0.00600629458840042
31
0
210
0
220
0
230
1
40
0.02426
41
-1.61576796719716
42
-1.39458928037316
0
ELLIPSE
5
142
100
AcDbEntity
8
1
62
256
6
ByLayer
370
13
48
1
60
0
100
AcDbEllipse
10
70.855208
20
30.425013
30
0
11
0.85746872883782
21
-1.44959547211297E-08
31
0
210
0
220
0
230
-1
40
0.466489
41
3.10721591977797
42
3.14159264570498
0
ELLIPSE
5
143
100
AcDbEntity
8
1
62
256
6
ByLayer
370
13
48
1
60
0
100
AcDbEllipse
10
69.980891
20
30.407828
30
0
11
0.0998194591515971
21
0.00600629458840055
31
0
210
0
220
0
230
1
40
0.02426
41
1.3945892803726
42
1.61576796719744
0
ELLIPSE
5
144
100
AcDbEntity
8
1
62
256
6
ByLayer
370
13
48
1
60
0
100
AcDbEllipse
10
69.022653
20
33.469281
30
0
11
-0.00304278008350742
21
-0.299984568752067
31
0
210
0
220
0
230
1
40
0.37459
41
1.5745958208753
42
2.35205450232601
0
ELLIPSE
5
145
100
AcDbEntity
8
1
62
256
6
ByLayer
370
13
48
1
60
0
100
AcDbEllipse
10
69.022653
20
30.530719
30
0
11
-0.00304278008350722
21
0.299984568752067
31
0
210
0
220
0
230
1
40
0.37459
41
-2.35205450232603
42
-1.5745958208753
0
ELLIPSE
5
146
100
AcDbEntity
8
1
62
256
6
ByLayer
370
13
48
1
60
0
100
AcDbEllipse
10
68.466686
20
30.522572
30
0
11
-0.000603333593996458
21
0.299999393313677
31
0
210
0
220
0
230
1
40
0.176047
41
-2.42323398494279
42
-1.57115037716842
0
ELLIPSE
5
147
100
AcDbEntity
8
1
62
256
6
ByLayer
370
13
48
1
60
0
100
AcDbEllipse
10
68.466686
20
33.477428
30
0
11
-0.000603333593996598
21
-0.299999393313677
31
0
210
0
220
0
230
1
40
0.176047
41
1.57115037716842
42
2.42323398494298
0
ELLIPSE
5
148
100
AcDbEntity
8
1
62
256
6
ByLayer
370
13
48
1
60
0
100
AcDbEllipse
10
68.1994
20
30.546945
30
0
11
0.0450980026263406
21
0.296590913817525
31
0
210
0
220
0
230
1
40
0.079678
41
-2.44833311311502
42
-1.55868151923582
0
ELLIPSE
5
149
100
AcDbEntity
8
1
62
256
6
ByLayer
370
13
48
1
60
0
100
AcDbEllipse
10
68.1994
20
33.453055
30
0
11
0.0450980026263403
21
-0.296590913817525
31
0
210
0
220
0
230
1
40
0.079678
41
1.55868151923577
42
2.44833311311464
0
ELLIPSE
5
14A
100
AcDbEntity
8
1
62
256
6
ByLayer
370
18
48
1
60
0
100
AcDbEllipse
10
68.867963
20
34.944226
30
0
11
0.299993003428647
21
0.0212470571895808
31
0
210
0
220
0
230
-1
40
0.09643
41
-1.78738101638236
42
-1.38953797930187
0
ELLIPSE
5
14B
100
AcDbEntity
8
1
62
256
6
ByLayer
370
18
48
1
60
0
100
AcDbEllipse
10
70.048812
20
33.574987
30
0
11
4.57944163810279E-08
21
0.399989301783358
31
0
210
0
220
0
230
-1
40
0.122033
41
-1.57079726504016
42
-1.53641964928076
0
ELLIPSE
5
14C
100
AcDbEntity
8
1
62
256
6
ByLayer
370
18
48
1
60
0
100
AcDbEllipse
10
69.988383
20
30.284019
30
0
11
0.0067376124619129
21
-1.76238876893783
31
0
210
0
220
0
230
-1
40
0.006901
41
-1.62491997153265
42
-1.60939626554657
0
ELLIPSE
5
14D
100
AcDbEntity
8
1
62
256
6
ByLayer
370
18
48
1
60
0
100
AcDbEllipse
10
69.988363
20
33.716116
30
0
11
0.00674248447839952
21
1.7639060147417
31
0
210
0
220
0
230
-1
40
0.006907
41
1.60943938424736
42
1.62494976334199
0
ELLIPSE
5
14E
100
AcDbEntity
8
1
62
256
6
ByLayer
370
18
48
1
60
0
100
AcDbEllipse
10
65.705211
20
34.9
30
0
11
0.203674870635643
21
2.49421540694359E-17
31
0
210
0
220
0
230
-1
40
0.981957
41
1.03927776944692
42
1.5707963267949
0
ELLIPSE
5
14F
100
AcDbEntity
8
1
62
256
6
ByLayer
370
18
48
1
60
0
100
AcDbEllipse
10
68.867963
20
29.055774
30
0
11
0.299993003454836
21
-0.0212470571909435
31
0
210
0
220
0
230
-1
40
0.09643
41
1.38953797933475
42
1.7873810163802
0
ELLIPSE
5
150
100
AcDbEntity
8
1
62
256
6
ByLayer
370
18
48
1
60
0
100
AcDbEllipse
10
65.705211
20
29.1
30
0
11
-0.203674870635643
21
0
31
-3.19189119579732E-16
210
1.56715022615988E-15
220
0
230
-1
40
0.981957
41
1.5707963267949
42
2.10231488414288
0
ELLIPSE
5
151
100
AcDbEntity
8
1
62
256
6
ByLayer
370
18
48
1
60
0
100
AcDbEllipse
10
70.048812
20
30.425013
30
0
11
4.57527158781983E-08
21
-0.399989312977558
31
0
210
0
220
0
230
-1
40
0.122033
41
1.53641964938837
42
1.57079726418575
0
POINT
5
6C
100
AcDbEntity
8
81
62
256
6
ByLayer
370
18
48
1
60
0
100
AcDbPoint
10
70
20
35
30
0
39
0
210
0
220
0
230
1
50
360
0
POINT
5
6E
100
AcDbEntity
8
80
62
256
6
ByLayer
370
18
48
1
60
0
100
AcDbPoint
10
0
20
0
30
0
39
0
210
0
220
0
230
1
50
360
0
SPLINE
5
152
100
AcDbEntity
8
SK1
62
256
6
ByLayer
370
13
48
1
60
0
100
AcDbSpline
70
4
71
2
72
6
73
3
40
0
40
0
40
0
40
1
40
1
40
1
41
1
10
-28.5
20
-16.854521206665
30
0
41
1
10
-15.2499999987993
20
-17.1871851888412
30
0
41
1
10
-1.99999999999994
20
-17.5198482068776
30
0
0
SPLINE
5
153
100
AcDbEntity
8
SK1
62
256
6
ByLayer
370
13
48
1
60
0
100
AcDbSpline
70
4
71
2
72
6
73
3
40
0
40
0
40
0
40
1
40
1
40
1
41
1
10
-1.99999999999994
20
17.5198479235724
30
0
41
1
10
-15.2499999987995
20
17.1871849060498
30
0
41
1
10
-28.5
20
16.8545209244112
30
0
0
SPLINE
5
154
100
AcDbEntity
8
SK1
62
256
6
ByLayer
370
13
48
1
60
0
100
AcDbSpline
70
4
71
3
72
13
73
9
40
0
40
0
40
0
40
0
40
0.239409099367209
40
0.368297400752094
40
0.499931438691459
40
0.631576866358041
40
0.760496583550927
40
1
40
1
40
1
40
1
41
1
10
-1.99999999999994
20
-17.525129116923
30
0
41
1
10
-1.99909125719793
20
-17.4990813944884
30
0
41
1
10
-1.99103211472601
20
-17.4617233046648
30
0
41
1
10
-1.96563495891914
20
-17.4155240253433
30
0
41
1
10
-1.93886250822572
20
-17.3842556209574
30
0
41
1
10
-1.90627575278671
20
-17.3590990612905
30
0
41
1
10
-1.85883875467886
20
-17.3360651360604
30
0
41
1
10
-1.82110932008976
20
-17.3298953840655
30
0
41
1
10
-1.79503997793924
20
-17.3302974649008
30
0
0
SPLINE
5
155
100
AcDbEntity
8
SK1
62
256
6
ByLayer
370
13
48
1
60
0
100
AcDbSpline
70
4
71
3
72
13
73
9
40
0
40
0
40
0
40
0
40
0.239503416121655
40
0.368423133196268
40
0.50006856081483
40
0.631702598790232
40
0.760590900287156
40
1
40
1
40
1
40
1
41
1
10
-1.79503997793927
20
17.3302973195575
30
0
41
1
10
-1.82110932009613
20
17.3298952387248
30
0
41
1
10
-1.85883875469074
20
17.336064990738
30
0
41
1
10
-1.9062757527968
20
17.3590989160412
30
0
41
1
10
-1.9388625082353
20
17.3842554757878
30
0
41
1
10
-1.96563495892644
20
17.4155238802705
30
0
41
1
10
-1.99103211473133
20
17.4617231597379
30
0
41
1
10
-1.99909125720333
20
17.4990812496681
30
0
41
1
10
-1.99999999999994
20
17.5251289721744
30
0
0
SPLINE
5
156
100
AcDbEntity
8
SK1
62
256
6
ByLayer
370
13
48
1
60
0
100
AcDbSpline
70
4
71
2
72
6
73
3
40
0
40
0
40
0
40
1
40
1
40
1
41
1
10
-1.79503997793924
20
-17.3250646819565
30
0
41
1
10
-0.995008433403001
20
-17.3451508243471
30
0
41
1
10
-0.194976888875232
20
-17.3652369633001
30
0
0
SPLINE
5
157
100
AcDbEntity
8
SK1
62
256
6
ByLayer
370
13
48
1
60
0
100
AcDbSpline
70
4
71
2
72
6
73
3
40
0
40
0
40
0
40
1
40
1
40
1
41
1
10
-0.19497688887526
20
17.3652366802367
30
0
41
1
10
-0.995008433403001
20
17.3451505413152
30
0
41
1
10
-1.79503997793927
20
17.3250643989562
30
0
0
SPLINE
5
158
100
AcDbEntity
8
SK1
62
256
6
ByLayer
370
13
48
1
60
0
100
AcDbSpline
70
4
71
2
72
6
73
3
40
0
40
0
40
0
40
1
40
1
40
1
41
1
10
-30
20
-15.9932495545754
30
0
41
1
10
-29.2499990770552
20
-16.4260289695447
30
0
41
1
10
-28.5
20
-16.8588008432386
30
0
0
SPLINE
5
159
100
AcDbEntity
8
SK1
62
256
6
ByLayer
370
13
48
1
60
0
100
AcDbSpline
70
4
71
2
72
6
73
3
40
0
40
0
40
0
40
1
40
1
40
1
41
1
10
-28.5
20
16.858800643688
30
0
41
1
10
-29.2499990770911
20
16.4260287704419
30
0
41
1
10
-30
20
15.9932493559076
30
0
0
SPLINE
5
15A
100
AcDbEntity
8
SK1
62
256
6
ByLayer
370
13
48
1
60
0
100
AcDbSpline
70
4
71
2
72
6
73
3
40
0
40
0
40
0
40
1
40
1
40
1
41
1
10
-0.194976888875232
20
-17.3704796738454
30
0
41
1
10
-0.0591463025185703
20
-17.3755257485867
30
0
41
1
10
-0.0356373334003592
20
-17.4655271597149
30
0
0
SPLINE
5
15B
100
AcDbEntity
8
SK1
62
256
6
ByLayer
370
13
48
1
60
0
100
AcDbSpline
70
4
71
2
72
6
73
3
40
0
40
0
40
0
40
1
40
1
40
1
41
1
10
-0.0343899619089427
20
17.4680396001793
30
0
41
1
10
-0.0576204404094369
20
17.3761040543929
30
0
41
1
10
-0.19497688887526
20
17.3704795286247
30
0
0
SPLINE
5
15C
100
AcDbEntity
8
SK1
62
256
6
ByLayer
370
13
48
1
60
0
100
AcDbSpline
70
4
71
3
72
39
73
35
40
0
40
0
40
0
40
0
40
0.0181821466686176
40
0.046524425410586
40
0.0748667041525546
40
0.103208982894523
40
0.15989354037846
40
0.216578097862397
40
0.244920376604365
40
0.273262655346334
40
0.329947212830271
40
0.358289491572239
40
0.386631770314208
40
0.414974049056176
40
0.443316327798145
40
0.471658606540113
40
0.485829745911098
40
0.500000885282082
40
0.514172024653066
40
0.52834316402405
40
0.556685442766019
40
0.585027721507987
40
0.613370000249956
40
0.641712278991924
40
0.670054557733893
40
0.72673911521783
40
0.755081393959798
40
0.783423672701766
40
0.840108230185704
40
0.896792787669641
40
0.925135066411609
40
0.953477345153578
40
0.981819623895546
40
1
40
1
40
1
40
1
41
1
10
-30
20
15.9932053883315
30
0
41
1
10
-30
20
15.9899219742892
30
0
41
1
10
-30
20
15.9548426693975
30
0
41
1
10
-30
20
15.7965327535812
30
0
41
1
10
-29.9999999999999
20
15.4890634139888
30
0
41
1
10
-30
20
14.9202427964398
30
0
41
1
10
-29.9999999999999
20
13.9430330734596
30
0
41
1
10
-30
20
12.6450674903882
30
0
41
1
10
-29.9999999999999
20
11.4213907579162
30
0
41
1
10
-30
20
10.084342571431
30
0
41
1
10
-30
20
8.60269267078073
30
0
41
1
10
-29.9999999999999
20
6.9491204942841
30
0
41
1
10
-30
20
5.64600378047237
30
0
41
1
10
-30
20
4.28092566737885
30
0
41
1
10
-30
20
2.86766148350503
30
0
41
1
10
-30
20
1.6758041817389
30
0
41
1
10
-30
20
0.709818138095528
30
0
41
1
10
-30
20
2.731355835E-07
30
0
41
1
10
-30
20
-0.709818178928231
30
0
41
1
10
-30
20
-1.67580430318807
30
0
41
1
10
-30
20
-2.86766099029074
30
0
41
1
10
-30
20
-4.28092547446502
30
0
41
1
10
-30
20
-5.64600401967201
30
0
41
1
10
-30
20
-6.94912017416249
30
0
41
1
10
-30
20
-8.6026925363725
30
0
41
1
10
-30
20
-10.0843425709124
30
0
41
1
10
-30
20
-11.4213906920359
30
0
41
1
10
-30
20
-12.6450678356931
30
0
41
1
10
-30
20
-13.9430327235573
30
0
41
1
10
-30
20
-14.9202435431779
30
0
41
1
10
-30
20
-15.4890632796306
30
0
41
1
10
-30
20
-15.796533117835
30
0
41
1
10
-30
20
-15.954839473958
30
0
41
1
10
-30
20
-15.9899195643802
30
0
41
1
10
-30
20
-15.9932046116278
30
0
0
SPLINE
5
15D
100
AcDbEntity
8
SK1
62
256
6
ByLayer
370
13
48
1
60
0
100
AcDbSpline
70
4
71
3
72
39
73
35
40
0
40
0
40
0
40
0
40
0.0161825883453796
40
0.0446424311893669
40
0.0731022740333543
40
0.101562116877342
40
0.158481802565316
40
0.215401488253291
40
0.243861331097278
40
0.272321173941266
40
0.32924085962924
40
0.357700702473228
40
0.386160545317215
40
0.414620388161202
40
0.44308023100519
40
0.471540073849177
40
0.485769995271171
40
0.499999916693165
40
0.514229838115158
40
0.528459759537152
40
0.556919602381139
40
0.585379445225127
40
0.613839288069114
40
0.642299130913101
40
0.670758973757088
40
0.727678659445063
40
0.756138502289051
40
0.784598345133038
40
0.841518030821013
40
0.898437716508987
40
0.926897559352975
40
0.955357402196962
40
0.983817245040949
40
1
40
1
40
1
40
1
41
1
10
-28.5
20
16.8572808148032
30
0
41
1
10
-28.5
20
16.8520758988486
30
0
41
1
10
-28.5
20
16.8141072516568
30
0
41
1
10
-28.5
20
16.6531187925377
30
0
41
1
10
-28.5
20
16.3328856609546
30
0
41
1
10
-28.5
20
15.7436769514769
30
0
41
1
10
-28.5
20
14.7294543359372
30
0
41
1
10
-28.5
20
13.3839106046768
30
0
41
1
10
-28.5
20
12.1202809967187
30
0
41
1
10
-28.5
20
10.7383929245239
30
0
41
1
10
-28.5
20
9.19217383455441
30
0
41
1
10
-28.5
20
7.47336198687179
30
0
41
1
10
-28.5
20
6.10816664300202
30
0
41
1
10
-28.5
20
4.66779636016503
30
0
41
1
10
-28.5
20
3.15909751485583
30
0
41
1
10
-28.5
20
1.85825194532143
30
0
41
1
10
-28.5
20
0.795563889584997
30
0
41
1
10
-28.5
20
1.286698819E-07
30
0
41
1
10
-28.5
20
-0.795563863901265
30
0
41
1
10
-28.5
20
-1.85825200188586
30
0
41
1
10
-28.5
20
-3.1590972918863
30
0
41
1
10
-28.5
20
-4.66779609215371
30
0
41
1
10
-28.5
20
-6.10816680103008
30
0
41
1
10
-28.5
20
-7.47336176426737
30
0
41
1
10
-28.5
20
-9.19217366708199
30
0
41
1
10
-28.5
20
-10.7383929176601
30
0
41
1
10
-28.5
20
-12.1202808762331
30
0
41
1
10
-28.5
20
-13.3839109677473
30
0
41
1
10
-28.5
20
-14.7294539424716
30
0
41
1
10
-28.5
20
-15.7436777114932
30
0
41
1
10
-28.5
20
-16.3328855300396
30
0
41
1
10
-28.5
20
-16.6531191297731
30
0
41
1
10
-28.5
20
-16.8141081750073
30
0
41
1
10
-28.5
20
-16.8520764696198
30
0
41
1
10
-28.5
20
-16.8572811851631
30
0
0
SPLINE
5
15E
100
AcDbEntity
8
SK1
62
256
6
ByLayer
370
13
48
1
60
0
100
AcDbSpline
70
4
71
3
72
24
73
20
40
0
40
0
40
0
40
0
40
0.0865398844437123
40
0.0865398844437123
40
0.174606808973728
40
0.174606808973728
40
0.204283232250766
40
0.204283232250766
40
0.23443037829909
40
0.23443037829909
40
0.260963086962231
40
0.260963086962231
40
0.296894251932768
40
0.296894251932768
40
0.362560401604424
40
0.362560401604424
40
0.577775078514064
40
0.577775078514064
40
1
40
1
40
1
40
1
41
1
10
-0.19497688887526
20
-5.10125086895576
30
0
41
1
10
-0.224592653870218
20
-5.16040801377218
30
0
41
1
10
-0.257595479757299
20
-5.21831140841607
30
0
41
1
10
-0.336150389877957
20
-5.32723274028925
30
0
41
1
10
-0.382542848167304
20
-5.38041105877883
30
0
41
1
10
-0.462321250315625
20
-5.43127550158073
30
0
41
1
10
-0.484592781963613
20
-5.44242526658496
30
0
41
1
10
-0.532132005846449
20
-5.45772783053704
30
0
41
1
10
-0.558142899453088
20
-5.46179903845956
30
0
41
1
10
-0.606278947725485
20
-5.46041947085922
30
0
41
1
10
-0.629034072907643
20
-5.45606086620441
30
0
41
1
10
-0.678877240187688
20
-5.43930436278239
30
0
41
1
10
-0.705546599495392
20
-5.42456927125349
30
0
41
1
10
-0.773100753634992
20
-5.37672942900625
30
0
41
1
10
-0.809617767336505
20
-5.33795142049786
30
0
41
1
10
-0.945846243999512
20
-5.16581622302249
30
0
41
1
10
-1.01284657594567
20
-5.01170528380609
30
0
41
1
10
-1.1843470747007
20
-4.55468826919963
30
0
41
1
10
-1.25671595113781
20
-4.23494507919207
30
0
41
1
10
-1.31543506509544
20
-3.91026939581354
30
0
0
SPLINE
5
15F
100
AcDbEntity
8
SK1
62
256
6
ByLayer
370
13
48
1
60
0
100
AcDbSpline
70
4
71
3
72
12
73
8
40
0
40
0
40
0
40
0
40
0.500000000000001
40
0.500000000000001
40
0.75
40
0.75
40
1
40
1
40
1
40
1
41
1
10
-1.31543506509493
20
3.91027172665463
30
0
41
1
10
-1.24592839325504
20
4.29459561059798
30
0
41
1
10
-1.16331416991252
20
4.66760511763047
30
0
41
1
10
-0.926521435133054
20
5.19044404924725
30
0
41
1
10
-0.835622884145749
20
5.40735814273458
30
0
41
1
10
-0.419282266252338
20
5.50342856768944
30
0
41
1
10
-0.281321823101052
20
5.27372622909905
30
0
41
1
10
-0.19497688887526
20
5.10125345321327
30
0
0
SPLINE
5
160
100
AcDbEntity
8
SK1
62
256
6
ByLayer
370
13
48
1
60
0
100
AcDbSpline
70
4
71
3
72
10
73
6
40
0
40
0
40
0
40
0
40
0.5
40
0.5
40
1
40
1
40
1
40
1
41
1
10
-1.3154350650949
20
-3.91026939581334
30
0
41
1
10
-1.5399457534287
20
-2.66888211580201
30
0
41
1
10
-1.7236184845311
20
-1.33806859990838
30
0
41
1
10
-1.72276554179191
20
1.34789001624878
30
0
41
1
10
-1.53997014218979
20
2.66874784662468
30
0
41
1
10
-1.31543506509493
20
3.91027172665446
30
0
0
SPLINE
5
161
100
AcDbEntity
8
SK1
62
256
6
ByLayer
370
13
48
1
60
0
100
AcDbSpline
70
4
71
3
72
19
73
15
40
0
40
0
40
0
40
0
40
0.0340168328199857
40
0.103731952843965
40
0.173447072867944
40
0.243162192891922
40
0.38259243293988
40
0.522022672987838
40
0.591737793011817
40
0.661452913035796
40
0.800883153083753
40
0.870598273107732
40
0.940313393131711
40
1
40
1
40
1
40
1
41
1
10
-0.19497688887526
20
17.3652894533007
30
0
41
1
10
-0.19497688887526
20
17.3585856739236
30
0
41
1
10
-0.19497688887526
20
17.3185670127527
30
0
41
1
10
-0.19497688887526
20
17.1586060420318
30
0
41
1
10
-0.194976888875232
20
16.8308407609471
30
0
41
1
10
-0.19497688887526
20
16.2296006616932
30
0
41
1
10
-0.19497688887526
20
15.1935360543338
30
0
41
1
10
-0.194976888875288
20
13.8199155786831
30
0
41
1
10
-0.194976888875232
20
12.5327090406557
30
0
41
1
10
-0.194976888875288
20
11.124360123357
30
0
41
1
10
-0.19497688887526
20
9.54003756166779
30
0
41
1
10
-0.19497688887526
20
7.78272657852639
30
0
41
1
10
-0.19497688887526
20
6.44811514689022
30
0
41
1
10
-0.19497688887526
20
5.53313598468051
30
0
41
1
10
-0.19497688887526
20
5.10125345322442
30
0
0
SPLINE
5
162
100
AcDbEntity
8
SK1
62
256
6
ByLayer
370
13
48
1
60
0
100
AcDbSpline
70
4
71
3
72
39
73
35
40
0
40
0
40
0
40
0
40
0.0143966640519279
40
0.0429615548134848
40
0.0715264455750418
40
0.100091336336599
40
0.157221117859713
40
0.214350899382826
40
0.242915790144383
40
0.27148068090594
40
0.328610462429054
40
0.357175353190611
40
0.385740243952168
40
0.414305134713725
40
0.442870025475282
40
0.471434916236839
40
0.485717361617617
40
0.499999806998396
40
0.514282252379174
40
0.528564697759953
40
0.55712958852151
40
0.585694479283067
40
0.614259370044624
40
0.64282426080618
40
0.671389151567737
40
0.728518933090851
40
0.757083823852408
40
0.785648714613965
40
0.842778496137079
40
0.899908277660193
40
0.92847316842175
40
0.957038059183307
40
0.985602949944864
40
1
40
1
40
1
40
1
41
1
10
-1.79503997793927
20
17.3257551209886
30
0
41
1
10
-1.79503997793927
20
17.3192800100718
30
0
41
1
10
-1.79503997793927
20
17.2795195307524
30
0
41
1
10
-1.79503997793927
20
17.1188450441766
30
0
41
1
10
-1.79503997793924
20
16.7916722325963
30
0
41
1
10
-1.79503997793927
20
16.1913785074865
30
0
41
1
10
-1.79503997793924
20
15.1570319640165
30
0
41
1
10
-1.7950399779393
20
13.7856199701319
30
0
41
1
10
-1.79503997793924
20
12.500267964077
30
0
41
1
10
-1.7950399779393
20
11.0940004239178
30
0
41
1
10
-1.79503997793927
20
9.51267503388596
30
0
41
1
10
-1.79503997793927
20
7.7583923448191
30
0
41
1
10
-1.79503997793927
20
6.35944481918474
30
0
41
1
10
-1.79503997793927
20
4.87813814654271
30
0
41
1
10
-1.79503997793927
20
3.31755142876617
30
0
41
1
10
-1.7950399779393
20
1.95744888431963
30
0
41
1
10
-1.7950399779393
20
0.842183896938536
30
0
41
1
10
-1.7950399779393
20
5.01239867E-08
30
0
41
1
10
-1.79503997793927
20
-0.842183835089855
30
0
41
1
10
-1.7950399779393
20
-1.95744890560638
30
0
41
1
10
-1.7950399779393
20
-3.31755135272866
30
0
41
1
10
-1.79503997793927
20
-4.87813783770085
30
0
41
1
10
-1.7950399779393
20
-6.35944493307989
30
0
41
1
10
-1.79503997793927
20
-7.75839217523483
30
0
41
1
10
-1.79503997793927
20
-9.5126748484364
30
0
41
1
10
-1.7950399779393
20
-11.0940004136041
30
0
41
1
10
-1.79503997793927
20
-12.5002678139025
30
0
41
1
10
-1.7950399779393
20
-13.7856203428616
30
0
41
1
10
-1.79503997793927
20
-15.1570315468655
30
0
41
1
10
-1.79503997793927
20
-16.1913792747221
30
0
41
1
10
-1.79503997793924
20
-16.7916721035533
30
0
41
1
10
-1.7950399779393
20
-17.1188453667221
30
0
41
1
10
-1.79503997793924
20
-17.2795209552865
30
0
41
1
10
-1.79503997793927
20
-17.3192810351278
30
0
41
1
10
-1.7950399779393
20
-17.3257558787335
30
0
0
SPLINE
5
163
100
AcDbEntity
8
SK1
62
256
6
ByLayer
370
13
48
1
60
0
100
AcDbSpline
70
4
71
3
72
19
73
15
40
0
40
0
40
0
40
0
40
0.0596866936287814
40
0.129401785715559
40
0.199116877802336
40
0.338547061975891
40
0.408262154062668
40
0.477977246149445
40
0.617407430323
40
0.756837614496555
40
0.826552706583332
40
0.896267798670109
40
0.965982890756886
40
1
40
1
40
1
40
1
41
1
10
-0.19497688887526
20
-5.1012508689669
30
0
41
1
10
-0.19497688887526
20
-5.53313428609101
30
0
41
1
10
-0.19497688887526
20
-6.44811450197966
30
0
41
1
10
-0.19497688887526
20
-7.78272641346865
30
0
41
1
10
-0.19497688887526
20
-9.54003737468346
30
0
41
1
10
-0.194976888875288
20
-11.1243601127488
30
0
41
1
10
-0.19497688887526
20
-12.5327088879465
30
0
41
1
10
-0.194976888875288
20
-13.8199159522375
30
0
41
1
10
-0.19497688887526
20
-15.1935356351607
30
0
41
1
10
-0.19497688887526
20
-16.2296014295452
30
0
41
1
10
-0.19497688887526
20
-16.8308406320639
30
0
41
1
10
-0.194976888875288
20
-17.1586063633231
30
0
41
1
10
-0.194976888875232
20
-17.3185678367225
30
0
41
1
10
-0.194976888875232
20
-17.3585862136866
30
0
41
1
10
-0.194976888875232
20
-17.3652898688091
30
0
0
SPLINE
5
164
100
AcDbEntity
8
SK1
62
256
6
ByLayer
370
13
48
1
60
0
100
AcDbSpline
70
4
71
3
72
24
73
20
40
0
40
0
40
0
40
0
40
0.129293125150934
40
0.129293125150934
40
0.160890762412326
40
0.160890762412326
40
0.193125098710129
40
0.193125098710129
40
0.210852819122142
40
0.210852819122142
40
0.228629109348223
40
0.228629109348223
40
0.251617995959299
40
0.251617995959299
40
0.291811550492142
40
0.291811550492142
40
0.417285661637337
40
0.417285661637337
40
1
40
1
40
1
40
1
41
1
10
-0.19497688886949
20
5.1012534531948
30
0
41
1
10
-0.181437028789787
20
5.07420777560105
30
0
41
1
10
-0.166263939419537
20
5.04747373607429
30
0
41
1
10
-0.140897870623235
20
5.02184016772051
30
0
41
1
10
-0.13547381866934
20
5.01716196662699
30
0
41
1
10
-0.123549655232068
20
5.00963193359127
30
0
41
1
10
-0.116826960945218
20
5.00671644858778
30
0
41
1
10
-0.105797159779996
20
5.00555851911688
30
0
41
1
10
-0.101665537812437
20
5.00583807674943
30
0
41
1
10
-0.0936550002321042
20
5.00800667379843
30
0
41
1
10
-0.0896865034613938
20
5.00992758750448
30
0
41
1
10
-0.0813787136889346
20
5.01564999887208
30
0
41
1
10
-0.0771254542124211
20
5.01988425829637
30
0
41
1
10
-0.0668909728101994
20
5.03253319785688
30
0
41
1
10
-0.0616757119724127
20
5.04189507305259
30
0
41
1
10
-0.0435256268499984
20
5.08091090605163
30
0
41
1
10
-0.0358776288922797
20
5.11311220781056
30
0
41
1
10
-0.000812698296329
20
5.29017319543109
30
0
41
1
10
0
20
5.43661415625007
30
0
41
1
10
2.84E-14
20
5.5792323630167
30
0
0
SPLINE
5
165
100
AcDbEntity
8
SK1
62
256
6
ByLayer
370
13
48
1
60
0
100
AcDbSpline
70
4
71
3
72
28
73
24
40
0
40
0
40
0
40
0
40
0.516446141051856
40
0.516446141051856
40
0.606964722939354
40
0.606964722939354
40
0.69354873018093
40
0.69354873018093
40
0.726617429279198
40
0.726617429279198
40
0.760179667743514
40
0.760179667743514
40
0.778833531745539
40
0.778833531745539
40
0.797654854320443
40
0.797654854320443
40
0.814904576888319
40
0.814904576888319
40
0.845176041490598
40
0.845176041490598
40
0.922307781341476
40
0.922307781341476
40
1
40
1
40
1
40
1
41
1
10
2.84E-14
20
-5.57923036606795
30
0
41
1
10
2.84E-14
20
-5.45236806529766
30
0
41
1
10
-0.0023498218234579
20
-5.32313166238612
30
0
41
1
10
-0.0246707618043729
20
-5.17055408176375
30
0
41
1
10
-0.0286524877798797
20
-5.14764204467323
30
0
41
1
10
-0.0387560546028851
20
-5.10317866975285
30
0
41
1
10
-0.0446943059311025
20
-5.08137365774476
30
0
41
1
10
-0.0565046990697624
20
-5.05263962384035
30
0
41
1
10
-0.0602008880998426
20
-5.04479189761074
30
0
41
1
10
-0.0689466158998471
20
-5.02994474169333
30
0
41
1
10
-0.0741217536318004
20
-5.02277054209415
30
0
41
1
10
-0.0837193538485508
20
-5.01389488613032
30
0
41
1
10
-0.0875463815131354
20
-5.01114472817954
30
0
41
1
10
-0.0956073859925937
20
-5.00725697459066
30
0
41
1
10
-0.0999476032090456
20
-5.00610700609005
30
0
41
1
10
-0.108056444598418
20
-5.00560398939331
30
0
41
1
10
-0.11193032925118
20
-5.00608221695782
30
0
41
1
10
-0.121996996497245
20
-5.00880668081467
30
0
41
1
10
-0.127948105958183
20
-5.01208528001033
30
0
41
1
10
-0.147044934761908
20
-5.02590151619046
30
0
41
1
10
-0.158144588366326
20
-5.03988585432555
30
0
41
1
10
-0.178024754257109
20
-5.06915995887096
30
0
41
1
10
-0.186840242430264
20
-5.08499801267411
30
0
41
1
10
-0.194976888875431
20
-5.1012508689538
30
0
0
SPLINE
5
166
100
AcDbEntity
8
SK1
62
256
6
ByLayer
370
13
48
1
60
0
100
AcDbSpline
70
4
71
3
72
39
73
35
40
0
40
0
40
0
40
0
40
0.0138412315204316
40
0.0424388014551908
40
0.07103637138995
40
0.0996339413247092
40
0.156829081194228
40
0.214024221063746
40
0.242621790998505
40
0.271219360933264
40
0.328414500802783
40
0.357012070737542
40
0.385609640672301
40
0.414207210607061
40
0.44280478054182
40
0.471402350476579
40
0.485701135443959
40
0.499999920411338
40
0.514298705378718
40
0.528597490346097
40
0.557195060280857
40
0.585792630215616
40
0.614390200150375
40
0.642987770085134
40
0.671585340019894
40
0.728780479889412
40
0.757378049824171
40
0.78597561975893
40
0.843170759628449
40
0.900365899497967
40
0.928963469432727
40
0.957561039367486
40
0.986158609302245
40
1
40
1
40
1
40
1
41
1
10
-1.99999999999994
20
17.5197427596866
30
0
41
1
10
-1.99999999999994
20
17.512940088472
30
0
41
1
10
-1.99999999999997
20
17.4725596434143
30
0
41
1
10
-1.99999999999994
20
17.3116343538074
30
0
41
1
10
-1.99999999999994
20
16.981588832967
30
0
41
1
10
-1.99999999999994
20
16.3767064197524
30
0
41
1
10
-1.99999999999994
20
15.3340294930174
30
0
41
1
10
-1.99999999999997
20
13.9519092247439
30
0
41
1
10
-1.99999999999994
20
12.657565142082
30
0
41
1
10
-2
20
11.2412056202459
30
0
41
1
10
-1.99999999999997
20
9.64534783198889
30
0
41
1
10
-1.99999999999994
20
7.87638184130788
30
0
41
1
10
-1.99999999999997
20
6.46346246032283
30
0
41
1
10
-1.99999999999997
20
4.96520999967433
30
0
41
1
10
-1.99999999999994
20
3.38314408231221
30
0
41
1
10
-1.99999999999994
20
1.99851186782052
30
0
41
1
10
-1.99999999999997
20
0.861482441955161
30
0
41
1
10
-1.99999999999997
20
1.76095227E-08
30
0
41
1
10
-1.99999999999997
20
-0.861482365135828
30
0
41
1
10
-1.99999999999997
20
-1.99851187450383
30
0
41
1
10
-1.99999999999997
20
-3.3831440670979
30
0
41
1
10
-1.99999999999994
20
-4.9652096739305
30
0
41
1
10
-1.99999999999994
20
-6.46346255594892
30
0
41
1
10
-1.99999999999994
20
-7.87638169367151
30
0
41
1
10
-1.99999999999994
20
-9.64534763909768
30
0
41
1
10
-1.99999999999997
20
-11.2412056085042
30
0
41
1
10
-1.99999999999994
20
-12.6575649796178
30
0
41
1
10
-1.99999999999997
20
-13.951909601472
30
0
41
1
10
-1.99999999999994
20
-15.3340290660618
30
0
41
1
10
-1.99999999999994
20
-16.3767071899766
30
0
41
1
10
-1.99999999999994
20
-16.981588704699
30
0
41
1
10
-1.99999999999997
20
-17.311634670272
30
0
41
1
10
-1.99999999999991
20
-17.4725605621939
30
0
41
1
10
-1.99999999999994
20
-17.5129407092303
30
0
41
1
10
-1.99999999999994
20
-17.5197432402651
30
0
0
SPLINE
5
167
100
AcDbEntity
8
1
62
256
6
ByLayer
370
13
48
1
60
0
100
AcDbSpline
70
4
71
3
72
16
73
12
40
0
40
0
40
0
40
0
40
0.46120858821698
40
0.46120858821698
40
0.643534962278407
40
0.643534962278407
40
0.828408472975124
40
0.828408472975124
40
0.943003644159809
40
0.943003644159809
40
1
40
1
40
1
40
1
41
1
10
8.10566243270259
20
-8.05584836782856
30
0
41
1
10
8.13394960848481
20
-7.95080268681531
30
0
41
1
10
8.17266608070918
20
-7.84628670970895
30
0
41
1
10
8.25268397516837
20
-7.71442469145222
30
0
41
1
10
8.27872153625219
20
-7.67825379650827
30
0
41
1
10
8.33934560108344
20
-7.6129052336733
30
0
41
1
10
8.37482777731245
20
-7.58305923051512
30
0
41
1
10
8.44007741480399
20
-7.54855881865694
30
0
41
1
10
8.46752172250538
20
-7.53852018102396
30
0
41
1
10
8.50983152522983
20
-7.5309704213536
30
0
41
1
10
8.5242826069244
20
-7.52966679426575
30
0
41
1
10
8.5386751345946
20
-7.52966679426572
30
0
0
SPLINE
5
168
100
AcDbEntity
8
1
62
256
6
ByLayer
370
13
48
1
60
0
100
AcDbSpline
70
4
71
3
72
16
73
12
40
0
40
0
40
0
40
0
40
0.11143027962801
40
0.11143027962801
40
0.248747543515425
40
0.248747543515425
40
0.465535329195197
40
0.465535329195197
40
0.883855351867489
40
0.883855351867489
40
1
40
1
40
1
40
1
41
1
10
8.53867513459466
20
-23.83912997505
30
0
41
1
10
8.51081528400564
20
-23.83912997505
30
0
41
1
10
8.48260885722436
20
-23.8375361275704
30
0
41
1
10
8.42415079676061
20
-23.8311506585888
30
0
41
1
10
8.39395861076935
20
-23.8256668770177
30
0
41
1
10
8.32484624564236
20
-23.8089605749785
30
0
41
1
10
8.2892145914295
20
-23.7960379707757
30
0
41
1
10
8.20100610925394
20
-23.755682424683
30
0
41
1
10
8.16026799314912
20
-23.7250165399979
30
0
41
1
10
8.12070829847318
20
-23.684545144963
30
0
41
1
10
8.11283840142687
20
-23.6755726082075
30
0
41
1
10
8.10566243270245
20
-23.6665017920806
30
0
0
SPLINE
5
169
100
AcDbEntity
8
1
62
256
6
ByLayer
370
13
48
1
60
0
100
AcDbSpline
70
4
71
3
72
16
73
12
40
0
40
0
40
0
40
0
40
0.111430279627991
40
0.111430279627991
40
0.248747543515393
40
0.248747543515393
40
0.465535329195151
40
0.465535329195151
40
0.883855351867376
40
0.883855351867376
40
1
40
1
40
1
40
1
41
1
10
8.53867513459466
20
7.52966679426586
30
0
41
1
10
8.51081528400564
20
7.52966679426586
30
0
41
1
10
8.48260885722434
20
7.5347170678094
30
0
41
1
10
8.42415079676061
20
7.55489210221111
30
0
41
1
10
8.39395861076935
20
7.57218953888525
30
0
41
1
10
8.32484624564239
20
7.62460019394166
30
0
41
1
10
8.2892145914295
20
7.66489294253981
30
0
41
1
10
8.20100610925397
20
7.78941367630418
30
0
41
1
10
8.16026799314915
20
7.88247511004207
30
0
41
1
10
8.1207082984732
20
8.00269269538063
30
0
41
1
10
8.11283840142687
20
8.02920008991637
30
0
41
1
10
8.10566243270245
20
8.05584836782833
30
0
0
SPLINE
5
16A
100
AcDbEntity
8
1
62
256
6
ByLayer
370
13
48
1
60
0
100
AcDbSpline
70
4
71
3
72
16
73
12
40
0
40
0
40
0
40
0
40
0.461208588217028
40
0.461208588217028
40
0.643534962278495
40
0.643534962278495
40
0.82840847297525
40
0.82840847297525
40
0.943003644159983
40
0.943003644159983
40
1
40
1
40
1
40
1
41
1
10
11.8943375672973
20
8.05584836782816
30
0
41
1
10
11.866050391515
20
7.95080268681485
30
0
41
1
10
11.8273339192907
20
7.84628670970844
30
0
41
1
10
11.7473160248314
20
7.71442469145165
30
0
41
1
10
11.7212784637476
20
7.6782537965077
30
0
41
1
10
11.6606543989164
20
7.61290523367271
30
0
41
1
10
11.6251722226874
20
7.58305923051452
30
0
41
1
10
11.5599225851957
20
7.54855881865632
30
0
41
1
10
11.5324782774943
20
7.53852018102333
30
0
41
1
10
11.4901684747699
20
7.53097042135298
30
0
41
1
10
11.4757173930754
20
7.52966679426515
30
0
41
1
10
11.4613248654052
20
7.52966679426513
30
0
0
SPLINE
5
16B
100
AcDbEntity
8
1
62
256
6
ByLayer
370
13
48
1
60
0
100
AcDbSpline
70
4
71
3
72
8
73
4
40
0
40
0
40
0
40
0
40
1
40
1
40
1
40
1
41
1
10
24.1295267741841
20
33.9354210599094
30
0
41
1
10
23.8682647838247
20
33.429489024703
30
0
41
1
10
23.6047713796893
20
32.9192409283758
30
0
41
1
10
23.3467018100748
20
32.4140699606664
30
0
0
SPLINE
5
16C
100
AcDbEntity
8
1
62
256
6
ByLayer
370
13
48
1
60
0
100
AcDbSpline
70
4
71
3
72
14
73
10
40
0
40
0
40
0
40
0
40
0.264902034369359
40
0.264902034369359
40
0.529963962500198
40
0.529963962500198
40
0.793687846222576
40
0.793687846222576
40
1
40
1
40
1
40
1
41
1
10
63.4783502382595
20
31.6870986993415
30
0
41
1
10
63.4927162906118
20
31.6928547229274
30
0
41
1
10
63.5062138422082
20
31.7010423314482
30
0
41
1
10
63.529189306332
20
31.721171955514
30
0
41
1
10
63.538975929958
20
31.7333865980702
30
0
41
1
10
63.5535980273981
20
31.7600392890498
30
0
41
1
10
63.5586620174205
20
31.7748146088914
30
0
41
1
10
63.5632191018631
20
31.801777627533
30
0
41
1
10
63.5637257548335
20
31.8140531733272
30
0
41
1
10
63.5627569922297
20
31.8261762775263
30
0
0
SPLINE
5
16D
100
AcDbEntity
8
1
62
256
6
ByLayer
370
13
48
1
60
0
100
AcDbSpline
70
4
71
3
72
12
73
8
40
0
40
0
40
0
40
0
40
0.331530415553358
40
0.331530415553358
40
0.663750852717243
40
0.663750852717243
40
1
40
1
40
1
40
1
41
1
10
63.3046626851948
20
31.6169732039285
30
0
41
1
10
63.2960558900083
20
31.6134705984255
30
0
41
1
10
63.2879833301224
20
31.608605754344
30
0
41
1
10
63.2743316252594
20
31.5967951427581
30
0
41
1
10
63.2685833881732
20
31.5896857090612
30
0
41
1
10
63.2601357315736
20
31.574274543904
30
0
41
1
10
63.2573546231414
20
31.5657656403707
30
0
41
1
10
63.2560765920519
20
31.557223882998
30
0
0
SPLINE
5
16E
100
AcDbEntity
8
1
62
256
6
ByLayer
370
13
48
1
60
0
100
AcDbSpline
70
4
71
3
72
8
73
4
40
0
40
0
40
0
40
0
40
1
40
1
40
1
40
1
41
1
10
20.2792076144254
20
23.288425943212
30
0
41
1
10
20.1822711957125
20
23.1540145215919
30
0
41
1
10
20.1327270728214
20
23.0061435630089
30
0
41
1
10
20.1296790819275
20
22.851156407606
30
0
0
SPLINE
5
16F
100
AcDbEntity
8
1
62
256
6
ByLayer
370
13
48
1
60
0
100
AcDbSpline
70
4
71
3
72
10
73
6
40
0
40
0
40
0
40
0
40
0.5
40
0.5
40
1
40
1
40
1
40
1
41
1
10
20.2792076144253
20
23.288425943212
30
0
41
1
10
20.397870900636
20
23.4529637011102
30
0
41
1
10
20.5921642003617
20
23.612057940959
30
0
41
1
10
21.0519559471793
20
24.0824990171693
30
0
41
1
10
21.3302400912164
20
24.4149687278736
30
0
41
1
10
21.4383186059722
20
24.8634915650424
30
0
0
SPLINE
5
170
100
AcDbEntity
8
1
62
256
6
ByLayer
370
13
48
1
60
0
100
AcDbSpline
70
4
71
3
72
16
73
12
40
0
40
0
40
0
40
0
40
0.461208588216999
40
0.461208588216999
40
0.643534962278442
40
0.643534962278442
40
0.828408472975178
40
0.828408472975178
40
0.94300364415986
40
0.94300364415986
40
1
40
1
40
1
40
1
41
1
10
8.10566243270259
20
23.6665017920806
30
0
41
1
10
8.13394960848484
20
23.7022583261629
30
0
41
1
10
8.17266608070918
20
23.7370095736335
30
0
41
1
10
8.2526839751684
20
23.7800170858171
30
0
41
1
10
8.27872153625222
20
23.791712576879
30
0
41
1
10
8.33934560108347
20
23.8127037684947
30
0
41
1
10
8.37482777731248
20
23.8222104320951
30
0
41
1
10
8.44007741480402
20
23.8331586856489
30
0
41
1
10
8.46752172250544
20
23.8363323784727
30
0
41
1
10
8.50983152522986
20
23.8387183279983
30
0
41
1
10
8.52428260692443
20
23.8391299750501
30
0
41
1
10
8.5386751345946
20
23.8391299750501
30
0
0
SPLINE
5
171
100
AcDbEntity
8
1
62
256
6
ByLayer
370
13
48
1
60
0
100
AcDbSpline
70
4
71
3
72
8
73
4
40
0
40
0
40
0
40
0
40
1
40
1
40
1
40
1
41
1
10
23.3467018100747
20
32.4140699606664
30
0
41
1
10
22.6884649703873
20
29.8868725551331
30
0
41
1
10
22.038835499331
20
27.3556200087529
30
0
41
1
10
21.4383186059721
20
24.8634915650423
30
0
0
SPLINE
5
172
100
AcDbEntity
8
1
62
256
6
ByLayer
370
13
48
1
60
0
100
AcDbSpline
70
4
71
3
72
16
73
12
40
0
40
0
40
0
40
0
40
0.111430279628047
40
0.111430279628047
40
0.248747543515488
40
0.248747543515488
40
0.465535329195297
40
0.465535329195297
40
0.88385535186775
40
0.88385535186775
40
1
40
1
40
1
40
1
41
1
10
11.4613248654052
20
23.8391299750501
30
0
41
1
10
11.4891847159942
20
23.8391299750501
30
0
41
1
10
11.5173911427755
20
23.8375361275704
30
0
41
1
10
11.5758492032392
20
23.8311506585888
30
0
41
1
10
11.6060413892305
20
23.8256668770178
30
0
41
1
10
11.6751537543575
20
23.8089605749785
30
0
41
1
10
11.7107854085704
20
23.7960379707758
30
0
41
1
10
11.7989938907459
20
23.755682424683
30
0
41
1
10
11.8397320068508
20
23.7250165399979
30
0
41
1
10
11.8792917015267
20
23.684545144963
30
0
41
1
10
11.887161598573
20
23.6755726082075
30
0
41
1
10
11.8943375672974
20
23.6665017920806
30
0
0
SPLINE
5
173
100
AcDbEntity
8
1
62
256
6
ByLayer
370
13
48
1
60
0
100
AcDbSpline
70
4
71
3
72
8
73
4
40
0
40
0
40
0
40
0
40
1
40
1
40
1
40
1
41
1
10
23.7968352036688
20
34.6750000000004
30
0
41
1
10
23.7967588867457
20
34.6750000000004
30
0
41
1
10
23.8430427792243
20
34.6750000000004
30
0
41
1
10
23.9385920152643
20
34.6750000000004
30
0
0
SPLINE
5
174
100
AcDbEntity
8
1
62
256
6
ByLayer
370
13
48
1
60
0
100
AcDbSpline
70
4
71
3
72
14
73
10
40
0
40
0
40
0
40
0
40
0.277170373634065
40
0.277170373634065
40
0.554920563460011
40
0.554920563460011
40
0.824598006489059
40
0.824598006489059
40
1
40
1
40
1
40
1
41
1
10
63.5627569922286
20
32.1738237224737
30
0
41
1
10
63.564050749687
20
32.1900138152945
30
0
41
1
10
63.5626861108835
20
32.2065352979293
30
0
41
1
10
63.5546229790354
20
32.2375801306006
30
0
41
1
10
63.5477885197774
20
32.2525339371112
30
0
41
1
10
63.5297367921368
20
32.2782604596918
30
0
41
1
10
63.5183918497773
20
32.2894946865472
30
0
41
1
10
63.4971267692659
20
32.304161937485
30
0
41
1
10
63.4879427701417
20
32.3090578760086
30
0
41
1
10
63.4783502382605
20
32.3129013006602
30
0
0
SPLINE
5
175
100
AcDbEntity
8
1
62
256
6
ByLayer
370
13
48
1
60
0
100
AcDbSpline
70
4
71
3
72
16
73
12
40
0
40
0
40
0
40
0
40
0.461208588217069
40
0.461208588217069
40
0.643534962278549
40
0.643534962278549
40
0.828408472975304
40
0.828408472975304
40
0.943003644159995
40
0.943003644159995
40
1
40
1
40
1
40
1
41
1
10
11.8943375672973
20
-23.6665017920807
30
0
41
1
10
11.866050391515
20
-23.7022583261631
30
0
41
1
10
11.8273339192907
20
-23.7370095736337
30
0
41
1
10
11.7473160248314
20
-23.7800170858173
30
0
41
1
10
11.7212784637476
20
-23.7917125768792
30
0
41
1
10
11.6606543989163
20
-23.8127037684949
30
0
41
1
10
11.6251722226873
20
-23.8222104320953
30
0
41
1
10
11.5599225851957
20
-23.8331586856491
30
0
41
1
10
11.5324782774943
20
-23.8363323784729
30
0
41
1
10
11.4901684747699
20
-23.8387183279984
30
0
41
1
10
11.4757173930754
20
-23.8391299750503
30
0
41
1
10
11.4613248654052
20
-23.8391299750503
30
0
0
SPLINE
5
176
100
AcDbEntity
8
1
62
256
6
ByLayer
370
13
48
1
60
0
100
AcDbSpline
70
4
71
3
72
8
73
4
40
0
40
0
40
0
40
0
40
1
40
1
40
1
40
1
41
1
10
23.9385920152616
20
34.6749999999903
30
0
41
1
10
23.8735600311359
20
34.4284787306714
30
0
41
1
10
23.8085480536999
20
34.1819525239655
30
0
41
1
10
23.7435573794713
20
33.9354210599094
30
0
0
SPLINE
5
177
100
AcDbEntity
8
1
62
256
6
ByLayer
370
13
48
1
60
0
100
AcDbSpline
70
4
71
3
72
8
73
4
40
0
40
0
40
0
40
0
40
1
40
1
40
1
40
1
41
1
10
23.7435573794713
20
33.9354210599094
30
0
41
1
10
23.6088656198495
20
33.4244899595636
30
0
41
1
10
23.4765306061539
20
32.917428316267
30
0
41
1
10
23.3467018100748
20
32.4140699606664
30
0
0
SPLINE
5
178
100
AcDbEntity
8
1
62
256
6
ByLayer
370
13
48
1
60
0
100
AcDbSpline
70
4
71
3
72
16
73
12
40
0
40
0
40
0
40
0
40
0.111430279628051
40
0.111430279628051
40
0.248747543515462
40
0.248747543515462
40
0.465535329195275
40
0.465535329195275
40
0.883855351867651
40
0.883855351867651
40
1
40
1
40
1
40
1
41
1
10
11.4613248654052
20
-7.52966679426564
30
0
41
1
10
11.4891847159942
20
-7.52966679426564
30
0
41
1
10
11.5173911427755
20
-7.53471706780917
30
0
41
1
10
11.5758492032392
20
-7.55489210221089
30
0
41
1
10
11.6060413892305
20
-7.57218953888506
30
0
41
1
10
11.6751537543575
20
-7.62460019394149
30
0
41
1
10
11.7107854085704
20
-7.66489294253967
30
0
41
1
10
11.7989938907459
20
-7.78941367630412
30
0
41
1
10
11.8397320068508
20
-7.88247511004207
30
0
41
1
10
11.8792917015267
20
-8.00269269538069
30
0
41
1
10
11.887161598573
20
-8.0292000899164
30
0
41
1
10
11.8943375672974
20
-8.05584836782833
30
0
0
SPLINE
5
179
100
AcDbEntity
8
1
62
256
6
ByLayer
370
13
48
1
60
0
100
AcDbSpline
70
4
71
3
72
12
73
8
40
0
40
0
40
0
40
0
40
0.339699006054464
40
0.339699006054464
40
0.680835959728067
40
0.680835959728067
40
1
40
1
40
1
40
1
41
1
10
63.2560765920529
20
32.4427761170021
30
0
41
1
10
63.2573673895656
20
32.4341490348748
30
0
41
1
10
63.2601927872498
20
32.4255541454641
30
0
41
1
10
63.2688524888038
20
32.4098928261329
30
0
41
1
10
63.2748257031073
20
32.4026308272665
30
0
41
1
10
63.2885723249565
20
32.3910382874647
30
0
41
1
10
63.2963679709353
20
32.386402397696
30
0
41
1
10
63.3046626851948
20
32.3830267960717
30
0
0
SPLINE
5
17A
100
AcDbEntity
8
1
62
256
6
ByLayer
370
18
48
1
60
0
100
AcDbSpline
70
4
71
3
72
10
73
6
40
0
40
0
40
0
40
0
40
0.897705894104884
40
0.897705894104884
40
1
40
1
40
1
40
1
41
1
10
56.4
20
34.7000000000002
30
0
41
1
10
56.36178653615
20
34.7000000000002
30
0
41
1
10
56.3207420749075
20
34.6943343105253
30
0
41
1
10
56.2758860617243
20
34.6802877174302
30
0
41
1
10
56.2713037776589
20
34.6787579034075
30
0
41
1
10
56.2667246984264
20
34.6771335467322
30
0
0
SPLINE
5
17B
100
AcDbEntity
8
1
62
256
6
ByLayer
370
18
48
1
60
0
100
AcDbSpline
70
4
71
3
72
10
73
6
40
0
40
0
40
0
40
0
40
0.491597105971536
40
0.491597105971536
40
1
40
1
40
1
40
1
41
1
10
56.2724913678668
20
29.3209029726977
30
0
41
1
10
56.2936291819646
20
29.3138012712453
30
0
41
1
10
56.3149576710834
20
29.3085727564442
30
0
41
1
10
56.3576215142476
20
29.3016394398966
30
0
41
1
10
56.3791739726231
20
29.3000000000001
30
0
41
1
10
56.4
20
29.3000000000001
30
0
0
SPLINE
5
17C
100
AcDbEntity
8
1
62
256
6
ByLayer
370
13
48
1
60
0
100
AcDbSpline
70
4
71
2
72
6
73
3
40
0
40
0
40
0
40
1
40
1
40
1
41
0.979221647372668
10
63.5785288109065
20
32.3292212401838
30
0
41
0.98758645093137
10
63.6244260610855
20
32.3292212401838
30
0
41
1
10
63.6607948109093
20
32.3292212401838
30
0
0
SPLINE
5
17D
100
AcDbEntity
8
1
62
256
6
ByLayer
370
13
48
1
60
0
100
AcDbSpline
70
4
71
2
72
6
73
3
40
0
40
0
40
0
40
1
40
1
40
1
41
0.97992263645142
10
63.6996225871519
20
32.0000000000001
30
0
41
0.988101422224746
10
63.7476475659943
20
32.0000000000001
30
0
41
1
10
63.7860245871508
20
32.0000000000001
30
0
0
SPLINE
5
17E
100
AcDbEntity
8
1
62
256
6
ByLayer
370
13
48
1
60
0
100
AcDbSpline
70
4
71
2
72
6
73
3
40
0
40
0
40
0
40
1
40
1
40
1
41
0.979922636450843
10
63.6996225871486
20
32.1318857898188
30
0
41
0.988101422224327
10
63.747647565993
20
32.1318857898188
30
0
41
1
10
63.7860245871508
20
32.1318857898188
30
0
0
SPLINE
5
17F
100
AcDbEntity
8
1
62
256
6
ByLayer
370
13
48
1
60
0
100
AcDbSpline
70
4
71
2
72
6
73
3
40
0
40
0
40
0
40
1
40
1
40
1
41
0.979221647372668
10
63.5785288109065
20
31.6707787598165
30
0
41
0.98758645093137
10
63.6244260610855
20
31.6707787598166
30
0
41
1
10
63.6607948109093
20
31.6707787598165
30
0
0
SPLINE
5
180
100
AcDbEntity
8
1
62
256
6
ByLayer
370
13
48
1
60
0
100
AcDbSpline
70
4
71
3
72
8
73
4
40
0
40
0
40
0
40
0
40
1
40
1
40
1
40
1
41
1
10
64.8359016088517
20
33.019284108092
30
0
41
1
10
64.8282987682253
20
33.0938259968272
30
0
41
1
10
64.7954578468317
20
33.1569372121205
30
0
41
1
10
64.7485584035406
20
33.2085978495646
30
0
0
SPLINE
5
181
100
AcDbEntity
8
1
62
256
6
ByLayer
370
13
48
1
60
0
100
AcDbSpline
70
4
71
3
72
12
73
8
40
0
40
0
40
0
40
0
40
0.160969670350478
40
0.160969670350478
40
0.981933655007004
40
0.981933655007004
40
1
40
1
40
1
40
1
41
1
10
64.7485584035403
20
33.2085978495644
30
0
41
1
10
64.8024700593704
20
33.2619159441099
30
0
41
1
10
64.85758824643
20
33.3140489755674
30
0
41
1
10
65.1988536829987
20
33.6209142787544
30
0
41
1
10
65.5237749365966
20
33.8389076528689
30
0
41
1
10
65.8778861535159
20
34.0062554840137
30
0
41
1
10
65.8856025044902
20
34.0098749196086
30
0
41
1
10
65.8933288758356
20
34.0134727379302
30
0
0
SPLINE
5
182
100
AcDbEntity
8
1
62
256
6
ByLayer
370
13
48
1
60
0
100
AcDbSpline
70
4
71
3
72
10
73
6
40
0
40
0
40
0
40
0
40
0.51838227864566
40
0.51838227864566
40
1
40
1
40
1
40
1
41
1
10
65.8933288758356
20
34.0134727379301
30
0
41
1
10
66.1963426277498
20
33.9775168645502
30
0
41
1
10
66.5489274122891
20
33.9961317075905
30
0
41
1
10
67.2521911215131
20
34.00906008925
30
0
41
1
10
67.610767528871
20
34.0122271834533
30
0
41
1
10
67.9621095645939
20
34.0515638185443
30
0
0
SPLINE
5
183
100
AcDbEntity
8
1
62
256
6
ByLayer
370
13
48
1
60
0
100
AcDbSpline
70
4
71
3
72
8
73
4
40
0
40
0
40
0
40
0
40
1
40
1
40
1
40
1
41
1
10
67.9621095645939
20
34.0515638185443
30
0
41
1
10
68.0266681717127
20
34.0587918701636
30
0
41
1
10
68.0912502214358
20
34.0659183500112
30
0
41
1
10
68.155963685526
20
34.0715914032154
30
0
0
SPLINE
5
184
100
AcDbEntity
8
1
62
256
6
ByLayer
370
13
48
1
60
0
100
AcDbSpline
70
4
71
3
72
8
73
4
40
0
40
0
40
0
40
0
40
1
40
1
40
1
40
1
41
1
10
68.155963685526
20
34.0715914032154
30
0
41
1
10
68.3820343342518
20
34.0914097027943
30
0
41
1
10
68.6101060020604
20
34.1008219524121
30
0
41
1
10
68.8300209264768
20
34.1022992954736
30
0
0
SPLINE
5
185
100
AcDbEntity
8
1
62
256
6
ByLayer
370
13
48
1
60
0
100
AcDbSpline
70
4
71
3
72
8
73
4
40
0
40
0
40
0
40
0
40
1
40
1
40
1
40
1
41
1
10
68.8300209264768
20
34.1022992954736
30
0
41
1
10
68.8544812091951
20
34.1024636146031
30
0
41
1
10
68.8789484763173
20
34.1023464078043
30
0
41
1
10
68.9034132847063
20
34.1019349695432
30
0
0
SPLINE
5
186
100
AcDbEntity
8
1
62
256
6
ByLayer
370
13
48
1
60
0
100
AcDbSpline
70
4
71
3
72
10
73
6
40
0
40
0
40
0
40
0
40
0.570501669014028
40
0.570501669014028
40
1
40
1
40
1
40
1
41
1
10
68.9034132847052
20
34.1019349695477
30
0
41
1
10
69.0626475529976
20
34.0346089631925
30
0
41
1
10
69.2142113386963
20
33.9494098746301
30
0
41
1
10
69.4764810300831
20
33.7955841696806
30
0
41
1
10
69.587817795101
20
33.7268219486633
30
0
41
1
10
69.6985587777237
20
33.6571462585064
30
0
0
SPLINE
5
187
100
AcDbEntity
8
1
62
256
6
ByLayer
370
13
48
1
60
0
100
AcDbSpline
70
4
71
3
72
8
73
4
40
0
40
0
40
0
40
0
40
1
40
1
40
1
40
1
41
1
10
69.6985587777251
20
33.6571462585152
30
0
41
1
10
69.5010010686877
20
33.6643677183342
30
0
41
1
10
69.3039447417109
20
33.6715015953951
30
0
41
1
10
69.1045819300008
20
33.6797124775775
30
0
0
SPLINE
5
188
100
AcDbEntity
8
1
62
256
6
ByLayer
370
13
48
1
60
0
100
AcDbSpline
70
4
71
3
72
10
73
6
40
0
40
0
40
0
40
0
40
0.0684120488039617
40
0.0684120488039617
40
1
40
1
40
1
40
1
41
1
10
69.1045819300008
20
33.6797124775775
30
0
41
1
10
69.0912082692696
20
33.6802632801653
30
0
41
1
10
69.077798766632
20
33.6808160840655
30
0
41
1
10
68.8821298896841
20
33.6887603082083
30
0
41
1
10
68.6934664393741
20
33.6963187464797
30
0
41
1
10
68.5018995872127
20
33.7032236457291
30
0
0
SPLINE
5
189
100
AcDbEntity
8
1
62
256
6
ByLayer
370
13
48
1
60
0
100
AcDbSpline
70
4
71
3
72
10
73
6
40
0
40
0
40
0
40
0
40
0.468044400024023
40
0.468044400024023
40
1
40
1
40
1
40
1
41
1
10
68.5018995872127
20
33.7032236457291
30
0
41
1
10
68.4517560104036
20
33.7050310374671
30
0
41
1
10
68.4013033339733
20
33.7046965348586
30
0
41
1
10
68.2937177499153
20
33.6989301767411
30
0
41
1
10
68.2365975367621
20
33.6918663903992
30
0
41
1
10
68.179814138327
20
33.6834789866572
30
0
0
SPLINE
5
18A
100
AcDbEntity
8
1
62
256
6
ByLayer
370
13
48
1
60
0
100
AcDbSpline
70
4
71
3
72
12
73
8
40
0
40
0
40
0
40
0
40
0.0470115153722379
40
0.0470115153722379
40
0.465115903096302
40
0.465115903096302
40
1
40
1
40
1
40
1
41
1
10
68.179814138327
20
33.6834789866572
30
0
41
1
10
68.1761082124741
20
33.6829315890511
30
0
41
1
10
68.1724015800766
20
33.6823852278447
30
0
41
1
10
68.1357276585558
20
33.6769892599279
30
0
41
1
10
68.1027049262585
20
33.6722101266302
30
0
41
1
10
68.0274164309494
20
33.6612234153891
30
0
41
1
10
67.9851810589734
20
33.6546879018028
30
0
41
1
10
67.9428619713804
20
33.6487418797786
30
0
0
SPLINE
5
18B
100
AcDbEntity
8
1
62
256
6
ByLayer
370
13
48
1
60
0
100
AcDbSpline
70
4
71
3
72
12
73
8
40
0
40
0
40
0
40
0
40
0.590022741903274
40
0.590022741903274
40
0.970641250406561
40
0.970641250406561
40
1
40
1
40
1
40
1
41
1
10
67.9428619713804
20
33.6487418797786
30
0
41
1
10
67.7448099475356
20
33.6209146802166
30
0
41
1
10
67.5467439547592
20
33.5931283705206
30
0
41
1
10
67.2208968260383
20
33.5475409721338
30
0
41
1
10
67.093087344226
20
33.5297285174005
30
0
41
1
10
66.955454743904
20
33.5107448504
30
0
41
1
10
66.9456021400096
20
33.5093538773745
30
0
41
1
10
66.9357561156093
20
33.507916840586
30
0
0
SPLINE
5
18C
100
AcDbEntity
8
1
62
256
6
ByLayer
370
13
48
1
60
0
100
AcDbSpline
70
4
71
3
72
10
73
6
40
0
40
0
40
0
40
0
40
0.0961233254681772
40
0.0961233254681772
40
1
40
1
40
1
40
1
41
1
10
66.9357561156093
20
33.507916840586
30
0
41
1
10
66.9123664859309
20
33.5045031015022
30
0
41
1
10
66.8889831583808
20
33.5010773466581
30
0
41
1
10
66.6470954639657
20
33.4656301870604
30
0
41
1
10
66.4281259949603
20
33.4341877605832
30
0
41
1
10
66.2169946393813
20
33.4024168292502
30
0
0
SPLINE
5
18D
100
AcDbEntity
8
1
62
256
6
ByLayer
370
13
48
1
60
0
100
AcDbSpline
70
4
71
3
72
12
73
8
40
0
40
0
40
0
40
0
40
0.33359647415066
40
0.33359647415066
40
0.666225407146582
40
0.666225407146582
40
1
40
1
40
1
40
1
41
1
10
66.2169946393812
20
33.4024168292502
30
0
41
1
10
66.1029555215889
20
33.3852562849496
30
0
41
1
10
65.990857756795
20
33.3647153827386
30
0
41
1
10
65.7727874682058
20
33.3183969786731
30
0
41
1
10
65.6664519302232
20
33.2925255533264
30
0
41
1
10
65.4601968156914
20
33.2364617836524
30
0
41
1
10
65.3602732084934
20
33.2054083731608
30
0
41
1
10
65.263602185457
20
33.1744395563316
30
0
0
SPLINE
5
18E
100
AcDbEntity
8
1
62
256
6
ByLayer
370
13
48
1
60
0
100
AcDbSpline
70
4
71
3
72
8
73
4
40
0
40
0
40
0
40
0
40
1
40
1
40
1
40
1
41
1
10
65.263602185457
20
33.1744395563316
30
0
41
1
10
65.1195966594488
20
33.128307006812
30
0
41
1
10
64.9767816280718
20
33.0765121951002
30
0
41
1
10
64.8359016088488
20
33.0192841080842
30
0
0
SPLINE
5
18F
100
AcDbEntity
8
1
62
256
6
ByLayer
370
13
48
1
60
0
100
AcDbSpline
70
4
71
3
72
10
73
6
40
0
40
0
40
0
40
0
40
0.87060552001054
40
0.87060552001054
40
1
40
1
40
1
40
1
41
1
10
64.7485642137408
20
30.7913964042142
30
0
41
1
10
64.7894126106609
20
30.8363913527267
30
0
41
1
10
64.819665025519
20
30.8897758451017
30
0
41
1
10
64.8334978291681
20
30.9613457156274
30
0
41
1
10
64.8349105065332
20
30.9709295251707
30
0
41
1
10
64.8359082989303
20
30.9807131742807
30
0
0
SPLINE
5
190
100
AcDbEntity
8
1
62
256
6
ByLayer
370
13
48
1
60
0
100
AcDbSpline
70
4
71
3
72
8
73
4
40
0
40
0
40
0
40
0
40
1
40
1
40
1
40
1
41
1
10
65.263602185457
20
30.8255604436687
30
0
41
1
10
65.1195989377399
20
30.8716922633318
30
0
41
1
10
64.9767861477317
20
30.9234861649449
30
0
41
1
10
64.8359082989292
20
30.9807131742855
30
0
0
SPLINE
5
191
100
AcDbEntity
8
1
62
256
6
ByLayer
370
13
48
1
60
0
100
AcDbSpline
70
4
71
3
72
12
73
8
40
0
40
0
40
0
40
0
40
0.33359647415066
40
0.33359647415066
40
0.666225407146582
40
0.666225407146582
40
1
40
1
40
1
40
1
41
1
10
66.2169946393812
20
30.5975831707501
30
0
41
1
10
66.1029555215889
20
30.6147437150507
30
0
41
1
10
65.990857756795
20
30.6352846172617
30
0
41
1
10
65.7727874682058
20
30.6816030213272
30
0
41
1
10
65.6664519302232
20
30.7074744466739
30
0
41
1
10
65.4601968156914
20
30.7635382163479
30
0
41
1
10
65.3602732084934
20
30.7945916268395
30
0
41
1
10
65.263602185457
20
30.8255604436687
30
0
0
SPLINE
5
192
100
AcDbEntity
8
1
62
256
6
ByLayer
370
13
48
1
60
0
100
AcDbSpline
70
4
71
3
72
10
73
6
40
0
40
0
40
0
40
0
40
0.0961233254681772
40
0.0961233254681772
40
1
40
1
40
1
40
1
41
1
10
66.9357561156093
20
30.4920831594143
30
0
41
1
10
66.9123664859309
20
30.4954968984981
30
0
41
1
10
66.8889831583808
20
30.4989226533422
30
0
41
1
10
66.6470954639657
20
30.5343698129399
30
0
41
1
10
66.4281259949603
20
30.5658122394171
30
0
41
1
10
66.2169946393813
20
30.5975831707501
30
0
0
SPLINE
5
193
100
AcDbEntity
8
1
62
256
6
ByLayer
370
13
48
1
60
0
100
AcDbSpline
70
4
71
3
72
12
73
8
40
0
40
0
40
0
40
0
40
0.590022741903274
40
0.590022741903274
40
0.970641250406561
40
0.970641250406561
40
1
40
1
40
1
40
1
41
1
10
67.9428619713804
20
30.3512581202217
30
0
41
1
10
67.7448099475356
20
30.3790853197837
30
0
41
1
10
67.5467439547592
20
30.4068716294797
30
0
41
1
10
67.2208968260383
20
30.4524590278665
30
0
41
1
10
67.093087344226
20
30.4702714825998
30
0
41
1
10
66.955454743904
20
30.4892551496003
30
0
41
1
10
66.9456021400096
20
30.4906461226258
30
0
41
1
10
66.9357561156093
20
30.4920831594143
30
0
0
SPLINE
5
194
100
AcDbEntity
8
1
62
256
6
ByLayer
370
13
48
1
60
0
100
AcDbSpline
70
4
71
3
72
12
73
8
40
0
40
0
40
0
40
0
40
0.0470115153722379
40
0.0470115153722379
40
0.465115903096302
40
0.465115903096302
40
1
40
1
40
1
40
1
41
1
10
68.179814138327
20
30.3165210133431
30
0
41
1
10
68.1761082124741
20
30.3170684109492
30
0
41
1
10
68.1724015800766
20
30.3176147721556
30
0
41
1
10
68.1357276585558
20
30.3230107400724
30
0
41
1
10
68.1027049262585
20
30.3277898733701
30
0
41
1
10
68.0274164309494
20
30.3387765846111
30
0
41
1
10
67.9851810589734
20
30.3453120981975
30
0
41
1
10
67.9428619713804
20
30.3512581202217
30
0
0
SPLINE
5
195
100
AcDbEntity
8
1
62
256
6
ByLayer
370
13
48
1
60
0
100
AcDbSpline
70
4
71
3
72
10
73
6
40
0
40
0
40
0
40
0
40
0.468044400024023
40
0.468044400024023
40
1
40
1
40
1
40
1
41
1
10
68.5018995872127
20
30.2967763542712
30
0
41
1
10
68.4517560104036
20
30.2949689625332
30
0
41
1
10
68.4013033339733
20
30.2953034651417
30
0
41
1
10
68.2937177499153
20
30.3010698232592
30
0
41
1
10
68.2365975367621
20
30.308133609601
30
0
41
1
10
68.179814138327
20
30.3165210133431
30
0
0
SPLINE
5
196
100
AcDbEntity
8
1
62
256
6
ByLayer
370
13
48
1
60
0
100
AcDbSpline
70
4
71
3
72
10
73
6
40
0
40
0
40
0
40
0
40
0.0684120488039617
40
0.0684120488039617
40
1
40
1
40
1
40
1
41
1
10
69.1045819300008
20
30.3202875224228
30
0
41
1
10
69.0912082692696
20
30.319736719835
30
0
41
1
10
69.077798766632
20
30.3191839159348
30
0
41
1
10
68.8821298896841
20
30.3112396917919
30
0
41
1
10
68.6934664393741
20
30.3036812535206
30
0
41
1
10
68.5018995872127
20
30.2967763542712
30
0
0
SPLINE
5
197
100
AcDbEntity
8
1
62
256
6
ByLayer
370
13
48
1
60
0
100
AcDbSpline
70
4
71
3
72
8
73
4
40
0
40
0
40
0
40
0
40
1
40
1
40
1
40
1
41
1
10
69.6985587777251
20
30.3428537414851
30
0
41
1
10
69.5010010686877
20
30.3356322816661
30
0
41
1
10
69.3039447417109
20
30.3284984046052
30
0
41
1
10
69.1045819300008
20
30.3202875224228
30
0
0
SPLINE
5
198
100
AcDbEntity
8
1
62
256
6
ByLayer
370
13
48
1
60
0
100
AcDbSpline
70
4
71
3
72
10
73
6
40
0
40
0
40
0
40
0
40
0.570501669014028
40
0.570501669014028
40
1
40
1
40
1
40
1
41
1
10
68.9034132847052
20
29.8980650304526
30
0
41
1
10
69.0626475529976
20
29.9653910368077
30
0
41
1
10
69.2142113386963
20
30.0505901253702
30
0
41
1
10
69.4764810300831
20
30.2044158303197
30
0
41
1
10
69.587817795101
20
30.273178051337
30
0
41
1
10
69.6985587777237
20
30.3428537414939
30
0
0
SPLINE
5
199
100
AcDbEntity
8
1
62
256
6
ByLayer
370
13
48
1
60
0
100
AcDbSpline
70
4
71
3
72
8
73
4
40
0
40
0
40
0
40
0
40
1
40
1
40
1
40
1
41
1
10
68.8300209264768
20
29.8977007045267
30
0
41
1
10
68.8544812091951
20
29.8975363853972
30
0
41
1
10
68.8789484763173
20
29.897653592196
30
0
41
1
10
68.9034132847063
20
29.8980650304571
30
0
0
SPLINE
5
19A
100
AcDbEntity
8
1
62
256
6
ByLayer
370
13
48
1
60
0
100
AcDbSpline
70
4
71
3
72
8
73
4
40
0
40
0
40
0
40
0
40
1
40
1
40
1
40
1
41
1
10
68.155963685526
20
29.9284085967849
30
0
41
1
10
68.3820343342518
20
29.908590297206
30
0
41
1
10
68.6101060020604
20
29.8991780475882
30
0
41
1
10
68.8300209264768
20
29.8977007045267
30
0
0
SPLINE
5
19B
100
AcDbEntity
8
1
62
256
6
ByLayer
370
13
48
1
60
0
100
AcDbSpline
70
4
71
3
72
8
73
4
40
0
40
0
40
0
40
0
40
1
40
1
40
1
40
1
41
1
10
67.9621095645939
20
29.948436181456
30
0
41
1
10
68.0266681717127
20
29.9412081298367
30
0
41
1
10
68.0912502214358
20
29.9340816499891
30
0
41
1
10
68.155963685526
20
29.9284085967849
30
0
0
SPLINE
5
19C
100
AcDbEntity
8
1
62
256
6
ByLayer
370
13
48
1
60
0
100
AcDbSpline
70
4
71
3
72
10
73
6
40
0
40
0
40
0
40
0
40
0.51838227864566
40
0.51838227864566
40
1
40
1
40
1
40
1
41
1
10
65.8933288758356
20
29.9865272620702
30
0
41
1
10
66.1963426277498
20
30.0224831354501
30
0
41
1
10
66.5489274122891
20
30.0038682924098
30
0
41
1
10
67.2521911215131
20
29.9909399107503
30
0
41
1
10
67.610767528871
20
29.987772816547
30
0
41
1
10
67.9621095645939
20
29.948436181456
30
0
0
SPLINE
5
19D
100
AcDbEntity
8
1
62
256
6
ByLayer
370
13
48
1
60
0
100
AcDbSpline
70
4
71
3
72
12
73
8
40
0
40
0
40
0
40
0
40
0.160964815992481
40
0.160964815992481
40
0.981933550480977
40
0.981933550480977
40
1
40
1
40
1
40
1
41
1
10
64.7485642137406
20
30.7913964042144
30
0
41
1
10
64.8024740187669
20
30.7380803108571
30
0
41
1
10
64.8575902714035
20
30.6859492035802
30
0
41
1
10
65.1988536829987
20
30.3790857212458
30
0
41
1
10
65.5237749365966
20
30.1610923471313
30
0
41
1
10
65.8778861535159
20
29.9937445159866
30
0
41
1
10
65.8856025044902
20
29.9901250803917
30
0
41
1
10
65.8933288758356
20
29.9865272620701
30
0
0
SPLINE
5
19E
100
AcDbEntity
8
1
62
256
6
ByLayer
370
13
48
1
60
0
100
AcDbSpline
70
4
71
3
72
14
73
10
40
0
40
0
40
0
40
0
40
0.46187092196456
40
0.46187092196456
40
0.784900183824898
40
0.784900183824898
40
0.964711008576954
40
0.964711008576954
40
1
40
1
40
1
40
1
41
1
10
65.1539525182229
20
32.5698183282757
30
0
41
1
10
65.2284643702333
20
32.501193444605
30
0
41
1
10
65.3025028669999
20
32.4276846008187
30
0
41
1
10
65.4134603247844
20
32.28660914063
30
0
41
1
10
65.4559337259585
20
32.2226318332573
30
0
41
1
10
65.4988972131727
20
32.111770629018
30
0
41
1
10
65.5095547742977
20
32.068902615782
30
0
41
1
10
65.5130464995453
20
32.0171816195867
30
0
41
1
10
65.5133357765146
20
32.0085627204848
30
0
41
1
10
65.513334681324
20
31.9999498076336
30
0
0
SPLINE
5
19F
100
AcDbEntity
8
1
62
256
6
ByLayer
370
13
48
1
60
0
100
AcDbSpline
70
4
71
3
72
12
73
8
40
0
40
0
40
0
40
0
40
0.17060963201422
40
0.17060963201422
40
0.423062344273913
40
0.423062344273913
40
1
40
1
40
1
40
1
41
1
10
65.513334681324
20
31.9999498076336
30
0
41
1
10
65.5133294570519
20
31.9588645399093
30
0
41
1
10
65.5062569401512
20
31.9173547400105
30
0
41
1
10
65.4760172652894
20
31.8212002217715
30
0
41
1
10
65.4470853575982
20
31.7678634345823
30
0
41
1
10
65.3402394690949
20
31.6086184335691
30
0
41
1
10
65.2467586441423
20
31.5156510561266
30
0
41
1
10
65.1539521270622
20
31.4301764849308
30
0
0
SPLINE
5
1A0
100
AcDbEntity
8
1
62
256
6
ByLayer
370
13
48
1
60
0
100
AcDbSpline
70
4
71
3
72
8
73
4
40
0
40
0
40
0
40
0
40
1
40
1
40
1
40
1
41
1
10
65.1539521270622
20
31.4301764849308
30
0
41
1
10
65.0746745585377
20
31.3571620416754
30
0
41
1
10
64.9894091098929
20
31.2930046415005
30
0
41
1
10
64.9018459660846
20
31.2347605165041
30
0
0
SPLINE
5
1A1
100
AcDbEntity
8
1
62
256
6
ByLayer
370
13
48
1
60
0
100
AcDbSpline
70
4
71
3
72
12
73
8
40
0
40
0
40
0
40
0
40
0.0772090170260868
40
0.0772090170260868
40
0.585567424894413
40
0.585567424894413
40
1
40
1
40
1
40
1
41
1
10
64.9018459660846
20
31.2347605165041
30
0
41
1
10
64.8945755693701
20
31.229924487593
30
0
41
1
10
64.8874255779208
20
31.225002058725
30
0
41
1
10
64.8347459273612
20
31.1874015703644
30
0
41
1
10
64.7940407199349
20
31.1505165756724
30
0
41
1
10
64.7409378784398
20
31.0802580005641
30
0
41
1
10
64.7242339685166
20
31.0465169221018
30
0
41
1
10
64.7195835665847
20
31.0148335047656
30
0
0
SPLINE
5
1A2
100
AcDbEntity
8
1
62
256
6
ByLayer
370
13
48
1
60
0
100
AcDbSpline
70
4
71
3
72
10
73
6
40
0
40
0
40
0
40
0
40
0.126368939291459
40
0.126368939291459
40
1
40
1
40
1
40
1
41
1
10
64.7195835665847
20
31.0148335047656
30
0
41
1
10
64.7183540355183
20
31.0064566490733
30
0
41
1
10
64.7167001220843
20
30.9982672363608
30
0
41
1
10
64.700701157323
20
30.9360615621436
30
0
41
1
10
64.6675240870034
20
30.8907050806748
30
0
41
1
10
64.6253542688251
20
30.853312248384
30
0
0
SPLINE
5
1A3
100
AcDbEntity
8
1
62
256
6
ByLayer
370
13
48
1
60
0
100
AcDbSpline
70
4
71
3
72
14
73
10
40
0
40
0
40
0
40
0
40
0.0736066511965389
40
0.0736066511965389
40
0.279115482337526
40
0.279115482337526
40
0.530737523610818
40
0.530737523610818
40
1
40
1
40
1
40
1
41
1
10
64.6253542688251
20
30.853312248384
30
0
41
1
10
64.6241314602749
20
30.852227959264
30
0
41
1
10
64.622733124495
20
30.8511770002308
30
0
41
1
10
64.6169331770584
20
30.8473917508842
30
0
41
1
10
64.6115012509993
20
30.8449107191023
30
0
41
1
10
64.5982727839649
20
30.8401777076879
30
0
41
1
10
64.590061258031
20
30.8380257541491
30
0
41
1
10
64.5658772529573
20
30.8330125363833
30
0
41
1
10
64.5488164279867
20
30.83097682345
30
0
41
1
10
64.5319424296532
20
30.8298928948554
30
0
0
SPLINE
5
1A4
100
AcDbEntity
8
1
62
256
6
ByLayer
370
13
48
1
60
0
100
AcDbSpline
70
4
71
3
72
10
73
6
40
0
40
0
40
0
40
0
40
0.676946846913182
40
0.676946846913182
40
1
40
1
40
1
40
1
41
1
10
64.5319424296532
20
30.8298928948554
30
0
41
1
10
64.3989356554877
20
30.8213489894375
30
0
41
1
10
64.2658374813154
20
30.8139718497656
30
0
41
1
10
64.0691629176147
20
30.80448165687
30
0
41
1
10
64.0056133979924
20
30.8016488319759
30
0
41
1
10
63.9420536790831
20
30.7990600376302
30
0
0
SPLINE
5
1A5
100
AcDbEntity
8
1
62
256
6
ByLayer
370
13
48
1
60
0
100
AcDbSpline
70
4
71
3
72
10
73
6
40
0
40
0
40
0
40
0
40
0.626416619436475
40
0.626416619436475
40
1
40
1
40
1
40
1
41
1
10
63.9420536790831
20
30.7990600376302
30
0
41
1
10
63.9108545968729
20
30.8035853897359
30
0
41
1
10
63.8797114053825
20
30.808515895837
30
0
41
1
10
63.8301117971857
20
30.8170552637093
30
0
41
1
10
63.811606640427
20
30.8203949743782
30
0
41
1
10
63.7931300887782
20
30.8238862944195
30
0
0
SPLINE
5
1A6
100
AcDbEntity
8
1
62
256
6
ByLayer
370
13
48
1
60
0
100
AcDbSpline
70
4
71
3
72
12
73
8
40
0
40
0
40
0
40
0
40
0.0703164649150449
40
0.0703164649150449
40
0.581360051712833
40
0.581360051712833
40
1
40
1
40
1
40
1
41
1
10
63.7931300887782
20
30.8238862944195
30
0
41
1
10
63.7896064746126
20
30.8351066385267
30
0
41
1
10
63.7863722461776
20
30.8467523505161
30
0
41
1
10
63.7624315604254
20
30.944849337586
30
0
41
1
10
63.7566474511082
20
31.0534900236969
30
0
41
1
10
63.7728792592852
20
31.2713326404943
30
0
41
1
10
63.7901985409609
20
31.3791976861297
30
0
41
1
10
63.815820588827
20
31.4898556677551
30
0
0
SPLINE
5
1A7
100
AcDbEntity
8
1
62
256
6
ByLayer
370
13
48
1
60
0
100
AcDbSpline
70
4
71
3
72
12
73
8
40
0
40
0
40
0
40
0
40
0.435431113819515
40
0.435431113819515
40
0.717532805798725
40
0.717532805798725
40
1
40
1
40
1
40
1
41
1
10
63.815820588827
20
31.4898556677551
30
0
41
1
10
63.8381724659014
20
31.498738753731
30
0
41
1
10
63.8606950871877
20
31.5073243479776
30
0
41
1
10
63.8980537535315
20
31.5209824452812
30
0
41
1
10
63.9128059409223
20
31.5262282268852
30
0
41
1
10
63.9424455510013
20
31.5364784267618
30
0
41
1
10
63.9573344578466
20
31.5414829855152
30
0
41
1
10
63.9722773697903
20
31.5463639927132
30
0
0
SPLINE
5
1A8
100
AcDbEntity
8
1
62
256
6
ByLayer
370
13
48
1
60
0
100
AcDbSpline
70
4
71
3
72
8
73
4
40
0
40
0
40
0
40
0
40
1
40
1
40
1
40
1
41
1
10
63.9722773697903
20
31.5463639927132
30
0
41
1
10
63.9753874653814
20
31.547379885668
30
0
41
1
10
63.9784978788126
20
31.5483955831416
30
0
41
1
10
63.9816086093232
20
31.5494110839749
30
0
0
SPLINE
5
1A9
100
AcDbEntity
8
1
62
256
6
ByLayer
370
13
48
1
60
0
100
AcDbSpline
70
4
71
3
72
14
73
10
40
0
40
0
40
0
40
0
40
0.187918734288723
40
0.187918734288723
40
0.467635128165853
40
0.467635128165853
40
0.738040419848296
40
0.738040419848296
40
1
40
1
40
1
40
1
41
1
10
63.9816086093235
20
31.5494110839742
30
0
41
1
10
64.0085357651895
20
31.5582014787468
30
0
41
1
10
64.0345832940145
20
31.5696873905897
30
0
41
1
10
64.0946317773617
20
31.6045102949147
30
0
41
1
10
64.1272539304645
20
31.6314774943647
30
0
41
1
10
64.1791059845184
20
31.6937636097774
30
0
41
1
10
64.1994773814668
20
31.7297257055679
30
0
41
1
10
64.2248145615187
20
31.8051914521396
30
0
41
1
10
64.2306163965803
20
31.8457561827456
30
0
41
1
10
64.2289770049337
20
31.8855885083621
30
0
0
SPLINE
5
1AA
100
AcDbEntity
8
1
62
256
6
ByLayer
370
13
48
1
60
0
100
AcDbSpline
70
4
71
3
72
8
73
4
40
0
40
0
40
0
40
0
40
1
40
1
40
1
40
1
41
1
10
64.2289770049337
20
31.8855885083621
30
0
41
1
10
64.2258512531475
20
31.9615349505646
30
0
41
1
10
64.2258513005742
20
32.0384643350027
30
0
41
1
10
64.2289771490554
20
32.1144107504155
30
0
0
SPLINE
5
1AB
100
AcDbEntity
8
1
62
256
6
ByLayer
370
13
48
1
60
0
100
AcDbSpline
70
4
71
3
72
14
73
10
40
0
40
0
40
0
40
0
40
0.201099563909462
40
0.201099563909462
40
0.458157239793543
40
0.458157239793543
40
0.723216631469491
40
0.723216631469491
40
1
40
1
40
1
40
1
41
1
10
64.2289771490565
20
32.1144107504157
30
0
41
1
10
64.2302439992733
20
32.145190467797
30
0
41
1
10
64.2271309592397
20
32.1763296472641
30
0
41
1
10
64.2107139234838
20
32.2434022677257
30
0
41
1
10
64.1945509040753
20
32.2793691990906
30
0
41
1
10
64.1512433327387
20
32.3432183890057
30
0
41
1
10
64.1231783841498
20
32.3718047978743
30
0
41
1
10
64.0586223460755
20
32.4189815676763
30
0
41
1
10
64.0209820083778
20
32.4377349421422
30
0
41
1
10
63.981608910529
20
32.4505883430229
30
0
0
SPLINE
5
1AC
100
AcDbEntity
8
1
62
256
6
ByLayer
370
13
48
1
60
0
100
AcDbSpline
70
4
71
3
72
8
73
4
40
0
40
0
40
0
40
0
40
1
40
1
40
1
40
1
41
1
10
63.981608910529
20
32.4505883430229
30
0
41
1
10
63.978498176657
20
32.4516038462897
30
0
41
1
10
63.9753877598482
20
32.4526195461998
30
0
41
1
10
63.9722776608638
20
32.4536354415967
30
0
0
SPLINE
5
1AD
100
AcDbEntity
8
1
62
256
6
ByLayer
370
13
48
1
60
0
100
AcDbSpline
70
4
71
3
72
12
73
8
40
0
40
0
40
0
40
0
40
0.436615517044599
40
0.436615517044599
40
0.718508457790393
40
0.718508457790393
40
1
40
1
40
1
40
1
41
1
10
63.9722776608641
20
32.4536354415974
30
0
41
1
10
63.9491815355813
20
32.4611796540097
30
0
41
1
10
63.9262134736132
20
32.4690193582233
30
0
41
1
10
63.8886602659708
20
32.4824089196426
30
0
41
1
10
63.8739867464327
20
32.4877864612045
30
0
41
1
10
63.844793106068
20
32.4987823583284
30
0
41
1
10
63.8302713793995
20
32.5044008948329
30
0
41
1
10
63.8158206723641
20
32.5101439011527
30
0
0
SPLINE
5
1AE
100
AcDbEntity
8
1
62
256
6
ByLayer
370
13
48
1
60
0
100
AcDbSpline
70
4
71
3
72
12
73
8
40
0
40
0
40
0
40
0
40
0.418641045368793
40
0.418641045368793
40
0.929686279124088
40
0.929686279124088
40
1
40
1
40
1
40
1
41
1
10
63.8158206723641
20
32.5101439011527
30
0
41
1
10
63.7901986248806
20
32.6208018456406
30
0
41
1
10
63.7728793261308
20
32.7286668409611
30
0
41
1
10
63.7566475126931
20
32.9465093692669
30
0
41
1
10
63.7624316672437
20
33.0551500006544
30
0
41
1
10
63.7863724067102
20
33.1532462330718
30
0
41
1
10
63.7896065104013
20
33.1648914383279
30
0
41
1
10
63.7931299777107
20
33.1761113091788
30
0
0
SPLINE
5
1AF
100
AcDbEntity
8
1
62
256
6
ByLayer
370
13
48
1
60
0
100
AcDbSpline
70
4
71
3
72
10
73
6
40
0
40
0
40
0
40
0
40
0.37358636951691
40
0.37358636951691
40
1
40
1
40
1
40
1
41
1
10
63.7931299777107
20
33.1761113091788
30
0
41
1
10
63.8116065612642
20
33.1796024963315
30
0
41
1
10
63.8301117484371
20
33.182942076876
30
0
41
1
10
63.8797110376986
20
33.1914810360323
30
0
41
1
10
63.910853875297
20
33.1964112795079
30
0
41
1
10
63.9420525990654
20
33.2009363880622
30
0
0
SPLINE
5
1B0
100
AcDbEntity
8
1
62
256
6
ByLayer
370
13
48
1
60
0
100
AcDbSpline
70
4
71
3
72
10
73
6
40
0
40
0
40
0
40
0
40
0.676948473610577
40
0.676948473610577
40
1
40
1
40
1
40
1
41
1
10
63.9420525990654
20
33.2009363880622
30
0
41
1
10
64.075235998862
20
33.1955109713983
30
0
41
1
10
64.2083774130497
20
33.1890243109294
30
0
41
1
10
64.4049646362058
20
33.1779661590782
30
0
41
1
10
64.4684621823958
20
33.174178934946
30
0
41
1
10
64.5319363732116
20
33.1701014781683
30
0
0
SPLINE
5
1B1
100
AcDbEntity
8
1
62
256
6
ByLayer
370
13
48
1
60
0
100
AcDbSpline
70
4
71
3
72
14
73
10
40
0
40
0
40
0
40
0
40
0.205642447172662
40
0.205642447172662
40
0.552024857255131
40
0.552024857255131
40
0.779314767021146
40
0.779314767021146
40
1
40
1
40
1
40
1
41
1
10
64.5319363732119
20
33.1701014781712
30
0
41
1
10
64.5394040291651
20
33.1696217706873
30
0
41
1
10
64.5468649213433
20
33.1689547199292
30
0
41
1
10
64.5665362510632
20
33.1666303620123
30
0
41
1
10
64.578758452361
20
33.1645933060547
30
0
41
1
10
64.5973818324614
20
33.1599992794962
30
0
41
1
10
64.604452184691
20
33.1578225483761
30
0
41
1
10
64.6165409219454
20
33.1527917254178
30
0
41
1
10
64.621743211803
20
33.1498785216456
30
0
41
1
10
64.6253481221195
20
33.1466819551307
30
0
0
SPLINE
5
1B2
100
AcDbEntity
8
1
62
256
6
ByLayer
370
13
48
1
60
0
100
AcDbSpline
70
4
71
3
72
10
73
6
40
0
40
0
40
0
40
0
40
0.800695265608032
40
0.800695265608032
40
1
40
1
40
1
40
1
41
1
10
64.6253481221195
20
33.1466819551307
30
0
41
1
10
64.6640260045436
20
33.1123852839328
30
0
41
1
10
64.6951335289496
20
33.0715428989226
30
0
41
1
10
64.7146627565243
20
33.011024778575
30
0
41
1
10
64.7176449242415
20
32.9983231238085
30
0
41
1
10
64.7195766360304
20
32.9851632383288
30
0
0
SPLINE
5
1B3
100
AcDbEntity
8
1
62
256
6
ByLayer
370
13
48
1
60
0
100
AcDbSpline
70
4
71
3
72
12
73
8
40
0
40
0
40
0
40
0
40
0.366233000367022
40
0.366233000367022
40
0.431397556128611
40
0.431397556128611
40
1
40
1
40
1
40
1
41
1
10
64.7195766360302
20
32.9851632383287
30
0
41
1
10
64.7237001095776
20
32.9570718636252
30
0
41
1
10
64.7372602127444
20
32.9273673403369
30
0
41
1
10
64.7603497416968
20
32.8940787035574
30
0
41
1
10
64.7640823290741
20
32.8890173888097
30
0
41
1
10
64.8015757775001
20
32.840934064135
30
0
41
1
10
64.8490186945115
20
32.8003722842723
30
0
41
1
10
64.9018406925719
20
32.7652371544727
30
0
0
SPLINE
5
1B4
100
AcDbEntity
8
1
62
256
6
ByLayer
370
13
48
1
60
0
100
AcDbSpline
70
4
71
3
72
8
73
4
40
0
40
0
40
0
40
0
40
1
40
1
40
1
40
1
41
1
10
64.9018406925719
20
32.7652371544727
30
0
41
1
10
64.9894057943154
20
32.7069922692234
30
0
41
1
10
65.0746732080689
20
32.6428340068558
30
0
41
1
10
65.1539525182229
20
32.5698183282757
30
0
0
SPLINE
5
1B5
100
AcDbEntity
8
1
62
256
6
ByLayer
370
13
48
1
60
0
100
AcDbSpline
70
4
71
3
72
8
73
4
40
0
40
0
40
0
40
0
40
1
40
1
40
1
40
1
41
1
10
63.9466009007632
20
30.6252778538502
30
0
41
1
10
64.1448711151021
20
30.63046583456
30
0
41
1
10
64.3430909311785
20
30.6381341997722
30
0
41
1
10
64.5411735286767
20
30.6481978773423
30
0
0
SPLINE
5
1B6
100
AcDbEntity
8
1
62
256
6
ByLayer
370
13
48
1
60
0
100
AcDbSpline
70
4
71
3
72
12
73
8
40
0
40
0
40
0
40
0
40
0.0174209929473798
40
0.0174209929473798
40
0.813177174176632
40
0.813177174176632
40
1
40
1
40
1
40
1
41
1
10
65.7896279194018
20
29.766444961723
30
0
41
1
10
65.7815141353121
20
29.7702681095593
30
0
41
1
10
65.7734107189215
20
29.7741133422432
30
0
41
1
10
65.39929607032
20
29.9529173010805
30
0
41
1
10
65.0556304233214
20
30.1828471196886
30
0
41
1
10
64.6796159575702
20
30.5149969823015
30
0
41
1
10
64.6094990867718
20
30.5807201558167
30
0
41
1
10
64.5411735286767
20
30.6481978773434
30
0
0
SPLINE
5
1B7
100
AcDbEntity
8
1
62
256
6
ByLayer
370
13
48
1
60
0
100
AcDbSpline
70
4
71
3
72
8
73
4
40
0
40
0
40
0
40
0
40
1
40
1
40
1
40
1
41
1
10
65.8152478209054
20
29.268478471463
30
0
41
1
10
65.8066327245048
20
29.4344634191788
30
0
41
1
10
65.7980936487729
20
29.600452328826
30
0
41
1
10
65.7896279194009
20
29.7664449617361
30
0
0
SPLINE
5
1B8
100
AcDbEntity
8
1
62
256
6
ByLayer
370
13
48
1
60
0
100
AcDbSpline
70
4
71
3
72
8
73
4
40
0
40
0
40
0
40
0
40
1
40
1
40
1
40
1
41
1
10
65.8152478209045
20
34.7315215285203
30
0
41
1
10
65.8066327245043
20
34.5655365808101
30
0
41
1
10
65.7980936487727
20
34.3995476711686
30
0
41
1
10
65.7896279194009
20
34.2335550382642
30
0
0
SPLINE
5
1B9
100
AcDbEntity
8
1
62
256
6
ByLayer
370
13
48
1
60
0
100
AcDbSpline
70
4
71
3
72
12
73
8
40
0
40
0
40
0
40
0
40
0.0174209007758012
40
0.0174209007758012
40
0.813172871791341
40
0.813172871791341
40
1
40
1
40
1
40
1
41
1
10
65.7896279194018
20
34.2335550382773
30
0
41
1
10
65.7815141353121
20
34.229731890441
30
0
41
1
10
65.7734107189215
20
34.2258866577571
30
0
41
1
10
65.39929607032
20
34.0470826989198
30
0
41
1
10
65.0556304233214
20
33.8171528803117
30
0
41
1
10
64.6796139209143
20
33.4850012186324
30
0
41
1
10
64.6094951180445
20
33.4192761238874
30
0
41
1
10
64.5411677260425
20
33.3517963920178
30
0
0
SPLINE
5
1BA
100
AcDbEntity
8
1
62
256
6
ByLayer
370
13
48
1
60
0
100
AcDbSpline
70
4
71
3
72
8
73
4
40
0
40
0
40
0
40
0
40
1
40
1
40
1
40
1
41
1
10
64.5411677260425
20
33.3517963920178
30
0
41
1
10
64.3430870468135
20
33.3618602545674
30
0
41
1
10
64.1448691770379
20
33.3695293033578
30
0
41
1
10
63.9466009007631
20
33.374718468631
30
0
0
SPLINE
5
1BB
100
AcDbEntity
8
1
62
256
6
ByLayer
370
13
48
1
60
0
100
AcDbSpline
70
4
71
3
72
14
73
10
40
0
40
0
40
0
40
0
40
0.25556417273693
40
0.25556417273693
40
0.49418353017144
40
0.49418353017144
40
0.820252528573789
40
0.820252528573789
40
1
40
1
40
1
40
1
41
1
10
64.7485584035404
20
33.2085978495645
30
0
41
1
10
64.7387064271179
20
33.2188548563404
30
0
41
1
10
64.7260113454074
20
33.2302355600717
30
0
41
1
10
64.6973555070671
20
33.2532773412435
30
0
41
1
10
64.6814538668373
20
33.2650431883815
30
0
41
1
10
64.6408961225525
20
33.293042641881
30
0
41
1
10
64.6146113396222
20
33.3097231511646
30
0
41
1
10
64.5723358178908
20
33.3345813906116
30
0
41
1
10
64.5567988692586
20
33.3433442465118
30
0
41
1
10
64.5411677260426
20
33.3517963920181
30
0
0
SPLINE
5
1BC
100
AcDbEntity
8
1
62
256
6
ByLayer
370
13
48
1
60
0
100
AcDbSpline
70
4
71
3
72
8
73
4
40
0
40
0
40
0
40
0
40
1
40
1
40
1
40
1
41
1
10
65.9590474001655
20
29.7750854625183
30
0
41
1
10
65.9682355999365
20
29.5795039691162
30
0
41
1
10
65.9775176399607
20
29.3839268596348
30
0
41
1
10
65.9868975798566
20
29.1883544680769
30
0
0
SPLINE
5
1BD
100
AcDbEntity
8
1
62
256
6
ByLayer
370
13
48
1
60
0
100
AcDbSpline
70
4
71
3
72
10
73
6
40
0
40
0
40
0
40
0
40
0.480374533063216
40
0.480374533063216
40
1
40
1
40
1
40
1
41
1
10
67.9364283337291
20
29.7301941521523
30
0
41
1
10
67.6034888340515
20
29.7720097890806
30
0
41
1
10
67.262711540784
20
29.7716253226548
30
0
41
1
10
66.5934202711034
20
29.780178080186
30
0
41
1
10
66.2570174116718
20
29.8006215517148
30
0
41
1
10
65.9590474001662
20
29.7750854625053
30
0
0
SPLINE
5
1BE
100
AcDbEntity
8
1
62
256
6
ByLayer
370
13
48
1
60
0
100
AcDbSpline
70
4
71
3
72
16
73
12
40
0
40
0
40
0
40
0
40
0.350242859033379
40
0.350242859033379
40
0.423372547456697
40
0.423372547456697
40
0.679771193971581
40
0.679771193971581
40
0.911749531478506
40
0.911749531478506
40
1
40
1
40
1
40
1
41
1
10
64.5411735286767
20
30.6481978773434
30
0
41
1
10
64.5713229274517
20
30.664500396744
30
0
41
1
10
64.6013275156643
20
30.6820938439255
30
0
41
1
10
64.6345261613993
20
30.7032361513637
30
0
41
1
10
64.6402297633722
20
30.706934854935
30
0
41
1
10
64.6652448409325
20
30.7234616378641
30
0
41
1
10
64.6834263988366
20
30.736327215023
30
0
41
1
10
64.7138395780513
20
30.7596598096361
30
0
41
1
10
64.7266833134205
20
30.7704018963211
30
0
41
1
10
64.7413736271357
20
30.7841291142748
30
0
41
1
10
64.7451349886705
20
30.7878262000536
30
0
41
1
10
64.748564213741
20
30.7913964042141
30
0
0
SPLINE
5
1BF
100
AcDbEntity
8
1
62
256
6
ByLayer
370
13
48
1
60
0
100
AcDbSpline
70
4
71
3
72
8
73
4
40
0
40
0
40
0
40
0
40
1
40
1
40
1
40
1
41
1
10
65.9590474001655
20
34.224914537482
30
0
41
1
10
65.9682355999365
20
34.4204960308841
30
0
41
1
10
65.9775176399607
20
34.6160731403654
30
0
41
1
10
65.9868975798566
20
34.8116455319233
30
0
0
SPLINE
5
1C0
100
AcDbEntity
8
1
62
256
6
ByLayer
370
13
48
1
60
0
100
AcDbSpline
70
4
71
3
72
10
73
6
40
0
40
0
40
0
40
0
40
0.480374533063216
40
0.480374533063216
40
1
40
1
40
1
40
1
41
1
10
67.9364283337291
20
34.269805847848
30
0
41
1
10
67.6034888340515
20
34.2279902109198
30
0
41
1
10
67.262711540784
20
34.2283746773455
30
0
41
1
10
66.5934202711034
20
34.2198219198143
30
0
41
1
10
66.2570174116718
20
34.1993784482855
30
0
41
1
10
65.9590474001662
20
34.224914537495
30
0
0
SPLINE
5
1C1
100
AcDbEntity
8
1
62
256
6
ByLayer
370
18
48
1
60
0
100
AcDbSpline
70
4
71
3
72
13
73
9
40
0
40
0
40
0
40
0
40
0.0067464047575092
40
0.0260436647100647
40
0.0356922946863425
40
0.334799823950953
40
0.643555983191842
40
1
40
1
40
1
40
1
41
1
10
62.758022889152
20
29.3000000000002
30
0
41
1
10
62.7586539641904
20
29.3000000000002
30
0
41
1
10
62.7610775729482
20
29.3000000000002
30
0
41
1
10
62.7643664118636
20
29.3000000000002
30
0
41
1
10
62.7949584990024
20
29.3000000000002
30
0
41
1
10
62.8525325928789
20
29.3000000000002
30
0
41
1
10
62.9424403417796
20
29.3000000000002
30
0
41
1
10
63.004460638997
20
29.3000000000002
30
0
41
1
10
63.0376938891778
20
29.3000000000002
30
0
0
SPLINE
5
1C2
100
AcDbEntity
8
1
62
256
6
ByLayer
370
13
48
1
60
0
100
AcDbSpline
70
4
71
3
72
8
73
4
40
0
40
0
40
0
40
0
40
1
40
1
40
1
40
1
41
1
10
63.0341585894645
20
29.4415206906217
30
0
41
1
10
63.0353438534347
20
29.4415206906217
30
0
41
1
10
63.0365335048264
20
29.441303092449
30
0
41
1
10
63.0377029396165
20
29.4408462687483
30
0
0
SPLINE
5
1C3
100
AcDbEntity
8
1
62
256
6
ByLayer
370
13
48
1
60
0
100
AcDbSpline
70
4
71
3
72
10
73
6
40
0
40
0
40
0
40
0
40
0.299090051335108
40
0.299090051335108
40
1
40
1
40
1
40
1
41
1
10
62.7631507503689
20
29.4418919659223
30
0
41
1
10
62.7904739699091
20
29.4429151391285
30
0
41
1
10
62.8171001671809
20
29.4415205509908
30
0
41
1
10
62.9074727640397
20
29.4415209783032
30
0
41
1
10
62.9708156312272
20
29.4415206906217
30
0
41
1
10
63.0341585894645
20
29.4415206906217
30
0
0
SPLINE
5
1C4
100
AcDbEntity
8
1
62
256
6
ByLayer
370
13
48
1
60
0
100
AcDbSpline
70
4
71
3
72
14
73
10
40
0
40
0
40
0
40
0
40
0.0136716899694114
40
0.0136716899694114
40
0.637192393526176
40
0.637192393526176
40
0.700909948663811
40
0.700909948663811
40
1
40
1
40
1
40
1
41
1
10
63.0341585894645
20
34.5584793093786
30
0
41
1
10
63.0329230451718
20
34.5584793093786
30
0
41
1
10
63.0316875008791
20
34.5584793093786
30
0
41
1
10
62.974102855021
20
34.5584793093786
30
0
41
1
10
62.9177537534556
20
34.5584793093786
30
0
41
1
10
62.855646339511
20
34.5584793093786
30
0
41
1
10
62.8498880320063
20
34.5584792939773
30
0
41
1
10
62.8171001671808
20
34.5584794490095
30
0
41
1
10
62.7904739699089
20
34.5570848608718
30
0
41
1
10
62.7631507503686
20
34.5581080340779
30
0
0
SPLINE
5
1C5
100
AcDbEntity
8
1
62
256
6
ByLayer
370
13
48
1
60
0
100
AcDbSpline
70
4
71
3
72
8
73
4
40
0
40
0
40
0
40
0
40
1
40
1
40
1
40
1
41
1
10
63.0377029396166
20
34.5591537312522
30
0
41
1
10
63.0365335048265
20
34.5586969075515
30
0
41
1
10
63.0353438534347
20
34.5584793093786
30
0
41
1
10
63.0341585894645
20
34.5584793093786
30
0
0
SPLINE
5
1C6
100
AcDbEntity
8
1
62
256
6
ByLayer
370
13
48
1
60
0
100
AcDbSpline
70
4
71
3
72
10
73
6
40
0
40
0
40
0
40
0
40
0.373709297613223
40
0.373709297613223
40
1
40
1
40
1
40
1
41
1
10
63.7261629787254
20
30.6563868856656
30
0
41
1
10
63.745018825356
20
30.6520711490815
30
0
41
1
10
63.7639090232256
20
30.6479221280898
30
0
41
1
10
63.8145363046549
20
30.6372600930132
30
0
41
1
10
63.8463321288579
20
30.6310437095019
30
0
41
1
10
63.878196872098
20
30.6252778538502
30
0
0
SPLINE
5
1C7
100
AcDbEntity
8
1
62
256
6
ByLayer
370
13
48
1
60
0
100
AcDbSpline
70
4
71
3
72
10
73
6
40
0
40
0
40
0
40
0
40
0.626287703218406
40
0.626287703218406
40
1
40
1
40
1
40
1
41
1
10
63.878196872098
20
33.3747184686309
30
0
41
1
10
63.8463325274094
20
33.368952870912
30
0
41
1
10
63.8145370964037
20
33.3627367658117
30
0
41
1
10
63.7639101896304
20
33.352075156412
30
0
41
1
10
63.7450199784627
20
33.3479262655269
30
0
41
1
10
63.7261641168768
20
33.3436106618543
30
0
0
SPLINE
5
1C8
100
AcDbEntity
8
1
62
256
6
ByLayer
370
13
48
1
60
0
100
AcDbSpline
70
4
71
3
72
8
73
4
40
0
40
0
40
0
40
0
40
1
40
1
40
1
40
1
41
1
10
63.0366922172745
20
34.5419947771154
30
0
41
1
10
63.0381641510866
20
34.5422596387517
30
0
41
1
10
63.0396521400637
20
34.5427576397564
30
0
41
1
10
63.0411376656
20
34.5434981064761
30
0
0
SPLINE
5
1C9
100
AcDbEntity
8
1
62
256
6
ByLayer
370
13
48
1
60
0
100
AcDbSpline
70
4
71
3
72
8
73
4
40
0
40
0
40
0
40
0
40
1
40
1
40
1
40
1
41
1
10
63.0411376656
20
29.4565018935242
30
0
41
1
10
63.0396521400637
20
29.4572423602439
30
0
41
1
10
63.0381641510866
20
29.4577403612486
30
0
41
1
10
63.0366922172745
20
29.4580052228849
30
0
0
SPLINE
5
1CA
100
AcDbEntity
8
1
62
256
6
ByLayer
370
13
48
1
60
0
100
AcDbSpline
70
4
71
3
72
12
73
8
40
0
40
0
40
0
40
0
40
0.0707113849956165
40
0.0707113849956165
40
0.582686810203343
40
0.582686810203343
40
1
40
1
40
1
40
1
41
1
10
63.6234410993736
20
33.2776725327995
30
0
41
1
10
63.6191976307912
20
33.2648701307995
30
0
41
1
10
63.6152532954154
20
33.2515831897354
30
0
41
1
10
63.5856730948324
20
33.13986352539
30
0
41
1
10
63.5753574112632
20
33.0162395578017
30
0
41
1
10
63.5851574406288
20
32.7677134128447
30
0
41
1
10
63.6000400197121
20
32.6447125357134
30
0
41
1
10
63.6239816481906
20
32.5180483237181
30
0
0
SPLINE
5
1CB
100
AcDbEntity
8
1
62
256
6
ByLayer
370
13
48
1
60
0
100
AcDbSpline
70
4
71
3
72
12
73
8
40
0
40
0
40
0
40
0
40
0.41731214513514
40
0.41731214513514
40
0.92928586889468
40
0.92928586889468
40
1
40
1
40
1
40
1
41
1
10
63.6239810325739
20
31.4819516762821
30
0
41
1
10
63.6000392759948
20
31.3552873941901
30
0
41
1
10
63.5851565790994
20
31.2322864243226
30
0
41
1
10
63.5753562827877
20
30.9837601145428
30
0
41
1
10
63.5856717794348
20
30.86013604076
30
0
41
1
10
63.6152518487447
20
30.7484154817659
30
0
41
1
10
63.6191963265135
20
30.7351279595639
30
0
41
1
10
63.623439961222
20
30.7223250147211
30
0
0
SPLINE
5
1CC
100
AcDbEntity
8
1
62
256
6
ByLayer
370
13
48
1
60
0
100
AcDbSpline
70
4
71
2
72
6
73
3
40
0
40
0
40
0
40
1
40
1
40
1
41
1
10
63.3991138396654
20
32.5180483237181
30
0
41
1
10
63.1966684399711
20
33.1576926077658
30
0
41
1
10
62.9942230402769
20
33.7973368918135
30
0
0
SPLINE
5
1CD
100
AcDbEntity
8
1
62
256
6
ByLayer
370
13
48
1
60
0
100
AcDbSpline
70
4
71
3
72
10
73
6
40
0
40
0
40
0
40
0
40
0.292742959368635
40
0.292742959368635
40
1
40
1
40
1
40
1
41
1
10
62.7681426122259
20
34.5415631311924
30
0
41
1
10
62.7946050001791
20
34.540779935598
30
0
41
1
10
62.8204448032252
20
34.5419949129111
30
0
41
1
10
62.9100063820192
20
34.5419944894351
30
0
41
1
10
62.9733492541219
20
34.5419947771154
30
0
41
1
10
63.0366922172745
20
34.5419947771154
30
0
0
SPLINE
5
1CE
100
AcDbEntity
8
1
62
256
6
ByLayer
370
13
48
1
60
0
100
AcDbSpline
70
4
71
3
72
14
73
10
40
0
40
0
40
0
40
0
40
0.0093983253738628
40
0.0093983253738628
40
0.63856527355377
40
0.63856527355377
40
0.707257040630749
40
0.707257040630749
40
1
40
1
40
1
40
1
41
1
10
63.0366922172745
20
29.4580052228849
30
0
41
1
10
63.0358504896653
20
29.4580052228849
30
0
41
1
10
63.0350087620562
20
29.4580052228849
30
0
41
1
10
62.9778179328816
20
29.4580052228849
30
0
41
1
10
62.9214688313162
20
29.4580052228849
30
0
41
1
10
62.8589675957728
20
29.4580052228849
30
0
41
1
10
62.8528154672586
20
29.4580052401481
30
0
41
1
10
62.8204448032251
20
29.4580050870892
30
0
41
1
10
62.7946050001789
20
29.4592200644024
30
0
41
1
10
62.7681426122257
20
29.4584368688079
30
0
0
SPLINE
5
1CF
100
AcDbEntity
8
1
62
256
6
ByLayer
370
13
48
1
60
0
100
AcDbSpline
70
4
71
2
72
6
73
3
40
0
40
0
40
0
40
1
40
1
40
1
41
1
10
63.3991138396654
20
31.4819516762821
30
0
41
1
10
63.1966684399711
20
30.8423073922345
30
0
41
1
10
62.9942230402769
20
30.2026631081868
30
0
0
SPLINE
5
1D0
100
AcDbEntity
8
1
62
256
6
ByLayer
370
13
48
1
60
0
100
AcDbSpline
70
4
71
3
72
10
73
6
40
0
40
0
40
0
40
0
40
0.543339987341644
40
0.543339987341644
40
1
40
1
40
1
40
1
41
1
10
70.0003004601926
20
33.6534542670401
30
0
41
1
10
69.8193074892229
20
33.7688748973927
30
0
41
1
10
69.6382449878386
20
33.8843590172081
30
0
41
1
10
69.298078114664
20
34.0842688942051
30
0
41
1
10
69.1398730567058
20
34.1718774163189
30
0
41
1
10
68.9739782123929
20
34.2411608803675
30
0
0
SPLINE
5
1D1
100
AcDbEntity
8
1
62
256
6
ByLayer
370
13
48
1
60
0
100
AcDbSpline
70
4
71
3
72
10
73
6
40
0
40
0
40
0
40
0
40
0.234782437765391
40
0.234782437765391
40
1
40
1
40
1
40
1
41
1
10
68.9739782123929
20
34.2411608803675
30
0
41
1
10
68.9693978590632
20
34.243073795423
30
0
41
1
10
68.9648613765137
20
34.2450991224393
30
0
41
1
10
68.945927220229
20
34.2542358449335
30
0
41
1
10
68.9317484564292
20
34.2626044072979
30
0
41
1
10
68.9200263771115
20
34.2736602924258
30
0
0
SPLINE
5
1D2
100
AcDbEntity
8
1
62
256
6
ByLayer
370
13
48
1
60
0
100
AcDbSpline
70
4
71
3
72
10
73
6
40
0
40
0
40
0
40
0
40
0.234782437765391
40
0.234782437765391
40
1
40
1
40
1
40
1
41
1
10
68.9739782123929
20
29.7588391196328
30
0
41
1
10
68.9693978590632
20
29.7569262045773
30
0
41
1
10
68.9648613765137
20
29.754900877561
30
0
41
1
10
68.945927220229
20
29.7457641550668
30
0
41
1
10
68.9317484564292
20
29.7373955927024
30
0
41
1
10
68.9200263771115
20
29.7263397075745
30
0
0
SPLINE
5
1D3
100
AcDbEntity
8
1
62
256
6
ByLayer
370
13
48
1
60
0
100
AcDbSpline
70
4
71
3
72
10
73
6
40
0
40
0
40
0
40
0
40
0.543339987341528
40
0.543339987341528
40
1
40
1
40
1
40
1
41
1
10
70.0003004601923
20
30.34654573296
30
0
41
1
10
69.8193074892226
20
30.2311251026075
30
0
41
1
10
69.6382449878386
20
30.1156409827922
30
0
41
1
10
69.298078114664
20
29.9157311057952
30
0
41
1
10
69.1398730567058
20
29.8281225836813
30
0
41
1
10
68.9739782123929
20
29.7588391196328
30
0
0
SPLINE
5
1D4
100
AcDbEntity
8
1
62
256
6
ByLayer
370
13
48
1
60
0
100
AcDbSpline
70
4
71
3
72
12
73
8
40
0
40
0
40
0
40
0
40
0.0484239545861539
40
0.0484239545861539
40
0.787342760202595
40
0.787342760202595
40
1
40
1
40
1
40
1
41
1
10
70.000294180537
20
33.6520595383941
30
0
41
1
10
69.9993679960653
20
33.6519214672468
30
0
41
1
10
69.9984413193327
20
33.6517835350424
30
0
41
1
10
69.9833809106246
20
33.6495432949511
30
0
41
1
10
69.9691247049826
20
33.6474557434338
30
0
41
1
10
69.9507227023096
20
33.6447677248303
30
0
41
1
10
69.9466029316181
20
33.6441663527165
30
0
41
1
10
69.9424814286892
20
33.643564429799
30
0
0
SPLINE
5
1D5
100
AcDbEntity
8
1
62
256
6
ByLayer
370
13
48
1
60
0
100
AcDbSpline
70
4
71
3
72
8
73
4
40
0
40
0
40
0
40
0
40
1
40
1
40
1
40
1
41
1
10
69.9424814286893
20
33.6435644297982
30
0
41
1
10
69.9393483176739
20
33.643106856091
30
0
41
1
10
69.9361974646702
20
33.6427724021714
30
0
41
1
10
69.9330460166647
20
33.6424549834735
30
0
0
SPLINE
5
1D6
100
AcDbEntity
8
1
62
256
6
ByLayer
370
13
48
1
60
0
100
AcDbSpline
70
4
71
3
72
8
73
4
40
0
40
0
40
0
40
0
40
1
40
1
40
1
40
1
41
1
10
69.9330460166647
20
33.6424549834735
30
0
41
1
10
69.907994776049
20
33.6399317839274
30
0
41
1
10
69.8828469726042
20
33.6358785459314
30
0
41
1
10
69.858519907022
20
33.6313333333766
30
0
0
SPLINE
5
1D7
100
AcDbEntity
8
1
62
256
6
ByLayer
370
13
48
1
60
0
100
AcDbSpline
70
4
71
3
72
10
73
6
40
0
40
0
40
0
40
0
40
0.365019426424878
40
0.365019426424878
40
1
40
1
40
1
40
1
41
1
10
69.858519907022
20
33.6313333333766
30
0
41
1
10
69.8392240542629
20
33.6277281409656
30
0
41
1
10
69.8189374811642
20
33.6291620234108
30
0
41
1
10
69.7651335246498
20
33.6367334993486
30
0
41
1
10
69.7314968249904
20
33.6462732825016
30
0
41
1
10
69.6985587777267
20
33.6571462585089
30
0
0
SPLINE
5
1D8
100
AcDbEntity
8
1
62
256
6
ByLayer
370
13
48
1
60
0
100
AcDbSpline
70
4
71
3
72
10
73
6
40
0
40
0
40
0
40
0
40
0.365019426424878
40
0.365019426424878
40
1
40
1
40
1
40
1
41
1
10
69.858519907022
20
30.3686666666237
30
0
41
1
10
69.8392240542629
20
30.3722718590347
30
0
41
1
10
69.8189374811642
20
30.3708379765895
30
0
41
1
10
69.7651335246498
20
30.3632665006517
30
0
41
1
10
69.7314968249904
20
30.3537267174987
30
0
41
1
10
69.6985587777267
20
30.3428537414914
30
0
0
SPLINE
5
1D9
100
AcDbEntity
8
1
62
256
6
ByLayer
370
13
48
1
60
0
100
AcDbSpline
70
4
71
3
72
8
73
4
40
0
40
0
40
0
40
0
40
1
40
1
40
1
40
1
41
1
10
69.9330460166647
20
30.3575450165268
30
0
41
1
10
69.907994776049
20
30.3600682160729
30
0
41
1
10
69.8828469726042
20
30.3641214540689
30
0
41
1
10
69.858519907022
20
30.3686666666237
30
0
0
SPLINE
5
1DA
100
AcDbEntity
8
1
62
256
6
ByLayer
370
13
48
1
60
0
100
AcDbSpline
70
4
71
3
72
8
73
4
40
0
40
0
40
0
40
0
40
1
40
1
40
1
40
1
41
1
10
69.9424814286893
20
30.3564355702021
30
0
41
1
10
69.9393483176739
20
30.3568931439093
30
0
41
1
10
69.9361974646702
20
30.3572275978289
30
0
41
1
10
69.9330460166647
20
30.3575450165268
30
0
0
SPLINE
5
1DB
100
AcDbEntity
8
1
62
256
6
ByLayer
370
13
48
1
60
0
100
AcDbSpline
70
4
71
3
72
12
73
8
40
0
40
0
40
0
40
0
40
0.048423954882324
40
0.048423954882324
40
0.787342760268783
40
0.787342760268783
40
1
40
1
40
1
40
1
41
1
10
70.0002941804905
20
30.3479404615902
30
0
41
1
10
69.9993679959647
20
30.3480785327283
30
0
41
1
10
69.9984413193384
20
30.348216464957
30
0
41
1
10
69.9833809106246
20
30.3504567050492
30
0
41
1
10
69.9691247049826
20
30.3525442565665
30
0
41
1
10
69.9507227023096
20
30.35523227517
30
0
41
1
10
69.9466029316181
20
30.3558336472838
30
0
41
1
10
69.9424814286892
20
30.3564355702013
30
0
0
SPLINE
5
1DC
100
AcDbEntity
8
1
62
256
6
ByLayer
370
13
48
1
60
0
100
AcDbSpline
70
4
71
3
72
12
73
8
40
0
40
0
40
0
40
0
40
0.585953603913908
40
0.585953603913908
40
0.932562389653932
40
0.932562389653932
40
1
40
1
40
1
40
1
41
1
10
65.005883093471
20
32.8916012511839
30
0
41
1
10
64.960211272438
20
32.9097479607936
30
0
41
1
10
64.9175125134992
20
32.9318740596775
30
0
41
1
10
64.8656905223004
20
32.9734721390486
30
0
41
1
10
64.8497083450445
20
32.990705444162
30
0
41
1
10
64.8387123558149
20
33.0121382518169
30
0
41
1
10
64.8371603851937
20
33.0157038847933
30
0
41
1
10
64.8359016088411
20
33.0192841080837
30
0
0
SPLINE
5
1DD
100
AcDbEntity
8
1
62
256
6
ByLayer
370
13
48
1
60
0
100
AcDbSpline
70
4
71
3
72
8
73
4
40
0
40
0
40
0
40
0
40
1
40
1
40
1
40
1
41
1
10
65.0058830934711
20
32.8916012511841
30
0
41
1
10
65.0878526142753
20
32.9190596125856
30
0
41
1
10
65.1702705240861
20
32.9445874124655
30
0
41
1
10
65.2530247822474
20
32.9682795913759
30
0
0
SPLINE
5
1DE
100
AcDbEntity
8
1
62
256
6
ByLayer
370
13
48
1
60
0
100
AcDbSpline
70
4
71
3
72
12
73
8
40
0
40
0
40
0
40
0
40
0.397348218557931
40
0.397348218557931
40
0.918192388004562
40
0.918192388004562
40
1
40
1
40
1
40
1
41
1
10
64.8359082989188
20
30.9807131742893
30
0
41
1
10
64.843188843999
20
31.0014214868487
30
0
41
1
10
64.8603756193544
20
31.0216861381896
30
0
41
1
10
64.9103520488149
20
31.0630328882673
30
0
41
1
10
64.9471530158873
20
31.0833987106973
30
0
41
1
10
64.9930740548547
20
31.1032022412512
30
0
41
1
10
64.9994424535555
20
31.1058357132378
30
0
41
1
10
65.0058884944385
20
31.1083969395894
30
0
0
SPLINE
5
1DF
100
AcDbEntity
8
1
62
256
6
ByLayer
370
13
48
1
60
0
100
AcDbSpline
70
4
71
3
72
8
73
4
40
0
40
0
40
0
40
0
40
1
40
1
40
1
40
1
41
1
10
65.0058884944385
20
31.1083969395892
30
0
41
1
10
65.0878562343346
20
31.0809392660924
30
0
41
1
10
65.1702723413183
20
31.0554120672692
30
0
41
1
10
65.2530247822474
20
31.0317204086244
30
0
0
SPLINE
5
1E0
100
AcDbEntity
8
1
62
256
6
ByLayer
370
13
48
1
60
0
100
AcDbSpline
70
4
71
3
72
10
73
6
40
0
40
0
40
0
40
0
40
0.89617120816834
40
0.89617120816834
40
1
40
1
40
1
40
1
41
1
10
68.8114628213833
20
29.7193542776097
30
0
41
1
10
68.8083770286769
20
29.7097082473475
30
0
41
1
10
68.8053823050141
20
29.6999890042595
30
0
41
1
10
68.8021596379679
20
29.6891315582948
30
0
41
1
10
68.8018264345891
20
29.6880039381229
30
0
41
1
10
68.8014946003019
20
29.6868761273329
30
0
0
SPLINE
5
1E1
100
AcDbEntity
8
1
62
256
6
ByLayer
370
13
48
1
60
0
100
AcDbSpline
70
4
71
3
72
8
73
4
40
0
40
0
40
0
40
0
40
1
40
1
40
1
40
1
41
1
10
68.8014946002937
20
29.6868761273597
30
0
41
1
10
68.5838173775252
20
29.683437102719
30
0
41
1
10
68.358631149245
20
29.687619116344
30
0
41
1
10
68.1364283337294
20
29.7090139486584
30
0
0
SPLINE
5
1E2
100
AcDbEntity
8
1
62
256
6
ByLayer
370
13
48
1
60
0
100
AcDbSpline
70
4
71
3
72
8
73
4
40
0
40
0
40
0
40
0
40
1
40
1
40
1
40
1
41
1
10
68.8014946002937
20
34.3131238726406
30
0
41
1
10
68.5838173775252
20
34.3165628972813
30
0
41
1
10
68.358631149245
20
34.3123808836563
30
0
41
1
10
68.1364283337294
20
34.2909860513419
30
0
0
SPLINE
5
1E3
100
AcDbEntity
8
1
62
256
6
ByLayer
370
13
48
1
60
0
100
AcDbSpline
70
4
71
3
72
10
73
6
40
0
40
0
40
0
40
0
40
0.89617120816834
40
0.89617120816834
40
1
40
1
40
1
40
1
41
1
10
68.8114628213833
20
34.2806457223906
30
0
41
1
10
68.8083770286769
20
34.2902917526528
30
0
41
1
10
68.8053823050076
20
34.3000109957388
30
0
41
1
10
68.8021596379687
20
34.3108684417057
30
0
41
1
10
68.8018264345891
20
34.3119960618774
30
0
41
1
10
68.8014946003019
20
34.3131238726674
30
0
0
SPLINE
5
1E4
100
AcDbEntity
8
1
62
256
6
ByLayer
370
13
48
1
60
0
100
AcDbSpline
70
4
71
3
72
16
73
12
40
0
40
0
40
0
40
0
40
5.49005868016E-05
40
5.49005868016E-05
40
0.336585103415494
40
0.336585103415494
40
0.668681511902148
40
0.668681511902148
40
0.999945099413196
40
0.999945099413196
40
1
40
1
40
1
40
1
41
1
10
65.2530247822474
20
31.0317204086244
30
0
41
1
10
65.2530408119084
20
31.0317162770651
30
0
41
1
10
65.2530568416983
20
31.0317121456192
30
0
41
1
10
65.351332883376
20
31.0063816422972
30
0
41
1
10
65.4536280850695
20
30.9795174380284
30
0
41
1
10
65.6640882219197
20
30.9307222277496
30
0
41
1
10
65.7723571382593
20
30.9077042043382
30
0
41
1
10
65.9940208878321
20
30.8655863654308
30
0
41
1
10
66.1078139156937
20
30.8463100547453
30
0
41
1
10
66.223538228656
20
30.8295809438865
30
0
41
1
10
66.2235574062947
20
30.829578171701
30
0
41
1
10
66.2235765839736
20
30.8295753994529
30
0
0
SPLINE
5
1E5
100
AcDbEntity
8
1
62
256
6
ByLayer
370
13
48
1
60
0
100
AcDbSpline
70
4
71
3
72
16
73
12
40
0
40
0
40
0
40
0
40
5.49005868016E-05
40
5.49005868016E-05
40
0.336585103415494
40
0.336585103415494
40
0.668681511902148
40
0.668681511902148
40
0.999945099413196
40
0.999945099413196
40
1
40
1
40
1
40
1
41
1
10
65.2530247822474
20
32.9682795913759
30
0
41
1
10
65.2530408119894
20
32.9682837229726
30
0
41
1
10
65.2530568416983
20
32.9682878543811
30
0
41
1
10
65.351332883376
20
32.9936183577031
30
0
41
1
10
65.4536280850695
20
33.0204825619719
30
0
41
1
10
65.6640882219197
20
33.0692777722507
30
0
41
1
10
65.7723571382593
20
33.0922957956621
30
0
41
1
10
65.9940208878321
20
33.1344136345695
30
0
41
1
10
66.1078139156937
20
33.153689945255
30
0
41
1
10
66.223538228656
20
33.1704190561138
30
0
41
1
10
66.2235574062989
20
33.1704218284314
30
0
41
1
10
66.2235765839736
20
33.1704246005474
30
0
0
SPLINE
5
1E6
100
AcDbEntity
8
1
62
256
6
ByLayer
370
13
48
1
60
0
100
AcDbSpline
70
4
71
3
72
14
73
10
40
0
40
0
40
0
40
0
40
7.60921707146E-05
40
7.60921707146E-05
40
0.558418932331044
40
0.558418932331044
40
0.8175350131134
40
0.8175350131134
40
1
40
1
40
1
40
1
41
1
10
65.2530247822474
20
31.3324941067071
30
0
41
1
10
65.253036668055
20
31.3325078712172
30
0
41
1
10
65.2530485539514
20
31.3325216357846
30
0
41
1
10
65.3402747516225
20
31.4335374655938
30
0
41
1
10
65.4266797916594
20
31.543747683462
30
0
41
1
10
65.52373030621
20
31.7277224321333
30
0
41
1
10
65.5500662281197
20
31.790701783736
30
0
41
1
10
65.5777718223727
20
31.9031133644366
30
0
41
1
10
65.5841279769684
20
31.9517716314226
30
0
41
1
10
65.5841229339402
20
32.0000588734951
30
0
0
SPLINE
5
1E7
100
AcDbEntity
8
1
62
256
6
ByLayer
370
13
48
1
60
0
100
AcDbSpline
70
4
71
3
72
9
73
5
40
0
40
0
40
0
40
0
40
0.218499821058687
40
1
40
1
40
1
40
1
41
1
10
65.5841229630374
20
31.9999411265098
30
0
41
1
10
65.6287172982937
20
31.9999628949811
30
0
41
1
10
65.8328105329712
20
32.0000625219336
30
0
41
1
10
66.0521571575865
20
32.0000274268299
30
0
41
1
10
66.2235765839736
20
32.0000000000001
30
0
0
SPLINE
5
1E8
100
AcDbEntity
8
1
62
256
6
ByLayer
370
13
48
1
60
0
100
AcDbSpline
70
4
71
3
72
14
73
10
40
0
40
0
40
0
40
0
40
0.229848554188354
40
0.229848554188354
40
0.556132982262946
40
0.556132982262946
40
0.999924050949996
40
0.999924050949996
40
1
40
1
40
1
40
1
41
1
10
65.5841229342492
20
31.9999411265053
30
0
41
1
10
65.5841289378505
20
32.0604681648036
30
0
41
1
10
65.5739446757336
20
32.1216024942608
30
0
41
1
10
65.5318793094984
20
32.2600020119749
30
0
41
1
10
65.4931246863409
20
32.3358326393401
30
0
41
1
10
65.3909514875064
20
32.5005351505619
30
0
41
1
10
65.3226503723761
20
32.5868683149403
30
0
41
1
10
65.2530485539982
20
32.6674731918083
30
0
41
1
10
65.2530366680781
20
32.6674869563457
30
0
41
1
10
65.2530247822474
20
32.667500720826
30
0
0
SPLINE
5
1E9
100
AcDbEntity
8
1
62
256
6
ByLayer
370
13
48
1
60
0
100
AcDbSpline
70
4
71
3
72
10
73
6
40
0
40
0
40
0
40
0
40
0.895874350650011
40
0.895874350650011
40
1
40
1
40
1
40
1
41
1
10
68.8329929794783
20
29.6979359566828
30
0
41
1
10
68.8235084653762
20
29.6946636407587
30
0
41
1
10
68.8140728812381
20
29.6913563283313
30
0
41
1
10
68.8036592855553
20
29.6876488952805
30
0
41
1
10
68.8025762547404
20
29.6872626109783
30
0
41
1
10
68.8014946002937
20
29.6868761273597
30
0
0
SPLINE
5
1EA
100
AcDbEntity
8
1
62
256
6
ByLayer
370
13
48
1
60
0
100
AcDbSpline
70
4
71
3
72
8
73
4
40
0
40
0
40
0
40
0
40
1
40
1
40
1
40
1
41
1
10
68.9200263771116
20
29.7263397075742
30
0
41
1
10
68.8913140489628
20
29.717430581985
30
0
41
1
10
68.8617201129099
20
29.7078472979722
30
0
41
1
10
68.8329929794714
20
29.697935956688
30
0
0
SPLINE
5
1EB
100
AcDbEntity
8
1
62
256
6
ByLayer
370
13
48
1
60
0
100
AcDbSpline
70
4
71
3
72
8
73
4
40
0
40
0
40
0
40
0
40
1
40
1
40
1
40
1
41
1
10
68.9200263771116
20
34.2736602924261
30
0
41
1
10
68.8913140489628
20
34.2825694180152
30
0
41
1
10
68.8617201129099
20
34.2921527020281
30
0
41
1
10
68.8329929794714
20
34.3020640433123
30
0
0
SPLINE
5
1EC
100
AcDbEntity
8
1
62
256
6
ByLayer
370
13
48
1
60
0
100
AcDbSpline
70
4
71
3
72
10
73
6
40
0
40
0
40
0
40
0
40
0.895874350650011
40
0.895874350650011
40
1
40
1
40
1
40
1
41
1
10
68.8329929794783
20
34.3020640433175
30
0
41
1
10
68.8235084653765
20
34.3053363592424
30
0
41
1
10
68.8140728812381
20
34.3086436716689
30
0
41
1
10
68.8036592855553
20
34.3123511047198
30
0
41
1
10
68.8025762547404
20
34.312737389022
30
0
41
1
10
68.8014946002937
20
34.3131238726406
30
0
0
SPLINE
5
1ED
100
AcDbEntity
8
1
62
256
6
ByLayer
370
13
48
1
60
0
100
AcDbSpline
70
4
71
3
72
8
73
4
40
0
40
0
40
0
40
0
40
1
40
1
40
1
40
1
41
1
10
68.9200263771116
20
29.7263397075742
30
0
41
1
10
68.8947547498996
20
29.7539091992715
30
0
41
1
10
68.8676414158413
20
29.7810600560616
30
0
41
1
10
68.8427945046474
20
29.8036784629043
30
0
0
SPLINE
5
1EE
100
AcDbEntity
8
1
62
256
6
ByLayer
370
13
48
1
60
0
100
AcDbSpline
70
4
71
3
72
8
73
4
40
0
40
0
40
0
40
0
40
1
40
1
40
1
40
1
41
1
10
68.8114628213756
20
29.7193542775872
30
0
41
1
10
68.8184891520225
20
29.7122995158586
30
0
41
1
10
68.8256944839945
20
29.7051316115677
30
0
41
1
10
68.8329929794581
20
29.6979359566684
30
0
0
SPLINE
5
1EF
100
AcDbEntity
8
1
62
256
6
ByLayer
370
13
48
1
60
0
100
AcDbSpline
70
4
71
3
72
8
73
4
40
0
40
0
40
0
40
0
40
1
40
1
40
1
40
1
41
1
10
68.8427945046474
20
29.8036784629044
30
0
41
1
10
68.8319379533939
20
29.7769311735416
30
0
41
1
10
68.8212332338794
20
29.7482854798944
30
0
41
1
10
68.8114628213697
20
29.7193542775694
30
0
0
SPLINE
5
1F0
100
AcDbEntity
8
1
62
256
6
ByLayer
370
13
48
1
60
0
100
AcDbSpline
70
4
71
3
72
8
73
4
40
0
40
0
40
0
40
0
40
1
40
1
40
1
40
1
41
1
10
68.8114628213756
20
34.2806457224131
30
0
41
1
10
68.8184891520225
20
34.2877004841417
30
0
41
1
10
68.8256944839945
20
34.2948683884326
30
0
41
1
10
68.8329929794581
20
34.3020640433319
30
0
0
SPLINE
5
1F1
100
AcDbEntity
8
1
62
256
6
ByLayer
370
13
48
1
60
0
100
AcDbSpline
70
4
71
3
72
8
73
4
40
0
40
0
40
0
40
0
40
1
40
1
40
1
40
1
41
1
10
68.9200263771116
20
34.2736602924261
30
0
41
1
10
68.8947547498996
20
34.2460908007288
30
0
41
1
10
68.8676414158413
20
34.2189399439387
30
0
41
1
10
68.8427945046474
20
34.1963215370959
30
0
0
SPLINE
5
1F2
100
AcDbEntity
8
1
62
256
6
ByLayer
370
13
48
1
60
0
100
AcDbSpline
70
4
71
3
72
8
73
4
40
0
40
0
40
0
40
0
40
1
40
1
40
1
40
1
41
1
10
68.8427945046474
20
34.1963215370959
30
0
41
1
10
68.8319379533939
20
34.2230688264587
30
0
41
1
10
68.8212332338794
20
34.2517145201059
30
0
41
1
10
68.8114628213697
20
34.2806457224309
30
0
0
SPLINE
5
1F3
100
AcDbEntity
8
1
62
256
6
ByLayer
370
13
48
1
60
0
100
AcDbSpline
70
4
71
3
72
8
73
4
40
0
40
0
40
0
40
0
40
1
40
1
40
1
40
1
41
1
10
65.2530247822474
20
32.667500720826
30
0
41
1
10
65.1763475749176
20
32.750759671913
30
0
41
1
10
65.0925991652655
20
32.8246120383957
30
0
41
1
10
65.005883093471
20
32.8916012511839
30
0
0
SPLINE
5
1F4
100
AcDbEntity
8
1
62
256
6
ByLayer
370
13
48
1
60
0
100
AcDbSpline
70
4
71
3
72
8
73
4
40
0
40
0
40
0
40
0
40
1
40
1
40
1
40
1
41
1
10
65.0058884944385
20
31.1083969395894
30
0
41
1
10
65.0926026707733
20
31.1753852594287
30
0
41
1
10
65.176349203494
20
31.2492365809637
30
0
41
1
10
65.2530247822474
20
31.3324941067071
30
0
0
SPLINE
5
1F5
100
AcDbEntity
8
1
62
256
6
ByLayer
370
13
48
1
60
0
100
AcDbSpline
70
4
71
3
72
10
73
6
40
0
40
0
40
0
40
0
40
0.212029667990108
40
0.212029667990108
40
1
40
1
40
1
40
1
41
1
10
68.9034132847034
20
34.1019349695561
30
0
41
1
10
68.8981853000149
20
34.1074607869206
30
0
41
1
10
68.8931085566658
20
34.1132500010078
30
0
41
1
10
68.8702328082276
20
34.141494781459
30
0
41
1
10
68.8544535780449
20
34.1675970736252
30
0
41
1
10
68.8427945046447
20
34.1963215371025
30
0
0
SPLINE
5
1F6
100
AcDbEntity
8
1
62
256
6
ByLayer
370
13
48
1
60
0
100
AcDbSpline
70
4
71
3
72
10
73
6
40
0
40
0
40
0
40
0
40
0.212029667990108
40
0.212029667990108
40
1
40
1
40
1
40
1
41
1
10
68.9034132847034
20
29.8980650304442
30
0
41
1
10
68.8981853000149
20
29.8925392130797
30
0
41
1
10
68.8931085566658
20
29.8867499989925
30
0
41
1
10
68.8702328082276
20
29.8585052185412
30
0
41
1
10
68.8544535780449
20
29.8324029263751
30
0
41
1
10
68.8427945046447
20
29.8036784628978
30
0
0
SPLINE
5
1F7
100
AcDbEntity
8
1
62
256
6
ByLayer
370
13
48
1
60
0
100
AcDbSpline
70
4
71
3
72
8
73
4
40
0
40
0
40
0
40
0
40
1
40
1
40
1
40
1
41
1
10
68.1364283337291
20
34.2909860513417
30
0
41
1
10
68.069644117832
20
34.2851399743956
30
0
41
1
10
68.0030235608226
20
34.2775099464497
30
0
41
1
10
67.9364283337291
20
34.269805847848
30
0
0
SPLINE
5
1F8
100
AcDbEntity
8
1
62
256
6
ByLayer
370
13
48
1
60
0
100
AcDbSpline
70
4
71
3
72
8
73
4
40
0
40
0
40
0
40
0
40
1
40
1
40
1
40
1
41
1
10
68.1364283337291
20
29.7090139486586
30
0
41
1
10
68.069644117832
20
29.7148600256047
30
0
41
1
10
68.0030235608226
20
29.7224900535505
30
0
41
1
10
67.9364283337291
20
29.7301941521523
30
0
0
SPLINE
5
1F9
100
AcDbEntity
8
1
62
256
6
ByLayer
370
13
48
1
60
0
100
AcDbSpline
70
4
71
3
72
8
73
4
40
0
40
0
40
0
40
0
40
1
40
1
40
1
40
1
41
1
10
65.5841229342547
20
31.999941126504
30
0
41
1
10
65.5621364911968
20
31.9999440880943
30
0
41
1
10
65.5379945562381
20
31.9999470487443
30
0
41
1
10
65.5133346813305
20
31.9999498076326
30
0
0
SPLINE
5
1FA
100
AcDbEntity
8
1
62
256
6
ByLayer
370
13
48
1
60
0
100
AcDbSpline
70
4
71
3
72
18
73
14
40
0
40
0
40
0
40
0
40
0.0002320476331928
40
0.0002320476331928
40
0.275512896583265
40
0.275512896583265
40
0.549548193740028
40
0.549548193740028
40
0.82034827856401
40
0.82034827856401
40
0.999767952367583
40
0.999767952367583
40
1
40
1
40
1
40
1
41
1
10
64.0238910536757
20
31.8681142101815
30
0
41
1
10
64.0238925498611
20
31.8680945270047
30
0
41
1
10
64.0238940487922
20
31.8680748440857
30
0
41
1
10
64.0256675055207
20
31.8447048678897
30
0
41
1
10
64.0237464564308
20
31.8209873028208
30
0
41
1
10
64.0124048683296
20
31.7767262953014
30
0
41
1
10
64.002824023711
20
31.7555123739677
30
0
41
1
10
63.9766946646276
20
31.7189054357858
30
0
41
1
10
63.9597143144881
20
31.7028754829251
30
0
41
1
10
63.9274022012003
20
31.6824782204256
30
0
41
1
10
63.9131618975273
20
31.6758058648677
30
0
41
1
10
63.8984185892745
20
31.6707916075563
30
0
41
1
10
63.8983996878341
20
31.670785185209
30
0
41
1
10
63.8983807874304
20
31.6707787598165
30
0
0
SPLINE
5
1FB
100
AcDbEntity
8
1
62
256
6
ByLayer
370
13
48
1
60
0
100
AcDbSpline
70
4
71
3
72
18
73
14
40
0
40
0
40
0
40
0
40
0.0002327629213411
40
0.0002327629213411
40
0.265137580931158
40
0.265137580931158
40
0.524413902056763
40
0.524413902056763
40
0.787810378106243
40
0.787810378106243
40
0.999767237013987
40
0.999767237013987
40
1
40
1
40
1
40
1
41
1
10
63.8983814923708
20
32.3292212401838
30
0
41
1
10
63.8984003927771
20
32.3292148147945
30
0
41
1
10
63.8984192942203
20
32.3292083924507
30
0
41
1
10
63.9199474313848
20
32.3218865928846
30
0
41
1
10
63.9405076835733
20
32.3108698795224
30
0
41
1
10
63.9746194976181
20
32.2831757315895
30
0
41
1
10
63.988861041942
20
32.2662163319627
30
0
41
1
10
64.0101948543781
20
32.2287073498544
30
0
41
1
10
64.0175625642358
20
32.2075503794954
30
0
41
1
10
64.0244402017238
20
32.1682860181036
30
0
41
1
10
64.0252680311182
20
32.1500273569703
30
0
41
1
10
64.0238942663069
20
32.1319251558719
30
0
41
1
10
64.023892767313
20
32.1319054729743
30
0
41
1
10
64.023891271065
20
32.1318857898188
30
0
0
SPLINE
5
1FC
100
AcDbEntity
8
1
62
256
6
ByLayer
370
13
48
1
60
0
100
AcDbSpline
70
4
71
3
72
16
73
12
40
0
40
0
40
0
40
0
40
0.0003234024746366
40
0.0003234024746366
40
0.282080396684608
40
0.282080396684608
40
0.564087672846331
40
0.564087672846331
40
0.999676597525353
40
0.999676597525353
40
1
40
1
40
1
40
1
41
1
10
63.7228255532625
20
32.400576963399
30
0
41
1
10
63.7228431394738
20
32.4005690566935
30
0
41
1
10
63.7228607255774
20
32.400561149769
30
0
41
1
10
63.7382000012656
20
32.39366485756
30
0
41
1
10
63.7536112434707
20
32.3869187943374
30
0
41
1
10
63.7846122205563
20
32.3737079452672
30
0
41
1
10
63.8002038103746
20
32.3672426854007
30
0
41
1
10
63.8400732534561
20
32.3511586676611
30
0
41
1
10
63.8644631576176
20
32.3417376778856
30
0
41
1
10
63.8890367141859
20
32.3326549189322
30
0
41
1
10
63.8890549466885
20
32.3326481803793
30
0
41
1
10
63.8890731791049
20
32.3326414416171
30
0
0
SPLINE
5
1FD
100
AcDbEntity
8
1
62
256
6
ByLayer
370
13
48
1
60
0
100
AcDbSpline
70
4
71
3
72
16
73
12
40
0
40
0
40
0
40
0
40
0.0003234009625968
40
0.0003234009625968
40
0.281891295778052
40
0.281891295778052
40
0.563857518034444
40
0.563857518034444
40
0.999676599037414
40
0.999676599037414
40
1
40
1
40
1
40
1
41
1
10
63.8890724776759
20
31.6673585583832
30
0
41
1
10
63.8890542452637
20
31.6673518196201
30
0
41
1
10
63.8890360127654
20
31.6673450810663
30
0
41
1
10
63.8731438796106
20
31.6614711056413
30
0
41
1
10
63.8573395823257
20
31.65545989813
30
0
41
1
10
63.8258607502036
20
31.6431424042969
30
0
41
1
10
63.8101848014628
20
31.6368350742478
30
0
41
1
10
63.7704882686511
20
31.6204148912688
30
0
41
1
10
63.7465753514895
20
31.6101008496334
30
0
41
1
10
63.7228601099431
20
31.5994388502342
30
0
41
1
10
63.7228425238483
20
31.5994309433083
30
0
41
1
10
63.7228249376458
20
31.5994230366013
30
0
0
SPLINE
5
1FE
100
AcDbEntity
8
1
62
256
6
ByLayer
370
13
48
1
60
0
100
AcDbSpline
70
4
71
2
72
6
73
3
40
0
40
0
40
0
40
1
40
1
40
1
41
1
10
63.6239816481906
20
32.5180483237181
30
0
41
0.916194302198624
10
63.6501201860674
20
32.4354612835998
30
0
41
1
10
63.7228255532625
20
32.400576963399
30
0
0
SPLINE
5
1FF
100
AcDbEntity
8
1
62
256
6
ByLayer
370
13
48
1
60
0
100
AcDbSpline
70
4
71
2
72
6
73
3
40
0
40
0
40
0
40
1
40
1
40
1
41
1
10
63.7228249376458
20
31.5994230366013
30
0
41
0.916194302198624
10
63.6501195704508
20
31.5645387164004
30
0
41
1
10
63.6239810325739
20
31.4819516762821
30
0
0
SPLINE
5
200
100
AcDbEntity
8
1
62
256
6
ByLayer
370
13
48
1
60
0
100
AcDbSpline
70
4
71
3
72
10
73
6
40
0
40
0
40
0
40
0
40
0.584811321004001
40
0.584811321004001
40
1
40
1
40
1
40
1
41
1
10
69.7229218619212
20
33.4537221481194
30
0
41
1
10
69.7671269207748
20
33.4523448013551
30
0
41
1
10
69.8120128950401
20
33.455519484823
30
0
41
1
10
69.8856471034018
20
33.4741234474758
30
0
41
1
10
69.9158168934823
20
33.4860047696417
30
0
41
1
10
69.9429134307967
20
33.5031258227715
30
0
0
SPLINE
5
201
100
AcDbEntity
8
1
62
256
6
ByLayer
370
13
48
1
60
0
100
AcDbSpline
70
4
71
3
72
10
73
6
40
0
40
0
40
0
40
0
40
0.584811321004001
40
0.584811321004001
40
1
40
1
40
1
40
1
41
1
10
69.7229218619212
20
30.5462778518809
30
0
41
1
10
69.7671269207748
20
30.5476551986451
30
0
41
1
10
69.8120128950401
20
30.5444805151773
30
0
41
1
10
69.8856471034018
20
30.5258765525245
30
0
41
1
10
69.9158168934823
20
30.5139952303586
30
0
41
1
10
69.9429134307967
20
30.4968741772288
30
0
0
SPLINE
5
202
100
AcDbEntity
8
1
62
256
6
ByLayer
370
13
48
1
60
0
100
AcDbSpline
70
4
71
3
72
8
73
4
40
0
40
0
40
0
40
0
40
1
40
1
40
1
40
1
41
1
10
63.8983807874304
20
31.6707787598165
30
0
41
1
10
63.8952776956559
20
31.6696387712032
30
0
41
1
10
63.8921749253846
20
31.6684987038891
30
0
41
1
10
63.8890724776757
20
31.6673585583833
30
0
0
SPLINE
5
203
100
AcDbEntity
8
1
62
256
6
ByLayer
370
13
48
1
60
0
100
AcDbSpline
70
4
71
3
72
8
73
4
40
0
40
0
40
0
40
0
40
1
40
1
40
1
40
1
41
1
10
69.9429134307958
20
30.4968741772284
30
0
41
1
10
69.9523662605101
20
30.4729829474546
30
0
41
1
10
69.9618537680905
20
30.4488051313346
30
0
41
1
10
69.972244251906
20
30.4250132713627
30
0
0
SPLINE
5
204
100
AcDbEntity
8
1
62
256
6
ByLayer
370
13
48
1
60
0
100
AcDbSpline
70
4
71
3
72
8
73
4
40
0
40
0
40
0
40
0
40
1
40
1
40
1
40
1
41
1
10
63.8890731791048
20
32.3326414416171
30
0
41
1
10
63.8921756280066
20
32.3315012961161
30
0
41
1
10
63.8952783994478
20
32.3303612288019
30
0
41
1
10
63.8983814923706
20
32.3292212401837
30
0
0
SPLINE
5
205
100
AcDbEntity
8
1
62
256
6
ByLayer
370
13
48
1
60
0
100
AcDbSpline
70
4
71
3
72
8
73
4
40
0
40
0
40
0
40
0
40
1
40
1
40
1
40
1
41
1
10
69.9429134307958
20
33.5031258227719
30
0
41
1
10
69.9523662605101
20
33.5270170525457
30
0
41
1
10
69.9618537680905
20
33.5511948686656
30
0
41
1
10
69.972244251906
20
33.5749867286376
30
0
0
SPLINE
5
206
100
AcDbEntity
8
1
62
256
6
ByLayer
370
13
48
1
60
0
100
AcDbSpline
70
4
71
2
72
6
73
3
40
0
40
0
40
0
40
1
40
1
40
1
41
1
10
63.4979577447373
20
32.400576963399
30
0
41
1
10
63.6103916489999
20
32.400576963399
30
0
41
1
10
63.7228255532625
20
32.400576963399
30
0
0
SPLINE
5
207
100
AcDbEntity
8
1
62
256
6
ByLayer
370
13
48
1
60
0
100
AcDbSpline
70
4
71
2
72
6
73
3
40
0
40
0
40
0
40
1
40
1
40
1
41
1
10
63.4979577447373
20
32.400576963399
30
0
41
0.916194302198624
10
63.4252523775422
20
32.4354612835998
30
0
41
1
10
63.3991138396654
20
32.5180483237181
30
0
0
SPLINE
5
208
100
AcDbEntity
8
1
62
256
6
ByLayer
370
13
48
1
60
0
100
AcDbSpline
70
4
71
2
72
6
73
3
40
0
40
0
40
0
40
1
40
1
40
1
41
1
10
63.4979577447373
20
31.5994230366013
30
0
41
0.916194302198624
10
63.4252523775422
20
31.5645387164005
30
0
41
1
10
63.3991138396654
20
31.4819516762821
30
0
0
SPLINE
5
209
100
AcDbEntity
8
1
62
256
6
ByLayer
370
13
48
1
60
0
100
AcDbSpline
70
4
71
2
72
6
73
3
40
0
40
0
40
0
40
1
40
1
40
1
41
1
10
63.4979577447373
20
31.5994230366013
30
0
41
1
10
63.6103913411916
20
31.5994230366013
30
0
41
1
10
63.7228249376458
20
31.5994230366013
30
0
0
SPLINE
5
20A
100
AcDbEntity
8
1
62
256
6
ByLayer
370
13
48
1
60
0
100
AcDbSpline
70
4
71
3
72
12
73
8
40
0
40
0
40
0
40
0
40
0.222210269969675
40
0.222210269969675
40
0.98789629981278
40
0.98789629981278
40
1
40
1
40
1
40
1
41
1
10
69.9762578641567
20
33.5900225555477
30
0
41
1
10
69.9780568600709
20
33.594301064716
30
0
41
1
10
69.9798523269257
20
33.5985826698892
30
0
41
1
10
69.9878141103189
20
33.6176240855862
30
0
41
1
10
69.9939377359823
20
33.6324167832534
30
0
41
1
10
70.0000844674869
20
33.6474550211964
30
0
41
1
10
70.000180128062
20
33.6476891185091
30
0
41
1
10
70.0002757733597
20
33.6479232188579
30
0
0
SPLINE
5
20B
100
AcDbEntity
8
1
62
256
6
ByLayer
370
13
48
1
60
0
100
AcDbSpline
70
4
71
3
72
12
73
8
40
0
40
0
40
0
40
0
40
0.222210270055733
40
0.222210270055733
40
0.987896300195374
40
0.987896300195374
40
1
40
1
40
1
40
1
41
1
10
69.9762578641567
20
30.4099774444526
30
0
41
1
10
69.9780568600709
20
30.4056989352843
30
0
41
1
10
69.9798523269257
20
30.4014173301111
30
0
41
1
10
69.9878141103189
20
30.3823759144141
30
0
41
1
10
69.9939377359823
20
30.3675832167469
30
0
41
1
10
70.0000844674839
20
30.3525449788112
30
0
41
1
10
70.0001801280885
20
30.3523108815133
30
0
41
1
10
70.000275773394
20
30.3520767811742
30
0
0
SPLINE
5
20C
100
AcDbEntity
8
1
62
256
6
ByLayer
370
13
48
1
60
0
100
AcDbSpline
70
4
71
3
72
8
73
4
40
0
40
0
40
0
40
0
40
1
40
1
40
1
40
1
41
1
10
69.9722442519073
20
33.574986728637
30
0
41
1
10
69.973599882656
20
33.5799945345143
30
0
41
1
10
69.9749312509392
20
33.5850086280555
30
0
41
1
10
69.9762578641507
20
33.5900225555493
30
0
0
SPLINE
5
20D
100
AcDbEntity
8
1
62
256
6
ByLayer
370
13
48
1
60
0
100
AcDbSpline
70
4
71
3
72
8
73
4
40
0
40
0
40
0
40
0
40
1
40
1
40
1
40
1
41
1
10
69.9722442519073
20
30.4250132713633
30
0
41
1
10
69.973599882656
20
30.420005465486
30
0
41
1
10
69.9749312509392
20
30.4149913719448
30
0
41
1
10
69.9762578641507
20
30.409977444451
30
0
0
SPLINE
5
20E
100
AcDbEntity
8
1
62
256
6
ByLayer
370
13
48
1
60
0
100
AcDbSpline
70
4
71
3
72
8
73
4
40
0
40
0
40
0
40
0
40
1
40
1
40
1
40
1
41
1
10
69.1350345308899
20
30.5307193644864
30
0
41
1
10
69.3310472934744
20
30.5327075458539
30
0
41
1
10
69.5269821791393
20
30.540172738682
30
0
41
1
10
69.7229218619212
20
30.5462778518809
30
0
0
SPLINE
5
20F
100
AcDbEntity
8
1
62
256
6
ByLayer
370
13
48
1
60
0
100
AcDbSpline
70
4
71
3
72
8
73
4
40
0
40
0
40
0
40
0
40
1
40
1
40
1
40
1
41
1
10
69.1350345308899
20
33.4692806355138
30
0
41
1
10
69.3310472934744
20
33.4672924541464
30
0
41
1
10
69.5269821791393
20
33.4598272613183
30
0
41
1
10
69.7229218619212
20
33.4537221481194
30
0
0
SPLINE
5
210
100
AcDbEntity
8
1
62
256
6
ByLayer
370
13
48
1
60
0
100
AcDbSpline
70
4
71
2
72
6
73
3
40
0
40
0
40
0
40
1
40
1
40
1
41
1
10
63.6522783035128
20
32.3326414416171
30
0
41
1
10
63.7706757413088
20
32.3326414416171
30
0
41
1
10
63.8890731791048
20
32.3326414416171
30
0
0
SPLINE
5
211
100
AcDbEntity
8
1
62
256
6
ByLayer
370
13
48
1
60
0
100
AcDbSpline
70
4
71
2
72
6
73
3
40
0
40
0
40
0
40
1
40
1
40
1
41
1
10
63.6522783035128
20
32.3326414416171
30
0
41
0.999533107184472
10
63.5741769618959
20
32.3640066842106
30
0
41
1
10
63.4979577447373
20
32.400576963399
30
0
0
SPLINE
5
212
100
AcDbEntity
8
1
62
256
6
ByLayer
370
13
48
1
60
0
100
AcDbSpline
70
4
71
3
72
8
73
4
40
0
40
0
40
0
40
0
40
1
40
1
40
1
40
1
41
1
10
64.0238912710649
20
32.1318857898188
30
0
41
1
10
64.0204763080656
20
32.0443340291077
30
0
41
1
10
64.0204762357743
20
31.9556660025792
30
0
41
1
10
64.0238910536757
20
31.8681142101815
30
0
0
SPLINE
5
213
100
AcDbEntity
8
1
62
256
6
ByLayer
370
13
48
1
60
0
100
AcDbSpline
70
4
71
2
72
6
73
3
40
0
40
0
40
0
40
1
40
1
40
1
41
1
10
63.6522783035128
20
31.6673585583832
30
0
41
0.999533107184472
10
63.5741769618959
20
31.6359933157897
30
0
41
1
10
63.4979577447373
20
31.5994230366013
30
0
0
SPLINE
5
214
100
AcDbEntity
8
1
62
256
6
ByLayer
370
13
48
1
60
0
100
AcDbSpline
70
4
71
2
72
6
73
3
40
0
40
0
40
0
40
1
40
1
40
1
41
0.984520332975227
10
63.355149839664
20
32.5180483237182
30
0
41
0.991255660364938
10
63.3790014139171
20
32.5180483237181
30
0
41
1
10
63.3991138396654
20
32.5180483237181
30
0
0
SPLINE
5
215
100
AcDbEntity
8
1
62
256
6
ByLayer
370
13
48
1
60
0
100
AcDbSpline
70
4
71
2
72
6
73
3
40
0
40
0
40
0
40
1
40
1
40
1
41
1
10
63.6522783035128
20
31.6673585583832
30
0
41
1
10
63.7706753905943
20
31.6673585583832
30
0
41
1
10
63.8890724776759
20
31.6673585583832
30
0
0
SPLINE
5
216
100
AcDbEntity
8
1
62
256
6
ByLayer
370
13
48
1
60
0
100
AcDbSpline
70
4
71
2
72
6
73
3
40
0
40
0
40
0
40
1
40
1
40
1
41
0.984615849039635
10
63.3554898396563
20
31.4819516762821
30
0
41
0.99131759822407
10
63.3791451218724
20
31.4819516762822
30
0
41
1
10
63.3991138396654
20
31.4819516762821
30
0
0
SPLINE
5
217
100
AcDbEntity
8
1
62
256
6
ByLayer
370
13
48
1
60
0
100
AcDbSpline
70
4
71
2
72
6
73
3
40
0
40
0
40
0
40
1
40
1
40
1
41
1
10
63.7860245871508
20
31.8681142101815
30
0
41
0.819152044288999
10
63.7860245871509
20
31.7210706271575
30
0
41
1
10
63.6607948109093
20
31.6707787598165
30
0
0
SPLINE
5
218
100
AcDbEntity
8
1
62
256
6
ByLayer
370
13
48
1
60
0
100
AcDbSpline
70
4
71
2
72
6
73
3
40
0
40
0
40
0
40
1
40
1
40
1
41
1
10
63.7860245871508
20
31.8681142101815
30
0
41
1
10
63.9049578204133
20
31.8681142101815
30
0
41
1
10
64.0238910536757
20
31.8681142101815
30
0
0
SPLINE
5
219
100
AcDbEntity
8
1
62
256
6
ByLayer
370
13
48
1
60
0
100
AcDbSpline
70
4
71
2
72
6
73
3
40
0
40
0
40
0
40
1
40
1
40
1
41
1
10
63.7860245871508
20
32.1318857898188
30
0
41
1
10
63.9049579291079
20
32.1318857898188
30
0
41
1
10
64.023891271065
20
32.1318857898188
30
0
0
SPLINE
5
21A
100
AcDbEntity
8
1
62
256
6
ByLayer
370
13
48
1
60
0
100
AcDbSpline
70
4
71
2
72
6
73
3
40
0
40
0
40
0
40
1
40
1
40
1
41
1
10
63.7860245871508
20
32.1318857898188
30
0
41
0.819152044288999
10
63.7860245871509
20
32.2789293728428
30
0
41
1
10
63.6607948109093
20
32.3292212401838
30
0
0
SPLINE
5
21B
100
AcDbEntity
8
1
62
256
6
ByLayer
370
13
48
1
60
0
100
AcDbSpline
70
4
71
3
72
10
73
6
40
0
40
0
40
0
40
0
40
0.0277062621811719
40
0.0277062621811719
40
1
40
1
40
1
40
1
41
1
10
66.9737540913005
20
30.7218724220836
30
0
41
1
10
66.982957552434
20
30.7203505368207
30
0
41
1
10
66.9921671033025
20
30.7188650111381
30
0
41
1
10
67.3247369993411
20
30.6665996969339
30
0
41
1
10
67.6493640632668
20
30.6241783646182
30
0
41
1
10
67.9737540913005
20
30.5804558793503
30
0
0
SPLINE
5
21C
100
AcDbEntity
8
1
62
256
6
ByLayer
370
13
48
1
60
0
100
AcDbSpline
70
4
71
2
72
6
73
3
40
0
40
0
40
0
40
1
40
1
40
1
41
1
10
63.6607948109093
20
32.3292212401838
30
0
41
1
10
63.656536557211
20
32.3309313409004
30
0
41
1
10
63.6522783035128
20
32.3326414416171
30
0
0
SPLINE
5
21D
100
AcDbEntity
8
1
62
256
6
ByLayer
370
13
48
1
60
0
100
AcDbSpline
70
4
71
2
72
6
73
3
40
0
40
0
40
0
40
1
40
1
40
1
41
1
10
63.6607948109093
20
31.6707787598165
30
0
41
1
10
63.656536557211
20
31.6690686590999
30
0
41
1
10
63.6522783035128
20
31.6673585583832
30
0
0
SPLINE
5
21E
100
AcDbEntity
8
1
62
256
6
ByLayer
370
13
48
1
60
0
100
AcDbSpline
70
4
71
3
72
10
73
6
40
0
40
0
40
0
40
0
40
0.0277062621811719
40
0.0277062621811719
40
1
40
1
40
1
40
1
41
1
10
66.9737540913005
20
33.2781275779167
30
0
41
1
10
66.982957552434
20
33.2796494631796
30
0
41
1
10
66.9921671033025
20
33.2811349888622
30
0
41
1
10
67.3247369993411
20
33.3334003030664
30
0
41
1
10
67.6493640632668
20
33.375821635382
30
0
41
1
10
67.9737540913005
20
33.41954412065
30
0
0
SPLINE
5
21F
100
AcDbEntity
8
1
62
256
6
ByLayer
370
13
48
1
60
0
100
AcDbSpline
70
4
71
2
72
6
73
3
40
0
40
0
40
0
40
1
40
1
40
1
41
1
10
63.7860245871508
20
32.0000000000001
30
0
41
1
10
63.7860245871508
20
32.0659428949094
30
0
41
1
10
63.7860245871508
20
32.1318857898188
30
0
0
SPLINE
5
220
100
AcDbEntity
8
1
62
256
6
ByLayer
370
13
48
1
60
0
100
AcDbSpline
70
4
71
3
72
10
73
6
40
0
40
0
40
0
40
0
40
0.931419946954144
40
0.931419946954144
40
1
40
1
40
1
40
1
41
1
10
68.5195
20
30.5225720876025
30
0
41
1
10
68.7152925310123
20
30.5229277431518
30
0
41
1
10
68.9085438810412
20
30.5285477962601
30
0
41
1
10
69.1077128398513
20
30.5304660954794
30
0
41
1
10
69.1213934636665
20
30.5305943914458
30
0
41
1
10
69.1350345308899
20
30.5307193644864
30
0
0
SPLINE
5
221
100
AcDbEntity
8
1
62
256
6
ByLayer
370
13
48
1
60
0
100
AcDbSpline
70
4
71
3
72
10
73
6
40
0
40
0
40
0
40
0
40
0.903960670209891
40
0.903960670209891
40
1
40
1
40
1
40
1
41
1
10
66.2235765839736
20
33.1704246005474
30
0
41
1
10
66.4442936078568
20
33.2022992743826
30
0
41
1
10
66.6730936844327
20
33.2336279590552
30
0
41
1
10
66.9250664073007
20
33.2708918117997
30
0
41
1
10
66.9494118712316
20
33.2745048691437
30
0
41
1
10
66.9737540913005
20
33.2781275779167
30
0
0
SPLINE
5
222
100
AcDbEntity
8
1
62
256
6
ByLayer
370
13
48
1
60
0
100
AcDbSpline
70
4
71
2
72
6
73
3
40
0
40
0
40
0
40
1
40
1
40
1
41
1
10
63.7860245871508
20
32.0000000000001
30
0
41
1
10
63.7860245871508
20
31.9340571050908
30
0
41
1
10
63.7860245871508
20
31.8681142101815
30
0
0
SPLINE
5
223
100
AcDbEntity
8
1
62
256
6
ByLayer
370
13
48
1
60
0
100
AcDbSpline
70
4
71
3
72
10
73
6
40
0
40
0
40
0
40
0
40
0.903960670209891
40
0.903960670209891
40
1
40
1
40
1
40
1
41
1
10
66.2235765839736
20
30.8295753994529
30
0
41
1
10
66.4442936078568
20
30.7977007256177
30
0
41
1
10
66.6730936844327
20
30.766372040945
30
0
41
1
10
66.9250664073007
20
30.7291081882006
30
0
41
1
10
66.9494118712316
20
30.7254951308566
30
0
41
1
10
66.9737540913005
20
30.7218724220836
30
0
0
SPLINE
5
224
100
AcDbEntity
8
1
62
256
6
ByLayer
370
13
48
1
60
0
100
AcDbSpline
70
4
71
3
72
10
73
6
40
0
40
0
40
0
40
0
40
0.931419946954144
40
0.931419946954144
40
1
40
1
40
1
40
1
41
1
10
68.5195
20
33.4774279123978
30
0
41
1
10
68.7152925310123
20
33.4770722568485
30
0
41
1
10
68.9085438810412
20
33.4714522037402
30
0
41
1
10
69.1077128398513
20
33.4695339045209
30
0
41
1
10
69.1213934636665
20
33.4694056085545
30
0
41
1
10
69.1350345308899
20
33.4692806355138
30
0
0
SPLINE
5
225
100
AcDbEntity
8
1
62
256
6
ByLayer
370
13
48
1
60
0
100
AcDbSpline
70
4
71
3
72
14
73
10
40
0
40
0
40
0
40
0
40
0.0002001723396691
40
0.0002001723396691
40
0.544817124375757
40
0.544817124375757
40
0.999799827660401
40
0.999799827660401
40
1
40
1
40
1
40
1
41
1
10
68.2235765839736
20
30.5469452886511
30
0
41
1
10
68.223596334694
20
30.5469425758903
30
0
41
1
10
68.2236160854019
20
30.5469398631496
30
0
41
1
10
68.277364212869
20
30.5395574926334
30
0
41
1
10
68.331027796825
20
30.5318903733606
30
0
41
1
10
68.429715913931
20
30.5241844611167
30
0
41
1
10
68.474691741791
20
30.5224922685872
30
0
41
1
10
68.5194606247576
20
30.5225720165154
30
0
41
1
10
68.5194803123958
20
30.5225720522168
30
0
41
1
10
68.5195
20
30.5225720876025
30
0
0
SPLINE
5
226
100
AcDbEntity
8
1
62
256
6
ByLayer
370
13
48
1
60
0
100
AcDbSpline
70
4
71
3
72
14
73
10
40
0
40
0
40
0
40
0
40
0.0002001723396691
40
0.0002001723396691
40
0.544817124375757
40
0.544817124375757
40
0.999799827660401
40
0.999799827660401
40
1
40
1
40
1
40
1
41
1
10
68.2235765839736
20
33.4530547113491
30
0
41
1
10
68.2235963346731
20
33.4530574241899
30
0
41
1
10
68.2236160854019
20
33.4530601368507
30
0
41
1
10
68.277364212869
20
33.4604425073668
30
0
41
1
10
68.331027796825
20
33.4681096266397
30
0
41
1
10
68.429715913931
20
33.4758155388836
30
0
41
1
10
68.474691741791
20
33.4775077314131
30
0
41
1
10
68.5194606247576
20
33.4774279834849
30
0
41
1
10
68.5194803124042
20
33.4774279480597
30
0
41
1
10
68.5195
20
33.4774279123978
30
0
0
SPLINE
5
227
100
AcDbEntity
8
1
62
256
6
ByLayer
370
13
48
1
60
0
100
AcDbSpline
70
4
71
3
72
12
73
8
40
0
40
0
40
0
40
0
40
0.540730446954289
40
0.540730446954289
40
0.953322112631191
40
0.953322112631191
40
1
40
1
40
1
40
1
41
1
10
67.9737540913005
20
30.5804558793503
30
0
41
1
10
68.0188962912315
20
30.5749602630597
30
0
41
1
10
68.0639474368249
20
30.5686562768344
30
0
41
1
10
68.1433231581352
20
30.5578856976987
30
0
41
1
10
68.1776596889686
20
30.5532345734811
30
0
41
1
10
68.2158206583502
20
30.5480096053195
30
0
41
1
10
68.2196989730812
20
30.5474778382105
30
0
41
1
10
68.2235765839736
20
30.5469452886511
30
0
0
SPLINE
5
228
100
AcDbEntity
8
1
62
256
6
ByLayer
370
13
48
1
60
0
100
AcDbSpline
70
4
71
3
72
8
73
4
40
0
40
0
40
0
40
0
40
1
40
1
40
1
40
1
41
1
10
68.2235765839736
20
32.0000000000001
30
0
41
1
10
68.3222177226491
20
32.0000000000001
30
0
41
1
10
68.4208588613245
20
32.0000000000001
30
0
41
1
10
68.5195
20
32.0000000000001
30
0
0
SPLINE
5
229
100
AcDbEntity
8
1
62
256
6
ByLayer
370
13
48
1
60
0
100
AcDbSpline
70
4
71
3
72
12
73
8
40
0
40
0
40
0
40
0
40
0.540730446954289
40
0.540730446954289
40
0.953322112631191
40
0.953322112631191
40
1
40
1
40
1
40
1
41
1
10
67.9737540913005
20
33.41954412065
30
0
41
1
10
68.0188962912315
20
33.4250397369406
30
0
41
1
10
68.0639474368249
20
33.4313437231659
30
0
41
1
10
68.1433231581352
20
33.4421143023016
30
0
41
1
10
68.1776596889686
20
33.4467654265192
30
0
41
1
10
68.2158206583502
20
33.4519903946808
30
0
41
1
10
68.2196989730812
20
33.4525221617898
30
0
41
1
10
68.2235765839736
20
33.4530547113491
30
0
0
SPLINE
5
22A
100
AcDbEntity
8
1
62
256
6
ByLayer
370
13
48
1
60
0
100
AcDbSpline
70
4
71
2
72
6
73
3
40
0
40
0
40
0
40
1
40
1
40
1
41
0.97845918323457
10
63.4228227447382
20
31.5994230366013
30
0
41
0.987014312543432
10
63.4649130452325
20
31.5994230366013
30
0
41
1
10
63.4979577447373
20
31.5994230366013
30
0
0
SPLINE
5
22B
100
AcDbEntity
8
1
62
256
6
ByLayer
370
13
48
1
60
0
100
AcDbSpline
70
4
71
2
72
6
73
3
40
0
40
0
40
0
40
1
40
1
40
1
41
0.978473292197287
10
63.4228927447377
20
32.4005769633989
30
0
41
0.987025018137124
10
63.4649406458918
20
32.400576963399
30
0
41
1
10
63.4979577447373
20
32.400576963399
30
0
0
SPLINE
5
22C
100
AcDbEntity
8
1
62
256
6
ByLayer
370
13
48
1
60
0
100
AcDbSpline
70
4
71
2
72
6
73
3
40
0
40
0
40
0
40
1
40
1
40
1
41
0.979173538619888
10
63.5703153035145
20
32.3326414416171
30
0
41
0.987550728839666
10
63.6160552618077
20
32.3326414416171
30
0
41
1
10
63.6522783035128
20
32.3326414416171
30
0
0
SPLINE
5
22D
100
AcDbEntity
8
1
62
256
6
ByLayer
370
13
48
1
60
0
100
AcDbSpline
70
4
71
2
72
6
73
3
40
0
40
0
40
0
40
1
40
1
40
1
41
0.979173538619888
10
63.5703153035145
20
31.6673585583832
30
0
41
0.987550728839666
10
63.6160552618077
20
31.6673585583832
30
0
41
1
10
63.6522783035128
20
31.6673585583832
30
0
0
SPLINE
5
22E
100
AcDbEntity
8
1
62
256
6
ByLayer
370
13
48
1
60
0
100
AcDbSpline
70
4
71
2
72
6
73
3
40
0
40
0
40
0
40
1
40
1
40
1
41
0.979922636450843
10
63.6996225871486
20
31.8681142101816
30
0
41
0.988101422224327
10
63.747647565993
20
31.8681142101816
30
0
41
1
10
63.7860245871508
20
31.8681142101815
30
0
0
SPLINE
5
22F
100
AcDbEntity
8
1
62
256
6
ByLayer
370
18
48
1
60
0
100
AcDbSpline
70
4
71
3
72
8
73
4
40
0
40
0
40
0
40
0
40
1
40
1
40
1
40
1
41
1
10
68.8014946002937
20
34.9679122772211
30
0
41
1
10
68.5842191907709
20
34.9478834204719
30
0
41
1
10
68.3597522052211
20
34.9296885041685
30
0
41
1
10
68.1364283337292
20
34.9140193618495
30
0
0
SPLINE
5
230
100
AcDbEntity
8
1
62
256
6
ByLayer
370
18
48
1
60
0
100
AcDbSpline
70
4
71
3
72
19
73
15
40
0
40
0
40
0
40
0
40
0.0166430003797407
40
0.0368403354334367
40
0.0469390029602847
40
0.0519883367237087
40
0.0570376704871327
40
0.0595623373688446
40
0.0772350055408286
40
0.0974323405945246
40
0.178221680809309
40
0.501379041668444
40
0.82453640252758
40
1
40
1
40
1
40
1
41
1
10
56.4
20
34.7000000000001
30
0
41
1
10
56.413703294188
20
34.7000000000001
30
0
41
1
10
56.4433761745528
20
34.7000000000001
30
0
41
1
10
56.4790805301287
20
34.7000000000001
30
0
41
1
10
56.5046313295098
20
34.7000000000001
30
0
41
1
10
56.5186702687498
20
34.7000000000001
30
0
41
1
10
56.5273753782801
20
34.7000000000001
30
0
41
1
10
56.5448680838167
20
34.7000000000001
30
0
41
1
10
56.5728494664458
20
34.7000000000001
30
0
41
1
10
56.6550447779184
20
34.7000000000001
30
0
41
1
10
56.9488492955231
20
34.7000000000001
30
0
41
1
10
57.4525141828452
20
34.7000000000001
30
0
41
1
10
58.0217599156206
20
34.7000000000001
30
0
41
1
10
58.3671545873638
20
34.7000000000001
30
0
41
1
10
58.488698198075
20
34.7000000000001
30
0
0
SPLINE
5
231
100
AcDbEntity
8
1
62
256
6
ByLayer
370
18
48
1
60
0
100
AcDbSpline
70
4
71
3
72
16
73
12
40
0
40
0
40
0
40
0
40
0.210113811526245
40
0.210113811526245
40
0.420118783208566
40
0.420118783208566
40
0.631580723999394
40
0.631580723999394
40
0.841940850168462
40
0.841940850168462
40
1
40
1
40
1
40
1
41
1
10
70.0042883949487
20
34.6036710939698
30
0
41
1
10
70.0044811057617
20
34.6495888604172
30
0
41
1
10
69.9967828860954
20
34.6961185955739
30
0
41
1
10
69.9671175295509
20
34.7826794987036
30
0
41
1
10
69.9447524466944
20
34.8239131656702
30
0
41
1
10
69.8884452222279
20
34.8958084250029
30
0
41
1
10
69.8536337555001
20
34.9273981047966
30
0
41
1
10
69.7767933730099
20
34.9760520573876
30
0
41
1
10
69.7337115713391
20
34.9938682406813
30
0
41
1
10
69.6560754222231
20
35.0108768631272
30
0
41
1
10
69.6213698383446
20
35.0137417321624
30
0
41
1
10
69.5871670660913
20
35.0119260461185
30
0
0
SPLINE
5
232
100
AcDbEntity
8
1
62
256
6
ByLayer
370
18
48
1
60
0
100
AcDbSpline
70
4
71
3
72
16
73
12
40
0
40
0
40
0
40
0
40
0.203997306331301
40
0.203997306331301
40
0.407770646706819
40
0.407770646706819
40
0.614879615558065
40
0.614879615558065
40
0.825469896972415
40
0.825469896972415
40
1
40
1
40
1
40
1
41
1
10
69.5871670660913
20
28.9880739538817
30
0
41
1
10
69.6310543430127
20
28.9857441568811
30
0
41
1
10
69.6758963449
20
28.9911987704095
30
0
41
1
10
69.7599887275445
20
29.0164394184638
30
0
41
1
10
69.800396894831
20
29.0365415405629
30
0
41
1
10
69.8721906259509
20
29.0886536605208
30
0
41
1
10
69.9044027145378
20
29.1215561703916
30
0
41
1
10
69.9562418734156
20
29.1958554975387
30
0
41
1
10
69.9763687602264
20
29.2384140780283
30
0
41
1
10
69.9991626476429
20
29.3193629343563
30
0
41
1
10
70.0044491523363
20
29.3580247752815
30
0
41
1
10
70.0042883949487
20
29.3963289060305
30
0
0
SPLINE
5
233
100
AcDbEntity
8
1
62
256
6
ByLayer
370
18
48
1
60
0
100
AcDbSpline
70
4
71
3
72
8
73
4
40
0
40
0
40
0
40
0
40
1
40
1
40
1
40
1
41
1
10
70.0002757795249
20
33.6479232162764
30
0
41
1
10
70.0002814186846
20
33.6493021499695
30
0
41
1
10
70.0002875522354
20
33.6506809535239
30
0
41
1
10
70.0002941807427
20
33.6520595908736
30
0
0
SPLINE
5
234
100
AcDbEntity
8
1
62
256
6
ByLayer
370
18
48
1
60
0
100
AcDbSpline
70
4
71
3
72
8
73
4
40
0
40
0
40
0
40
0
40
1
40
1
40
1
40
1
41
1
10
66.0716378217011
20
34.8212669740683
30
0
41
1
10
66.0430480905263
20
34.8210043534103
30
0
41
1
10
66.0145834853096
20
34.8177887659086
30
0
41
1
10
65.9868975798565
20
34.8116455319236
30
0
0
SPLINE
5
235
100
AcDbEntity
8
1
62
256
6
ByLayer
370
18
48
1
60
0
100
AcDbSpline
70
4
71
3
72
8
73
4
40
0
40
0
40
0
40
0
40
1
40
1
40
1
40
1
41
1
10
70.0002941807468
20
30.3479404091262
30
0
41
1
10
70.0002875522404
20
30.3493190464756
30
0
41
1
10
70.0002814186851
20
30.3506978500291
30
0
41
1
10
70.0002757795255
20
30.3520767837216
30
0
0
SPLINE
5
236
100
AcDbEntity
8
1
62
256
6
ByLayer
370
18
48
1
60
0
100
AcDbSpline
70
4
71
3
72
10
73
6
40
0
40
0
40
0
40
0
40
0.858584777727605
40
0.858584777727605
40
1
40
1
40
1
40
1
41
1
10
65.9868975798573
20
29.1883544680616
30
0
41
1
10
65.9625920283412
20
29.1937476342827
30
0
41
1
10
65.9359654859782
20
29.2028031919576
30
0
41
1
10
65.9061021283406
20
29.2175932623656
30
0
41
1
10
65.9018325632762
20
29.2198176195025
30
0
41
1
10
65.8975914368446
20
29.2221399413374
30
0
0
SPLINE
5
237
100
AcDbEntity
8
1
62
256
6
ByLayer
370
18
48
1
60
0
100
AcDbSpline
70
4
71
3
72
8
73
4
40
0
40
0
40
0
40
0
40
1
40
1
40
1
40
1
41
1
10
68.1364283337291
20
29.0859806381507
30
0
41
1
10
68.359752205221
20
29.0703114958317
30
0
41
1
10
68.5842191907708
20
29.0521165795284
30
0
41
1
10
68.8014946002937
20
29.0320877227792
30
0
0
SPLINE
5
238
100
AcDbEntity
8
1
62
256
6
ByLayer
370
18
48
1
60
0
100
AcDbSpline
70
4
71
3
72
14
73
10
40
0
40
0
40
0
40
0
40
0.293378665300578
40
0.293378665300578
40
0.586642161239459
40
0.586642161239459
40
0.825678920142814
40
0.825678920142814
40
1
40
1
40
1
40
1
41
1
10
67.9364283337291
20
34.8999866995872
30
0
41
1
10
67.7447161209203
20
34.8865355359175
30
0
41
1
10
67.552201562555
20
34.8745642602153
30
0
41
1
10
67.17353071936
20
34.854088273426
30
0
41
1
10
66.9860785946322
20
34.8455123765387
30
0
41
1
10
66.6560337849082
20
34.8332819351382
30
0
41
1
10
66.5107699212903
20
34.8289815140383
30
0
41
1
10
66.2682871535137
20
34.8237163119727
30
0
41
1
10
66.1684041313844
20
34.8221558537773
30
0
41
1
10
66.0716378217011
20
34.8212669740683
30
0
0
SPLINE
5
239
100
AcDbEntity
8
1
62
256
6
ByLayer
370
18
48
1
60
0
100
AcDbSpline
70
4
71
3
72
8
73
4
40
0
40
0
40
0
40
0
40
1
40
1
40
1
40
1
41
1
10
65.9868975798565
20
29.1883544680767
30
0
41
1
10
66.0145834853096
20
29.1822112340917
30
0
41
1
10
66.0430480905264
20
29.17899564659
30
0
41
1
10
66.0716378217012
20
29.178733025932
30
0
0
SPLINE
5
23A
100
AcDbEntity
8
1
62
256
6
ByLayer
370
18
48
1
60
0
100
AcDbSpline
70
4
71
3
72
8
73
4
40
0
40
0
40
0
40
0
40
1
40
1
40
1
40
1
41
1
10
65.8152478209054
20
34.7315215285373
30
0
41
1
10
65.8427018986566
20
34.7473721477173
30
0
41
1
10
65.8705227095991
20
34.763037983127
30
0
41
1
10
65.8975914368446
20
34.7778600586629
30
0
0
SPLINE
5
23B
100
AcDbEntity
8
1
62
256
6
ByLayer
370
18
48
1
60
0
100
AcDbSpline
70
4
71
2
72
6
73
3
40
0
40
0
40
0
40
1
40
1
40
1
41
1
10
63.0376938966108
20
34.7000000000001
30
0
41
1
10
63.0729846280613
20
34.7000000000001
30
0
41
1
10
63.1503724427435
20
34.7000000000001
30
0
0
SPLINE
5
23C
100
AcDbEntity
8
1
62
256
6
ByLayer
370
18
48
1
60
0
100
AcDbSpline
70
4
71
3
72
10
73
6
40
0
40
0
40
0
40
0
40
0.557511536136653
40
0.557511536136653
40
1
40
1
40
1
40
1
41
1
10
65.8975914368447
20
29.2221399413374
30
0
41
1
10
65.8825230005822
20
29.2303909942393
30
0
41
1
10
65.867243242515
20
29.2388909530148
30
0
41
1
10
65.8397304309046
20
29.2544214069375
30
0
41
1
10
65.8274642960357
20
29.261425286258
30
0
41
1
10
65.8152478209054
20
29.268478471463
30
0
0
SPLINE
5
23D
100
AcDbEntity
8
1
62
256
6
ByLayer
370
18
48
1
60
0
100
AcDbSpline
70
4
71
3
72
8
73
4
40
0
40
0
40
0
40
0
40
1
40
1
40
1
40
1
41
1
10
70.0003004601807
20
33.6534542670476
30
0
41
1
10
70.0002985088423
20
33.6529893159499
30
0
41
1
10
70.0002964155792
20
33.652524403498
30
0
41
1
10
70.0002941804908
20
33.6520595384191
30
0
0
SPLINE
5
23E
100
AcDbEntity
8
1
62
256
6
ByLayer
370
18
48
1
60
0
100
AcDbSpline
70
4
71
3
72
10
73
6
40
0
40
0
40
0
40
0
40
0.858760852437928
40
0.858760852437928
40
1
40
1
40
1
40
1
41
1
10
65.8975914368446
20
34.7778600586629
30
0
41
1
10
65.9229199764033
20
34.7917292562483
30
0
41
1
10
65.949684435411
20
34.8021072763607
30
0
41
1
10
65.978710044546
20
34.8097461943844
30
0
41
1
10
65.9828306919772
20
34.8107431289346
30
0
41
1
10
65.9868975798598
20
34.8116455319243
30
0
0
SPLINE
5
23F
100
AcDbEntity
8
1
62
256
6
ByLayer
370
18
48
1
60
0
100
AcDbSpline
70
4
71
3
72
12
73
8
40
0
40
0
40
0
40
0
40
0.223236979427623
40
0.223236979427623
40
0.515421340440797
40
0.515421340440797
40
1
40
1
40
1
40
1
41
1
10
66.0716378217012
20
29.178733025932
30
0
41
1
10
66.195705883471
20
29.1775933567331
30
0
41
1
10
66.3249600298712
20
29.1753474111036
30
0
41
1
10
66.6317292652914
20
29.1676712679333
30
0
41
1
10
66.8129003102596
20
29.1614405327142
30
0
41
1
10
67.3021442687769
20
29.1403068273394
30
0
41
1
10
67.6209419682615
20
29.1221488684888
30
0
41
1
10
67.9364283337283
20
29.1000133004138
30
0
0
SPLINE
5
240
100
AcDbEntity
8
1
62
256
6
ByLayer
370
18
48
1
60
0
100
AcDbSpline
70
4
71
3
72
8
73
4
40
0
40
0
40
0
40
0
40
1
40
1
40
1
40
1
41
1
10
70.0002941804908
20
30.3479404615903
30
0
41
1
10
70.0002964155792
20
30.3474755965084
30
0
41
1
10
70.0002985088422
20
30.3470106840535
30
0
41
1
10
70.0003004601807
20
30.3465457329528
30
0
0
SPLINE
5
241
100
AcDbEntity
8
1
62
256
6
ByLayer
370
18
48
1
60
0
100
AcDbSpline
70
4
71
2
72
18
73
15
40
0
40
0
40
0
40
0.5
40
0.5
40
0.625
40
0.625
40
0.640625
40
0.65625
40
0.65625
40
0.6875
40
0.70625
40
0.725
40
0.75
40
0.75
40
1
40
1
40
1
41
1
10
61.3010967041404
20
34.7000000000001
30
0
41
1
10
62.0251406825698
20
34.7000000000001
30
0
41
1
10
62.3691031598679
20
34.7000000000001
30
0
41
1
10
62.5611877091429
20
34.7000000000001
30
0
41
1
10
62.6324496873755
20
34.7000000000001
30
0
41
1
10
62.6540643372522
20
34.7000000000001
30
0
41
1
10
62.6736231655389
20
34.7000000000001
30
0
41
1
10
62.6905116303654
20
34.7000000000001
30
0
41
1
10
62.7152543178377
20
34.7000000000001
30
0
41
1
10
62.7463298668175
20
34.7000000000001
30
0
41
1
10
62.7637529454272
20
34.7000000000001
30
0
41
1
10
62.7843349647746
20
34.7000000000001
30
0
41
1
10
62.7968714379784
20
34.7000000000001
30
0
41
1
10
62.8152816599139
20
34.7000000000001
30
0
41
1
10
63.0377029396166
20
34.7000000000001
30
0
0
SPLINE
5
242
100
AcDbEntity
8
1
62
256
6
ByLayer
370
18
48
1
60
0
100
AcDbSpline
70
4
71
2
72
6
73
3
40
0
40
0
40
0
40
1
40
1
40
1
41
1
10
63.1503724427435
20
29.3000000000002
30
0
41
1
10
63.0729846280613
20
29.3000000000002
30
0
41
1
10
63.0376938966108
20
29.3000000000002
30
0
0
LINE
5
70
100
AcDbEntity
8
1
62
256
6
ByLayer
370
13
48
1
60
0
100
AcDbLine
10
0.3
20
25
30
0
11
0
21
24.7
31
0
39
0
210
0
220
0
230
1
0
LINE
5
72
100
AcDbEntity
8
1
62
256
6
ByLayer
370
13
48
1
60
0
100
AcDbLine
10
0
20
-24.7
30
0
11
0.3
21
-25
31
0
39
0
210
0
220
0
230
1
0
LINE
5
73
100
AcDbEntity
8
1
62
256
6
ByLayer
370
13
48
1
60
0
100
AcDbLine
10
0.3
20
-25
30
0
11
20.037742
21
-25
31
0
39
0
210
0
220
0
230
1
0
LINE
5
74
100
AcDbEntity
8
1
62
256
6
ByLayer
370
13
48
1
60
0
100
AcDbLine
10
20.279208
20
25
30
0
11
0.3
21
25
31
0
39
0
210
0
220
0
230
1
0
LINE
5
75
100
AcDbEntity
8
1
62
256
6
ByLayer
370
13
48
1
60
0
100
AcDbLine
10
23.792408
20
34.675
30
0
11
21.438319
21
25.889417
31
0
39
0
210
0
220
0
230
1
0
LINE
5
76
100
AcDbEntity
8
80
62
256
6
ByLayer
370
18
48
1
60
0
100
AcDbLine
10
0
20
0
30
0
11
-5
21
0
31
0
39
0
210
0
220
0
230
1
0
LINE
5
77
100
AcDbEntity
8
81
62
256
6
ByLayer
370
18
48
1
60
0
100
AcDbLine
10
70
20
35
30
0
11
75
21
35
31
0
39
0
210
0
220
0
230
1
0
LINE
5
78
100
AcDbEntity
8
SK1
62
256
6
ByLayer
370
13
48
1
60
0
100
AcDbLine
10
-1.315435
20
-3.910269
30
0
11
-1.315435
21
3.910272
31
0
39
0
210
0
220
0
230
1
0
LINE
5
7A
100
AcDbEntity
8
SK1
62
256
6
ByLayer
370
13
48
1
60
0
100
AcDbLine
10
-0.194977
20
17.369987
30
0
11
-0.194977
21
17.365289
31
0
39
0
210
0
220
0
230
1
0
LINE
5
7B
100
AcDbEntity
8
SK1
62
256
6
ByLayer
370
13
48
1
60
0
100
AcDbLine
10
-1.79504
20
17.330272
30
0
11
-1.79504
21
17.325755
31
0
39
0
210
0
220
0
230
1
0
LINE
5
7C
100
AcDbEntity
8
SK1
62
256
6
ByLayer
370
13
48
1
60
0
100
AcDbLine
10
-1.79504
20
-17.325755
30
0
11
-1.79504
21
-17.330272
31
0
39
0
210
0
220
0
230
1
0
LINE
5
7D
100
AcDbEntity
8
SK1
62
256
6
ByLayer
370
13
48
1
60
0
100
AcDbLine
10
-0.194977
20
-17.36529
30
0
11
-0.194977
21
-17.369987
31
0
39
0
210
0
220
0
230
1
0
LINE
5
7E
100
AcDbEntity
8
1
62
256
6
ByLayer
370
13
48
1
60
0
100
AcDbLine
10
44.4
20
34.675
30
0
11
53.389175
21
34.675
31
0
39
0
210
0
220
0
230
1
0
LINE
5
7F
100
AcDbEntity
8
1
62
256
6
ByLayer
370
13
48
1
60
0
100
AcDbLine
10
20.083931
20
-19.707334
30
0
11
20.037742
21
-25
31
0
39
0
210
0
220
0
230
1
0
LINE
5
80
100
AcDbEntity
8
1
62
256
6
ByLayer
370
13
48
1
60
0
100
AcDbLine
10
11.894338
20
-23.666502
30
0
11
11.894338
21
-8.055848
31
0
39
0
210
0
220
0
230
1
0
LINE
5
81
100
AcDbEntity
8
1
62
256
6
ByLayer
370
13
48
1
60
0
100
AcDbLine
10
11.461325
20
7.529667
30
0
11
8.538675
21
7.529667
31
0
39
0
210
0
220
0
230
1
0
LINE
5
82
100
AcDbEntity
8
1
62
256
6
ByLayer
370
13
48
1
60
0
100
AcDbLine
10
11.461325
20
-23.83913
30
0
11
11.461325
21
-7.529667
31
0
39
0
210
0
220
0
230
1
0
LINE
5
83
100
AcDbEntity
8
1
62
256
6
ByLayer
370
13
48
1
60
0
100
AcDbLine
10
38.016593
20
34.675
30
0
11
38.016593
21
29.325
31
0
39
0
210
0
220
0
230
1
0
LINE
5
84
100
AcDbEntity
8
1
62
256
6
ByLayer
370
13
48
1
60
0
100
AcDbLine
10
38.016593
20
34.675
30
0
11
44.4
21
34.675
31
0
39
0
210
0
220
0
230
1
0
LINE
5
85
100
AcDbEntity
8
1
62
256
6
ByLayer
370
13
48
1
60
0
100
AcDbLine
10
24.129527
20
33.935421
30
0
11
23.743557
21
33.935421
31
0
39
0
210
0
220
0
230
1
0
LINE
5
86
100
AcDbEntity
8
1
62
256
6
ByLayer
370
13
48
1
60
0
100
AcDbLine
10
8.105662
20
-23.666502
30
0
11
8.105662
21
-8.055848
31
0
39
0
210
0
220
0
230
1
0
LINE
5
87
100
AcDbEntity
8
1
62
256
6
ByLayer
370
13
48
1
60
0
100
AcDbLine
10
44.4
20
29.325
30
0
11
38.016593
21
29.325
31
0
39
0
210
0
220
0
230
1
0
LINE
5
88
100
AcDbEntity
8
1
62
256
6
ByLayer
370
13
48
1
60
0
100
AcDbLine
10
11.894338
20
8.055848
30
0
11
11.894338
21
23.666502
31
0
39
0
210
0
220
0
230
1
0
LINE
5
89
100
AcDbEntity
8
1
62
256
6
ByLayer
370
13
48
1
60
0
100
AcDbLine
10
44.4
20
29.325
30
0
11
44.4
21
34.675
31
0
39
0
210
0
220
0
230
1
0
LINE
5
8A
100
AcDbEntity
8
1
62
256
6
ByLayer
370
13
48
1
60
0
100
AcDbLine
10
20.129679
20
22.851156
30
0
11
20.129679
21
-14.465094
31
0
39
0
210
0
220
0
230
1
0
LINE
5
8B
100
AcDbEntity
8
1
62
256
6
ByLayer
370
13
48
1
60
0
100
AcDbLine
10
36.4
20
27.725
30
0
11
36.4
21
0
31
0
39
0
210
0
220
0
230
1
0
LINE
5
8C
100
AcDbEntity
8
1
62
256
6
ByLayer
370
13
48
1
60
0
100
AcDbLine
10
0
20
24.7
30
0
11
0
21
-24.7
31
0
39
0
210
0
220
0
230
1
0
LINE
5
8D
100
AcDbEntity
8
1
62
256
6
ByLayer
370
13
48
1
60
0
100
AcDbLine
10
24.129527
20
-10.5
30
0
11
34.548567
21
-10.5
31
0
39
0
210
0
220
0
230
1
0
LINE
5
8E
100
AcDbEntity
8
1
62
256
6
ByLayer
370
13
48
1
60
0
100
AcDbLine
10
20.279208
20
25
30
0
11
20.279208
21
23.288426
31
0
39
0
210
0
220
0
230
1
0
LINE
5
8F
100
AcDbEntity
8
1
62
256
6
ByLayer
370
13
48
1
60
0
100
AcDbLine
10
58.389175
20
29.325
30
0
11
58.389175
21
34.675
31
0
39
0
210
0
220
0
230
1
0
LINE
5
90
100
AcDbEntity
8
1
62
256
6
ByLayer
370
13
48
1
60
0
100
AcDbLine
10
20.083931
20
-19.707334
30
0
11
20.129679
21
-14.465094
31
0
39
0
210
0
220
0
230
1
0
LINE
5
91
100
AcDbEntity
8
1
62
256
6
ByLayer
370
13
48
1
60
0
100
AcDbLine
10
8.538675
20
7.529667
30
0
11
8.538675
21
23.83913
31
0
39
0
210
0
220
0
230
1
0
LINE
5
92
100
AcDbEntity
8
1
62
256
6
ByLayer
370
13
48
1
60
0
100
AcDbLine
10
8.538675
20
23.83913
30
0
11
11.461325
21
23.83913
31
0
39
0
210
0
220
0
230
1
0
LINE
5
93
100
AcDbEntity
8
1
62
256
6
ByLayer
370
13
48
1
60
0
100
AcDbLine
10
63.277268
20
31.135007
30
0
11
62.727778
21
29.325
31
0
39
0
210
0
220
0
230
1
0
LINE
5
94
100
AcDbEntity
8
1
62
256
6
ByLayer
370
13
48
1
60
0
100
AcDbLine
10
21.438319
20
25.889417
30
0
11
21.438319
21
24.863492
31
0
39
0
210
0
220
0
230
1
0
LINE
5
95
100
AcDbEntity
8
1
62
256
6
ByLayer
370
13
48
1
60
0
100
AcDbLine
10
58.389175
20
29.325
30
0
11
62.727778
21
29.325
31
0
39
0
210
0
220
0
230
1
0
LINE
5
96
100
AcDbEntity
8
1
62
256
6
ByLayer
370
13
48
1
60
0
100
AcDbLine
10
34.548567
20
-10.5
30
0
11
36.4
21
0
31
0
39
0
210
0
220
0
230
1
0
LINE
5
97
100
AcDbEntity
8
1
62
256
6
ByLayer
370
13
48
1
60
0
100
AcDbLine
10
38.016593
20
34.675
30
0
11
23.938592
21
34.675
31
0
39
0
210
0
220
0
230
1
0
LINE
5
98
100
AcDbEntity
8
1
62
256
6
ByLayer
370
13
48
1
60
0
100
AcDbLine
10
0.3
20
25
30
0
11
0.3
21
-25
31
0
39
0
210
0
220
0
230
1
0
LINE
5
99
100
AcDbEntity
8
1
62
256
6
ByLayer
370
13
48
1
60
0
100
AcDbLine
10
8.538675
20
-23.83913
30
0
11
8.538675
21
-7.529667
31
0
39
0
210
0
220
0
230
1
0
LINE
5
9A
100
AcDbEntity
8
1
62
256
6
ByLayer
370
13
48
1
60
0
100
AcDbLine
10
11.461325
20
7.529667
30
0
11
11.461325
21
23.83913
31
0
39
0
210
0
220
0
230
1
0
LINE
5
9B
100
AcDbEntity
8
1
62
256
6
ByLayer
370
13
48
1
60
0
100
AcDbLine
10
11.461325
20
-23.83913
30
0
11
8.538675
21
-23.83913
31
0
39
0
210
0
220
0
230
1
0
LINE
5
9C
100
AcDbEntity
8
1
62
256
6
ByLayer
370
13
48
1
60
0
100
AcDbLine
10
8.538675
20
-7.529667
30
0
11
11.461325
21
-7.529667
31
0
39
0
210
0
220
0
230
1
0
LINE
5
9D
100
AcDbEntity
8
1
62
256
6
ByLayer
370
13
48
1
60
0
100
AcDbLine
10
38.016593
20
29.325
30
0
11
38
21
29.325
31
0
39
0
210
0
220
0
230
1
0
LINE
5
9E
100
AcDbEntity
8
1
62
256
6
ByLayer
370
13
48
1
60
0
100
AcDbLine
10
24.129527
20
-10.5
30
0
11
24.129527
21
33.935421
31
0
39
0
210
0
220
0
230
1
0
LINE
5
9F
100
AcDbEntity
8
1
62
256
6
ByLayer
370
13
48
1
60
0
100
AcDbLine
10
62.727778
20
34.675
30
0
11
63.277268
21
32.864993
31
0
39
0
210
0
220
0
230
1
0
LINE
5
A0
100
AcDbEntity
8
1
62
256
6
ByLayer
370
13
48
1
60
0
100
AcDbLine
10
53.389175
20
29.325
30
0
11
44.4
21
29.325
31
0
39
0
210
0
220
0
230
1
0
LINE
5
A1
100
AcDbEntity
8
1
62
256
6
ByLayer
370
13
48
1
60
0
100
AcDbLine
10
53.389175
20
34.675
30
0
11
53.389175
21
29.325
31
0
39
0
210
0
220
0
230
1
0
LINE
5
A2
100
AcDbEntity
8
1
62
256
6
ByLayer
370
13
48
1
60
0
100
AcDbLine
10
53.389175
20
29.325
30
0
11
58.389175
21
29.325
31
0
39
0
210
0
220
0
230
1
0
LINE
5
A3
100
AcDbEntity
8
1
62
256
6
ByLayer
370
13
48
1
60
0
100
AcDbLine
10
58.389175
20
34.675
30
0
11
62.727778
21
34.675
31
0
39
0
210
0
220
0
230
1
0
LINE
5
A4
100
AcDbEntity
8
1
62
256
6
ByLayer
370
13
48
1
60
0
100
AcDbLine
10
53.389175
20
34.675
30
0
11
58.389175
21
34.675
31
0
39
0
210
0
220
0
230
1
0
LINE
5
A5
100
AcDbEntity
8
1
62
256
6
ByLayer
370
13
48
1
60
0
100
AcDbLine
10
8.105662
20
8.055848
30
0
11
8.105662
21
23.666502
31
0
39
0
210
0
220
0
230
1
0
LINE
5
A6
100
AcDbEntity
8
1
62
256
6
ByLayer
370
13
48
1
60
0
100
AcDbLine
10
58.561716
20
29.3
30
0
11
58.561716
21
29.325
31
0
39
0
210
0
220
0
230
1
0
LINE
5
A7
100
AcDbEntity
8
1
62
256
6
ByLayer
370
13
48
1
60
0
100
AcDbLine
10
58.561716
20
34.675
30
0
11
58.561716
21
34.7
31
0
39
0
210
0
220
0
230
1
0
LINE
5
A8
100
AcDbEntity
8
1
62
256
6
ByLayer
370
13
48
1
60
0
100
AcDbLine
10
58.488698
20
34.7
30
0
11
58.488698
21
34.674999
31
0
39
0
210
0
220
0
230
1
0
LINE
5
A9
100
AcDbEntity
8
1
62
256
6
ByLayer
370
13
48
1
60
0
100
AcDbLine
10
58.488698
20
29.325001
30
0
11
58.488698
21
29.3
31
0
39
0
210
0
220
0
230
1
0
LINE
5
AA
100
AcDbEntity
8
1
62
256
6
ByLayer
370
13
48
1
60
0
100
AcDbLine
10
63.946601
20
29.3
30
0
11
63.946601
21
30.625278
31
0
39
0
210
0
220
0
230
1
0
LINE
5
AB
100
AcDbEntity
8
1
62
256
6
ByLayer
370
13
48
1
60
0
100
AcDbLine
10
63.946601
20
33.374718
30
0
11
63.946601
21
34.7
31
0
39
0
210
0
220
0
230
1
0
LINE
5
AC
100
AcDbEntity
8
1
62
256
6
ByLayer
370
13
48
1
60
0
100
AcDbLine
10
67.936428
20
29.730194
30
0
11
67.936428
21
29.100013
31
0
39
0
210
0
220
0
230
1
0
LINE
5
AD
100
AcDbEntity
8
1
62
256
6
ByLayer
370
13
48
1
60
0
100
AcDbLine
10
65.789628
20
34.233555
30
0
11
65.893329
21
34.013473
31
0
39
0
210
0
220
0
230
1
0
LINE
5
AE
100
AcDbEntity
8
1
62
256
6
ByLayer
370
13
48
1
60
0
100
AcDbLine
10
65.789628
20
29.766445
30
0
11
65.893329
21
29.986527
31
0
39
0
210
0
220
0
230
1
0
LINE
5
AF
100
AcDbEntity
8
1
62
256
6
ByLayer
370
13
48
1
60
0
100
AcDbLine
10
67.936428
20
34.269806
30
0
11
67.936428
21
34.899987
31
0
39
0
210
0
220
0
230
1
0
LINE
5
B0
100
AcDbEntity
8
1
62
256
6
ByLayer
370
13
48
1
60
0
100
AcDbLine
10
63.946601
20
30.625278
30
0
11
63.942054
21
30.79906
31
0
39
0
210
0
220
0
230
1
0
LINE
5
B1
100
AcDbEntity
8
1
62
256
6
ByLayer
370
13
48
1
60
0
100
AcDbLine
10
64.541174
20
30.648198
30
0
11
64.531942
21
30.829893
31
0
39
0
210
0
220
0
230
1
0
LINE
5
B2
100
AcDbEntity
8
1
62
256
6
ByLayer
370
13
48
1
60
0
100
AcDbLine
10
63.942053
20
33.200936
30
0
11
63.946601
21
33.374718
31
0
39
0
210
0
220
0
230
1
0
LINE
5
B3
100
AcDbEntity
8
1
62
256
6
ByLayer
370
13
48
1
60
0
100
AcDbLine
10
64.531936
20
33.170101
30
0
11
64.541168
21
33.351796
31
0
39
0
210
0
220
0
230
1
0
LINE
5
B4
100
AcDbEntity
8
1
62
256
6
ByLayer
370
13
48
1
60
0
100
AcDbLine
10
63.037703
20
29.440846
30
0
11
63.037703
21
29.3
31
0
39
0
210
0
220
0
230
1
0
LINE
5
B5
100
AcDbEntity
8
1
62
256
6
ByLayer
370
13
48
1
60
0
100
AcDbLine
10
63.037703
20
34.7
30
0
11
63.037703
21
34.559154
31
0
39
0
210
0
220
0
230
1
0
LINE
5
B6
100
AcDbEntity
8
1
62
256
6
ByLayer
370
13
48
1
60
0
100
AcDbLine
10
65.789628
20
29.766445
30
0
11
65.959047
21
29.775085
31
0
39
0
210
0
220
0
230
1
0
LINE
5
B7
100
AcDbEntity
8
1
62
256
6
ByLayer
370
13
48
1
60
0
100
AcDbLine
10
65.789628
20
34.233555
30
0
11
65.959047
21
34.224915
31
0
39
0
210
0
220
0
230
1
0
LINE
5
B8
100
AcDbEntity
8
1
62
256
6
ByLayer
370
13
48
1
60
0
100
AcDbLine
10
63.946601
20
30.625278
30
0
11
63.878197
21
30.625278
31
0
39
0
210
0
220
0
230
1
0
LINE
5
B9
100
AcDbEntity
8
1
62
256
6
ByLayer
370
13
48
1
60
0
100
AcDbLine
10
63.878197
20
30.625278
30
0
11
63.878197
21
29.3
31
0
39
0
210
0
220
0
230
1
0
LINE
5
BA
100
AcDbEntity
8
1
62
256
6
ByLayer
370
13
48
1
60
0
100
AcDbLine
10
63.878197
20
33.374718
30
0
11
63.946601
21
33.374718
31
0
39
0
210
0
220
0
230
1
0
LINE
5
BB
100
AcDbEntity
8
1
62
256
6
ByLayer
370
13
48
1
60
0
100
AcDbLine
10
63.878197
20
34.7
30
0
11
63.878197
21
33.374718
31
0
39
0
210
0
220
0
230
1
0
LINE
5
BC
100
AcDbEntity
8
1
62
256
6
ByLayer
370
13
48
1
60
0
100
AcDbLine
10
63.15056
20
29.3
30
0
11
63.15056
21
29.416083
31
0
39
0
210
0
220
0
230
1
0
LINE
5
BD
100
AcDbEntity
8
1
62
256
6
ByLayer
370
13
48
1
60
0
100
AcDbLine
10
63.15056
20
29.416083
30
0
11
63.726163
21
30.656387
31
0
39
0
210
0
220
0
230
1
0
LINE
5
BE
100
AcDbEntity
8
1
62
256
6
ByLayer
370
13
48
1
60
0
100
AcDbLine
10
63.726164
20
33.343611
30
0
11
63.15056
21
34.583917
31
0
39
0
210
0
220
0
230
1
0
LINE
5
BF
100
AcDbEntity
8
1
62
256
6
ByLayer
370
13
48
1
60
0
100
AcDbLine
10
63.15056
20
34.583917
30
0
11
63.15056
21
34.7
31
0
39
0
210
0
220
0
230
1
0
LINE
5
C0
100
AcDbEntity
8
1
62
256
6
ByLayer
370
13
48
1
60
0
100
AcDbLine
10
63.036692
20
34.541995
30
0
11
63.623441
21
33.277673
31
0
39
0
210
0
220
0
230
1
0
LINE
5
C1
100
AcDbEntity
8
1
62
256
6
ByLayer
370
13
48
1
60
0
100
AcDbLine
10
63.62344
20
30.722325
30
0
11
63.036692
21
29.458005
31
0
39
0
210
0
220
0
230
1
0
LINE
5
C2
100
AcDbEntity
8
1
62
256
6
ByLayer
370
13
48
1
60
0
100
AcDbLine
10
63.399114
20
32.518048
30
0
11
63.623982
21
32.518048
31
0
39
0
210
0
220
0
230
1
0
LINE
5
C3
100
AcDbEntity
8
1
62
256
6
ByLayer
370
13
48
1
60
0
100
AcDbLine
10
63.399114
20
31.481952
30
0
11
63.623981
21
31.481952
31
0
39
0
210
0
220
0
230
1
0
LINE
5
C4
100
AcDbEntity
8
1
62
256
6
ByLayer
370
13
48
1
60
0
100
AcDbLine
10
68.920026
20
34.27366
30
0
11
68.920026
21
34.97651
31
0
39
0
210
0
220
0
230
1
0
LINE
5
C5
100
AcDbEntity
8
1
62
256
6
ByLayer
370
13
48
1
60
0
100
AcDbLine
10
68.920026
20
29.72634
30
0
11
68.920026
21
29.02349
31
0
39
0
210
0
220
0
230
1
0
LINE
5
C6
100
AcDbEntity
8
1
62
256
6
ByLayer
370
13
48
1
60
0
100
AcDbLine
10
68.801495
20
34.967912
30
0
11
68.801495
21
34.313124
31
0
39
0
210
0
220
0
230
1
0
LINE
5
C7
100
AcDbEntity
8
1
62
256
6
ByLayer
370
13
48
1
60
0
100
AcDbLine
10
68.801495
20
29.032088
30
0
11
68.801495
21
29.686876
31
0
39
0
210
0
220
0
230
1
0
LINE
5
C8
100
AcDbEntity
8
1
62
256
6
ByLayer
370
13
48
1
60
0
100
AcDbLine
10
68.136428
20
34.290986
30
0
11
68.136428
21
34.914019
31
0
39
0
210
0
220
0
230
1
0
LINE
5
C9
100
AcDbEntity
8
1
62
256
6
ByLayer
370
13
48
1
60
0
100
AcDbLine
10
68.136428
20
29.709014
30
0
11
68.136428
21
29.085981
31
0
39
0
210
0
220
0
230
1
0
LINE
5
CA
100
AcDbEntity
8
1
62
256
6
ByLayer
370
13
48
1
60
0
100
AcDbLine
10
66.223577
20
30.829575
30
0
11
66.223577
21
32
31
0
39
0
210
0
220
0
230
1
0
LINE
5
CB
100
AcDbEntity
8
1
62
256
6
ByLayer
370
13
48
1
60
0
100
AcDbLine
10
65.253025
20
31.03172
30
0
11
65.253025
21
31.332494
31
0
39
0
210
0
220
0
230
1
0
LINE
5
CC
100
AcDbEntity
8
1
62
256
6
ByLayer
370
13
48
1
60
0
100
AcDbLine
10
65.253025
20
32.96828
30
0
11
65.253025
21
32.667501
31
0
39
0
210
0
220
0
230
1
0
LINE
5
CD
100
AcDbEntity
8
1
62
256
6
ByLayer
370
13
48
1
60
0
100
AcDbLine
10
66.223577
20
33.170425
30
0
11
66.223577
21
32
31
0
39
0
210
0
220
0
230
1
0
LINE
5
CE
100
AcDbEntity
8
1
62
256
6
ByLayer
370
13
48
1
60
0
100
AcDbLine
10
69.942913
20
33.503126
30
0
11
69.942913
21
30.496874
31
0
39
0
210
0
220
0
230
1
0
LINE
5
CF
100
AcDbEntity
8
1
62
256
6
ByLayer
370
13
48
1
60
0
100
AcDbLine
10
69.135035
20
33.469281
30
0
11
69.135035
21
30.530719
31
0
39
0
210
0
220
0
230
1
0
LINE
5
D0
100
AcDbEntity
8
1
62
256
6
ByLayer
370
13
48
1
60
0
100
AcDbLine
10
69.997739
20
30.425013
30
0
11
69.997739
21
33.574987
31
0
39
0
210
0
220
0
230
1
0
LINE
5
D1
100
AcDbEntity
8
1
62
256
6
ByLayer
370
13
48
1
60
0
100
AcDbLine
10
69.997739
20
33.574987
30
0
11
69.972244
21
33.574987
31
0
39
0
210
0
220
0
230
1
0
LINE
5
D2
100
AcDbEntity
8
1
62
256
6
ByLayer
370
13
48
1
60
0
100
AcDbLine
10
69.997739
20
30.425013
30
0
11
69.972244
21
30.425013
31
0
39
0
210
0
220
0
230
1
0
LINE
5
D3
100
AcDbEntity
8
1
62
256
6
ByLayer
370
13
48
1
60
0
100
AcDbLine
10
69.998246
20
30.411265
30
0
11
70.000163
21
30.379406
31
0
39
0
210
0
220
0
230
1
0
LINE
5
D4
100
AcDbEntity
8
1
62
256
6
ByLayer
370
13
48
1
60
0
100
AcDbLine
10
70.000029
20
30.411265
30
0
11
69.998246
21
30.411265
31
0
39
0
210
0
220
0
230
1
0
LINE
5
D5
100
AcDbEntity
8
1
62
256
6
ByLayer
370
13
48
1
60
0
100
AcDbLine
10
69.998246
20
33.588735
30
0
11
70.000163
21
33.620594
31
0
39
0
210
0
220
0
230
1
0
LINE
5
D6
100
AcDbEntity
8
1
62
256
6
ByLayer
370
13
48
1
60
0
100
AcDbLine
10
70.000029
20
33.588735
30
0
11
69.998246
21
33.588735
31
0
39
0
210
0
220
0
230
1
0
LINE
5
D7
100
AcDbEntity
8
1
62
256
6
ByLayer
370
13
48
1
60
0
100
AcDbLine
10
69.997739
20
30.425013
30
0
11
70
21
30.425013
31
0
39
0
210
0
220
0
230
1
0
LINE
5
D8
100
AcDbEntity
8
1
62
256
6
ByLayer
370
13
48
1
60
0
100
AcDbLine
10
69.997739
20
33.574987
30
0
11
70
21
33.574987
31
0
39
0
210
0
220
0
230
1
0
LINE
5
D9
100
AcDbEntity
8
1
62
256
6
ByLayer
370
13
48
1
60
0
100
AcDbLine
10
63.660795
20
31.670779
30
0
11
63.898381
21
31.670779
31
0
39
0
210
0
220
0
230
1
0
LINE
5
DA
100
AcDbEntity
8
1
62
256
6
ByLayer
370
13
48
1
60
0
100
AcDbLine
10
66.935756
20
30.492083
30
0
11
66.973754
21
30.721872
31
0
39
0
210
0
220
0
230
1
0
LINE
5
DB
100
AcDbEntity
8
1
62
256
6
ByLayer
370
13
48
1
60
0
100
AcDbLine
10
67.942862
20
30.351258
30
0
11
67.973754
21
30.580456
31
0
39
0
210
0
220
0
230
1
0
LINE
5
DC
100
AcDbEntity
8
1
62
256
6
ByLayer
370
13
48
1
60
0
100
AcDbLine
10
63.660795
20
32.329221
30
0
11
63.898381
21
32.329221
31
0
39
0
210
0
220
0
230
1
0
LINE
5
DD
100
AcDbEntity
8
1
62
256
6
ByLayer
370
13
48
1
60
0
100
AcDbLine
10
66.935756
20
33.507917
30
0
11
66.973754
21
33.278128
31
0
39
0
210
0
220
0
230
1
0
LINE
5
DE
100
AcDbEntity
8
1
62
256
6
ByLayer
370
13
48
1
60
0
100
AcDbLine
10
67.942862
20
33.648742
30
0
11
67.973754
21
33.419544
31
0
39
0
210
0
220
0
230
1
0
LINE
5
DF
100
AcDbEntity
8
1
62
256
6
ByLayer
370
13
48
1
60
0
100
AcDbLine
10
66.973754
20
33.278128
30
0
11
66.973754
21
30.721872
31
0
39
0
210
0
220
0
230
1
0
LINE
5
E0
100
AcDbEntity
8
1
62
256
6
ByLayer
370
13
48
1
60
0
100
AcDbLine
10
67.973754
20
33.419544
30
0
11
67.973754
21
30.580456
31
0
39
0
210
0
220
0
230
1
0
LINE
5
E1
100
AcDbEntity
8
1
62
256
6
ByLayer
370
13
48
1
60
0
100
AcDbLine
10
68.5195
20
30.522572
30
0
11
68.5195
21
32
31
0
39
0
210
0
220
0
230
1
0
LINE
5
E2
100
AcDbEntity
8
1
62
256
6
ByLayer
370
13
48
1
60
0
100
AcDbLine
10
68.5195
20
33.477428
30
0
11
68.5195
21
32
31
0
39
0
210
0
220
0
230
1
0
LINE
5
E3
100
AcDbEntity
8
1
62
256
6
ByLayer
370
13
48
1
60
0
100
AcDbLine
10
68.223577
20
30.546945
30
0
11
68.223577
21
32
31
0
39
0
210
0
220
0
230
1
0
LINE
5
E4
100
AcDbEntity
8
1
62
256
6
ByLayer
370
13
48
1
60
0
100
AcDbLine
10
68.223577
20
33.453055
30
0
11
68.223577
21
32
31
0
39
0
210
0
220
0
230
1
0
LINE
5
E5
100
AcDbEntity
8
1
62
256
6
ByLayer
370
18
48
1
60
0
100
AcDbLine
10
70
20
30.425013
30
0
11
70
21
33.574987
31
0
39
0
210
0
220
0
230
1
0
LINE
5
E6
100
AcDbEntity
8
1
62
256
6
ByLayer
370
18
48
1
60
0
100
AcDbLine
10
61.301097
20
29.3
30
0
11
58.561716
21
29.3
31
0
39
0
210
0
220
0
230
1
0
LINE
5
E7
100
AcDbEntity
8
1
62
256
6
ByLayer
370
18
48
1
60
0
100
AcDbLine
10
65.815248
20
29.268478
30
0
11
65.808442
21
29.272408
31
0
39
0
210
0
220
0
230
1
0
LINE
5
E8
100
AcDbEntity
8
1
62
256
6
ByLayer
370
18
48
1
60
0
100
AcDbLine
10
63.878197
20
29.3
30
0
11
63.15056
21
29.3
31
0
39
0
210
0
220
0
230
1
0
LINE
5
E9
100
AcDbEntity
8
1
62
256
6
ByLayer
370
18
48
1
60
0
100
AcDbLine
10
68.920026
20
29.02349
30
0
11
69.587167
21
28.988074
31
0
39
0
210
0
220
0
230
1
0
LINE
5
EA
100
AcDbEntity
8
1
62
256
6
ByLayer
370
18
48
1
60
0
100
AcDbLine
10
69.587167
20
35.011926
30
0
11
68.920026
21
34.97651
31
0
39
0
210
0
220
0
230
1
0
LINE
5
EB
100
AcDbEntity
8
1
62
256
6
ByLayer
370
18
48
1
60
0
100
AcDbLine
10
70.000029
20
33.588735
30
0
11
70.000163
21
33.620594
31
0
39
0
210
0
220
0
230
1
0
LINE
5
EC
100
AcDbEntity
8
1
62
256
6
ByLayer
370
18
48
1
60
0
100
AcDbLine
10
63.150184
20
34.7
30
0
11
63.878197
21
34.7
31
0
39
0
210
0
220
0
230
1
0
LINE
5
ED
100
AcDbEntity
8
1
62
256
6
ByLayer
370
18
48
1
60
0
100
AcDbLine
10
70.000163
20
30.379406
30
0
11
70.000029
21
30.411265
31
0
39
0
210
0
220
0
230
1
0
LINE
5
EE
100
AcDbEntity
8
1
62
256
6
ByLayer
370
18
48
1
60
0
100
AcDbLine
10
63.946601
20
29.3
30
0
11
65.705211
21
29.3
31
0
39
0
210
0
220
0
230
1
0
LINE
5
EF
100
AcDbEntity
8
1
62
256
6
ByLayer
370
18
48
1
60
0
100
AcDbLine
10
68.136428
20
34.914019
30
0
11
67.936428
21
34.899987
31
0
39
0
210
0
220
0
230
1
0
LINE
5
F0
100
AcDbEntity
8
1
62
256
6
ByLayer
370
18
48
1
60
0
100
AcDbLine
10
67.936428
20
29.100013
30
0
11
68.136428
21
29.085981
31
0
39
0
210
0
220
0
230
1
0
LINE
5
F1
100
AcDbEntity
8
1
62
256
6
ByLayer
370
18
48
1
60
0
100
AcDbLine
10
58.561716
20
34.7
30
0
11
58.488698
21
34.7
31
0
39
0
210
0
220
0
230
1
0
LINE
5
F2
100
AcDbEntity
8
1
62
256
6
ByLayer
370
18
48
1
60
0
100
AcDbLine
10
63.946601
20
34.7
30
0
11
63.878197
21
34.7
31
0
39
0
210
0
220
0
230
1
0
LINE
5
F3
100
AcDbEntity
8
1
62
256
6
ByLayer
370
18
48
1
60
0
100
AcDbLine
10
70.0003
20
33.653454
30
0
11
70.004288
21
34.603671
31
0
39
0
210
0
220
0
230
1
0
LINE
5
F4
100
AcDbEntity
8
1
62
256
6
ByLayer
370
18
48
1
60
0
100
AcDbLine
10
58.561716
20
34.7
30
0
11
61.301097
21
34.7
31
0
39
0
210
0
220
0
230
1
0
LINE
5
F5
100
AcDbEntity
8
1
62
256
6
ByLayer
370
18
48
1
60
0
100
AcDbLine
10
65.705211
20
34.7
30
0
11
63.946601
21
34.7
31
0
39
0
210
0
220
0
230
1
0
LINE
5
F6
100
AcDbEntity
8
1
62
256
6
ByLayer
370
18
48
1
60
0
100
AcDbLine
10
63.878197
20
29.3
30
0
11
63.946601
21
29.3
31
0
39
0
210
0
220
0
230
1
0
LINE
5
F7
100
AcDbEntity
8
1
62
256
6
ByLayer
370
18
48
1
60
0
100
AcDbLine
10
58.488698
20
29.3
30
0
11
58.561716
21
29.3
31
0
39
0
210
0
220
0
230
1
0
LINE
5
F8
100
AcDbEntity
8
1
62
256
6
ByLayer
370
18
48
1
60
0
100
AcDbLine
10
65.808442
20
34.727592
30
0
11
65.815248
21
34.731522
31
0
39
0
210
0
220
0
230
1
0
LINE
5
F9
100
AcDbEntity
8
1
62
256
6
ByLayer
370
18
48
1
60
0
100
AcDbLine
10
70.004288
20
29.396329
30
0
11
70.0003
21
30.346546
31
0
39
0
210
0
220
0
230
1
0
MTEXT
5
243
100
AcDbEntity
8
SK6
62
256
6
ByLayer
370
18
48
1
60
0
100
AcDbMText
10
-11.625
20
-45.868769
30
0
210
0
220
0
230
1
1
\W0.7800;C5-QD-RFK32C35070A
40
3.5
41
0
44
1.084337
50
0
71
7
72
5
7
iso_b_vert
0
DIMENSION
5
255
100
AcDbEntity
8
2
62
256
6
ByLayer
370
13
48
1
60
0
100
AcDbDimension
2
DimnDraft3D1
10
95.1
20
35
30
0
11
95.1
21
15.409211
31
0
70
32
71
5
72
1
41
1
210
0
220
0
230
1
3
Standard
100
AcDbAlignedDimension
13
40
23
0
33
0
14
72
24
35
34
0
50
90
100
AcDbRotatedDimension
1001
ACAD
1000
DSTYLE
1002
{
1070
    74
1070
     0
1070
   279
1070
     0
1070
   172
1070
     1
1070
   173
1070
     1
1070
   340
1005
244
1070
   271
1070
     1
1070
    77
1070
     1
1070
    73
1070
     0
1070
   171
1070
     3
1070
   274
1070
     4
1070
   177
1070
     2
1070
   176
1070
     2
1070
   178
1070
     7
1070
    78
1070
     8
1070
    41
1041
3.175
1070
   147
1041
1.75
1070
    42
1041
2.0
1070
    44
1041
2.0
1070
   140
1041
3.5
1070
   343
1005
256
1070
   344
1005
256
1002
}
0
DIMENSION
5
26B
100
AcDbEntity
8
SK2
62
256
6
ByLayer
370
13
48
1
60
0
100
AcDbDimension
2
DimnDraft3D2
10
70
20
57.612462
30
0
11
32.909211
21
57.612462
31
0
70
32
71
5
72
1
41
1
210
0
220
0
230
1
3
Standard
100
AcDbAlignedDimension
13
0
23
2
33
0
14
70
24
37
34
0
50
0
100
AcDbRotatedDimension
1001
ACAD
1000
DSTYLE
1002
{
1070
   279
1070
     0
1070
   172
1070
     1
1070
   173
1070
     1
1070
   340
1005
244
1070
   271
1070
     1
1070
    77
1070
     1
1070
    73
1070
     0
1070
   171
1070
     3
1070
   274
1070
     4
1070
   177
1070
     2
1070
   176
1070
     2
1070
   178
1070
     7
1070
    78
1070
     8
1070
    41
1041
3.175
1070
   147
1041
1.75
1070
    42
1041
2.0
1070
    44
1041
2.0
1070
   140
1041
3.5
1070
   343
1005
256
1070
   344
1005
256
1002
}
0
DIMENSION
5
279
100
AcDbEntity
8
2
62
256
6
ByLayer
370
13
48
1
60
0
100
AcDbDimension
2
DimnDraft3D3
10
38
20
-38.1
30
0
11
51.909211
21
-38.1
31
0
70
32
71
5
72
1
41
1
210
0
220
0
230
1
3
Standard
100
AcDbAlignedDimension
13
70
23
33
33
0
14
38
24
-2
34
0
50
0
100
AcDbRotatedDimension
1001
ACAD
1000
DSTYLE
1002
{
1070
   279
1070
     0
1070
   172
1070
     1
1070
   173
1070
     1
1070
   340
1005
244
1070
   271
1070
     1
1070
    77
1070
     1
1070
    73
1070
     0
1070
   171
1070
     3
1070
   274
1070
     4
1070
   177
1070
     2
1070
   176
1070
     2
1070
   178
1070
     7
1070
    78
1070
     8
1070
    41
1041
3.175
1070
   147
1041
1.75
1070
    42
1041
2.0
1070
    44
1041
2.0
1070
   140
1041
3.5
1070
   343
1005
256
1070
   344
1005
256
1002
}
0
DIMENSION
5
287
100
AcDbEntity
8
SK2
62
256
6
ByLayer
370
13
48
1
60
0
100
AcDbDimension
2
DimnDraft3D4
10
-39.6
20
-25
30
0
11
-39.6
21
-2.090789
31
0
70
32
71
5
72
1
41
1
210
0
220
0
230
1
3
Standard
100
AcDbAlignedDimension
13
-2
23
25
33
0
14
-2
24
-25
34
0
50
90
100
AcDbRotatedDimension
1001
ACAD
1000
DSTYLE
1002
{
1070
    74
1070
     0
1070
   279
1070
     0
1070
   172
1070
     1
1070
   173
1070
     1
1070
   340
1005
244
1070
   271
1070
     1
1070
    77
1070
     1
1070
    73
1070
     0
1070
   171
1070
     3
1070
   274
1070
     4
1070
   177
1070
     2
1070
   176
1070
     2
1070
   178
1070
     7
1070
    78
1070
     8
1070
    41
1041
3.175
1070
   147
1041
1.75
1070
    42
1041
2.0
1070
    44
1041
2.0
1070
   140
1041
3.5
1070
   343
1005
256
1070
   344
1005
256
1002
}
0
DIMENSION
5
295
100
AcDbEntity
8
2
62
256
6
ByLayer
370
13
48
1
60
0
100
AcDbDimension
2
DimnDraft3D5
10
88.1
20
29
30
0
11
88.1
21
31.217105
31
0
70
32
71
5
72
1
41
1
210
0
220
0
230
1
3
Standard
100
AcDbAlignedDimension
13
72
23
35
33
0
14
72
24
29
34
0
50
90
100
AcDbRotatedDimension
1001
ACAD
1000
DSTYLE
1002
{
1070
    74
1070
     0
1070
   279
1070
     0
1070
   172
1070
     1
1070
   173
1070
     1
1070
   340
1005
244
1070
   271
1070
     1
1070
    77
1070
     1
1070
    73
1070
     0
1070
   171
1070
     3
1070
   274
1070
     4
1070
   177
1070
     2
1070
   176
1070
     2
1070
   178
1070
     7
1070
    78
1070
     8
1070
    41
1041
3.175
1070
   147
1041
1.75
1070
    42
1041
2.0
1070
    44
1041
2.0
1070
   140
1041
3.5
1070
   343
1005
256
1070
   344
1005
256
1002
}
0
ENDSEC
0
SECTION
2
OBJECTS
0
DICTIONARY
5
2ff
330
0
100
AcDbDictionary
280
0
281
1
3
ACAD_GROUP
350
300
3
ACAD_MLINESTYLE
350
301
0
DICTIONARY
5
300
330
0
100
AcDbDictionary
280
0
281
1
0
DICTIONARY
5
301
330
0
100
AcDbDictionary
280
0
281
1
3
Standard
350
18
0
MLINESTYLE
5
18
330
301
100
AcDbMlineStyle
2
Standard
70
0
3

62
256
51
90
52
90
71
2
49
-0.5
62
256
6
ByLayer
49
0.5
62
256
6
ByLayer
0
RASTERVARIABLES
5
2ee
330

100
AcDbRasterVariables
90
0
70
1
71
1
72
1
0
ENDSEC
0
EOF
