0
SECTION
2
HEADER
9
$ACADVER
1
AC1015
9
$DWGCODEPAGE
3
ANSI_1252
9
$HANDSEED
5
2f0
9
$ANGBASE
50
0
9
$ANGDIR
70
0
9
$ATTMODE
70
1
9
$AUNITS
70
0
9
$AUPREC
70
0
9
$CECOLOR
62
256
9
$CELTSCALE
40
1
9
$CELTYPE
6
ByLayer
9
$CELWEIGHT
370
18
9
$CLAYER
8
0
9
$CMLJUST
70
0
9
$CMLSCALE
40
1
9
$CMLSTYLE
2
Standard
9
$DIMSTYLE
2
Standard
9
$TEXTSIZE
40
0.2
9
$TEXTSTYLE
7
Standard
9
$LUNITS
70
2
9
$LUPREC
70
4
9
$EXTNAMES
290
1
9
$INSUNITS
70
4
9
$LTSCALE
40
1
9
$LWDISPLAY
290
1
9
$PDMODE
70
0
9
$PDSIZE
40
0
9
$PLINEGEN
70
0
0
ENDSEC
0
SECTION
2
CLASSES
0
CLASS
1
RASTERVARIABLES
2
AcDbRasterVariables
3
ISM
90
0
280
0
281
0
0
ENDSEC
0
SECTION
2
TABLES
0
TABLE
2
VPORT
5
2e6
100
AcDbSymbolTable
0
VPORT
5
1
100
AcDbSymbolTableRecord
100
AcDbViewportTableRecord
2
*Active
70
0
10
0
20
0
11
1
21
1
12
-1
22
1
13
0
23
0
14
0.5
24
0.5
15
10
25
10
16
0
26
0
36
1
17
0
27
0
37
0
0
ENDTAB
0
TABLE
2
LTYPE
5
2e7
100
AcDbSymbolTable
0
LTYPE
5
14
100
AcDbSymbolTableRecord
100
AcDbLinetypeTableRecord
70
0
2
ByBlock
3

72
65
73
0
40
0
0
LTYPE
5
15
100
AcDbSymbolTableRecord
100
AcDbLinetypeTableRecord
70
0
2
ByLayer
3

72
65
73
0
40
0
0
LTYPE
5
16
100
AcDbSymbolTableRecord
100
AcDbLinetypeTableRecord
70
0
2
CONTINUOUS
3
Solid line
72
65
73
0
40
0
0
LTYPE
5
6A
100
AcDbSymbolTableRecord
100
AcDbLinetypeTableRecord
70
0
2
CENTER
3
____ _ ____ _ ____ _ ____
72
65
73
4
40
47.5
49
22
74
0
49
-8.5
74
0
49
8.5
74
0
49
-8.5
74
0
0
LTYPE
5
6B
100
AcDbSymbolTableRecord
100
AcDbLinetypeTableRecord
70
0
2
DASHED
3
__ __ __ __ __ __ __ __ __
72
65
73
2
40
25.72
49
12.86
74
0
49
-12.86
74
0
0
ENDTAB
0
TABLE
2
LAYER
5
2e8
100
AcDbSymbolTable
0
LAYER
5
10
100
AcDbSymbolTableRecord
100
AcDbLayerTableRecord
2
0
70
0
62
7
6
CONTINUOUS
290
1
370
-3
390
0
0
LAYER
5
6D
100
AcDbSymbolTableRecord
100
AcDbLayerTableRecord
2
81
70
0
62
-3
6
CONTINUOUS
290
1
370
-3
390
0
0
LAYER
5
6F
100
AcDbSymbolTableRecord
100
AcDbLayerTableRecord
2
80
70
0
62
-6
6
CONTINUOUS
290
1
370
-3
390
0
0
LAYER
5
71
100
AcDbSymbolTableRecord
100
AcDbLayerTableRecord
2
1
70
0
62
4
6
CONTINUOUS
290
1
370
-3
390
0
0
LAYER
5
22D
100
AcDbSymbolTableRecord
100
AcDbLayerTableRecord
2
2
70
0
62
7
6
CONTINUOUS
290
1
370
-3
390
0
0
LAYER
5
2d3
100
AcDbSymbolTableRecord
100
AcDbLayerTableRecord
2
SK1
70
0
62
4
6
CONTINUOUS
290
1
370
-3
390
0
0
LAYER
5
2d4
100
AcDbSymbolTableRecord
100
AcDbLayerTableRecord
2
SK6
70
0
62
5
6
CONTINUOUS
290
1
370
-3
390
0
0
LAYER
5
2d5
100
AcDbSymbolTableRecord
100
AcDbLayerTableRecord
2
SK2
70
0
62
7
6
CONTINUOUS
290
1
370
-3
390
0
0
ENDTAB
0
TABLE
2
STYLE
5
2e9
100
AcDbSymbolTable
0
STYLE
5
11
100
AcDbSymbolTableRecord
100
AcDbTextStyleTableRecord
2
Standard
3
txt
70
0
71
0
40
0
41
1
42
0
50
0
0
STYLE
5
228
100
AcDbSymbolTableRecord
100
AcDbTextStyleTableRecord
2
iso_b_vert
3
simplex.shx
70
0
71
0
40
0
41
1
42
0
50
0
0
STYLE
5
229
100
AcDbSymbolTableRecord
100
AcDbTextStyleTableRecord
2
DWGDirectTextStyle
3
simplex
70
0
71
0
40
0
41
1
42
0
50
0
0
ENDTAB
0
TABLE
2
DIMSTYLE
5
2ea
100
AcDbSymbolTable
100
AcDbDimStyleTable
0
DIMSTYLE
105
27
100
AcDbSymbolTableRecord
100
AcDbDimStyleTableRecord
2
Standard
70
0
3
<>
41
0.18
42
0.0625
44
0.18
140
0.18
147
0.09
73
0
74
0
77
1
271
2
275
0
278
52
280
0
340
11
0
ENDTAB
0
TABLE
2
VIEW
5
2eb
100
AcDbSymbolTable
0
ENDTAB
0
TABLE
2
UCS
5
2ec
100
AcDbSymbolTable
0
ENDTAB
0
TABLE
2
APPID
5
2ed
100
AcDbSymbolTable
0
APPID
5
12
100
AcDbSymbolTableRecord
100
AcDbRegAppTableRecord
2
ACAD
70
0
0
ENDTAB
0
TABLE
2
BLOCK_RECORD
5
2ee
100
AcDbSymbolTable
0
BLOCK_RECORD
5
1F
100
AcDbSymbolTableRecord
100
AcDbBlockTableRecord
2
*Model_Space
340
0
70
0
0
BLOCK_RECORD
5
1B
100
AcDbSymbolTableRecord
100
AcDbBlockTableRecord
2
*Paper_Space
340
0
70
0
0
BLOCK_RECORD
5
23
100
AcDbSymbolTableRecord
100
AcDbBlockTableRecord
2
*Paper_Space0
340
0
70
0
0
BLOCK_RECORD
5
22B
100
AcDbSymbolTableRecord
100
AcDbBlockTableRecord
2
DimnDraft3D1
340
0
70
0
0
BLOCK_RECORD
5
23A
100
AcDbSymbolTableRecord
100
AcDbBlockTableRecord
2
_CLOSED
340
0
70
0
0
BLOCK_RECORD
5
241
100
AcDbSymbolTableRecord
100
AcDbBlockTableRecord
2
DimnDraft3D2
340
0
70
0
0
BLOCK_RECORD
5
250
100
AcDbSymbolTableRecord
100
AcDbBlockTableRecord
2
DimnDraft3D3
340
0
70
0
0
BLOCK_RECORD
5
25E
100
AcDbSymbolTableRecord
100
AcDbBlockTableRecord
2
DimnDraft3D4
340
0
70
0
0
BLOCK_RECORD
5
26C
100
AcDbSymbolTableRecord
100
AcDbBlockTableRecord
2
DimnDraft3D5
340
0
70
0
0
ENDTAB
0
ENDSEC
0
SECTION
2
BLOCKS
0
BLOCK
5
20
100
AcDbEntity
8
0
100
AcDbBlockBegin
2
*Model_Space
70
0
10
0
20
0
30
0
3
*Model_Space
0
ENDBLK
5
21
100
AcDbEntity
8
0
100
AcDbBlockEnd
0
BLOCK
5
1C
100
AcDbEntity
8
0
100
AcDbBlockBegin
2
*Paper_Space
70
0
10
0
20
0
30
0
3
*Paper_Space
0
ENDBLK
5
1D
100
AcDbEntity
8
0
100
AcDbBlockEnd
0
BLOCK
5
24
100
AcDbEntity
8
0
100
AcDbBlockBegin
2
*Paper_Space0
70
0
10
0
20
0
30
0
3
*Paper_Space0
0
ENDBLK
5
25
100
AcDbEntity
8
0
100
AcDbBlockEnd
0
BLOCK
5
237
100
AcDbEntity
8
0
100
AcDbBlockBegin
2
DimnDraft3D1
70
0
10
0
20
0
30
0
3
DimnDraft3D1
0
MTEXT
5
22C
100
AcDbEntity
8
2
62
256
6
ByLayer
370
18
48
1
60
0
100
AcDbMText
10
94.225
20
16.284211
30
0
210
0
220
0
230
1
1
\W0.6740;35
40
3.5
41
0
44
1.084337
50
90
71
7
72
5
7
iso_b_vert
0
LINE
5
22E
100
AcDbEntity
8
2
62
256
6
ByLayer
370
13
48
1
60
0
100
AcDbLine
10
40
20
0
30
0
11
97.1
21
0
31
0
39
0
210
0
220
0
230
1
0
LINE
5
22F
100
AcDbEntity
8
2
62
256
6
ByLayer
370
13
48
1
60
0
100
AcDbLine
10
72
20
35
30
0
11
97.1
21
35
31
0
39
0
210
0
220
0
230
1
0
LINE
5
230
100
AcDbEntity
8
2
62
256
6
ByLayer
370
13
48
1
60
0
100
AcDbLine
10
95.1
20
0
30
0
11
95.1
21
35
31
0
39
0
210
0
220
0
230
1
0
LINE
5
231
100
AcDbEntity
8
2
62
256
6
ByLayer
370
13
48
1
60
0
100
AcDbLine
10
95.1
20
0
30
0
11
94.682003
21
3.174998
31
0
39
0
210
0
220
0
230
1
0
LINE
5
232
100
AcDbEntity
8
2
62
256
6
ByLayer
370
13
48
1
60
0
100
AcDbLine
10
95.1
20
0
30
0
11
95.517997
21
3.175002
31
0
39
0
210
0
220
0
230
1
0
LINE
5
233
100
AcDbEntity
8
2
62
256
6
ByLayer
370
13
48
1
60
0
100
AcDbLine
10
94.682003
20
3.174998
30
0
11
95.517997
21
3.175002
31
0
39
0
210
0
220
0
230
1
0
LINE
5
234
100
AcDbEntity
8
2
62
256
6
ByLayer
370
13
48
1
60
0
100
AcDbLine
10
95.1
20
35
30
0
11
95.517997
21
31.825002
31
0
39
0
210
0
220
0
230
1
0
LINE
5
235
100
AcDbEntity
8
2
62
256
6
ByLayer
370
13
48
1
60
0
100
AcDbLine
10
95.1
20
35
30
0
11
94.682003
21
31.824998
31
0
39
0
210
0
220
0
230
1
0
LINE
5
236
100
AcDbEntity
8
2
62
256
6
ByLayer
370
13
48
1
60
0
100
AcDbLine
10
95.517997
20
31.825002
30
0
11
94.682003
21
31.824998
31
0
39
0
210
0
220
0
230
1
0
ENDBLK
5
238
100
AcDbEntity
8
0
100
AcDbBlockEnd
0
BLOCK
5
23B
100
AcDbEntity
8
0
100
AcDbBlockBegin
2
_CLOSED
70
0
10
0
20
0
30
0
3
_CLOSED
0
LINE
5
23D
100
AcDbEntity
8
0
62
256
6
ByLayer
370
-2
48
1
60
0
100
AcDbLine
10
-1
20
0.166667
30
0
11
0
21
0
31
0
39
0
210
0
220
0
230
1
0
LINE
5
23E
100
AcDbEntity
8
0
62
256
6
ByLayer
370
-2
48
1
60
0
100
AcDbLine
10
0
20
0
30
0
11
-1
21
-0.166667
31
0
39
0
210
0
220
0
230
1
0
LINE
5
23F
100
AcDbEntity
8
0
62
256
6
ByLayer
370
-2
48
1
60
0
100
AcDbLine
10
-1
20
0.166667
30
0
11
-1
21
-0.166667
31
0
39
0
210
0
220
0
230
1
0
LINE
5
240
100
AcDbEntity
8
0
62
256
6
ByLayer
370
-2
48
1
60
0
100
AcDbLine
10
0
20
0
30
0
11
-1
21
0
31
0
39
0
210
0
220
0
230
1
0
ENDBLK
5
23C
100
AcDbEntity
8
0
100
AcDbBlockEnd
0
BLOCK
5
24D
100
AcDbEntity
8
0
100
AcDbBlockBegin
2
DimnDraft3D2
70
0
10
0
20
0
30
0
3
DimnDraft3D2
0
MTEXT
5
242
100
AcDbEntity
8
SK2
62
256
6
ByLayer
370
18
48
1
60
0
100
AcDbMText
10
33.784211
20
58.489079
30
0
210
0
220
0
230
1
1
\W0.6740;70
40
3.5
41
0
44
1.084337
50
0
71
7
72
5
7
iso_b_vert
0
LINE
5
244
100
AcDbEntity
8
SK2
62
256
6
ByLayer
370
13
48
1
60
0
100
AcDbLine
10
0
20
2
30
0
11
0
21
59.614079
31
0
39
0
210
0
220
0
230
1
0
LINE
5
245
100
AcDbEntity
8
SK2
62
256
6
ByLayer
370
13
48
1
60
0
100
AcDbLine
10
70
20
37
30
0
11
70
21
59.614079
31
0
39
0
210
0
220
0
230
1
0
LINE
5
246
100
AcDbEntity
8
SK2
62
256
6
ByLayer
370
13
48
1
60
0
100
AcDbLine
10
0
20
57.614079
30
0
11
70
21
57.614079
31
0
39
0
210
0
220
0
230
1
0
LINE
5
247
100
AcDbEntity
8
SK2
62
256
6
ByLayer
370
13
48
1
60
0
100
AcDbLine
10
0
20
57.614079
30
0
11
3.174998
21
58.032076
31
0
39
0
210
0
220
0
230
1
0
LINE
5
248
100
AcDbEntity
8
SK2
62
256
6
ByLayer
370
13
48
1
60
0
100
AcDbLine
10
0
20
57.614079
30
0
11
3.175002
21
57.196083
31
0
39
0
210
0
220
0
230
1
0
LINE
5
249
100
AcDbEntity
8
SK2
62
256
6
ByLayer
370
13
48
1
60
0
100
AcDbLine
10
3.174998
20
58.032076
30
0
11
3.175002
21
57.196083
31
0
39
0
210
0
220
0
230
1
0
LINE
5
24A
100
AcDbEntity
8
SK2
62
256
6
ByLayer
370
13
48
1
60
0
100
AcDbLine
10
70
20
57.614079
30
0
11
66.825002
21
57.196083
31
0
39
0
210
0
220
0
230
1
0
LINE
5
24B
100
AcDbEntity
8
SK2
62
256
6
ByLayer
370
13
48
1
60
0
100
AcDbLine
10
70
20
57.614079
30
0
11
66.824998
21
58.032076
31
0
39
0
210
0
220
0
230
1
0
LINE
5
24C
100
AcDbEntity
8
SK2
62
256
6
ByLayer
370
13
48
1
60
0
100
AcDbLine
10
66.825002
20
57.196083
30
0
11
66.824998
21
58.032076
31
0
39
0
210
0
220
0
230
1
0
ENDBLK
5
24E
100
AcDbEntity
8
0
100
AcDbBlockEnd
0
BLOCK
5
25B
100
AcDbEntity
8
0
100
AcDbBlockBegin
2
DimnDraft3D3
70
0
10
0
20
0
30
0
3
DimnDraft3D3
0
MTEXT
5
251
100
AcDbEntity
8
2
62
256
6
ByLayer
370
18
48
1
60
0
100
AcDbMText
10
52.784211
20
-37.225
30
0
210
0
220
0
230
1
1
\W0.6740;32
40
3.5
41
0
44
1.084337
50
0
71
7
72
5
7
iso_b_vert
0
LINE
5
252
100
AcDbEntity
8
2
62
256
6
ByLayer
370
13
48
1
60
0
100
AcDbLine
10
70
20
33
30
0
11
70
21
-40.1
31
0
39
0
210
0
220
0
230
1
0
LINE
5
253
100
AcDbEntity
8
2
62
256
6
ByLayer
370
13
48
1
60
0
100
AcDbLine
10
38
20
-2
30
0
11
38
21
-40.1
31
0
39
0
210
0
220
0
230
1
0
LINE
5
254
100
AcDbEntity
8
2
62
256
6
ByLayer
370
13
48
1
60
0
100
AcDbLine
10
70
20
-38.1
30
0
11
38
21
-38.1
31
0
39
0
210
0
220
0
230
1
0
LINE
5
255
100
AcDbEntity
8
2
62
256
6
ByLayer
370
13
48
1
60
0
100
AcDbLine
10
70
20
-38.1
30
0
11
66.825002
21
-38.517997
31
0
39
0
210
0
220
0
230
1
0
LINE
5
256
100
AcDbEntity
8
2
62
256
6
ByLayer
370
13
48
1
60
0
100
AcDbLine
10
70
20
-38.1
30
0
11
66.824998
21
-37.682003
31
0
39
0
210
0
220
0
230
1
0
LINE
5
257
100
AcDbEntity
8
2
62
256
6
ByLayer
370
13
48
1
60
0
100
AcDbLine
10
66.825002
20
-38.517997
30
0
11
66.824998
21
-37.682003
31
0
39
0
210
0
220
0
230
1
0
LINE
5
258
100
AcDbEntity
8
2
62
256
6
ByLayer
370
13
48
1
60
0
100
AcDbLine
10
38
20
-38.1
30
0
11
41.174998
21
-37.682003
31
0
39
0
210
0
220
0
230
1
0
LINE
5
259
100
AcDbEntity
8
2
62
256
6
ByLayer
370
13
48
1
60
0
100
AcDbLine
10
38
20
-38.1
30
0
11
41.175002
21
-38.517997
31
0
39
0
210
0
220
0
230
1
0
LINE
5
25A
100
AcDbEntity
8
2
62
256
6
ByLayer
370
13
48
1
60
0
100
AcDbLine
10
41.174998
20
-37.682003
30
0
11
41.175002
21
-38.517997
31
0
39
0
210
0
220
0
230
1
0
ENDBLK
5
25C
100
AcDbEntity
8
0
100
AcDbBlockEnd
0
BLOCK
5
269
100
AcDbEntity
8
0
100
AcDbBlockBegin
2
DimnDraft3D4
70
0
10
0
20
0
30
0
3
DimnDraft3D4
0
MTEXT
5
25F
100
AcDbEntity
8
SK2
62
256
6
ByLayer
370
18
48
1
60
0
100
AcDbMText
10
-40.475
20
-1.215789
30
0
210
0
220
0
230
1
1
\W0.6740;50
40
3.5
41
0
44
1.084337
50
90
71
7
72
5
7
iso_b_vert
0
LINE
5
260
100
AcDbEntity
8
SK2
62
256
6
ByLayer
370
13
48
1
60
0
100
AcDbLine
10
-2
20
25
30
0
11
-41.6
21
25
31
0
39
0
210
0
220
0
230
1
0
LINE
5
261
100
AcDbEntity
8
SK2
62
256
6
ByLayer
370
13
48
1
60
0
100
AcDbLine
10
-2
20
-25
30
0
11
-41.6
21
-25
31
0
39
0
210
0
220
0
230
1
0
LINE
5
262
100
AcDbEntity
8
SK2
62
256
6
ByLayer
370
13
48
1
60
0
100
AcDbLine
10
-39.6
20
25
30
0
11
-39.6
21
-25
31
0
39
0
210
0
220
0
230
1
0
LINE
5
263
100
AcDbEntity
8
SK2
62
256
6
ByLayer
370
13
48
1
60
0
100
AcDbLine
10
-39.6
20
25
30
0
11
-39.182003
21
21.825002
31
0
39
0
210
0
220
0
230
1
0
LINE
5
264
100
AcDbEntity
8
SK2
62
256
6
ByLayer
370
13
48
1
60
0
100
AcDbLine
10
-39.6
20
25
30
0
11
-40.017997
21
21.824998
31
0
39
0
210
0
220
0
230
1
0
LINE
5
265
100
AcDbEntity
8
SK2
62
256
6
ByLayer
370
13
48
1
60
0
100
AcDbLine
10
-39.182003
20
21.825002
30
0
11
-40.017997
21
21.824998
31
0
39
0
210
0
220
0
230
1
0
LINE
5
266
100
AcDbEntity
8
SK2
62
256
6
ByLayer
370
13
48
1
60
0
100
AcDbLine
10
-39.6
20
-25
30
0
11
-40.017997
21
-21.825002
31
0
39
0
210
0
220
0
230
1
0
LINE
5
267
100
AcDbEntity
8
SK2
62
256
6
ByLayer
370
13
48
1
60
0
100
AcDbLine
10
-39.6
20
-25
30
0
11
-39.182003
21
-21.824998
31
0
39
0
210
0
220
0
230
1
0
LINE
5
268
100
AcDbEntity
8
SK2
62
256
6
ByLayer
370
13
48
1
60
0
100
AcDbLine
10
-40.017997
20
-21.825002
30
0
11
-39.182003
21
-21.824998
31
0
39
0
210
0
220
0
230
1
0
ENDBLK
5
26A
100
AcDbEntity
8
0
100
AcDbBlockEnd
0
BLOCK
5
277
100
AcDbEntity
8
0
100
AcDbBlockBegin
2
DimnDraft3D5
70
0
10
0
20
0
30
0
3
DimnDraft3D5
0
MTEXT
5
26D
100
AcDbEntity
8
2
62
256
6
ByLayer
370
18
48
1
60
0
100
AcDbMText
10
87.225
20
19.054211
30
0
210
0
220
0
230
1
1
\W0.5404;5
40
3.5
41
0
44
1.084337
50
90
71
7
72
5
7
iso_b_vert
0
LINE
5
26E
100
AcDbEntity
8
2
62
256
6
ByLayer
370
13
48
1
60
0
100
AcDbLine
10
72
20
35
30
0
11
90.1
21
35
31
0
39
0
210
0
220
0
230
1
0
LINE
5
26F
100
AcDbEntity
8
2
62
256
6
ByLayer
370
13
48
1
60
0
100
AcDbLine
10
72
20
30
30
0
11
90.1
21
30
31
0
39
0
210
0
220
0
230
1
0
LINE
5
270
100
AcDbEntity
8
2
62
256
6
ByLayer
370
13
48
1
60
0
100
AcDbLine
10
88.1
20
18.179211
30
0
11
88.1
21
43.75
31
0
39
0
210
0
220
0
230
1
0
LINE
5
271
100
AcDbEntity
8
2
62
256
6
ByLayer
370
13
48
1
60
0
100
AcDbLine
10
88.1
20
35
30
0
11
87.682003
21
38.174998
31
0
39
0
210
0
220
0
230
1
0
LINE
5
272
100
AcDbEntity
8
2
62
256
6
ByLayer
370
13
48
1
60
0
100
AcDbLine
10
88.1
20
35
30
0
11
88.517997
21
38.175002
31
0
39
0
210
0
220
0
230
1
0
LINE
5
273
100
AcDbEntity
8
2
62
256
6
ByLayer
370
13
48
1
60
0
100
AcDbLine
10
87.682003
20
38.174998
30
0
11
88.517997
21
38.175002
31
0
39
0
210
0
220
0
230
1
0
LINE
5
274
100
AcDbEntity
8
2
62
256
6
ByLayer
370
13
48
1
60
0
100
AcDbLine
10
88.1
20
30
30
0
11
88.517997
21
26.825002
31
0
39
0
210
0
220
0
230
1
0
LINE
5
275
100
AcDbEntity
8
2
62
256
6
ByLayer
370
13
48
1
60
0
100
AcDbLine
10
88.1
20
30
30
0
11
87.682003
21
26.824998
31
0
39
0
210
0
220
0
230
1
0
LINE
5
276
100
AcDbEntity
8
2
62
256
6
ByLayer
370
13
48
1
60
0
100
AcDbLine
10
88.517997
20
26.825002
30
0
11
87.682003
21
26.824998
31
0
39
0
210
0
220
0
230
1
0
ENDBLK
5
278
100
AcDbEntity
8
0
100
AcDbBlockEnd
0
ENDSEC
0
SECTION
2
ENTITIES
0
ARC
5
FB
100
AcDbEntity
8
1
62
256
6
ByLayer
370
13
48
1
60
0
100
AcDbCircle
39
0
10
-20.279208
20
26.2
30
0
40
1.2
210
0
220
0
230
-1
100
AcDbArc
50
195
51
270
0
ARC
5
FC
100
AcDbEntity
8
1
62
256
6
ByLayer
370
13
48
1
60
0
100
AcDbCircle
39
0
10
-24.128152
20
-14.5
30
0
40
3.99999999999998
210
0
220
0
230
-1
100
AcDbArc
50
0.5
51
90
0
ARC
5
FD
100
AcDbEntity
8
1
62
256
6
ByLayer
370
13
48
1
60
0
100
AcDbCircle
39
0
10
-38
20
28.725
30
0
40
1.6
210
0
220
0
230
-1
100
AcDbArc
50
0
51
80.835628
0
ELLIPSE
5
FE
100
AcDbEntity
8
1
62
256
6
ByLayer
370
13
48
1
60
0
100
AcDbEllipse
10
62.571269
20
32.5
30
0
11
2.01243450986091
21
2.03384491146097E-15
31
0
210
0
220
0
230
-1
40
0.496911
41
1.22451003362929
42
-1.22451003362925
0
ELLIPSE
5
FF
100
AcDbEntity
8
1
62
256
6
ByLayer
370
13
48
1
60
0
100
AcDbEllipse
10
63.757013
20
32.5
30
0
11
0.443474237667699
21
0.985200970489402
31
0
210
0
220
0
230
-1
40
0.386501
41
-2.96756010422177
42
-2.20174254585401
0
ELLIPSE
5
100
100
AcDbEntity
8
1
62
256
6
ByLayer
370
13
48
1
60
0
100
AcDbEllipse
10
21.056258
20
0
30
0
11
11.7092723497289
21
24.6771864409392
31
0
210
0
220
0
230
-1
40
0.341999
41
-2.97437958168081
42
-2.05975995310059
0
ELLIPSE
5
101
100
AcDbEntity
8
1
62
256
6
ByLayer
370
13
48
1
60
0
100
AcDbEllipse
10
20.218172
20
0
30
0
11
-1.53075794227797E-15
21
24.9999999999999
31
0
210
0
220
0
230
-1
40
0.008727
41
-2.47433982684089
42
-0.424548542840269
0
ELLIPSE
5
102
100
AcDbEntity
8
1
62
256
6
ByLayer
370
13
48
1
60
0
100
AcDbEllipse
10
63.937611
20
32.5
30
0
11
-6.12303176829418E-17
21
0.999999999866454
31
0
210
0
220
0
230
-1
40
0.451159
41
-1.74550750768848
42
-1.39608514590117
0
ELLIPSE
5
103
100
AcDbEntity
8
1
62
256
6
ByLayer
370
13
48
1
60
0
100
AcDbEllipse
10
64.661976
20
32.5
30
0
11
2.6718431663205
21
0.98891068650119
31
0
210
0
220
0
230
-1
40
0.055584
41
-2.11293047492225
42
-2.03810590702202
0
ELLIPSE
5
104
100
AcDbEntity
8
1
62
256
6
ByLayer
370
13
48
1
60
0
100
AcDbEllipse
10
-1.056258
20
0
30
0
11
11.7092723497265
21
-24.6771864409372
31
0
210
0
220
0
230
-1
40
0.341999
41
-1.08183270048929
42
-0.167213071909003
0
ELLIPSE
5
105
100
AcDbEntity
8
1
62
256
6
ByLayer
370
13
48
1
60
0
100
AcDbEllipse
10
64.661975
20
32.5
30
0
11
2.67184303411999
21
-0.988910643136971
31
0
210
0
220
0
230
-1
40
0.055584
41
2.03810589027779
42
2.11293046120558
0
ELLIPSE
5
106
100
AcDbEntity
8
1
62
256
6
ByLayer
370
13
48
1
60
0
100
AcDbEllipse
10
21.056258
20
0
30
0
11
11.7092723497276
21
-24.6771864409377
31
0
210
0
220
0
230
-1
40
0.341999
41
2.05975995310054
42
2.97437958168082
0
ELLIPSE
5
107
100
AcDbEntity
8
1
62
256
6
ByLayer
370
13
48
1
60
0
100
AcDbEllipse
10
-1.056258
20
0
30
0
11
11.7092723497283
21
24.6771864409395
31
0
210
0
220
0
230
-1
40
0.341999
41
0.167213071908977
42
1.08183270048923
0
ELLIPSE
5
108
100
AcDbEntity
8
1
62
256
6
ByLayer
370
13
48
1
60
0
100
AcDbEllipse
10
63.757013
20
32.5
30
0
11
0.443474237671959
21
-0.985200970494992
31
0
210
0
220
0
230
-1
40
0.386501
41
2.20174254585787
42
2.96756010422277
0
ELLIPSE
5
109
100
AcDbEntity
8
1
62
256
6
ByLayer
370
13
48
1
60
0
100
AcDbEllipse
10
68.308021
20
30.75008
30
0
11
0.0343782006618846
21
0.227416224837304
31
0
210
0
220
0
230
1
40
0.010451
41
0.726227648002403
42
1.50176867939539
0
ELLIPSE
5
10A
100
AcDbEntity
8
1
62
256
6
ByLayer
370
13
48
1
60
0
100
AcDbEllipse
10
66.376095
20
34.161106
30
0
11
-0.0372036955976343
21
-0.2269711105711
31
0
210
0
220
0
230
1
40
0.637857
41
0.944424256061085
42
1.620735086705
0
ELLIPSE
5
10B
100
AcDbEntity
8
1
62
256
6
ByLayer
370
13
48
1
60
0
100
AcDbEllipse
10
68.308021
20
34.24992
30
0
11
0.0343782006618846
21
-0.227416224837304
31
0
210
0
220
0
230
1
40
0.010451
41
-1.50176867939561
42
-0.726227648000395
0
ELLIPSE
5
10C
100
AcDbEntity
8
1
62
256
6
ByLayer
370
13
48
1
60
0
100
AcDbEllipse
10
66.376095
20
30.838894
30
0
11
-0.0372036955976341
21
0.2269711105711
31
0
210
0
220
0
230
1
40
0.637857
41
-1.62073508670506
42
-0.944424256061099
0
ELLIPSE
5
10D
100
AcDbEntity
8
1
62
256
6
ByLayer
370
13
48
1
60
0
100
AcDbEllipse
10
64.575688
20
31.270852
30
0
11
0.117850233694188
21
-0.220479755121021
31
0
210
0
220
0
230
1
40
0.628513
41
1.24669182823353
42
2.61189371595032
0
ELLIPSE
5
10E
100
AcDbEntity
8
1
62
256
6
ByLayer
370
13
48
1
60
0
100
AcDbEllipse
10
64.266852
20
31.201386
30
0
11
-0.00443971027567598
21
-0.249960574836649
31
0
210
0
220
0
230
1
40
0.341973
41
-2.71046133214416
42
-1.56472240806869
0
ELLIPSE
5
10F
100
AcDbEntity
8
1
62
256
6
ByLayer
370
13
48
1
60
0
100
AcDbEllipse
10
64.266852
20
33.798614
30
0
11
-0.00443963165026046
21
0.249960576233153
31
0
210
0
220
0
230
1
40
0.341973
41
1.56472251563661
42
2.7104613407646
0
ELLIPSE
5
110
100
AcDbEntity
8
1
62
256
6
ByLayer
370
13
48
1
60
0
100
AcDbEllipse
10
64.575688
20
33.729147
30
0
11
0.117850249619683
21
0.220479746608568
31
0
210
0
220
0
230
1
40
0.628513
41
-2.61189376972352
42
-1.24669178283536
0
ELLIPSE
5
111
100
AcDbEntity
8
1
62
256
6
ByLayer
370
13
48
1
60
0
100
AcDbEllipse
10
63.896635
20
31.207959
30
0
11
0.0041937518783538
21
0.249964822415441
31
0
210
0
220
0
230
1
40
0.341978
41
0.42882120894445
42
1.57653374874629
0
ELLIPSE
5
112
100
AcDbEntity
8
1
62
256
6
ByLayer
370
13
48
1
60
0
100
AcDbEllipse
10
63.896635
20
33.792041
30
0
11
0.00419362662096718
21
-0.249964824516899
31
0
210
0
220
0
230
1
40
0.341978
41
-1.57653357738128
42
-0.428821234248932
0
ELLIPSE
5
113
100
AcDbEntity
8
1
62
256
6
ByLayer
370
13
48
1
60
0
100
AcDbEllipse
10
63.896635
20
33.792041
30
0
11
0.226769904979307
21
0.105239774779671
31
0
210
0
220
0
230
1
40
0.151449
41
1.88624128123203
42
2.72609499684287
0
ELLIPSE
5
114
100
AcDbEntity
8
1
62
256
6
ByLayer
370
13
48
1
60
0
100
AcDbEllipse
10
63.896635
20
33.792041
30
0
11
0.192541275630354
21
-0.159461146297887
31
0
210
0
220
0
230
1
40
0.894807
41
-2.03609417243739
42
-1.06582349864773
0
ELLIPSE
5
115
100
AcDbEntity
8
1
62
256
6
ByLayer
370
13
48
1
60
0
100
AcDbEllipse
10
63.896635
20
31.207959
30
0
11
-0.226769904979307
21
0.105239774779671
31
0
210
0
220
0
230
1
40
0.151449
41
0.415497656747115
42
1.25535137235765
0
ELLIPSE
5
116
100
AcDbEntity
8
1
62
256
6
ByLayer
370
13
48
1
60
0
100
AcDbEllipse
10
63.896635
20
31.207959
30
0
11
0.192541309773544
21
0.159461105071702
31
0
210
0
220
0
230
1
40
0.894807
41
1.06582322628555
42
2.03609436403004
0
ELLIPSE
5
117
100
AcDbEntity
8
1
62
256
6
ByLayer
370
13
48
1
60
0
100
AcDbEllipse
10
63.525204
20
34.592397
30
0
11
0.248127472709257
21
0.0591357431715199
31
0
210
0
220
0
230
-1
40
0.082207
41
-2.68834941611373
42
-1.90295008508984
0
ELLIPSE
5
118
100
AcDbEntity
8
1
62
256
6
ByLayer
370
13
48
1
60
0
100
AcDbEllipse
10
63.525204
20
30.407603
30
0
11
0.248127472712196
21
-0.0591357431720627
31
0
210
0
220
0
230
-1
40
0.082207
41
1.90295008509819
42
2.68834941611641
0
ELLIPSE
5
119
100
AcDbEntity
8
1
62
256
6
ByLayer
370
13
48
1
60
0
100
AcDbEllipse
10
66.372716
20
34.162324
30
0
11
0.119667798519678
21
0.196416949363984
31
0
210
0
220
0
230
1
40
0.597641
41
-1.86084369188805
42
-1.28074896175455
0
ELLIPSE
5
11A
100
AcDbEntity
8
1
62
256
6
ByLayer
370
13
48
1
60
0
100
AcDbEllipse
10
66.372716
20
30.837676
30
0
11
0.119667798519678
21
-0.196416949363984
31
0
210
0
220
0
230
1
40
0.597641
41
1.28074896175455
42
1.86084369188799
0
ELLIPSE
5
11B
100
AcDbEntity
8
1
62
256
6
ByLayer
370
13
48
1
60
0
100
AcDbEllipse
10
65.495921
20
33.513111
30
0
11
0.206917527452797
21
0.140303730644702
31
0
210
0
220
0
230
1
40
0.823661
41
-2.20858799582973
42
-1.45669646334266
0
ELLIPSE
5
11C
100
AcDbEntity
8
1
62
256
6
ByLayer
370
13
48
1
60
0
100
AcDbEllipse
10
65.495921
20
31.486889
30
0
11
0.206917580647164
21
-0.140303652194533
31
0
210
0
220
0
230
1
40
0.823661
41
1.45669620350372
42
2.20858804197697
0
ELLIPSE
5
11D
100
AcDbEntity
8
1
62
256
6
ByLayer
370
13
48
1
60
0
100
AcDbEllipse
10
63.525204
20
34.592397
30
0
11
0.2499743748514
21
0.0507180485472375
31
0
210
0
220
0
230
-1
40
0.070574
41
-2.69094352032896
42
-1.90554418930542
0
ELLIPSE
5
11E
100
AcDbEntity
8
1
62
256
6
ByLayer
370
13
48
1
60
0
100
AcDbEllipse
10
63.525204
20
30.407603
30
0
11
0.249974374833292
21
-0.0507180485445461
31
0
210
0
220
0
230
-1
40
0.070574
41
1.90554418926025
42
2.69094352032498
0
ELLIPSE
5
11F
100
AcDbEntity
8
1
62
256
6
ByLayer
370
13
48
1
60
0
100
AcDbEllipse
10
63.316753
20
34.554426
30
0
11
-0.00727720191311336
21
0.0186290722344345
31
0
210
0
220
0
230
1
40
0.894205
41
1.23473700712515
42
1.55767186143173
0
ELLIPSE
5
120
100
AcDbEntity
8
1
62
256
6
ByLayer
370
13
48
1
60
0
100
AcDbEllipse
10
63.316753
20
30.445574
30
0
11
-0.00727720191311246
21
-0.0186290722344349
31
0
210
0
220
0
230
1
40
0.894205
41
-1.55767186143137
42
-1.23473700712482
0
ELLIPSE
5
121
100
AcDbEntity
8
1
62
256
6
ByLayer
370
13
48
1
60
0
100
AcDbEllipse
10
65.547237
20
31.64856
30
0
11
0.249846926115621
21
-0.00874720015635105
31
0
210
0
220
0
230
1
40
0.750608
41
1.02290462445186
42
1.70169781748864
0
ELLIPSE
5
122
100
AcDbEntity
8
1
62
256
6
ByLayer
370
13
48
1
60
0
100
AcDbEllipse
10
65.547237
20
33.35144
30
0
11
0.249846921369704
21
0.00874733571328907
31
0
210
0
220
0
230
1
40
0.750608
41
-1.70169787390471
42
-1.02290497692152
0
ELLIPSE
5
123
100
AcDbEntity
8
1
62
256
6
ByLayer
370
13
48
1
60
0
100
AcDbEllipse
10
63.311319
20
30.446608
30
0
11
1.66819193409396E-07
21
0.0199999999993043
31
0
210
0
220
0
230
1
40
0.906308
41
1.2348280052648
42
1.57080388627612
0
ELLIPSE
5
124
100
AcDbEntity
8
1
62
256
6
ByLayer
370
13
48
1
60
0
100
AcDbEllipse
10
63.311319
20
34.553392
30
0
11
-1.66819192705286E-07
21
0.0199999999993043
31
0
210
0
220
0
230
1
40
0.906308
41
1.57078876731403
42
1.90676464832466
0
ELLIPSE
5
125
100
AcDbEntity
8
1
62
256
6
ByLayer
370
13
48
1
60
0
100
AcDbEllipse
10
62.947266
20
34.553428
30
0
11
0.000516689010875447
21
0.0199933246976595
31
0
210
0
220
0
230
1
40
0.904621
41
1.59417026037695
42
1.93016731350172
0
ELLIPSE
5
126
100
AcDbEntity
8
1
62
256
6
ByLayer
370
13
48
1
60
0
100
AcDbEllipse
10
62.947266
20
30.446572
30
0
11
-0.000516689010875325
21
0.0199933246976595
31
0
210
0
220
0
230
1
40
0.904621
41
1.21142534008848
42
1.54742239321284
0
ELLIPSE
5
127
100
AcDbEntity
8
1
62
256
6
ByLayer
370
13
48
1
60
0
100
AcDbEllipse
10
65.681682
20
32.97874
30
0
11
0.208351294700965
21
0.138165617996779
31
0
210
0
220
0
230
1
40
0.328475
41
-1.88277706446514
42
-1.11088764732332
0
ELLIPSE
5
128
100
AcDbEntity
8
1
62
256
6
ByLayer
370
13
48
1
60
0
100
AcDbEllipse
10
65.681682
20
32.02126
30
0
11
0.208351341972879
21
-0.138165546711546
31
0
210
0
220
0
230
1
40
0.328475
41
1.11088755728274
42
1.88277708187351
0
ELLIPSE
5
129
100
AcDbEntity
8
1
62
256
6
ByLayer
370
13
48
1
60
0
100
AcDbEllipse
10
64.262268
20
32.368114
30
0
11
0.249711860133238
21
0.0119994545208677
31
0
210
0
220
0
230
1
40
0.102391
41
1.64627417079775
42
2.70279518242702
0
ELLIPSE
5
12A
100
AcDbEntity
8
1
62
256
6
ByLayer
370
13
48
1
60
0
100
AcDbEllipse
10
63.970334
20
31.935856
30
0
11
0.0801092063469286
21
-0.236817472029547
31
0
210
0
220
0
230
1
40
0.051691
41
1.99612869318361
42
2.99634502504098
0
ELLIPSE
5
12B
100
AcDbEntity
8
1
62
256
6
ByLayer
370
13
48
1
60
0
100
AcDbEllipse
10
63.970334
20
33.064144
30
0
11
0.0801092029984038
21
0.236817473162266
31
0
210
0
220
0
230
1
40
0.051691
41
-2.99634502577171
42
-1.99612899767458
0
ELLIPSE
5
12C
100
AcDbEntity
8
1
62
256
6
ByLayer
370
13
48
1
60
0
100
AcDbEllipse
10
64.262268
20
32.631886
30
0
11
0.249711858181825
21
-0.0119994951302153
31
0
210
0
220
0
230
1
40
0.102391
41
-2.7027951657758
42
-1.64627416293752
0
ELLIPSE
5
12D
100
AcDbEntity
8
1
62
256
6
ByLayer
370
13
48
1
60
0
100
AcDbEllipse
10
68.808021
20
34.250346
30
0
11
-0.0305240551688064
21
-0.227965528218746
31
0
210
0
220
0
230
1
40
0.00928
41
0.75320337750092
42
1.50160168305522
0
ELLIPSE
5
12E
100
AcDbEntity
8
1
62
256
6
ByLayer
370
13
48
1
60
0
100
AcDbEllipse
10
68.808021
20
30.749654
30
0
11
-0.0305240551688062
21
0.227965528218746
31
0
210
0
220
0
230
1
40
0.00928
41
-1.50160168305517
42
-0.753203377496801
0
ELLIPSE
5
12F
100
AcDbEntity
8
1
62
256
6
ByLayer
370
13
48
1
60
0
100
AcDbEllipse
10
69.195162
20
30.799251
30
0
11
-0.0280596719528445
21
0.228281963391545
31
0
210
0
220
0
230
1
40
0.164219
41
0.778143565892525
42
1.4813537694192
0
ELLIPSE
5
130
100
AcDbEntity
8
1
62
256
6
ByLayer
370
13
48
1
60
0
100
AcDbEllipse
10
69.195162
20
34.200749
30
0
11
-0.0280596719528447
21
-0.228281963391545
31
0
210
0
220
0
230
1
40
0.164219
41
-1.4813537694192
42
-0.778143565892371
0
ELLIPSE
5
131
100
AcDbEntity
8
1
62
256
6
ByLayer
370
13
48
1
60
0
100
AcDbEllipse
10
69.778808
20
31.111946
30
0
11
-0.057715369185191
21
0.0816635546606754
31
0
210
0
220
0
230
1
40
0.139258
41
-1.58442224103983
42
-0.784038772191618
0
ELLIPSE
5
132
100
AcDbEntity
8
1
62
256
6
ByLayer
370
13
48
1
60
0
100
AcDbEllipse
10
69.598618
20
30.987741
30
0
11
-0.055539716034572
21
0.0831585229714857
31
0
210
0
220
0
230
1
40
0.139564
41
-1.58074179094093
42
-0.780385816813272
0
ELLIPSE
5
133
100
AcDbEntity
8
1
62
256
6
ByLayer
370
13
48
1
60
0
100
AcDbEllipse
10
69.598618
20
34.012259
30
0
11
-0.0555397160345721
21
-0.0831585229714856
31
0
210
0
220
0
230
1
40
0.139564
41
0.780385816812891
42
1.58074179094093
0
ELLIPSE
5
134
100
AcDbEntity
8
1
62
256
6
ByLayer
370
13
48
1
60
0
100
AcDbEllipse
10
69.778808
20
33.888054
30
0
11
-0.057715369185191
21
-0.0816635546606753
31
0
210
0
220
0
230
1
40
0.139258
41
0.784038772191518
42
1.58442224103983
0
ELLIPSE
5
135
100
AcDbEntity
8
1
62
256
6
ByLayer
370
13
48
1
60
0
100
AcDbEllipse
10
63.960225
20
33.067565
30
0
11
0.0801330718436643
21
0.236809397611028
31
0
210
0
220
0
230
1
40
0.052378
41
-2.99633978110937
42
-1.99822011344174
0
ELLIPSE
5
136
100
AcDbEntity
8
1
62
256
6
ByLayer
370
13
48
1
60
0
100
AcDbEllipse
10
63.960225
20
31.932435
30
0
11
0.0801330753651988
21
-0.236809396419389
31
0
210
0
220
0
230
1
40
0.052378
41
1.99821981134461
42
2.99633978033037
0
ELLIPSE
5
137
100
AcDbEntity
8
1
62
256
6
ByLayer
370
13
48
1
60
0
100
AcDbEllipse
10
69.521878
20
30.921955
30
0
11
-0.078543330044571
21
0.0618946306678503
31
0
210
0
220
0
230
1
40
0.129812
41
-1.62345594610841
42
-1.15297770919751
0
ELLIPSE
5
138
100
AcDbEntity
8
1
62
256
6
ByLayer
370
13
48
1
60
0
100
AcDbEllipse
10
69.521878
20
34.078045
30
0
11
-0.078543330044571
21
-0.0618946306678503
31
0
210
0
220
0
230
1
40
0.129812
41
1.15297770919788
42
1.62345594610857
0
ELLIPSE
5
139
100
AcDbEntity
8
1
62
256
6
ByLayer
370
13
48
1
60
0
100
AcDbEllipse
10
69.258678
20
33.577254
30
0
11
0.00447811123902838
21
-0.399974932364181
31
0
210
0
220
0
230
1
40
0.406715
41
1.56624278122701
42
2.28570077964821
0
ELLIPSE
5
13A
100
AcDbEntity
8
1
62
256
6
ByLayer
370
13
48
1
60
0
100
AcDbEllipse
10
69.258678
20
31.422746
30
0
11
0.0044781112390283
21
0.399974932364181
31
0
210
0
220
0
230
1
40
0.406715
41
-2.2857007796482
42
-1.56624278122705
0
ELLIPSE
5
13B
100
AcDbEntity
8
1
62
256
6
ByLayer
370
13
48
1
60
0
100
AcDbEllipse
10
69.879987
20
31.202774
30
0
11
-0.0761825742139185
21
0.0647782014734957
31
0
210
0
220
0
230
1
40
0.131654
41
-1.61858310779787
42
-0.95127549762259
0
ELLIPSE
5
13C
100
AcDbEntity
8
1
62
256
6
ByLayer
370
13
48
1
60
0
100
AcDbEllipse
10
69.879987
20
33.797226
30
0
11
-0.0761825742139186
21
-0.0647782014734956
31
0
210
0
220
0
230
1
40
0.131654
41
0.951275497623094
42
1.61858310779775
0
ELLIPSE
5
13D
100
AcDbEntity
8
1
62
256
6
ByLayer
370
13
48
1
60
0
100
AcDbEllipse
10
69.90851
20
33.762606
30
0
11
-0.0780735047316925
21
-0.0624862213524742
31
0
210
0
220
0
230
1
40
0.076499
41
0.995842833728734
42
1.6660881456358
0
ELLIPSE
5
13E
100
AcDbEntity
8
1
62
256
6
ByLayer
370
13
48
1
60
0
100
AcDbEllipse
10
69.90851
20
31.237394
30
0
11
-0.0780735047316924
21
0.0624862213524742
31
0
210
0
220
0
230
1
40
0.076499
41
-1.6660881456358
42
-0.995842833727274
0
ELLIPSE
5
13F
100
AcDbEntity
8
1
62
256
6
ByLayer
370
13
48
1
60
0
100
AcDbEllipse
10
68.548784
20
31.418834
30
0
11
-0.000921308389249558
21
0.399998938987158
31
0
210
0
220
0
230
1
40
0.05179
41
-2.39651152074826
42
-1.57091561244836
0
ELLIPSE
5
140
100
AcDbEntity
8
1
62
256
6
ByLayer
370
13
48
1
60
0
100
AcDbEllipse
10
68.548784
20
33.581166
30
0
11
-0.000921308389249212
21
-0.399998938987158
31
0
210
0
220
0
230
1
40
0.05179
41
1.57091561244836
42
2.39651152074856
0
ELLIPSE
5
141
100
AcDbEntity
8
1
62
256
6
ByLayer
370
18
48
1
60
0
100
AcDbEllipse
10
65.372916
20
30.1
30
0
11
-0.203674870635643
21
0
31
-3.33066907387545E-16
210
1.63528719251465E-15
220
0
230
-1
40
0.981957
41
1.5707963267949
42
2.10231488414288
0
ELLIPSE
5
142
100
AcDbEntity
8
1
62
256
6
ByLayer
370
18
48
1
60
0
100
AcDbEllipse
10
65.700355
20
30.606977
30
0
11
0.117518340696117
21
0.384385172385799
31
1.94289029309403E-16
210
1.63435502888238E-15
220
5.78153988874555E-18
230
-1
40
0.995153
41
2.91576259201241
42
-2.91576259201242
0
ELLIPSE
5
143
100
AcDbEntity
8
1
62
256
6
ByLayer
370
18
48
1
60
0
100
AcDbEllipse
10
65.372916
20
34.9
30
0
11
0.203674870635643
21
2.49421540694359E-17
31
0
210
0
220
0
230
-1
40
0.981957
41
1.03927776944692
42
1.5707963267949
0
ELLIPSE
5
144
100
AcDbEntity
8
1
62
256
6
ByLayer
370
18
48
1
60
0
100
AcDbEllipse
10
70.048748
20
31.237394
30
0
11
1.1330996904646E-16
21
0.4
31
0
210
0
220
0
230
1
40
0.121869
41
1.5707963267949
42
1.64009079051255
0
ELLIPSE
5
145
100
AcDbEntity
8
1
62
256
6
ByLayer
370
18
48
1
60
0
100
AcDbEllipse
10
65.700355
20
34.393023
30
0
11
0.117518340696115
21
-0.3843851723858
31
1.87350135405496E-16
210
1.69566474595522E-15
220
3.10146508567605E-17
230
-1
40
0.995153
41
2.91576259201242
42
-2.91576259201242
0
ELLIPSE
5
146
100
AcDbEntity
8
1
62
256
6
ByLayer
370
18
48
1
60
0
100
AcDbEllipse
10
70.048748
20
33.762606
30
0
11
1.1330996904646E-16
21
0.4
31
0
210
0
220
0
230
1
40
0.121869
41
1.50150186307724
42
1.5707963267949
0
ELLIPSE
5
147
100
AcDbEntity
8
1
62
256
6
ByLayer
370
18
48
1
60
0
100
AcDbEllipse
10
69.506073
20
30.013995
30
0
11
0.229994540949984
21
-0.0163464332744418
31
0
210
0
220
0
230
-1
40
0.096932
41
1.44202876389869
42
1.73802347017894
0
ELLIPSE
5
148
100
AcDbEntity
8
1
62
256
6
ByLayer
370
18
48
1
60
0
100
AcDbEllipse
10
69.506073
20
34.986005
30
0
11
0.22999453993399
21
0.0163464332098409
31
0
210
0
220
0
230
-1
40
0.096932
41
-1.73802347058253
42
-1.44202876298724
0
POINT
5
6C
100
AcDbEntity
8
81
62
256
6
ByLayer
370
18
48
1
60
0
100
AcDbPoint
10
70
20
35
30
0
39
0
210
0
220
0
230
1
50
360
0
POINT
5
6E
100
AcDbEntity
8
80
62
256
6
ByLayer
370
18
48
1
60
0
100
AcDbPoint
10
0
20
0
30
0
39
0
210
0
220
0
230
1
50
360
0
SPLINE
5
149
100
AcDbEntity
8
SK1
62
256
6
ByLayer
370
13
48
1
60
0
100
AcDbSpline
70
4
71
2
72
6
73
3
40
0
40
0
40
0
40
1
40
1
40
1
41
1
10
-28.5
20
-16.8545212066649
30
0
41
1
10
-15.2499999987993
20
-17.1871851888411
30
0
41
1
10
-1.99999999999994
20
-17.5198482068776
30
0
0
SPLINE
5
14A
100
AcDbEntity
8
SK1
62
256
6
ByLayer
370
13
48
1
60
0
100
AcDbSpline
70
4
71
2
72
6
73
3
40
0
40
0
40
0
40
1
40
1
40
1
41
1
10
-1.99999999999994
20
17.5198479235724
30
0
41
1
10
-15.2499999987994
20
17.1871849060498
30
0
41
1
10
-28.5
20
16.8545209244112
30
0
0
SPLINE
5
14B
100
AcDbEntity
8
SK1
62
256
6
ByLayer
370
13
48
1
60
0
100
AcDbSpline
70
4
71
3
72
13
73
9
40
0
40
0
40
0
40
0
40
0.239409099367182
40
0.368297400752082
40
0.49993143869144
40
0.631576866358023
40
0.760496583550908
40
1
40
1
40
1
40
1
41
1
10
-1.99999999999994
20
-17.525129116923
30
0
41
1
10
-1.99909125719796
20
-17.4990813944884
30
0
41
1
10
-1.99103211472601
20
-17.4617233046648
30
0
41
1
10
-1.96563495891917
20
-17.4155240253433
30
0
41
1
10
-1.93886250822572
20
-17.3842556209573
30
0
41
1
10
-1.90627575278671
20
-17.3590990612905
30
0
41
1
10
-1.85883875467886
20
-17.3360651360604
30
0
41
1
10
-1.82110932008976
20
-17.3298953840654
30
0
41
1
10
-1.79503997793924
20
-17.3302974649007
30
0
0
SPLINE
5
14C
100
AcDbEntity
8
SK1
62
256
6
ByLayer
370
13
48
1
60
0
100
AcDbSpline
70
4
71
3
72
13
73
9
40
0
40
0
40
0
40
0
40
0.239503416121661
40
0.368423133196269
40
0.500068560814832
40
0.631702598790227
40
0.760590900287172
40
1
40
1
40
1
40
1
41
1
10
-1.79503997793924
20
17.3302973195575
30
0
41
1
10
-1.8211093200961
20
17.3298952387248
30
0
41
1
10
-1.85883875469071
20
17.336064990738
30
0
41
1
10
-1.90627575279677
20
17.3590989160412
30
0
41
1
10
-1.9388625082353
20
17.3842554757878
30
0
41
1
10
-1.96563495892642
20
17.4155238802705
30
0
41
1
10
-1.99103211473133
20
17.4617231597379
30
0
41
1
10
-1.99909125720333
20
17.4990812496681
30
0
41
1
10
-1.99999999999994
20
17.5251289721744
30
0
0
SPLINE
5
14D
100
AcDbEntity
8
SK1
62
256
6
ByLayer
370
13
48
1
60
0
100
AcDbSpline
70
4
71
2
72
6
73
3
40
0
40
0
40
0
40
1
40
1
40
1
41
1
10
-1.79503997793924
20
-17.3250646819565
30
0
41
1
10
-0.995008433403001
20
-17.3451508243471
30
0
41
1
10
-0.19497688887526
20
-17.3652369633
30
0
0
SPLINE
5
14E
100
AcDbEntity
8
SK1
62
256
6
ByLayer
370
13
48
1
60
0
100
AcDbSpline
70
4
71
2
72
6
73
3
40
0
40
0
40
0
40
1
40
1
40
1
41
1
10
-0.19497688887526
20
17.3652366802367
30
0
41
1
10
-0.995008433403001
20
17.3451505413153
30
0
41
1
10
-1.79503997793924
20
17.3250643989562
30
0
0
SPLINE
5
14F
100
AcDbEntity
8
SK1
62
256
6
ByLayer
370
13
48
1
60
0
100
AcDbSpline
70
4
71
2
72
6
73
3
40
0
40
0
40
0
40
1
40
1
40
1
41
1
10
-30
20
-15.9932495545753
30
0
41
1
10
-29.2499990770552
20
-16.4260289695447
30
0
41
1
10
-28.5
20
-16.8588008432386
30
0
0
SPLINE
5
150
100
AcDbEntity
8
SK1
62
256
6
ByLayer
370
13
48
1
60
0
100
AcDbSpline
70
4
71
2
72
6
73
3
40
0
40
0
40
0
40
1
40
1
40
1
41
1
10
-28.5
20
16.858800643688
30
0
41
1
10
-29.2499990770911
20
16.4260287704419
30
0
41
1
10
-30
20
15.9932493559076
30
0
0
SPLINE
5
151
100
AcDbEntity
8
SK1
62
256
6
ByLayer
370
13
48
1
60
0
100
AcDbSpline
70
4
71
2
72
6
73
3
40
0
40
0
40
0
40
1
40
1
40
1
41
1
10
-0.19497688887526
20
-17.3704796738454
30
0
41
1
10
-0.0591463025185419
20
-17.3755257485867
30
0
41
1
10
-0.0356373334004161
20
-17.4655271597148
30
0
0
SPLINE
5
152
100
AcDbEntity
8
SK1
62
256
6
ByLayer
370
13
48
1
60
0
100
AcDbSpline
70
4
71
2
72
6
73
3
40
0
40
0
40
0
40
1
40
1
40
1
41
1
10
-0.0343899619089427
20
17.4680396001793
30
0
41
1
10
-0.0576204404094085
20
17.3761040543929
30
0
41
1
10
-0.19497688887526
20
17.3704795286247
30
0
0
SPLINE
5
153
100
AcDbEntity
8
SK1
62
256
6
ByLayer
370
13
48
1
60
0
100
AcDbSpline
70
4
71
3
72
39
73
35
40
0
40
0
40
0
40
0
40
0.0143966620736283
40
0.0429615528324974
40
0.0715264435913666
40
0.100091334350236
40
0.157221115867974
40
0.214350897385712
40
0.242915788144581
40
0.271480678903451
40
0.328610460421189
40
0.357175351180058
40
0.385740241938927
40
0.414305132697796
40
0.442870023456665
40
0.471434914215534
40
0.485717359594969
40
0.499999804974403
40
0.514282250353838
40
0.528564695733273
40
0.557129586492142
40
0.585694477251011
40
0.61425936800988
40
0.642824258768749
40
0.671389149527618
40
0.728518931045356
40
0.757083821804226
40
0.785648712563095
40
0.842778494080833
40
0.899908275598571
40
0.92847316635744
40
0.95703805711631
40
0.985602947875179
40
1
40
1
40
1
40
1
41
1
10
-1.79503997793924
20
17.3257551183211
30
0
41
1
10
-1.79503997793924
20
17.3192800064125
30
0
41
1
10
-1.79503997793927
20
17.2795195263115
30
0
41
1
10
-1.79503997793924
20
17.1188450441766
30
0
41
1
10
-1.79503997793921
20
16.7916722325963
30
0
41
1
10
-1.79503997793924
20
16.1913785074865
30
0
41
1
10
-1.79503997793921
20
15.1570319640165
30
0
41
1
10
-1.79503997793927
20
13.7856199701319
30
0
41
1
10
-1.79503997793924
20
12.5002679640769
30
0
41
1
10
-1.79503997793924
20
11.0940004239178
30
0
41
1
10
-1.79503997793924
20
9.51267503388596
30
0
41
1
10
-1.79503997793924
20
7.75839234481907
30
0
41
1
10
-1.79503997793924
20
6.35944481918474
30
0
41
1
10
-1.79503997793927
20
4.87813814654268
30
0
41
1
10
-1.79503997793924
20
3.31755142876617
30
0
41
1
10
-1.79503997793924
20
1.9574488843196
30
0
41
1
10
-1.79503997793927
20
0.842183896938536
30
0
41
1
10
-1.79503997793927
20
5.01239583E-08
30
0
41
1
10
-1.79503997793924
20
-0.842183835089855
30
0
41
1
10
-1.79503997793924
20
-1.95744890560636
30
0
41
1
10
-1.79503997793924
20
-3.31755135272871
30
0
41
1
10
-1.79503997793927
20
-4.87813783770079
30
0
41
1
10
-1.79503997793924
20
-6.35944493307991
30
0
41
1
10
-1.79503997793924
20
-7.75839217523475
30
0
41
1
10
-1.79503997793921
20
-9.5126748484364
30
0
41
1
10
-1.79503997793924
20
-11.0940004136042
30
0
41
1
10
-1.79503997793924
20
-12.5002678139025
30
0
41
1
10
-1.79503997793924
20
-13.7856203428616
30
0
41
1
10
-1.79503997793924
20
-15.1570315468655
30
0
41
1
10
-1.79503997793921
20
-16.1913792747221
30
0
41
1
10
-1.79503997793924
20
-16.7916721035533
30
0
41
1
10
-1.79503997793927
20
-17.1188453667221
30
0
41
1
10
-1.79503997793924
20
-17.2795209599388
30
0
41
1
10
-1.79503997793924
20
-17.3192810389611
30
0
41
1
10
-1.79503997793924
20
-17.3257558815277
30
0
0
SPLINE
5
154
100
AcDbEntity
8
SK1
62
256
6
ByLayer
370
13
48
1
60
0
100
AcDbSpline
70
4
71
3
72
39
73
35
40
0
40
0
40
0
40
0
40
0.0138412310016699
40
0.0424388009382989
40
0.0710363708749279
40
0.0996339408115568
40
0.156829080684815
40
0.214024220558073
40
0.242621790494702
40
0.271219360431331
40
0.328414500304589
40
0.357012070241217
40
0.385609640177846
40
0.414207210114475
40
0.442804780051104
40
0.471402349987733
40
0.485701134956048
40
0.499999919924362
40
0.514298704892677
40
0.528597489860991
40
0.55719505979762
40
0.585792629734249
40
0.614390199670878
40
0.642987769607507
40
0.671585339544136
40
0.728780479417394
40
0.757378049354023
40
0.785975619290652
40
0.84317075916391
40
0.900365899037168
40
0.928963468973797
40
0.957561038910426
40
0.986158608847055
40
1
40
1
40
1
40
1
41
1
10
-1.99999999999994
20
17.5197427589205
30
0
41
1
10
-1.99999999999994
20
17.5129400874831
30
0
41
1
10
-1.99999999999997
20
17.4725596422371
30
0
41
1
10
-1.99999999999994
20
17.3116343538074
30
0
41
1
10
-1.99999999999994
20
16.981588832967
30
0
41
1
10
-1.99999999999994
20
16.3767064197525
30
0
41
1
10
-1.99999999999994
20
15.3340294930174
30
0
41
1
10
-1.99999999999997
20
13.9519092247439
30
0
41
1
10
-1.99999999999994
20
12.657565142082
30
0
41
1
10
-1.99999999999994
20
11.2412056202459
30
0
41
1
10
-1.99999999999997
20
9.64534783198889
30
0
41
1
10
-1.99999999999994
20
7.87638184130785
30
0
41
1
10
-1.99999999999994
20
6.46346246032286
30
0
41
1
10
-1.99999999999997
20
4.9652099996743
30
0
41
1
10
-1.99999999999994
20
3.38314408231221
30
0
41
1
10
-1.99999999999994
20
1.9985118678205
30
0
41
1
10
-1.99999999999997
20
0.861482441955161
30
0
41
1
10
-1.99999999999994
20
1.76094943E-08
30
0
41
1
10
-1.99999999999994
20
-0.861482365135828
30
0
41
1
10
-1.99999999999997
20
-1.99851187450381
30
0
41
1
10
-1.99999999999994
20
-3.38314406709796
30
0
41
1
10
-1.99999999999997
20
-4.96520967393042
30
0
41
1
10
-1.99999999999994
20
-6.46346255594895
30
0
41
1
10
-1.99999999999994
20
-7.87638169367145
30
0
41
1
10
-1.99999999999994
20
-9.64534763909768
30
0
41
1
10
-1.99999999999994
20
-11.2412056085042
30
0
41
1
10
-1.99999999999994
20
-12.6575649796178
30
0
41
1
10
-1.99999999999997
20
-13.9519096014721
30
0
41
1
10
-1.99999999999997
20
-15.3340290660617
30
0
41
1
10
-1.99999999999994
20
-16.3767071899766
30
0
41
1
10
-1.99999999999997
20
-16.981588704699
30
0
41
1
10
-1.99999999999997
20
-17.3116346702719
30
0
41
1
10
-1.99999999999994
20
-17.4725605632231
30
0
41
1
10
-1.99999999999997
20
-17.5129407100948
30
0
41
1
10
-1.99999999999997
20
-17.5197432409349
30
0
0
SPLINE
5
155
100
AcDbEntity
8
SK1
62
256
6
ByLayer
370
13
48
1
60
0
100
AcDbSpline
70
4
71
3
72
39
73
35
40
0
40
0
40
0
40
0
40
0.0161825888730186
40
0.0446424317130185
40
0.0731022745530183
40
0.101562117393018
40
0.158481803073018
40
0.215401488753018
40
0.243861331593018
40
0.272321174433017
40
0.329240860113017
40
0.357700702953017
40
0.386160545793017
40
0.414620388633017
40
0.443080231473017
40
0.471540074313016
40
0.485769995733016
40
0.499999917153016
40
0.514229838573016
40
0.528459759993016
40
0.556919602833016
40
0.585379445673016
40
0.613839288513016
40
0.642299131353015
40
0.670758974193015
40
0.727678659873015
40
0.756138502713015
40
0.784598345553015
40
0.841518031233015
40
0.898437716913014
40
0.926897559753014
40
0.955357402593014
40
0.983817245433014
40
1
40
1
40
1
40
1
41
1
10
-28.5
20
16.8572808153145
30
0
41
1
10
-28.5
20
16.8520758997499
30
0
41
1
10
-28.5
20
16.8141072528238
30
0
41
1
10
-28.5
20
16.6531187925376
30
0
41
1
10
-28.4999999999999
20
16.3328856609547
30
0
41
1
10
-28.5
20
15.7436769514769
30
0
41
1
10
-28.4999999999999
20
14.7294543359372
30
0
41
1
10
-28.5
20
13.3839106046769
30
0
41
1
10
-28.5
20
12.1202809967185
30
0
41
1
10
-28.5
20
10.7383929245239
30
0
41
1
10
-28.5
20
9.19217383455452
30
0
41
1
10
-28.5
20
7.47336198687171
30
0
41
1
10
-28.5
20
6.10816664300211
30
0
41
1
10
-28.5
20
4.66779636016494
30
0
41
1
10
-28.5
20
3.1590975148558
30
0
41
1
10
-28.5
20
1.85825194532146
30
0
41
1
10
-28.5
20
0.795563889584969
30
0
41
1
10
-28.5
20
1.286698534E-07
30
0
41
1
10
-28.5
20
-0.795563863901265
30
0
41
1
10
-28.5
20
-1.85825200188589
30
0
41
1
10
-28.5
20
-3.15909729188624
30
0
41
1
10
-28.5
20
-4.66779609215362
30
0
41
1
10
-28.5
20
-6.10816680103017
30
0
41
1
10
-28.5
20
-7.47336176426728
30
0
41
1
10
-28.5
20
-9.19217366708199
30
0
41
1
10
-28.5
20
-10.7383929176601
30
0
41
1
10
-28.5
20
-12.1202808762331
30
0
41
1
10
-28.5
20
-13.3839109677472
30
0
41
1
10
-28.5
20
-14.7294539424715
30
0
41
1
10
-28.5
20
-15.7436777114932
30
0
41
1
10
-28.5
20
-16.3328855300396
30
0
41
1
10
-28.5
20
-16.653119129773
30
0
41
1
10
-28.5
20
-16.8141081741488
30
0
41
1
10
-28.5
20
-16.8520764689567
30
0
41
1
10
-28.5
20
-16.857281184787
30
0
0
SPLINE
5
156
100
AcDbEntity
8
SK1
62
256
6
ByLayer
370
13
48
1
60
0
100
AcDbSpline
70
4
71
3
72
10
73
6
40
0
40
0
40
0
40
0
40
0.5
40
0.5
40
1
40
1
40
1
40
1
41
1
10
-1.3154350650949
20
-3.91026939581332
30
0
41
1
10
-1.5399457534287
20
-2.66888211580201
30
0
41
1
10
-1.7236184845311
20
-1.33806859990833
30
0
41
1
10
-1.72276554179191
20
1.34789001624878
30
0
41
1
10
-1.53997014218976
20
2.66874784662466
30
0
41
1
10
-1.3154350650949
20
3.9102717266544
30
0
0
SPLINE
5
157
100
AcDbEntity
8
SK1
62
256
6
ByLayer
370
13
48
1
60
0
100
AcDbSpline
70
4
71
3
72
39
73
35
40
0
40
0
40
0
40
0
40
0.0181821464292374
40
0.0465244251723037
40
0.0748667039153699
40
0.103208982658436
40
0.159893540144569
40
0.216578097630701
40
0.244920376373767
40
0.273262655116834
40
0.329947212602966
40
0.358289491346032
40
0.386631770089099
40
0.414974048832165
40
0.443316327575231
40
0.471658606318297
40
0.485829745689831
40
0.500000885061364
40
0.514172024432897
40
0.52834316380443
40
0.556685442547496
40
0.585027721290562
40
0.613370000033629
40
0.641712278776695
40
0.670054557519761
40
0.726739115005893
40
0.75508139374896
40
0.783423672492026
40
0.840108229978158
40
0.896792787464291
40
0.925135066207357
40
0.953477344950424
40
0.98181962369349
40
1
40
1
40
1
40
1
41
1
10
-30
20
15.9932053882015
30
0
41
1
10
-30
20
15.9899219739271
30
0
41
1
10
-30
20
15.9548426688898
30
0
41
1
10
-30
20
15.7965327535812
30
0
41
1
10
-30
20
15.4890634139888
30
0
41
1
10
-30
20
14.9202427964398
30
0
41
1
10
-30
20
13.9430330734596
30
0
41
1
10
-30
20
12.6450674903883
30
0
41
1
10
-30
20
11.421390757916
30
0
41
1
10
-30
20
10.084342571431
30
0
41
1
10
-30
20
8.60269267078087
30
0
41
1
10
-30
20
6.94912049428399
30
0
41
1
10
-30
20
5.64600378047246
30
0
41
1
10
-30
20
4.2809256673788
30
0
41
1
10
-30
20
2.867661483505
30
0
41
1
10
-30
20
1.67580418173893
30
0
41
1
10
-30
20
0.7098181380955
30
0
41
1
10
-30
20
2.731355551E-07
30
0
41
1
10
-30
20
-0.709818178928231
30
0
41
1
10
-30
20
-1.6758043031881
30
0
41
1
10
-30
20
-2.86766099029069
30
0
41
1
10
-30
20
-4.28092547446494
30
0
41
1
10
-30
20
-5.64600401967209
30
0
41
1
10
-30
20
-6.94912017416237
30
0
41
1
10
-30
20
-8.6026925363725
30
0
41
1
10
-30
20
-10.0843425709124
30
0
41
1
10
-30
20
-11.4213906920359
30
0
41
1
10
-30
20
-12.6450678356931
30
0
41
1
10
-30
20
-13.9430327235572
30
0
41
1
10
-30
20
-14.9202435431779
30
0
41
1
10
-30
20
-15.4890632796305
30
0
41
1
10
-30
20
-15.7965331178349
30
0
41
1
10
-30
20
-15.9548394743837
30
0
41
1
10
-30
20
-15.9899195646838
30
0
41
1
10
-30
20
-15.9932046117368
30
0
0
SPLINE
5
158
100
AcDbEntity
8
SK1
62
256
6
ByLayer
370
13
48
1
60
0
100
AcDbSpline
70
4
71
3
72
28
73
24
40
0
40
0
40
0
40
0
40
0.516446141051637
40
0.516446141051637
40
0.606964722938729
40
0.606964722938729
40
0.693548730179535
40
0.693548730179535
40
0.726617429278914
40
0.726617429278914
40
0.760179667744324
40
0.760179667744324
40
0.778833531746211
40
0.778833531746211
40
0.797654854320963
40
0.797654854320963
40
0.81490457688886
40
0.81490457688886
40
0.845176041491536
40
0.845176041491536
40
0.922307781344334
40
0.922307781344334
40
1
40
1
40
1
40
1
41
1
10
0
20
-5.57923036606778
30
0
41
1
10
0
20
-5.45236806529755
30
0
41
1
10
-0.0023498218235432
20
-5.32313166238606
30
0
41
1
10
-0.0246707618044013
20
-5.17055408176387
30
0
41
1
10
-0.0286524877798229
20
-5.14764204467346
30
0
41
1
10
-0.038756054602743
20
-5.10317866975339
30
0
41
1
10
-0.0446943059309319
20
-5.0813736577455
30
0
41
1
10
-0.0565046990695066
20
-5.05263962384098
30
0
41
1
10
-0.0602008880997005
20
-5.04479189761108
30
0
41
1
10
-0.0689466158999608
20
-5.02994474169321
30
0
41
1
10
-0.0741217536320278
20
-5.0227705420937
30
0
41
1
10
-0.083719353849034
20
-5.0138948861298
30
0
41
1
10
-0.0875463815136754
20
-5.01114472817923
30
0
41
1
10
-0.0956073859931053
20
-5.00725697459052
30
0
41
1
10
-0.0999476032095288
20
-5.00610700609002
30
0
41
1
10
-0.108056444598844
20
-5.00560398939336
30
0
41
1
10
-0.111930329251606
20
-5.00608221695791
30
0
41
1
10
-0.1219969964977
20
-5.0088066808149
30
0
41
1
10
-0.127948105958723
20
-5.01208528001055
30
0
41
1
10
-0.147044934762732
20
-5.02590151619114
30
0
41
1
10
-0.158144588367321
20
-5.03988585432666
30
0
41
1
10
-0.178024754257791
20
-5.06915995887206
30
0
41
1
10
-0.186840242430577
20
-5.08499801267459
30
0
41
1
10
-0.194976888875431
20
-5.10125086895366
30
0
0
SPLINE
5
159
100
AcDbEntity
8
SK1
62
256
6
ByLayer
370
13
48
1
60
0
100
AcDbSpline
70
4
71
3
72
24
73
20
40
0
40
0
40
0
40
0
40
0.129293125150933
40
0.129293125150933
40
0.160890762412427
40
0.160890762412427
40
0.193125098710366
40
0.193125098710366
40
0.21085281912236
40
0.21085281912236
40
0.22862910934845
40
0.22862910934845
40
0.251617995959466
40
0.251617995959466
40
0.291811550492146
40
0.291811550492146
40
0.417285661637018
40
0.417285661637018
40
1
40
1
40
1
40
1
41
1
10
-0.194976888869519
20
5.10125345319466
30
0
41
1
10
-0.181437028789816
20
5.07420777560091
30
0
41
1
10
-0.166263939419508
20
5.04747373607421
30
0
41
1
10
-0.140897870623206
20
5.02184016772043
30
0
41
1
10
-0.135473818669368
20
5.01716196662684
30
0
41
1
10
-0.123549655232068
20
5.00963193359109
30
0
41
1
10
-0.116826960945161
20
5.00671644858764
30
0
41
1
10
-0.105797159779911
20
5.00555851911679
30
0
41
1
10
-0.10166553781238
20
5.0058380767494
30
0
41
1
10
-0.0936550002320189
20
5.0080066737984
30
0
41
1
10
-0.089686503461337
20
5.00992758750442
30
0
41
1
10
-0.0813787136889346
20
5.01564999887205
30
0
41
1
10
-0.0771254542123927
20
5.01988425829632
30
0
41
1
10
-0.0668909728101994
20
5.03253319785676
30
0
41
1
10
-0.0616757119724411
20
5.04189507305242
30
0
41
1
10
-0.0435256268500837
20
5.08091090605134
30
0
41
1
10
-0.0358776288923366
20
5.11311220781019
30
0
41
1
10
-0.0008126982963574
20
5.2901731954307
30
0
41
1
10
-5.68E-14
20
5.43661415624979
30
0
41
1
10
-5.68E-14
20
5.5792323630165
30
0
0
SPLINE
5
15A
100
AcDbEntity
8
SK1
62
256
6
ByLayer
370
13
48
1
60
0
100
AcDbSpline
70
4
71
3
72
19
73
15
40
0
40
0
40
0
40
0
40
0.0596866936208452
40
0.129401785698351
40
0.199116877775857
40
0.338547061930869
40
0.408262154008375
40
0.477977246085881
40
0.617407430240893
40
0.756837614395905
40
0.826552706473411
40
0.896267798550917
40
0.965982890628422
40
1
40
1
40
1
40
1
41
1
10
-0.19497688887526
20
-5.10125086896682
30
0
41
1
10
-0.19497688887526
20
-5.53313428609096
30
0
41
1
10
-0.19497688887526
20
-6.44811450197963
30
0
41
1
10
-0.19497688887526
20
-7.78272641346859
30
0
41
1
10
-0.19497688887526
20
-9.54003737468344
30
0
41
1
10
-0.19497688887526
20
-11.1243601127488
30
0
41
1
10
-0.19497688887526
20
-12.5327088879465
30
0
41
1
10
-0.194976888875288
20
-13.8199159522375
30
0
41
1
10
-0.194976888875288
20
-15.1935356351606
30
0
41
1
10
-0.19497688887526
20
-16.2296014295451
30
0
41
1
10
-0.19497688887526
20
-16.8308406320639
30
0
41
1
10
-0.194976888875288
20
-17.1586063633231
30
0
41
1
10
-0.194976888875232
20
-17.3185678368451
30
0
41
1
10
-0.19497688887526
20
-17.3585862137892
30
0
41
1
10
-0.194976888875288
20
-17.3652898688878
30
0
0
SPLINE
5
15B
100
AcDbEntity
8
SK1
62
256
6
ByLayer
370
13
48
1
60
0
100
AcDbSpline
70
4
71
3
72
24
73
20
40
0
40
0
40
0
40
0
40
0.0865398844436928
40
0.0865398844436928
40
0.17460680897369
40
0.17460680897369
40
0.204283232250722
40
0.204283232250722
40
0.234430378299059
40
0.234430378299059
40
0.260963086962202
40
0.260963086962202
40
0.296894251932737
40
0.296894251932737
40
0.36256040160436
40
0.36256040160436
40
0.577775078513765
40
0.577775078513765
40
1
40
1
40
1
40
1
41
1
10
-0.19497688887526
20
-5.10125086895567
30
0
41
1
10
-0.224592653870218
20
-5.16040801377207
30
0
41
1
10
-0.257595479757356
20
-5.21831140841593
30
0
41
1
10
-0.336150389877957
20
-5.32723274028908
30
0
41
1
10
-0.382542848167247
20
-5.38041105877869
30
0
41
1
10
-0.462321250315512
20
-5.43127550158059
30
0
41
1
10
-0.484592781963499
20
-5.44242526658482
30
0
41
1
10
-0.532132005846307
20
-5.45772783053695
30
0
41
1
10
-0.558142899452974
20
-5.46179903845945
30
0
41
1
10
-0.606278947725372
20
-5.46041947085914
30
0
41
1
10
-0.62903407290753
20
-5.45606086620438
30
0
41
1
10
-0.678877240187575
20
-5.43930436278239
30
0
41
1
10
-0.705546599495307
20
-5.42456927125352
30
0
41
1
10
-0.773100753634878
20
-5.3767294290063
30
0
41
1
10
-0.809617767336391
20
-5.33795142049792
30
0
41
1
10
-0.945846243999313
20
-5.16581622302274
30
0
41
1
10
-1.01284657594542
20
-5.01170528380655
30
0
41
1
10
-1.18434707470055
20
-4.55468826920011
30
0
41
1
10
-1.25671595113775
20
-4.23494507919236
30
0
41
1
10
-1.31543506509544
20
-3.9102693958136
30
0
0
SPLINE
5
15C
100
AcDbEntity
8
SK1
62
256
6
ByLayer
370
13
48
1
60
0
100
AcDbSpline
70
4
71
3
72
19
73
15
40
0
40
0
40
0
40
0
40
0.0340168327919423
40
0.103731952817945
40
0.173447072843947
40
0.24316219286995
40
0.382592432921954
40
0.522022672973959
40
0.591737792999962
40
0.661452913025964
40
0.800883153077969
40
0.870598273103971
40
0.940313393129974
40
1
40
1
40
1
40
1
41
1
10
-0.194976888875288
20
17.3652894532835
30
0
41
1
10
-0.194976888875288
20
17.3585856739012
30
0
41
1
10
-0.194976888875288
20
17.3185670127259
30
0
41
1
10
-0.19497688887526
20
17.1586060420318
30
0
41
1
10
-0.19497688887526
20
16.8308407609471
30
0
41
1
10
-0.19497688887526
20
16.2296006616932
30
0
41
1
10
-0.194976888875232
20
15.1935360543338
30
0
41
1
10
-0.194976888875288
20
13.8199155786831
30
0
41
1
10
-0.19497688887526
20
12.5327090406556
30
0
41
1
10
-0.19497688887526
20
11.124360123357
30
0
41
1
10
-0.19497688887526
20
9.54003756166776
30
0
41
1
10
-0.19497688887526
20
7.78272657852636
30
0
41
1
10
-0.19497688887526
20
6.44811514689019
30
0
41
1
10
-0.194976888875288
20
5.53313598468043
30
0
41
1
10
-0.194976888875288
20
5.10125345322425
30
0
0
SPLINE
5
15D
100
AcDbEntity
8
SK1
62
256
6
ByLayer
370
13
48
1
60
0
100
AcDbSpline
70
4
71
3
72
12
73
8
40
0
40
0
40
0
40
0
40
0.500000000000001
40
0.500000000000001
40
0.750000000000001
40
0.750000000000001
40
1
40
1
40
1
40
1
41
1
10
-1.31543506509496
20
3.91027172665457
30
0
41
1
10
-1.24592839325507
20
4.2945956105979
30
0
41
1
10
-1.16331416991252
20
4.66760511763039
30
0
41
1
10
-0.926521435133054
20
5.19044404924716
30
0
41
1
10
-0.835622884145721
20
5.40735814273452
30
0
41
1
10
-0.419282266252338
20
5.5034285676893
30
0
41
1
10
-0.281321823101081
20
5.27372622909891
30
0
41
1
10
-0.194976888875288
20
5.10125345321313
30
0
0
SPLINE
5
15E
100
AcDbEntity
8
1
62
256
6
ByLayer
370
13
48
1
60
0
100
AcDbSpline
70
4
71
3
72
16
73
12
40
0
40
0
40
0
40
0
40
0.111430279628029
40
0.111430279628029
40
0.248747543515457
40
0.248747543515457
40
0.465535329195276
40
0.465535329195276
40
0.88385535186768
40
0.88385535186768
40
1
40
1
40
1
40
1
41
1
10
8.53867513459471
20
7.52966679426518
30
0
41
1
10
8.51081528400567
20
7.52966679426518
30
0
41
1
10
8.48260885722436
20
7.53471706780871
30
0
41
1
10
8.42415079676061
20
7.55489210221043
30
0
41
1
10
8.39395861076932
20
7.5721895388846
30
0
41
1
10
8.32484624564233
20
7.62460019394106
30
0
41
1
10
8.28921459142944
20
7.66489294253924
30
0
41
1
10
8.20100610925385
20
7.7894136763037
30
0
41
1
10
8.16026799314898
20
7.8824751100417
30
0
41
1
10
8.12070829847306
20
8.00269269538026
30
0
41
1
10
8.11283840142676
20
8.02920008991595
30
0
41
1
10
8.10566243270233
20
8.05584836782785
30
0
0
SPLINE
5
15F
100
AcDbEntity
8
1
62
256
6
ByLayer
370
13
48
1
60
0
100
AcDbSpline
70
4
71
3
72
14
73
10
40
0
40
0
40
0
40
0
40
0.265128917186103
40
0.265128917186103
40
0.530376505467198
40
0.530376505467198
40
0.794808184621354
40
0.794808184621354
40
1
40
1
40
1
40
1
41
1
10
63.4092734763551
20
32.1870986993414
30
0
41
1
10
63.4236149895743
20
32.1928689593263
30
0
41
1
10
63.4370758012615
20
32.2010782257317
30
0
41
1
10
63.4599666341354
20
32.2212439564778
30
0
41
1
10
63.4697053991557
20
32.2334723482972
30
0
41
1
10
63.4842613387806
20
32.2601702894859
30
0
41
1
10
63.4892965875552
20
32.27498231581
30
0
41
1
10
63.4937880852292
20
32.3019166481162
30
0
41
1
10
63.4942809628553
20
32.3141198863628
30
0
41
1
10
63.493320859622
20
32.3261762775263
30
0
0
SPLINE
5
160
100
AcDbEntity
8
1
62
256
6
ByLayer
370
13
48
1
60
0
100
AcDbSpline
70
4
71
3
72
16
73
12
40
0
40
0
40
0
40
0
40
0.461208588217
40
0.461208588217
40
0.64353496227846
40
0.64353496227846
40
0.828408472975219
40
0.828408472975219
40
0.943003644159925
40
0.943003644159925
40
1
40
1
40
1
40
1
41
1
10
8.1056624327025
20
23.6665017920808
30
0
41
1
10
8.13394960848476
20
23.7022583261631
30
0
41
1
10
8.17266608070912
20
23.7370095736337
30
0
41
1
10
8.25268397516837
20
23.7800170858173
30
0
41
1
10
8.27872153625219
20
23.7917125768792
30
0
41
1
10
8.33934560108347
20
23.812703768495
30
0
41
1
10
8.3748277773125
20
23.8222104320953
30
0
41
1
10
8.44007741480408
20
23.8331586856491
30
0
41
1
10
8.46752172250552
20
23.8363323784729
30
0
41
1
10
8.50983152522994
20
23.8387183279985
30
0
41
1
10
8.52428260692449
20
23.8391299750504
30
0
41
1
10
8.53867513459466
20
23.8391299750504
30
0
0
SPLINE
5
161
100
AcDbEntity
8
1
62
256
6
ByLayer
370
13
48
1
60
0
100
AcDbSpline
70
4
71
3
72
10
73
6
40
0
40
0
40
0
40
0
40
0.5
40
0.5
40
1
40
1
40
1
40
1
41
1
10
20.2792076144253
20
23.228270631712
30
0
41
1
10
20.3983280127646
20
23.3958370503781
30
0
41
1
10
20.5929986074742
20
23.5579985751369
30
0
41
1
10
21.0526872023656
20
24.0337119251612
30
0
41
1
10
21.3303388712507
20
24.3680828778399
30
0
41
1
10
21.4383186059722
20
24.8176151357966
30
0
0
SPLINE
5
162
100
AcDbEntity
8
1
62
256
6
ByLayer
370
13
48
1
60
0
100
AcDbSpline
70
4
71
3
72
8
73
4
40
0
40
0
40
0
40
0
40
1
40
1
40
1
40
1
41
1
10
37.7451722771783
20
30.3045767887889
30
0
41
1
10
37.7450025532225
20
30.31138293909
30
0
41
1
10
37.7449176458556
20
30.3181917338373
30
0
41
1
10
37.7449176458556
20
30.3250000000001
30
0
0
SPLINE
5
163
100
AcDbEntity
8
1
62
256
6
ByLayer
370
13
48
1
60
0
100
AcDbSpline
70
4
71
3
72
8
73
4
40
0
40
0
40
0
40
0
40
1
40
1
40
1
40
1
41
1
10
24.1281524053666
20
33.8366424773913
30
0
41
1
10
23.8556568358585
20
33.3089566943643
30
0
41
1
10
23.5808928998142
20
32.7768857561721
30
0
41
1
10
23.3120589337573
20
32.250137221283
30
0
0
SPLINE
5
164
100
AcDbEntity
8
1
62
256
6
ByLayer
370
13
48
1
60
0
100
AcDbSpline
70
4
71
3
72
16
73
12
40
0
40
0
40
0
40
0
40
0.461208588217089
40
0.461208588217089
40
0.643534962278538
40
0.643534962278538
40
0.828408472975299
40
0.828408472975299
40
0.943003644160003
40
0.943003644160003
40
1
40
1
40
1
40
1
41
1
10
11.8943375672973
20
-23.6665017920808
30
0
41
1
10
11.866050391515
20
-23.7022583261631
30
0
41
1
10
11.8273339192907
20
-23.7370095736337
30
0
41
1
10
11.7473160248315
20
-23.7800170858173
30
0
41
1
10
11.7212784637476
20
-23.7917125768792
30
0
41
1
10
11.6606543989164
20
-23.812703768495
30
0
41
1
10
11.6251722226874
20
-23.8222104320953
30
0
41
1
10
11.5599225851958
20
-23.8331586856492
30
0
41
1
10
11.5324782774943
20
-23.836332378473
30
0
41
1
10
11.4901684747699
20
-23.8387183279985
30
0
41
1
10
11.4757173930754
20
-23.8391299750504
30
0
41
1
10
11.4613248654053
20
-23.8391299750504
30
0
0
SPLINE
5
165
100
AcDbEntity
8
1
62
256
6
ByLayer
370
13
48
1
60
0
100
AcDbSpline
70
4
71
3
72
12
73
8
40
0
40
0
40
0
40
0
40
0.34173816016437
40
0.34173816016437
40
0.6849392589195
40
0.6849392589195
40
1
40
1
40
1
40
1
41
1
10
63.1879342494276
20
32.9427761170021
30
0
41
1
10
63.1892254700462
20
32.934101612044
30
0
41
1
10
63.1920609352649
20
32.9254638351546
30
0
41
1
10
63.2007598266937
20
32.9097344743553
30
0
41
1
10
63.2067633663102
20
32.9024461668173
30
0
41
1
10
63.220464058475
20
32.8909338453034
30
0
41
1
10
63.2281403943865
20
32.8863659991887
30
0
41
1
10
63.236311350747
20
32.8830267960717
30
0
0
SPLINE
5
166
100
AcDbEntity
8
1
62
256
6
ByLayer
370
13
48
1
60
0
100
AcDbSpline
70
4
71
3
72
16
73
12
40
0
40
0
40
0
40
0
40
0.461208588217002
40
0.461208588217002
40
0.643534962278485
40
0.643534962278485
40
0.828408472975268
40
0.828408472975268
40
0.943003644159995
40
0.943003644159995
40
1
40
1
40
1
40
1
41
1
10
11.8943375672973
20
8.05584836782779
30
0
41
1
10
11.866050391515
20
7.95080268681454
30
0
41
1
10
11.8273339192907
20
7.8462867097081
30
0
41
1
10
11.7473160248315
20
7.71442469145137
30
0
41
1
10
11.7212784637477
20
7.67825379650739
30
0
41
1
10
11.6606543989164
20
7.61290523367242
30
0
41
1
10
11.6251722226874
20
7.58305923051424
30
0
41
1
10
11.5599225851958
20
7.54855881865606
30
0
41
1
10
11.5324782774943
20
7.53852018102307
30
0
41
1
10
11.4901684747699
20
7.53097042135272
30
0
41
1
10
11.4757173930754
20
7.52966679426487
30
0
41
1
10
11.4613248654053
20
7.52966679426487
30
0
0
SPLINE
5
167
100
AcDbEntity
8
1
62
256
6
ByLayer
370
13
48
1
60
0
100
AcDbSpline
70
4
71
3
72
8
73
4
40
0
40
0
40
0
40
0
40
1
40
1
40
1
40
1
41
1
10
23.3120589337573
20
32.250137221283
30
0
41
1
10
22.6653939438529
20
29.7626279506747
30
0
41
1
10
22.0277266107758
20
27.2713895587525
30
0
41
1
10
21.4383186059721
20
24.8176151357966
30
0
0
SPLINE
5
168
100
AcDbEntity
8
1
62
256
6
ByLayer
370
13
48
1
60
0
100
AcDbSpline
70
4
71
3
72
8
73
4
40
0
40
0
40
0
40
0
40
1
40
1
40
1
40
1
41
1
10
23.7970279765827
20
34.6750000000004
30
0
41
1
10
23.797153233711
20
34.6750000000004
30
0
41
1
10
23.8458234076661
20
34.6750000000004
30
0
41
1
10
23.9460819765834
20
34.6750000000004
30
0
0
SPLINE
5
169
100
AcDbEntity
8
1
62
256
6
ByLayer
370
13
48
1
60
0
100
AcDbSpline
70
4
71
3
72
8
73
4
40
0
40
0
40
0
40
0
40
1
40
1
40
1
40
1
41
1
10
23.7251880458205
20
33.8366424773913
30
0
41
1
10
23.5848103143735
20
33.3036495097191
30
0
41
1
10
23.4470410387538
20
32.7748772134002
30
0
41
1
10
23.3120589337573
20
32.250137221283
30
0
0
SPLINE
5
16A
100
AcDbEntity
8
1
62
256
6
ByLayer
370
13
48
1
60
0
100
AcDbSpline
70
4
71
3
72
16
73
12
40
0
40
0
40
0
40
0
40
0.111430279628007
40
0.111430279628007
40
0.24874754351545
40
0.24874754351545
40
0.465535329195294
40
0.465535329195294
40
0.883855351867705
40
0.883855351867705
40
1
40
1
40
1
40
1
41
1
10
8.53867513459471
20
-23.8391299750502
30
0
41
1
10
8.51081528400567
20
-23.8391299750502
30
0
41
1
10
8.48260885722436
20
-23.8375361275706
30
0
41
1
10
8.42415079676061
20
-23.8311506585889
30
0
41
1
10
8.39395861076932
20
-23.8256668770179
30
0
41
1
10
8.32484624564231
20
-23.8089605749786
30
0
41
1
10
8.28921459142941
20
-23.7960379707759
30
0
41
1
10
8.20100610925385
20
-23.7556824246831
30
0
41
1
10
8.16026799314898
20
-23.725016539998
30
0
41
1
10
8.12070829847306
20
-23.6845451449631
30
0
41
1
10
8.11283840142676
20
-23.6755726082076
30
0
41
1
10
8.10566243270233
20
-23.6665017920808
30
0
0
SPLINE
5
16B
100
AcDbEntity
8
1
62
256
6
ByLayer
370
13
48
1
60
0
100
AcDbSpline
70
4
71
3
72
8
73
4
40
0
40
0
40
0
40
0
40
1
40
1
40
1
40
1
41
1
10
20.2792076144254
20
23.228270631712
30
0
41
1
10
20.1813360744831
20
23.0905949383286
30
0
41
1
10
20.1313661487749
20
22.9391976430759
30
0
41
1
10
20.1283047131099
20
22.7806196318928
30
0
0
SPLINE
5
16C
100
AcDbEntity
8
1
62
256
6
ByLayer
370
13
48
1
60
0
100
AcDbSpline
70
4
71
3
72
8
73
4
40
0
40
0
40
0
40
0
40
1
40
1
40
1
40
1
41
1
10
23.9460819765803
20
34.6749999999887
30
0
41
1
10
23.8724230307743
20
34.395554299362
30
0
41
1
10
23.7987910573111
20
34.1161019551846
30
0
41
1
10
23.7251880458205
20
33.8366424773913
30
0
0
SPLINE
5
16D
100
AcDbEntity
8
1
62
256
6
ByLayer
370
13
48
1
60
0
100
AcDbSpline
70
4
71
3
72
16
73
12
40
0
40
0
40
0
40
0
40
0.111430279628045
40
0.111430279628045
40
0.248747543515488
40
0.248747543515488
40
0.465535329195291
40
0.465535329195291
40
0.883855351867744
40
0.883855351867744
40
1
40
1
40
1
40
1
41
1
10
11.4613248654052
20
23.8391299750502
30
0
41
1
10
11.4891847159942
20
23.8391299750502
30
0
41
1
10
11.5173911427755
20
23.8375361275705
30
0
41
1
10
11.5758492032393
20
23.8311506585889
30
0
41
1
10
11.6060413892305
20
23.8256668770178
30
0
41
1
10
11.6751537543575
20
23.8089605749786
30
0
41
1
10
11.7107854085704
20
23.7960379707759
30
0
41
1
10
11.7989938907459
20
23.7556824246831
30
0
41
1
10
11.8397320068508
20
23.725016539998
30
0
41
1
10
11.8792917015267
20
23.6845451449632
30
0
41
1
10
11.887161598573
20
23.6755726082077
30
0
41
1
10
11.8943375672975
20
23.6665017920808
30
0
0
SPLINE
5
16E
100
AcDbEntity
8
1
62
256
6
ByLayer
370
13
48
1
60
0
100
AcDbSpline
70
4
71
3
72
10
73
6
40
0
40
0
40
0
40
0
40
0.64196059593989
40
0.64196059593989
40
1
40
1
40
1
40
1
41
1
10
37.7451722771675
20
30.3045767887879
30
0
41
1
10
37.7988902192103
20
30.3132429207184
30
0
41
1
10
37.8532691768912
20
30.3191988533032
30
0
41
1
10
37.9385320101615
20
30.3241122703882
30
0
41
1
10
37.9692355106059
20
30.3250000000006
30
0
41
1
10
37.9999999999988
20
30.3250000000006
30
0
0
SPLINE
5
16F
100
AcDbEntity
8
1
62
256
6
ByLayer
370
13
48
1
60
0
100
AcDbSpline
70
4
71
3
72
14
73
10
40
0
40
0
40
0
40
0
40
0.278012418692557
40
0.278012418692557
40
0.556596269058875
40
0.556596269058875
40
0.827168123940397
40
0.827168123940397
40
1
40
1
40
1
40
1
41
1
10
63.493320859621
20
32.6738237224737
30
0
41
1
10
63.4946138316515
20
32.6900600770888
30
0
41
1
10
63.4932442393872
20
32.7066237071248
30
0
41
1
10
63.4851690657398
20
32.7377362848737
30
0
41
1
10
63.4783276592317
20
32.7527170851165
30
0
41
1
10
63.4602533158655
20
32.7784829354658
30
0
41
1
10
63.4488902287905
20
32.7897301105821
30
0
41
1
10
63.4277314361011
20
32.8042900896007
30
0
41
1
10
63.4187033620077
20
32.8091072176363
30
0
41
1
10
63.409273476356
20
32.81290130066
30
0
0
SPLINE
5
170
100
AcDbEntity
8
1
62
256
6
ByLayer
370
13
48
1
60
0
100
AcDbSpline
70
4
71
3
72
12
73
8
40
0
40
0
40
0
40
0
40
0.332469083143952
40
0.332469083143952
40
0.665555032879877
40
0.665555032879877
40
1
40
1
40
1
40
1
41
1
10
63.236311350747
20
32.1169732039285
30
0
41
1
10
63.2277019070985
20
32.1134548053717
30
0
41
1
10
63.2196373202148
20
32.1085648975627
30
0
41
1
10
63.2060214390438
20
32.0967042532017
30
0
41
1
10
63.2003006100445
20
32.0895702941083
30
0
41
1
10
63.1919410587943
20
32.0741744646775
30
0
41
1
10
63.1891986366597
20
32.0657181195089
30
0
41
1
10
63.1879342494267
20
32.057223882998
30
0
0
SPLINE
5
171
100
AcDbEntity
8
1
62
256
6
ByLayer
370
13
48
1
60
0
100
AcDbSpline
70
4
71
3
72
16
73
12
40
0
40
0
40
0
40
0
40
0.461208588217103
40
0.461208588217103
40
0.643534962278533
40
0.643534962278533
40
0.828408472975262
40
0.828408472975262
40
0.943003644159948
40
0.943003644159948
40
1
40
1
40
1
40
1
41
1
10
8.10566243270247
20
-8.05584836782813
30
0
41
1
10
8.13394960848473
20
-7.95080268681482
30
0
41
1
10
8.17266608070912
20
-7.84628670970838
30
0
41
1
10
8.2526839751684
20
-7.7144246914516
30
0
41
1
10
8.27872153625222
20
-7.67825379650762
30
0
41
1
10
8.33934560108349
20
-7.61290523367265
30
0
41
1
10
8.37482777731253
20
-7.58305923051446
30
0
41
1
10
8.44007741480411
20
-7.54855881865629
30
0
41
1
10
8.46752172250552
20
-7.53852018102327
30
0
41
1
10
8.50983152522994
20
-7.53097042135295
30
0
41
1
10
8.52428260692449
20
-7.5296667942651
30
0
41
1
10
8.53867513459466
20
-7.5296667942651
30
0
0
SPLINE
5
172
100
AcDbEntity
8
1
62
256
6
ByLayer
370
13
48
1
60
0
100
AcDbSpline
70
4
71
3
72
16
73
12
40
0
40
0
40
0
40
0
40
0.111430279628026
40
0.111430279628026
40
0.248747543515449
40
0.248747543515449
40
0.465535329195198
40
0.465535329195198
40
0.88385535186751
40
0.88385535186751
40
1
40
1
40
1
40
1
41
1
10
11.4613248654052
20
-7.52966679426538
30
0
41
1
10
11.4891847159942
20
-7.52966679426538
30
0
41
1
10
11.5173911427755
20
-7.53471706780894
30
0
41
1
10
11.5758492032392
20
-7.55489210221066
30
0
41
1
10
11.6060413892305
20
-7.5721895388848
30
0
41
1
10
11.6751537543575
20
-7.62460019394123
30
0
41
1
10
11.7107854085704
20
-7.66489294253938
30
0
41
1
10
11.7989938907459
20
-7.78941367630378
30
0
41
1
10
11.8397320068508
20
-7.88247511004167
30
0
41
1
10
11.8792917015267
20
-8.00269269538029
30
0
41
1
10
11.887161598573
20
-8.029200089916
30
0
41
1
10
11.8943375672975
20
-8.05584836782796
30
0
0
SPLINE
5
173
100
AcDbEntity
8
1
62
256
6
ByLayer
370
18
48
1
60
0
100
AcDbSpline
70
4
71
3
72
10
73
6
40
0
40
0
40
0
40
0
40
0.95527866330732
40
0.95527866330732
40
1
40
1
40
1
40
1
41
1
10
56.4
20
34.7000000000002
30
0
41
1
10
56.3575631985056
20
34.7000000000002
30
0
41
1
10
56.3128593536871
20
34.6930418949905
30
0
41
1
10
56.2677727819473
20
34.6775188574228
30
0
41
1
10
56.2657624289887
20
34.6768079540693
30
0
41
1
10
56.2637535520552
20
34.6760787746028
30
0
0
SPLINE
5
174
100
AcDbEntity
8
1
62
256
6
ByLayer
370
18
48
1
60
0
100
AcDbSpline
70
4
71
3
72
10
73
6
40
0
40
0
40
0
40
0
40
0.162708415110867
40
0.162708415110867
40
1
40
1
40
1
40
1
41
1
10
56.2681266662175
20
30.3223777664471
30
0
41
1
10
56.2752427814923
20
30.3198852818429
30
0
41
1
10
56.2823812785674
20
30.3176114500386
30
0
41
1
10
56.3263525328971
20
30.3049750087921
30
0
41
1
10
56.3639443231504
20
30.3000000000002
30
0
41
1
10
56.4
20
30.3000000000002
30
0
0
SPLINE
5
175
100
AcDbEntity
8
1
62
256
6
ByLayer
370
13
48
1
60
0
100
AcDbSpline
70
4
71
2
72
6
73
3
40
0
40
0
40
0
40
1
40
1
40
1
41
0.974231088937504
10
63.6749115004789
20
32.6318857898187
30
0
41
0.983568696286945
10
63.7471545861187
20
32.6318857898187
30
0
41
1
10
63.8009195004782
20
32.6318857898187
30
0
0
SPLINE
5
176
100
AcDbEntity
8
1
62
256
6
ByLayer
370
13
48
1
60
0
100
AcDbSpline
70
4
71
2
72
6
73
3
40
0
40
0
40
0
40
1
40
1
40
1
41
0.974231088937196
10
63.6749115004765
20
32.5000000000002
30
0
41
0.983568696286673
10
63.7471545861177
20
32.5000000000001
30
0
41
1
10
63.8009195004782
20
32.5000000000001
30
0
0
SPLINE
5
177
100
AcDbEntity
8
1
62
256
6
ByLayer
370
13
48
1
60
0
100
AcDbSpline
70
4
71
2
72
6
73
3
40
0
40
0
40
0
40
1
40
1
40
1
41
0.973900758955616
10
63.5588097242367
20
32.8292212401837
30
0
41
0.983276077510767
10
63.6259442699017
20
32.8292212401838
30
0
41
1
10
63.6756897242366
20
32.8292212401838
30
0
0
SPLINE
5
178
100
AcDbEntity
8
1
62
256
6
ByLayer
370
13
48
1
60
0
100
AcDbSpline
70
4
71
3
72
8
73
4
40
0
40
0
40
0
40
0
40
1
40
1
40
1
40
1
41
1
10
65.6829840127523
20
33.1959096952365
30
0
41
1
10
65.6810947661036
20
33.2586072649794
30
0
41
1
10
65.6631068755878
20
33.3142212246634
30
0
41
1
10
65.6342900358637
20
33.3597632195486
30
0
0
SPLINE
5
179
100
AcDbEntity
8
1
62
256
6
ByLayer
370
13
48
1
60
0
100
AcDbSpline
70
4
71
3
72
10
73
6
40
0
40
0
40
0
40
0
40
0.262862791350924
40
0.262862791350924
40
1
40
1
40
1
40
1
41
1
10
65.6342900358642
20
33.3597632195478
30
0
41
1
10
65.702577551915
20
33.4228647568845
30
0
41
1
10
65.7722682487008
20
33.4844848655174
30
0
41
1
10
66.0422196182249
20
33.7125417854825
30
0
41
1
10
66.2522353540995
20
33.8684395738814
30
0
41
1
10
66.4715765647266
20
34.00882794764
30
0
0
SPLINE
5
17A
100
AcDbEntity
8
1
62
256
6
ByLayer
370
13
48
1
60
0
100
AcDbSpline
70
4
71
3
72
12
73
8
40
0
40
0
40
0
40
0
40
0.0871818958158546
40
0.0871818958158546
40
0.555816072150762
40
0.555816072150762
40
1
40
1
40
1
40
1
41
1
10
66.4715765647289
20
34.0088279476414
30
0
41
1
10
66.5163556229259
20
34.0005677643208
30
0
41
1
10
66.5625010428803
20
33.9935213925284
30
0
41
1
10
66.8599208005271
20
33.9563514888542
30
0
41
1
10
67.1493997212845
20
33.9563775665124
30
0
41
1
10
67.7340901033075
20
33.9937747827947
30
0
41
1
10
68.0363033123272
20
34.0322326164655
30
0
41
1
10
68.3321466497296
20
34.0796455600646
30
0
0
SPLINE
5
17B
100
AcDbEntity
8
1
62
256
6
ByLayer
370
13
48
1
60
0
100
AcDbSpline
70
4
71
3
72
8
73
4
40
0
40
0
40
0
40
0
40
1
40
1
40
1
40
1
41
1
10
68.3321466497296
20
34.0796455600646
30
0
41
1
10
68.4819028297927
20
34.1036460374163
30
0
41
1
10
68.6367163407338
20
34.1030063753991
30
0
41
1
10
68.7872005279842
20
34.0838507464297
30
0
0
SPLINE
5
17C
100
AcDbEntity
8
1
62
256
6
ByLayer
370
13
48
1
60
0
100
AcDbSpline
70
4
71
3
72
8
73
4
40
0
40
0
40
0
40
0
40
1
40
1
40
1
40
1
41
1
10
68.7872005279842
20
34.0838507464297
30
0
41
1
10
68.9080845009776
20
34.0684630264485
30
0
41
1
10
69.0296597255468
20
34.0542294293057
30
0
41
1
10
69.1488622536791
20
34.0413972802389
30
0
0
SPLINE
5
17D
100
AcDbEntity
8
1
62
256
6
ByLayer
370
13
48
1
60
0
100
AcDbSpline
70
4
71
3
72
8
73
4
40
0
40
0
40
0
40
0
40
1
40
1
40
1
40
1
41
1
10
69.1488622536791
20
34.0413972802389
30
0
41
1
10
69.2906386357502
20
34.0261350563801
30
0
41
1
10
69.4304893310889
20
33.9900023581681
30
0
41
1
10
69.5673140428787
20
33.9477095884685
30
0
0
SPLINE
5
17E
100
AcDbEntity
8
1
62
256
6
ByLayer
370
13
48
1
60
0
100
AcDbSpline
70
4
71
3
72
8
73
4
40
0
40
0
40
0
40
0
40
1
40
1
40
1
40
1
41
1
10
69.5673140428785
20
33.9477095884686
30
0
41
1
10
69.6274617011981
20
33.907537803678
30
0
41
1
10
69.6869033219912
20
33.8663024972264
30
0
41
1
10
69.7459718007426
20
33.8245548124015
30
0
0
SPLINE
5
17F
100
AcDbEntity
8
1
62
256
6
ByLayer
370
13
48
1
60
0
100
AcDbSpline
70
4
71
3
72
8
73
4
40
0
40
0
40
0
40
0
40
1
40
1
40
1
40
1
41
1
10
69.7459718007426
20
33.8245548124015
30
0
41
1
10
69.6240345464985
20
33.8294013990146
30
0
41
1
10
69.5024410495939
20
33.8348087213724
30
0
41
1
10
69.3785881656746
20
33.8408312831707
30
0
0
SPLINE
5
180
100
AcDbEntity
8
1
62
256
6
ByLayer
370
13
48
1
60
0
100
AcDbSpline
70
4
71
3
72
12
73
8
40
0
40
0
40
0
40
0
40
0.182835658751355
40
0.182835658751355
40
0.599400569939014
40
0.599400569939014
40
1
40
1
40
1
40
1
41
1
10
69.3785881656746
20
33.8408312831707
30
0
41
1
10
69.3310683850015
20
33.8431420151189
30
0
41
1
10
69.2829585315104
20
33.8453332816026
30
0
41
1
10
69.1239573417232
20
33.8524049440406
30
0
41
1
10
69.0107346591717
20
33.8571697878602
30
0
41
1
10
68.7864706205419
20
33.8662554882309
30
0
41
1
10
68.6749954711982
20
33.870875718016
30
0
41
1
10
68.5635072589985
20
33.8751460034872
30
0
0
SPLINE
5
181
100
AcDbEntity
8
1
62
256
6
ByLayer
370
13
48
1
60
0
100
AcDbSpline
70
4
71
3
72
16
73
12
40
0
40
0
40
0
40
0
40
0.0921366095856315
40
0.0921366095856315
40
0.290118390674097
40
0.290118390674097
40
0.595936908248371
40
0.595936908248371
40
0.880361355152389
40
0.880361355152389
40
1
40
1
40
1
40
1
41
1
10
68.5635072589985
20
33.8751460034872
30
0
41
1
10
68.5591982602681
20
33.8753110492289
30
0
41
1
10
68.5548883609445
20
33.8754571269737
30
0
41
1
10
68.5413159701824
20
33.8758567163535
30
0
41
1
10
68.5320505661206
20
33.8760421828905
30
0
41
1
10
68.5084733436751
20
33.8762766967483
30
0
41
1
10
68.4941577759219
20
33.8761843399123
30
0
41
1
10
68.4665431360997
20
33.8755888319825
30
0
41
1
10
68.4532407620858
20
33.875056058063
30
0
41
1
10
68.434357473755
20
33.8740733293633
30
0
41
1
10
68.4287674124236
20
33.8737545195634
30
0
41
1
10
68.4231781443762
20
33.8734302954034
30
0
0
SPLINE
5
182
100
AcDbEntity
8
1
62
256
6
ByLayer
370
13
48
1
60
0
100
AcDbSpline
70
4
71
3
72
10
73
6
40
0
40
0
40
0
40
0
40
0.526039489910472
40
0.526039489910472
40
1
40
1
40
1
40
1
41
1
10
68.4231781443762
20
33.8734302954034
30
0
41
1
10
68.3243838115333
20
33.8676994001753
30
0
41
1
10
68.2257440636944
20
33.8523183463717
30
0
41
1
10
68.0427884076341
20
33.8067528428965
30
0
41
1
10
67.9555807587938
20
33.7861317586826
30
0
41
1
10
67.8688521819128
20
33.763655189034
30
0
0
SPLINE
5
183
100
AcDbEntity
8
1
62
256
6
ByLayer
370
13
48
1
60
0
100
AcDbSpline
70
4
71
3
72
13
73
9
40
0
40
0
40
0
40
0
40
0.579075565907237
40
0.579075565907237
40
0.579075565907237
40
0.952945790436294
40
0.952945790436294
40
1
40
1
40
1
40
1
41
1
10
67.8688521819128
20
33.763655189034
30
0
41
1
10
67.4253573800224
20
33.6487191188024
30
0
41
1
10
66.9763277002349
20
33.5323167063328
30
0
41
1
10
66.557589780142
20
33.4236137197987
30
0
41
1
10
66.2850802933633
20
33.3528711535052
30
0
41
1
10
66.021323397112
20
33.2842757079932
30
0
41
1
10
65.7443878409567
20
33.2119626899106
30
0
41
1
10
65.7135476384127
20
33.2039037701824
30
0
41
1
10
65.6829840127523
20
33.1959096952366
30
0
0
SPLINE
5
184
100
AcDbEntity
8
1
62
256
6
ByLayer
370
13
48
1
60
0
100
AcDbSpline
70
4
71
3
72
8
73
4
40
0
40
0
40
0
40
0
40
1
40
1
40
1
40
1
41
1
10
65.6342903231341
20
31.6402365149988
30
0
41
1
10
65.6631071748038
20
31.6857785650398
30
0
41
1
10
65.6810950586271
20
31.7413925938017
30
0
41
1
10
65.6829842751339
20
31.8040902361365
30
0
0
SPLINE
5
185
100
AcDbEntity
8
1
62
256
6
ByLayer
370
13
48
1
60
0
100
AcDbSpline
70
4
71
3
72
13
73
9
40
0
40
0
40
0
40
0
40
0.579075643919431
40
0.579075643919431
40
0.579075643919431
40
0.952945918815726
40
0.952945918815726
40
1
40
1
40
1
40
1
41
1
10
67.8688521819128
20
31.2363448109663
30
0
41
1
10
67.4253573800224
20
31.3512808811979
30
0
41
1
10
66.9763277002349
20
31.4676832936674
30
0
41
1
10
66.557589780142
20
31.5763862802016
30
0
41
1
10
66.2850802933633
20
31.6471288464951
30
0
41
1
10
66.021323397112
20
31.7157242920071
30
0
41
1
10
65.7443879299412
20
31.7880372868542
30
0
41
1
10
65.7135478149083
20
31.7960961836977
30
0
41
1
10
65.6829842751338
20
31.8040902361365
30
0
0
SPLINE
5
186
100
AcDbEntity
8
1
62
256
6
ByLayer
370
13
48
1
60
0
100
AcDbSpline
70
4
71
3
72
10
73
6
40
0
40
0
40
0
40
0
40
0.526039489910472
40
0.526039489910472
40
1
40
1
40
1
40
1
41
1
10
68.4231781443762
20
31.1265697045969
30
0
41
1
10
68.3243838115333
20
31.132300599825
30
0
41
1
10
68.2257440636944
20
31.1476816536286
30
0
41
1
10
68.0427884076341
20
31.1932471571038
30
0
41
1
10
67.9555807587938
20
31.2138682413177
30
0
41
1
10
67.8688521819128
20
31.2363448109663
30
0
0
SPLINE
5
187
100
AcDbEntity
8
1
62
256
6
ByLayer
370
13
48
1
60
0
100
AcDbSpline
70
4
71
3
72
16
73
12
40
0
40
0
40
0
40
0
40
0.0921366095856315
40
0.0921366095856315
40
0.290118390674097
40
0.290118390674097
40
0.595936908248371
40
0.595936908248371
40
0.880361355152389
40
0.880361355152389
40
1
40
1
40
1
40
1
41
1
10
68.5635072589985
20
31.1248539965131
30
0
41
1
10
68.5591982602681
20
31.1246889507714
30
0
41
1
10
68.5548883609445
20
31.1245428730266
30
0
41
1
10
68.5413159701824
20
31.1241432836468
30
0
41
1
10
68.5320505661206
20
31.1239578171098
30
0
41
1
10
68.5084733436751
20
31.123723303252
30
0
41
1
10
68.4941577759219
20
31.123815660088
30
0
41
1
10
68.4665431360997
20
31.1244111680178
30
0
41
1
10
68.4532407620858
20
31.1249439419373
30
0
41
1
10
68.434357473755
20
31.125926670637
30
0
41
1
10
68.4287674124236
20
31.1262454804369
30
0
41
1
10
68.4231781443762
20
31.1265697045969
30
0
0
SPLINE
5
188
100
AcDbEntity
8
1
62
256
6
ByLayer
370
13
48
1
60
0
100
AcDbSpline
70
4
71
3
72
12
73
8
40
0
40
0
40
0
40
0
40
0.182835658751355
40
0.182835658751355
40
0.599400569939014
40
0.599400569939014
40
1
40
1
40
1
40
1
41
1
10
69.3785881656746
20
31.1591687168296
30
0
41
1
10
69.3310683850015
20
31.1568579848814
30
0
41
1
10
69.2829585315104
20
31.1546667183977
30
0
41
1
10
69.1239573417232
20
31.1475950559597
30
0
41
1
10
69.0107346591717
20
31.14283021214
30
0
41
1
10
68.7864706205419
20
31.1337445117694
30
0
41
1
10
68.6749954711982
20
31.1291242819843
30
0
41
1
10
68.5635072589985
20
31.1248539965131
30
0
0
SPLINE
5
189
100
AcDbEntity
8
1
62
256
6
ByLayer
370
13
48
1
60
0
100
AcDbSpline
70
4
71
3
72
8
73
4
40
0
40
0
40
0
40
0
40
1
40
1
40
1
40
1
41
1
10
69.7459718007426
20
31.1754451875988
30
0
41
1
10
69.6240345464985
20
31.1705986009857
30
0
41
1
10
69.5024410495939
20
31.1651912786278
30
0
41
1
10
69.3785881656746
20
31.1591687168296
30
0
0
SPLINE
5
18A
100
AcDbEntity
8
1
62
256
6
ByLayer
370
13
48
1
60
0
100
AcDbSpline
70
4
71
3
72
8
73
4
40
0
40
0
40
0
40
0
40
1
40
1
40
1
40
1
41
1
10
69.5673140428785
20
31.0522904115316
30
0
41
1
10
69.6274617011981
20
31.0924621963223
30
0
41
1
10
69.6869033219912
20
31.1336975027739
30
0
41
1
10
69.7459718007426
20
31.1754451875988
30
0
0
SPLINE
5
18B
100
AcDbEntity
8
1
62
256
6
ByLayer
370
13
48
1
60
0
100
AcDbSpline
70
4
71
3
72
8
73
4
40
0
40
0
40
0
40
0
40
1
40
1
40
1
40
1
41
1
10
69.1488622536791
20
30.9586027197614
30
0
41
1
10
69.2906386357502
20
30.9738649436202
30
0
41
1
10
69.4304893310889
20
31.0099976418322
30
0
41
1
10
69.5673140428787
20
31.0522904115318
30
0
0
SPLINE
5
18C
100
AcDbEntity
8
1
62
256
6
ByLayer
370
13
48
1
60
0
100
AcDbSpline
70
4
71
3
72
8
73
4
40
0
40
0
40
0
40
0
40
1
40
1
40
1
40
1
41
1
10
68.7872005279842
20
30.9161492535706
30
0
41
1
10
68.9080845009776
20
30.9315369735518
30
0
41
1
10
69.0296597255468
20
30.9457705706946
30
0
41
1
10
69.1488622536791
20
30.9586027197614
30
0
0
SPLINE
5
18D
100
AcDbEntity
8
1
62
256
6
ByLayer
370
13
48
1
60
0
100
AcDbSpline
70
4
71
3
72
8
73
4
40
0
40
0
40
0
40
0
40
1
40
1
40
1
40
1
41
1
10
68.3321466497296
20
30.9203544399356
30
0
41
1
10
68.4819028297927
20
30.896353962584
30
0
41
1
10
68.6367163407338
20
30.8969936246012
30
0
41
1
10
68.7872005279842
20
30.9161492535706
30
0
0
SPLINE
5
18E
100
AcDbEntity
8
1
62
256
6
ByLayer
370
13
48
1
60
0
100
AcDbSpline
70
4
71
3
72
12
73
8
40
0
40
0
40
0
40
0
40
0.0871818958158546
40
0.0871818958158546
40
0.555816072150762
40
0.555816072150762
40
1
40
1
40
1
40
1
41
1
10
66.4715765647289
20
30.9911720523589
30
0
41
1
10
66.5163556229259
20
30.9994322356795
30
0
41
1
10
66.5625010428803
20
31.0064786074719
30
0
41
1
10
66.8599208005271
20
31.0436485111461
30
0
41
1
10
67.1493997212845
20
31.0436224334879
30
0
41
1
10
67.7340901033075
20
31.0062252172056
30
0
41
1
10
68.0363033123272
20
30.9677673835347
30
0
41
1
10
68.3321466497296
20
30.9203544399356
30
0
0
SPLINE
5
18F
100
AcDbEntity
8
1
62
256
6
ByLayer
370
13
48
1
60
0
100
AcDbSpline
70
4
71
3
72
10
73
6
40
0
40
0
40
0
40
0
40
0.262862519552919
40
0.262862519552919
40
1
40
1
40
1
40
1
41
1
10
65.6342903231341
20
31.6402365149988
30
0
41
1
10
65.7025777473366
20
31.5771350703228
30
0
41
1
10
65.7722683482754
20
31.5155150503615
30
0
41
1
10
66.0422196182249
20
31.2874582145178
30
0
41
1
10
66.2522353540995
20
31.1315604261189
30
0
41
1
10
66.4715765647266
20
30.9911720523603
30
0
0
SPLINE
5
190
100
AcDbEntity
8
1
62
256
6
ByLayer
370
13
48
1
60
0
100
AcDbSpline
70
4
71
3
72
10
73
6
40
0
40
0
40
0
40
0
40
0.812931652353805
40
0.812931652353805
40
1
40
1
40
1
40
1
41
1
10
65.4655618269024
20
33.2926454551319
30
0
41
1
10
65.4905044130484
20
33.264299952421
30
0
41
1
10
65.5093173194924
20
33.2304479659952
30
0
41
1
10
65.5191608890839
20
33.183056271759
30
0
41
1
10
65.5204525785783
20
33.1738209519042
30
0
41
1
10
65.5211345260091
20
33.1643651899039
30
0
0
SPLINE
5
191
100
AcDbEntity
8
1
62
256
6
ByLayer
370
13
48
1
60
0
100
AcDbSpline
70
4
71
3
72
12
73
8
40
0
40
0
40
0
40
0
40
0.419184864075828
40
0.419184864075828
40
0.521895266235895
40
0.521895266235895
40
1
40
1
40
1
40
1
41
1
10
65.5211345260091
20
33.1643651899039
30
0
41
1
10
65.5237504340724
20
33.1280934731388
30
0
41
1
10
65.5343283545523
20
33.0870416833498
30
0
41
1
10
65.555966743327
20
33.0349320409512
30
0
41
1
10
65.5606993957357
20
33.0244815416463
30
0
41
1
10
65.5894233514625
20
32.9659411641834
30
0
41
1
10
65.6220730803716
20
32.9166284176092
30
0
41
1
10
65.6609228658779
20
32.8711961898734
30
0
0
SPLINE
5
192
100
AcDbEntity
8
1
62
256
6
ByLayer
370
13
48
1
60
0
100
AcDbSpline
70
4
71
3
72
18
73
14
40
0
40
0
40
0
40
0
40
0.303051933317988
40
0.303051933317988
40
0.487257767964007
40
0.487257767964007
40
0.499533009530601
40
0.499533009530601
40
0.667187139568689
40
0.667187139568689
40
0.695147561451768
40
0.695147561451768
40
1
40
1
40
1
40
1
41
1
10
65.6609228658779
20
32.8711961898734
30
0
41
1
10
65.7135335135173
20
32.8096715535428
30
0
41
1
10
65.7619362646627
20
32.7400422353545
30
0
41
1
10
65.8111946407649
20
32.6147469381
30
0
41
1
10
65.8231149559066
20
32.5628635856526
30
0
41
1
10
65.8246102881376
20
32.5077353187707
30
0
41
1
10
65.8246606321735
20
32.5042264749956
30
0
41
1
10
65.8247477590766
20
32.4535884869376
30
0
41
1
10
65.8161442690325
20
32.4058924511247
30
0
41
1
10
65.7987132174386
20
32.3541403404526
30
0
41
1
10
65.7960149985792
20
32.3467205835081
30
0
41
1
10
65.7626142306366
20
32.2609299910509
30
0
41
1
10
65.7138905703339
20
32.1907459408386
30
0
41
1
10
65.6609229052364
20
32.1288037497507
30
0
0
SPLINE
5
193
100
AcDbEntity
8
1
62
256
6
ByLayer
370
13
48
1
60
0
100
AcDbSpline
70
4
71
3
72
12
73
8
40
0
40
0
40
0
40
0
40
0.059394264300233
40
0.059394264300233
40
0.553288200423872
40
0.553288200423872
40
1
40
1
40
1
40
1
41
1
10
65.6609229052364
20
32.1288037497507
30
0
41
1
10
65.656024990239
20
32.1230759611811
30
0
41
1
10
65.651230555261
20
32.1172983235911
30
0
41
1
10
65.6081599802425
20
32.0638083785822
30
0
41
1
10
65.5766828886214
20
32.0123520851268
30
0
41
1
10
65.5357697752028
20
31.918399240266
30
0
41
1
10
65.5239217382615
20
31.8742794310731
30
0
41
1
10
65.5211347111541
20
31.8356346865481
30
0
0
SPLINE
5
194
100
AcDbEntity
8
1
62
256
6
ByLayer
370
13
48
1
60
0
100
AcDbSpline
70
4
71
3
72
10
73
6
40
0
40
0
40
0
40
0
40
0.812842204044401
40
0.812842204044401
40
1
40
1
40
1
40
1
41
1
10
65.5211347111541
20
31.8356346865481
30
0
41
1
10
65.5182139494672
20
31.7951355866627
30
0
41
1
10
65.5036615838422
20
31.7586214881611
30
0
41
1
10
65.4768473699088
20
31.7208422288169
30
0
41
1
10
65.4713784689837
20
31.7139642416798
30
0
41
1
10
65.4655620286946
20
31.7073542584228
30
0
0
SPLINE
5
195
100
AcDbEntity
8
1
62
256
6
ByLayer
370
13
48
1
60
0
100
AcDbSpline
70
4
71
3
72
8
73
4
40
0
40
0
40
0
40
0
40
1
40
1
40
1
40
1
41
1
10
65.4655620286946
20
31.7073542584228
30
0
41
1
10
65.3277223079949
20
31.6881846576635
30
0
41
1
10
65.1898798111548
20
31.6690339183019
30
0
41
1
10
65.0520355651061
20
31.6498952314959
30
0
0
SPLINE
5
196
100
AcDbEntity
8
1
62
256
6
ByLayer
370
13
48
1
60
0
100
AcDbSpline
70
4
71
3
72
14
73
10
40
0
40
0
40
0
40
0
40
0.102447041397989
40
0.102447041397989
40
0.525388411553141
40
0.525388411553141
40
0.919987754093892
40
0.919987754093892
40
1
40
1
40
1
40
1
41
1
10
65.0520355651061
20
31.6498952314959
30
0
41
1
10
65.0324592862907
20
31.6471772053192
30
0
41
1
10
65.0129161067097
20
31.6441451222142
30
0
41
1
10
64.9139233159999
20
31.6271957006302
30
0
41
1
10
64.8351625923797
20
31.6083134288599
30
0
41
1
10
64.6931025586169
20
31.5665268304047
30
0
41
1
10
64.6307076370283
20
31.5417926271063
30
0
41
1
10
64.565406168018
20
31.5097222321042
30
0
41
1
10
64.5545512003208
20
31.504171733634
30
0
41
1
10
64.5440056455243
20
31.4985430586709
30
0
0
SPLINE
5
197
100
AcDbEntity
8
1
62
256
6
ByLayer
370
13
48
1
60
0
100
AcDbSpline
70
4
71
3
72
14
73
10
40
0
40
0
40
0
40
0
40
0.15204037662591
40
0.15204037662591
40
0.440443065599007
40
0.440443065599007
40
0.719928934942157
40
0.719928934942157
40
1
40
1
40
1
40
1
41
1
10
64.5440056455243
20
31.4985430586709
30
0
41
1
10
64.5321089705187
20
31.4921932252064
30
0
41
1
10
64.5192322013557
20
31.4860758642747
30
0
41
1
10
64.4798769240088
20
31.4694686432136
30
0
41
1
10
64.4508842095018
20
31.4596970556793
30
0
41
1
10
64.3909384751368
20
31.4441595261268
30
0
41
1
10
64.3593518723186
20
31.4381053464069
30
0
41
1
10
64.2967214890184
20
31.4303600724936
30
0
41
1
10
64.2648490497149
20
31.4285847830633
30
0
41
1
10
64.2351632963049
20
31.4291077505645
30
0
0
SPLINE
5
198
100
AcDbEntity
8
1
62
256
6
ByLayer
370
13
48
1
60
0
100
AcDbSpline
70
4
71
3
72
8
73
4
40
0
40
0
40
0
40
0
40
1
40
1
40
1
40
1
41
1
10
64.2351632963049
20
31.4291077505645
30
0
41
1
10
64.1116779762095
20
31.431283164757
30
0
41
1
10
63.9882816195312
20
31.4336908364153
30
0
41
1
10
63.864905395161
20
31.4358876498977
30
0
0
SPLINE
5
199
100
AcDbEntity
8
1
62
256
6
ByLayer
370
13
48
1
60
0
100
AcDbSpline
70
4
71
3
72
12
73
8
40
0
40
0
40
0
40
0
40
0.32728025931415
40
0.32728025931415
40
0.707681653994561
40
0.707681653994561
40
1
40
1
40
1
40
1
41
1
10
63.864905395161
20
31.4358876498977
30
0
41
1
10
63.8385896978139
20
31.467841841196
30
0
41
1
10
63.8091013360519
20
31.5066262541449
30
0
41
1
10
63.7722979245712
20
31.618053109416
30
0
41
1
10
63.7633628845556
20
31.6936966302298
30
0
41
1
10
63.7684540483803
20
31.8431747922854
30
0
41
1
10
63.7776464530692
20
31.9147758177938
30
0
41
1
10
63.7928855278384
20
31.9885466496251
30
0
0
SPLINE
5
19A
100
AcDbEntity
8
1
62
256
6
ByLayer
370
13
48
1
60
0
100
AcDbSpline
70
4
71
3
72
12
73
8
40
0
40
0
40
0
40
0
40
0.358487530595534
40
0.358487530595534
40
0.67894909180414
40
0.67894909180414
40
1
40
1
40
1
40
1
41
1
10
63.7928855278384
20
31.9885466496251
30
0
41
1
10
63.8101021066423
20
31.9944601877987
30
0
41
1
10
63.827382440711
20
32.0002158732564
30
0
41
1
10
63.860215276265
20
32.0108233789488
30
0
41
1
10
63.8757583280478
20
32.0157068447861
30
0
41
1
10
63.9069529184184
20
32.0252397189202
30
0
41
1
10
63.9226059757712
20
32.0298890990445
30
0
41
1
10
63.9382953258455
20
32.0344190389036
30
0
0
SPLINE
5
19B
100
AcDbEntity
8
1
62
256
6
ByLayer
370
13
48
1
60
0
100
AcDbSpline
70
4
71
3
72
8
73
4
40
0
40
0
40
0
40
0
40
1
40
1
40
1
40
1
41
1
10
63.9382953258455
20
32.0344190389036
30
0
41
1
10
63.9416733187259
20
32.0353943568435
30
0
41
1
10
63.9450514372896
20
32.0363693639366
30
0
41
1
10
63.948429680894
20
32.0373440584073
30
0
0
SPLINE
5
19C
100
AcDbEntity
8
1
62
256
6
ByLayer
370
13
48
1
60
0
100
AcDbSpline
70
4
71
3
72
16
73
12
40
0
40
0
40
0
40
0
40
0.226396549712979
40
0.226396549712979
40
0.49604828471296
40
0.49604828471296
40
0.75456075351648
40
0.75456075351648
40
0.960928711930137
40
0.960928711930137
40
1
40
1
40
1
40
1
41
1
10
63.9484296808941
20
32.0373440584063
30
0
41
1
10
63.9849980284647
20
32.0478947972976
30
0
41
1
10
64.020752575175
20
32.062185780593
30
0
41
1
10
64.0931438135199
20
32.1020269220661
30
0
41
1
10
64.1295704288592
20
32.1297945247813
30
0
41
1
10
64.1876067105569
20
32.194348976769
30
0
41
1
10
64.2105886007523
20
32.2317498459914
30
0
41
1
10
64.2363122457502
20
32.3038874638591
30
0
41
1
10
64.2424833383663
20
32.338527761817
30
0
41
1
10
64.242759582289
20
32.3794984268324
30
0
41
1
10
64.2425919492039
20
32.3861070493906
30
0
41
1
10
64.2422132359233
20
32.392704746812
30
0
0
SPLINE
5
19D
100
AcDbEntity
8
1
62
256
6
ByLayer
370
13
48
1
60
0
100
AcDbSpline
70
4
71
3
72
8
73
4
40
0
40
0
40
0
40
0
40
1
40
1
40
1
40
1
41
1
10
64.2422132359233
20
32.392704746812
30
0
41
1
10
64.2381359316433
20
32.4637369004532
30
0
41
1
10
64.2381359366078
20
32.5362630204285
30
0
41
1
10
64.2422132508815
20
32.607295170962
30
0
0
SPLINE
5
19E
100
AcDbEntity
8
1
62
256
6
ByLayer
370
13
48
1
60
0
100
AcDbSpline
70
4
71
3
72
14
73
10
40
0
40
0
40
0
40
0
40
0.227808198603014
40
0.227808198603014
40
0.466915974097517
40
0.466915974097517
40
0.725559413975037
40
0.725559413975037
40
1
40
1
40
1
40
1
41
1
10
64.2422132508815
20
32.607295170962
30
0
41
1
10
64.2443855985
20
32.6451403093768
30
0
41
1
10
64.2393665326208
20
32.6838480112031
30
0
41
1
10
64.2156498885991
20
32.7571194202947
30
0
41
1
10
64.1959293248206
20
32.7925845285898
30
0
41
1
10
64.1444211748329
20
32.8563097306803
30
0
41
1
10
64.11101639531
20
32.8847995829206
30
0
41
1
10
64.0357732945888
20
32.9316042938909
30
0
41
1
10
63.9926409003131
20
32.9499000212724
30
0
41
1
10
63.9484297121925
20
32.9626558831553
30
0
0
SPLINE
5
19F
100
AcDbEntity
8
1
62
256
6
ByLayer
370
13
48
1
60
0
100
AcDbSpline
70
4
71
3
72
8
73
4
40
0
40
0
40
0
40
0
40
1
40
1
40
1
40
1
41
1
10
63.9484297121925
20
32.9626558831553
30
0
41
1
10
63.9450514681622
20
32.9636305779348
30
0
41
1
10
63.9416733491718
20
32.9646055853352
30
0
41
1
10
63.938295355865
20
32.9655809035846
30
0
0
SPLINE
5
1A0
100
AcDbEntity
8
1
62
256
6
ByLayer
370
13
48
1
60
0
100
AcDbSpline
70
4
71
3
72
12
73
8
40
0
40
0
40
0
40
0
40
0.507485182159569
40
0.507485182159569
40
0.827579760922024
40
0.827579760922024
40
1
40
1
40
1
40
1
41
1
10
63.9382953558651
20
32.9655809035856
30
0
41
1
10
63.9134968147625
20
32.9727409147218
30
0
41
1
10
63.8887878028273
20
32.9801996202471
30
0
41
1
10
63.8486726419301
20
32.9928632019156
30
0
41
1
10
63.8331982998657
20
32.9978840279068
30
0
41
1
10
63.8094625902884
20
33.005801022455
30
0
41
1
10
63.8011667453271
20
33.0086088832061
30
0
41
1
10
63.7928855362849
20
33.011453307369
30
0
0
SPLINE
5
1A1
100
AcDbEntity
8
1
62
256
6
ByLayer
370
13
48
1
60
0
100
AcDbSpline
70
4
71
3
72
14
73
10
40
0
40
0
40
0
40
0
40
0.174964566773922
40
0.174964566773922
40
0.581070400641029
40
0.581070400641029
40
0.936777115762908
40
0.936777115762908
40
1
40
1
40
1
40
1
41
1
10
63.7928855362849
20
33.011453307369
30
0
41
1
10
63.7837027674589
20
33.0559061710449
30
0
41
1
10
63.7767060888798
20
33.0994740142624
30
0
41
1
10
63.7616844548898
20
33.2367324499893
30
0
41
1
10
63.7641619121848
20
33.3248759845201
30
0
41
1
10
63.7931235303016
20
33.4580355448733
30
0
41
1
10
63.8169014232755
20
33.5089084050948
30
0
41
1
10
63.8539980910054
20
33.5517835977879
30
0
41
1
10
63.8597682725894
20
33.557874291742
30
0
41
1
10
63.8649053974482
20
33.5641121126544
30
0
0
SPLINE
5
1A2
100
AcDbEntity
8
1
62
256
6
ByLayer
370
13
48
1
60
0
100
AcDbSpline
70
4
71
3
72
10
73
6
40
0
40
0
40
0
40
0
40
0.317064872302993
40
0.317064872302993
40
1
40
1
40
1
40
1
41
1
10
63.8649053974481
20
33.5641121126544
30
0
41
1
10
63.9040236620118
20
33.5648086249287
30
0
41
1
10
63.9430373997723
20
33.565676924847
30
0
41
1
10
64.0664520217479
20
33.5679627455054
30
0
41
1
10
64.1508304836203
20
33.5694062063624
30
0
41
1
10
64.2351632251839
20
33.5708918492054
30
0
0
SPLINE
5
1A3
100
AcDbEntity
8
1
62
256
6
ByLayer
370
13
48
1
60
0
100
AcDbSpline
70
4
71
3
72
14
73
10
40
0
40
0
40
0
40
0
40
0.0629171722654902
40
0.0629171722654902
40
0.360926335929676
40
0.360926335929676
40
0.68129834430082
40
0.68129834430082
40
1
40
1
40
1
40
1
41
1
10
64.2351632251839
20
33.5708918492054
30
0
41
1
10
64.24194031934
20
33.571011237491
30
0
41
1
10
64.2488122949275
20
33.5710142607437
30
0
41
1
10
64.2880807841643
20
33.5703724811337
30
0
41
1
10
64.3224484834362
20
33.5672161100553
30
0
41
1
10
64.391180122346
20
33.5560271135658
30
0
41
1
10
64.4264982847355
20
33.5474786486536
30
0
41
1
10
64.4900591762722
20
33.5269228118072
30
0
41
1
10
64.5192879379177
20
33.5146494930991
30
0
41
1
10
64.5440056178101
20
33.5014564654707
30
0
0
SPLINE
5
1A4
100
AcDbEntity
8
1
62
256
6
ByLayer
370
13
48
1
60
0
100
AcDbSpline
70
4
71
3
72
12
73
8
40
0
40
0
40
0
40
0
40
0.146285672307715
40
0.146285672307715
40
0.570909324013412
40
0.570909324013412
40
1
40
1
40
1
40
1
41
1
10
64.5440056178101
20
33.5014564654707
30
0
41
1
10
64.5633830780363
20
33.4911137727404
30
0
41
1
10
64.5838104178634
20
33.4810268882746
30
0
41
1
10
64.6656707087217
20
33.4433794933369
30
0
41
1
10
64.7379586329225
20
33.4189671249366
30
0
41
1
10
64.8898448255197
20
33.3783627399423
30
0
41
1
10
64.9709017387467
20
33.3613691540129
30
0
41
1
10
65.0520356091022
20
33.3501043132117
30
0
0
SPLINE
5
1A5
100
AcDbEntity
8
1
62
256
6
ByLayer
370
18
48
1
60
0
100
AcDbSpline
70
4
71
3
72
16
73
12
40
0
40
0
40
0
40
0
40
0.0452651449286995
40
0.51030348917384
40
0.74282266129641
40
0.859082247357695
40
0.917212040388338
40
0.946276936903659
40
0.96080938516132
40
0.97534183341898
40
1
40
1
40
1
40
1
41
1
10
63.2986246430131
20
34.7000000000002
30
0
41
1
10
63.2927891088829
20
34.7000000000002
30
0
41
1
10
63.227001343463
20
34.7000000000002
30
0
41
1
10
63.1312377274569
20
34.7000000000002
30
0
41
1
10
63.0263192243348
20
34.7000000000002
30
0
41
1
10
62.9738635552326
20
34.7000000000002
30
0
41
1
10
62.9476303454673
20
34.7000000000002
30
0
41
1
10
62.9345221056094
20
34.7000000000002
30
0
41
1
10
62.9270180784932
20
34.7000000000002
30
0
41
1
10
62.9198259414837
20
34.7000000000002
30
0
41
1
10
62.9141937008636
20
34.7000000000002
30
0
41
1
10
62.9105156430134
20
34.7000000000002
30
0
0
SPLINE
5
1A6
100
AcDbEntity
8
1
62
256
6
ByLayer
370
13
48
1
60
0
100
AcDbSpline
70
4
71
3
72
8
73
4
40
0
40
0
40
0
40
0
40
1
40
1
40
1
40
1
41
1
10
65.0520356091022
20
33.3501043132117
30
0
41
1
10
65.1898797708723
20
33.330965665802
30
0
41
1
10
65.3277221857776
20
33.3118149827185
30
0
41
1
10
65.465561826902
20
33.2926454551323
30
0
0
SPLINE
5
1A7
100
AcDbEntity
8
1
62
256
6
ByLayer
370
13
48
1
60
0
100
AcDbSpline
70
4
71
3
72
10
73
6
40
0
40
0
40
0
40
0
40
0.429814431875093
40
0.429814431875093
40
1
40
1
40
1
40
1
41
1
10
62.9291721825287
20
30.4465724745962
30
0
41
1
10
62.9817507403392
20
30.4479536143042
30
0
41
1
10
63.0334870091772
20
30.4466061186277
30
0
41
1
10
63.154824648867
20
30.4466098819918
30
0
41
1
10
63.2240085957052
20
30.4466087914215
30
0
41
1
10
63.29319270506
20
30.4466082143597
30
0
0
SPLINE
5
1A8
100
AcDbEntity
8
1
62
256
6
ByLayer
370
13
48
1
60
0
100
AcDbSpline
70
4
71
3
72
8
73
4
40
0
40
0
40
0
40
0
40
1
40
1
40
1
40
1
41
1
10
63.29319270506
20
30.4466082143597
30
0
41
1
10
63.2950100653161
20
30.4466081992012
30
0
41
1
10
63.296834152092
20
30.4462745478409
30
0
41
1
10
63.2986272418367
20
30.4455741009972
30
0
0
SPLINE
5
1A9
100
AcDbEntity
8
1
62
256
6
ByLayer
370
13
48
1
60
0
100
AcDbSpline
70
4
71
3
72
8
73
4
40
0
40
0
40
0
40
0
40
1
40
1
40
1
40
1
41
1
10
63.2986272418368
20
34.5544258990035
30
0
41
1
10
63.2968341520921
20
34.5537254521598
30
0
41
1
10
63.2950100653161
20
34.5533918007991
30
0
41
1
10
63.29319270506
20
34.5533917856406
30
0
0
SPLINE
5
1AA
100
AcDbEntity
8
1
62
256
6
ByLayer
370
13
48
1
60
0
100
AcDbSpline
70
4
71
3
72
12
73
8
40
0
40
0
40
0
40
0
40
0.097045488675419
40
0.097045488675419
40
0.46856848705314
40
0.46856848705314
40
1
40
1
40
1
40
1
41
1
10
63.29319270506
20
34.5533917856406
30
0
41
1
10
63.2814175811818
20
34.5533916874248
30
0
41
1
10
63.2696424637538
20
34.5533915688289
30
0
41
1
10
63.2127882142952
20
34.5533909787537
30
0
41
1
10
63.167709088726
20
34.5533904868514
30
0
41
1
10
63.0581471684549
20
34.5533924668669
30
0
41
1
10
62.9941814061991
20
34.5517198555109
30
0
41
1
10
62.9291721825287
20
34.5534275254041
30
0
0
SPLINE
5
1AB
100
AcDbEntity
8
1
62
256
6
ByLayer
370
13
48
1
60
0
100
AcDbSpline
70
4
71
3
72
12
73
8
40
0
40
0
40
0
40
0
40
0.446162353448865
40
0.446162353448865
40
0.913525316268472
40
0.913525316268472
40
1
40
1
40
1
40
1
41
1
10
68.3080209311119
20
34.2338758120956
30
0
41
1
10
68.0237379010492
20
34.1873796702303
30
0
41
1
10
67.7341683347816
20
34.1433773996231
30
0
41
1
10
67.173398570925
20
34.1020024621261
30
0
41
1
10
66.8958173425283
20
34.0997027514361
30
0
41
1
10
66.6097198409166
20
34.1343061268934
30
0
41
1
10
66.5654951334019
20
34.1409132642536
30
0
41
1
10
66.522546519857
20
34.1487350489127
30
0
0
SPLINE
5
1AC
100
AcDbEntity
8
1
62
256
6
ByLayer
370
13
48
1
60
0
100
AcDbSpline
70
4
71
3
72
10
73
6
40
0
40
0
40
0
40
0
40
0.66186493310015
40
0.66186493310015
40
1
40
1
40
1
40
1
41
1
10
66.522546519857
20
34.1487350489127
30
0
41
1
10
66.5218272660526
20
34.1488660391336
30
0
41
1
10
66.5211157003955
20
34.1490816425506
30
0
41
1
10
66.5200910301868
20
34.1495604622196
30
0
41
1
10
66.5197512894157
20
34.1497498974221
30
0
41
1
10
66.5194240279075
20
34.1499672236967
30
0
0
SPLINE
5
1AD
100
AcDbEntity
8
1
62
256
6
ByLayer
370
13
48
1
60
0
100
AcDbSpline
70
4
71
3
72
8
73
4
40
0
40
0
40
0
40
0
40
1
40
1
40
1
40
1
41
1
10
66.5194240279072
20
34.1499672236968
30
0
41
1
10
66.5375224093968
20
34.3839555391792
30
0
41
1
10
66.5560816104739
20
34.6179087626277
30
0
41
1
10
66.5751468255074
20
34.8518202897934
30
0
0
SPLINE
5
1AE
100
AcDbEntity
8
1
62
256
6
ByLayer
370
13
48
1
60
0
100
AcDbSpline
70
4
71
3
72
8
73
4
40
0
40
0
40
0
40
0
40
1
40
1
40
1
40
1
41
1
10
66.5194240279072
20
30.8500327763035
30
0
41
1
10
66.5375224093968
20
30.6160444608211
30
0
41
1
10
66.5560816104739
20
30.3820912373726
30
0
41
1
10
66.5751468255074
20
30.1481797102069
30
0
0
SPLINE
5
1AF
100
AcDbEntity
8
1
62
256
6
ByLayer
370
13
48
1
60
0
100
AcDbSpline
70
4
71
3
72
10
73
6
40
0
40
0
40
0
40
0
40
0.66186493310015
40
0.66186493310015
40
1
40
1
40
1
40
1
41
1
10
66.522546519857
20
30.8512649510876
30
0
41
1
10
66.5218272660526
20
30.8511339608667
30
0
41
1
10
66.5211157003955
20
30.8509183574497
30
0
41
1
10
66.5200910301868
20
30.8504395377806
30
0
41
1
10
66.5197512894157
20
30.8502501025781
30
0
41
1
10
66.5194240279075
20
30.8500327763036
30
0
0
SPLINE
5
1B0
100
AcDbEntity
8
1
62
256
6
ByLayer
370
13
48
1
60
0
100
AcDbSpline
70
4
71
3
72
12
73
8
40
0
40
0
40
0
40
0
40
0.446162353448865
40
0.446162353448865
40
0.913525316268472
40
0.913525316268472
40
1
40
1
40
1
40
1
41
1
10
68.3080209311119
20
30.7661241879047
30
0
41
1
10
68.0237379010492
20
30.8126203297699
30
0
41
1
10
67.7341683347816
20
30.8566226003772
30
0
41
1
10
67.173398570925
20
30.8979975378742
30
0
41
1
10
66.8958173425283
20
30.9002972485642
30
0
41
1
10
66.6097198409166
20
30.8656938731069
30
0
41
1
10
66.5654951334019
20
30.8590867357466
30
0
41
1
10
66.522546519857
20
30.8512649510876
30
0
0
SPLINE
5
1B1
100
AcDbEntity
8
1
62
256
6
ByLayer
370
13
48
1
60
0
100
AcDbSpline
70
4
71
3
72
10
73
6
40
0
40
0
40
0
40
0
40
0.735245173215393
40
0.735245173215393
40
1
40
1
40
1
40
1
41
1
10
66.3604948530829
20
34.1697647410698
30
0
41
1
10
66.1351841532664
20
34.0280299482093
30
0
41
1
10
65.9190513871271
20
33.8707737258957
30
0
41
1
10
65.6398208411871
20
33.6401635955308
30
0
41
1
10
65.5671676651882
20
33.5773988996577
30
0
41
1
10
65.4959206607523
20
33.5131110363626
30
0
0
SPLINE
5
1B2
100
AcDbEntity
8
1
62
256
6
ByLayer
370
13
48
1
60
0
100
AcDbSpline
70
4
71
3
72
10
73
6
40
0
40
0
40
0
40
0
40
0.735245446204665
40
0.735245446204665
40
1
40
1
40
1
40
1
41
1
10
66.3604948530829
20
30.8302352589305
30
0
41
1
10
66.1351841532664
20
30.971970051791
30
0
41
1
10
65.9190513871271
20
31.1292262741046
30
0
41
1
10
65.6398209448932
20
31.359836318821
30
0
41
1
10
65.5671678688689
20
31.4226009243823
30
0
41
1
10
65.4959209603993
20
31.486888693259
30
0
0
SPLINE
5
1B3
100
AcDbEntity
8
1
62
256
6
ByLayer
370
13
48
1
60
0
100
AcDbSpline
70
4
71
3
72
8
73
4
40
0
40
0
40
0
40
0
40
1
40
1
40
1
40
1
41
1
10
66.4189357069485
20
30.1538980020004
30
0
41
1
10
66.3989606781221
20
30.3793004575038
30
0
41
1
10
66.3794949705365
20
30.6047485314711
30
0
41
1
10
66.3604948530829
20
30.8302352589305
30
0
0
SPLINE
5
1B4
100
AcDbEntity
8
1
62
256
6
ByLayer
370
13
48
1
60
0
100
AcDbSpline
70
4
71
3
72
8
73
4
40
0
40
0
40
0
40
0
40
1
40
1
40
1
40
1
41
1
10
66.4189357069485
20
34.8461019979999
30
0
41
1
10
66.3989606781221
20
34.6206995424965
30
0
41
1
10
66.3794949705365
20
34.3952514685292
30
0
41
1
10
66.3604948530829
20
34.1697647410698
30
0
0
SPLINE
5
1B5
100
AcDbEntity
8
1
62
256
6
ByLayer
370
13
48
1
60
0
100
AcDbSpline
70
4
71
3
72
8
73
4
40
0
40
0
40
0
40
0
40
1
40
1
40
1
40
1
41
1
10
65.4959206607395
20
33.5131110363511
30
0
41
1
10
65.3580653291587
20
33.5320941677858
30
0
41
1
10
65.2202110744688
20
33.551085122675
30
0
41
1
10
65.0823583168192
20
33.5700869366077
30
0
0
SPLINE
5
1B6
100
AcDbEntity
8
1
62
256
6
ByLayer
370
13
48
1
60
0
100
AcDbSpline
70
4
71
3
72
14
73
10
40
0
40
0
40
0
40
0
40
0.285062144130617
40
0.285062144130617
40
0.566464995147806
40
0.566464995147806
40
0.851712725177373
40
0.851712725177373
40
1
40
1
40
1
40
1
41
1
10
64.1813466597388
20
31.2013857010988
30
0
41
1
10
64.2354314797172
20
31.2008589570428
30
0
41
1
10
64.2933676072006
20
31.2026154837868
30
0
41
1
10
64.4074421942018
20
31.2103498631152
30
0
41
1
10
64.464968326041
20
31.2163641256918
30
0
41
1
10
64.5742320266077
20
31.231897816245
30
0
41
1
10
64.6271918556632
20
31.2416463840432
30
0
41
1
10
64.6992914010575
20
31.2583445090663
30
0
41
1
10
64.7227954896707
20
31.2644679945437
30
0
41
1
10
64.7445778714942
20
31.2708522203068
30
0
0
SPLINE
5
1B7
100
AcDbEntity
8
1
62
256
6
ByLayer
370
13
48
1
60
0
100
AcDbSpline
70
4
71
3
72
8
73
4
40
0
40
0
40
0
40
0
40
1
40
1
40
1
40
1
41
1
10
65.0823583168192
20
31.4299126155367
30
0
41
1
10
65.2202111766753
20
31.4489144717704
30
0
41
1
10
65.3580655312504
20
31.467905485811
30
0
41
1
10
65.4959209603993
20
31.486888693259
30
0
0
SPLINE
5
1B8
100
AcDbEntity
8
1
62
256
6
ByLayer
370
13
48
1
60
0
100
AcDbSpline
70
4
71
3
72
14
73
10
40
0
40
0
40
0
40
0
40
0.312465139410283
40
0.312465139410283
40
0.633033174040285
40
0.633033174040285
40
0.935779057490139
40
0.935779057490139
40
1
40
1
40
1
40
1
41
1
10
64.7445778714941
20
33.7291473032256
30
0
41
1
10
64.6990942811235
20
33.7424781484127
30
0
41
1
10
64.6456101801587
20
33.7547450970315
30
0
41
1
10
64.5296637122458
20
33.775316734019
30
0
41
1
10
64.4652792914177
20
33.7838090787646
30
0
41
1
10
64.3401538762821
20
33.794978680238
30
0
41
1
10
64.2776897780797
20
33.7981018085915
30
0
41
1
10
64.2062380517514
20
33.7987381295324
30
0
41
1
10
64.1937073862825
20
33.7987342713196
30
0
41
1
10
64.1813466597388
20
33.7986138895952
30
0
0
SPLINE
5
1B9
100
AcDbEntity
8
1
62
256
6
ByLayer
370
13
48
1
60
0
100
AcDbSpline
70
4
71
3
72
12
73
8
40
0
40
0
40
0
40
0
40
0.456747676619458
40
0.456747676619458
40
0.981156035943025
40
0.981156035943025
40
1
40
1
40
1
40
1
41
1
10
66.4509746186693
20
34.0376176667218
30
0
41
1
10
66.4395358361747
20
34.0543606801775
30
0
41
1
10
66.4264052498597
20
34.0735653960505
30
0
41
1
10
66.3966976735127
20
34.1169678815885
30
0
41
1
10
66.3794123714819
20
34.1421931395587
30
0
41
1
10
66.361726655458
20
34.1679695448215
30
0
41
1
10
66.361110738461
20
34.1688671461331
30
0
41
1
10
66.3604948530776
20
34.169764741067
30
0
0
SPLINE
5
1BA
100
AcDbEntity
8
1
62
256
6
ByLayer
370
13
48
1
60
0
100
AcDbSpline
70
4
71
3
72
10
73
6
40
0
40
0
40
0
40
0
40
0.648249027969341
40
0.648249027969341
40
1
40
1
40
1
40
1
41
1
10
66.4715765647289
20
34.0088279476414
30
0
41
1
10
66.4674517415712
20
34.0142787950586
30
0
41
1
10
66.4630893933127
20
34.0202634969903
30
0
41
1
10
66.4560766784025
20
34.0302065554406
30
0
41
1
10
66.4535496776649
20
34.0338485376715
30
0
41
1
10
66.4509746186698
20
34.0376176667221
30
0
0
SPLINE
5
1BB
100
AcDbEntity
8
1
62
256
6
ByLayer
370
13
48
1
60
0
100
AcDbSpline
70
4
71
3
72
10
73
6
40
0
40
0
40
0
40
0
40
0.648249027969341
40
0.648249027969341
40
1
40
1
40
1
40
1
41
1
10
66.4715765647289
20
30.9911720523588
30
0
41
1
10
66.4674517415712
20
30.9857212049417
30
0
41
1
10
66.4630893933127
20
30.97973650301
30
0
41
1
10
66.4560766784025
20
30.9697934445597
30
0
41
1
10
66.4535496776649
20
30.9661514623288
30
0
41
1
10
66.4509746186698
20
30.9623823332782
30
0
0
SPLINE
5
1BC
100
AcDbEntity
8
1
62
256
6
ByLayer
370
13
48
1
60
0
100
AcDbSpline
70
4
71
3
72
12
73
8
40
0
40
0
40
0
40
0
40
0.456747676619458
40
0.456747676619458
40
0.981156035943025
40
0.981156035943025
40
1
40
1
40
1
40
1
41
1
10
66.4509746186693
20
30.9623823332785
30
0
41
1
10
66.4395358361747
20
30.9456393198228
30
0
41
1
10
66.4264052498597
20
30.9264346039498
30
0
41
1
10
66.3966976735127
20
30.8830321184118
30
0
41
1
10
66.3794123714819
20
30.8578068604415
30
0
41
1
10
66.361726655458
20
30.8320304551788
30
0
41
1
10
66.361110738461
20
30.8311328538672
30
0
41
1
10
66.3604948530776
20
30.8302352589333
30
0
0
SPLINE
5
1BD
100
AcDbEntity
8
1
62
256
6
ByLayer
370
13
48
1
60
0
100
AcDbSpline
70
4
71
3
72
10
73
6
40
0
40
0
40
0
40
0
40
0.47226940634438
40
0.47226940634438
40
1
40
1
40
1
40
1
41
1
10
65.8148303211306
20
32.9787399294473
30
0
41
1
10
65.7820572623393
20
33.0125201553168
30
0
41
1
10
65.7542413036991
20
33.0489185792906
30
0
41
1
10
65.7086468495571
20
33.1234533667428
30
0
41
1
10
65.691635919795
20
33.162270209161
30
0
41
1
10
65.6829840127523
20
33.1959096952365
30
0
0
SPLINE
5
1BE
100
AcDbEntity
8
1
62
256
6
ByLayer
370
13
48
1
60
0
100
AcDbSpline
70
4
71
3
72
11
73
7
40
0
40
0
40
0
40
0
40
0.377684193944734
40
0.377684193944734
40
0.377684193944734
40
1
40
1
40
1
40
1
41
1
10
65.8148303211302
20
32.9787399294466
30
0
41
1
10
66.0560408700062
20
33.0328242231161
30
0
41
1
10
66.3141929682628
20
33.0918806834908
30
0
41
1
10
66.5806434977872
20
33.1535270316564
30
0
41
1
10
67.0160384766795
20
33.2542605918647
30
0
41
1
10
67.4839774507975
20
33.3644240700089
30
0
41
1
10
67.9452047820325
20
33.4737508915083
30
0
0
SPLINE
5
1BF
100
AcDbEntity
8
1
62
256
6
ByLayer
370
13
48
1
60
0
100
AcDbSpline
70
4
71
3
72
12
73
8
40
0
40
0
40
0
40
0
40
0.450990104104386
40
0.450990104104386
40
0.941653153234684
40
0.941653153234684
40
1
40
1
40
1
40
1
41
1
10
65.6829842751338
20
31.8040902361366
30
0
41
1
10
65.6903964617538
20
31.832909673852
30
0
41
1
10
65.7039100726209
20
31.8654483338198
30
0
41
1
10
65.7430512977276
20
31.9350095554437
30
0
41
1
10
65.7702053188827
20
31.9729916663225
30
0
41
1
10
65.8067394296903
20
32.0128029494036
30
0
41
1
10
65.8107449633076
20
32.0170490389326
30
0
41
1
10
65.814830417275
20
32.0212600489998
30
0
0
SPLINE
5
1C0
100
AcDbEntity
8
1
62
256
6
ByLayer
370
13
48
1
60
0
100
AcDbSpline
70
4
71
3
72
11
73
7
40
0
40
0
40
0
40
0
40
0.37768416286754
40
0.37768416286754
40
0.37768416286754
40
1
40
1
40
1
40
1
41
1
10
65.8148304172783
20
32.0212600489953
30
0
41
1
10
66.056040938399
20
31.9671757612528
30
0
41
1
10
66.314193003468
20
31.9081193083644
30
0
41
1
10
66.5806434977872
20
31.8464729683439
30
0
41
1
10
67.0160384766795
20
31.7457394081356
30
0
41
1
10
67.4839774507975
20
31.6355759299914
30
0
41
1
10
67.9452047820325
20
31.526249108492
30
0
0
SPLINE
5
1C1
100
AcDbEntity
8
1
62
256
6
ByLayer
370
13
48
1
60
0
100
AcDbSpline
70
4
71
3
72
12
73
8
40
0
40
0
40
0
40
0
40
0.481621165173274
40
0.481621165173274
40
0.901905632903789
40
0.901905632903789
40
1
40
1
40
1
40
1
41
1
10
64.7445778714941
20
31.2708522203068
30
0
41
1
10
64.7856306266091
20
31.3037673293251
30
0
41
1
10
64.8349612796708
20
31.3343262177692
30
0
41
1
10
64.9365142413742
20
31.3848231414217
30
0
41
1
10
64.9889703855346
20
31.4060872790097
30
0
41
1
10
65.0562253817946
20
31.4241038824079
30
0
41
1
10
65.0692587001344
20
31.427204107713
30
0
41
1
10
65.0823583168192
20
31.4299126155367
30
0
0
SPLINE
5
1C2
100
AcDbEntity
8
1
62
256
6
ByLayer
370
13
48
1
60
0
100
AcDbSpline
70
4
71
3
72
8
73
4
40
0
40
0
40
0
40
0
40
1
40
1
40
1
40
1
41
1
10
64.1813466597388
20
33.7986138895952
30
0
41
1
10
64.0579410962568
20
33.79642204297
30
0
41
1
10
63.9345373502358
20
33.7941109481281
30
0
41
1
10
63.8111299346595
20
33.7920405583275
30
0
0
SPLINE
5
1C3
100
AcDbEntity
8
1
62
256
6
ByLayer
370
13
48
1
60
0
100
AcDbSpline
70
4
71
3
72
12
73
8
40
0
40
0
40
0
40
0
40
0.420702072206737
40
0.420702072206737
40
0.850903768208396
40
0.850903768208396
40
1
40
1
40
1
40
1
41
1
10
65.0823583168192
20
33.5700869366077
30
0
41
1
10
65.0271333094112
20
33.5815053732036
30
0
41
1
10
64.9727761511561
20
33.6003403443373
30
0
41
1
10
64.873075554115
20
33.6451096281018
30
0
41
1
10
64.8260346211675
20
33.6709534569944
30
0
41
1
10
64.7710197947053
20
33.7087402678438
30
0
41
1
10
64.7574342791626
20
33.7188393438126
30
0
41
1
10
64.7445778714941
20
33.7291473032256
30
0
0
SPLINE
5
1C4
100
AcDbEntity
8
1
62
256
6
ByLayer
370
13
48
1
60
0
100
AcDbSpline
70
4
71
3
72
8
73
4
40
0
40
0
40
0
40
0
40
1
40
1
40
1
40
1
41
1
10
63.8111298158822
20
31.2079591857323
30
0
41
1
10
63.9345372709257
20
31.2058887334127
30
0
41
1
10
64.0579410564829
20
31.2035775872601
30
0
41
1
10
64.1813466597388
20
31.2013857010988
30
0
0
SPLINE
5
1C5
100
AcDbEntity
8
1
62
256
6
ByLayer
370
13
48
1
60
0
100
AcDbSpline
70
4
71
3
72
14
73
10
40
0
40
0
40
0
40
0
40
0.296336902034371
40
0.296336902034371
40
0.500919501582311
40
0.500919501582311
40
0.705835321647557
40
0.705835321647557
40
1
40
1
40
1
40
1
41
1
10
65.8148304172783
20
32.0212600489953
30
0
41
1
10
65.8660677167673
20
32.103354104888
30
0
41
1
10
65.9104038791952
20
32.1945334694172
30
0
41
1
10
65.9563391225119
20
32.3588437434499
30
0
41
1
10
65.9668678182987
20
32.4302491584397
30
0
41
1
10
65.9666931573394
20
32.5717207677836
30
0
41
1
10
65.9559491921173
20
32.6432027281955
30
0
41
1
10
65.9097690342969
20
32.8067798220305
30
0
41
1
10
65.8657051166848
20
32.8972267496138
30
0
41
1
10
65.81483032113
20
32.9787399294468
30
0
0
SPLINE
5
1C6
100
AcDbEntity
8
1
62
256
6
ByLayer
370
13
48
1
60
0
100
AcDbSpline
70
4
71
3
72
8
73
4
40
0
40
0
40
0
40
0
40
1
40
1
40
1
40
1
41
1
10
63.2942061665888
20
34.5467979727353
30
0
41
1
10
63.2961388882516
20
34.5469032968192
30
0
41
1
10
63.2980820985356
20
34.5473496393247
30
0
41
1
10
63.3000011338344
20
34.5481636417808
30
0
0
SPLINE
5
1C7
100
AcDbEntity
8
1
62
256
6
ByLayer
370
13
48
1
60
0
100
AcDbSpline
70
4
71
3
72
8
73
4
40
0
40
0
40
0
40
0
40
1
40
1
40
1
40
1
41
1
10
63.2942061665888
20
30.453202027265
30
0
41
1
10
63.2961388882516
20
30.4530967031811
30
0
41
1
10
63.2980820985356
20
30.4526503606756
30
0
41
1
10
63.3000011338344
20
30.4518363582195
30
0
0
SPLINE
5
1C8
100
AcDbEntity
8
1
62
256
6
ByLayer
370
13
48
1
60
0
100
AcDbSpline
70
4
71
3
72
12
73
8
40
0
40
0
40
0
40
0
40
0.456750585004434
40
0.456750585004434
40
0.981156431701552
40
0.981156431701552
40
1
40
1
40
1
40
1
41
1
10
66.5194240279075
20
30.8500327763036
30
0
41
1
10
66.4993013296112
20
30.8475263169875
30
0
41
1
10
66.4762146633129
20
30.8446505945644
30
0
41
1
10
66.4240212508577
20
30.8381490302176
30
0
41
1
10
66.3936761766718
20
30.8343688956118
30
0
41
1
10
66.3626553113416
20
30.8305044034
30
0
41
1
10
66.3615750708371
20
30.8303698296329
30
0
41
1
10
66.3604948532722
20
30.8302352589442
30
0
0
SPLINE
5
1C9
100
AcDbEntity
8
1
62
256
6
ByLayer
370
13
48
1
60
0
100
AcDbSpline
70
4
71
3
72
12
73
8
40
0
40
0
40
0
40
0
40
0.456750585004434
40
0.456750585004434
40
0.981156431701552
40
0.981156431701552
40
1
40
1
40
1
40
1
41
1
10
66.5194240279075
20
34.1499672236968
30
0
41
1
10
66.4993013296112
20
34.1524736830128
30
0
41
1
10
66.4762146633129
20
34.1553494054359
30
0
41
1
10
66.4240212508577
20
34.1618509697827
30
0
41
1
10
66.3936761766719
20
34.1656311043885
30
0
41
1
10
66.3626553113416
20
34.1694955966003
30
0
41
1
10
66.3615750708371
20
34.1696301703674
30
0
41
1
10
66.3604948532722
20
34.1697647410561
30
0
0
SPLINE
5
1CA
100
AcDbEntity
8
1
62
256
6
ByLayer
370
13
48
1
60
0
100
AcDbSpline
70
4
71
3
72
12
73
8
40
0
40
0
40
0
40
0
40
0.407652787610617
40
0.407652787610617
40
0.80675425507476
40
0.80675425507476
40
1
40
1
40
1
40
1
41
1
10
63.6827261627815
20
33.7096178970119
30
0
41
1
10
63.6423493903773
20
33.6608649848134
30
0
41
1
10
63.6100632367462
20
33.5930384396595
30
0
41
1
10
63.5760713525874
20
33.4185419248277
30
0
41
1
10
63.5722997161055
20
33.3120390881238
30
0
41
1
10
63.5864044365501
20
33.1390843573241
30
0
41
1
10
63.5941788065669
20
33.0792892282576
30
0
41
1
10
63.6048054173026
20
33.0180483237181
30
0
0
SPLINE
5
1CB
100
AcDbEntity
8
1
62
256
6
ByLayer
370
13
48
1
60
0
100
AcDbSpline
70
4
71
3
72
24
73
20
40
0
40
0
40
0
40
0
40
0.25
40
0.3125
40
0.3125
40
0.375
40
0.375
40
0.5
40
0.625
40
0.6875
40
0.6875
40
0.75
40
0.75
40
0.875
40
0.875
40
0.9375
40
0.9990234375
40
0.9990234375
40
1
40
1
40
1
40
1
41
1
10
63.7928855362849
20
33.0114533073689
30
0
41
1
10
63.7735058405859
20
33.0075610442557
30
0
41
1
10
63.7500219604898
20
33.0040864947632
30
0
41
1
10
63.7274462335765
20
33.0023028615509
30
0
41
1
10
63.7184908164345
20
33.0017293395193
30
0
41
1
10
63.7140357684625
20
33.0015118259695
30
0
41
1
10
63.7009086714262
20
33.0010776710092
30
0
41
1
10
63.6840638506437
20
33.0010757409995
30
0
41
1
10
63.6646031095877
20
33.0024721483955
30
0
41
1
10
63.6536539959648
20
33.0039477504421
30
0
41
1
10
63.6465202483459
20
33.0050767448042
30
0
41
1
10
63.6430323536056
20
33.0057151883047
30
0
41
1
10
63.6329462679787
20
33.0078266855235
30
0
41
1
10
63.6266760085806
20
33.0094982227518
30
0
41
1
10
63.6179576652335
20
33.0124044956822
30
0
41
1
10
63.6124180704423
20
33.0144588241834
30
0
41
1
10
63.6073314608476
20
33.0167760275055
30
0
41
1
10
63.6048818820026
20
33.0180097216893
30
0
41
1
10
63.6048436355454
20
33.0180290145224
30
0
41
1
10
63.6048054173026
20
33.0180483237181
30
0
0
SPLINE
5
1CC
100
AcDbEntity
8
1
62
256
6
ByLayer
370
13
48
1
60
0
100
AcDbSpline
70
4
71
3
72
12
73
8
40
0
40
0
40
0
40
0
40
0.308993760133951
40
0.308993760133951
40
0.683588934766892
40
0.683588934766892
40
1
40
1
40
1
40
1
41
1
10
63.6048053546503
20
31.9819516762821
30
0
41
1
10
63.5879447413016
20
31.8847844192439
30
0
41
1
10
63.5782978958977
20
31.7909369883478
30
0
41
1
10
63.57500258097
20
31.6037867775056
30
0
41
1
10
63.5851737729859
20
31.5121586151369
30
0
41
1
10
63.6242985955955
20
31.3770086424975
30
0
41
1
10
63.6512264716852
20
31.3284160053392
30
0
41
1
10
63.6827260440042
20
31.290381847048
30
0
0
SPLINE
5
1CD
100
AcDbEntity
8
1
62
256
6
ByLayer
370
13
48
1
60
0
100
AcDbSpline
70
4
71
3
72
9
73
5
40
0
40
0
40
0
40
0
40
0.499743409265181
40
1
40
1
40
1
40
1
41
1
10
63.7928855278383
20
31.9885466496246
30
0
41
1
10
63.7543020074558
20
31.9941425731221
30
0
41
1
10
63.6770953456626
20
32.0053401665146
30
0
41
1
10
63.6289102608852
20
31.9897505064679
30
0
41
1
10
63.6048053546503
20
31.9819516762821
30
0
0
SPLINE
5
1CE
100
AcDbEntity
8
1
62
256
6
ByLayer
370
13
48
1
60
0
100
AcDbSpline
70
4
71
2
72
6
73
3
40
0
40
0
40
0
40
1
40
1
40
1
41
1
10
63.4140087529927
20
33.0180483237181
30
0
41
1
10
63.5094070851476
20
33.0180483237181
30
0
41
1
10
63.6048054173026
20
33.0180483237181
30
0
0
SPLINE
5
1CF
100
AcDbEntity
8
1
62
256
6
ByLayer
370
13
48
1
60
0
100
AcDbSpline
70
4
71
2
72
6
73
3
40
0
40
0
40
0
40
1
40
1
40
1
41
1
10
62.93015299629
20
34.5468337124989
30
0
41
1
10
63.1720808746413
20
33.7824410181085
30
0
41
1
10
63.4140087529927
20
33.0180483237181
30
0
0
SPLINE
5
1D0
100
AcDbEntity
8
1
62
256
6
ByLayer
370
13
48
1
60
0
100
AcDbSpline
70
4
71
3
72
12
73
8
40
0
40
0
40
0
40
0
40
0.429865222127252
40
0.429865222127252
40
0.859701708003693
40
0.859701708003693
40
1
40
1
40
1
40
1
41
1
10
62.93015299629
20
34.5468337124989
30
0
41
1
10
62.9827425698598
20
34.5454746361491
30
0
41
1
10
63.0344895999536
20
34.5468000688032
30
0
41
1
10
63.1388130934788
20
34.5467968331433
30
0
41
1
10
63.1909725495536
20
34.5467969444359
30
0
41
1
10
63.2601566366992
20
34.5467976433771
30
0
41
1
10
63.277181394467
20
34.5467978307324
30
0
41
1
10
63.2942061665888
20
34.5467979727353
30
0
0
SPLINE
5
1D1
100
AcDbEntity
8
1
62
256
6
ByLayer
370
13
48
1
60
0
100
AcDbSpline
70
4
71
2
72
6
73
3
40
0
40
0
40
0
40
1
40
1
40
1
41
1
10
62.93015299629
20
30.4531662875014
30
0
41
1
10
63.1720808746413
20
31.2175589818918
30
0
41
1
10
63.4140087529927
20
31.9819516762821
30
0
0
SPLINE
5
1D2
100
AcDbEntity
8
1
62
256
6
ByLayer
370
13
48
1
60
0
100
AcDbSpline
70
4
71
3
72
12
73
8
40
0
40
0
40
0
40
0
40
0.140298291996301
40
0.140298291996301
40
0.570134777872745
40
0.570134777872745
40
1
40
1
40
1
40
1
41
1
10
63.2942061665888
20
30.453202027265
30
0
41
1
10
63.277181394467
20
30.4532021692679
30
0
41
1
10
63.2601566366992
20
30.4532023566232
30
0
41
1
10
63.1909725495536
20
30.4532030555643
30
0
41
1
10
63.1388130934788
20
30.453203166857
30
0
41
1
10
63.0344895999536
20
30.4531999311971
30
0
41
1
10
62.9827425698598
20
30.4545253638512
30
0
41
1
10
62.93015299629
20
30.4531662875014
30
0
0
SPLINE
5
1D3
100
AcDbEntity
8
1
62
256
6
ByLayer
370
13
48
1
60
0
100
AcDbSpline
70
4
71
2
72
6
73
3
40
0
40
0
40
0
40
1
40
1
40
1
41
1
10
63.4140087529927
20
31.9819516762821
30
0
41
1
10
63.5094070538215
20
31.9819516762821
30
0
41
1
10
63.6048053546503
20
31.9819516762821
30
0
0
SPLINE
5
1D4
100
AcDbEntity
8
1
62
256
6
ByLayer
370
13
48
1
60
0
100
AcDbSpline
70
4
71
3
72
8
73
4
40
0
40
0
40
0
40
0
40
1
40
1
40
1
40
1
41
1
10
69.8921442338083
20
33.7903017559066
30
0
41
1
10
69.8627647515653
20
33.8248535732686
30
0
41
1
10
69.8279641482437
20
33.8549809915317
30
0
41
1
10
69.7909653354443
20
33.8811297447791
30
0
0
SPLINE
5
1D5
100
AcDbEntity
8
1
62
256
6
ByLayer
370
13
48
1
60
0
100
AcDbSpline
70
4
71
3
72
8
73
4
40
0
40
0
40
0
40
0
40
1
40
1
40
1
40
1
41
1
10
69.7909653354444
20
33.8811297447791
30
0
41
1
10
69.731390445462
20
33.9232340443504
30
0
41
1
10
69.6714380804948
20
33.9648197408659
30
0
41
1
10
69.6107752183728
20
34.0053351085722
30
0
0
SPLINE
5
1D6
100
AcDbEntity
8
1
62
256
6
ByLayer
370
13
48
1
60
0
100
AcDbSpline
70
4
71
3
72
10
73
6
40
0
40
0
40
0
40
0
40
0.742990102267645
40
0.742990102267645
40
1
40
1
40
1
40
1
41
1
10
69.6107752183728
20
34.0053351085722
30
0
41
1
10
69.5899301363518
20
34.0192570722482
30
0
41
1
10
69.5696186119127
20
34.0343217523043
30
0
41
1
10
69.5453944188342
20
34.0578771939394
30
0
41
1
10
69.5394295011685
20
34.0642762829665
30
0
41
1
10
69.5340357485912
20
34.0711208716542
30
0
0
SPLINE
5
1D7
100
AcDbEntity
8
1
62
256
6
ByLayer
370
13
48
1
60
0
100
AcDbSpline
70
4
71
3
72
10
73
6
40
0
40
0
40
0
40
0
40
0.742990102267645
40
0.742990102267645
40
1
40
1
40
1
40
1
41
1
10
69.6107752183728
20
30.9946648914281
30
0
41
1
10
69.5899301363518
20
30.9807429277521
30
0
41
1
10
69.5696186119127
20
30.965678247696
30
0
41
1
10
69.5453944188342
20
30.9421228060609
30
0
41
1
10
69.5394295011685
20
30.9357237170338
30
0
41
1
10
69.5340357485912
20
30.9288791283461
30
0
0
SPLINE
5
1D8
100
AcDbEntity
8
1
62
256
6
ByLayer
370
13
48
1
60
0
100
AcDbSpline
70
4
71
3
72
8
73
4
40
0
40
0
40
0
40
0
40
1
40
1
40
1
40
1
41
1
10
69.7909653354444
20
31.1188702552212
30
0
41
1
10
69.731390445462
20
31.0767659556499
30
0
41
1
10
69.6714380804948
20
31.0351802591343
30
0
41
1
10
69.6107752183728
20
30.9946648914281
30
0
0
SPLINE
5
1D9
100
AcDbEntity
8
1
62
256
6
ByLayer
370
13
48
1
60
0
100
AcDbSpline
70
4
71
3
72
8
73
4
40
0
40
0
40
0
40
0
40
1
40
1
40
1
40
1
41
1
10
68.8080209311119
20
30.7656982889681
30
0
41
1
10
68.6428355720662
20
30.7435803527521
30
0
41
1
10
68.4728063563388
20
30.7412137998325
30
0
41
1
10
68.3080209311119
20
30.7661241879047
30
0
0
SPLINE
5
1DA
100
AcDbEntity
8
1
62
256
6
ByLayer
370
13
48
1
60
0
100
AcDbSpline
70
4
71
3
72
8
73
4
40
0
40
0
40
0
40
0
40
1
40
1
40
1
40
1
41
1
10
69.8921442338083
20
31.2096982440937
30
0
41
1
10
69.8627647515653
20
31.1751464267317
30
0
41
1
10
69.8279641482437
20
31.1450190084686
30
0
41
1
10
69.7909653354443
20
31.1188702552212
30
0
0
SPLINE
5
1DB
100
AcDbEntity
8
1
62
256
6
ByLayer
370
13
48
1
60
0
100
AcDbSpline
70
4
71
3
72
8
73
4
40
0
40
0
40
0
40
0
40
1
40
1
40
1
40
1
41
1
10
68.8080209311119
20
34.2343017110322
30
0
41
1
10
68.6428355720662
20
34.2564196472482
30
0
41
1
10
68.4728063563388
20
34.2587862001678
30
0
41
1
10
68.3080209311119
20
34.2338758120956
30
0
0
SPLINE
5
1DC
100
AcDbEntity
8
1
62
256
6
ByLayer
370
13
48
1
60
0
100
AcDbSpline
70
4
71
3
72
8
73
4
40
0
40
0
40
0
40
0
40
1
40
1
40
1
40
1
41
1
10
69.4662283541793
20
30.8786998918669
30
0
41
1
10
69.3645721130157
20
30.8489051250026
30
0
41
1
10
69.2601844544977
20
30.8279421231012
30
0
41
1
10
69.1553172864457
20
30.815052193952
30
0
0
SPLINE
5
1DD
100
AcDbEntity
8
1
62
256
6
ByLayer
370
13
48
1
60
0
100
AcDbSpline
70
4
71
3
72
8
73
4
40
0
40
0
40
0
40
0
40
1
40
1
40
1
40
1
41
1
10
69.4662283541793
20
34.1213001081333
30
0
41
1
10
69.3645721130157
20
34.1510948749977
30
0
41
1
10
69.2601844544977
20
34.172057876899
30
0
41
1
10
69.1553172864457
20
34.1849478060483
30
0
0
SPLINE
5
1DE
100
AcDbEntity
8
1
62
256
6
ByLayer
370
13
48
1
60
0
100
AcDbSpline
70
4
71
3
72
22
73
18
40
0
40
0
40
0
40
0
40
0.000222718869746
40
0.000222718869746
40
0.259227458805804
40
0.259227458805804
40
0.465187962680825
40
0.465187962680825
40
0.514638646729743
40
0.514638646729743
40
0.731295224185332
40
0.731295224185332
40
0.772617906475971
40
0.772617906475971
40
0.999777281128767
40
0.999777281128767
40
1
40
1
40
1
40
1
41
1
10
64.035691245647
20
32.3681142101816
30
0
41
1
10
64.0356932856394
20
32.3680948027417
30
0
41
1
10
64.0356953283832
20
32.3680753957297
30
0
41
1
10
64.0380663888123
20
32.3454864951905
30
0
41
1
10
64.0365596228332
20
32.3222380250957
30
0
41
1
10
64.0262287382005
20
32.2828659042401
30
0
41
1
10
64.0188079227838
20
32.2658171892773
30
0
41
1
10
64.0063644003338
20
32.2467558826336
30
0
41
1
10
64.0037725995616
20
32.2431129333924
30
0
41
1
10
63.9892423112083
20
32.2243313379524
30
0
41
1
10
63.9743667237897
20
32.2108235940163
30
0
41
1
10
63.9550246963389
20
32.1980125882615
30
0
41
1
10
63.951823946192
20
32.1960224484807
30
0
41
1
10
63.9309707186486
20
32.1838295031401
30
0
41
1
10
63.9118439399919
20
32.1761954611245
30
0
41
1
10
63.8928770947448
20
32.1707893080472
30
0
41
1
10
63.8928585800716
20
32.1707840351428
30
0
41
1
10
63.8928400660951
20
32.1707787598165
30
0
0
SPLINE
5
1DF
100
AcDbEntity
8
1
62
256
6
ByLayer
370
13
48
1
60
0
100
AcDbSpline
70
4
71
3
72
20
73
16
40
0
40
0
40
0
40
0
40
0.0002232153553158
40
0.0002232153553158
40
0.274386302285847
40
0.274386302285847
40
0.473368417101266
40
0.473368417101266
40
0.521262782240241
40
0.521262782240241
40
0.760382585843684
40
0.760382585843684
40
0.999776784646173
40
0.999776784646173
40
1
40
1
40
1
40
1
41
1
10
63.892840140512
20
32.8292212401838
30
0
41
1
10
63.8928586544878
20
32.8292159648581
30
0
41
1
10
63.8928771691604
20
32.8292106919544
30
0
41
1
10
63.9156355774231
20
32.8227238235964
30
0
41
1
10
63.9387687151515
20
32.8129270739011
30
0
41
1
10
63.9740397484175
20
32.7892595502164
30
0
41
1
10
63.9877700889217
20
32.7769328863556
30
0
41
1
10
64.0016713970763
20
32.7596902371529
30
0
41
1
10
64.0042645879512
20
32.7562052570254
30
0
41
1
10
64.0187113466352
20
32.735127583641
30
0
41
1
10
64.0272715785522
20
32.7151920495599
30
0
41
1
10
64.0367671024568
20
32.6743801367977
30
0
41
1
10
64.0378953513001
20
32.6528837718037
30
0
41
1
10
64.0356953494997
20
32.6319246042629
30
0
41
1
10
64.0356933067495
20
32.6319051972547
30
0
41
1
10
64.0356912667505
20
32.6318857898187
30
0
0
SPLINE
5
1E0
100
AcDbEntity
8
1
62
256
6
ByLayer
370
13
48
1
60
0
100
AcDbSpline
70
4
71
3
72
8
73
4
40
0
40
0
40
0
40
0
40
1
40
1
40
1
40
1
41
1
10
69.1553172864457
20
34.1849478060483
30
0
41
1
10
69.0406647169833
20
34.2004961736364
30
0
41
1
10
68.9240025737786
20
34.2169904762706
30
0
41
1
10
68.8080209311119
20
34.2343017110322
30
0
0
SPLINE
5
1E1
100
AcDbEntity
8
1
62
256
6
ByLayer
370
13
48
1
60
0
100
AcDbSpline
70
4
71
3
72
8
73
4
40
0
40
0
40
0
40
0
40
1
40
1
40
1
40
1
41
1
10
69.1553172864457
20
30.815052193952
30
0
41
1
10
69.0406647169833
20
30.7995038263639
30
0
41
1
10
68.9240025737786
20
30.7830095237297
30
0
41
1
10
68.8080209311119
20
30.7656982889681
30
0
0
SPLINE
5
1E2
100
AcDbEntity
8
1
62
256
6
ByLayer
370
13
48
1
60
0
100
AcDbSpline
70
4
71
3
72
16
73
12
40
0
40
0
40
0
40
0
40
0.036416957303705
40
0.036416957303705
40
0.0997081083467255
40
0.0997081083467255
40
0.211635380228895
40
0.211635380228895
40
0.452209862564279
40
0.452209862564279
40
1
40
1
40
1
40
1
41
1
10
69.4662283541792
20
30.8786998918669
30
0
41
1
10
69.4670387760247
20
30.8793201575092
30
0
41
1
10
69.4678500729595
20
30.8799399872489
30
0
41
1
10
69.470075804622
20
30.881639196709
30
0
41
1
10
69.471491680236
20
30.8827180841635
30
0
41
1
10
69.4754161685162
20
30.8857026808762
30
0
41
1
10
69.477928856633
20
30.8876070120111
30
0
41
1
10
69.4858553152411
20
30.8935924715479
30
0
41
1
10
69.4912894215204
20
30.8976635536513
30
0
41
1
10
69.5091166544243
20
30.9109082364591
30
0
41
1
10
69.5216024730774
20
30.9200075226611
30
0
41
1
10
69.5340357485912
20
30.9288791283461
30
0
0
SPLINE
5
1E3
100
AcDbEntity
8
1
62
256
6
ByLayer
370
13
48
1
60
0
100
AcDbSpline
70
4
71
3
72
16
73
12
40
0
40
0
40
0
40
0
40
0.0364169573037049
40
0.0364169573037049
40
0.0997081083467255
40
0.0997081083467255
40
0.211635380228895
40
0.211635380228895
40
0.452209862564279
40
0.452209862564279
40
1
40
1
40
1
40
1
41
1
10
69.4662283541792
20
34.1213001081334
30
0
41
1
10
69.4670387760248
20
34.1206798424911
30
0
41
1
10
69.4678500729595
20
34.1200600127514
30
0
41
1
10
69.470075804622
20
34.1183608032912
30
0
41
1
10
69.471491680236
20
34.1172819158368
30
0
41
1
10
69.4754161685162
20
34.114297319124
30
0
41
1
10
69.477928856633
20
34.1123929879892
30
0
41
1
10
69.4858553152411
20
34.1064075284524
30
0
41
1
10
69.4912894215204
20
34.102336446349
30
0
41
1
10
69.5091166544243
20
34.0890917635412
30
0
41
1
10
69.5216024730774
20
34.0799924773392
30
0
41
1
10
69.5340357485912
20
34.0711208716542
30
0
0
SPLINE
5
1E4
100
AcDbEntity
8
1
62
256
6
ByLayer
370
13
48
1
60
0
100
AcDbSpline
70
4
71
3
72
10
73
6
40
0
40
0
40
0
40
0
40
0.726515101313405
40
0.726515101313405
40
1
40
1
40
1
40
1
41
1
10
69.5673140428787
20
31.0522904115318
30
0
41
1
10
69.5467943373433
20
31.03238307244
30
0
41
1
10
69.527721005355
20
31.0103602569801
30
0
41
1
10
69.5068496360731
20
30.9763477962481
30
0
41
1
10
69.501672486575
20
30.9665683056084
30
0
41
1
10
69.4973512174149
20
30.956388856965
30
0
0
SPLINE
5
1E5
100
AcDbEntity
8
1
62
256
6
ByLayer
370
13
48
1
60
0
100
AcDbSpline
70
4
71
3
72
16
73
12
40
0
40
0
40
0
40
0
40
0.0364498729883201
40
0.0364498729883201
40
0.0987306192890671
40
0.0987306192890671
40
0.210020225745924
40
0.210020225745924
40
0.450231110269824
40
0.450231110269824
40
1
40
1
40
1
40
1
41
1
10
69.4662283541792
20
30.8786998918669
30
0
41
1
10
69.4665920879058
20
30.8796586485953
30
0
41
1
10
69.4669568390965
20
30.880617016521
30
0
41
1
10
69.4679468505053
20
30.8832160106039
30
0
41
1
10
69.4685733701322
20
30.8848561160019
30
0
41
1
10
69.470323556476
20
30.8894240046842
30
0
41
1
10
69.4714506814858
20
30.8923500224432
30
0
41
1
10
69.475025615632
20
30.9015753874741
30
0
41
1
10
69.4774931433138
20
30.9078619965316
30
0
41
1
10
69.4856650049043
20
30.9284018503417
30
0
41
1
10
69.4914797806526
20
30.9425577377263
30
0
41
1
10
69.4973512174168
20
30.9563888569641
30
0
0
SPLINE
5
1E6
100
AcDbEntity
8
1
62
256
6
ByLayer
370
13
48
1
60
0
100
AcDbSpline
70
4
71
3
72
16
73
12
40
0
40
0
40
0
40
0
40
0.0364498729883201
40
0.0364498729883201
40
0.0987306192890671
40
0.0987306192890671
40
0.210020225745924
40
0.210020225745924
40
0.450231110269824
40
0.450231110269824
40
1
40
1
40
1
40
1
41
1
10
69.4662283541792
20
34.1213001081334
30
0
41
1
10
69.4665920879058
20
34.120341351405
30
0
41
1
10
69.4669568390965
20
34.1193829834793
30
0
41
1
10
69.4679468505053
20
34.1167839893963
30
0
41
1
10
69.4685733701322
20
34.1151438839983
30
0
41
1
10
69.470323556476
20
34.1105759953161
30
0
41
1
10
69.4714506814858
20
34.1076499775571
30
0
41
1
10
69.475025615632
20
34.0984246125262
30
0
41
1
10
69.4774931433138
20
34.0921380034687
30
0
41
1
10
69.4856650049043
20
34.0715981496586
30
0
41
1
10
69.4914797806526
20
34.057442262274
30
0
41
1
10
69.4973512174168
20
34.0436111430362
30
0
0
SPLINE
5
1E7
100
AcDbEntity
8
1
62
256
6
ByLayer
370
13
48
1
60
0
100
AcDbSpline
70
4
71
3
72
10
73
6
40
0
40
0
40
0
40
0
40
0.726515101313405
40
0.726515101313405
40
1
40
1
40
1
40
1
41
1
10
69.5673140428787
20
33.9477095884685
30
0
41
1
10
69.5467943373433
20
33.9676169275603
30
0
41
1
10
69.527721005355
20
33.9896397430202
30
0
41
1
10
69.5068496360731
20
34.0236522037522
30
0
41
1
10
69.501672486575
20
34.0334316943919
30
0
41
1
10
69.4973512174149
20
34.0436111430353
30
0
0
SPLINE
5
1E8
100
AcDbEntity
8
1
62
256
6
ByLayer
370
13
48
1
60
0
100
AcDbSpline
70
4
71
3
72
16
73
12
40
0
40
0
40
0
40
0
40
0.0003118173380686
40
0.0003118173380686
40
0.279489245325511
40
0.279489245325511
40
0.55875761252395
40
0.55875761252395
40
0.999688182661868
40
0.999688182661868
40
1
40
1
40
1
40
1
41
1
10
63.7037729407914
20
32.900576963399
30
0
41
1
10
63.7037912567827
20
32.9005693016899
30
0
41
1
10
63.7038095726709
20
32.9005616397604
30
0
41
1
10
63.720226713854
20
32.8936944243303
30
0
41
1
10
63.7367050975242
20
32.8869859957919
30
0
41
1
10
63.7698094845915
20
32.8738686878799
30
0
41
1
10
63.786437576077
20
32.8674590969507
30
0
41
1
10
63.8294858918491
20
32.8513163569405
30
0
41
1
10
63.8560096249246
20
32.8418043845855
30
0
41
1
10
63.8826933601575
20
32.832654374321
30
0
41
1
10
63.8827122186186
20
32.8326479080691
30
0
41
1
10
63.8827310770044
20
32.832641441617
30
0
0
SPLINE
5
1E9
100
AcDbEntity
8
1
62
256
6
ByLayer
370
13
48
1
60
0
100
AcDbSpline
70
4
71
3
72
9
73
5
40
0
40
0
40
0
40
0
40
0.49971069640967
40
1
40
1
40
1
40
1
41
1
10
63.7928855362849
20
33.011453307369
30
0
41
1
10
63.7739562259549
20
32.982854521032
30
0
41
1
10
63.7360756873431
20
32.9256238342718
30
0
41
1
10
63.7145446756413
20
32.9089291402465
30
0
41
1
10
63.7037729407914
20
32.900576963399
30
0
0
SPLINE
5
1EA
100
AcDbEntity
8
1
62
256
6
ByLayer
370
13
48
1
60
0
100
AcDbSpline
70
4
71
3
72
24
73
20
40
0
40
0
40
0
40
0
40
0.25
40
0.3125
40
0.3125
40
0.375
40
0.375
40
0.5
40
0.625
40
0.6875
40
0.6875
40
0.75
40
0.75
40
0.875
40
0.875
40
0.9375
40
0.9990234375
40
0.9990234375
40
1
40
1
40
1
40
1
41
1
10
63.7928855278383
20
31.9885466496258
30
0
41
1
10
63.7832636662611
20
32.0038414920608
30
0
41
1
10
63.771730379822
20
32.0213134800553
30
0
41
1
10
63.7608004404685
20
32.0367817098174
30
0
41
1
10
63.7564782072273
20
32.0428035411914
30
0
41
1
10
63.7543353507194
20
32.0457408233072
30
0
41
1
10
63.7480333946262
20
32.0542312909448
30
0
41
1
10
63.7400009682935
20
32.0646550423057
30
0
41
1
10
63.7308566270157
20
32.0755134487877
30
0
41
1
10
63.7257777119109
20
32.0810407468868
30
0
41
1
10
63.7224844900989
20
32.0845009674894
30
0
41
1
10
63.7208806452621
20
32.0861220054933
30
0
41
1
10
63.716263102556
20
32.0905904489777
30
0
41
1
10
63.713425258485
20
32.0930667581784
30
0
41
1
10
63.7095321511242
20
32.0960215448229
30
0
41
1
10
63.7070772953718
20
32.0977247656792
30
0
41
1
10
63.7048620512314
20
32.0989275478907
30
0
41
1
10
63.7038058396485
20
32.0994081123869
30
0
41
1
10
63.7037893512561
20
32.0994155900658
30
0
41
1
10
63.7037728777784
20
32.0994230366015
30
0
0
SPLINE
5
1EB
100
AcDbEntity
8
1
62
256
6
ByLayer
370
13
48
1
60
0
100
AcDbSpline
70
4
71
3
72
16
73
12
40
0
40
0
40
0
40
0
40
0.0003118144544083
40
0.0003118144544083
40
0.278931528860409
40
0.278931528860409
40
0.55807335791413
40
0.55807335791413
40
0.999688185545606
40
0.999688185545606
40
1
40
1
40
1
40
1
41
1
10
63.8827310030705
20
32.1673585583833
30
0
41
1
10
63.8827121446849
20
32.1673520919309
30
0
41
1
10
63.8826932862241
20
32.167345625679
30
0
41
1
10
63.8658237075292
20
32.1615609473387
30
0
41
1
10
63.8490299503336
20
32.1556358105836
30
0
41
1
10
63.8155387444205
20
32.1434790334906
30
0
41
1
10
63.7988396824678
20
32.1372461667033
30
0
41
1
10
63.7559042651524
20
32.1207680094793
30
0
41
1
10
63.7297658847848
20
32.1102957946646
30
0
41
1
10
63.7038095096562
20
32.0994383602406
30
0
41
1
10
63.7037911937685
20
32.0994306983107
30
0
41
1
10
63.7037728777779
20
32.0994230366013
30
0
0
SPLINE
5
1EC
100
AcDbEntity
8
1
62
256
6
ByLayer
370
13
48
1
60
0
100
AcDbSpline
70
4
71
3
72
16
73
12
40
0
40
0
40
0
40
0
40
0.001953125
40
0.001953125
40
0.25
40
0.5
40
0.75
40
0.9375
40
0.998046875
40
0.998046875
40
1
40
1
40
1
40
1
41
1
10
63.6048054173026
20
33.0180483237181
30
0
41
1
10
63.6048376062847
20
33.017946905462
30
0
41
1
10
63.6048698691533
20
33.017845516832
30
0
41
1
10
63.6090089675086
20
33.0048715788357
30
0
41
1
10
63.6196461576043
20
32.979985222888
30
0
41
1
10
63.6422215823352
20
32.9469362159535
30
0
41
1
10
63.6681516706902
20
32.9219020797096
30
0
41
1
10
63.6895266456595
20
32.9078101052211
30
0
41
1
10
63.7007377477655
20
32.9020384073616
30
0
41
1
10
63.703594309955
20
32.9006627068677
30
0
41
1
10
63.7036836094554
20
32.9006197954774
30
0
41
1
10
63.703772940784
20
32.9005769634025
30
0
0
SPLINE
5
1ED
100
AcDbEntity
8
1
62
256
6
ByLayer
370
13
48
1
60
0
100
AcDbSpline
70
4
71
3
72
17
73
13
40
0
40
0
40
0
40
0
40
0.001953125
40
0.001953125
40
0.0625
40
0.25
40
0.5
40
0.75
40
0.9375
40
0.998046875
40
0.998046875
40
1
40
1
40
1
40
1
41
1
10
63.7037728777784
20
32.0994230366015
30
0
41
1
10
63.7036835329031
20
32.0993801980312
30
0
41
1
10
63.7035942202295
20
32.0993372803559
30
0
41
1
10
63.7007372482941
20
32.097961385385
30
0
41
1
10
63.6895258082259
20
32.0921896116701
30
0
41
1
10
63.6681578319086
20
32.0781032605578
30
0
41
1
10
63.6422141768717
20
32.0530549698976
30
0
41
1
10
63.6214778213814
20
32.0226975985706
30
0
41
1
10
63.6103018420582
20
31.9981525902878
30
0
41
1
10
63.605904425656
20
31.9853974723627
30
0
41
1
10
63.6048697969046
20
31.9821544528476
30
0
41
1
10
63.604837538754
20
31.982053079169
30
0
41
1
10
63.6048053546529
20
31.9819516762905
30
0
0
SPLINE
5
1EE
100
AcDbEntity
8
1
62
256
6
ByLayer
370
13
48
1
60
0
100
AcDbSpline
70
4
71
3
72
8
73
4
40
0
40
0
40
0
40
0
40
1
40
1
40
1
40
1
41
1
10
69.7459718007426
20
33.8245548124015
30
0
41
1
10
69.7806983372204
20
33.8038586351857
30
0
41
1
10
69.8139636111441
20
33.7798530028269
30
0
41
1
10
69.8426948714027
20
33.7514467514766
30
0
0
SPLINE
5
1EF
100
AcDbEntity
8
1
62
256
6
ByLayer
370
13
48
1
60
0
100
AcDbSpline
70
4
71
3
72
8
73
4
40
0
40
0
40
0
40
0
40
1
40
1
40
1
40
1
41
1
10
69.8426948714027
20
33.7514467514766
30
0
41
1
10
69.8519343190549
20
33.7423118207431
30
0
41
1
10
69.861052890068
20
33.7330146135125
30
0
41
1
10
69.8700651469456
20
33.7236141656854
30
0
0
SPLINE
5
1F0
100
AcDbEntity
8
1
62
256
6
ByLayer
370
13
48
1
60
0
100
AcDbSpline
70
4
71
3
72
14
73
10
40
0
40
0
40
0
40
0
40
0.0505559842848517
40
0.0505559842848517
40
0.533727627143306
40
0.533727627143306
40
0.896918867994815
40
0.896918867994815
40
1
40
1
40
1
40
1
41
1
10
69.8700651469456
20
33.7236141656854
30
0
41
1
10
69.8721585882714
20
33.7214305521657
30
0
41
1
10
69.8742266116036
20
33.7192222312435
30
0
41
1
10
69.8955839637868
20
33.6958462835977
30
0
41
1
10
69.9127357036069
20
33.6720989852152
30
0
41
1
10
69.9341426255233
20
33.6267058076485
30
0
41
1
10
69.9406215633697
20
33.6055478655088
30
0
41
1
10
69.9437467206533
20
33.577980070586
30
0
41
1
10
69.9441226460485
20
33.5717767334462
30
0
41
1
10
69.944165142253
20
33.5655796118113
30
0
0
SPLINE
5
1F1
100
AcDbEntity
8
1
62
256
6
ByLayer
370
13
48
1
60
0
100
AcDbSpline
70
4
71
3
72
8
73
4
40
0
40
0
40
0
40
0
40
1
40
1
40
1
40
1
41
1
10
69.4213727254144
20
33.5772542314688
30
0
41
1
10
69.5956640074145
20
33.5792055931308
30
0
41
1
10
69.7699434366784
20
33.5713122204325
30
0
41
1
10
69.9441651422587
20
33.5655796118119
30
0
0
SPLINE
5
1F2
100
AcDbEntity
8
1
62
256
6
ByLayer
370
13
48
1
60
0
100
AcDbSpline
70
4
71
3
72
8
73
4
40
0
40
0
40
0
40
0
40
1
40
1
40
1
40
1
41
1
10
69.4213727254144
20
31.4227457685315
30
0
41
1
10
69.5956640074145
20
31.4207944068695
30
0
41
1
10
69.7699434366784
20
31.4286877795677
30
0
41
1
10
69.9441651422587
20
31.4344203881884
30
0
0
SPLINE
5
1F3
100
AcDbEntity
8
1
62
256
6
ByLayer
370
13
48
1
60
0
100
AcDbSpline
70
4
71
3
72
14
73
10
40
0
40
0
40
0
40
0
40
0.0505559842848517
40
0.0505559842848517
40
0.533727627143306
40
0.533727627143306
40
0.896918867994815
40
0.896918867994815
40
1
40
1
40
1
40
1
41
1
10
69.8700651469456
20
31.2763858343149
30
0
41
1
10
69.8721585882714
20
31.2785694478346
30
0
41
1
10
69.8742266116036
20
31.2807777687568
30
0
41
1
10
69.8955839637868
20
31.3041537164026
30
0
41
1
10
69.9127357036069
20
31.3279010147851
30
0
41
1
10
69.9341426255233
20
31.3732941923518
30
0
41
1
10
69.9406215633697
20
31.3944521344915
30
0
41
1
10
69.9437467206533
20
31.4220199294143
30
0
41
1
10
69.9441226460485
20
31.4282232665541
30
0
41
1
10
69.944165142253
20
31.434420388189
30
0
0
SPLINE
5
1F4
100
AcDbEntity
8
1
62
256
6
ByLayer
370
13
48
1
60
0
100
AcDbSpline
70
4
71
3
72
8
73
4
40
0
40
0
40
0
40
0
40
1
40
1
40
1
40
1
41
1
10
69.7459718007426
20
31.1754451875988
30
0
41
1
10
69.7806983372204
20
31.1961413648146
30
0
41
1
10
69.8139636111441
20
31.2201469971734
30
0
41
1
10
69.8426948714027
20
31.2485532485237
30
0
0
SPLINE
5
1F5
100
AcDbEntity
8
1
62
256
6
ByLayer
370
13
48
1
60
0
100
AcDbSpline
70
4
71
3
72
8
73
4
40
0
40
0
40
0
40
0
40
1
40
1
40
1
40
1
41
1
10
69.8426948714027
20
31.2485532485237
30
0
41
1
10
69.8519343190549
20
31.2576881792571
30
0
41
1
10
69.861052890068
20
31.2669853864878
30
0
41
1
10
69.8700651469456
20
31.2763858343149
30
0
0
SPLINE
5
1F6
100
AcDbEntity
8
1
62
256
6
ByLayer
370
13
48
1
60
0
100
AcDbSpline
70
4
71
3
72
8
73
4
40
0
40
0
40
0
40
0
40
1
40
1
40
1
40
1
41
1
10
63.8827310770044
20
32.832641441617
30
0
41
1
10
63.886100646763
20
32.8315012251464
30
0
41
1
10
63.8894703350288
20
32.8303611578928
30
0
41
1
10
63.8928401405119
20
32.8292212401836
30
0
0
SPLINE
5
1F7
100
AcDbEntity
8
1
62
256
6
ByLayer
370
13
48
1
60
0
100
AcDbSpline
70
4
71
3
72
8
73
4
40
0
40
0
40
0
40
0
40
1
40
1
40
1
40
1
41
1
10
63.8928400660951
20
32.1707787598165
30
0
41
1
10
63.8894702607721
20
32.1696388421084
30
0
41
1
10
63.8861005726669
20
32.1684987748552
30
0
41
1
10
63.8827310030703
20
32.1673585583835
30
0
0
SPLINE
5
1F8
100
AcDbEntity
8
1
62
256
6
ByLayer
370
13
48
1
60
0
100
AcDbSpline
70
4
71
3
72
10
73
6
40
0
40
0
40
0
40
0
40
0.478455993418637
40
0.478455993418637
40
1
40
1
40
1
40
1
41
1
10
69.9970257409039
20
31.434420388188
30
0
41
1
10
69.9970257409038
20
31.4002471029516
30
0
41
1
10
69.9899219088571
20
31.3656104221459
30
0
41
1
10
69.9639730710007
20
31.2990085468763
30
0
41
1
10
69.9439829972708
20
31.266489113986
30
0
41
1
10
69.9206965706902
20
31.2373938527191
30
0
0
SPLINE
5
1F9
100
AcDbEntity
8
1
62
256
6
ByLayer
370
13
48
1
60
0
100
AcDbSpline
70
4
71
3
72
10
73
6
40
0
40
0
40
0
40
0
40
0.478455993418637
40
0.478455993418637
40
1
40
1
40
1
40
1
41
1
10
69.9970257409039
20
33.5655796118123
30
0
41
1
10
69.9970257409038
20
33.5997528970487
30
0
41
1
10
69.9899219088571
20
33.6343895778544
30
0
41
1
10
69.9639730710007
20
33.700991453124
30
0
41
1
10
69.9439829972708
20
33.7335108860143
30
0
41
1
10
69.9206965706902
20
33.7626061472812
30
0
0
SPLINE
5
1FA
100
AcDbEntity
8
1
62
256
6
ByLayer
370
13
48
1
60
0
100
AcDbSpline
70
4
71
3
72
8
73
4
40
0
40
0
40
0
40
0
40
1
40
1
40
1
40
1
41
1
10
69.9206965706901
20
33.7626061472811
30
0
41
1
10
69.9112950489699
20
33.7720035438223
30
0
41
1
10
69.901780692966
20
33.7812533712299
30
0
41
1
10
69.8921442338084
20
33.7903017559067
30
0
0
SPLINE
5
1FB
100
AcDbEntity
8
1
62
256
6
ByLayer
370
13
48
1
60
0
100
AcDbSpline
70
4
71
3
72
8
73
4
40
0
40
0
40
0
40
0
40
1
40
1
40
1
40
1
41
1
10
69.9206965706901
20
31.2373938527192
30
0
41
1
10
69.9112950489699
20
31.227996456178
30
0
41
1
10
69.901780692966
20
31.2187466287704
30
0
41
1
10
69.8921442338084
20
31.2096982440936
30
0
0
SPLINE
5
1FC
100
AcDbEntity
8
1
62
256
6
ByLayer
370
13
48
1
60
0
100
AcDbSpline
70
4
71
3
72
8
73
4
40
0
40
0
40
0
40
0
40
1
40
1
40
1
40
1
41
1
10
64.0356912667505
20
32.6318857898187
30
0
41
1
10
64.0314932792738
20
32.5445248432074
30
0
41
1
10
64.0314932722284
20
32.4554751605751
30
0
41
1
10
64.035691245647
20
32.3681142101816
30
0
0
SPLINE
5
1FD
100
AcDbEntity
8
1
62
256
6
ByLayer
370
13
48
1
60
0
100
AcDbSpline
70
4
71
3
72
12
73
8
40
0
40
0
40
0
40
0
40
0.398362077603418
40
0.398362077603418
40
0.817187858883142
40
0.817187858883142
40
1
40
1
40
1
40
1
41
1
10
68.5695
20
31.4188340226227
30
0
41
1
10
68.6862018964713
20
31.4190580199591
30
0
41
1
10
68.8027495698944
20
31.4220320478145
30
0
41
1
10
69.037745272551
20
31.4238302977542
30
0
41
1
10
69.1566627089886
20
31.4241607546797
30
0
41
1
10
69.3224222584759
20
31.4235451366869
30
0
41
1
10
69.3722793677962
20
31.4232038087292
30
0
41
1
10
69.4213727254144
20
31.4227457685315
30
0
0
SPLINE
5
1FE
100
AcDbEntity
8
1
62
256
6
ByLayer
370
13
48
1
60
0
100
AcDbSpline
70
4
71
3
72
12
73
8
40
0
40
0
40
0
40
0
40
0.398362077603418
40
0.398362077603418
40
0.817187858883142
40
0.817187858883142
40
1
40
1
40
1
40
1
41
1
10
68.5695
20
33.5811659773776
30
0
41
1
10
68.6862018964713
20
33.5809419800412
30
0
41
1
10
68.8027495698944
20
33.5779679521858
30
0
41
1
10
69.037745272551
20
33.5761697022461
30
0
41
1
10
69.1566627089886
20
33.5758392453206
30
0
41
1
10
69.3224222584759
20
33.5764548633134
30
0
41
1
10
69.3722793677962
20
33.5767961912711
30
0
41
1
10
69.4213727254144
20
33.5772542314688
30
0
0
SPLINE
5
1FF
100
AcDbEntity
8
1
62
256
6
ByLayer
370
13
48
1
60
0
100
AcDbSpline
70
4
71
2
72
6
73
3
40
0
40
0
40
0
40
1
40
1
40
1
41
1
10
63.5128526580647
20
32.900576963399
30
0
41
1
10
63.608312799428
20
32.900576963399
30
0
41
1
10
63.7037729407914
20
32.900576963399
30
0
0
SPLINE
5
200
100
AcDbEntity
8
1
62
256
6
ByLayer
370
13
48
1
60
0
100
AcDbSpline
70
4
71
2
72
6
73
3
40
0
40
0
40
0
40
1
40
1
40
1
41
1
10
63.4140087529927
20
33.0180483237181
30
0
41
0.916194302198623
10
63.4401472908695
20
32.9354612835999
30
0
41
1
10
63.5128526580647
20
32.900576963399
30
0
0
SPLINE
5
201
100
AcDbEntity
8
1
62
256
6
ByLayer
370
13
48
1
60
0
100
AcDbSpline
70
4
71
2
72
6
73
3
40
0
40
0
40
0
40
1
40
1
40
1
41
1
10
63.4140087529927
20
31.9819516762821
30
0
41
0.916194302198623
10
63.4401472908695
20
32.0645387164005
30
0
41
1
10
63.5128526580647
20
32.0994230366013
30
0
0
SPLINE
5
202
100
AcDbEntity
8
1
62
256
6
ByLayer
370
13
48
1
60
0
100
AcDbSpline
70
4
71
2
72
6
73
3
40
0
40
0
40
0
40
1
40
1
40
1
41
1
10
63.5128526580647
20
32.0994230366013
30
0
41
1
10
63.6083127679213
20
32.0994230366013
30
0
41
1
10
63.703772877778
20
32.0994230366013
30
0
0
SPLINE
5
203
100
AcDbEntity
8
1
62
256
6
ByLayer
370
13
48
1
60
0
100
AcDbSpline
70
4
71
2
72
6
73
3
40
0
40
0
40
0
40
1
40
1
40
1
41
1
10
63.5128526580647
20
32.900576963399
30
0
41
0.999533107184471
10
63.5890718752233
20
32.8640066842105
30
0
41
1
10
63.6671732168403
20
32.832641441617
30
0
0
SPLINE
5
204
100
AcDbEntity
8
1
62
256
6
ByLayer
370
13
48
1
60
0
100
AcDbSpline
70
4
71
2
72
6
73
3
40
0
40
0
40
0
40
1
40
1
40
1
41
1
10
63.5128526580647
20
32.0994230366013
30
0
41
0.999533107184471
10
63.5890718752233
20
32.1359933157897
30
0
41
1
10
63.6671732168403
20
32.1673585583833
30
0
0
SPLINE
5
205
100
AcDbEntity
8
1
62
256
6
ByLayer
370
13
48
1
60
0
100
AcDbSpline
70
4
71
2
72
6
73
3
40
0
40
0
40
0
40
1
40
1
40
1
41
1
10
63.6756897242366
20
32.8292212401838
30
0
41
0.819152044288974
10
63.8009195004782
20
32.7789293728428
30
0
41
1
10
63.8009195004782
20
32.6318857898187
30
0
0
SPLINE
5
206
100
AcDbEntity
8
1
62
256
6
ByLayer
370
13
48
1
60
0
100
AcDbSpline
70
4
71
2
72
6
73
3
40
0
40
0
40
0
40
1
40
1
40
1
41
1
10
63.6756897242366
20
32.8292212401838
30
0
41
1
10
63.7842649323743
20
32.8292212401838
30
0
41
1
10
63.892840140512
20
32.8292212401838
30
0
0
SPLINE
5
207
100
AcDbEntity
8
1
62
256
6
ByLayer
370
13
48
1
60
0
100
AcDbSpline
70
4
71
2
72
6
73
3
40
0
40
0
40
0
40
1
40
1
40
1
41
1
10
63.6756897242366
20
32.1707787598165
30
0
41
1
10
63.7842648951658
20
32.1707787598165
30
0
41
1
10
63.8928400660951
20
32.1707787598165
30
0
0
SPLINE
5
208
100
AcDbEntity
8
1
62
256
6
ByLayer
370
13
48
1
60
0
100
AcDbSpline
70
4
71
2
72
6
73
3
40
0
40
0
40
0
40
1
40
1
40
1
41
1
10
63.6756897242366
20
32.1707787598165
30
0
41
0.819152044288974
10
63.8009195004782
20
32.2210706271575
30
0
41
1
10
63.8009195004782
20
32.3681142101816
30
0
0
SPLINE
5
209
100
AcDbEntity
8
1
62
256
6
ByLayer
370
13
48
1
60
0
100
AcDbSpline
70
4
71
2
72
6
73
3
40
0
40
0
40
0
40
1
40
1
40
1
41
1
10
63.8009195004782
20
32.3681142101816
30
0
41
1
10
63.8009195004782
20
32.4340571050909
30
0
41
1
10
63.8009195004782
20
32.5000000000001
30
0
0
SPLINE
5
20A
100
AcDbEntity
8
1
62
256
6
ByLayer
370
13
48
1
60
0
100
AcDbSpline
70
4
71
2
72
6
73
3
40
0
40
0
40
0
40
1
40
1
40
1
41
1
10
63.8009195004782
20
32.6318857898187
30
0
41
1
10
63.8009195004782
20
32.5659428949094
30
0
41
1
10
63.8009195004782
20
32.5000000000001
30
0
0
SPLINE
5
20B
100
AcDbEntity
8
1
62
256
6
ByLayer
370
13
48
1
60
0
100
AcDbSpline
70
4
71
2
72
6
73
3
40
0
40
0
40
0
40
1
40
1
40
1
41
0.976988940618336
10
63.3379277529881
20
33.0180483237182
30
0
41
0.985872486408264
10
63.3808878003266
20
33.0180483237182
30
0
41
1
10
63.4140087529927
20
33.0180483237181
30
0
0
SPLINE
5
20C
100
AcDbEntity
8
1
62
256
6
ByLayer
370
13
48
1
60
0
100
AcDbSpline
70
4
71
2
72
6
73
3
40
0
40
0
40
0
40
1
40
1
40
1
41
0.977424468550179
10
63.3400317529781
20
31.9819516762821
30
0
41
0.986216326736729
10
63.3817051760059
20
31.9819516762821
30
0
41
1
10
63.4140087529927
20
31.9819516762821
30
0
0
SPLINE
5
20D
100
AcDbEntity
8
1
62
256
6
ByLayer
370
13
48
1
60
0
100
AcDbSpline
70
4
71
2
72
6
73
3
40
0
40
0
40
0
40
1
40
1
40
1
41
1
10
63.6671732168403
20
32.832641441617
30
0
41
1
10
63.6714314705384
20
32.8309313409004
30
0
41
1
10
63.6756897242366
20
32.8292212401838
30
0
0
SPLINE
5
20E
100
AcDbEntity
8
1
62
256
6
ByLayer
370
13
48
1
60
0
100
AcDbSpline
70
4
71
2
72
6
73
3
40
0
40
0
40
0
40
1
40
1
40
1
41
1
10
63.6671732168403
20
32.1673585583833
30
0
41
1
10
63.6714314705384
20
32.1690686590999
30
0
41
1
10
63.6756897242366
20
32.1707787598165
30
0
0
SPLINE
5
20F
100
AcDbEntity
8
1
62
256
6
ByLayer
370
13
48
1
60
0
100
AcDbSpline
70
4
71
3
72
10
73
6
40
0
40
0
40
0
40
0
40
0.509182709127215
40
0.509182709127215
40
1
40
1
40
1
40
1
41
1
10
67.9452047820325
20
33.4737508915083
30
0
41
1
10
68.0291203560374
20
33.4958518824922
30
0
41
1
10
68.1137414373503
20
33.5151983023855
30
0
41
1
10
68.2795482262596
20
33.5539168542173
30
0
41
1
10
68.361943582892
20
33.5705433215088
30
0
41
1
10
68.4452047820325
20
33.5767244063202
30
0
0
SPLINE
5
210
100
AcDbEntity
8
1
62
256
6
ByLayer
370
13
48
1
60
0
100
AcDbSpline
70
4
71
3
72
10
73
6
40
0
40
0
40
0
40
0
40
0.509182709127215
40
0.509182709127215
40
1
40
1
40
1
40
1
41
1
10
67.9452047820325
20
31.526249108492
30
0
41
1
10
68.0291203560374
20
31.5041481175081
30
0
41
1
10
68.1137414373503
20
31.4848016976148
30
0
41
1
10
68.2795482262596
20
31.446083145783
30
0
41
1
10
68.361943582892
20
31.4294566784915
30
0
41
1
10
68.4452047820325
20
31.4232755936801
30
0
0
SPLINE
5
211
100
AcDbEntity
8
1
62
256
6
ByLayer
370
13
48
1
60
0
100
AcDbSpline
70
4
71
3
72
20
73
16
40
0
40
0
40
0
40
0
40
0.0004820975609761
40
0.0004820975609761
40
0.133108009856496
40
0.133108009856496
40
0.428100199580249
40
0.428100199580249
40
0.722972669357347
40
0.722972669357347
40
0.911734386886859
40
0.911734386886859
40
0.999517902439265
40
0.999517902439265
40
1
40
1
40
1
40
1
41
1
10
68.4452047820325
20
33.5767244063202
30
0
41
1
10
68.4452247438524
20
33.5767256415321
30
0
41
1
10
68.4452447056883
20
33.5767268764831
30
0
41
1
10
68.4507562054647
20
33.5770678373045
30
0
41
1
10
68.4562482889806
20
33.5773993881242
30
0
41
1
10
68.4739568221937
20
33.5784381875124
30
0
41
1
10
68.4861760798083
20
33.5791058677436
30
0
41
1
10
68.5106158530261
20
33.5801809322911
30
0
41
1
10
68.5228380850943
20
33.5805866188931
30
0
41
1
10
68.5428824360939
20
33.5810055516904
30
0
41
1
10
68.550706171784
20
33.5811068812936
30
0
41
1
10
68.5621657649981
20
33.5811669172903
30
0
41
1
10
68.5658031655838
20
33.5811729319366
30
0
41
1
10
68.5694600537392
20
33.581166053676
30
0
41
1
10
68.5694800268793
20
33.5811660156668
30
0
41
1
10
68.5695
20
33.5811659773776
30
0
0
SPLINE
5
212
100
AcDbEntity
8
1
62
256
6
ByLayer
370
13
48
1
60
0
100
AcDbSpline
70
4
71
3
72
20
73
16
40
0
40
0
40
0
40
0
40
0.0004820975609761
40
0.0004820975609761
40
0.133108009856496
40
0.133108009856496
40
0.428100199580249
40
0.428100199580249
40
0.722972669357347
40
0.722972669357347
40
0.911734386886859
40
0.911734386886859
40
0.999517902439265
40
0.999517902439265
40
1
40
1
40
1
40
1
41
1
10
68.4452047820325
20
31.4232755936801
30
0
41
1
10
68.4452247438639
20
31.4232743586559
30
0
41
1
10
68.4452447056883
20
31.4232731235172
30
0
41
1
10
68.4507562054647
20
31.4229321626958
30
0
41
1
10
68.4562482889806
20
31.422600611876
30
0
41
1
10
68.4739568221937
20
31.4215618124879
30
0
41
1
10
68.4861760798083
20
31.4208941322567
30
0
41
1
10
68.5106158530261
20
31.4198190677092
30
0
41
1
10
68.5228380850943
20
31.4194133811072
30
0
41
1
10
68.5428824360939
20
31.4189944483099
30
0
41
1
10
68.550706171784
20
31.4188931187067
30
0
41
1
10
68.5621657649981
20
31.41883308271
30
0
41
1
10
68.5658031655838
20
31.4188270680637
30
0
41
1
10
68.5694600537392
20
31.4188339463243
30
0
41
1
10
68.5694800268757
20
31.4188339846674
30
0
41
1
10
68.5695
20
31.4188340226227
30
0
0
SPLINE
5
213
100
AcDbEntity
8
1
62
256
6
ByLayer
370
13
48
1
60
0
100
AcDbSpline
70
4
71
3
72
8
73
4
40
0
40
0
40
0
40
0
40
1
40
1
40
1
40
1
41
1
10
68.4452047820325
20
32.5000000000001
30
0
41
1
10
68.486636521355
20
32.5000000000001
30
0
41
1
10
68.5280682606775
20
32.5000000000001
30
0
41
1
10
68.5695
20
32.5000000000001
30
0
0
SPLINE
5
214
100
AcDbEntity
8
1
62
256
6
ByLayer
370
13
48
1
60
0
100
AcDbSpline
70
4
71
2
72
6
73
3
40
0
40
0
40
0
40
1
40
1
40
1
41
0.974057334522099
10
63.4122076580566
20
32.900576963399
30
0
41
0.983415275111885
10
63.469965999294
20
32.900576963399
30
0
41
1
10
63.5128526580647
20
32.900576963399
30
0
0
SPLINE
5
215
100
AcDbEntity
8
1
62
256
6
ByLayer
370
13
48
1
60
0
100
AcDbSpline
70
4
71
2
72
6
73
3
40
0
40
0
40
0
40
1
40
1
40
1
41
0.974057334522099
10
63.4122076580566
20
32.0994230366013
30
0
41
0.983415275111885
10
63.469965999294
20
32.0994230366013
30
0
41
1
10
63.5128526580647
20
32.0994230366013
30
0
0
SPLINE
5
216
100
AcDbEntity
8
1
62
256
6
ByLayer
370
13
48
1
60
0
100
AcDbSpline
70
4
71
2
72
6
73
3
40
0
40
0
40
0
40
1
40
1
40
1
41
0.974231088937504
10
63.6749115004789
20
32.3681142101816
30
0
41
0.983568696286945
10
63.7471545861187
20
32.3681142101816
30
0
41
1
10
63.8009195004782
20
32.3681142101816
30
0
0
SPLINE
5
217
100
AcDbEntity
8
1
62
256
6
ByLayer
370
13
48
1
60
0
100
AcDbSpline
70
4
71
2
72
6
73
3
40
0
40
0
40
0
40
1
40
1
40
1
41
0.973900758955616
10
63.5588097242367
20
32.1707787598165
30
0
41
0.983276077510767
10
63.6259442699017
20
32.1707787598165
30
0
41
1
10
63.6756897242366
20
32.1707787598165
30
0
0
SPLINE
5
218
100
AcDbEntity
8
1
62
256
6
ByLayer
370
13
48
1
60
0
100
AcDbSpline
70
4
71
2
72
6
73
3
40
0
40
0
40
0
40
1
40
1
40
1
41
0.973878093313124
10
63.5509282168346
20
32.832641441617
30
0
41
0.983255852160994
10
63.617706569614
20
32.832641441617
30
0
41
1
10
63.6671732168403
20
32.832641441617
30
0
0
SPLINE
5
219
100
AcDbEntity
8
1
62
256
6
ByLayer
370
13
48
1
60
0
100
AcDbSpline
70
4
71
2
72
6
73
3
40
0
40
0
40
0
40
1
40
1
40
1
41
0.973878093313124
10
63.5509282168346
20
32.1673585583833
30
0
41
0.983255852160994
10
63.617706569614
20
32.1673585583833
30
0
41
1
10
63.6671732168403
20
32.1673585583833
30
0
0
SPLINE
5
21A
100
AcDbEntity
8
1
62
256
6
ByLayer
370
18
48
1
60
0
100
AcDbSpline
70
4
71
3
72
10
73
6
40
0
40
0
40
0
40
0
40
0.496545174713846
40
0.496545174713846
40
1
40
1
40
1
40
1
41
1
10
66.5751468255075
20
30.1481797102069
30
0
41
1
10
66.5533466896017
20
30.1480452812568
30
0
41
1
10
66.5282952678047
20
30.1484775299342
30
0
41
1
10
66.4755077617421
20
30.150402005136
30
0
41
1
10
66.4470112578507
20
30.1519347682322
30
0
41
1
10
66.4189357069485
20
30.1538980020004
30
0
0
SPLINE
5
21B
100
AcDbEntity
8
1
62
256
6
ByLayer
370
18
48
1
60
0
100
AcDbSpline
70
4
71
2
72
7
73
4
40
0
40
0
40
0
40
0.5
40
1
40
1
40
1
41
1
10
63.2986247883348
20
34.7000000000002
30
0
41
1
10
63.3201857441014
20
34.7000000000002
30
0
41
1
10
63.3928014367905
20
34.7000000000002
30
0
41
1
10
63.4396834701052
20
34.7000000000002
30
0
0
SPLINE
5
21C
100
AcDbEntity
8
1
62
256
6
ByLayer
370
18
48
1
60
0
100
AcDbSpline
70
4
71
3
72
13
73
9
40
0
40
0
40
0
40
0
40
0.500781235726681
40
0.500781235726681
40
0.500781235726681
40
0.767869301884458
40
0.767869301884458
40
1
40
1
40
1
40
1
41
1
10
68.3080209311119
20
34.915447013417
30
0
41
1
10
67.9992740849282
20
34.8937106181856
30
0
41
1
10
67.6856286536801
20
34.8767364931414
30
0
41
1
10
67.3930508724
20
34.865969231185
30
0
41
1
10
67.2354121141051
20
34.8601679095754
30
0
41
1
10
67.081988013643
20
34.8560671900496
30
0
41
1
10
66.8101575856409
20
34.851771208306
30
0
41
1
10
66.6889476378265
20
34.8511185453739
30
0
41
1
10
66.5751468255074
20
34.8518202897934
30
0
0
SPLINE
5
21D
100
AcDbEntity
8
1
62
256
6
ByLayer
370
18
48
1
60
0
100
AcDbSpline
70
4
71
3
72
16
73
12
40
0
40
0
40
0
40
0
40
0.201783384739321
40
0.201783384739321
40
0.403377864546656
40
0.403377864546656
40
0.607832959331835
40
0.607832959331835
40
0.816478248427783
40
0.816478248427783
40
1
40
1
40
1
40
1
41
1
10
69.5889153303075
20
29.9865773468065
30
0
41
1
10
69.6326534239636
20
29.9840199899781
30
0
41
1
10
69.6773706525875
20
29.9891135271163
30
0
41
1
10
69.7612881167607
20
30.013514711467
30
0
41
1
10
69.8016398650051
20
30.0331300316007
30
0
41
1
10
69.8732925878941
20
30.0841317279623
30
0
41
1
10
69.905434479868
20
30.1163622837209
30
0
41
1
10
69.9574215239649
20
30.1893487234983
30
0
41
1
10
69.977720099891
20
30.2312619371609
30
0
41
1
10
70.0017074509187
20
30.3132602800608
30
0
41
1
10
70.0073562176764
20
30.3538370373582
30
0
41
1
10
70.007016558107
20
30.3939934533872
30
0
0
SPLINE
5
21E
100
AcDbEntity
8
1
62
256
6
ByLayer
370
18
48
1
60
0
100
AcDbSpline
70
4
71
3
72
8
73
4
40
0
40
0
40
0
40
0
40
1
40
1
40
1
40
1
41
1
10
68.8080209311119
20
30.0493519869617
30
0
41
1
10
68.924354917332
20
30.0411618417519
30
0
41
1
10
69.0410108992438
20
30.0319549532616
30
0
41
1
10
69.1553172864457
20
30.0219488608773
30
0
0
SPLINE
5
21F
100
AcDbEntity
8
1
62
256
6
ByLayer
370
18
48
1
60
0
100
AcDbSpline
70
4
71
3
72
16
73
12
40
0
40
0
40
0
40
0
40
0.211361443762947
40
0.211361443762947
40
0.422716290819755
40
0.422716290819755
40
0.633949151093206
40
0.633949151093206
40
0.842299705562237
40
0.842299705562237
40
1
40
1
40
1
40
1
41
1
10
70.007016558107
20
34.6060065466131
30
0
41
1
10
70.0074064524711
20
34.6521019954196
30
0
41
1
10
69.9998556439929
20
34.6988294294768
30
0
41
1
10
69.9702190740797
20
34.7858171829414
30
0
41
1
10
69.9477208985696
20
34.8272879345329
30
0
41
1
10
69.8910173776309
20
34.8992122828436
30
0
41
1
10
69.8560136095222
20
34.9306791735488
30
0
41
1
10
69.7789786511116
20
34.9787448688021
30
0
41
1
10
69.7359553177749
20
34.9962069044694
30
0
41
1
10
69.6582018857319
20
35.0127627311221
30
0
41
1
10
69.6232945560287
20
35.0154327990485
30
0
41
1
10
69.5889153303075
20
35.0134226531938
30
0
0
SPLINE
5
220
100
AcDbEntity
8
1
62
256
6
ByLayer
370
18
48
1
60
0
100
AcDbSpline
70
4
71
3
72
8
73
4
40
0
40
0
40
0
40
0
40
1
40
1
40
1
40
1
41
1
10
69.1553172864457
20
34.978051139123
30
0
41
1
10
69.0410108992438
20
34.9680450467387
30
0
41
1
10
68.924354917332
20
34.9588381582484
30
0
41
1
10
68.8080209311119
20
34.9506480130386
30
0
0
SPLINE
5
221
100
AcDbEntity
8
1
62
256
6
ByLayer
370
18
48
1
60
0
100
AcDbSpline
70
4
71
3
72
13
73
9
40
0
40
0
40
0
40
0
40
0.200250351048004
40
0.200250351048004
40
0.699726211832344
40
0.699726211832344
40
0.699726211832344
40
1
40
1
40
1
40
1
41
1
10
66.5751468255075
20
30.1481797102069
30
0
41
1
10
66.6734170081302
20
30.1487856861296
30
0
41
1
10
66.7771679125051
20
30.1483831248451
30
0
41
1
10
67.1509426949543
20
30.1435041629263
30
0
41
1
10
67.4473892371081
20
30.1337012156221
30
0
41
1
10
67.7497500928555
20
30.1183929924084
30
0
41
1
10
67.9331836738877
20
30.1091059363958
30
0
41
1
10
68.1211915582716
20
30.0977061479487
30
0
41
1
10
68.3080209311119
20
30.0845529865833
30
0
0
SPLINE
5
222
100
AcDbEntity
8
1
62
256
6
ByLayer
370
18
48
1
60
0
100
AcDbSpline
70
4
71
3
72
12
73
8
40
0
40
0
40
0
40
0
40
0.0020745602245391
40
0.0965030327464488
40
0.474216922834087
40
0.851930812921726
40
1
40
1
40
1
40
1
41
1
10
56.6382260241767
20
34.7000000000002
30
0
41
1
10
56.6395256467883
20
34.7000000000002
30
0
41
1
10
56.6999814307932
20
34.7000000000002
30
0
41
1
10
56.997327365087
20
34.7000000000002
30
0
41
1
10
57.5299646675477
20
34.7000000000002
30
0
41
1
10
58.0963240516963
20
34.7000000000002
30
0
41
1
10
58.4259051272087
20
34.7000000000002
30
0
41
1
10
58.518720237989
20
34.7000000000002
30
0
0
SPLINE
5
223
100
AcDbEntity
8
1
62
256
6
ByLayer
370
18
48
1
60
0
100
AcDbSpline
70
4
71
3
72
10
73
6
40
0
40
0
40
0
40
0
40
0.496604554236898
40
0.496604554236898
40
1
40
1
40
1
40
1
41
1
10
66.4189357069463
20
34.8461019979757
30
0
41
1
10
66.4466398380797
20
34.8480392595435
30
0
41
1
10
66.4747488636876
20
34.8495573450424
30
0
41
1
10
66.5276169252262
20
34.85151036852
30
0
41
1
10
66.5530543877322
20
34.8519565212016
30
0
41
1
10
66.5751468255075
20
34.8518202897934
30
0
0
SPLINE
5
224
100
AcDbEntity
8
1
62
256
6
ByLayer
370
18
48
1
60
0
100
AcDbSpline
70
4
71
2
72
15
73
12
40
0
40
0
40
0
40
0.25
40
0.375
40
0.375
40
0.4375
40
0.4375
40
0.46875
40
0.46875
40
0.5
40
0.5
40
1
40
1
40
1
41
1
10
63.2986055392391
20
30.3000000000002
30
0
41
1
10
63.0751549314992
20
30.3000000000002
30
0
41
1
10
62.9382254695209
20
30.3000000000002
30
0
41
1
10
62.9259843526453
20
30.3000000000002
30
0
41
1
10
62.9125309789145
20
30.3000000000002
30
0
41
1
10
62.8952757493038
20
30.3000000000002
30
0
41
1
10
62.8684442399098
20
30.3000000000002
30
0
41
1
10
62.8344891014704
20
30.3000000000002
30
0
41
1
10
62.8060056410515
20
30.3000000000002
30
0
41
1
10
62.7798973835622
20
30.3000000000002
30
0
41
1
10
62.6082913599488
20
30.3000000000002
30
0
41
1
10
61.4049672057155
20
30.3000000000002
30
0
0
SPLINE
5
225
100
AcDbEntity
8
1
62
256
6
ByLayer
370
18
48
1
60
0
100
AcDbSpline
70
4
71
3
72
8
73
4
40
0
40
0
40
0
40
0
40
1
40
1
40
1
40
1
41
1
10
63.2986246429738
20
30.3000000000002
30
0
41
1
10
63.3262795836385
20
30.3000000000002
30
0
41
1
10
63.3781764584514
20
30.3000000000002
30
0
41
1
10
63.4396676644657
20
30.3000000000002
30
0
0
SPLINE
5
226
100
AcDbEntity
8
1
62
256
6
ByLayer
370
18
48
1
60
0
100
AcDbSpline
70
4
71
3
72
12
73
8
40
0
40
0
40
0
40
0
40
0.148069187078275
40
0.525783077165912
40
0.903496967253549
40
0.997925439775459
40
1
40
1
40
1
40
1
41
1
10
58.518720237989
20
30.3000000000002
30
0
41
1
10
58.4259051272087
20
30.3000000000002
30
0
41
1
10
58.0963240516963
20
30.3000000000002
30
0
41
1
10
57.5299646675477
20
30.3000000000002
30
0
41
1
10
56.997327365087
20
30.3000000000002
30
0
41
1
10
56.6999814307932
20
30.3000000000002
30
0
41
1
10
56.6395256467883
20
30.3000000000002
30
0
41
1
10
56.6382260241767
20
30.3000000000002
30
0
0
LINE
5
70
100
AcDbEntity
8
1
62
256
6
ByLayer
370
13
48
1
60
0
100
AcDbLine
10
0.3
20
25
30
0
11
0
21
24.7
31
0
39
0
210
0
220
0
230
1
0
LINE
5
72
100
AcDbEntity
8
1
62
256
6
ByLayer
370
13
48
1
60
0
100
AcDbLine
10
0
20
-24.7
30
0
11
0.3
21
-25
31
0
39
0
210
0
220
0
230
1
0
LINE
5
73
100
AcDbEntity
8
1
62
256
6
ByLayer
370
13
48
1
60
0
100
AcDbLine
10
0.3
20
-25
30
0
11
20.036368
21
-25
31
0
39
0
210
0
220
0
230
1
0
LINE
5
74
100
AcDbEntity
8
1
62
256
6
ByLayer
370
13
48
1
60
0
100
AcDbLine
10
20.279208
20
25
30
0
11
0.3
21
25
31
0
39
0
210
0
220
0
230
1
0
LINE
5
75
100
AcDbEntity
8
1
62
256
6
ByLayer
370
13
48
1
60
0
100
AcDbLine
10
23.792408
20
34.675
30
0
11
21.438319
21
25.889417
31
0
39
0
210
0
220
0
230
1
0
LINE
5
76
100
AcDbEntity
8
80
62
256
6
ByLayer
370
18
48
1
60
0
100
AcDbLine
10
0
20
0
30
0
11
-5
21
0
31
0
39
0
210
0
220
0
230
1
0
LINE
5
77
100
AcDbEntity
8
81
62
256
6
ByLayer
370
18
48
1
60
0
100
AcDbLine
10
70
20
35
30
0
11
75
21
35
31
0
39
0
210
0
220
0
230
1
0
LINE
5
78
100
AcDbEntity
8
SK1
62
256
6
ByLayer
370
13
48
1
60
0
100
AcDbLine
10
-1.79504
20
17.330272
30
0
11
-1.79504
21
17.325755
31
0
39
0
210
0
220
0
230
1
0
LINE
5
7A
100
AcDbEntity
8
SK1
62
256
6
ByLayer
370
13
48
1
60
0
100
AcDbLine
10
-1.79504
20
-17.325755
30
0
11
-1.79504
21
-17.330272
31
0
39
0
210
0
220
0
230
1
0
LINE
5
7B
100
AcDbEntity
8
SK1
62
256
6
ByLayer
370
13
48
1
60
0
100
AcDbLine
10
-1.315435
20
-3.910269
30
0
11
-1.315435
21
3.910272
31
0
39
0
210
0
220
0
230
1
0
LINE
5
7C
100
AcDbEntity
8
SK1
62
256
6
ByLayer
370
13
48
1
60
0
100
AcDbLine
10
-0.194977
20
-17.36529
30
0
11
-0.194977
21
-17.369987
31
0
39
0
210
0
220
0
230
1
0
LINE
5
7D
100
AcDbEntity
8
SK1
62
256
6
ByLayer
370
13
48
1
60
0
100
AcDbLine
10
-0.194977
20
17.369987
30
0
11
-0.194977
21
17.365289
31
0
39
0
210
0
220
0
230
1
0
LINE
5
7E
100
AcDbEntity
8
1
62
256
6
ByLayer
370
13
48
1
60
0
100
AcDbLine
10
24.128152
20
-10.5
30
0
11
24.128152
21
33.836642
31
0
39
0
210
0
220
0
230
1
0
LINE
5
7F
100
AcDbEntity
8
1
62
256
6
ByLayer
370
13
48
1
60
0
100
AcDbLine
10
8.538675
20
23.83913
30
0
11
11.461325
21
23.83913
31
0
39
0
210
0
220
0
230
1
0
LINE
5
80
100
AcDbEntity
8
1
62
256
6
ByLayer
370
13
48
1
60
0
100
AcDbLine
10
11.461325
20
7.529667
30
0
11
11.461325
21
23.83913
31
0
39
0
210
0
220
0
230
1
0
LINE
5
81
100
AcDbEntity
8
1
62
256
6
ByLayer
370
13
48
1
60
0
100
AcDbLine
10
24.128152
20
33.836642
30
0
11
23.725188
21
33.836642
31
0
39
0
210
0
220
0
230
1
0
LINE
5
82
100
AcDbEntity
8
1
62
256
6
ByLayer
370
13
48
1
60
0
100
AcDbLine
10
20.08316
20
-19.638117
30
0
11
20.128305
21
-14.465094
31
0
39
0
210
0
220
0
230
1
0
LINE
5
83
100
AcDbEntity
8
1
62
256
6
ByLayer
370
13
48
1
60
0
100
AcDbLine
10
53.389175
20
30.325
30
0
11
58.389175
21
30.325
31
0
39
0
210
0
220
0
230
1
0
LINE
5
84
100
AcDbEntity
8
1
62
256
6
ByLayer
370
13
48
1
60
0
100
AcDbLine
10
24.128152
20
-10.5
30
0
11
34.548567
21
-10.5
31
0
39
0
210
0
220
0
230
1
0
LINE
5
85
100
AcDbEntity
8
1
62
256
6
ByLayer
370
13
48
1
60
0
100
AcDbLine
10
8.538675
20
-7.529667
30
0
11
11.461325
21
-7.529667
31
0
39
0
210
0
220
0
230
1
0
LINE
5
86
100
AcDbEntity
8
1
62
256
6
ByLayer
370
13
48
1
60
0
100
AcDbLine
10
8.538675
20
-23.83913
30
0
11
8.538675
21
-7.529667
31
0
39
0
210
0
220
0
230
1
0
LINE
5
87
100
AcDbEntity
8
1
62
256
6
ByLayer
370
13
48
1
60
0
100
AcDbLine
10
44.4
20
30.325
30
0
11
38
21
30.325
31
0
39
0
210
0
220
0
230
1
0
LINE
5
88
100
AcDbEntity
8
1
62
256
6
ByLayer
370
13
48
1
60
0
100
AcDbLine
10
37.744918
20
34.675
30
0
11
23.946082
21
34.675
31
0
39
0
210
0
220
0
230
1
0
LINE
5
89
100
AcDbEntity
8
1
62
256
6
ByLayer
370
13
48
1
60
0
100
AcDbLine
10
38
20
30.325
30
0
11
37.744918
21
30.325
31
0
39
0
210
0
220
0
230
1
0
LINE
5
8A
100
AcDbEntity
8
1
62
256
6
ByLayer
370
13
48
1
60
0
100
AcDbLine
10
11.894338
20
8.055848
30
0
11
11.894338
21
23.666502
31
0
39
0
210
0
220
0
230
1
0
LINE
5
8B
100
AcDbEntity
8
1
62
256
6
ByLayer
370
13
48
1
60
0
100
AcDbLine
10
11.461325
20
7.529667
30
0
11
8.538675
21
7.529667
31
0
39
0
210
0
220
0
230
1
0
LINE
5
8C
100
AcDbEntity
8
1
62
256
6
ByLayer
370
13
48
1
60
0
100
AcDbLine
10
53.389175
20
34.675
30
0
11
53.389175
21
30.325
31
0
39
0
210
0
220
0
230
1
0
LINE
5
8D
100
AcDbEntity
8
1
62
256
6
ByLayer
370
13
48
1
60
0
100
AcDbLine
10
53.389175
20
30.325
30
0
11
44.4
21
30.325
31
0
39
0
210
0
220
0
230
1
0
LINE
5
8E
100
AcDbEntity
8
1
62
256
6
ByLayer
370
13
48
1
60
0
100
AcDbLine
10
37.744918
20
34.675
30
0
11
37.744918
21
30.325
31
0
39
0
210
0
220
0
230
1
0
LINE
5
8F
100
AcDbEntity
8
1
62
256
6
ByLayer
370
13
48
1
60
0
100
AcDbLine
10
21.438319
20
25.889417
30
0
11
21.438319
21
24.817615
31
0
39
0
210
0
220
0
230
1
0
LINE
5
90
100
AcDbEntity
8
1
62
256
6
ByLayer
370
13
48
1
60
0
100
AcDbLine
10
11.461325
20
-23.83913
30
0
11
8.538675
21
-23.83913
31
0
39
0
210
0
220
0
230
1
0
LINE
5
91
100
AcDbEntity
8
1
62
256
6
ByLayer
370
13
48
1
60
0
100
AcDbLine
10
20.279208
20
25
30
0
11
20.279208
21
23.228271
31
0
39
0
210
0
220
0
230
1
0
LINE
5
92
100
AcDbEntity
8
1
62
256
6
ByLayer
370
13
48
1
60
0
100
AcDbLine
10
8.538675
20
7.529667
30
0
11
8.538675
21
23.83913
31
0
39
0
210
0
220
0
230
1
0
LINE
5
93
100
AcDbEntity
8
1
62
256
6
ByLayer
370
13
48
1
60
0
100
AcDbLine
10
11.894338
20
-23.666502
30
0
11
11.894338
21
-8.055848
31
0
39
0
210
0
220
0
230
1
0
LINE
5
94
100
AcDbEntity
8
1
62
256
6
ByLayer
370
13
48
1
60
0
100
AcDbLine
10
58.389175
20
30.325
30
0
11
58.389175
21
34.675
31
0
39
0
210
0
220
0
230
1
0
LINE
5
95
100
AcDbEntity
8
1
62
256
6
ByLayer
370
13
48
1
60
0
100
AcDbLine
10
63.254303
20
31.55936
30
0
11
62.87957
21
30.325
31
0
39
0
210
0
220
0
230
1
0
LINE
5
96
100
AcDbEntity
8
1
62
256
6
ByLayer
370
13
48
1
60
0
100
AcDbLine
10
58.389175
20
34.675
30
0
11
62.87957
21
34.675
31
0
39
0
210
0
220
0
230
1
0
LINE
5
97
100
AcDbEntity
8
1
62
256
6
ByLayer
370
13
48
1
60
0
100
AcDbLine
10
20.08316
20
-19.638117
30
0
11
20.036368
21
-25
31
0
39
0
210
0
220
0
230
1
0
LINE
5
98
100
AcDbEntity
8
1
62
256
6
ByLayer
370
13
48
1
60
0
100
AcDbLine
10
53.389175
20
34.675
30
0
11
58.389175
21
34.675
31
0
39
0
210
0
220
0
230
1
0
LINE
5
99
100
AcDbEntity
8
1
62
256
6
ByLayer
370
13
48
1
60
0
100
AcDbLine
10
11.461325
20
-23.83913
30
0
11
11.461325
21
-7.529667
31
0
39
0
210
0
220
0
230
1
0
LINE
5
9A
100
AcDbEntity
8
1
62
256
6
ByLayer
370
13
48
1
60
0
100
AcDbLine
10
37.744918
20
34.675
30
0
11
44.4
21
34.675
31
0
39
0
210
0
220
0
230
1
0
LINE
5
9B
100
AcDbEntity
8
1
62
256
6
ByLayer
370
13
48
1
60
0
100
AcDbLine
10
8.105662
20
8.055848
30
0
11
8.105662
21
23.666502
31
0
39
0
210
0
220
0
230
1
0
LINE
5
9C
100
AcDbEntity
8
1
62
256
6
ByLayer
370
13
48
1
60
0
100
AcDbLine
10
8.105662
20
-23.666502
30
0
11
8.105662
21
-8.055848
31
0
39
0
210
0
220
0
230
1
0
LINE
5
9D
100
AcDbEntity
8
1
62
256
6
ByLayer
370
13
48
1
60
0
100
AcDbLine
10
0
20
24.7
30
0
11
0
21
-24.7
31
0
39
0
210
0
220
0
230
1
0
LINE
5
9E
100
AcDbEntity
8
1
62
256
6
ByLayer
370
13
48
1
60
0
100
AcDbLine
10
44.4
20
30.325
30
0
11
44.4
21
34.675
31
0
39
0
210
0
220
0
230
1
0
LINE
5
9F
100
AcDbEntity
8
1
62
256
6
ByLayer
370
13
48
1
60
0
100
AcDbLine
10
36.4
20
28.725
30
0
11
36.4
21
0
31
0
39
0
210
0
220
0
230
1
0
LINE
5
A0
100
AcDbEntity
8
1
62
256
6
ByLayer
370
13
48
1
60
0
100
AcDbLine
10
20.128305
20
22.78062
30
0
11
20.128305
21
-14.465094
31
0
39
0
210
0
220
0
230
1
0
LINE
5
A1
100
AcDbEntity
8
1
62
256
6
ByLayer
370
13
48
1
60
0
100
AcDbLine
10
0.3
20
25
30
0
11
0.3
21
-25
31
0
39
0
210
0
220
0
230
1
0
LINE
5
A2
100
AcDbEntity
8
1
62
256
6
ByLayer
370
13
48
1
60
0
100
AcDbLine
10
58.389175
20
30.325
30
0
11
62.87957
21
30.325
31
0
39
0
210
0
220
0
230
1
0
LINE
5
A3
100
AcDbEntity
8
1
62
256
6
ByLayer
370
13
48
1
60
0
100
AcDbLine
10
44.4
20
34.675
30
0
11
53.389175
21
34.675
31
0
39
0
210
0
220
0
230
1
0
LINE
5
A4
100
AcDbEntity
8
1
62
256
6
ByLayer
370
13
48
1
60
0
100
AcDbLine
10
34.548567
20
-10.5
30
0
11
36.4
21
0
31
0
39
0
210
0
220
0
230
1
0
LINE
5
A5
100
AcDbEntity
8
1
62
256
6
ByLayer
370
13
48
1
60
0
100
AcDbLine
10
62.87957
20
34.675
30
0
11
63.254303
21
33.44064
31
0
39
0
210
0
220
0
230
1
0
LINE
5
A6
100
AcDbEntity
8
1
62
256
6
ByLayer
370
13
48
1
60
0
100
AcDbLine
10
58.609992
20
30.3
30
0
11
58.609992
21
30.325
31
0
39
0
210
0
220
0
230
1
0
LINE
5
A7
100
AcDbEntity
8
1
62
256
6
ByLayer
370
13
48
1
60
0
100
AcDbLine
10
58.609992
20
34.675
30
0
11
58.609992
21
34.7
31
0
39
0
210
0
220
0
230
1
0
LINE
5
A8
100
AcDbEntity
8
1
62
256
6
ByLayer
370
13
48
1
60
0
100
AcDbLine
10
58.51872
20
34.7
30
0
11
58.51872
21
34.674999
31
0
39
0
210
0
220
0
230
1
0
LINE
5
A9
100
AcDbEntity
8
1
62
256
6
ByLayer
370
13
48
1
60
0
100
AcDbLine
10
56.638226
20
30.3
30
0
11
56.638226
21
30.325025
31
0
39
0
210
0
220
0
230
1
0
LINE
5
AA
100
AcDbEntity
8
1
62
256
6
ByLayer
370
13
48
1
60
0
100
AcDbLine
10
56.638226
20
34.674975
30
0
11
56.638226
21
34.7
31
0
39
0
210
0
220
0
230
1
0
LINE
5
AB
100
AcDbEntity
8
1
62
256
6
ByLayer
370
13
48
1
60
0
100
AcDbLine
10
58.51872
20
30.325001
30
0
11
58.51872
21
30.3
31
0
39
0
210
0
220
0
230
1
0
LINE
5
AC
100
AcDbEntity
8
1
62
256
6
ByLayer
370
13
48
1
60
0
100
AcDbLine
10
63.298627
20
30.445574
30
0
11
63.298627
21
30.3
31
0
39
0
210
0
220
0
230
1
0
LINE
5
AD
100
AcDbEntity
8
1
62
256
6
ByLayer
370
13
48
1
60
0
100
AcDbLine
10
63.298627
20
34.7
30
0
11
63.298627
21
34.554426
31
0
39
0
210
0
220
0
230
1
0
LINE
5
AE
100
AcDbEntity
8
1
62
256
6
ByLayer
370
13
48
1
60
0
100
AcDbLine
10
68.308021
20
34.233876
30
0
11
68.308021
21
34.915447
31
0
39
0
210
0
220
0
230
1
0
LINE
5
AF
100
AcDbEntity
8
1
62
256
6
ByLayer
370
13
48
1
60
0
100
AcDbLine
10
68.308021
20
30.766124
30
0
11
68.308021
21
30.084553
31
0
39
0
210
0
220
0
230
1
0
LINE
5
B0
100
AcDbEntity
8
1
62
256
6
ByLayer
370
13
48
1
60
0
100
AcDbLine
10
65.082358
20
30.3
30
0
11
65.082358
21
31.429913
31
0
39
0
210
0
220
0
230
1
0
LINE
5
B1
100
AcDbEntity
8
1
62
256
6
ByLayer
370
13
48
1
60
0
100
AcDbLine
10
64.181347
20
30.3
30
0
11
64.181347
21
31.201386
31
0
39
0
210
0
220
0
230
1
0
LINE
5
B2
100
AcDbEntity
8
1
62
256
6
ByLayer
370
13
48
1
60
0
100
AcDbLine
10
65.082358
20
33.570087
30
0
11
65.082358
21
34.7
31
0
39
0
210
0
220
0
230
1
0
LINE
5
B3
100
AcDbEntity
8
1
62
256
6
ByLayer
370
13
48
1
60
0
100
AcDbLine
10
64.744578
20
31.270852
30
0
11
64.744578
21
30.3
31
0
39
0
210
0
220
0
230
1
0
LINE
5
B4
100
AcDbEntity
8
1
62
256
6
ByLayer
370
13
48
1
60
0
100
AcDbLine
10
64.744578
20
34.7
30
0
11
64.744578
21
33.729147
31
0
39
0
210
0
220
0
230
1
0
LINE
5
B5
100
AcDbEntity
8
1
62
256
6
ByLayer
370
13
48
1
60
0
100
AcDbLine
10
64.181347
20
34.7
30
0
11
64.181347
21
33.798614
31
0
39
0
210
0
220
0
230
1
0
LINE
5
B6
100
AcDbEntity
8
1
62
256
6
ByLayer
370
13
48
1
60
0
100
AcDbLine
10
65.63429
20
33.359763
30
0
11
65.495921
21
33.513111
31
0
39
0
210
0
220
0
230
1
0
LINE
5
B7
100
AcDbEntity
8
1
62
256
6
ByLayer
370
13
48
1
60
0
100
AcDbLine
10
65.495921
20
31.486889
30
0
11
65.63429
21
31.640237
31
0
39
0
210
0
220
0
230
1
0
LINE
5
B8
100
AcDbEntity
8
1
62
256
6
ByLayer
370
13
48
1
60
0
100
AcDbLine
10
67.945205
20
33.473751
30
0
11
67.868852
21
33.763655
31
0
39
0
210
0
220
0
230
1
0
LINE
5
B9
100
AcDbEntity
8
1
62
256
6
ByLayer
370
13
48
1
60
0
100
AcDbLine
10
67.945205
20
31.526249
30
0
11
67.868852
21
31.236345
31
0
39
0
210
0
220
0
230
1
0
LINE
5
BA
100
AcDbEntity
8
1
62
256
6
ByLayer
370
13
48
1
60
0
100
AcDbLine
10
63.81113
20
33.792041
30
0
11
63.439699
21
34.592397
31
0
39
0
210
0
220
0
230
1
0
LINE
5
BB
100
AcDbEntity
8
1
62
256
6
ByLayer
370
13
48
1
60
0
100
AcDbLine
10
63.439699
20
34.592397
30
0
11
63.439699
21
34.7
31
0
39
0
210
0
220
0
230
1
0
LINE
5
BC
100
AcDbEntity
8
1
62
256
6
ByLayer
370
13
48
1
60
0
100
AcDbLine
10
65.082358
20
31.429913
30
0
11
65.052036
21
31.649895
31
0
39
0
210
0
220
0
230
1
0
LINE
5
BD
100
AcDbEntity
8
1
62
256
6
ByLayer
370
13
48
1
60
0
100
AcDbLine
10
65.082358
20
33.570087
30
0
11
65.052036
21
33.350104
31
0
39
0
210
0
220
0
230
1
0
LINE
5
BE
100
AcDbEntity
8
1
62
256
6
ByLayer
370
13
48
1
60
0
100
AcDbLine
10
63.439699
20
30.3
30
0
11
63.439699
21
30.407603
31
0
39
0
210
0
220
0
230
1
0
LINE
5
BF
100
AcDbEntity
8
1
62
256
6
ByLayer
370
13
48
1
60
0
100
AcDbLine
10
63.439699
20
30.407603
30
0
11
63.81113
21
31.207959
31
0
39
0
210
0
220
0
230
1
0
LINE
5
C0
100
AcDbEntity
8
1
62
256
6
ByLayer
370
13
48
1
60
0
100
AcDbLine
10
65.495921
20
31.486889
30
0
11
65.465562
21
31.707354
31
0
39
0
210
0
220
0
230
1
0
LINE
5
C1
100
AcDbEntity
8
1
62
256
6
ByLayer
370
13
48
1
60
0
100
AcDbLine
10
65.495921
20
33.513111
30
0
11
65.465562
21
33.292645
31
0
39
0
210
0
220
0
230
1
0
LINE
5
C2
100
AcDbEntity
8
1
62
256
6
ByLayer
370
13
48
1
60
0
100
AcDbLine
10
67.945205
20
33.473751
30
0
11
67.945205
21
31.526249
31
0
39
0
210
0
220
0
230
1
0
LINE
5
C3
100
AcDbEntity
8
1
62
256
6
ByLayer
370
13
48
1
60
0
100
AcDbLine
10
63.294206
20
34.546798
30
0
11
63.682726
21
33.709618
31
0
39
0
210
0
220
0
230
1
0
LINE
5
C4
100
AcDbEntity
8
1
62
256
6
ByLayer
370
13
48
1
60
0
100
AcDbLine
10
63.682726
20
31.290382
30
0
11
63.294206
21
30.453202
31
0
39
0
210
0
220
0
230
1
0
LINE
5
C5
100
AcDbEntity
8
1
62
256
6
ByLayer
370
13
48
1
60
0
100
AcDbLine
10
70.000117
20
33.790302
30
0
11
69.892144
21
33.790302
31
0
39
0
210
0
220
0
230
1
0
LINE
5
C6
100
AcDbEntity
8
1
62
256
6
ByLayer
370
13
48
1
60
0
100
AcDbLine
10
69.534036
20
34.071121
30
0
11
69.534036
21
35.010214
31
0
39
0
210
0
220
0
230
1
0
LINE
5
C7
100
AcDbEntity
8
1
62
256
6
ByLayer
370
13
48
1
60
0
100
AcDbLine
10
69.534036
20
30.928879
30
0
11
69.534036
21
29.989786
31
0
39
0
210
0
220
0
230
1
0
LINE
5
C8
100
AcDbEntity
8
1
62
256
6
ByLayer
370
13
48
1
60
0
100
AcDbLine
10
68.808021
20
30.765698
30
0
11
68.808021
21
30.049352
31
0
39
0
210
0
220
0
230
1
0
LINE
5
C9
100
AcDbEntity
8
1
62
256
6
ByLayer
370
13
48
1
60
0
100
AcDbLine
10
69.466228
20
35.005268
30
0
11
69.466228
21
34.1213
31
0
39
0
210
0
220
0
230
1
0
LINE
5
CA
100
AcDbEntity
8
1
62
256
6
ByLayer
370
13
48
1
60
0
100
AcDbLine
10
68.808021
20
34.234302
30
0
11
68.808021
21
34.950648
31
0
39
0
210
0
220
0
230
1
0
LINE
5
CB
100
AcDbEntity
8
1
62
256
6
ByLayer
370
13
48
1
60
0
100
AcDbLine
10
70.000117
20
31.209698
30
0
11
69.892144
21
31.209698
31
0
39
0
210
0
220
0
230
1
0
LINE
5
CC
100
AcDbEntity
8
1
62
256
6
ByLayer
370
13
48
1
60
0
100
AcDbLine
10
69.466228
20
29.994732
30
0
11
69.466228
21
30.8787
31
0
39
0
210
0
220
0
230
1
0
LINE
5
CD
100
AcDbEntity
8
1
62
256
6
ByLayer
370
13
48
1
60
0
100
AcDbLine
10
69.155317
20
30.815052
30
0
11
69.155317
21
30.021949
31
0
39
0
210
0
220
0
230
1
0
LINE
5
CE
100
AcDbEntity
8
1
62
256
6
ByLayer
370
13
48
1
60
0
100
AcDbLine
10
69.155317
20
34.184948
30
0
11
69.155317
21
34.978051
31
0
39
0
210
0
220
0
230
1
0
LINE
5
CF
100
AcDbEntity
8
1
62
256
6
ByLayer
370
13
48
1
60
0
100
AcDbLine
10
69.920697
20
31.237394
30
0
11
70
21
31.237394
31
0
39
0
210
0
220
0
230
1
0
LINE
5
D0
100
AcDbEntity
8
1
62
256
6
ByLayer
370
13
48
1
60
0
100
AcDbLine
10
69.997026
20
31.43442
30
0
11
69.997026
21
33.56558
31
0
39
0
210
0
220
0
230
1
0
LINE
5
D1
100
AcDbEntity
8
1
62
256
6
ByLayer
370
13
48
1
60
0
100
AcDbLine
10
69.944165
20
33.56558
30
0
11
69.997026
21
33.56558
31
0
39
0
210
0
220
0
230
1
0
LINE
5
D2
100
AcDbEntity
8
1
62
256
6
ByLayer
370
13
48
1
60
0
100
AcDbLine
10
69.920697
20
33.762606
30
0
11
70
21
33.762606
31
0
39
0
210
0
220
0
230
1
0
LINE
5
D3
100
AcDbEntity
8
1
62
256
6
ByLayer
370
13
48
1
60
0
100
AcDbLine
10
69.944165
20
31.43442
30
0
11
69.997026
21
31.43442
31
0
39
0
210
0
220
0
230
1
0
LINE
5
D4
100
AcDbEntity
8
1
62
256
6
ByLayer
370
13
48
1
60
0
100
AcDbLine
10
69.944165
20
33.56558
30
0
11
69.944165
21
31.43442
31
0
39
0
210
0
220
0
230
1
0
LINE
5
D5
100
AcDbEntity
8
1
62
256
6
ByLayer
370
13
48
1
60
0
100
AcDbLine
10
69.421373
20
33.577254
30
0
11
69.421373
21
31.422746
31
0
39
0
210
0
220
0
230
1
0
LINE
5
D6
100
AcDbEntity
8
1
62
256
6
ByLayer
370
13
48
1
60
0
100
AcDbLine
10
63.667173
20
32.832641
30
0
11
63.882731
21
32.832641
31
0
39
0
210
0
220
0
230
1
0
LINE
5
D7
100
AcDbEntity
8
1
62
256
6
ByLayer
370
13
48
1
60
0
100
AcDbLine
10
63.667173
20
32.167359
30
0
11
63.882731
21
32.167359
31
0
39
0
210
0
220
0
230
1
0
LINE
5
D8
100
AcDbEntity
8
1
62
256
6
ByLayer
370
13
48
1
60
0
100
AcDbLine
10
63.80092
20
32.631886
30
0
11
64.035691
21
32.631886
31
0
39
0
210
0
220
0
230
1
0
LINE
5
D9
100
AcDbEntity
8
1
62
256
6
ByLayer
370
13
48
1
60
0
100
AcDbLine
10
63.80092
20
32.368114
30
0
11
64.035691
21
32.368114
31
0
39
0
210
0
220
0
230
1
0
LINE
5
DA
100
AcDbEntity
8
1
62
256
6
ByLayer
370
13
48
1
60
0
100
AcDbLine
10
68.5695
20
31.418834
30
0
11
68.5695
21
32.5
31
0
39
0
210
0
220
0
230
1
0
LINE
5
DB
100
AcDbEntity
8
1
62
256
6
ByLayer
370
13
48
1
60
0
100
AcDbLine
10
68.5695
20
33.581166
30
0
11
68.5695
21
32.5
31
0
39
0
210
0
220
0
230
1
0
LINE
5
DC
100
AcDbEntity
8
1
62
256
6
ByLayer
370
13
48
1
60
0
100
AcDbLine
10
68.445205
20
33.576724
30
0
11
68.423178
21
33.87343
31
0
39
0
210
0
220
0
230
1
0
LINE
5
DD
100
AcDbEntity
8
1
62
256
6
ByLayer
370
13
48
1
60
0
100
AcDbLine
10
68.445205
20
31.423276
30
0
11
68.423178
21
31.12657
31
0
39
0
210
0
220
0
230
1
0
LINE
5
DE
100
AcDbEntity
8
1
62
256
6
ByLayer
370
13
48
1
60
0
100
AcDbLine
10
68.445205
20
33.576724
30
0
11
68.445205
21
32.5
31
0
39
0
210
0
220
0
230
1
0
LINE
5
DF
100
AcDbEntity
8
1
62
256
6
ByLayer
370
13
48
1
60
0
100
AcDbLine
10
68.445205
20
31.423276
30
0
11
68.445205
21
32.5
31
0
39
0
210
0
220
0
230
1
0
LINE
5
E0
100
AcDbEntity
8
1
62
256
6
ByLayer
370
18
48
1
60
0
100
AcDbLine
10
68.308021
20
30.084553
30
0
11
68.808021
21
30.049352
31
0
39
0
210
0
220
0
230
1
0
LINE
5
E1
100
AcDbEntity
8
1
62
256
6
ByLayer
370
18
48
1
60
0
100
AcDbLine
10
64.744578
20
34.7
30
0
11
64.181347
21
34.7
31
0
39
0
210
0
220
0
230
1
0
LINE
5
E2
100
AcDbEntity
8
1
62
256
6
ByLayer
370
18
48
1
60
0
100
AcDbLine
10
63.439668
20
30.3
30
0
11
64.181347
21
30.3
31
0
39
0
210
0
220
0
230
1
0
LINE
5
E3
100
AcDbEntity
8
1
62
256
6
ByLayer
370
18
48
1
60
0
100
AcDbLine
10
66.418936
20
30.153898
30
0
11
65.671473
21
30.206166
31
0
39
0
210
0
220
0
230
1
0
LINE
5
E4
100
AcDbEntity
8
1
62
256
6
ByLayer
370
18
48
1
60
0
100
AcDbLine
10
61.404967
20
30.3
30
0
11
58.609992
21
30.3
31
0
39
0
210
0
220
0
230
1
0
LINE
5
E5
100
AcDbEntity
8
1
62
256
6
ByLayer
370
18
48
1
60
0
100
AcDbLine
10
69.155317
20
30.021949
30
0
11
69.466228
21
29.994732
31
0
39
0
210
0
220
0
230
1
0
LINE
5
E6
100
AcDbEntity
8
1
62
256
6
ByLayer
370
18
48
1
60
0
100
AcDbLine
10
56.4
20
34.7
30
0
11
56.638226
21
34.7
31
0
39
0
210
0
220
0
230
1
0
LINE
5
E7
100
AcDbEntity
8
1
62
256
6
ByLayer
370
18
48
1
60
0
100
AcDbLine
10
65.082358
20
30.3
30
0
11
64.744578
21
30.3
31
0
39
0
210
0
220
0
230
1
0
LINE
5
E8
100
AcDbEntity
8
1
62
256
6
ByLayer
370
18
48
1
60
0
100
AcDbLine
10
65.476147
20
34.727592
30
0
11
65.500168
21
34.741461
31
0
39
0
210
0
220
0
230
1
0
LINE
5
E9
100
AcDbEntity
8
1
62
256
6
ByLayer
370
18
48
1
60
0
100
AcDbLine
10
58.51872
20
30.3
30
0
11
58.609992
21
30.3
31
0
39
0
210
0
220
0
230
1
0
LINE
5
EA
100
AcDbEntity
8
1
62
256
6
ByLayer
370
18
48
1
60
0
100
AcDbLine
10
65.671473
20
34.793834
30
0
11
66.418936
21
34.846102
31
0
39
0
210
0
220
0
230
1
0
LINE
5
EB
100
AcDbEntity
8
1
62
256
6
ByLayer
370
18
48
1
60
0
100
AcDbLine
10
58.609992
20
34.7
30
0
11
61.404967
21
34.7
31
0
39
0
210
0
220
0
230
1
0
LINE
5
EC
100
AcDbEntity
8
1
62
256
6
ByLayer
370
18
48
1
60
0
100
AcDbLine
10
70.000117
20
33.790302
30
0
11
70.007017
21
34.606007
31
0
39
0
210
0
220
0
230
1
0
LINE
5
ED
100
AcDbEntity
8
1
62
256
6
ByLayer
370
18
48
1
60
0
100
AcDbLine
10
64.181347
20
30.3
30
0
11
64.744578
21
30.3
31
0
39
0
210
0
220
0
230
1
0
LINE
5
EE
100
AcDbEntity
8
1
62
256
6
ByLayer
370
18
48
1
60
0
100
AcDbLine
10
69.534036
20
29.989786
30
0
11
69.588915
21
29.986577
31
0
39
0
210
0
220
0
230
1
0
LINE
5
EF
100
AcDbEntity
8
1
62
256
6
ByLayer
370
18
48
1
60
0
100
AcDbLine
10
56.638226
20
30.3
30
0
11
56.4
21
30.3
31
0
39
0
210
0
220
0
230
1
0
LINE
5
F0
100
AcDbEntity
8
1
62
256
6
ByLayer
370
18
48
1
60
0
100
AcDbLine
10
68.808021
20
34.950648
30
0
11
68.308021
21
34.915447
31
0
39
0
210
0
220
0
230
1
0
LINE
5
F1
100
AcDbEntity
8
1
62
256
6
ByLayer
370
18
48
1
60
0
100
AcDbLine
10
65.372916
20
34.7
30
0
11
65.082358
21
34.7
31
0
39
0
210
0
220
0
230
1
0
LINE
5
F2
100
AcDbEntity
8
1
62
256
6
ByLayer
370
18
48
1
60
0
100
AcDbLine
10
65.500168
20
30.258539
30
0
11
65.476147
21
30.272408
31
0
39
0
210
0
220
0
230
1
0
LINE
5
F3
100
AcDbEntity
8
1
62
256
6
ByLayer
370
18
48
1
60
0
100
AcDbLine
10
64.181347
20
34.7
30
0
11
63.439699
21
34.7
31
0
39
0
210
0
220
0
230
1
0
LINE
5
F4
100
AcDbEntity
8
1
62
256
6
ByLayer
370
18
48
1
60
0
100
AcDbLine
10
69.588915
20
35.013423
30
0
11
69.534036
21
35.010214
31
0
39
0
210
0
220
0
230
1
0
LINE
5
F5
100
AcDbEntity
8
1
62
256
6
ByLayer
370
18
48
1
60
0
100
AcDbLine
10
70.007017
20
30.393993
30
0
11
70.000117
21
31.209698
31
0
39
0
210
0
220
0
230
1
0
LINE
5
F6
100
AcDbEntity
8
1
62
256
6
ByLayer
370
18
48
1
60
0
100
AcDbLine
10
70
20
31.237394
30
0
11
70
21
33.762606
31
0
39
0
210
0
220
0
230
1
0
LINE
5
F7
100
AcDbEntity
8
1
62
256
6
ByLayer
370
18
48
1
60
0
100
AcDbLine
10
58.609992
20
34.7
30
0
11
58.51872
21
34.7
31
0
39
0
210
0
220
0
230
1
0
LINE
5
F8
100
AcDbEntity
8
1
62
256
6
ByLayer
370
18
48
1
60
0
100
AcDbLine
10
65.082358
20
30.3
30
0
11
65.372916
21
30.3
31
0
39
0
210
0
220
0
230
1
0
LINE
5
F9
100
AcDbEntity
8
1
62
256
6
ByLayer
370
18
48
1
60
0
100
AcDbLine
10
64.744578
20
34.7
30
0
11
65.082358
21
34.7
31
0
39
0
210
0
220
0
230
1
0
LINE
5
FA
100
AcDbEntity
8
1
62
256
6
ByLayer
370
18
48
1
60
0
100
AcDbLine
10
69.466228
20
35.005268
30
0
11
69.155317
21
34.978051
31
0
39
0
210
0
220
0
230
1
0
MTEXT
5
227
100
AcDbEntity
8
SK6
62
256
6
ByLayer
370
18
48
1
60
0
100
AcDbMText
10
-11.625
20
-45.86796
30
0
210
0
220
0
230
1
1
\W0.7781;C5-QD-RFJ32C35070A
40
3.5
41
0
44
1.084337
50
0
71
7
72
5
7
iso_b_vert
0
DIMENSION
5
239
100
AcDbEntity
8
2
62
256
6
ByLayer
370
13
48
1
60
0
100
AcDbDimension
2
DimnDraft3D1
10
95.1
20
35
30
0
11
95.1
21
15.409211
31
0
70
32
71
5
72
1
41
1
210
0
220
0
230
1
3
Standard
100
AcDbAlignedDimension
13
40
23
0
33
0
14
72
24
35
34
0
50
90
100
AcDbRotatedDimension
1001
ACAD
1000
DSTYLE
1002
{
1070
    74
1070
     0
1070
   279
1070
     0
1070
   172
1070
     1
1070
   173
1070
     1
1070
   340
1005
228
1070
   271
1070
     1
1070
    77
1070
     1
1070
    73
1070
     0
1070
   171
1070
     3
1070
   274
1070
     4
1070
   177
1070
     2
1070
   176
1070
     2
1070
   178
1070
     7
1070
    78
1070
     8
1070
    41
1041
3.175
1070
   147
1041
1.75
1070
    42
1041
2.0
1070
    44
1041
2.0
1070
   140
1041
3.5
1070
   343
1005
23A
1070
   344
1005
23A
1002
}
0
DIMENSION
5
24F
100
AcDbEntity
8
SK2
62
256
6
ByLayer
370
13
48
1
60
0
100
AcDbDimension
2
DimnDraft3D2
10
70
20
57.614079
30
0
11
32.909211
21
57.614079
31
0
70
32
71
5
72
1
41
1
210
0
220
0
230
1
3
Standard
100
AcDbAlignedDimension
13
0
23
2
33
0
14
70
24
37
34
0
50
0
100
AcDbRotatedDimension
1001
ACAD
1000
DSTYLE
1002
{
1070
   279
1070
     0
1070
   172
1070
     1
1070
   173
1070
     1
1070
   340
1005
228
1070
   271
1070
     1
1070
    77
1070
     1
1070
    73
1070
     0
1070
   171
1070
     3
1070
   274
1070
     4
1070
   177
1070
     2
1070
   176
1070
     2
1070
   178
1070
     7
1070
    78
1070
     8
1070
    41
1041
3.175
1070
   147
1041
1.75
1070
    42
1041
2.0
1070
    44
1041
2.0
1070
   140
1041
3.5
1070
   343
1005
23A
1070
   344
1005
23A
1002
}
0
DIMENSION
5
25D
100
AcDbEntity
8
2
62
256
6
ByLayer
370
13
48
1
60
0
100
AcDbDimension
2
DimnDraft3D3
10
38
20
-38.1
30
0
11
51.909211
21
-38.1
31
0
70
32
71
5
72
1
41
1
210
0
220
0
230
1
3
Standard
100
AcDbAlignedDimension
13
70
23
33
33
0
14
38
24
-2
34
0
50
0
100
AcDbRotatedDimension
1001
ACAD
1000
DSTYLE
1002
{
1070
   279
1070
     0
1070
   172
1070
     1
1070
   173
1070
     1
1070
   340
1005
228
1070
   271
1070
     1
1070
    77
1070
     1
1070
    73
1070
     0
1070
   171
1070
     3
1070
   274
1070
     4
1070
   177
1070
     2
1070
   176
1070
     2
1070
   178
1070
     7
1070
    78
1070
     8
1070
    41
1041
3.175
1070
   147
1041
1.75
1070
    42
1041
2.0
1070
    44
1041
2.0
1070
   140
1041
3.5
1070
   343
1005
23A
1070
   344
1005
23A
1002
}
0
DIMENSION
5
26B
100
AcDbEntity
8
SK2
62
256
6
ByLayer
370
13
48
1
60
0
100
AcDbDimension
2
DimnDraft3D4
10
-39.6
20
-25
30
0
11
-39.6
21
-2.090789
31
0
70
32
71
5
72
1
41
1
210
0
220
0
230
1
3
Standard
100
AcDbAlignedDimension
13
-2
23
25
33
0
14
-2
24
-25
34
0
50
90
100
AcDbRotatedDimension
1001
ACAD
1000
DSTYLE
1002
{
1070
    74
1070
     0
1070
   279
1070
     0
1070
   172
1070
     1
1070
   173
1070
     1
1070
   340
1005
228
1070
   271
1070
     1
1070
    77
1070
     1
1070
    73
1070
     0
1070
   171
1070
     3
1070
   274
1070
     4
1070
   177
1070
     2
1070
   176
1070
     2
1070
   178
1070
     7
1070
    78
1070
     8
1070
    41
1041
3.175
1070
   147
1041
1.75
1070
    42
1041
2.0
1070
    44
1041
2.0
1070
   140
1041
3.5
1070
   343
1005
23A
1070
   344
1005
23A
1002
}
0
DIMENSION
5
279
100
AcDbEntity
8
2
62
256
6
ByLayer
370
13
48
1
60
0
100
AcDbDimension
2
DimnDraft3D5
10
88.1
20
30
30
0
11
88.1
21
18.179211
31
0
70
32
71
5
72
1
41
1
210
0
220
0
230
1
3
Standard
100
AcDbAlignedDimension
13
72
23
35
33
0
14
72
24
30
34
0
50
90
100
AcDbRotatedDimension
1001
ACAD
1000
DSTYLE
1002
{
1070
    74
1070
     0
1070
   279
1070
     0
1070
   172
1070
     1
1070
   173
1070
     1
1070
   340
1005
228
1070
   271
1070
     1
1070
    77
1070
     1
1070
    73
1070
     0
1070
   171
1070
     3
1070
   274
1070
     4
1070
   177
1070
     2
1070
   176
1070
     2
1070
   178
1070
     7
1070
    78
1070
     8
1070
    41
1041
3.175
1070
   147
1041
1.75
1070
    42
1041
2.0
1070
    44
1041
2.0
1070
   140
1041
3.5
1070
   343
1005
23A
1070
   344
1005
23A
1002
}
0
ENDSEC
0
SECTION
2
OBJECTS
0
DICTIONARY
5
2e3
330
0
100
AcDbDictionary
280
0
281
1
3
ACAD_GROUP
350
2e4
3
ACAD_MLINESTYLE
350
2e5
0
DICTIONARY
5
2e4
330
0
100
AcDbDictionary
280
0
281
1
0
DICTIONARY
5
2e5
330
0
100
AcDbDictionary
280
0
281
1
3
Standard
350
18
0
MLINESTYLE
5
18
330
2e5
100
AcDbMlineStyle
2
Standard
70
0
3

62
256
51
90
52
90
71
2
49
-0.5
62
256
6
ByLayer
49
0.5
62
256
6
ByLayer
0
RASTERVARIABLES
5
2d2
330

100
AcDbRasterVariables
90
0
70
1
71
1
72
1
0
ENDSEC
0
EOF
