0
SECTION
2
HEADER
9
$ACADVER
1
AC1015
9
$DWGCODEPAGE
3
ANSI_1252
9
$HANDSEED
5
2e6
9
$ANGBASE
50
0
9
$ANGDIR
70
0
9
$ATTMODE
70
1
9
$AUNITS
70
0
9
$AUPREC
70
0
9
$CECOLOR
62
256
9
$CELTSCALE
40
1
9
$CELTYPE
6
ByLayer
9
$CELWEIGHT
370
18
9
$CLAYER
8
0
9
$CMLJUST
70
0
9
$CMLSCALE
40
1
9
$CMLSTYLE
2
Standard
9
$DIMSTYLE
2
Standard
9
$TEXTSIZE
40
0.2
9
$TEXTSTYLE
7
Standard
9
$LUNITS
70
2
9
$LUPREC
70
4
9
$EXTNAMES
290
1
9
$INSUNITS
70
4
9
$LTSCALE
40
1
9
$LWDISPLAY
290
1
9
$PDMODE
70
0
9
$PDSIZE
40
0
9
$PLINEGEN
70
0
0
ENDSEC
0
SECTION
2
CLASSES
0
CLASS
1
RASTERVARIABLES
2
AcDbRasterVariables
3
ISM
90
0
280
0
281
0
0
ENDSEC
0
SECTION
2
TABLES
0
TABLE
2
VPORT
5
2dc
100
AcDbSymbolTable
0
VPORT
5
1
100
AcDbSymbolTableRecord
100
AcDbViewportTableRecord
2
*Active
70
0
10
0
20
0
11
1
21
1
12
-1
22
1
13
0
23
0
14
0.5
24
0.5
15
10
25
10
16
0
26
0
36
1
17
0
27
0
37
0
0
ENDTAB
0
TABLE
2
LTYPE
5
2dd
100
AcDbSymbolTable
0
LTYPE
5
14
100
AcDbSymbolTableRecord
100
AcDbLinetypeTableRecord
70
0
2
ByBlock
3

72
65
73
0
40
0
0
LTYPE
5
15
100
AcDbSymbolTableRecord
100
AcDbLinetypeTableRecord
70
0
2
ByLayer
3

72
65
73
0
40
0
0
LTYPE
5
16
100
AcDbSymbolTableRecord
100
AcDbLinetypeTableRecord
70
0
2
CONTINUOUS
3
Solid line
72
65
73
0
40
0
0
LTYPE
5
6A
100
AcDbSymbolTableRecord
100
AcDbLinetypeTableRecord
70
0
2
CENTER
3
____ _ ____ _ ____ _ ____
72
65
73
4
40
47.5
49
22
74
0
49
-8.5
74
0
49
8.5
74
0
49
-8.5
74
0
0
LTYPE
5
6B
100
AcDbSymbolTableRecord
100
AcDbLinetypeTableRecord
70
0
2
DASHED
3
__ __ __ __ __ __ __ __ __
72
65
73
2
40
25.72
49
12.86
74
0
49
-12.86
74
0
0
ENDTAB
0
TABLE
2
LAYER
5
2de
100
AcDbSymbolTable
0
LAYER
5
10
100
AcDbSymbolTableRecord
100
AcDbLayerTableRecord
2
0
70
0
62
7
6
CONTINUOUS
290
1
370
-3
390
0
0
LAYER
5
6D
100
AcDbSymbolTableRecord
100
AcDbLayerTableRecord
2
81
70
0
62
-3
6
CONTINUOUS
290
1
370
-3
390
0
0
LAYER
5
6F
100
AcDbSymbolTableRecord
100
AcDbLayerTableRecord
2
80
70
0
62
-6
6
CONTINUOUS
290
1
370
-3
390
0
0
LAYER
5
71
100
AcDbSymbolTableRecord
100
AcDbLayerTableRecord
2
1
70
0
62
4
6
CONTINUOUS
290
1
370
-3
390
0
0
LAYER
5
223
100
AcDbSymbolTableRecord
100
AcDbLayerTableRecord
2
2
70
0
62
7
6
CONTINUOUS
290
1
370
-3
390
0
0
LAYER
5
2c9
100
AcDbSymbolTableRecord
100
AcDbLayerTableRecord
2
SK1
70
0
62
4
6
CONTINUOUS
290
1
370
-3
390
0
0
LAYER
5
2ca
100
AcDbSymbolTableRecord
100
AcDbLayerTableRecord
2
SK6
70
0
62
5
6
CONTINUOUS
290
1
370
-3
390
0
0
LAYER
5
2cb
100
AcDbSymbolTableRecord
100
AcDbLayerTableRecord
2
SK2
70
0
62
7
6
CONTINUOUS
290
1
370
-3
390
0
0
ENDTAB
0
TABLE
2
STYLE
5
2df
100
AcDbSymbolTable
0
STYLE
5
11
100
AcDbSymbolTableRecord
100
AcDbTextStyleTableRecord
2
Standard
3
txt
70
0
71
0
40
0
41
1
42
0
50
0
0
STYLE
5
21E
100
AcDbSymbolTableRecord
100
AcDbTextStyleTableRecord
2
iso_b_vert
3
simplex.shx
70
0
71
0
40
0
41
1
42
0
50
0
0
STYLE
5
21F
100
AcDbSymbolTableRecord
100
AcDbTextStyleTableRecord
2
DWGDirectTextStyle
3
simplex
70
0
71
0
40
0
41
1
42
0
50
0
0
ENDTAB
0
TABLE
2
DIMSTYLE
5
2e0
100
AcDbSymbolTable
100
AcDbDimStyleTable
0
DIMSTYLE
105
27
100
AcDbSymbolTableRecord
100
AcDbDimStyleTableRecord
2
Standard
70
0
3
<>
41
0.18
42
0.0625
44
0.18
140
0.18
147
0.09
73
0
74
0
77
1
271
2
275
0
278
52
280
0
340
11
0
ENDTAB
0
TABLE
2
VIEW
5
2e1
100
AcDbSymbolTable
0
ENDTAB
0
TABLE
2
UCS
5
2e2
100
AcDbSymbolTable
0
ENDTAB
0
TABLE
2
APPID
5
2e3
100
AcDbSymbolTable
0
APPID
5
12
100
AcDbSymbolTableRecord
100
AcDbRegAppTableRecord
2
ACAD
70
0
0
ENDTAB
0
TABLE
2
BLOCK_RECORD
5
2e4
100
AcDbSymbolTable
0
BLOCK_RECORD
5
1F
100
AcDbSymbolTableRecord
100
AcDbBlockTableRecord
2
*Model_Space
340
0
70
0
0
BLOCK_RECORD
5
1B
100
AcDbSymbolTableRecord
100
AcDbBlockTableRecord
2
*Paper_Space
340
0
70
0
0
BLOCK_RECORD
5
23
100
AcDbSymbolTableRecord
100
AcDbBlockTableRecord
2
*Paper_Space0
340
0
70
0
0
BLOCK_RECORD
5
221
100
AcDbSymbolTableRecord
100
AcDbBlockTableRecord
2
DimnDraft3D1
340
0
70
0
0
BLOCK_RECORD
5
230
100
AcDbSymbolTableRecord
100
AcDbBlockTableRecord
2
_CLOSED
340
0
70
0
0
BLOCK_RECORD
5
237
100
AcDbSymbolTableRecord
100
AcDbBlockTableRecord
2
DimnDraft3D2
340
0
70
0
0
BLOCK_RECORD
5
246
100
AcDbSymbolTableRecord
100
AcDbBlockTableRecord
2
DimnDraft3D3
340
0
70
0
0
BLOCK_RECORD
5
254
100
AcDbSymbolTableRecord
100
AcDbBlockTableRecord
2
DimnDraft3D4
340
0
70
0
0
BLOCK_RECORD
5
262
100
AcDbSymbolTableRecord
100
AcDbBlockTableRecord
2
DimnDraft3D5
340
0
70
0
0
ENDTAB
0
ENDSEC
0
SECTION
2
BLOCKS
0
BLOCK
5
20
100
AcDbEntity
8
0
100
AcDbBlockBegin
2
*Model_Space
70
0
10
0
20
0
30
0
3
*Model_Space
0
ENDBLK
5
21
100
AcDbEntity
8
0
100
AcDbBlockEnd
0
BLOCK
5
1C
100
AcDbEntity
8
0
100
AcDbBlockBegin
2
*Paper_Space
70
0
10
0
20
0
30
0
3
*Paper_Space
0
ENDBLK
5
1D
100
AcDbEntity
8
0
100
AcDbBlockEnd
0
BLOCK
5
24
100
AcDbEntity
8
0
100
AcDbBlockBegin
2
*Paper_Space0
70
0
10
0
20
0
30
0
3
*Paper_Space0
0
ENDBLK
5
25
100
AcDbEntity
8
0
100
AcDbBlockEnd
0
BLOCK
5
22D
100
AcDbEntity
8
0
100
AcDbBlockBegin
2
DimnDraft3D1
70
0
10
0
20
0
30
0
3
DimnDraft3D1
0
MTEXT
5
222
100
AcDbEntity
8
2
62
256
6
ByLayer
370
18
48
1
60
0
100
AcDbMText
10
89.225
20
16.284211
30
0
210
0
220
0
230
1
1
\W0.6740;35
40
3.5
41
0
44
1.084337
50
90
71
7
72
5
7
iso_b_vert
0
LINE
5
224
100
AcDbEntity
8
2
62
256
6
ByLayer
370
13
48
1
60
0
100
AcDbLine
10
42
20
0
30
0
11
92.1
21
0
31
0
39
0
210
0
220
0
230
1
0
LINE
5
225
100
AcDbEntity
8
2
62
256
6
ByLayer
370
13
48
1
60
0
100
AcDbLine
10
67
20
35
30
0
11
92.1
21
35
31
0
39
0
210
0
220
0
230
1
0
LINE
5
226
100
AcDbEntity
8
2
62
256
6
ByLayer
370
13
48
1
60
0
100
AcDbLine
10
90.1
20
0
30
0
11
90.1
21
35
31
0
39
0
210
0
220
0
230
1
0
LINE
5
227
100
AcDbEntity
8
2
62
256
6
ByLayer
370
13
48
1
60
0
100
AcDbLine
10
90.1
20
0
30
0
11
89.682003
21
3.174998
31
0
39
0
210
0
220
0
230
1
0
LINE
5
228
100
AcDbEntity
8
2
62
256
6
ByLayer
370
13
48
1
60
0
100
AcDbLine
10
90.1
20
0
30
0
11
90.517997
21
3.175002
31
0
39
0
210
0
220
0
230
1
0
LINE
5
229
100
AcDbEntity
8
2
62
256
6
ByLayer
370
13
48
1
60
0
100
AcDbLine
10
89.682003
20
3.174998
30
0
11
90.517997
21
3.175002
31
0
39
0
210
0
220
0
230
1
0
LINE
5
22A
100
AcDbEntity
8
2
62
256
6
ByLayer
370
13
48
1
60
0
100
AcDbLine
10
90.1
20
35
30
0
11
90.517997
21
31.825002
31
0
39
0
210
0
220
0
230
1
0
LINE
5
22B
100
AcDbEntity
8
2
62
256
6
ByLayer
370
13
48
1
60
0
100
AcDbLine
10
90.1
20
35
30
0
11
89.682003
21
31.824998
31
0
39
0
210
0
220
0
230
1
0
LINE
5
22C
100
AcDbEntity
8
2
62
256
6
ByLayer
370
13
48
1
60
0
100
AcDbLine
10
90.517997
20
31.825002
30
0
11
89.682003
21
31.824998
31
0
39
0
210
0
220
0
230
1
0
ENDBLK
5
22E
100
AcDbEntity
8
0
100
AcDbBlockEnd
0
BLOCK
5
231
100
AcDbEntity
8
0
100
AcDbBlockBegin
2
_CLOSED
70
0
10
0
20
0
30
0
3
_CLOSED
0
LINE
5
233
100
AcDbEntity
8
0
62
256
6
ByLayer
370
-2
48
1
60
0
100
AcDbLine
10
-1
20
0.166667
30
0
11
0
21
0
31
0
39
0
210
0
220
0
230
1
0
LINE
5
234
100
AcDbEntity
8
0
62
256
6
ByLayer
370
-2
48
1
60
0
100
AcDbLine
10
0
20
0
30
0
11
-1
21
-0.166667
31
0
39
0
210
0
220
0
230
1
0
LINE
5
235
100
AcDbEntity
8
0
62
256
6
ByLayer
370
-2
48
1
60
0
100
AcDbLine
10
-1
20
0.166667
30
0
11
-1
21
-0.166667
31
0
39
0
210
0
220
0
230
1
0
LINE
5
236
100
AcDbEntity
8
0
62
256
6
ByLayer
370
-2
48
1
60
0
100
AcDbLine
10
0
20
0
30
0
11
-1
21
0
31
0
39
0
210
0
220
0
230
1
0
ENDBLK
5
232
100
AcDbEntity
8
0
100
AcDbBlockEnd
0
BLOCK
5
243
100
AcDbEntity
8
0
100
AcDbBlockBegin
2
DimnDraft3D2
70
0
10
0
20
0
30
0
3
DimnDraft3D2
0
MTEXT
5
238
100
AcDbEntity
8
SK2
62
256
6
ByLayer
370
18
48
1
60
0
100
AcDbMText
10
31.284211
20
58.475889
30
0
210
0
220
0
230
1
1
\W0.6740;65
40
3.5
41
0
44
1.084337
50
0
71
7
72
5
7
iso_b_vert
0
LINE
5
23A
100
AcDbEntity
8
SK2
62
256
6
ByLayer
370
13
48
1
60
0
100
AcDbLine
10
0
20
2
30
0
11
0
21
59.600889
31
0
39
0
210
0
220
0
230
1
0
LINE
5
23B
100
AcDbEntity
8
SK2
62
256
6
ByLayer
370
13
48
1
60
0
100
AcDbLine
10
65
20
37
30
0
11
65
21
59.600889
31
0
39
0
210
0
220
0
230
1
0
LINE
5
23C
100
AcDbEntity
8
SK2
62
256
6
ByLayer
370
13
48
1
60
0
100
AcDbLine
10
0
20
57.600889
30
0
11
65
21
57.600889
31
0
39
0
210
0
220
0
230
1
0
LINE
5
23D
100
AcDbEntity
8
SK2
62
256
6
ByLayer
370
13
48
1
60
0
100
AcDbLine
10
0
20
57.600889
30
0
11
3.174998
21
58.018886
31
0
39
0
210
0
220
0
230
1
0
LINE
5
23E
100
AcDbEntity
8
SK2
62
256
6
ByLayer
370
13
48
1
60
0
100
AcDbLine
10
0
20
57.600889
30
0
11
3.175002
21
57.182892
31
0
39
0
210
0
220
0
230
1
0
LINE
5
23F
100
AcDbEntity
8
SK2
62
256
6
ByLayer
370
13
48
1
60
0
100
AcDbLine
10
3.174998
20
58.018886
30
0
11
3.175002
21
57.182892
31
0
39
0
210
0
220
0
230
1
0
LINE
5
240
100
AcDbEntity
8
SK2
62
256
6
ByLayer
370
13
48
1
60
0
100
AcDbLine
10
65
20
57.600889
30
0
11
61.825002
21
57.182892
31
0
39
0
210
0
220
0
230
1
0
LINE
5
241
100
AcDbEntity
8
SK2
62
256
6
ByLayer
370
13
48
1
60
0
100
AcDbLine
10
65
20
57.600889
30
0
11
61.824998
21
58.018886
31
0
39
0
210
0
220
0
230
1
0
LINE
5
242
100
AcDbEntity
8
SK2
62
256
6
ByLayer
370
13
48
1
60
0
100
AcDbLine
10
61.825002
20
57.182892
30
0
11
61.824998
21
58.018886
31
0
39
0
210
0
220
0
230
1
0
ENDBLK
5
244
100
AcDbEntity
8
0
100
AcDbBlockEnd
0
BLOCK
5
251
100
AcDbEntity
8
0
100
AcDbBlockBegin
2
DimnDraft3D3
70
0
10
0
20
0
30
0
3
DimnDraft3D3
0
MTEXT
5
247
100
AcDbEntity
8
2
62
256
6
ByLayer
370
18
48
1
60
0
100
AcDbMText
10
51.284211
20
-37.225
30
0
210
0
220
0
230
1
1
\W0.6740;25
40
3.5
41
0
44
1.084337
50
0
71
7
72
5
7
iso_b_vert
0
LINE
5
248
100
AcDbEntity
8
2
62
256
6
ByLayer
370
13
48
1
60
0
100
AcDbLine
10
65
20
33
30
0
11
65
21
-40.1
31
0
39
0
210
0
220
0
230
1
0
LINE
5
249
100
AcDbEntity
8
2
62
256
6
ByLayer
370
13
48
1
60
0
100
AcDbLine
10
40
20
-2
30
0
11
40
21
-40.1
31
0
39
0
210
0
220
0
230
1
0
LINE
5
24A
100
AcDbEntity
8
2
62
256
6
ByLayer
370
13
48
1
60
0
100
AcDbLine
10
65
20
-38.1
30
0
11
40
21
-38.1
31
0
39
0
210
0
220
0
230
1
0
LINE
5
24B
100
AcDbEntity
8
2
62
256
6
ByLayer
370
13
48
1
60
0
100
AcDbLine
10
65
20
-38.1
30
0
11
61.825002
21
-38.517997
31
0
39
0
210
0
220
0
230
1
0
LINE
5
24C
100
AcDbEntity
8
2
62
256
6
ByLayer
370
13
48
1
60
0
100
AcDbLine
10
65
20
-38.1
30
0
11
61.824998
21
-37.682003
31
0
39
0
210
0
220
0
230
1
0
LINE
5
24D
100
AcDbEntity
8
2
62
256
6
ByLayer
370
13
48
1
60
0
100
AcDbLine
10
61.825002
20
-38.517997
30
0
11
61.824998
21
-37.682003
31
0
39
0
210
0
220
0
230
1
0
LINE
5
24E
100
AcDbEntity
8
2
62
256
6
ByLayer
370
13
48
1
60
0
100
AcDbLine
10
40
20
-38.1
30
0
11
43.174998
21
-37.682003
31
0
39
0
210
0
220
0
230
1
0
LINE
5
24F
100
AcDbEntity
8
2
62
256
6
ByLayer
370
13
48
1
60
0
100
AcDbLine
10
40
20
-38.1
30
0
11
43.175002
21
-38.517997
31
0
39
0
210
0
220
0
230
1
0
LINE
5
250
100
AcDbEntity
8
2
62
256
6
ByLayer
370
13
48
1
60
0
100
AcDbLine
10
43.174998
20
-37.682003
30
0
11
43.175002
21
-38.517997
31
0
39
0
210
0
220
0
230
1
0
ENDBLK
5
252
100
AcDbEntity
8
0
100
AcDbBlockEnd
0
BLOCK
5
25F
100
AcDbEntity
8
0
100
AcDbBlockBegin
2
DimnDraft3D4
70
0
10
0
20
0
30
0
3
DimnDraft3D4
0
MTEXT
5
255
100
AcDbEntity
8
SK2
62
256
6
ByLayer
370
18
48
1
60
0
100
AcDbMText
10
-40.475
20
-1.215789
30
0
210
0
220
0
230
1
1
\W0.6740;50
40
3.5
41
0
44
1.084337
50
90
71
7
72
5
7
iso_b_vert
0
LINE
5
256
100
AcDbEntity
8
SK2
62
256
6
ByLayer
370
13
48
1
60
0
100
AcDbLine
10
-2
20
25
30
0
11
-41.6
21
25
31
0
39
0
210
0
220
0
230
1
0
LINE
5
257
100
AcDbEntity
8
SK2
62
256
6
ByLayer
370
13
48
1
60
0
100
AcDbLine
10
-2
20
-25
30
0
11
-41.6
21
-25
31
0
39
0
210
0
220
0
230
1
0
LINE
5
258
100
AcDbEntity
8
SK2
62
256
6
ByLayer
370
13
48
1
60
0
100
AcDbLine
10
-39.6
20
25
30
0
11
-39.6
21
-25
31
0
39
0
210
0
220
0
230
1
0
LINE
5
259
100
AcDbEntity
8
SK2
62
256
6
ByLayer
370
13
48
1
60
0
100
AcDbLine
10
-39.6
20
25
30
0
11
-39.182003
21
21.825002
31
0
39
0
210
0
220
0
230
1
0
LINE
5
25A
100
AcDbEntity
8
SK2
62
256
6
ByLayer
370
13
48
1
60
0
100
AcDbLine
10
-39.6
20
25
30
0
11
-40.017997
21
21.824998
31
0
39
0
210
0
220
0
230
1
0
LINE
5
25B
100
AcDbEntity
8
SK2
62
256
6
ByLayer
370
13
48
1
60
0
100
AcDbLine
10
-39.182003
20
21.825002
30
0
11
-40.017997
21
21.824998
31
0
39
0
210
0
220
0
230
1
0
LINE
5
25C
100
AcDbEntity
8
SK2
62
256
6
ByLayer
370
13
48
1
60
0
100
AcDbLine
10
-39.6
20
-25
30
0
11
-40.017997
21
-21.825002
31
0
39
0
210
0
220
0
230
1
0
LINE
5
25D
100
AcDbEntity
8
SK2
62
256
6
ByLayer
370
13
48
1
60
0
100
AcDbLine
10
-39.6
20
-25
30
0
11
-39.182003
21
-21.824998
31
0
39
0
210
0
220
0
230
1
0
LINE
5
25E
100
AcDbEntity
8
SK2
62
256
6
ByLayer
370
13
48
1
60
0
100
AcDbLine
10
-40.017997
20
-21.825002
30
0
11
-39.182003
21
-21.824998
31
0
39
0
210
0
220
0
230
1
0
ENDBLK
5
260
100
AcDbEntity
8
0
100
AcDbBlockEnd
0
BLOCK
5
26D
100
AcDbEntity
8
0
100
AcDbBlockBegin
2
DimnDraft3D5
70
0
10
0
20
0
30
0
3
DimnDraft3D5
0
MTEXT
5
263
100
AcDbEntity
8
2
62
256
6
ByLayer
370
18
48
1
60
0
100
AcDbMText
10
82.225
20
17.52
30
0
210
0
220
0
230
1
1
\W0.7121;2.5
40
3.5
41
0
44
1.084337
50
90
71
7
72
5
7
iso_b_vert
0
LINE
5
264
100
AcDbEntity
8
2
62
256
6
ByLayer
370
13
48
1
60
0
100
AcDbLine
10
67
20
35
30
0
11
85.1
21
35
31
0
39
0
210
0
220
0
230
1
0
LINE
5
265
100
AcDbEntity
8
2
62
256
6
ByLayer
370
13
48
1
60
0
100
AcDbLine
10
67
20
32.5
30
0
11
85.1
21
32.5
31
0
39
0
210
0
220
0
230
1
0
LINE
5
266
100
AcDbEntity
8
2
62
256
6
ByLayer
370
13
48
1
60
0
100
AcDbLine
10
83.1
20
16.645
30
0
11
83.1
21
43.75
31
0
39
0
210
0
220
0
230
1
0
LINE
5
267
100
AcDbEntity
8
2
62
256
6
ByLayer
370
13
48
1
60
0
100
AcDbLine
10
83.1
20
35
30
0
11
82.682003
21
38.174998
31
0
39
0
210
0
220
0
230
1
0
LINE
5
268
100
AcDbEntity
8
2
62
256
6
ByLayer
370
13
48
1
60
0
100
AcDbLine
10
83.1
20
35
30
0
11
83.517997
21
38.175002
31
0
39
0
210
0
220
0
230
1
0
LINE
5
269
100
AcDbEntity
8
2
62
256
6
ByLayer
370
13
48
1
60
0
100
AcDbLine
10
82.682003
20
38.174998
30
0
11
83.517997
21
38.175002
31
0
39
0
210
0
220
0
230
1
0
LINE
5
26A
100
AcDbEntity
8
2
62
256
6
ByLayer
370
13
48
1
60
0
100
AcDbLine
10
83.1
20
32.5
30
0
11
83.517997
21
29.325002
31
0
39
0
210
0
220
0
230
1
0
LINE
5
26B
100
AcDbEntity
8
2
62
256
6
ByLayer
370
13
48
1
60
0
100
AcDbLine
10
83.1
20
32.5
30
0
11
82.682003
21
29.324998
31
0
39
0
210
0
220
0
230
1
0
LINE
5
26C
100
AcDbEntity
8
2
62
256
6
ByLayer
370
13
48
1
60
0
100
AcDbLine
10
83.517997
20
29.325002
30
0
11
82.682003
21
29.324998
31
0
39
0
210
0
220
0
230
1
0
ENDBLK
5
26E
100
AcDbEntity
8
0
100
AcDbBlockEnd
0
ENDSEC
0
SECTION
2
ENTITIES
0
ARC
5
112
100
AcDbEntity
8
1
62
256
6
ByLayer
370
13
48
1
60
0
100
AcDbCircle
39
0
10
-20.279208
20
26.2
30
0
40
1.2
210
0
220
0
230
-1
100
AcDbArc
50
195
51
270
0
ARC
5
113
100
AcDbEntity
8
1
62
256
6
ByLayer
370
13
48
1
60
0
100
AcDbCircle
39
0
10
-24.12102
20
-14.5
30
0
40
4.00000000000002
210
0
220
0
230
-1
100
AcDbArc
50
0.5
51
90
0
ELLIPSE
5
114
100
AcDbEntity
8
1
62
256
6
ByLayer
370
13
48
1
60
0
100
AcDbEllipse
10
20.218172
20
0
30
0
11
-1.53075794227791E-15
21
24.999999999999
31
0
210
0
220
0
230
-1
40
0.008727
41
-2.45109143378915
42
-0.460728258746341
0
ELLIPSE
5
115
100
AcDbEntity
8
1
62
256
6
ByLayer
370
13
48
1
60
0
100
AcDbEllipse
10
21.056258
20
0
30
0
11
11.7092723497259
21
24.6771864409349
31
0
210
0
220
0
230
-1
40
0.341999
41
-2.97437958168076
42
-2.05975995310051
0
ELLIPSE
5
116
100
AcDbEntity
8
1
62
256
6
ByLayer
370
13
48
1
60
0
100
AcDbEllipse
10
-1.056258
20
0
30
0
11
11.7092723497284
21
-24.6771864409393
31
0
210
0
220
0
230
-1
40
0.341999
41
-1.08183270048919
42
-0.167213071909021
0
ELLIPSE
5
117
100
AcDbEntity
8
1
62
256
6
ByLayer
370
13
48
1
60
0
100
AcDbEllipse
10
-1.056258
20
0
30
0
11
11.7092723497289
21
24.6771864409399
31
0
210
0
220
0
230
-1
40
0.341999
41
0.16721307190901
42
1.08183270048917
0
ELLIPSE
5
118
100
AcDbEntity
8
1
62
256
6
ByLayer
370
13
48
1
60
0
100
AcDbEllipse
10
21.056258
20
0
30
0
11
11.7092723497271
21
-24.6771864409365
31
0
210
0
220
0
230
-1
40
0.341999
41
2.05975995310055
42
2.97437958168078
0
ELLIPSE
5
119
100
AcDbEntity
8
1
62
256
6
ByLayer
370
13
48
1
60
0
100
AcDbEllipse
10
59.839209
20
33.75
30
0
11
1.26883854643261
21
1.28233778961873E-15
31
0
210
0
220
0
230
-1
40
0.472873
41
1.09923797102156
42
-1.09923797102157
0
ELLIPSE
5
11A
100
AcDbEntity
8
1
62
256
6
ByLayer
370
13
48
1
60
0
100
AcDbEllipse
10
60.439369
20
33.75
30
0
11
-3.67381906146705E-17
21
0.599999999999986
31
0
210
0
220
0
230
-1
40
0.087165
41
-2.67003429781641
42
-0.471558355773238
0
ELLIPSE
5
11B
100
AcDbEntity
8
1
62
256
6
ByLayer
370
13
48
1
60
0
100
AcDbEllipse
10
63.558781
20
34.79974
30
0
11
0.01872883045826
21
-0.23926811511287
31
0
210
0
220
0
230
1
40
0.005457
41
-1.50119639836402
42
-0.689493843868869
0
ELLIPSE
5
11C
100
AcDbEntity
8
1
62
256
6
ByLayer
370
13
48
1
60
0
100
AcDbEllipse
10
62.328622
20
34.695286
30
0
11
-0.014072025804004
21
-0.239587099172246
31
0
210
0
220
0
230
1
40
0.707947
41
0.878776813451877
42
1.56290533331169
0
ELLIPSE
5
11D
100
AcDbEntity
8
1
62
256
6
ByLayer
370
13
48
1
60
0
100
AcDbEllipse
10
63.558781
20
32.70026
30
0
11
0.01872883045826
21
0.23926811511287
31
0
210
0
220
0
230
1
40
0.005457
41
0.689493843868869
42
1.50119639836334
0
ELLIPSE
5
11E
100
AcDbEntity
8
1
62
256
6
ByLayer
370
13
48
1
60
0
100
AcDbEllipse
10
62.328622
20
32.804714
30
0
11
-0.0140720258040037
21
0.239587099172246
31
0
210
0
220
0
230
1
40
0.707947
41
-1.56290533331172
42
-0.8787768134519
0
ELLIPSE
5
11F
100
AcDbEntity
8
1
62
256
6
ByLayer
370
13
48
1
60
0
100
AcDbEllipse
10
61.43649
20
32.991414
30
0
11
0.0157922723750536
21
-0.299835837393915
31
0
210
0
220
0
230
-1
40
0.9154
41
-2.6673719520645
42
-1.47753833587118
0
ELLIPSE
5
120
100
AcDbEntity
8
1
62
256
6
ByLayer
370
13
48
1
60
0
100
AcDbEllipse
10
61.43649
20
34.508586
30
0
11
0.015792272380555
21
0.299835837392375
31
0
210
0
220
0
230
-1
40
0.9154
41
1.47753833585042
42
2.66737195204824
0
ELLIPSE
5
121
100
AcDbEntity
8
1
62
256
6
ByLayer
370
13
48
1
60
0
100
AcDbEllipse
10
62.225674
20
32.802415
30
0
11
0.108797387019834
21
-0.213923183824607
31
0
210
0
220
0
230
1
40
0.678268
41
1.29102409435775
42
1.85056859826456
0
ELLIPSE
5
122
100
AcDbEntity
8
1
62
256
6
ByLayer
370
13
48
1
60
0
100
AcDbEllipse
10
62.225674
20
34.697585
30
0
11
0.108797387019834
21
0.213923183824607
31
0
210
0
220
0
230
1
40
0.678268
41
-1.85056859826459
42
-1.29102409435775
0
ELLIPSE
5
123
100
AcDbEntity
8
1
62
256
6
ByLayer
370
13
48
1
60
0
100
AcDbEllipse
10
62.015335
20
32.988477
30
0
11
0.218929773670482
21
0.120705236839962
31
0
210
0
220
0
230
1
40
0.451067
41
0.609381009277152
42
1.29921470224115
0
ELLIPSE
5
124
100
AcDbEntity
8
1
62
256
6
ByLayer
370
13
48
1
60
0
100
AcDbEllipse
10
62.015335
20
34.511523
30
0
11
-0.218929773670479
21
0.120705236839969
31
0
210
0
220
0
230
1
40
0.451067
41
1.84237795134861
42
2.53221164431264
0
ELLIPSE
5
125
100
AcDbEntity
8
1
62
256
6
ByLayer
370
13
48
1
60
0
100
AcDbEllipse
10
61.970529
20
33.75
30
0
11
1.42452172492164
21
1.4396772900191E-15
31
0
210
0
220
0
230
-1
40
0.350995
41
-2.25836112860494
42
-1.95476876222416
0
ELLIPSE
5
126
100
AcDbEntity
8
1
62
256
6
ByLayer
370
13
48
1
60
0
100
AcDbEllipse
10
61.970529
20
33.75
30
0
11
1.42452172470216
21
1.43967728979729E-15
31
0
210
0
220
0
230
-1
40
0.350995
41
1.95476876223713
42
2.25836112867169
0
ELLIPSE
5
127
100
AcDbEntity
8
1
62
256
6
ByLayer
370
13
48
1
60
0
100
AcDbEllipse
10
61.368086
20
34.508586
30
0
11
0.274689327594517
21
0.0155897448648819
31
0
210
0
220
0
230
-1
40
0.363396
41
0.0206212699771205
42
1.21045488617192
0
ELLIPSE
5
128
100
AcDbEntity
8
1
62
256
6
ByLayer
370
13
48
1
60
0
100
AcDbEllipse
10
61.538645
20
34.420672
30
0
11
-0.0383160393775672
21
0.196295392524676
31
0
210
0
220
0
230
1
40
0.336408
41
1.5052250622305
42
2.73571394704457
0
ELLIPSE
5
129
100
AcDbEntity
8
1
62
256
6
ByLayer
370
13
48
1
60
0
100
AcDbEllipse
10
61.368086
20
32.991414
30
0
11
0.27468932759183
21
-0.0155897448654663
31
0
210
0
220
0
230
-1
40
0.363396
41
-1.21045488617948
42
-0.0206212699774613
0
ELLIPSE
5
12A
100
AcDbEntity
8
1
62
256
6
ByLayer
370
13
48
1
60
0
100
AcDbEllipse
10
61.538645
20
33.079328
30
0
11
-0.0383160393775681
21
-0.196295392524676
31
0
210
0
220
0
230
1
40
0.336408
41
-2.73571394704411
42
-1.50522506223053
0
ELLIPSE
5
12B
100
AcDbEntity
8
1
62
256
6
ByLayer
370
13
48
1
60
0
100
AcDbEllipse
10
61.902124
20
33.75
30
0
11
1.44889559390789
21
-1.93261843529467E-10
31
0
210
0
220
0
230
-1
40
0.483127
41
-2.25836112877842
42
-1.95476876243843
0
ELLIPSE
5
12C
100
AcDbEntity
8
1
62
256
6
ByLayer
370
13
48
1
60
0
100
AcDbEllipse
10
61.902124
20
33.75
30
0
11
1.44889559304131
21
-1.89784699603309E-10
31
0
210
0
220
0
230
-1
40
0.483127
41
1.95476876203153
42
2.25836112851694
0
ELLIPSE
5
12D
100
AcDbEntity
8
1
62
256
6
ByLayer
370
13
48
1
60
0
100
AcDbEllipse
10
62.227398
20
32.802784
30
0
11
0.00548700145360604
21
0.239937268499598
31
0
210
0
220
0
230
1
40
0.706448
41
-1.50523037236397
42
-0.849098397829163
0
ELLIPSE
5
12E
100
AcDbEntity
8
1
62
256
6
ByLayer
370
13
48
1
60
0
100
AcDbEllipse
10
62.227398
20
34.697216
30
0
11
0.00548700145360587
21
-0.239937268499598
31
0
210
0
220
0
230
1
40
0.706448
41
0.849098397829135
42
1.50523037236397
0
ELLIPSE
5
12F
100
AcDbEntity
8
1
62
256
6
ByLayer
370
13
48
1
60
0
100
AcDbEllipse
10
61.427763
20
34.399029
30
0
11
-0.0383160393775672
21
0.196295392524676
31
0
210
0
220
0
230
1
40
0.336408
41
1.5052250622305
42
2.73571394704433
0
ELLIPSE
5
130
100
AcDbEntity
8
1
62
256
6
ByLayer
370
13
48
1
60
0
100
AcDbEllipse
10
61.427763
20
33.100971
30
0
11
-0.0383160393775681
21
-0.196295392524676
31
0
210
0
220
0
230
1
40
0.336408
41
-2.73571394704433
42
-1.50522506223053
0
ELLIPSE
5
131
100
AcDbEntity
8
1
62
256
6
ByLayer
370
13
48
1
60
0
100
AcDbEllipse
10
62.04569
20
33.008253
30
0
11
-0.199155198215831
21
0.224359548545662
31
0
210
0
220
0
230
1
40
0.867907
41
-1.48925493040499
42
-0.845841420110004
0
ELLIPSE
5
132
100
AcDbEntity
8
1
62
256
6
ByLayer
370
13
48
1
60
0
100
AcDbEllipse
10
61.050977
20
33.209044
30
0
11
-0.073759863887595
21
-0.185901808703636
31
0
210
0
220
0
230
1
40
0.32047
41
-2.41409938327899
42
-1.44432262990151
0
ELLIPSE
5
133
100
AcDbEntity
8
1
62
256
6
ByLayer
370
13
48
1
60
0
100
AcDbEllipse
10
61.050977
20
34.290956
30
0
11
-0.0737598638875999
21
0.185901808703635
31
0
210
0
220
0
230
1
40
0.32047
41
1.44432262990151
42
2.41409938327899
0
ELLIPSE
5
134
100
AcDbEntity
8
1
62
256
6
ByLayer
370
13
48
1
60
0
100
AcDbEllipse
10
62.04569
20
34.491747
30
0
11
-0.199155198215836
21
-0.224359548545657
31
0
210
0
220
0
230
1
40
0.867907
41
0.845841420110057
42
1.48925493040509
0
ELLIPSE
5
135
100
AcDbEntity
8
1
62
256
6
ByLayer
370
13
48
1
60
0
100
AcDbEllipse
10
63.248298
20
33.36998
30
0
11
-0.11829996020908
21
-0.382106162492219
31
0
210
0
220
0
230
1
40
0.046276
41
-1.55647013370576
42
-0.635362849072195
0
ELLIPSE
5
136
100
AcDbEntity
8
1
62
256
6
ByLayer
370
13
48
1
60
0
100
AcDbEllipse
10
63.248298
20
34.13002
30
0
11
-0.11829996020908
21
0.382106162492219
31
0
210
0
220
0
230
1
40
0.046276
41
0.635362849071271
42
1.5564701337058
0
ELLIPSE
5
137
100
AcDbEntity
8
1
62
256
6
ByLayer
370
13
48
1
60
0
100
AcDbEllipse
10
60.957016
20
33.177976
30
0
11
0.179591653469728
21
-0.0880161235456843
31
0
210
0
220
0
230
1
40
0.15816
41
-2.67666253996315
42
-1.8829614247558
0
ELLIPSE
5
138
100
AcDbEntity
8
1
62
256
6
ByLayer
370
13
48
1
60
0
100
AcDbEllipse
10
60.957016
20
34.322024
30
0
11
0.179591653469724
21
0.088016123545693
31
0
210
0
220
0
230
1
40
0.15816
41
1.88296142475576
42
2.6766625399629
0
ELLIPSE
5
139
100
AcDbEntity
8
1
62
256
6
ByLayer
370
13
48
1
60
0
100
AcDbEllipse
10
62.092262
20
34.372657
30
0
11
-0.299347745291831
21
0.0197718837923224
31
0
210
0
220
0
230
1
40
0.777951
41
1.69879303455142
42
2.22934227679634
0
ELLIPSE
5
13A
100
AcDbEntity
8
1
62
256
6
ByLayer
370
13
48
1
60
0
100
AcDbEllipse
10
62.092262
20
33.127343
30
0
11
-0.299347745291887
21
-0.0197718837914809
31
0
210
0
220
0
230
1
40
0.777951
41
-2.2293422767935
42
-1.69879303454922
0
ELLIPSE
5
13B
100
AcDbEntity
8
1
62
256
6
ByLayer
370
13
48
1
60
0
100
AcDbEllipse
10
61.094521
20
33.270757
30
0
11
-0.108483181757181
21
0.279698765238315
31
0
210
0
220
0
230
1
40
0.360955
41
-1.02016075382502
42
-0.199709661794617
0
ELLIPSE
5
13C
100
AcDbEntity
8
1
62
256
6
ByLayer
370
13
48
1
60
0
100
AcDbEllipse
10
61.094521
20
34.229243
30
0
11
-0.108483181757197
21
-0.279698765238309
31
0
210
0
220
0
230
1
40
0.360955
41
0.199709661794553
42
1.02016075382492
0
ELLIPSE
5
13D
100
AcDbEntity
8
1
62
256
6
ByLayer
370
13
48
1
60
0
100
AcDbEllipse
10
60.746868
20
34.625983
30
0
11
0.0582979366851085
21
-0.138207635745132
31
0
210
0
220
0
230
1
40
0.750326
41
-1.87731940571844
42
-1.57180531127307
0
ELLIPSE
5
13E
100
AcDbEntity
8
1
62
256
6
ByLayer
370
13
48
1
60
0
100
AcDbEllipse
10
60.95842
20
33.317393
30
0
11
-0.0312161822556663
21
0.197548854629383
31
0
210
0
220
0
230
1
40
0.644886
41
0.296340224814544
42
1.02563059493705
0
ELLIPSE
5
13F
100
AcDbEntity
8
1
62
256
6
ByLayer
370
13
48
1
60
0
100
AcDbEllipse
10
60.95842
20
34.182607
30
0
11
-0.031216182255666
21
-0.197548854629383
31
0
210
0
220
0
230
1
40
0.644886
41
-1.02563059493705
42
-0.296340224814607
0
ELLIPSE
5
140
100
AcDbEntity
8
1
62
256
6
ByLayer
370
13
48
1
60
0
100
AcDbEllipse
10
60.746868
20
32.874017
30
0
11
-0.0582979366828939
21
-0.138207635746066
31
0
210
0
220
0
230
1
40
0.750326
41
-1.56978734232577
42
-1.26427324788339
0
ELLIPSE
5
141
100
AcDbEntity
8
1
62
256
6
ByLayer
370
13
48
1
60
0
100
AcDbEllipse
10
61.08571
20
34.232663
30
0
11
-0.10863468183397
21
-0.279639957629149
31
0
210
0
220
0
230
1
40
0.363718
41
0.200467310718372
42
1.01550685106541
0
ELLIPSE
5
142
100
AcDbEntity
8
1
62
256
6
ByLayer
370
13
48
1
60
0
100
AcDbEllipse
10
61.08571
20
33.267337
30
0
11
-0.108634681833984
21
0.279639957629143
31
0
210
0
220
0
230
1
40
0.363718
41
-1.01550685106549
42
-0.200467310718377
0
ELLIPSE
5
143
100
AcDbEntity
8
1
62
256
6
ByLayer
370
13
48
1
60
0
100
AcDbEllipse
10
62.173143
20
33.935403
30
0
11
-0.27643120211388
21
-0.11655809923757
31
0
210
0
220
0
230
1
40
0.259655
41
1.58999251460062
42
2.12275416956023
0
ELLIPSE
5
144
100
AcDbEntity
8
1
62
256
6
ByLayer
370
13
48
1
60
0
100
AcDbEllipse
10
64.147654
20
34.800449
30
0
11
-0.00522684702752689
21
-0.239943076728942
31
0
210
0
220
0
230
1
40
0.172153
41
-1.49827444467682
42
-0.730759907122217
0
ELLIPSE
5
145
100
AcDbEntity
8
1
62
256
6
ByLayer
370
13
48
1
60
0
100
AcDbEllipse
10
64.147654
20
32.699551
30
0
11
-0.00522684702752667
21
0.239943076728942
31
0
210
0
220
0
230
1
40
0.172153
41
0.730759907122464
42
1.49827444467682
0
ELLIPSE
5
146
100
AcDbEntity
8
1
62
256
6
ByLayer
370
13
48
1
60
0
100
AcDbEllipse
10
62.173143
20
33.564597
30
0
11
-0.276431202115174
21
0.116558099234502
31
0
210
0
220
0
230
1
40
0.259655
41
-2.12275416956318
42
-1.58999251460351
0
ELLIPSE
5
147
100
AcDbEntity
8
1
62
256
6
ByLayer
370
13
48
1
60
0
100
AcDbEllipse
10
60.744099
20
32.874562
30
0
11
4.24912383924225E-17
21
0.15
31
0
210
0
220
0
230
1
40
0.772149
41
1.23482044578599
42
1.5707963267949
0
ELLIPSE
5
148
100
AcDbEntity
8
1
62
256
6
ByLayer
370
13
48
1
60
0
100
AcDbEllipse
10
60.744099
20
34.625438
30
0
11
4.24912383924225E-17
21
0.15
31
0
210
0
220
0
230
1
40
0.772149
41
1.5707963267949
42
1.90677220780381
0
ELLIPSE
5
149
100
AcDbEntity
8
1
62
256
6
ByLayer
370
13
48
1
60
0
100
AcDbEllipse
10
60.943122
20
34.183936
30
0
11
5.665498452323E-17
21
0.2
31
0
210
0
220
0
230
1
40
0.817574
41
1.90677220780383
42
2.7252107293006
0
ELLIPSE
5
14A
100
AcDbEntity
8
1
62
256
6
ByLayer
370
13
48
1
60
0
100
AcDbEllipse
10
60.943122
20
33.316064
30
0
11
5.665498452323E-17
21
0.2
31
0
210
0
220
0
230
1
40
0.817574
41
0.416381924289192
42
1.23482044578601
0
ELLIPSE
5
14B
100
AcDbEntity
8
1
62
256
6
ByLayer
370
13
48
1
60
0
100
AcDbEllipse
10
60.533999
20
33.316064
30
0
11
-3.67381906146713E-17
21
-0.2
31
0
210
0
220
0
230
1
40
0.34202
41
-2.72521072930067
42
-1.9067722078038
0
ELLIPSE
5
14C
100
AcDbEntity
8
1
62
256
6
ByLayer
370
13
48
1
60
0
100
AcDbEllipse
10
60.533999
20
34.183936
30
0
11
5.665498452323E-17
21
0.2
31
0
210
0
220
0
230
1
40
0.34202
41
1.9067722078038
42
2.72521072930067
0
ELLIPSE
5
14D
100
AcDbEntity
8
1
62
256
6
ByLayer
370
13
48
1
60
0
100
AcDbEllipse
10
64.7528
20
34.531043
30
0
11
-0.053394885983678
21
-0.0845516773978496
31
0
210
0
220
0
230
1
40
0.139768
41
0.739917285381644
42
1.57716944641307
0
ELLIPSE
5
14E
100
AcDbEntity
8
1
62
256
6
ByLayer
370
13
48
1
60
0
100
AcDbEllipse
10
64.913536
20
34.381503
30
0
11
-0.0833383062250994
21
-0.0552695821906731
31
0
210
0
220
0
230
1
40
0.125147
41
1.00886584004889
42
1.63389016497515
0
ELLIPSE
5
14F
100
AcDbEntity
8
1
62
256
6
ByLayer
370
13
48
1
60
0
100
AcDbEllipse
10
64.913536
20
33.118497
30
0
11
-0.0833383062250993
21
0.0552695821906731
31
0
210
0
220
0
230
1
40
0.125147
41
-1.63389016497515
42
-1.00886584004865
0
ELLIPSE
5
150
100
AcDbEntity
8
1
62
256
6
ByLayer
370
13
48
1
60
0
100
AcDbEllipse
10
64.7528
20
32.968957
30
0
11
-0.053394885983678
21
0.0845516773978496
31
0
210
0
220
0
230
1
40
0.139768
41
-1.57716944641307
42
-0.739917285381644
0
ELLIPSE
5
151
100
AcDbEntity
8
1
62
256
6
ByLayer
370
13
48
1
60
0
100
AcDbEllipse
10
64.258678
20
34.198773
30
0
11
0.0150020396796469
21
-0.399718574506427
31
0
210
0
220
0
230
1
40
0.406498
41
1.55554103694362
42
2.33646244174223
0
ELLIPSE
5
152
100
AcDbEntity
8
1
62
256
6
ByLayer
370
13
48
1
60
0
100
AcDbEllipse
10
64.258678
20
33.301227
30
0
11
0.0150020396796473
21
0.399718574506427
31
0
210
0
220
0
230
1
40
0.406498
41
-2.33646244174222
42
-1.55554103694365
0
ELLIPSE
5
153
100
AcDbEntity
8
1
62
256
6
ByLayer
370
13
48
1
60
0
100
AcDbEllipse
10
64.620468
20
32.887003
30
0
11
-0.0517697807122172
21
0.0855563545565667
31
0
210
0
220
0
230
1
40
0.139863
41
-1.57449803098188
42
-0.736209352901142
0
ELLIPSE
5
154
100
AcDbEntity
8
1
62
256
6
ByLayer
370
13
48
1
60
0
100
AcDbEllipse
10
64.523358
20
32.809726
30
0
11
-0.0777352233758327
21
0.0629065580580387
31
0
210
0
220
0
230
1
40
0.130472
41
-1.62177056438507
42
-1.15591732835908
0
ELLIPSE
5
155
100
AcDbEntity
8
1
62
256
6
ByLayer
370
13
48
1
60
0
100
AcDbEllipse
10
64.620468
20
34.612997
30
0
11
-0.0517697807122172
21
-0.0855563545565667
31
0
210
0
220
0
230
1
40
0.139863
41
0.736209352901142
42
1.57449803098188
0
ELLIPSE
5
156
100
AcDbEntity
8
1
62
256
6
ByLayer
370
13
48
1
60
0
100
AcDbEllipse
10
64.523358
20
34.690274
30
0
11
-0.0777352233758327
21
-0.0629065580580387
31
0
210
0
220
0
230
1
40
0.130472
41
1.15591732835921
42
1.62177056438507
0
ELLIPSE
5
157
100
AcDbEntity
8
1
62
256
6
ByLayer
370
13
48
1
60
0
100
AcDbEllipse
10
63.758781
20
32.696407
30
0
11
-0.00794321942284761
21
0.239868516619419
31
0
210
0
220
0
230
1
40
0.002314
41
-1.50102146588706
42
-0.70653332228189
0
ELLIPSE
5
158
100
AcDbEntity
8
1
62
256
6
ByLayer
370
13
48
1
60
0
100
AcDbEllipse
10
63.758781
20
34.803593
30
0
11
-0.00794321942284783
21
-0.239868516619419
31
0
210
0
220
0
230
1
40
0.002314
41
0.706533322283582
42
1.50102146588709
0
ELLIPSE
5
159
100
AcDbEntity
8
1
62
256
6
ByLayer
370
13
48
1
60
0
100
AcDbEllipse
10
60.782996
20
35.830141
30
0
11
5.66549845232303E-16
21
2.00000000000001
31
0
210
0
220
0
230
1
40
0.34202
41
2.7252107293006
42
2.79252680319093
0
ELLIPSE
5
15A
100
AcDbEntity
8
1
62
256
6
ByLayer
370
13
48
1
60
0
100
AcDbEllipse
10
60.782996
20
31.669859
30
0
11
-3.67381906146715E-16
21
-2.00000000000001
31
0
210
0
220
0
230
1
40
0.34202
41
-2.79252680319093
42
-2.7252107293006
0
ELLIPSE
5
15B
100
AcDbEntity
8
1
62
256
6
ByLayer
370
13
48
1
60
0
100
AcDbEllipse
10
60.527689
20
33.75
30
0
11
5.94877337493915E-17
21
0.21
31
0
210
0
220
0
230
1
40
0.34202
41
-2.79252680319103
42
-0.349065850398762
0
ELLIPSE
5
15C
100
AcDbEntity
8
1
62
256
6
ByLayer
370
13
48
1
60
0
100
AcDbEllipse
10
64.935867
20
34.346883
30
0
11
-0.0846523861242153
21
-0.053235077941868
31
0
210
0
220
0
230
1
40
0.065225
41
1.04575763084695
42
1.67414551543565
0
ELLIPSE
5
15D
100
AcDbEntity
8
1
62
256
6
ByLayer
370
13
48
1
60
0
100
AcDbEllipse
10
64.935867
20
33.153117
30
0
11
-0.0846523861242153
21
0.053235077941868
31
0
210
0
220
0
230
1
40
0.065225
41
-1.67414551543579
42
-1.04575763084671
0
ELLIPSE
5
15E
100
AcDbEntity
8
1
62
256
6
ByLayer
370
18
48
1
60
0
100
AcDbEllipse
10
62.229028
20
34.84703
30
0
11
0.251841921998111
21
0.0177818623395328
31
0
210
0
220
0
230
-1
40
0.06924
41
-1.56101782172136
42
-0.774400198842664
0
ELLIPSE
5
15F
100
AcDbEntity
8
1
62
256
6
ByLayer
370
18
48
1
60
0
100
AcDbEllipse
10
65.048748
20
33.153117
30
0
11
1.1330996904646E-16
21
0.4
31
0
210
0
220
0
230
1
40
0.121869
41
1.5707963267949
42
1.64009079051255
0
ELLIPSE
5
160
100
AcDbEntity
8
1
62
256
6
ByLayer
370
18
48
1
60
0
100
AcDbEllipse
10
65.048748
20
34.346883
30
0
11
1.1330996904646E-16
21
0.4
31
0
210
0
220
0
230
1
40
0.121869
41
1.50150186307724
42
1.5707963267949
0
ELLIPSE
5
161
100
AcDbEntity
8
1
62
256
6
ByLayer
370
18
48
1
60
0
100
AcDbEllipse
10
61.763694
20
34.95
30
0
11
0.201946432116473
21
0
31
0
210
0
220
0
230
1
40
0.990362
41
-1.5707963267949
42
-1.04299365512072
0
ELLIPSE
5
162
100
AcDbEntity
8
1
62
256
6
ByLayer
370
18
48
1
60
0
100
AcDbEllipse
10
64.506337
20
34.971995
30
0
11
0.239997047333485
21
0.0169489931545965
31
0
210
0
220
0
230
-1
40
0.070266
41
-1.73995037517321
42
-1.44395567305487
0
ELLIPSE
5
163
100
AcDbEntity
8
1
62
256
6
ByLayer
370
18
48
1
60
0
100
AcDbEllipse
10
62.229028
20
32.65297
30
0
11
0.25184192200186
21
-0.0177818623399789
31
0
210
0
220
0
230
-1
40
0.06924
41
0.774400198842311
42
1.56101782171062
0
ELLIPSE
5
164
100
AcDbEntity
8
1
62
256
6
ByLayer
370
18
48
1
60
0
100
AcDbEllipse
10
62.04757
20
34.650887
30
0
11
0.0586247302012056
21
-0.191752852286547
31
0
210
-1.56326331346004E-15
220
1.05822557188231E-17
230
1
40
0.997435
41
2.91526219766618
42
-2.91526219766618
0
ELLIPSE
5
165
100
AcDbEntity
8
1
62
256
6
ByLayer
370
18
48
1
60
0
100
AcDbEllipse
10
64.506337
20
32.528005
30
0
11
0.239997047880849
21
-0.0169489931912294
31
0
210
0
220
0
230
-1
40
0.070266
41
1.44395567346538
42
1.73995037490419
0
ELLIPSE
5
166
100
AcDbEntity
8
1
62
256
6
ByLayer
370
18
48
1
60
0
100
AcDbEllipse
10
62.059275
20
32.848294
30
0
11
0.0029729393167071
21
0.200467814146891
31
0
210
-1.59613097713202E-15
220
-6.66986070676025E-19
230
1
40
0.997557
41
2.63386280411411
42
3.08674247812911
0
ELLIPSE
5
167
100
AcDbEntity
8
1
62
256
6
ByLayer
370
18
48
1
60
0
100
AcDbEllipse
10
61.77444
20
32.55
30
0
11
-0.201490790302156
21
2.46746902040712E-17
31
0
210
0
220
0
230
1
40
0.992601
41
-2.09761674342107
42
-1.5707963267949
0
POINT
5
6C
100
AcDbEntity
8
81
62
256
6
ByLayer
370
18
48
1
60
0
100
AcDbPoint
10
65
20
35
30
0
39
0
210
0
220
0
230
1
50
360
0
POINT
5
6E
100
AcDbEntity
8
80
62
256
6
ByLayer
370
18
48
1
60
0
100
AcDbPoint
10
0
20
0
30
0
39
0
210
0
220
0
230
1
50
360
0
SPLINE
5
168
100
AcDbEntity
8
SK1
62
256
6
ByLayer
370
13
48
1
60
0
100
AcDbSpline
70
4
71
2
72
6
73
3
40
0
40
0
40
0
40
1
40
1
40
1
41
1
10
-28.5
20
-16.8545212066649
30
0
41
1
10
-15.2499999987993
20
-17.1871851888412
30
0
41
1
10
-1.99999999999994
20
-17.5198482068776
30
0
0
SPLINE
5
169
100
AcDbEntity
8
SK1
62
256
6
ByLayer
370
13
48
1
60
0
100
AcDbSpline
70
4
71
2
72
6
73
3
40
0
40
0
40
0
40
1
40
1
40
1
41
1
10
-1.99999999999994
20
17.5198479235724
30
0
41
1
10
-15.2499999987994
20
17.1871849060498
30
0
41
1
10
-28.5
20
16.8545209244112
30
0
0
SPLINE
5
16A
100
AcDbEntity
8
SK1
62
256
6
ByLayer
370
13
48
1
60
0
100
AcDbSpline
70
4
71
3
72
13
73
9
40
0
40
0
40
0
40
0
40
0.239409099367222
40
0.368297400752104
40
0.499931438691466
40
0.631576866358067
40
0.760496583550948
40
1
40
1
40
1
40
1
41
1
10
-1.99999999999994
20
-17.525129116923
30
0
41
1
10
-1.99909125719796
20
-17.4990813944884
30
0
41
1
10
-1.99103211472601
20
-17.4617233046648
30
0
41
1
10
-1.96563495891914
20
-17.4155240253433
30
0
41
1
10
-1.93886250822572
20
-17.3842556209574
30
0
41
1
10
-1.90627575278671
20
-17.3590990612905
30
0
41
1
10
-1.85883875467886
20
-17.3360651360603
30
0
41
1
10
-1.82110932008976
20
-17.3298953840654
30
0
41
1
10
-1.79503997793924
20
-17.3302974649008
30
0
0
SPLINE
5
16B
100
AcDbEntity
8
SK1
62
256
6
ByLayer
370
13
48
1
60
0
100
AcDbSpline
70
4
71
3
72
13
73
9
40
0
40
0
40
0
40
0
40
0.239503416121617
40
0.368423133196231
40
0.500068560814789
40
0.631702598790208
40
0.760590900287134
40
1
40
1
40
1
40
1
41
1
10
-1.79503997793924
20
17.3302973195574
30
0
41
1
10
-1.8211093200961
20
17.3298952387248
30
0
41
1
10
-1.85883875469071
20
17.336064990738
30
0
41
1
10
-1.90627575279677
20
17.3590989160412
30
0
41
1
10
-1.93886250823528
20
17.3842554757878
30
0
41
1
10
-1.96563495892642
20
17.4155238802705
30
0
41
1
10
-1.99103211473133
20
17.4617231597379
30
0
41
1
10
-1.99909125720333
20
17.4990812496681
30
0
41
1
10
-1.99999999999994
20
17.5251289721744
30
0
0
SPLINE
5
16C
100
AcDbEntity
8
SK1
62
256
6
ByLayer
370
13
48
1
60
0
100
AcDbSpline
70
4
71
2
72
6
73
3
40
0
40
0
40
0
40
1
40
1
40
1
41
1
10
-1.79503997793924
20
-17.3250646819565
30
0
41
1
10
-0.995008433403001
20
-17.3451508243471
30
0
41
1
10
-0.194976888875232
20
-17.3652369633001
30
0
0
SPLINE
5
16D
100
AcDbEntity
8
SK1
62
256
6
ByLayer
370
13
48
1
60
0
100
AcDbSpline
70
4
71
2
72
6
73
3
40
0
40
0
40
0
40
1
40
1
40
1
41
1
10
-0.194976888875232
20
17.3652366802367
30
0
41
1
10
-0.995008433402973
20
17.3451505413152
30
0
41
1
10
-1.79503997793924
20
17.3250643989561
30
0
0
SPLINE
5
16E
100
AcDbEntity
8
SK1
62
256
6
ByLayer
370
13
48
1
60
0
100
AcDbSpline
70
4
71
2
72
6
73
3
40
0
40
0
40
0
40
1
40
1
40
1
41
1
10
-29.9999999999999
20
-15.9932495545754
30
0
41
1
10
-29.2499990770552
20
-16.4260289695447
30
0
41
1
10
-28.5
20
-16.8588008432386
30
0
0
SPLINE
5
16F
100
AcDbEntity
8
SK1
62
256
6
ByLayer
370
13
48
1
60
0
100
AcDbSpline
70
4
71
2
72
6
73
3
40
0
40
0
40
0
40
1
40
1
40
1
41
1
10
-28.5
20
16.8588006436881
30
0
41
1
10
-29.2499990770911
20
16.4260287704419
30
0
41
1
10
-29.9999999999999
20
15.9932493559076
30
0
0
SPLINE
5
170
100
AcDbEntity
8
SK1
62
256
6
ByLayer
370
13
48
1
60
0
100
AcDbSpline
70
4
71
2
72
6
73
3
40
0
40
0
40
0
40
1
40
1
40
1
41
1
10
-0.194976888875232
20
-17.3704796738454
30
0
41
1
10
-0.0591463025187124
20
-17.3755257485866
30
0
41
1
10
-0.0356373334005013
20
-17.4655271597146
30
0
0
SPLINE
5
171
100
AcDbEntity
8
SK1
62
256
6
ByLayer
370
13
48
1
60
0
100
AcDbSpline
70
4
71
2
72
6
73
3
40
0
40
0
40
0
40
1
40
1
40
1
41
1
10
-0.0343899619088859
20
17.4680396001793
30
0
41
1
10
-0.0576204404093517
20
17.3761040543929
30
0
41
1
10
-0.194976888875232
20
17.3704795286247
30
0
0
SPLINE
5
172
100
AcDbEntity
8
SK1
62
256
6
ByLayer
370
13
48
1
60
0
100
AcDbSpline
70
4
71
3
72
19
73
15
40
0
40
0
40
0
40
0
40
0.0340168326507038
40
0.103731952686899
40
0.173447072723094
40
0.243162192759289
40
0.38259243283168
40
0.52202267290407
40
0.591737792940265
40
0.661452912976461
40
0.800883153048851
40
0.870598273085046
40
0.940313393121242
40
1
40
1
40
1
40
1
41
1
10
-0.194976888875232
20
17.3652894531971
30
0
41
1
10
-0.194976888875203
20
17.3585856737884
30
0
41
1
10
-0.194976888875232
20
17.3185670125911
30
0
41
1
10
-0.194976888875203
20
17.1586060420318
30
0
41
1
10
-0.19497688887526
20
16.8308407609471
30
0
41
1
10
-0.194976888875232
20
16.2296006616932
30
0
41
1
10
-0.19497688887526
20
15.1935360543338
30
0
41
1
10
-0.194976888875232
20
13.8199155786832
30
0
41
1
10
-0.194976888875232
20
12.5327090406557
30
0
41
1
10
-0.194976888875232
20
11.124360123357
30
0
41
1
10
-0.19497688887526
20
9.54003756166779
30
0
41
1
10
-0.194976888875232
20
7.78272657852639
30
0
41
1
10
-0.19497688887526
20
6.44811514689019
30
0
41
1
10
-0.194976888875232
20
5.5331359846804
30
0
41
1
10
-0.194976888875232
20
5.10125345322419
30
0
0
SPLINE
5
173
100
AcDbEntity
8
SK1
62
256
6
ByLayer
370
13
48
1
60
0
100
AcDbSpline
70
4
71
3
72
24
73
20
40
0
40
0
40
0
40
0
40
0.0865398844436773
40
0.0865398844436773
40
0.174606808973657
40
0.174606808973657
40
0.204283232250695
40
0.204283232250695
40
0.234430378299036
40
0.234430378299036
40
0.260963086962178
40
0.260963086962178
40
0.296894251932679
40
0.296894251932679
40
0.362560401604241
40
0.362560401604241
40
0.577775078513454
40
0.577775078513454
40
1
40
1
40
1
40
1
41
1
10
-0.194976888875232
20
-5.10125086895565
30
0
41
1
10
-0.22459265387019
20
-5.16040801377204
30
0
41
1
10
-0.257595479757271
20
-5.2183114084159
30
0
41
1
10
-0.336150389877872
20
-5.32723274028902
30
0
41
1
10
-0.382542848167191
20
-5.38041105877861
30
0
41
1
10
-0.462321250315455
20
-5.43127550158047
30
0
41
1
10
-0.484592781963386
20
-5.44242526658479
30
0
41
1
10
-0.53213200584625
20
-5.45772783053692
30
0
41
1
10
-0.558142899452889
20
-5.46179903845939
30
0
41
1
10
-0.606278947725286
20
-5.46041947085908
30
0
41
1
10
-0.629034072907473
20
-5.4560608662043
30
0
41
1
10
-0.678877240187489
20
-5.43930436278231
30
0
41
1
10
-0.705546599495165
20
-5.42456927125346
30
0
41
1
10
-0.773100753634708
20
-5.3767294290063
30
0
41
1
10
-0.809617767336221
20
-5.337951420498
30
0
41
1
10
-0.945846243999057
20
-5.165816223023
30
0
41
1
10
-1.01284657594513
20
-5.01170528380695
30
0
41
1
10
-1.18434707470041
20
-4.55468826920043
30
0
41
1
10
-1.25671595113761
20
-4.23494507919241
30
0
41
1
10
-1.31543506509533
20
-3.91026939581343
30
0
0
SPLINE
5
174
100
AcDbEntity
8
SK1
62
256
6
ByLayer
370
13
48
1
60
0
100
AcDbSpline
70
4
71
3
72
39
73
35
40
0
40
0
40
0
40
0
40
0.0143966633596598
40
0.042961554119331
40
0.0715264448790022
40
0.100091335638673
40
0.157221117158016
40
0.214350898677358
40
0.242915789437029
40
0.2714806801967
40
0.328610461716043
40
0.357175352475714
40
0.385740243235385
40
0.414305133995056
40
0.442870024754727
40
0.471434915514399
40
0.485717360894234
40
0.49999980627407
40
0.514282251653905
40
0.528564697033741
40
0.557129587793412
40
0.585694478553083
40
0.614259369312754
40
0.642824260072426
40
0.671389150832097
40
0.728518932351439
40
0.75708382311111
40
0.785648713870782
40
0.842778495390124
40
0.899908276909466
40
0.928473167669137
40
0.957038058428808
40
0.98560294918848
40
1
40
1
40
1
40
1
41
1
10
-1.79503997793924
20
17.3257551200558
30
0
41
1
10
-1.79503997793924
20
17.3192800087921
30
0
41
1
10
-1.79503997793924
20
17.2795195291994
30
0
41
1
10
-1.79503997793924
20
17.1188450441766
30
0
41
1
10
-1.79503997793927
20
16.7916722325963
30
0
41
1
10
-1.79503997793924
20
16.1913785074865
30
0
41
1
10
-1.79503997793927
20
15.1570319640165
30
0
41
1
10
-1.79503997793924
20
13.7856199701319
30
0
41
1
10
-1.79503997793924
20
12.500267964077
30
0
41
1
10
-1.79503997793924
20
11.0940004239178
30
0
41
1
10
-1.79503997793927
20
9.51267503388598
30
0
41
1
10
-1.79503997793927
20
7.7583923448191
30
0
41
1
10
-1.79503997793927
20
6.35944481918477
30
0
41
1
10
-1.79503997793921
20
4.87813814654274
30
0
41
1
10
-1.79503997793927
20
3.31755142876619
30
0
41
1
10
-1.79503997793924
20
1.95744888431966
30
0
41
1
10
-1.79503997793927
20
0.842183896938536
30
0
41
1
10
-1.79503997793927
20
5.01239867E-08
30
0
41
1
10
-1.79503997793927
20
-0.842183835089827
30
0
41
1
10
-1.79503997793924
20
-1.9574489056063
30
0
41
1
10
-1.79503997793924
20
-3.31755135272868
30
0
41
1
10
-1.79503997793927
20
-4.87813783770076
30
0
41
1
10
-1.79503997793924
20
-6.35944493307986
30
0
41
1
10
-1.79503997793927
20
-7.75839217523475
30
0
41
1
10
-1.79503997793927
20
-9.51267484843638
30
0
41
1
10
-1.79503997793927
20
-11.0940004136041
30
0
41
1
10
-1.79503997793927
20
-12.5002678139025
30
0
41
1
10
-1.79503997793927
20
-13.7856203428616
30
0
41
1
10
-1.79503997793924
20
-15.1570315468655
30
0
41
1
10
-1.79503997793924
20
-16.1913792747221
30
0
41
1
10
-1.79503997793927
20
-16.7916721035533
30
0
41
1
10
-1.79503997793924
20
-17.1188453667221
30
0
41
1
10
-1.79503997793927
20
-17.2795209569878
30
0
41
1
10
-1.79503997793924
20
-17.3192810365295
30
0
41
1
10
-1.79503997793921
20
-17.3257558797552
30
0
0
SPLINE
5
175
100
AcDbEntity
8
SK1
62
256
6
ByLayer
370
13
48
1
60
0
100
AcDbSpline
70
4
71
3
72
12
73
8
40
0
40
0
40
0
40
0
40
0.500000000000001
40
0.500000000000001
40
0.75
40
0.75
40
1
40
1
40
1
40
1
41
1
10
-1.31543506509487
20
3.9102717266544
30
0
41
1
10
-1.24592839325496
20
4.29459561059778
30
0
41
1
10
-1.16331416991247
20
4.66760511763019
30
0
41
1
10
-0.926521435132997
20
5.19044404924702
30
0
41
1
10
-0.835622884145693
20
5.40735814273438
30
0
41
1
10
-0.419282266252281
20
5.50342856768927
30
0
41
1
10
-0.281321823100996
20
5.27372622909883
30
0
41
1
10
-0.194976888875203
20
5.10125345321305
30
0
0
SPLINE
5
176
100
AcDbEntity
8
SK1
62
256
6
ByLayer
370
13
48
1
60
0
100
AcDbSpline
70
4
71
3
72
39
73
35
40
0
40
0
40
0
40
0
40
0.0138412313405729
40
0.0424388012785346
40
0.0710363712164963
40
0.099633941154458
40
0.156829081030381
40
0.214024220906305
40
0.242621790844266
40
0.271219360782228
40
0.328414500658151
40
0.357012070596113
40
0.385609640534075
40
0.414207210472037
40
0.442804780409998
40
0.47140235034796
40
0.485701135316941
40
0.499999920285922
40
0.514298705254902
40
0.528597490223883
40
0.557195060161845
40
0.585792630099807
40
0.614390200037768
40
0.64298776997573
40
0.671585339913692
40
0.728780479789615
40
0.757378049727577
40
0.785975619665538
40
0.843170759541462
40
0.900365899417385
40
0.928963469355347
40
0.957561039293309
40
0.98615860923127
40
1
40
1
40
1
40
1
41
1
10
-1.99999999999994
20
17.5197427594192
30
0
41
1
10
-1.99999999999994
20
17.5129400881268
30
0
41
1
10
-1.99999999999994
20
17.4725596430034
30
0
41
1
10
-1.99999999999991
20
17.3116343538074
30
0
41
1
10
-1.99999999999994
20
16.9815888329671
30
0
41
1
10
-1.99999999999994
20
16.3767064197525
30
0
41
1
10
-1.99999999999994
20
15.3340294930174
30
0
41
1
10
-1.99999999999994
20
13.9519092247439
30
0
41
1
10
-1.99999999999991
20
12.657565142082
30
0
41
1
10
-1.99999999999994
20
11.241205620246
30
0
41
1
10
-1.99999999999994
20
9.64534783198891
30
0
41
1
10
-1.99999999999994
20
7.87638184130788
30
0
41
1
10
-1.99999999999994
20
6.46346246032286
30
0
41
1
10
-1.99999999999991
20
4.96520999967436
30
0
41
1
10
-1.99999999999994
20
3.38314408231224
30
0
41
1
10
-1.99999999999991
20
1.99851186782052
30
0
41
1
10
-1.99999999999994
20
0.861482441955189
30
0
41
1
10
-1.99999999999994
20
1.76094943E-08
30
0
41
1
10
-1.99999999999997
20
-0.861482365135828
30
0
41
1
10
-1.99999999999994
20
-1.99851187450378
30
0
41
1
10
-1.99999999999991
20
-3.3831440670979
30
0
41
1
10
-1.99999999999994
20
-4.96520967393042
30
0
41
1
10
-1.99999999999991
20
-6.46346255594889
30
0
41
1
10
-1.99999999999994
20
-7.87638169367145
30
0
41
1
10
-1.99999999999994
20
-9.64534763909765
30
0
41
1
10
-1.99999999999994
20
-11.2412056085042
30
0
41
1
10
-1.99999999999994
20
-12.6575649796177
30
0
41
1
10
-1.99999999999994
20
-13.9519096014721
30
0
41
1
10
-1.99999999999994
20
-15.3340290660617
30
0
41
1
10
-1.99999999999991
20
-16.3767071899766
30
0
41
1
10
-1.99999999999994
20
-16.981588704699
30
0
41
1
10
-1.99999999999991
20
-17.311634670272
30
0
41
1
10
-1.99999999999994
20
-17.4725605623512
30
0
41
1
10
-1.99999999999991
20
-17.5129407093624
30
0
41
1
10
-1.99999999999991
20
-17.5197432403675
30
0
0
SPLINE
5
177
100
AcDbEntity
8
SK1
62
256
6
ByLayer
370
13
48
1
60
0
100
AcDbSpline
70
4
71
3
72
24
73
20
40
0
40
0
40
0
40
0
40
0.129293125164592
40
0.129293125164592
40
0.160890762428053
40
0.160890762428053
40
0.193125098727604
40
0.193125098727604
40
0.210852819140108
40
0.210852819140108
40
0.228629109366986
40
0.228629109366986
40
0.251617995969926
40
0.251617995969926
40
0.291811550479171
40
0.291811550479171
40
0.417285661516503
40
0.417285661516503
40
1
40
1
40
1
40
1
41
1
10
-0.194976888870144
20
5.10125345321308
30
0
41
1
10
-0.181437028790668
20
5.0742077756197
30
0
41
1
10
-0.16626393942866
20
5.04747373608862
30
0
41
1
10
-0.140897870634973
20
5.02184016773086
30
0
41
1
10
-0.135473818681106
20
5.01716196663585
30
0
41
1
10
-0.123549655243806
20
5.00963193359666
30
0
41
1
10
-0.116826960957042
20
5.00671644859111
30
0
41
1
10
-0.105797159791308
20
5.00555851911648
30
0
41
1
10
-0.101665537823521
20
5.00583807674761
30
0
41
1
10
-0.0936550002421654
20
5.00800667379403
30
0
41
1
10
-0.0896865034706593
20
5.00992758749899
30
0
41
1
10
-0.0813787136983137
20
5.01564999886372
30
0
41
1
10
-0.0771254542222266
20
5.01988425828566
30
0
41
1
10
-0.0668909728223355
20
5.03253319783826
30
0
41
1
10
-0.0616757119855151
20
5.04189507302792
30
0
41
1
10
-0.0435256268700073
20
5.08091090599513
30
0
41
1
10
-0.0358776289130844
20
5.11311220772754
30
0
41
1
10
-0.0008126982901331
20
5.29017319535635
30
0
41
1
10
5.68E-14
20
5.43661415621486
30
0
41
1
10
5.68E-14
20
5.57923236301644
30
0
0
SPLINE
5
178
100
AcDbEntity
8
SK1
62
256
6
ByLayer
370
13
48
1
60
0
100
AcDbSpline
70
4
71
3
72
19
73
15
40
0
40
0
40
0
40
0
40
0.0596866936171576
40
0.129401785690356
40
0.199116877763554
40
0.33854706190995
40
0.408262153983149
40
0.477977246056347
40
0.617407430202743
40
0.756837614349139
40
0.826552706422338
40
0.896267798495536
40
0.965982890568734
40
1
40
1
40
1
40
1
41
1
10
-0.194976888875232
20
-5.10125086896682
30
0
41
1
10
-0.194976888875232
20
-5.53313428609093
30
0
41
1
10
-0.194976888875232
20
-6.4481145019796
30
0
41
1
10
-0.194976888875232
20
-7.78272641346862
30
0
41
1
10
-0.194976888875232
20
-9.54003737468344
30
0
41
1
10
-0.194976888875232
20
-11.1243601127488
30
0
41
1
10
-0.194976888875232
20
-12.5327088879465
30
0
41
1
10
-0.194976888875232
20
-13.8199159522375
30
0
41
1
10
-0.194976888875232
20
-15.1935356351607
30
0
41
1
10
-0.194976888875232
20
-16.2296014295452
30
0
41
1
10
-0.19497688887526
20
-16.8308406320639
30
0
41
1
10
-0.194976888875232
20
-17.1586063633232
30
0
41
1
10
-0.194976888875232
20
-17.3185678369021
30
0
41
1
10
-0.194976888875232
20
-17.3585862138369
30
0
41
1
10
-0.194976888875203
20
-17.3652898689243
30
0
0
SPLINE
5
179
100
AcDbEntity
8
SK1
62
256
6
ByLayer
370
13
48
1
60
0
100
AcDbSpline
70
4
71
3
72
28
73
24
40
0
40
0
40
0
40
0
40
0.516446141051457
40
0.516446141051457
40
0.606964722938721
40
0.606964722938721
40
0.693548730180408
40
0.693548730180408
40
0.726617429278803
40
0.726617429278803
40
0.760179667743203
40
0.760179667743203
40
0.778833531745279
40
0.778833531745279
40
0.79765485432017
40
0.79765485432017
40
0.814904576888086
40
0.814904576888086
40
0.845176041490203
40
0.845176041490203
40
0.922307781339945
40
0.922307781339945
40
1
40
1
40
1
40
1
41
1
10
5.68E-14
20
-5.57923036606786
30
0
41
1
10
5.68E-14
20
-5.45236806529763
30
0
41
1
10
-0.0023498218234295
20
-5.32313166238615
30
0
41
1
10
-0.0246707618042876
20
-5.1705540817639
30
0
41
1
10
-0.0286524877797376
20
-5.14764204467343
30
0
41
1
10
-0.0387560546026862
20
-5.10317866975308
30
0
41
1
10
-0.0446943059309604
20
-5.08137365774493
30
0
41
1
10
-0.0565046990695919
20
-5.05263962384046
30
0
41
1
10
-0.0602008880996721
20
-5.04479189761079
30
0
41
1
10
-0.0689466158996765
20
-5.02994474169333
30
0
41
1
10
-0.0741217536316299
20
-5.02277054209409
30
0
41
1
10
-0.0837193538483803
20
-5.0138948861302
30
0
41
1
10
-0.0875463815129933
20
-5.01114472817952
30
0
41
1
10
-0.0956073859924516
20
-5.0072569745906
30
0
41
1
10
-0.0999476032089035
20
-5.00610700608991
30
0
41
1
10
-0.108056444598276
20
-5.00560398939311
30
0
41
1
10
-0.111930329251095
20
-5.00608221695759
30
0
41
1
10
-0.121996996497131
20
-5.00880668081444
30
0
41
1
10
-0.127948105957955
20
-5.01208528001013
30
0
41
1
10
-0.147044934761482
20
-5.02590151619006
30
0
41
1
10
-0.158144588365815
20
-5.03988585432487
30
0
41
1
10
-0.178024754256739
20
-5.06915995887027
30
0
41
1
10
-0.186840242430094
20
-5.08499801267371
30
0
41
1
10
-0.194976888875402
20
-5.10125086895371
30
0
0
SPLINE
5
17A
100
AcDbEntity
8
SK1
62
256
6
ByLayer
370
13
48
1
60
0
100
AcDbSpline
70
4
71
3
72
39
73
35
40
0
40
0
40
0
40
0
40
0.0161825864357644
40
0.044642429280285
40
0.0731022721248056
40
0.101562114969326
40
0.158481800658368
40
0.215401486347409
40
0.243861329191929
40
0.27232117203645
40
0.329240857725491
40
0.357700700570012
40
0.386160543414532
40
0.414620386259053
40
0.443080229103574
40
0.471540071948094
40
0.485769993370355
40
0.499999914792615
40
0.514229836214875
40
0.528459757637135
40
0.556919600481656
40
0.585379443326177
40
0.613839286170697
40
0.642299129015218
40
0.670758971859739
40
0.72767865754878
40
0.756138500393301
40
0.784598343237821
40
0.841518028926862
40
0.898437714615904
40
0.926897557460424
40
0.955357400304945
40
0.983817243149466
40
1
40
1
40
1
40
1
41
1
10
-28.5
20
16.8572808129603
30
0
41
1
10
-28.5
20
16.8520758955998
30
0
41
1
10
-28.5
20
16.8141072474507
30
0
41
1
10
-28.5
20
16.6531187925377
30
0
41
1
10
-28.5
20
16.3328856609547
30
0
41
1
10
-28.5
20
15.7436769514769
30
0
41
1
10
-28.5
20
14.7294543359371
30
0
41
1
10
-28.5
20
13.3839106046768
30
0
41
1
10
-28.5
20
12.1202809967187
30
0
41
1
10
-28.5
20
10.7383929245239
30
0
41
1
10
-28.5
20
9.19217383455461
30
0
41
1
10
-28.5
20
7.47336198687179
30
0
41
1
10
-28.5
20
6.10816664300179
30
0
41
1
10
-28.5
20
4.66779636016508
30
0
41
1
10
-28.5
20
3.159097514856
30
0
41
1
10
-28.5
20
1.85825194532128
30
0
41
1
10
-28.5
20
0.795563889585225
30
0
41
1
10
-28.5
20
1.286701661E-07
30
0
41
1
10
-28.5
20
-0.795563863901435
30
0
41
1
10
-28.5
20
-1.85825200188609
30
0
41
1
10
-28.5
20
-3.15909729188604
30
0
41
1
10
-28.5
20
-4.66779609215365
30
0
41
1
10
-28.5
20
-6.10816680103014
30
0
41
1
10
-28.5
20
-7.47336176426714
30
0
41
1
10
-28.5
20
-9.19217366708199
30
0
41
1
10
-28.5
20
-10.7383929176601
30
0
41
1
10
-28.5
20
-12.1202808762331
30
0
41
1
10
-28.5
20
-13.3839109677473
30
0
41
1
10
-28.5
20
-14.7294539424716
30
0
41
1
10
-28.5
20
-15.7436777114932
30
0
41
1
10
-28.5
20
-16.3328855300396
30
0
41
1
10
-28.5
20
-16.6531191297731
30
0
41
1
10
-28.5
20
-16.814108179172
30
0
41
1
10
-28.5
20
-16.8520764728366
30
0
41
1
10
-28.5
20
-16.8572811869878
30
0
0
SPLINE
5
17B
100
AcDbEntity
8
SK1
62
256
6
ByLayer
370
13
48
1
60
0
100
AcDbSpline
70
4
71
3
72
10
73
6
40
0
40
0
40
0
40
0
40
0.5
40
0.5
40
1
40
1
40
1
40
1
41
1
10
-1.31543506509485
20
-3.91026939581323
30
0
41
1
10
-1.53994575342864
20
-2.66888211580192
30
0
41
1
10
-1.72361848453102
20
-1.33806859990835
30
0
41
1
10
-1.72276554179186
20
1.34789001624876
30
0
41
1
10
-1.53997014218976
20
2.6687478466246
30
0
41
1
10
-1.3154350650949
20
3.91027172665432
30
0
0
SPLINE
5
17C
100
AcDbEntity
8
SK1
62
256
6
ByLayer
370
13
48
1
60
0
100
AcDbSpline
70
4
71
3
72
39
73
35
40
0
40
0
40
0
40
0
40
0.0181821476581646
40
0.0465244264161974
40
0.0748667051742302
40
0.103208983932263
40
0.159893541448328
40
0.216578098964394
40
0.244920377722427
40
0.273262656480459
40
0.329947213996525
40
0.358289492754558
40
0.38663177151259
40
0.414974050270623
40
0.443316329028656
40
0.471658607786689
40
0.485829747165705
40
0.500000886544721
40
0.514172025923738
40
0.528343165302754
40
0.556685444060787
40
0.58502772281882
40
0.613370001576852
40
0.641712280334885
40
0.670054559092918
40
0.726739116608983
40
0.755081395367016
40
0.783423674125049
40
0.840108231641114
40
0.89679278915718
40
0.925135067915213
40
0.953477346673245
40
0.981819625431278
40
1
40
1
40
1
40
1
41
1
10
-29.9999999999999
20
15.9932053888621
30
0
41
1
10
-29.9999999999999
20
15.9899219757659
30
0
41
1
10
-29.9999999999999
20
15.9548426714681
30
0
41
1
10
-29.9999999999999
20
15.7965327535813
30
0
41
1
10
-30
20
15.4890634139888
30
0
41
1
10
-29.9999999999999
20
14.9202427964398
30
0
41
1
10
-30
20
13.9430330734596
30
0
41
1
10
-29.9999999999999
20
12.6450674903883
30
0
41
1
10
-29.9999999999999
20
11.4213907579162
30
0
41
1
10
-29.9999999999999
20
10.0843425714311
30
0
41
1
10
-29.9999999999999
20
8.60269267078098
30
0
41
1
10
-29.9999999999999
20
6.9491204942841
30
0
41
1
10
-30
20
5.64600378047214
30
0
41
1
10
-29.9999999999999
20
4.28092566737894
30
0
41
1
10
-29.9999999999999
20
2.8676614835052
30
0
41
1
10
-29.9999999999999
20
1.67580418173876
30
0
41
1
10
-29.9999999999999
20
0.709818138095784
30
0
41
1
10
-29.9999999999999
20
2.731358677E-07
30
0
41
1
10
-29.9999999999999
20
-0.709818178928401
30
0
41
1
10
-29.9999999999999
20
-1.67580430318833
30
0
41
1
10
-29.9999999999999
20
-2.86766099029046
30
0
41
1
10
-29.9999999999999
20
-4.28092547446499
30
0
41
1
10
-29.9999999999999
20
-5.64600401967209
30
0
41
1
10
-29.9999999999999
20
-6.94912017416223
30
0
41
1
10
-29.9999999999999
20
-8.60269253637253
30
0
41
1
10
-29.9999999999999
20
-10.0843425709125
30
0
41
1
10
-29.9999999999999
20
-11.4213906920359
30
0
41
1
10
-29.9999999999999
20
-12.6450678356932
30
0
41
1
10
-29.9999999999999
20
-13.9430327235573
30
0
41
1
10
-29.9999999999999
20
-14.9202435431779
30
0
41
1
10
-29.9999999999999
20
-15.4890632796306
30
0
41
1
10
-29.9999999999999
20
-15.796533117835
30
0
41
1
10
-29.9999999999999
20
-15.9548394706888
30
0
41
1
10
-29.9999999999999
20
-15.9899195620486
30
0
41
1
10
-29.9999999999999
20
-15.9932046107897
30
0
0
SPLINE
5
17D
100
AcDbEntity
8
1
62
256
6
ByLayer
370
13
48
1
60
0
100
AcDbSpline
70
4
71
3
72
16
73
12
40
0
40
0
40
0
40
0
40
0.111430279628069
40
0.111430279628069
40
0.248747543515497
40
0.248747543515497
40
0.465535329195336
40
0.465535329195336
40
0.883855351867774
40
0.883855351867774
40
1
40
1
40
1
40
1
41
1
10
11.4613248654051
20
-7.52966679426618
30
0
41
1
10
11.4891847159942
20
-7.52966679426618
30
0
41
1
10
11.5173911427755
20
-7.53471706780974
30
0
41
1
10
11.5758492032392
20
-7.55489210221145
30
0
41
1
10
11.6060413892305
20
-7.57218953888562
30
0
41
1
10
11.6751537543575
20
-7.62460019394206
30
0
41
1
10
11.7107854085703
20
-7.66489294254023
30
0
41
1
10
11.7989938907459
20
-7.78941367630466
30
0
41
1
10
11.8397320068508
20
-7.88247511004261
30
0
41
1
10
11.8792917015267
20
-8.0026926953812
30
0
41
1
10
11.887161598573
20
-8.02920008991688
30
0
41
1
10
11.8943375672974
20
-8.05584836782879
30
0
0
SPLINE
5
17E
100
AcDbEntity
8
1
62
256
6
ByLayer
370
13
48
1
60
0
100
AcDbSpline
70
4
71
3
72
16
73
12
40
0
40
0
40
0
40
0
40
0.111430279627724
40
0.111430279627724
40
0.248747543515204
40
0.248747543515204
40
0.465535329195087
40
0.465535329195087
40
0.883855351867598
40
0.883855351867598
40
1
40
1
40
1
40
1
41
1
10
8.53867513459483
20
7.52966679426606
30
0
41
1
10
8.51081528400579
20
7.52966679426606
30
0
41
1
10
8.48260885722448
20
7.53471706780959
30
0
41
1
10
8.42415079676073
20
7.55489210221131
30
0
41
1
10
8.39395861076943
20
7.57218953888548
30
0
41
1
10
8.32484624564245
20
7.62460019394194
30
0
41
1
10
8.28921459142956
20
7.66489294254012
30
0
41
1
10
8.201006109254
20
7.78941367630458
30
0
41
1
10
8.16026799314915
20
7.88247511004255
30
0
41
1
10
8.1207082984732
20
8.00269269538111
30
0
41
1
10
8.1128384014269
20
8.0292000899168
30
0
41
1
10
8.10566243270247
20
8.0558483678287
30
0
0
SPLINE
5
17F
100
AcDbEntity
8
1
62
256
6
ByLayer
370
13
48
1
60
0
100
AcDbSpline
70
4
71
3
72
10
73
6
40
0
40
0
40
0
40
0
40
0.5
40
0.5
40
1
40
1
40
1
40
1
41
1
10
37.9910117795481
20
31.1500000000005
30
0
41
1
10
37.4072716829739
20
31.1500000000005
30
0
41
1
10
36.8043787102168
20
31.222708588208
30
0
41
1
10
35.7243809868981
20
31.6898339819773
30
0
41
1
10
35.2035275944497
20
32.1523688615498
30
0
41
1
10
35.2035275944497
20
32.7500000000005
30
0
0
SPLINE
5
180
100
AcDbEntity
8
1
62
256
6
ByLayer
370
13
48
1
60
0
100
AcDbSpline
70
4
71
3
72
8
73
4
40
0
40
0
40
0
40
0
40
1
40
1
40
1
40
1
41
1
10
23.1335059784842
20
31.3840683563028
30
0
41
1
10
22.5467745084928
20
29.1016717761943
30
0
41
1
10
21.9708046541946
20
26.8172489199985
30
0
41
1
10
21.4383186059722
20
24.5622028367026
30
0
0
SPLINE
5
181
100
AcDbEntity
8
1
62
256
6
ByLayer
370
13
48
1
60
0
100
AcDbSpline
70
4
71
3
72
8
73
4
40
0
40
0
40
0
40
0
40
1
40
1
40
1
40
1
41
1
10
23.6292669003428
20
33.3073723344219
30
0
41
1
10
23.4597390813031
20
32.6602726724578
30
0
41
1
10
23.294346449527
20
32.0192775553717
30
0
41
1
10
23.1335059784842
20
31.3840683563028
30
0
0
SPLINE
5
182
100
AcDbEntity
8
1
62
256
6
ByLayer
370
13
48
1
60
0
100
AcDbSpline
70
4
71
3
72
16
73
12
40
0
40
0
40
0
40
0
40
0.111430279628068
40
0.111430279628068
40
0.248747543515513
40
0.248747543515513
40
0.465535329195353
40
0.465535329195353
40
0.88385535186788
40
0.88385535186788
40
1
40
1
40
1
40
1
41
1
10
11.4613248654052
20
23.83912997505
30
0
41
1
10
11.4891847159942
20
23.8391299750499
30
0
41
1
10
11.5173911427755
20
23.8375361275703
30
0
41
1
10
11.5758492032392
20
23.8311506585886
30
0
41
1
10
11.6060413892305
20
23.8256668770176
30
0
41
1
10
11.6751537543575
20
23.8089605749784
30
0
41
1
10
11.7107854085704
20
23.7960379707756
30
0
41
1
10
11.7989938907459
20
23.7556824246828
30
0
41
1
10
11.8397320068508
20
23.7250165399977
30
0
41
1
10
11.8792917015267
20
23.6845451449629
30
0
41
1
10
11.887161598573
20
23.6755726082074
30
0
41
1
10
11.8943375672974
20
23.6665017920805
30
0
0
SPLINE
5
183
100
AcDbEntity
8
1
62
256
6
ByLayer
370
13
48
1
60
0
100
AcDbSpline
70
4
71
3
72
16
73
12
40
0
40
0
40
0
40
0
40
0.461208588217071
40
0.461208588217071
40
0.643534962278552
40
0.643534962278552
40
0.828408472975328
40
0.828408472975328
40
0.943003644160047
40
0.943003644160047
40
1
40
1
40
1
40
1
41
1
10
11.8943375672972
20
-23.6665017920805
30
0
41
1
10
11.866050391515
20
-23.7022583261629
30
0
41
1
10
11.8273339192907
20
-23.7370095736335
30
0
41
1
10
11.7473160248314
20
-23.7800170858171
30
0
41
1
10
11.7212784637476
20
-23.791712576879
30
0
41
1
10
11.6606543989163
20
-23.8127037684947
30
0
41
1
10
11.6251722226873
20
-23.8222104320951
30
0
41
1
10
11.5599225851957
20
-23.833158685649
30
0
41
1
10
11.5324782774943
20
-23.8363323784727
30
0
41
1
10
11.4901684747699
20
-23.8387183279983
30
0
41
1
10
11.4757173930754
20
-23.8391299750502
30
0
41
1
10
11.4613248654052
20
-23.8391299750502
30
0
0
SPLINE
5
184
100
AcDbEntity
8
1
62
256
6
ByLayer
370
13
48
1
60
0
100
AcDbSpline
70
4
71
3
72
8
73
4
40
0
40
0
40
0
40
0
40
1
40
1
40
1
40
1
41
1
10
23.8181085636633
20
34.7500000000004
30
0
41
1
10
23.8179781491909
20
34.7500000000004
30
0
41
1
10
23.8798428191437
20
34.7500000000004
30
0
41
1
10
24.0075541521677
20
34.7500000000004
30
0
0
SPLINE
5
185
100
AcDbEntity
8
1
62
256
6
ByLayer
370
13
48
1
60
0
100
AcDbSpline
70
4
71
3
72
16
73
12
40
0
40
0
40
0
40
0
40
0.461208588217058
40
0.461208588217058
40
0.643534962278548
40
0.643534962278548
40
0.828408472975323
40
0.828408472975323
40
0.943003644160045
40
0.943003644160045
40
1
40
1
40
1
40
1
41
1
10
8.10566243270262
20
23.6665017920804
30
0
41
1
10
8.13394960848487
20
23.7022583261628
30
0
41
1
10
8.17266608070923
20
23.7370095736334
30
0
41
1
10
8.25268397516848
20
23.780017085817
30
0
41
1
10
8.27872153625233
20
23.7917125768789
30
0
41
1
10
8.33934560108361
20
23.8127037684947
30
0
41
1
10
8.37482777731262
20
23.822210432095
30
0
41
1
10
8.44007741480419
20
23.8331586856489
30
0
41
1
10
8.46752172250561
20
23.8363323784726
30
0
41
1
10
8.50983152523003
20
23.8387183279982
30
0
41
1
10
8.52428260692457
20
23.8391299750501
30
0
41
1
10
8.53867513459474
20
23.8391299750501
30
0
0
SPLINE
5
186
100
AcDbEntity
8
1
62
256
6
ByLayer
370
13
48
1
60
0
100
AcDbSpline
70
4
71
3
72
10
73
6
40
0
40
0
40
0
40
0
40
0.5
40
0.5
40
1
40
1
40
1
40
1
41
1
10
20.2792076144254
20
22.8970660421983
30
0
41
1
10
20.4006438848785
20
23.0806681824316
30
0
41
1
10
20.5972274691033
20
23.2590295498516
30
0
41
1
10
21.0563604523116
20
23.7625288149735
30
0
41
1
10
21.3307913512113
20
24.1068314415161
30
0
41
1
10
21.4383186059722
20
24.5622028367026
30
0
0
SPLINE
5
187
100
AcDbEntity
8
1
62
256
6
ByLayer
370
13
48
1
60
0
100
AcDbSpline
70
4
71
3
72
16
73
12
40
0
40
0
40
0
40
0
40
0.111430279627728
40
0.111430279627728
40
0.248747543515204
40
0.248747543515204
40
0.46553532919511
40
0.46553532919511
40
0.883855351867653
40
0.883855351867653
40
1
40
1
40
1
40
1
41
1
10
8.53867513459483
20
-23.83912997505
30
0
41
1
10
8.51081528400579
20
-23.83912997505
30
0
41
1
10
8.48260885722448
20
-23.8375361275703
30
0
41
1
10
8.42415079676073
20
-23.8311506585887
30
0
41
1
10
8.39395861076946
20
-23.8256668770176
30
0
41
1
10
8.32484624564245
20
-23.8089605749784
30
0
41
1
10
8.28921459142956
20
-23.7960379707756
30
0
41
1
10
8.20100610925397
20
-23.7556824246828
30
0
41
1
10
8.16026799314912
20
-23.7250165399977
30
0
41
1
10
8.1207082984732
20
-23.6845451449629
30
0
41
1
10
8.1128384014269
20
-23.6755726082074
30
0
41
1
10
8.10566243270247
20
-23.6665017920805
30
0
0
SPLINE
5
188
100
AcDbEntity
8
1
62
256
6
ByLayer
370
13
48
1
60
0
100
AcDbSpline
70
4
71
3
72
8
73
4
40
0
40
0
40
0
40
0
40
1
40
1
40
1
40
1
41
1
10
24.0075541521639
20
34.7499999999861
30
0
41
1
10
23.881354253847
20
34.2691494976071
30
0
41
1
10
23.7552541754052
20
33.7882746640011
30
0
41
1
10
23.6292669003428
20
33.3073723344219
30
0
0
SPLINE
5
189
100
AcDbEntity
8
1
62
256
6
ByLayer
370
13
48
1
60
0
100
AcDbSpline
70
4
71
3
72
16
73
12
40
0
40
0
40
0
40
0
40
0.461208588217074
40
0.461208588217074
40
0.643534962278549
40
0.643534962278549
40
0.828408472975309
40
0.828408472975309
40
0.943003644159988
40
0.943003644159988
40
1
40
1
40
1
40
1
41
1
10
8.10566243270262
20
-8.05584836782893
30
0
41
1
10
8.13394960848487
20
-7.95080268681565
30
0
41
1
10
8.17266608070923
20
-7.84628670970923
30
0
41
1
10
8.25268397516848
20
-7.71442469145245
30
0
41
1
10
8.27872153625233
20
-7.6782537965085
30
0
41
1
10
8.33934560108358
20
-7.6129052336735
30
0
41
1
10
8.37482777731262
20
-7.58305923051532
30
0
41
1
10
8.44007741480416
20
-7.54855881865714
30
0
41
1
10
8.46752172250558
20
-7.53852018102413
30
0
41
1
10
8.50983152523
20
-7.53097042135377
30
0
41
1
10
8.52428260692457
20
-7.52966679426592
30
0
41
1
10
8.53867513459474
20
-7.52966679426592
30
0
0
SPLINE
5
18A
100
AcDbEntity
8
1
62
256
6
ByLayer
370
13
48
1
60
0
100
AcDbSpline
70
4
71
3
72
16
73
12
40
0
40
0
40
0
40
0
40
0.461208588217051
40
0.461208588217051
40
0.643534962278531
40
0.643534962278531
40
0.828408472975298
40
0.828408472975298
40
0.943003644160016
40
0.943003644160016
40
1
40
1
40
1
40
1
41
1
10
11.8943375672972
20
8.05584836782862
30
0
41
1
10
11.866050391515
20
7.95080268681534
30
0
41
1
10
11.8273339192907
20
7.84628670970892
30
0
41
1
10
11.7473160248314
20
7.71442469145217
30
0
41
1
10
11.7212784637476
20
7.67825379650822
30
0
41
1
10
11.6606543989163
20
7.61290523367322
30
0
41
1
10
11.6251722226873
20
7.58305923051503
30
0
41
1
10
11.5599225851957
20
7.54855881865686
30
0
41
1
10
11.5324782774943
20
7.53852018102387
30
0
41
1
10
11.4901684747699
20
7.53097042135352
30
0
41
1
10
11.4757173930754
20
7.52966679426567
30
0
41
1
10
11.4613248654052
20
7.52966679426567
30
0
0
SPLINE
5
18B
100
AcDbEntity
8
1
62
256
6
ByLayer
370
13
48
1
60
0
100
AcDbSpline
70
4
71
3
72
8
73
4
40
0
40
0
40
0
40
0
40
1
40
1
40
1
40
1
41
1
10
20.2792076144254
20
22.8970660421984
30
0
41
1
10
20.176457558064
20
22.7417159957367
30
0
41
1
10
20.124302116187
20
22.5712296752253
30
0
41
1
10
20.1211724398803
20
22.3932237711676
30
0
0
SPLINE
5
18C
100
AcDbEntity
8
1
62
256
6
ByLayer
370
13
48
1
60
0
100
AcDbSpline
70
4
71
3
72
8
73
4
40
0
40
0
40
0
40
0
40
1
40
1
40
1
40
1
41
1
10
24.121020132137
20
33.3073723344219
30
0
41
1
10
23.7904091967568
20
32.667146547386
30
0
41
1
10
23.4574149296033
20
32.0223397235717
30
0
41
1
10
23.1335059784843
20
31.3840683563028
30
0
0
SPLINE
5
18D
100
AcDbEntity
8
1
62
256
6
ByLayer
370
13
48
1
60
0
100
AcDbSpline
70
4
71
3
72
20
73
16
40
0
40
0
40
0
40
0
40
0.0523214145135975
40
0.0523214145135975
40
0.235501104661318
40
0.235501104661318
40
0.41297513034359
40
0.41297513034359
40
0.58476143076797
40
0.58476143076797
40
0.745986441941658
40
0.745986441941658
40
0.904159501167267
40
0.904159501167267
40
1
40
1
40
1
40
1
41
1
10
38.4000000000023
20
31.1500026320097
30
0
41
1
10
38.4000000001755
20
31.1501079502512
30
0
41
1
10
38.3999905233871
20
31.1533811454108
30
0
41
1
10
38.400168217857
20
31.182265145395
30
0
41
1
10
38.3998432108382
20
31.2451319154616
30
0
41
1
10
38.4229569822801
20
31.4361953068982
30
0
41
1
10
38.4472891521036
20
31.5651778451253
30
0
41
1
10
38.5520312564566
20
31.8465534186388
30
0
41
1
10
38.633201756788
20
32.0014933734716
30
0
41
1
10
38.8527838013672
20
32.2783678987274
30
0
41
1
10
38.9902418227457
20
32.4049056419733
30
0
41
1
10
39.3012238321819
20
32.6008145825327
30
0
41
1
10
39.4778788748126
20
32.6739072839619
30
0
41
1
10
39.7712744965782
20
32.7376227953923
30
0
41
1
10
39.8857206054406
20
32.7500000000005
30
0
41
1
10
40.0000000000011
20
32.7500000000004
30
0
0
SPLINE
5
18E
100
AcDbEntity
8
1
62
256
6
ByLayer
370
13
48
1
60
0
100
AcDbSpline
70
4
71
3
72
12
73
8
40
0
40
0
40
0
40
0
40
0.103790018033927
40
0.103790018033927
40
0.424238012362856
40
0.424238012362856
40
1
40
1
40
1
40
1
41
1
10
63.8112677608007
20
34.1973018020992
30
0
41
1
10
63.8330673288143
20
34.1967526622875
30
0
41
1
10
63.8548777846227
20
34.196445109219
30
0
41
1
10
63.9437817615811
20
34.1952589051785
30
0
41
1
10
64.0108617198121
20
34.1947522515657
30
0
41
1
10
64.195202236924
20
34.194501852401
30
0
41
1
10
64.3116787067388
20
34.1957540417849
30
0
41
1
10
64.4213727254144
20
34.1987731616329
30
0
0
SPLINE
5
18F
100
AcDbEntity
8
1
62
256
6
ByLayer
370
13
48
1
60
0
100
AcDbSpline
70
4
71
3
72
16
73
12
40
0
40
0
40
0
40
0
40
0.0007084940797618
40
0.0007084940797618
40
0.283937687189524
40
0.283937687189524
40
0.567818407080674
40
0.567818407080674
40
0.999291505920235
40
0.999291505920235
40
1
40
1
40
1
40
1
41
1
10
63.2289221872924
20
33.3699800948358
30
0
41
1
10
63.228941627443
20
33.3699754913861
30
0
41
1
10
63.2289610676156
20
33.3699708879609
30
0
41
1
10
63.2367519568992
20
33.3681259892348
30
0
41
1
10
63.2445252383641
20
33.3662817324464
30
0
41
1
10
63.2600911151086
20
33.362580944522
30
0
41
1
10
63.2678840471777
20
33.3607242399541
30
0
41
1
10
63.2875212263735
20
33.3560358739586
30
0
41
1
10
63.2993665335015
20
33.3531989964769
30
0
41
1
10
63.3112288667919
20
33.3503500635133
30
0
41
1
10
63.3112483137939
20
33.3503453929548
30
0
41
1
10
63.3112677608007
20
33.3503407224169
30
0
0
SPLINE
5
190
100
AcDbEntity
8
1
62
256
6
ByLayer
370
13
48
1
60
0
100
AcDbSpline
70
4
71
3
72
8
73
4
40
0
40
0
40
0
40
0
40
1
40
1
40
1
40
1
41
1
10
63.2289221872924
20
33.7500000000001
30
0
41
1
10
63.2563707117952
20
33.7500000000001
30
0
41
1
10
63.2838192362979
20
33.7500000000001
30
0
41
1
10
63.3112677608007
20
33.7500000000001
30
0
0
SPLINE
5
191
100
AcDbEntity
8
1
62
256
6
ByLayer
370
13
48
1
60
0
100
AcDbSpline
70
4
71
3
72
16
73
12
40
0
40
0
40
0
40
0
40
0.0007084940797618
40
0.0007084940797618
40
0.283937687189524
40
0.283937687189524
40
0.567818407080674
40
0.567818407080674
40
0.999291505920235
40
0.999291505920235
40
1
40
1
40
1
40
1
41
1
10
63.2289221872924
20
34.1300199051645
30
0
41
1
10
63.2289416274202
20
34.1300245087562
30
0
41
1
10
63.2289610676156
20
34.1300291120394
30
0
41
1
10
63.2367519568992
20
34.1318740107655
30
0
41
1
10
63.2445252383641
20
34.133718267554
30
0
41
1
10
63.2600911151086
20
34.1374190554783
30
0
41
1
10
63.2678840471777
20
34.1392757600463
30
0
41
1
10
63.2875212263735
20
34.1439641260417
30
0
41
1
10
63.2993665335015
20
34.1468010035234
30
0
41
1
10
63.3112288667919
20
34.149649936487
30
0
41
1
10
63.3112483137594
20
34.149654607189
30
0
41
1
10
63.3112677608007
20
34.1496592775834
30
0
0
SPLINE
5
192
100
AcDbEntity
8
1
62
256
6
ByLayer
370
13
48
1
60
0
100
AcDbSpline
70
4
71
3
72
10
73
6
40
0
40
0
40
0
40
0
40
0.709896843428722
40
0.709896843428722
40
1
40
1
40
1
40
1
41
1
10
62.1845849620887
20
33.1178815712803
30
0
41
1
10
62.1786971522085
20
33.1235270424692
30
0
41
1
10
62.1730792764886
20
33.1297109086789
30
0
41
1
10
62.1667433148842
20
33.1386685714841
30
0
41
1
10
62.1650681599821
20
33.1413446836673
30
0
41
1
10
62.163694842982
20
33.1439775324801
30
0
0
SPLINE
5
193
100
AcDbEntity
8
1
62
256
6
ByLayer
370
13
48
1
60
0
100
AcDbSpline
70
4
71
3
72
8
73
4
40
0
40
0
40
0
40
0
40
1
40
1
40
1
40
1
41
1
10
62.1636948430067
20
33.1439775324787
30
0
41
1
10
62.1842500998041
20
33.1622050341327
30
0
41
1
10
62.2046122793279
20
33.1801516799872
30
0
41
1
10
62.2235446149629
20
33.1988011441018
30
0
0
SPLINE
5
194
100
AcDbEntity
8
1
62
256
6
ByLayer
370
13
48
1
60
0
100
AcDbSpline
70
4
71
3
72
10
73
6
40
0
40
0
40
0
40
0
40
0.644331995687774
40
0.644331995687774
40
1
40
1
40
1
40
1
41
1
10
62.2235446149629
20
33.1988011441018
30
0
41
1
10
62.2423417535848
20
33.2173174312068
30
0
41
1
10
62.2543614792979
20
33.2426664323786
30
0
41
1
10
62.2635582436184
20
33.2874869366522
30
0
41
1
10
62.2646514454073
20
33.3049921021341
30
0
41
1
10
62.2632877280426
20
33.3236213331365
30
0
0
SPLINE
5
195
100
AcDbEntity
8
1
62
256
6
ByLayer
370
13
48
1
60
0
100
AcDbSpline
70
4
71
3
72
12
73
8
40
0
40
0
40
0
40
0
40
0.0568772518374145
40
0.0568772518374145
40
0.598921195001007
40
0.598921195001007
40
1
40
1
40
1
40
1
41
1
10
63.1425891010003
20
33.0656884508255
30
0
41
1
10
63.1245515992802
20
33.0710330361349
30
0
41
1
10
63.1065274742932
20
33.0763652369551
30
0
41
1
10
62.918963261331
20
33.1317806137134
30
0
41
1
10
62.7497242492963
20
33.181273102405
30
0
41
1
10
62.4764510412474
20
33.2611394687536
30
0
41
1
10
62.3651339164839
20
33.2936801937209
30
0
41
1
10
62.2632877280431
20
33.3236213331378
30
0
0
SPLINE
5
196
100
AcDbEntity
8
1
62
256
6
ByLayer
370
13
48
1
60
0
100
AcDbSpline
70
4
71
3
72
12
73
8
40
0
40
0
40
0
40
0
40
0.432851996086571
40
0.432851996086571
40
0.716418616561771
40
0.716418616561771
40
1
40
1
40
1
40
1
41
1
10
63.2151325614844
20
33.04418180398
30
0
41
1
10
63.2046568328337
20
33.0472814144913
30
0
41
1
10
63.1941840602842
20
33.0503851861555
30
0
41
1
10
63.1768579385476
20
33.0555244159994
30
0
41
1
10
63.170001810704
20
33.0575598149152
30
0
41
1
10
63.1562928218783
20
33.0616267951899
30
0
41
1
10
63.1494397680902
20
33.0636585702325
30
0
41
1
10
63.1425891010003
20
33.0656884508255
30
0
0
SPLINE
5
197
100
AcDbEntity
8
1
62
256
6
ByLayer
370
13
48
1
60
0
100
AcDbSpline
70
4
71
3
72
14
73
10
40
0
40
0
40
0
40
0
40
0.0559482231425851
40
0.0559482231425851
40
0.255082555375332
40
0.255082555375332
40
0.91736630964965
40
0.91736630964965
40
1
40
1
40
1
40
1
41
1
10
63.8217062023472
20
32.9988182475306
30
0
41
1
10
63.8102710337184
20
32.9984229628602
30
0
41
1
10
63.7988345011548
20
32.9980661951255
30
0
41
1
10
63.746704106935
20
32.9961582372692
30
0
41
1
10
63.7060132231142
20
32.9942271407747
30
0
41
1
10
63.5310688272088
20
32.9885267267974
30
0
41
1
10
63.3936591146985
20
32.9936263797221
30
0
41
1
10
63.2478771051643
20
33.0346264634836
30
0
41
1
10
63.2314856310115
20
33.0393431767218
30
0
41
1
10
63.2151325614844
20
33.04418180398
30
0
0
SPLINE
5
198
100
AcDbEntity
8
1
62
256
6
ByLayer
370
13
48
1
60
0
100
AcDbSpline
70
4
71
3
72
12
73
8
40
0
40
0
40
0
40
0
40
0.580466676309606
40
0.580466676309606
40
0.902092447109163
40
0.902092447109163
40
1
40
1
40
1
40
1
41
1
10
64.36542001724
20
33.01981853492
30
0
41
1
10
64.2648041446477
20
33.015550846422
30
0
41
1
10
64.1598849325171
20
33.0115189616652
30
0
41
1
10
63.9950542118574
20
33.0052471378386
30
0
41
1
10
63.9355659682511
20
33.0029171252552
30
0
41
1
10
63.8579762169911
20
33.0000992025574
30
0
41
1
10
63.8398403518263
20
32.9994450989162
30
0
41
1
10
63.8217062023472
20
32.9988182475306
30
0
0
SPLINE
5
199
100
AcDbEntity
8
1
62
256
6
ByLayer
370
13
48
1
60
0
100
AcDbSpline
70
4
71
3
72
14
73
10
40
0
40
0
40
0
40
0
40
0.0740326958458219
40
0.0740326958458219
40
0.743257125695834
40
0.743257125695834
40
0.939124438646558
40
0.939124438646558
40
1
40
1
40
1
40
1
41
1
10
64.7213347612452
20
33.03643256335
30
0
41
1
10
64.7126059855914
20
33.036082693168
30
0
41
1
10
64.7038751248008
20
33.0357314918052
30
0
41
1
10
64.6162008436678
20
33.0321930467652
30
0
41
1
10
64.5369961926741
20
33.0287622149464
30
0
41
1
10
64.4347137397945
20
33.0247732146058
30
0
41
1
10
64.4110630969841
20
33.0223341881503
30
0
41
1
10
64.3801088915617
20
33.0205021830746
30
0
41
1
10
64.3727654069311
20
33.0201300944612
30
0
41
1
10
64.36542001724
20
33.01981853492
30
0
0
SPLINE
5
19A
100
AcDbEntity
8
1
62
256
6
ByLayer
370
13
48
1
60
0
100
AcDbSpline
70
4
71
3
72
8
73
4
40
0
40
0
40
0
40
0
40
1
40
1
40
1
40
1
41
1
10
64.5901406592839
20
32.95526372543
30
0
41
1
10
64.6341557915993
20
32.9818582443896
30
0
41
1
10
64.6778467711873
20
33.0089882934674
30
0
41
1
10
64.7213347612451
20
33.0364325633499
30
0
0
SPLINE
5
19B
100
AcDbEntity
8
1
62
256
6
ByLayer
370
13
48
1
60
0
100
AcDbSpline
70
4
71
3
72
8
73
4
40
0
40
0
40
0
40
0
40
1
40
1
40
1
40
1
41
1
10
64.1161920011118
20
32.8776285352278
30
0
41
1
10
64.2757348334776
20
32.8777932494957
30
0
41
1
10
64.4355792331503
20
32.9116214637951
30
0
41
1
10
64.5901406592828
20
32.9552637254293
30
0
0
SPLINE
5
19C
100
AcDbEntity
8
1
62
256
6
ByLayer
370
13
48
1
60
0
100
AcDbSpline
70
4
71
3
72
8
73
4
40
0
40
0
40
0
40
0
40
1
40
1
40
1
40
1
41
1
10
63.7530991918524
20
32.8788671584134
30
0
41
1
10
63.8746599531637
20
32.8826009416683
30
0
41
1
10
63.9968950955518
20
32.87750537142
30
0
41
1
10
64.1161920011129
20
32.877628535226
30
0
0
SPLINE
5
19D
100
AcDbEntity
8
1
62
256
6
ByLayer
370
13
48
1
60
0
100
AcDbSpline
70
4
71
3
72
8
73
4
40
0
40
0
40
0
40
0
40
1
40
1
40
1
40
1
41
1
10
63.572400536749
20
32.8849371583559
30
0
41
1
10
63.6323837831873
20
32.8792030514027
30
0
41
1
10
63.6928500715065
20
32.8770165846406
30
0
41
1
10
63.7530991918523
20
32.8788671584133
30
0
0
SPLINE
5
19E
100
AcDbEntity
8
1
62
256
6
ByLayer
370
13
48
1
60
0
100
AcDbSpline
70
4
71
3
72
12
73
8
40
0
40
0
40
0
40
0
40
0.140444200279774
40
0.140444200279774
40
0.578672846880988
40
0.578672846880988
40
1
40
1
40
1
40
1
41
1
10
62.4502390423
20
32.9652634993767
30
0
41
1
10
62.4907683260285
20
32.9699122798023
30
0
41
1
10
62.5340049971857
20
32.9726580540268
30
0
41
1
10
62.7188333798473
20
32.9773436177575
30
0
41
1
10
62.8828017897203
20
32.9660056652956
30
0
41
1
10
63.2193415913498
20
32.9292160884798
30
0
41
1
10
63.3971452699764
20
32.9016907104471
30
0
41
1
10
63.572400536749
20
32.8849371583559
30
0
0
SPLINE
5
19F
100
AcDbEntity
8
1
62
256
6
ByLayer
370
13
48
1
60
0
100
AcDbSpline
70
4
71
3
72
8
73
4
40
0
40
0
40
0
40
0
40
1
40
1
40
1
40
1
41
1
10
62.3582665042272
20
32.9583908545865
30
0
41
1
10
62.3890156099214
20
32.9593812276681
30
0
41
1
10
62.4196882286926
20
32.9617592670978
30
0
41
1
10
62.4502390423
20
32.9652634993767
30
0
0
SPLINE
5
1A0
100
AcDbEntity
8
1
62
256
6
ByLayer
370
13
48
1
60
0
100
AcDbSpline
70
4
71
3
72
10
73
6
40
0
40
0
40
0
40
0
40
0.258944711528363
40
0.258944711528363
40
1
40
1
40
1
40
1
41
1
10
62.1845849620887
20
33.1178815712803
30
0
41
1
10
62.1992773003269
20
33.1037939607921
30
0
41
1
10
62.2140493078695
20
33.0897889892151
30
0
41
1
10
62.2714142308745
20
33.036040192463
30
0
41
1
10
62.3146891560261
20
32.996988956998
30
0
41
1
10
62.358266504227
20
32.9583908545863
30
0
0
SPLINE
5
1A1
100
AcDbEntity
8
1
62
256
6
ByLayer
370
13
48
1
60
0
100
AcDbSpline
70
4
71
3
72
10
73
6
40
0
40
0
40
0
40
0
40
0.649009211321481
40
0.649009211321481
40
1
40
1
40
1
40
1
41
1
10
62.2632877280426
20
34.1763786668635
30
0
41
1
10
62.2657560063979
20
34.2100968909234
30
0
41
1
10
62.2599458432007
20
34.2401231563406
30
0
41
1
10
62.2416692657146
20
34.2784699031435
30
0
41
1
10
62.2338663110394
20
34.2910313781878
30
0
41
1
10
62.2235446149629
20
34.3011988558985
30
0
0
SPLINE
5
1A2
100
AcDbEntity
8
1
62
256
6
ByLayer
370
13
48
1
60
0
100
AcDbSpline
70
4
71
3
72
8
73
4
40
0
40
0
40
0
40
0
40
1
40
1
40
1
40
1
41
1
10
62.2235446149629
20
34.3011988558985
30
0
41
1
10
62.204612279328
20
34.3198483200131
30
0
41
1
10
62.1842500998041
20
34.3377949658676
30
0
41
1
10
62.1636948430067
20
34.3560224675216
30
0
0
SPLINE
5
1A3
100
AcDbEntity
8
1
62
256
6
ByLayer
370
13
48
1
60
0
100
AcDbSpline
70
4
71
3
72
12
73
8
40
0
40
0
40
0
40
0
40
0.276452079067817
40
0.276452079067817
40
0.899464630432222
40
0.899464630432222
40
1
40
1
40
1
40
1
41
1
10
62.1636948430209
20
34.3560224675357
30
0
41
1
10
62.1650009626682
20
34.3585264892342
30
0
41
1
10
62.1665799094947
20
34.3610694515513
30
0
41
1
10
62.1722215249124
20
34.3691382817805
30
0
41
1
10
62.177018376239
20
34.3746049046792
30
0
41
1
10
62.1829057388043
20
34.3804918673116
30
0
41
1
10
62.183741236606
20
34.3813094304676
30
0
41
1
10
62.1845849620887
20
34.38211842872
30
0
0
SPLINE
5
1A4
100
AcDbEntity
8
1
62
256
6
ByLayer
370
13
48
1
60
0
100
AcDbSpline
70
4
71
3
72
10
73
6
40
0
40
0
40
0
40
0
40
0.258944711528364
40
0.258944711528364
40
1
40
1
40
1
40
1
41
1
10
62.1845849620887
20
34.38211842872
30
0
41
1
10
62.1992773003269
20
34.3962060392082
30
0
41
1
10
62.2140493078695
20
34.4102110107852
30
0
41
1
10
62.2714142308745
20
34.4639598075373
30
0
41
1
10
62.3146891560261
20
34.5030110430023
30
0
41
1
10
62.358266504227
20
34.541609145414
30
0
0
SPLINE
5
1A5
100
AcDbEntity
8
1
62
256
6
ByLayer
370
13
48
1
60
0
100
AcDbSpline
70
4
71
3
72
8
73
4
40
0
40
0
40
0
40
0
40
1
40
1
40
1
40
1
41
1
10
62.3582665042272
20
34.5416091454138
30
0
41
1
10
62.3890156099214
20
34.5406187723322
30
0
41
1
10
62.4196882286926
20
34.5382407329026
30
0
41
1
10
62.4502390423
20
34.5347365006236
30
0
0
SPLINE
5
1A6
100
AcDbEntity
8
1
62
256
6
ByLayer
370
13
48
1
60
0
100
AcDbSpline
70
4
71
3
72
12
73
8
40
0
40
0
40
0
40
0
40
0.140444200279774
40
0.140444200279774
40
0.578672846880988
40
0.578672846880988
40
1
40
1
40
1
40
1
41
1
10
62.4502390423
20
34.5347365006236
30
0
41
1
10
62.4907683260285
20
34.530087720198
30
0
41
1
10
62.5340049971857
20
34.5273419459735
30
0
41
1
10
62.7188333798473
20
34.5226563822428
30
0
41
1
10
62.8828017897203
20
34.5339943347047
30
0
41
1
10
63.2193415913498
20
34.5707839115205
30
0
41
1
10
63.3971452699764
20
34.5983092895532
30
0
41
1
10
63.572400536749
20
34.6150628416444
30
0
0
SPLINE
5
1A7
100
AcDbEntity
8
1
62
256
6
ByLayer
370
13
48
1
60
0
100
AcDbSpline
70
4
71
3
72
8
73
4
40
0
40
0
40
0
40
0
40
1
40
1
40
1
40
1
41
1
10
63.572400536749
20
34.6150628416444
30
0
41
1
10
63.6323837831873
20
34.6207969485976
30
0
41
1
10
63.6928500715065
20
34.6229834153598
30
0
41
1
10
63.7530991918523
20
34.621132841587
30
0
0
SPLINE
5
1A8
100
AcDbEntity
8
1
62
256
6
ByLayer
370
13
48
1
60
0
100
AcDbSpline
70
4
71
3
72
8
73
4
40
0
40
0
40
0
40
0
40
1
40
1
40
1
40
1
41
1
10
63.7530991918524
20
34.621132841587
30
0
41
1
10
63.8746599531637
20
34.617399058332
30
0
41
1
10
63.9968950955518
20
34.6224946285804
30
0
41
1
10
64.1161920011129
20
34.6223714647744
30
0
0
SPLINE
5
1A9
100
AcDbEntity
8
1
62
256
6
ByLayer
370
13
48
1
60
0
100
AcDbSpline
70
4
71
3
72
8
73
4
40
0
40
0
40
0
40
0
40
1
40
1
40
1
40
1
41
1
10
64.1161920011118
20
34.6223714647726
30
0
41
1
10
64.2757348334776
20
34.6222067505047
30
0
41
1
10
64.4355792331503
20
34.5883785362052
30
0
41
1
10
64.5901406592828
20
34.544736274571
30
0
0
SPLINE
5
1AA
100
AcDbEntity
8
1
62
256
6
ByLayer
370
13
48
1
60
0
100
AcDbSpline
70
4
71
3
72
8
73
4
40
0
40
0
40
0
40
0
40
1
40
1
40
1
40
1
41
1
10
64.5901406592839
20
34.5447362745703
30
0
41
1
10
64.6341557915993
20
34.5181417556107
30
0
41
1
10
64.6778467711873
20
34.4910117065329
30
0
41
1
10
64.7213347612451
20
34.4635674366504
30
0
0
SPLINE
5
1AB
100
AcDbEntity
8
1
62
256
6
ByLayer
370
13
48
1
60
0
100
AcDbSpline
70
4
71
3
72
14
73
10
40
0
40
0
40
0
40
0
40
0.0740326958458219
40
0.0740326958458219
40
0.743257125695834
40
0.743257125695834
40
0.939124438646558
40
0.939124438646558
40
1
40
1
40
1
40
1
41
1
10
64.7213347612452
20
34.4635674366503
30
0
41
1
10
64.7126059855914
20
34.4639173068323
30
0
41
1
10
64.7038751248008
20
34.4642685081951
30
0
41
1
10
64.6162008436678
20
34.4678069532351
30
0
41
1
10
64.5369961926741
20
34.4712377850539
30
0
41
1
10
64.4347137397945
20
34.4752267853945
30
0
41
1
10
64.4110630969841
20
34.47766581185
30
0
41
1
10
64.3801088915617
20
34.4794978169257
30
0
41
1
10
64.3727654069311
20
34.4798699055391
30
0
41
1
10
64.36542001724
20
34.4801814650803
30
0
0
SPLINE
5
1AC
100
AcDbEntity
8
1
62
256
6
ByLayer
370
13
48
1
60
0
100
AcDbSpline
70
4
71
3
72
12
73
8
40
0
40
0
40
0
40
0
40
0.580466676309606
40
0.580466676309606
40
0.902092447109163
40
0.902092447109163
40
1
40
1
40
1
40
1
41
1
10
64.36542001724
20
34.4801814650803
30
0
41
1
10
64.2648041446477
20
34.4844491535783
30
0
41
1
10
64.1598849325171
20
34.4884810383352
30
0
41
1
10
63.9950542118574
20
34.4947528621617
30
0
41
1
10
63.9355659682511
20
34.4970828747451
30
0
41
1
10
63.8579762169911
20
34.499900797443
30
0
41
1
10
63.8398403518263
20
34.5005549010841
30
0
41
1
10
63.8217062023472
20
34.5011817524697
30
0
0
SPLINE
5
1AD
100
AcDbEntity
8
1
62
256
6
ByLayer
370
13
48
1
60
0
100
AcDbSpline
70
4
71
3
72
14
73
10
40
0
40
0
40
0
40
0
40
0.0559482231425851
40
0.0559482231425851
40
0.255082555375332
40
0.255082555375332
40
0.91736630964965
40
0.91736630964965
40
1
40
1
40
1
40
1
41
1
10
63.8217062023472
20
34.5011817524697
30
0
41
1
10
63.8102710337184
20
34.5015770371401
30
0
41
1
10
63.7988345011548
20
34.5019338048749
30
0
41
1
10
63.746704106935
20
34.5038417627311
30
0
41
1
10
63.7060132231142
20
34.5057728592256
30
0
41
1
10
63.5310688272088
20
34.5114732732029
30
0
41
1
10
63.3936591146985
20
34.5063736202782
30
0
41
1
10
63.2478771051643
20
34.4653735365167
30
0
41
1
10
63.2314856310115
20
34.4606568232785
30
0
41
1
10
63.2151325614844
20
34.4558181960204
30
0
0
SPLINE
5
1AE
100
AcDbEntity
8
1
62
256
6
ByLayer
370
13
48
1
60
0
100
AcDbSpline
70
4
71
3
72
12
73
8
40
0
40
0
40
0
40
0
40
0.432851996086571
40
0.432851996086571
40
0.716418616561771
40
0.716418616561771
40
1
40
1
40
1
40
1
41
1
10
63.2151325614844
20
34.4558181960204
30
0
41
1
10
63.2046568328337
20
34.4527185855091
30
0
41
1
10
63.1941840602842
20
34.4496148138449
30
0
41
1
10
63.1768579385476
20
34.4444755840009
30
0
41
1
10
63.170001810704
20
34.4424401850851
30
0
41
1
10
63.1562928218783
20
34.4383732048104
30
0
41
1
10
63.1494397680902
20
34.4363414297678
30
0
41
1
10
63.1425891010003
20
34.4343115491748
30
0
0
SPLINE
5
1AF
100
AcDbEntity
8
1
62
256
6
ByLayer
370
13
48
1
60
0
100
AcDbSpline
70
4
71
3
72
12
73
8
40
0
40
0
40
0
40
0
40
0.0568772518374259
40
0.0568772518374259
40
0.598921195001127
40
0.598921195001127
40
1
40
1
40
1
40
1
41
1
10
63.1425891010003
20
34.4343115491748
30
0
41
1
10
63.1245515992802
20
34.4289669638655
30
0
41
1
10
63.1065274742932
20
34.4236347630453
30
0
41
1
10
62.918963261331
20
34.3682193862869
30
0
41
1
10
62.7497242492963
20
34.3187268975953
30
0
41
1
10
62.4764510412474
20
34.2388605312467
30
0
41
1
10
62.365133916484
20
34.2063198062794
30
0
41
1
10
62.2632877280433
20
34.1763786668626
30
0
0
SPLINE
5
1B0
100
AcDbEntity
8
1
62
256
6
ByLayer
370
13
48
1
60
0
100
AcDbSpline
70
4
71
3
72
8
73
4
40
0
40
0
40
0
40
0
40
1
40
1
40
1
40
1
41
1
10
62.2188209596174
20
32.7989312476693
30
0
41
1
10
62.1566840705691
20
32.8513390916011
30
0
41
1
10
62.0964721480718
20
32.9060446878576
30
0
41
1
10
62.0373478591962
20
32.9618290364791
30
0
0
SPLINE
5
1B1
100
AcDbEntity
8
1
62
256
6
ByLayer
370
13
48
1
60
0
100
AcDbSpline
70
4
71
3
72
8
73
4
40
0
40
0
40
0
40
0
40
1
40
1
40
1
40
1
41
1
10
62.2188209596174
20
34.701068752331
30
0
41
1
10
62.1566840705691
20
34.6486609083992
30
0
41
1
10
62.0964721480718
20
34.5939553121427
30
0
41
1
10
62.0373478591962
20
34.5381709635212
30
0
0
SPLINE
5
1B2
100
AcDbEntity
8
1
62
256
6
ByLayer
370
13
48
1
60
0
100
AcDbSpline
70
4
71
3
72
12
73
8
40
0
40
0
40
0
40
0
40
0.430493117721161
40
0.430493117721161
40
0.862618336992714
40
0.862618336992714
40
1
40
1
40
1
40
1
41
1
10
63.5587805434612
20
32.7170020526138
30
0
41
1
10
63.3906987623659
20
32.7322586791771
30
0
41
1
10
63.2215883462255
20
32.761477549844
30
0
41
1
10
62.9044434955373
20
32.8045426337662
30
0
41
1
10
62.751699988043
20
32.8196759165172
30
0
41
1
10
62.5772887625654
20
32.8208304126001
30
0
41
1
10
62.5365461454504
20
32.8196133329968
30
0
41
1
10
62.4981203716814
20
32.8165665220431
30
0
0
SPLINE
5
1B3
100
AcDbEntity
8
1
62
256
6
ByLayer
370
13
48
1
60
0
100
AcDbSpline
70
4
71
3
72
12
73
8
40
0
40
0
40
0
40
0
40
0.430493117721161
40
0.430493117721161
40
0.862618336992714
40
0.862618336992714
40
1
40
1
40
1
40
1
41
1
10
63.5587805434612
20
34.7829979473865
30
0
41
1
10
63.3906987623659
20
34.7677413208233
30
0
41
1
10
63.2215883462255
20
34.7385224501564
30
0
41
1
10
62.9044434955373
20
34.6954573662341
30
0
41
1
10
62.751699988043
20
34.6803240834831
30
0
41
1
10
62.5772887625654
20
34.6791695874002
30
0
41
1
10
62.5365461454504
20
34.6803866670035
30
0
41
1
10
62.4981203716814
20
34.6834334779572
30
0
0
SPLINE
5
1B4
100
AcDbEntity
8
1
62
256
6
ByLayer
370
13
48
1
60
0
100
AcDbSpline
70
4
71
3
72
12
73
8
40
0
40
0
40
0
40
0
40
0.018287446984155
40
0.018287446984155
40
0.429383149668921
40
0.429383149668921
40
1
40
1
40
1
40
1
41
1
10
62.0074254881241
20
33.2421318880841
30
0
41
1
10
62.0075362362869
20
33.2416851693171
30
0
41
1
10
62.0076466703323
20
33.2412319287796
30
0
41
1
10
62.0102522277265
20
33.2303520411383
30
0
41
1
10
62.012595462443
20
33.2164505571556
30
0
41
1
10
62.0175084652176
20
33.1768731582731
30
0
41
1
10
62.0199051952736
20
33.1479860915464
30
0
41
1
10
62.0216132026687
20
33.1159896144026
30
0
0
SPLINE
5
1B5
100
AcDbEntity
8
1
62
256
6
ByLayer
370
13
48
1
60
0
100
AcDbSpline
70
4
71
3
72
10
73
6
40
0
40
0
40
0
40
0
40
0.318891167720856
40
0.318891167720856
40
1
40
1
40
1
40
1
41
1
10
62.0216132026687
20
33.1159896144026
30
0
41
1
10
62.0224098521601
20
33.1010658048067
30
0
41
1
10
62.0235152334821
20
33.0853260611655
30
0
41
1
10
62.0278307781878
20
33.0350175354301
30
0
41
1
10
62.0321174721148
20
32.9980494056681
30
0
41
1
10
62.0373478591962
20
32.9618290364791
30
0
0
SPLINE
5
1B6
100
AcDbEntity
8
1
62
256
6
ByLayer
370
13
48
1
60
0
100
AcDbSpline
70
4
71
3
72
12
73
8
40
0
40
0
40
0
40
0
40
0.089550281954247
40
0.089550281954247
40
0.695495664143286
40
0.695495664143286
40
1
40
1
40
1
40
1
41
1
10
62.0373478591962
20
34.5381709635212
30
0
41
1
10
62.0366504824214
20
34.5333416375361
30
0
41
1
10
62.0359706281935
20
34.528508375167
30
0
41
1
10
62.0308928344149
20
34.4914217801422
30
0
41
1
10
62.0272652946379
20
34.4588731646894
30
0
41
1
10
62.0234116552873
20
34.4131929125643
30
0
41
1
10
62.0223723977324
20
34.3982325531869
30
0
41
1
10
62.0216132026687
20
34.3840103855977
30
0
0
SPLINE
5
1B7
100
AcDbEntity
8
1
62
256
6
ByLayer
370
13
48
1
60
0
100
AcDbSpline
70
4
71
3
72
14
73
10
40
0
40
0
40
0
40
0
40
0.209495302841087
40
0.209495302841087
40
0.672464390491942
40
0.672464390491942
40
0.981903526404807
40
0.981903526404807
40
1
40
1
40
1
40
1
41
1
10
62.0216132026687
20
34.3840103855977
30
0
41
1
10
62.0209795101629
20
34.3721392849021
30
0
41
1
10
62.0202559987987
20
34.3607268649118
30
0
41
1
10
62.0176940629878
20
34.3262907871192
30
0
41
1
10
62.0155182997218
20
34.305281746407
30
0
41
1
10
62.0114230927657
20
34.2768494975822
30
0
41
1
10
62.0096341492853
20
34.2670670768219
30
0
41
1
10
62.0076466700101
20
34.2587680712185
30
0
41
1
10
62.0075362362064
20
34.2583148306826
30
0
41
1
10
62.0074254881241
20
34.2578681119163
30
0
0
SPLINE
5
1B8
100
AcDbEntity
8
1
62
256
6
ByLayer
370
13
48
1
60
0
100
AcDbSpline
70
4
71
3
72
8
73
4
40
0
40
0
40
0
40
0
40
1
40
1
40
1
40
1
41
1
10
62.3582665042275
20
32.9583908545865
30
0
41
1
10
62.3515452911909
20
32.9511114609843
30
0
41
1
10
62.3437211106933
20
32.942343684882
30
0
41
1
10
62.3350869923574
20
32.9324111325016
30
0
0
SPLINE
5
1B9
100
AcDbEntity
8
1
62
256
6
ByLayer
370
13
48
1
60
0
100
AcDbSpline
70
4
71
3
72
14
73
10
40
0
40
0
40
0
40
0
40
0.448208770210974
40
0.448208770210974
40
0.913122348259776
40
0.913122348259776
40
0.983427664880478
40
0.983427664880478
40
1
40
1
40
1
40
1
41
1
10
62.3350869923622
20
32.9324111324974
30
0
41
1
10
62.3215455531755
20
32.916833276241
30
0
41
1
10
62.305341588264
20
32.8982042041622
30
0
41
1
10
62.2698920668222
20
32.8574907140643
30
0
41
1
10
62.2499835745949
20
32.834646894383
30
0
41
1
10
62.2270726024478
20
32.8083866357202
30
0
41
1
10
62.2240126344075
20
32.8048798963977
30
0
41
1
10
62.2202420283414
20
32.8005594503263
30
0
41
1
10
62.2195314790725
20
32.7997453469457
30
0
41
1
10
62.2188209596159
20
32.7989312476705
30
0
0
SPLINE
5
1BA
100
AcDbEntity
8
1
62
256
6
ByLayer
370
13
48
1
60
0
100
AcDbSpline
70
4
71
3
72
8
73
4
40
0
40
0
40
0
40
0
40
1
40
1
40
1
40
1
41
1
10
62.3582665042275
20
34.5416091454138
30
0
41
1
10
62.3515452911909
20
34.548888539016
30
0
41
1
10
62.3437211106933
20
34.5576563151183
30
0
41
1
10
62.3350869923574
20
34.5675888674988
30
0
0
SPLINE
5
1BB
100
AcDbEntity
8
1
62
256
6
ByLayer
370
13
48
1
60
0
100
AcDbSpline
70
4
71
3
72
14
73
10
40
0
40
0
40
0
40
0
40
0.448209783482341
40
0.448209783482341
40
0.913122824433937
40
0.913122824433937
40
0.983427843025058
40
0.983427843025058
40
1
40
1
40
1
40
1
41
1
10
62.3951729104533
20
32.8142670223122
30
0
41
1
10
62.374609447368
20
32.8124785464437
30
0
41
1
10
62.3500116922507
20
32.8103392878399
30
0
41
1
10
62.2962303412135
20
32.8056622737303
30
0
41
1
10
62.2660425013691
20
32.8030372014638
30
0
41
1
10
62.2313234526432
20
32.8000183352358
30
0
41
1
10
62.2266868400136
20
32.799615180234
30
0
41
1
10
62.2209739567193
20
32.7991184486721
30
0
41
1
10
62.2198974468538
20
32.7990248473074
30
0
41
1
10
62.2188209596193
20
32.7989312476694
30
0
0
SPLINE
5
1BC
100
AcDbEntity
8
1
62
256
6
ByLayer
370
13
48
1
60
0
100
AcDbSpline
70
4
71
3
72
14
73
10
40
0
40
0
40
0
40
0
40
0.448208770210974
40
0.448208770210974
40
0.913122348259776
40
0.913122348259776
40
0.983427664880478
40
0.983427664880478
40
1
40
1
40
1
40
1
41
1
10
62.3350869923622
20
34.567588867503
30
0
41
1
10
62.3215455531755
20
34.5831667237593
30
0
41
1
10
62.305341588264
20
34.6017957958381
30
0
41
1
10
62.2698920668222
20
34.642509285936
30
0
41
1
10
62.2499835745949
20
34.6653531056173
30
0
41
1
10
62.2270726024478
20
34.6916133642801
30
0
41
1
10
62.2240126344075
20
34.6951201036026
30
0
41
1
10
62.2202420283414
20
34.6994405496741
30
0
41
1
10
62.2195314790725
20
34.7002546530547
30
0
41
1
10
62.2188209596159
20
34.7010687523298
30
0
0
SPLINE
5
1BD
100
AcDbEntity
8
1
62
256
6
ByLayer
370
13
48
1
60
0
100
AcDbSpline
70
4
71
3
72
14
73
10
40
0
40
0
40
0
40
0
40
0.448209783482341
40
0.448209783482341
40
0.913122824433937
40
0.913122824433937
40
0.983427843025058
40
0.983427843025058
40
1
40
1
40
1
40
1
41
1
10
62.3951729104533
20
34.6857329776881
30
0
41
1
10
62.374609447368
20
34.6875214535566
30
0
41
1
10
62.3500116922507
20
34.6896607121604
30
0
41
1
10
62.2962303412135
20
34.69433772627
30
0
41
1
10
62.2660425013691
20
34.6969627985365
30
0
41
1
10
62.2313234526432
20
34.6999816647646
30
0
41
1
10
62.2266868400136
20
34.7003848197663
30
0
41
1
10
62.2209739567193
20
34.7008815513282
30
0
41
1
10
62.2198974468538
20
34.7009751526929
30
0
41
1
10
62.2188209596193
20
34.7010687523309
30
0
0
SPLINE
5
1BE
100
AcDbEntity
8
1
62
256
6
ByLayer
370
13
48
1
60
0
100
AcDbSpline
70
4
71
3
72
12
73
8
40
0
40
0
40
0
40
0
40
0.37350315843554
40
0.37350315843554
40
0.795694705497851
40
0.795694705497851
40
1
40
1
40
1
40
1
41
1
10
62.059385679813
20
34.2135919272836
30
0
41
1
10
62.0710534635609
20
34.2077094237194
30
0
41
1
10
62.0816831597664
20
34.200777039896
30
0
41
1
10
62.1006200088992
20
34.1833431146052
30
0
41
1
10
62.1085333602959
20
34.172262434472
30
0
41
1
10
62.1143528017274
20
34.1530639163963
30
0
41
1
10
62.1153239472322
20
34.1462800079993
30
0
41
1
10
62.1152169044538
20
34.1391609008842
30
0
0
SPLINE
5
1BF
100
AcDbEntity
8
1
62
256
6
ByLayer
370
13
48
1
60
0
100
AcDbSpline
70
4
71
3
72
12
73
8
40
0
40
0
40
0
40
0
40
0.0542763744367155
40
0.0542763744367155
40
0.496521492455521
40
0.496521492455521
40
1
40
1
40
1
40
1
41
1
10
62.1152169044538
20
34.1391609008842
30
0
41
1
10
62.1151561390061
20
34.1351195658478
30
0
41
1
10
62.1151785928066
20
34.130984374649
30
0
41
1
10
62.1161679483259
20
34.0929378924049
30
0
41
1
10
62.1229550923539
20
34.052662892713
30
0
41
1
10
62.1518066817856
20
33.963492323734
30
0
41
1
10
62.1764269684705
20
33.9125220075446
30
0
41
1
10
62.2087083957605
20
33.8658769688697
30
0
0
SPLINE
5
1C0
100
AcDbEntity
8
1
62
256
6
ByLayer
370
13
48
1
60
0
100
AcDbSpline
70
4
71
3
72
16
73
12
40
0
40
0
40
0
40
0
40
0.298315131809684
40
0.298315131809684
40
0.533632825549725
40
0.533632825549725
40
0.64077898617517
40
0.64077898617517
40
0.930881665385067
40
0.930881665385067
40
1
40
1
40
1
40
1
41
1
10
62.2087083957605
20
33.8658769688697
30
0
41
1
10
62.2224586946462
20
33.8460084786201
30
0
41
1
10
62.2344062486955
20
33.8239245844791
30
0
41
1
10
62.2474662168348
20
33.7815688121135
30
0
41
1
10
62.2502777390208
20
33.7613761541583
30
0
41
1
10
62.2488025034954
20
33.7326040662136
30
0
41
1
10
62.2475581030793
20
33.7235217293732
30
0
41
1
10
62.2404854878039
20
33.6910283934651
30
0
41
1
10
62.230331619189
20
33.6685472272319
30
0
41
1
10
62.2150440331609
20
33.6435404238132
30
0
41
1
10
62.2119321889307
20
33.6387812501048
30
0
41
1
10
62.2087083957605
20
33.6341230311307
30
0
0
SPLINE
5
1C1
100
AcDbEntity
8
1
62
256
6
ByLayer
370
13
48
1
60
0
100
AcDbSpline
70
4
71
3
72
12
73
8
40
0
40
0
40
0
40
0
40
0.072400628024118
40
0.072400628024118
40
0.542681200842481
40
0.542681200842481
40
1
40
1
40
1
40
1
41
1
10
62.2087083957605
20
33.6341230311307
30
0
41
1
10
62.2039784382181
20
33.6272884803992
30
0
41
1
10
62.1994173867098
20
33.6203815841776
30
0
41
1
10
62.1670358688112
20
33.5689985768556
30
0
41
1
10
62.1459582481575
20
33.5215463143502
30
0
41
1
10
62.120221996636
20
33.4349389325463
30
0
41
1
10
62.1147143497318
20
33.3942625673011
30
0
41
1
10
62.1152169044538
20
33.360839099116
30
0
0
SPLINE
5
1C2
100
AcDbEntity
8
1
62
256
6
ByLayer
370
13
48
1
60
0
100
AcDbSpline
70
4
71
3
72
10
73
6
40
0
40
0
40
0
40
0
40
0.334030053675942
40
0.334030053675942
40
1
40
1
40
1
40
1
41
1
10
62.1152169044538
20
33.360839099116
30
0
41
1
10
62.1153918659961
20
33.3492029104786
30
0
41
1
10
62.1126261589639
20
33.3384604046385
30
0
41
1
10
62.0979583359749
20
33.3106649203775
30
0
41
1
10
62.0800208663975
20
33.2968116387455
30
0
41
1
10
62.059385679813
20
33.2864080727168
30
0
0
SPLINE
5
1C3
100
AcDbEntity
8
1
62
256
6
ByLayer
370
13
48
1
60
0
100
AcDbSpline
70
4
71
3
72
8
73
4
40
0
40
0
40
0
40
0
40
1
40
1
40
1
40
1
41
1
10
61.066445598065
20
33.3636030895924
30
0
41
1
10
61.0610646480121
20
33.3841052019822
30
0
41
1
10
61.0558908241366
20
33.4071603280152
30
0
41
1
10
61.0526147090176
20
33.4321565969598
30
0
0
SPLINE
5
1C4
100
AcDbEntity
8
1
62
256
6
ByLayer
370
13
48
1
60
0
100
AcDbSpline
70
4
71
3
72
8
73
4
40
0
40
0
40
0
40
0
40
1
40
1
40
1
40
1
41
1
10
61.0526147090176
20
33.4321565969598
30
0
41
1
10
61.0731026391489
20
33.4379283179316
30
0
41
1
10
61.0938876855838
20
33.4433092032795
30
0
41
1
10
61.1148664719513
20
33.4483353512242
30
0
0
SPLINE
5
1C5
100
AcDbEntity
8
1
62
256
6
ByLayer
370
13
48
1
60
0
100
AcDbSpline
70
4
71
3
72
8
73
4
40
0
40
0
40
0
40
0
40
1
40
1
40
1
40
1
41
1
10
61.1148664719505
20
33.4483353512288
30
0
41
1
10
61.1178417098662
20
33.4490481658633
30
0
41
1
10
61.1208179657885
20
33.4497607058444
30
0
41
1
10
61.1237952140209
20
33.4504729771246
30
0
0
SPLINE
5
1C6
100
AcDbEntity
8
1
62
256
6
ByLayer
370
13
48
1
60
0
100
AcDbSpline
70
4
71
3
72
28
73
24
40
0
40
0
40
0
40
0
40
0.0824331628013926
40
0.0824331628013926
40
0.235485992714892
40
0.235485992714892
40
0.365353750303328
40
0.365353750303328
40
0.450881865339947
40
0.450881865339947
40
0.480850336949852
40
0.480850336949852
40
0.574325592928214
40
0.574325592928214
40
0.597106041801673
40
0.597106041801673
40
0.701976945932075
40
0.701976945932075
40
0.720205522192435
40
0.720205522192435
40
0.850377367168771
40
0.850377367168771
40
1
40
1
40
1
40
1
41
1
10
61.1237952140209
20
33.4504729771246
30
0
41
1
10
61.1477910775769
20
33.4562137024933
30
0
41
1
10
61.1712519946268
20
33.4634339451532
30
0
41
1
10
61.2351496262034
20
33.4886510869011
30
0
41
1
10
61.2740994363458
20
33.5110189582396
30
0
41
1
10
61.3349325388923
20
33.5647054831587
30
0
41
1
10
61.3592944515773
20
33.5950323208523
30
0
41
1
10
61.3879457247084
20
33.6525330980396
30
0
41
1
10
61.3964642542703
20
33.6778747010287
30
0
41
1
10
61.4026326894441
20
33.7131515380253
30
0
41
1
10
61.4037700606155
20
33.7225251950688
30
0
41
1
10
61.4063614612622
20
33.7607668250071
30
0
41
1
10
61.4034520633988
20
33.7905629023472
30
0
41
1
10
61.3943898978955
20
33.8250133988993
30
0
41
1
10
61.3923244016579
20
33.8317672501219
30
0
41
1
10
61.3795450947273
20
33.8684270694998
30
0
41
1
10
61.3637586656491
20
33.8962675286687
30
0
41
1
10
61.3414347991991
20
33.924446416352
30
0
41
1
10
61.337982466813
20
33.9285665771152
30
0
41
1
10
61.3094104165164
20
33.9608841930438
30
0
41
1
10
61.2792041383533
20
33.9842375307649
30
0
41
1
10
61.208915041613
20
34.023876732948
30
0
41
1
10
61.1671153730992
20
34.0391631893085
30
0
41
1
10
61.1237952140209
20
34.0495270228757
30
0
0
SPLINE
5
1C7
100
AcDbEntity
8
1
62
256
6
ByLayer
370
13
48
1
60
0
100
AcDbSpline
70
4
71
3
72
8
73
4
40
0
40
0
40
0
40
0
40
1
40
1
40
1
40
1
41
1
10
61.1237952140209
20
34.0495270228757
30
0
41
1
10
61.1208179657885
20
34.0502392941559
30
0
41
1
10
61.1178417098662
20
34.050951834137
30
0
41
1
10
61.1148664719504
20
34.0516646487714
30
0
0
SPLINE
5
1C8
100
AcDbEntity
8
1
62
256
6
ByLayer
370
13
48
1
60
0
100
AcDbSpline
70
4
71
3
72
8
73
4
40
0
40
0
40
0
40
0
40
1
40
1
40
1
40
1
41
1
10
61.1148664719504
20
34.0516646487714
30
0
41
1
10
61.093887685583
20
34.0566907967161
30
0
41
1
10
61.073102639149
20
34.0620716820735
30
0
41
1
10
61.0526147090178
20
34.0678434030453
30
0
0
SPLINE
5
1C9
100
AcDbEntity
8
1
62
256
6
ByLayer
370
13
48
1
60
0
100
AcDbSpline
70
4
71
3
72
10
73
6
40
0
40
0
40
0
40
0
40
0.151242748517103
40
0.151242748517103
40
1
40
1
40
1
40
1
41
1
10
61.0526147090176
20
34.0678434030405
30
0
41
1
10
61.0531149923945
20
34.0716604904698
30
0
41
1
10
61.0536590318522
20
34.0754307463968
30
0
41
1
10
61.0574716522986
20
34.099811371729
30
0
41
1
10
61.0618827558909
20
34.1190118943509
30
0
41
1
10
61.066445598065
20
34.1363969104079
30
0
0
SPLINE
5
1CA
100
AcDbEntity
8
1
62
256
6
ByLayer
370
13
48
1
60
0
100
AcDbSpline
70
4
71
3
72
14
73
10
40
0
40
0
40
0
40
0
40
0.0180992437321471
40
0.0180992437321471
40
0.327555555031554
40
0.327555555031554
40
0.783089016631575
40
0.783089016631575
40
1
40
1
40
1
40
1
41
1
10
62.0074254881241
20
34.2578681119163
30
0
41
1
10
62.0084604407255
20
34.258131969115
30
0
41
1
10
62.0094951241647
20
34.2584023241465
30
0
41
1
10
62.0281664148288
20
34.2634011585197
30
0
41
1
10
62.0457666302326
20
34.2700605890148
30
0
41
1
10
62.0877311305171
20
34.2907466267472
30
0
41
1
10
62.1118879593938
20
34.3070227106345
30
0
41
1
10
62.1442130974434
20
34.3354853466015
30
0
41
1
10
62.1542531544874
20
34.3454586974447
30
0
41
1
10
62.1636948430209
20
34.3560224675357
30
0
0
SPLINE
5
1CB
100
AcDbEntity
8
1
62
256
6
ByLayer
370
13
48
1
60
0
100
AcDbSpline
70
4
71
3
72
12
73
8
40
0
40
0
40
0
40
0
40
0.0182847240742239
40
0.0182847240742239
40
0.429358008400497
40
0.429358008400497
40
1
40
1
40
1
40
1
41
1
10
62.0074254881188
20
33.2421318880775
30
0
41
1
10
62.008460440725
20
33.2418680308809
30
0
41
1
10
62.0094951241746
20
33.2415976758548
30
0
41
1
10
62.0339733233843
20
33.2350441672397
30
0
41
1
10
62.0574007313324
20
33.2253048616071
30
0
41
1
10
62.1101056255246
20
33.1951449416862
30
0
41
1
10
62.1391079375758
20
33.1714864272398
30
0
41
1
10
62.1636948430209
20
33.1439775324647
30
0
0
SPLINE
5
1CC
100
AcDbEntity
8
1
62
256
6
ByLayer
370
13
48
1
60
0
100
AcDbSpline
70
4
71
3
72
16
73
12
40
0
40
0
40
0
40
0
40
0.266114531305344
40
0.266114531305344
40
0.459598281789052
40
0.459598281789052
40
0.654681344527544
40
0.654681344527544
40
0.849490422247785
40
0.849490422247785
40
1
40
1
40
1
40
1
41
1
10
60.982572519129
20
34.2909556745711
30
0
41
1
10
60.9735711562898
20
34.2873842230481
30
0
41
1
10
60.9640769969269
20
34.2848481182356
30
0
41
1
10
60.9475300168956
20
34.2833831783886
30
0
41
1
10
60.9404025170202
20
34.2836718093884
30
0
41
1
10
60.9266373127103
20
34.2865563606966
30
0
41
1
10
60.9198551395321
20
34.2892285790341
30
0
41
1
10
60.9077423483697
20
34.2968160414451
30
0
41
1
10
60.9022610792339
20
34.3018177214126
30
0
41
1
10
60.8941824291228
20
34.3119514009933
30
0
41
1
10
60.8911392395859
20
34.3168679891546
30
0
41
1
10
60.8886123585657
20
34.3220239392494
30
0
0
SPLINE
5
1CD
100
AcDbEntity
8
1
62
256
6
ByLayer
370
13
48
1
60
0
100
AcDbSpline
70
4
71
3
72
8
73
4
40
0
40
0
40
0
40
0
40
1
40
1
40
1
40
1
41
1
10
60.8886123585655
20
34.3220239392492
30
0
41
1
10
60.8362826886598
20
34.4287995113296
30
0
41
1
10
60.7808772994326
20
34.5343067771636
30
0
41
1
10
60.7172833606158
20
34.6339172375139
30
0
0
SPLINE
5
1CE
100
AcDbEntity
8
1
62
256
6
ByLayer
370
13
48
1
60
0
100
AcDbSpline
70
4
71
3
72
8
73
4
40
0
40
0
40
0
40
0
40
1
40
1
40
1
40
1
41
1
10
60.7172833606114
20
32.8660827624727
30
0
41
1
10
60.7808772994311
20
32.9656932228266
30
0
41
1
10
60.8362826886577
20
33.0712004886665
30
0
41
1
10
60.8886123585655
20
33.1779760607511
30
0
0
SPLINE
5
1CF
100
AcDbEntity
8
1
62
256
6
ByLayer
370
13
48
1
60
0
100
AcDbSpline
70
4
71
3
72
16
73
12
40
0
40
0
40
0
40
0
40
0.0863584761048735
40
0.0863584761048735
40
0.277083676707827
40
0.277083676707827
40
0.497685001356078
40
0.497685001356078
40
0.715930577764417
40
0.715930577764417
40
1
40
1
40
1
40
1
41
1
10
60.8886123585655
20
33.1779760607511
30
0
41
1
10
60.8900705944435
20
33.1809515041351
30
0
41
1
10
60.8916961209682
20
33.1838420565615
30
0
41
1
10
60.8974070451895
20
33.1926430876768
30
0
41
1
10
60.9022173965362
20
33.1981526787155
30
0
41
1
10
60.913997985107
20
33.2077308865677
30
0
41
1
10
60.9213908281853
20
33.2115696222147
30
0
41
1
10
60.9366464624699
20
33.2159642446956
30
0
41
1
10
60.9447053002069
20
33.2166539790172
30
0
41
1
10
60.9627947729502
20
33.2154888489834
30
0
41
1
10
60.9729718531551
20
33.212853561178
30
0
41
1
10
60.982572519129
20
33.2090443254292
30
0
0
SPLINE
5
1D0
100
AcDbEntity
8
1
62
256
6
ByLayer
370
13
48
1
60
0
100
AcDbSpline
70
4
71
3
72
8
73
4
40
0
40
0
40
0
40
0
40
1
40
1
40
1
40
1
41
1
10
62.0074254881232
20
34.257868111919
30
0
41
1
10
62.0252541290505
20
34.243211249672
30
0
41
1
10
62.0426344209389
20
34.2284613647693
30
0
41
1
10
62.0593856798129
20
34.2135919272836
30
0
0
SPLINE
5
1D1
100
AcDbEntity
8
1
62
256
6
ByLayer
370
13
48
1
60
0
100
AcDbSpline
70
4
71
3
72
8
73
4
40
0
40
0
40
0
40
0
40
1
40
1
40
1
40
1
41
1
10
62.3968964503545
20
32.8146362034183
30
0
41
1
10
62.396310722828
20
32.8146495981185
30
0
41
1
10
62.3957150920117
20
32.8145427665704
30
0
41
1
10
62.3951729104351
20
32.8142670230875
30
0
0
SPLINE
5
1D2
100
AcDbEntity
8
1
62
256
6
ByLayer
370
13
48
1
60
0
100
AcDbSpline
70
4
71
3
72
8
73
4
40
0
40
0
40
0
40
0
40
1
40
1
40
1
40
1
41
1
10
62.059385679813
20
33.2864080727168
30
0
41
1
10
62.042634420939
20
33.2715386352311
30
0
41
1
10
62.0252541290505
20
33.2567887503283
30
0
41
1
10
62.0074254881232
20
33.2421318880813
30
0
0
SPLINE
5
1D3
100
AcDbEntity
8
1
62
256
6
ByLayer
370
13
48
1
60
0
100
AcDbSpline
70
4
71
3
72
8
73
4
40
0
40
0
40
0
40
0
40
1
40
1
40
1
40
1
41
1
10
62.4981203716814
20
34.6834334779572
30
0
41
1
10
62.4644516713931
20
34.6854109918587
30
0
41
1
10
62.4306859121295
20
34.6861365103294
30
0
41
1
10
62.3968964503549
20
34.6853637965821
30
0
0
SPLINE
5
1D4
100
AcDbEntity
8
1
62
256
6
ByLayer
370
13
48
1
60
0
100
AcDbSpline
70
4
71
3
72
8
73
4
40
0
40
0
40
0
40
0
40
1
40
1
40
1
40
1
41
1
10
62.4981203716814
20
32.8165665220431
30
0
41
1
10
62.4644516713931
20
32.8145890081416
30
0
41
1
10
62.4306859121295
20
32.8138634896709
30
0
41
1
10
62.3968964503549
20
32.8146362034183
30
0
0
SPLINE
5
1D5
100
AcDbEntity
8
1
62
256
6
ByLayer
370
13
48
1
60
0
100
AcDbSpline
70
4
71
3
72
8
73
4
40
0
40
0
40
0
40
0
40
1
40
1
40
1
40
1
41
1
10
62.3968964503545
20
34.6853637965821
30
0
41
1
10
62.396310722828
20
34.6853504018818
30
0
41
1
10
62.3957150920117
20
34.68545723343
30
0
41
1
10
62.3951729104351
20
34.6857329769129
30
0
0
SPLINE
5
1D6
100
AcDbEntity
8
1
62
256
6
ByLayer
370
13
48
1
60
0
100
AcDbSpline
70
4
71
3
72
12
73
8
40
0
40
0
40
0
40
0
40
0.4751334286001
40
0.4751334286001
40
0.932572567163114
40
0.932572567163114
40
1
40
1
40
1
40
1
41
1
10
62.2632877280429
20
33.3236213331363
30
0
41
1
10
62.268170611684
20
33.3516100967
30
0
41
1
10
62.2754113106086
20
33.3868917686076
30
0
41
1
10
62.2979694230474
20
33.4633230189921
30
0
41
1
10
62.3132711544946
20
33.5051902838905
30
0
41
1
10
62.3372384178264
20
33.5523706808449
30
0
41
1
10
62.3404835236959
20
33.558497376113
30
0
41
1
10
62.3438616980138
20
33.5645968498052
30
0
0
SPLINE
5
1D7
100
AcDbEntity
8
1
62
256
6
ByLayer
370
13
48
1
60
0
100
AcDbSpline
70
4
71
3
72
12
73
8
40
0
40
0
40
0
40
0
40
0.317065405549387
40
0.317065405549387
40
0.935122454125188
40
0.935122454125188
40
1
40
1
40
1
40
1
41
1
10
62.3438616980199
20
33.5645968498002
30
0
41
1
10
62.4265429048384
20
33.5479748316268
30
0
41
1
10
62.5144360245087
20
33.5296902749479
30
0
41
1
10
62.782412259695
20
33.4724847340407
30
0
41
1
10
62.9751745905628
20
33.4294908108076
30
0
41
1
10
63.1879205279658
20
33.3796604576708
30
0
41
1
10
63.2084174418277
20
33.3748346492131
30
0
41
1
10
63.2289221872924
20
33.3699800948358
30
0
0
SPLINE
5
1D8
100
AcDbEntity
8
1
62
256
6
ByLayer
370
13
48
1
60
0
100
AcDbSpline
70
4
71
3
72
12
73
8
40
0
40
0
40
0
40
0
40
0.485156157749666
40
0.485156157749666
40
0.94199112372415
40
0.94199112372415
40
1
40
1
40
1
40
1
41
1
10
62.3438616980128
20
33.9354031501964
30
0
41
1
10
62.3199171752548
20
33.9786362616031
30
0
41
1
10
62.3024624163969
20
34.023648470523
30
0
41
1
10
62.2781770476214
20
34.1021405161354
30
0
41
1
10
62.2704660180375
20
34.1371829011121
30
0
41
1
10
62.2645310175682
20
34.1693436940069
30
0
41
1
10
62.2638924892731
20
34.1729121662617
30
0
41
1
10
62.263287728043
20
34.1763786668637
30
0
0
SPLINE
5
1D9
100
AcDbEntity
8
1
62
256
6
ByLayer
370
13
48
1
60
0
100
AcDbSpline
70
4
71
3
72
12
73
8
40
0
40
0
40
0
40
0
40
0.317065405549387
40
0.317065405549387
40
0.935122454125188
40
0.935122454125188
40
1
40
1
40
1
40
1
41
1
10
62.3438616980199
20
33.9354031502001
30
0
41
1
10
62.4265429048384
20
33.9520251683735
30
0
41
1
10
62.5144360245087
20
33.9703097250524
30
0
41
1
10
62.782412259695
20
34.0275152659596
30
0
41
1
10
62.9751745905628
20
34.0705091891928
30
0
41
1
10
63.1879205279658
20
34.1203395423296
30
0
41
1
10
63.2084174418277
20
34.1251653507872
30
0
41
1
10
63.2289221872924
20
34.1300199051645
30
0
0
SPLINE
5
1DA
100
AcDbEntity
8
1
62
256
6
ByLayer
370
13
48
1
60
0
100
AcDbSpline
70
4
71
3
72
16
73
12
40
0
40
0
40
0
40
0
40
0.261377990657867
40
0.261377990657867
40
0.481934515979472
40
0.481934515979472
40
0.715311182526725
40
0.715311182526725
40
0.913572471675964
40
0.913572471675964
40
1
40
1
40
1
40
1
41
1
10
61.066445598065
20
33.3636030895924
30
0
41
1
10
61.0382650854168
20
33.3658575539514
30
0
41
1
10
61.0094822102569
20
33.3646817515882
30
0
41
1
10
60.9583119591351
20
33.3562126668469
30
0
41
1
10
60.9352599904951
20
33.3498359117629
30
0
41
1
10
60.8908020800964
20
33.3319643788756
30
0
41
1
10
60.8691978826307
20
33.3200358096573
30
0
41
1
10
60.8336106141681
20
33.2937637515207
30
0
41
1
10
60.8187432156443
20
33.2798828132198
30
0
41
1
10
60.8003266032142
20
33.2580201354299
30
0
41
1
10
60.7950841229876
20
33.251081459137
30
0
41
1
10
60.7902464010371
20
33.2439141898037
30
0
0
SPLINE
5
1DB
100
AcDbEntity
8
1
62
256
6
ByLayer
370
13
48
1
60
0
100
AcDbSpline
70
4
71
3
72
16
73
12
40
0
40
0
40
0
40
0
40
0.151923161221768
40
0.151923161221768
40
0.356831087868239
40
0.356831087868239
40
0.562343627100699
40
0.562343627100699
40
0.755962877954035
40
0.755962877954035
40
1
40
1
40
1
40
1
41
1
10
60.7902464010371
20
34.2560858101966
30
0
41
1
10
60.7987219344627
20
34.2435289846024
30
0
41
1
10
60.8084607018454
20
34.2316577056384
30
0
41
1
10
60.8337693949216
20
34.2060228191642
30
0
41
1
10
60.8503767517156
20
34.1928538450244
30
0
41
1
10
60.8864721144675
20
34.170475625246
30
0
41
1
10
60.9062083156532
20
34.1611247325626
30
0
41
1
10
60.9462120188595
20
34.147104845874
30
0
41
1
10
60.9666130313181
20
34.1421118357469
30
0
41
1
10
61.0132843685345
20
34.135173332448
30
0
41
1
10
61.0401191697389
20
34.1342907743306
30
0
41
1
10
61.066445598065
20
34.1363969104079
30
0
0
SPLINE
5
1DC
100
AcDbEntity
8
1
62
256
6
ByLayer
370
13
48
1
60
0
100
AcDbSpline
70
4
71
3
72
10
73
6
40
0
40
0
40
0
40
0
40
0.416310615910619
40
0.416310615910619
40
1
40
1
40
1
40
1
41
1
10
60.7887490202786
20
33.3820021197181
30
0
41
1
10
60.7881183420048
20
33.3616879792262
30
0
41
1
10
60.7879133394439
20
33.3417314123945
30
0
41
1
10
60.7882249830662
20
33.295125506904
30
0
41
1
10
60.7890616222185
20
33.2688584127847
30
0
41
1
10
60.7902464010371
20
33.2439141898037
30
0
0
SPLINE
5
1DD
100
AcDbEntity
8
1
62
256
6
ByLayer
370
13
48
1
60
0
100
AcDbSpline
70
4
71
3
72
8
73
4
40
0
40
0
40
0
40
0
40
1
40
1
40
1
40
1
41
1
10
60.7887490202786
20
33.3820021197181
30
0
41
1
10
60.8019833816743
20
33.3887712790239
30
0
41
1
10
60.8170039201151
20
33.3957822993846
30
0
41
1
10
60.8333034256004
20
33.4026214880426
30
0
0
SPLINE
5
1DE
100
AcDbEntity
8
1
62
256
6
ByLayer
370
13
48
1
60
0
100
AcDbSpline
70
4
71
3
72
14
73
10
40
0
40
0
40
0
40
0
40
0.374928384423448
40
0.374928384423448
40
0.811710849728661
40
0.811710849728661
40
0.984903138272893
40
0.984903138272893
40
1
40
1
40
1
40
1
41
1
10
60.8333034255967
20
33.4026214880388
30
0
41
1
10
60.8561224099593
20
33.4121962164971
30
0
41
1
10
60.8818640226196
20
33.4198570130987
30
0
41
1
10
60.9403666129891
20
33.4313762205394
30
0
41
1
10
60.9743985825837
20
33.4345660854553
30
0
41
1
10
61.0218660913331
20
33.4342697252597
30
0
41
1
10
61.0355336219256
20
33.4336461559148
30
0
41
1
10
61.0502708355023
20
33.4323717685445
30
0
41
1
10
61.0514431034481
20
33.4322664085422
30
0
41
1
10
61.0526147090184
20
33.4321565969601
30
0
0
SPLINE
5
1DF
100
AcDbEntity
8
1
62
256
6
ByLayer
370
13
48
1
60
0
100
AcDbSpline
70
4
71
3
72
14
73
10
40
0
40
0
40
0
40
0
40
0.437747259254554
40
0.437747259254554
40
0.876374424145627
40
0.876374424145627
40
0.984868425798996
40
0.984868425798996
40
1
40
1
40
1
40
1
41
1
10
60.8333034255967
20
34.0973785119615
30
0
41
1
10
60.8598845893819
20
34.0862251923687
30
0
41
1
10
60.8905059503584
20
34.0776627181581
30
0
41
1
10
60.9548008624908
20
34.0669887063208
30
0
41
1
10
60.9893598844024
20
34.0647446589913
30
0
41
1
10
61.0320199308042
20
34.0662698214387
30
0
41
1
10
61.040577126936
20
34.0667899766272
30
0
41
1
10
61.0502708354997
20
34.0676282314979
30
0
41
1
10
61.0514431034473
20
34.0677335914687
30
0
41
1
10
61.0526147090184
20
34.0678434030402
30
0
0
SPLINE
5
1E0
100
AcDbEntity
8
1
62
256
6
ByLayer
370
13
48
1
60
0
100
AcDbSpline
70
4
71
3
72
8
73
4
40
0
40
0
40
0
40
0
40
1
40
1
40
1
40
1
41
1
10
60.7887490202786
20
34.1179978802823
30
0
41
1
10
60.8019833816743
20
34.1112287209764
30
0
41
1
10
60.8170039201151
20
34.1042177006157
30
0
41
1
10
60.8333034256004
20
34.0973785119577
30
0
0
SPLINE
5
1E1
100
AcDbEntity
8
1
62
256
6
ByLayer
370
13
48
1
60
0
100
AcDbSpline
70
4
71
3
72
10
73
6
40
0
40
0
40
0
40
0
40
0.583689384089929
40
0.583689384089929
40
1
40
1
40
1
40
1
41
1
10
60.7902464010371
20
34.2560858101966
30
0
41
1
10
60.7890616222185
20
34.2311415872155
30
0
41
1
10
60.7882249830662
20
34.2048744930963
30
0
41
1
10
60.7879133394439
20
34.1582685876059
30
0
41
1
10
60.7881183420067
20
34.1383120207761
30
0
41
1
10
60.7887490202805
20
34.1179978802843
30
0
0
SPLINE
5
1E2
100
AcDbEntity
8
1
62
256
6
ByLayer
370
13
48
1
60
0
100
AcDbSpline
70
4
71
3
72
12
73
8
40
0
40
0
40
0
40
0
40
0.0293465478546648
40
0.0293465478546648
40
0.716199296865611
40
0.716199296865611
40
1
40
1
40
1
40
1
41
1
10
60.7172833606159
20
34.6339172375139
30
0
41
1
10
60.7164151126999
20
34.6333880477088
30
0
41
1
10
60.7155496765877
20
34.6328589381976
30
0
41
1
10
60.6947885333711
20
34.6201172448753
30
0
41
1
10
60.6762446429395
20
34.6076860493394
30
0
41
1
10
60.6544391961912
20
34.5914831342279
30
0
41
1
10
60.6484807608144
20
34.586825601592
30
0
41
1
10
60.6431084369488
20
34.5823796559064
30
0
0
SPLINE
5
1E3
100
AcDbEntity
8
1
62
256
6
ByLayer
370
13
48
1
60
0
100
AcDbSpline
70
4
71
3
72
8
73
4
40
0
40
0
40
0
40
0
40
1
40
1
40
1
40
1
41
1
10
60.6347524090111
20
34.5759843313461
30
0
41
1
10
60.6914003240086
20
34.4719070175356
30
0
41
1
10
60.7417769804953
20
34.3643116460176
30
0
41
1
10
60.7902464010371
20
34.2560858101966
30
0
0
SPLINE
5
1E4
100
AcDbEntity
8
1
62
256
6
ByLayer
370
13
48
1
60
0
100
AcDbSpline
70
4
71
3
72
8
73
4
40
0
40
0
40
0
40
0
40
1
40
1
40
1
40
1
41
1
10
60.6431084369488
20
34.5823796559064
30
0
41
1
10
60.6402587641266
20
34.5800213672229
30
0
41
1
10
60.6374665445716
20
34.5778845453612
30
0
41
1
10
60.6347524090111
20
34.5759843313461
30
0
0
SPLINE
5
1E5
100
AcDbEntity
8
1
62
256
6
ByLayer
370
13
48
1
60
0
100
AcDbSpline
70
4
71
3
72
12
73
8
40
0
40
0
40
0
40
0
40
0.0294712126629231
40
0.0294712126629231
40
0.622158766529877
40
0.622158766529877
40
1
40
1
40
1
40
1
41
1
10
60.7172833606158
20
32.8660827624863
30
0
41
1
10
60.7164151127001
20
32.8666119522929
30
0
41
1
10
60.7155496765893
20
32.8671410618078
30
0
41
1
10
60.6974755734967
20
32.8782336435414
30
0
41
1
10
60.681298588819
20
32.8889407817579
30
0
41
1
10
60.6583964628079
20
32.905451366143
30
0
41
1
10
60.6502306848161
20
32.9117262230452
30
0
41
1
10
60.6431084369487
20
32.917620344094
30
0
0
SPLINE
5
1E6
100
AcDbEntity
8
1
62
256
6
ByLayer
370
13
48
1
60
0
100
AcDbSpline
70
4
71
3
72
8
73
4
40
0
40
0
40
0
40
0
40
1
40
1
40
1
40
1
41
1
10
60.6431084369444
20
32.9176203440839
30
0
41
1
10
60.6402587641224
20
32.9199786327673
30
0
41
1
10
60.6374665445714
20
32.9221154546393
30
0
41
1
10
60.6347524090111
20
32.9240156686542
30
0
0
SPLINE
5
1E7
100
AcDbEntity
8
1
62
256
6
ByLayer
370
13
48
1
60
0
100
AcDbSpline
70
4
71
3
72
8
73
4
40
0
40
0
40
0
40
0
40
1
40
1
40
1
40
1
41
1
10
60.7902464010371
20
33.2439141898037
30
0
41
1
10
60.7417769804953
20
33.1356883539827
30
0
41
1
10
60.6914003240086
20
33.0280929824647
30
0
41
1
10
60.6347524090111
20
32.9240156686542
30
0
0
SPLINE
5
1E8
100
AcDbEntity
8
1
62
256
6
ByLayer
370
13
48
1
60
0
100
AcDbSpline
70
4
71
3
72
26
73
22
40
0
40
0
40
0
40
0
40
0.0827515238844934
40
0.0827515238844934
40
0.12581559206367
40
0.12581559206367
40
0.250670450127126
40
0.250670450127126
40
0.38565988459967
40
0.38565988459967
40
0.523243120522087
40
0.523243120522087
40
0.658177082710726
40
0.658177082710726
40
0.794420311219042
40
0.794420311219042
40
0.893778828576378
40
0.893778828576378
40
0.931785368228296
40
0.931785368228296
40
1
40
1
40
1
40
1
41
1
10
61.0082223121694
20
33.9473354503652
30
0
41
1
10
61.0214322023478
20
33.9427720963305
30
0
41
1
10
61.0338393291366
20
33.9365896158335
30
0
41
1
10
61.0501644631609
20
33.9252889499231
30
0
41
1
10
61.0554067929996
20
33.9210263990613
30
0
41
1
10
61.074118215414
20
33.9034095946136
30
0
41
1
10
61.0849906535054
20
33.8876447930737
30
0
41
1
10
61.1024421427666
20
33.8515451025304
30
0
41
1
10
61.1088810701151
20
33.8303595141143
30
0
41
1
10
61.1169546526535
20
33.7857355967921
30
0
41
1
10
61.1185900386567
20
33.7616020007158
30
0
41
1
10
61.1169724550515
20
33.7150166401699
30
0
41
1
10
61.1137934005018
20
33.6918867193593
30
0
41
1
10
61.102625611521
20
33.6492301637872
30
0
41
1
10
61.0944617984534
20
33.6291141274303
30
0
41
1
10
61.0752524001787
20
33.5989445523606
30
0
41
1
10
61.0653654595555
20
33.5873548876064
30
0
41
1
10
61.0489068076275
20
33.5738073635621
30
0
41
1
10
61.0440023231556
20
33.5702823146802
30
0
41
1
10
61.0295383953428
20
33.5613059020664
30
0
41
1
10
61.0191535387159
20
33.5564407397541
30
0
41
1
10
61.0082223121694
20
33.5526645496351
30
0
0
SPLINE
5
1E9
100
AcDbEntity
8
1
62
256
6
ByLayer
370
13
48
1
60
0
100
AcDbSpline
70
4
71
3
72
12
73
8
40
0
40
0
40
0
40
0
40
0.0293420255455753
40
0.0293420255455753
40
0.716180168206404
40
0.716180168206404
40
1
40
1
40
1
40
1
41
1
10
60.7172833606158
20
34.6339172375139
30
0
41
1
10
60.7162857859541
20
34.6338356004969
30
0
41
1
10
60.7152910702585
20
34.6337539703258
30
0
41
1
10
60.6914121035416
20
34.6317882020652
30
0
41
1
10
60.6698109573742
20
34.6298735124066
30
0
41
1
10
60.6439993417919
20
34.6273815158013
30
0
41
1
10
60.636886377975
20
34.6266656215297
30
0
41
1
10
60.6304097099876
20
34.6259826339723
30
0
0
SPLINE
5
1EA
100
AcDbEntity
8
1
62
256
6
ByLayer
370
13
48
1
60
0
100
AcDbSpline
70
4
71
3
72
14
73
10
40
0
40
0
40
0
40
0
40
0.375382008196676
40
0.375382008196676
40
0.812033352237096
40
0.812033352237096
40
0.984956163702167
40
0.984956163702167
40
1
40
1
40
1
40
1
41
1
10
60.8913621168403
20
33.5004526982968
30
0
41
1
10
60.9090719196109
20
33.5013163455653
30
0
41
1
10
60.9286858369908
20
33.49847805654
30
0
41
1
10
60.9723411561591
20
33.4846920765785
30
0
41
1
10
60.9971677204448
20
33.4723111202343
30
0
41
1
10
61.0310180351575
20
33.4493117538476
30
0
41
1
10
61.0406668461475
20
33.4420526375946
30
0
41
1
10
61.0509791789014
20
33.4335250737663
30
0
41
1
10
61.0517970365625
20
33.432842749168
30
0
41
1
10
61.0526147090192
20
33.4321565969638
30
0
0
SPLINE
5
1EB
100
AcDbEntity
8
1
62
256
6
ByLayer
370
13
48
1
60
0
100
AcDbSpline
70
4
71
3
72
14
73
10
40
0
40
0
40
0
40
0
40
0.438226381079498
40
0.438226381079498
40
0.876606497754705
40
0.876606497754705
40
0.984922379464605
40
0.984922379464605
40
1
40
1
40
1
40
1
41
1
10
60.8913621168403
20
33.9995473017035
30
0
41
1
10
60.9119904710235
20
33.9985413265397
30
0
41
1
10
60.9352526901998
20
34.0025916152331
30
0
41
1
10
60.9829208610343
20
34.0202028482761
30
0
41
1
10
61.0079577365152
20
34.0340019869653
30
0
41
1
10
61.0381767807406
20
34.0561714015671
30
0
41
1
10
61.044197494551
20
34.0608669568703
30
0
41
1
10
61.0509791789019
20
34.0664749262336
30
0
41
1
10
61.0517970365626
20
34.0671572508322
30
0
41
1
10
61.0526147090192
20
34.0678434030365
30
0
0
SPLINE
5
1EC
100
AcDbEntity
8
1
62
256
6
ByLayer
370
13
48
1
60
0
100
AcDbSpline
70
4
71
3
72
12
73
8
40
0
40
0
40
0
40
0
40
0.0294665749521175
40
0.0294665749521175
40
0.622136526669372
40
0.622136526669372
40
1
40
1
40
1
40
1
41
1
10
60.7172833606161
20
32.8660827624864
30
0
41
1
10
60.7162857859714
20
32.8661643997327
30
0
41
1
10
60.7152910703255
20
32.8662460305915
30
0
41
1
10
60.6945028901904
20
32.8679573537702
30
0
41
1
10
60.6756947131271
20
32.8696068887843
30
0
41
1
10
60.6487161066196
20
32.8721472603601
30
0
41
1
10
60.638995974047
20
32.8731119140998
30
0
41
1
10
60.6304097099877
20
32.874017366028
30
0
0
SPLINE
5
1ED
100
AcDbEntity
8
1
62
256
6
ByLayer
370
13
48
1
60
0
100
AcDbSpline
70
4
71
3
72
8
73
4
40
0
40
0
40
0
40
0
40
1
40
1
40
1
40
1
41
1
10
60.8913621168403
20
33.9995473017035
30
0
41
1
10
60.9259374584494
20
33.9819166301835
30
0
41
1
10
60.9621644089747
20
33.9656245154673
30
0
41
1
10
60.9995036654583
20
33.9507556517985
30
0
0
SPLINE
5
1EE
100
AcDbEntity
8
1
62
256
6
ByLayer
370
13
48
1
60
0
100
AcDbSpline
70
4
71
3
72
8
73
4
40
0
40
0
40
0
40
0
40
1
40
1
40
1
40
1
41
1
10
60.9995036654583
20
33.5492443482019
30
0
41
1
10
60.9621644089747
20
33.534375484533
30
0
41
1
10
60.9259374584494
20
33.5180833698169
30
0
41
1
10
60.8913621168403
20
33.5004526982968
30
0
0
SPLINE
5
1EF
100
AcDbEntity
8
1
62
256
6
ByLayer
370
13
48
1
60
0
100
AcDbSpline
70
4
71
3
72
10
73
6
40
0
40
0
40
0
40
0
40
0.848569790661836
40
0.848569790661836
40
1
40
1
40
1
40
1
41
1
10
64.9256934551194
20
34.3745788312227
30
0
41
1
10
64.8913120258512
20
34.4264209108484
30
0
41
1
10
64.8438979962596
20
34.4698795395595
30
0
41
1
10
64.7838192549264
20
34.5119087603841
30
0
41
1
10
64.774454665912
20
34.5181215620121
30
0
41
1
10
64.7649581024897
20
34.5241186981633
30
0
0
SPLINE
5
1F0
100
AcDbEntity
8
1
62
256
6
ByLayer
370
13
48
1
60
0
100
AcDbSpline
70
4
71
3
72
8
73
4
40
0
40
0
40
0
40
0
40
1
40
1
40
1
40
1
41
1
10
64.7649581024897
20
34.5241186981633
30
0
41
1
10
64.7210882094167
20
34.5518227959511
30
0
41
1
10
64.677016260541
20
34.5792127140155
30
0
41
1
10
64.6326256850655
20
34.6060732595585
30
0
0
SPLINE
5
1F1
100
AcDbEntity
8
1
62
256
6
ByLayer
370
13
48
1
60
0
100
AcDbSpline
70
4
71
3
72
10
73
6
40
0
40
0
40
0
40
0
40
0.654900204513161
40
0.654900204513161
40
1
40
1
40
1
40
1
41
1
10
64.6326256850655
20
34.6060732595585
30
0
41
1
10
64.6093808214963
20
34.6201386261332
30
0
41
1
10
64.5866679047492
20
34.6353717983153
30
0
41
1
10
64.5550034980856
20
34.6622122939029
30
0
41
1
10
64.5445398484844
20
34.6721988227361
30
0
41
1
10
64.535515563742
20
34.6833503594267
30
0
0
SPLINE
5
1F2
100
AcDbEntity
8
1
62
256
6
ByLayer
370
13
48
1
60
0
100
AcDbSpline
70
4
71
3
72
10
73
6
40
0
40
0
40
0
40
0
40
0.654900204513161
40
0.654900204513161
40
1
40
1
40
1
40
1
41
1
10
64.6326256850655
20
32.8939267404418
30
0
41
1
10
64.6093808214963
20
32.8798613738672
30
0
41
1
10
64.5866679047492
20
32.864628201685
30
0
41
1
10
64.5550034980856
20
32.8377877060974
30
0
41
1
10
64.5445398484844
20
32.8278011772642
30
0
41
1
10
64.535515563742
20
32.8166496405736
30
0
0
SPLINE
5
1F3
100
AcDbEntity
8
1
62
256
6
ByLayer
370
13
48
1
60
0
100
AcDbSpline
70
4
71
3
72
8
73
4
40
0
40
0
40
0
40
0
40
1
40
1
40
1
40
1
41
1
10
64.7649581024897
20
32.975881301837
30
0
41
1
10
64.7210882094167
20
32.9481772040492
30
0
41
1
10
64.677016260541
20
32.9207872859848
30
0
41
1
10
64.6326256850655
20
32.8939267404418
30
0
0
SPLINE
5
1F4
100
AcDbEntity
8
1
62
256
6
ByLayer
370
13
48
1
60
0
100
AcDbSpline
70
4
71
3
72
10
73
6
40
0
40
0
40
0
40
0
40
0.848569790661836
40
0.848569790661836
40
1
40
1
40
1
40
1
41
1
10
64.9256934551194
20
33.1254211687776
30
0
41
1
10
64.8913120258512
20
33.0735790891519
30
0
41
1
10
64.8438979962596
20
33.0301204604409
30
0
41
1
10
64.7838192549264
20
32.9880912396162
30
0
41
1
10
64.774454665912
20
32.9818784379882
30
0
41
1
10
64.7649581024897
20
32.975881301837
30
0
0
SPLINE
5
1F5
100
AcDbEntity
8
1
62
256
6
ByLayer
370
13
48
1
60
0
100
AcDbSpline
70
4
71
3
72
8
73
4
40
0
40
0
40
0
40
0
40
1
40
1
40
1
40
1
41
1
10
64.4647600217523
20
34.735975939378
30
0
41
1
10
64.3478211015788
20
34.7665185658308
30
0
41
1
10
64.2264898807149
20
34.7813372267109
30
0
41
1
10
64.1060768987951
20
34.7839602664968
30
0
0
SPLINE
5
1F6
100
AcDbEntity
8
1
62
256
6
ByLayer
370
13
48
1
60
0
100
AcDbSpline
70
4
71
3
72
10
73
6
40
0
40
0
40
0
40
0
40
0.635943996638209
40
0.635943996638209
40
1
40
1
40
1
40
1
41
1
10
64.5901406592828
20
32.9552637254293
30
0
41
1
10
64.5670478691557
20
32.9356793338434
30
0
41
1
10
64.5452589478458
20
32.9140127111219
30
0
41
1
10
64.5163860503718
20
32.8755597344631
30
0
41
1
10
64.5069119843144
20
32.8604826588818
30
0
41
1
10
64.4995357068632
20
32.8443639435978
30
0
0
SPLINE
5
1F7
100
AcDbEntity
8
1
62
256
6
ByLayer
370
13
48
1
60
0
100
AcDbSpline
70
4
71
3
72
16
73
12
40
0
40
0
40
0
40
0
40
0.0355583019934282
40
0.0355583019934282
40
0.0904281096557084
40
0.0904281096557084
40
0.198001345750339
40
0.198001345750339
40
0.437176612921005
40
0.437176612921005
40
1
40
1
40
1
40
1
41
1
10
64.4647600217523
20
34.7359759393781
30
0
41
1
10
64.4651593706654
20
34.7350095259848
30
0
41
1
10
64.4655599456349
20
34.7340435966875
30
0
41
1
10
64.4665795843354
20
34.7315837044207
30
0
41
1
10
64.4671995476743
20
34.7300901041744
30
0
41
1
10
64.4690371309081
20
34.7256701246159
30
0
41
1
10
64.4702570500455
20
34.7227449890973
30
0
41
1
10
64.47419943455
20
34.7133299785712
30
0
41
1
10
64.4769367796375
20
34.7068505766711
30
0
41
1
10
64.4861842955317
20
34.685268793858
30
0
41
1
10
64.4928353954249
20
34.6702776439931
30
0
41
1
10
64.4995357068632
20
34.6556360564025
30
0
0
SPLINE
5
1F8
100
AcDbEntity
8
1
62
256
6
ByLayer
370
13
48
1
60
0
100
AcDbSpline
70
4
71
3
72
10
73
6
40
0
40
0
40
0
40
0
40
0.635943996638209
40
0.635943996638209
40
1
40
1
40
1
40
1
41
1
10
64.5901406592828
20
34.544736274571
30
0
41
1
10
64.5670478691557
20
34.5643206661569
30
0
41
1
10
64.5452589478458
20
34.5859872888784
30
0
41
1
10
64.5163860503718
20
34.6244402655372
30
0
41
1
10
64.5069119843144
20
34.6395173411185
30
0
41
1
10
64.4995357068632
20
34.6556360564025
30
0
0
SPLINE
5
1F9
100
AcDbEntity
8
1
62
256
6
ByLayer
370
13
48
1
60
0
100
AcDbSpline
70
4
71
3
72
16
73
12
40
0
40
0
40
0
40
0
40
0.0355583019934282
40
0.0355583019934282
40
0.0904281096557084
40
0.0904281096557084
40
0.198001345750339
40
0.198001345750339
40
0.437176612921005
40
0.437176612921005
40
1
40
1
40
1
40
1
41
1
10
64.4647600217523
20
32.7640240606223
30
0
41
1
10
64.4651593706654
20
32.7649904740155
30
0
41
1
10
64.4655599456349
20
32.7659564033128
30
0
41
1
10
64.4665795843354
20
32.7684162955796
30
0
41
1
10
64.4671995476743
20
32.7699098958259
30
0
41
1
10
64.4690371309081
20
32.7743298753844
30
0
41
1
10
64.4702570500455
20
32.777255010903
30
0
41
1
10
64.47419943455
20
32.7866700214292
30
0
41
1
10
64.4769367796375
20
32.7931494233292
30
0
41
1
10
64.4861842955317
20
32.8147312061423
30
0
41
1
10
64.4928353954249
20
32.8297223560072
30
0
41
1
10
64.4995357068632
20
32.8443639435978
30
0
0
SPLINE
5
1FA
100
AcDbEntity
8
1
62
256
6
ByLayer
370
13
48
1
60
0
100
AcDbSpline
70
4
71
3
72
8
73
4
40
0
40
0
40
0
40
0
40
1
40
1
40
1
40
1
41
1
10
64.4647600217523
20
32.7640240606223
30
0
41
1
10
64.3478211015788
20
32.7334814341695
30
0
41
1
10
64.2264898807149
20
32.7186627732894
30
0
41
1
10
64.1060768987951
20
32.7160397335035
30
0
0
SPLINE
5
1FB
100
AcDbEntity
8
1
62
256
6
ByLayer
370
13
48
1
60
0
100
AcDbSpline
70
4
71
3
72
12
73
8
40
0
40
0
40
0
40
0
40
0.351723890194534
40
0.351723890194534
40
0.712129136736367
40
0.712129136736367
40
1
40
1
40
1
40
1
41
1
10
62.3438616980132
20
33.5645968498054
30
0
41
1
10
62.3585427486301
20
33.6055590066456
30
0
41
1
10
62.3694774148618
20
33.6491737600136
30
0
41
1
10
62.3795833503618
20
33.738700954918
30
0
41
1
10
62.3783942316413
20
33.7855343000978
30
0
41
1
10
62.3654620411648
20
33.8664197112452
30
0
41
1
10
62.3559204052135
20
33.9017576933054
30
0
41
1
10
62.3438616980127
20
33.9354031501963
30
0
0
SPLINE
5
1FC
100
AcDbEntity
8
1
62
256
6
ByLayer
370
13
48
1
60
0
100
AcDbSpline
70
4
71
3
72
8
73
4
40
0
40
0
40
0
40
0
40
1
40
1
40
1
40
1
41
1
10
60.9995036654583
20
33.9507556517985
30
0
41
1
10
61.0024077881538
20
33.9496154590188
30
0
41
1
10
61.005314019696
20
33.9484753916643
30
0
41
1
10
61.0082223121694
20
33.9473354503652
30
0
0
SPLINE
5
1FD
100
AcDbEntity
8
1
62
256
6
ByLayer
370
13
48
1
60
0
100
AcDbSpline
70
4
71
3
72
8
73
4
40
0
40
0
40
0
40
0
40
1
40
1
40
1
40
1
41
1
10
61.0082223121694
20
33.5526645496351
30
0
41
1
10
61.005314019696
20
33.551524608336
30
0
41
1
10
61.0024077881538
20
33.5503845409815
30
0
41
1
10
60.9995036654583
20
33.5492443482019
30
0
0
SPLINE
5
1FE
100
AcDbEntity
8
1
62
256
6
ByLayer
370
13
48
1
60
0
100
AcDbSpline
70
4
71
3
72
8
73
4
40
0
40
0
40
0
40
0
40
1
40
1
40
1
40
1
41
1
10
60.6282766666318
20
32.8745620718587
30
0
41
1
10
60.6289998534677
20
32.8745620718592
30
0
41
1
10
60.6297316666812
20
32.8743886368036
30
0
41
1
10
60.6304097099815
20
32.8740173660708
30
0
0
SPLINE
5
1FF
100
AcDbEntity
8
1
62
256
6
ByLayer
370
13
48
1
60
0
100
AcDbSpline
70
4
71
3
72
8
73
4
40
0
40
0
40
0
40
0
40
1
40
1
40
1
40
1
41
1
10
60.6304097099815
20
34.6259826339683
30
0
41
1
10
60.6297316666801
20
34.625611363233
30
0
41
1
10
60.6289998534692
20
34.6254379281355
30
0
41
1
10
60.6282766666318
20
34.6254379281355
30
0
0
SPLINE
5
200
100
AcDbEntity
8
1
62
256
6
ByLayer
370
13
48
1
60
0
100
AcDbSpline
70
4
71
3
72
8
73
4
40
0
40
0
40
0
40
0
40
1
40
1
40
1
40
1
41
1
10
60.8769872801694
20
34.0010243555531
30
0
41
1
10
60.8809941941598
20
34.0010243555531
30
0
41
1
10
60.8858744381613
20
34.0005428625353
30
0
41
1
10
60.8913621168403
20
33.9995473017035
30
0
0
SPLINE
5
201
100
AcDbEntity
8
1
62
256
6
ByLayer
370
13
48
1
60
0
100
AcDbSpline
70
4
71
3
72
8
73
4
40
0
40
0
40
0
40
0
40
1
40
1
40
1
40
1
41
1
10
60.8913621168403
20
33.5004526982968
30
0
41
1
10
60.8858744381611
20
33.499457137465
30
0
41
1
10
60.8809941941611
20
33.4989756444511
30
0
41
1
10
60.8769872801707
20
33.4989756444512
30
0
0
SPLINE
5
202
100
AcDbEntity
8
1
62
256
6
ByLayer
370
13
48
1
60
0
100
AcDbSpline
70
4
71
3
72
10
73
6
40
0
40
0
40
0
40
0
40
0.155458310972556
40
0.155458310972556
40
1
40
1
40
1
40
1
41
1
10
64.7213347612452
20
34.4635674366503
30
0
41
1
10
64.7303785370381
20
34.4587473576067
30
0
41
1
10
64.7393254653622
20
34.4537410998011
30
0
41
1
10
64.7954964008331
20
34.4205991260888
30
0
41
1
10
64.8409371698565
20
34.3863327049748
30
0
41
1
10
64.8749845771853
20
34.3432282038532
30
0
0
SPLINE
5
203
100
AcDbEntity
8
1
62
256
6
ByLayer
370
13
48
1
60
0
100
AcDbSpline
70
4
71
3
72
8
73
4
40
0
40
0
40
0
40
0
40
1
40
1
40
1
40
1
41
1
10
64.1060768987951
20
32.7160397335035
30
0
41
1
10
63.9916344595783
20
32.7134163911212
30
0
41
1
10
63.874906152167
20
32.7174545242289
30
0
41
1
10
63.7587805434612
20
32.7131487032137
30
0
0
SPLINE
5
204
100
AcDbEntity
8
1
62
256
6
ByLayer
370
13
48
1
60
0
100
AcDbSpline
70
4
71
3
72
16
73
12
40
0
40
0
40
0
40
0
40
0.0355250902269691
40
0.0355250902269691
40
0.0916529298118417
40
0.0916529298118417
40
0.199749877619611
40
0.199749877619611
40
0.438904840271112
40
0.438904840271112
40
1
40
1
40
1
40
1
41
1
10
64.4647600217524
20
34.735975939378
30
0
41
1
10
64.4655860030917
20
34.7353429112801
30
0
41
1
10
64.4664129457398
20
34.7347104386634
30
0
41
1
10
64.4685502103391
20
34.7330759752779
30
0
41
1
10
64.4698615812701
20
34.7320743237783
30
0
41
1
10
64.4737020316477
20
34.7291446752621
30
0
41
1
10
64.4762348060013
20
34.727217337541
30
0
41
1
10
64.4843821111612
20
34.7210347420711
30
0
41
1
10
64.490015337342
20
34.7167859705249
30
0
41
1
10
64.5088835392968
20
34.7026672861952
30
0
41
1
10
64.5222269173127
20
34.6928820354325
30
0
41
1
10
64.535515563742
20
34.6833503594267
30
0
0
SPLINE
5
205
100
AcDbEntity
8
1
62
256
6
ByLayer
370
13
48
1
60
0
100
AcDbSpline
70
4
71
3
72
10
73
6
40
0
40
0
40
0
40
0
40
0.155458310972556
40
0.155458310972556
40
1
40
1
40
1
40
1
41
1
10
64.7213347612452
20
33.03643256335
30
0
41
1
10
64.7303785370381
20
33.0412526423936
30
0
41
1
10
64.7393254653622
20
33.0462589001993
30
0
41
1
10
64.7954964008331
20
33.0794008739116
30
0
41
1
10
64.8409371698565
20
33.1136672950256
30
0
41
1
10
64.8749845771853
20
33.1567717961471
30
0
0
SPLINE
5
206
100
AcDbEntity
8
1
62
256
6
ByLayer
370
13
48
1
60
0
100
AcDbSpline
70
4
71
3
72
12
73
8
40
0
40
0
40
0
40
0
40
0.447676549458682
40
0.447676549458682
40
0.911865963480885
40
0.911865963480885
40
1
40
1
40
1
40
1
41
1
10
64.8964397360486
20
34.3154215696971
30
0
41
1
10
64.9088546309063
20
34.2989915787107
30
0
41
1
10
64.9197349842375
20
34.2811598569945
30
0
41
1
10
64.9363651532996
20
34.2427597147235
30
0
41
1
10
64.9420103553973
20
34.2216639319447
30
0
41
1
10
64.9439641163249
20
34.1963934864674
30
0
41
1
10
64.9441371532748
20
34.1922988701591
30
0
41
1
10
64.9441651422481
20
34.1882057701251
30
0
0
SPLINE
5
207
100
AcDbEntity
8
1
62
256
6
ByLayer
370
13
48
1
60
0
100
AcDbSpline
70
4
71
3
72
14
73
10
40
0
40
0
40
0
40
0
40
0.0334466877100648
40
0.0334466877100648
40
0.147634490130718
40
0.147634490130718
40
0.594775924699149
40
0.594775924699149
40
1
40
1
40
1
40
1
41
1
10
64.4213727254144
20
34.1987731616329
30
0
41
1
10
64.4272002143373
20
34.1989918760626
30
0
41
1
10
64.4330293219699
20
34.1991642271022
30
0
41
1
10
64.4587574615068
20
34.1997120032927
30
0
41
1
10
64.4786653670228
20
34.1993881038736
30
0
41
1
10
64.5764941455489
20
34.1977035844337
30
0
41
1
10
64.6544227194233
20
34.1962526243355
30
0
41
1
10
64.8029558192713
20
34.1925692061205
30
0
41
1
10
64.873564429311
20
34.1905222623144
30
0
41
1
10
64.9441651422593
20
34.188205770126
30
0
0
SPLINE
5
208
100
AcDbEntity
8
1
62
256
6
ByLayer
370
13
48
1
60
0
100
AcDbSpline
70
4
71
3
72
16
73
12
40
0
40
0
40
0
40
0
40
0.0355250902269691
40
0.0355250902269691
40
0.0916529298118418
40
0.0916529298118418
40
0.199749877619611
40
0.199749877619611
40
0.438904840271112
40
0.438904840271112
40
1
40
1
40
1
40
1
41
1
10
64.4647600217524
20
32.7640240606223
30
0
41
1
10
64.4655860030917
20
32.7646570887202
30
0
41
1
10
64.4664129457398
20
32.7652895613369
30
0
41
1
10
64.4685502103391
20
32.7669240247224
30
0
41
1
10
64.4698615812701
20
32.767925676222
30
0
41
1
10
64.4737020316477
20
32.7708553247382
30
0
41
1
10
64.4762348060014
20
32.7727826624593
30
0
41
1
10
64.4843821111612
20
32.7789652579292
30
0
41
1
10
64.490015337342
20
32.7832140294754
30
0
41
1
10
64.5088835392968
20
32.7973327138051
30
0
41
1
10
64.5222269173127
20
32.8071179645678
30
0
41
1
10
64.535515563742
20
32.8166496405736
30
0
0
SPLINE
5
209
100
AcDbEntity
8
1
62
256
6
ByLayer
370
13
48
1
60
0
100
AcDbSpline
70
4
71
3
72
8
73
4
40
0
40
0
40
0
40
0
40
1
40
1
40
1
40
1
41
1
10
64.1060768987951
20
34.7839602664968
30
0
41
1
10
63.9916344595783
20
34.7865836088791
30
0
41
1
10
63.874906152167
20
34.7825454757714
30
0
41
1
10
63.7587805434612
20
34.7868512967866
30
0
0
SPLINE
5
20A
100
AcDbEntity
8
1
62
256
6
ByLayer
370
13
48
1
60
0
100
AcDbSpline
70
4
71
3
72
8
73
4
40
0
40
0
40
0
40
0
40
1
40
1
40
1
40
1
41
1
10
64.8749845771853
20
34.3432282038532
30
0
41
1
10
64.8822290280935
20
34.3340566261386
30
0
41
1
10
64.8893756868009
20
34.3247702002573
30
0
41
1
10
64.8964397360486
20
34.3154215696971
30
0
0
SPLINE
5
20B
100
AcDbEntity
8
1
62
256
6
ByLayer
370
13
48
1
60
0
100
AcDbSpline
70
4
71
3
72
14
73
10
40
0
40
0
40
0
40
0
40
0.0334466877100648
40
0.0334466877100648
40
0.147634490130718
40
0.147634490130718
40
0.594775924699149
40
0.594775924699149
40
1
40
1
40
1
40
1
41
1
10
64.4213727254144
20
33.3012268383674
30
0
41
1
10
64.4272002143373
20
33.3010081239377
30
0
41
1
10
64.4330293219699
20
33.3008357728981
30
0
41
1
10
64.4587574615068
20
33.3002879967077
30
0
41
1
10
64.4786653670228
20
33.3006118961267
30
0
41
1
10
64.5764941455489
20
33.3022964155666
30
0
41
1
10
64.6544227194233
20
33.3037473756648
30
0
41
1
10
64.8029558192713
20
33.3074307938798
30
0
41
1
10
64.873564429311
20
33.3094777376859
30
0
41
1
10
64.9441651422593
20
33.3117942298743
30
0
0
SPLINE
5
20C
100
AcDbEntity
8
1
62
256
6
ByLayer
370
13
48
1
60
0
100
AcDbSpline
70
4
71
3
72
12
73
8
40
0
40
0
40
0
40
0
40
0.447676549458682
40
0.447676549458682
40
0.911865963480885
40
0.911865963480885
40
1
40
1
40
1
40
1
41
1
10
64.8964397360486
20
33.1845784303032
30
0
41
1
10
64.9088546309063
20
33.2010084212897
30
0
41
1
10
64.9197349842375
20
33.2188401430058
30
0
41
1
10
64.9363651532996
20
33.2572402852768
30
0
41
1
10
64.9420103553973
20
33.2783360680556
30
0
41
1
10
64.9439641163249
20
33.3036065135329
30
0
41
1
10
64.9441371532748
20
33.3077011298412
30
0
41
1
10
64.9441651422481
20
33.3117942298752
30
0
0
SPLINE
5
20D
100
AcDbEntity
8
1
62
256
6
ByLayer
370
13
48
1
60
0
100
AcDbSpline
70
4
71
3
72
8
73
4
40
0
40
0
40
0
40
0
40
1
40
1
40
1
40
1
41
1
10
64.8749845771853
20
33.1567717961471
30
0
41
1
10
64.8822290280935
20
33.1659433738617
30
0
41
1
10
64.8893756868009
20
33.1752297997431
30
0
41
1
10
64.8964397360486
20
33.1845784303032
30
0
0
SPLINE
5
20E
100
AcDbEntity
8
1
62
256
6
ByLayer
370
13
48
1
60
0
100
AcDbSpline
70
4
71
3
72
8
73
4
40
0
40
0
40
0
40
0
40
1
40
1
40
1
40
1
41
1
10
63.7587805434612
20
32.7131487032137
30
0
41
1
10
63.6921381523133
20
32.7109418477948
30
0
41
1
10
63.6252553140706
20
32.7117987069532
30
0
41
1
10
63.5587805434612
20
32.7170020526138
30
0
0
SPLINE
5
20F
100
AcDbEntity
8
1
62
256
6
ByLayer
370
13
48
1
60
0
100
AcDbSpline
70
4
71
3
72
8
73
4
40
0
40
0
40
0
40
0
40
1
40
1
40
1
40
1
41
1
10
63.7587805434612
20
34.7868512967866
30
0
41
1
10
63.6921381523133
20
34.7890581522055
30
0
41
1
10
63.6252553140706
20
34.7882012930471
30
0
41
1
10
63.5587805434612
20
34.7829979473865
30
0
0
SPLINE
5
210
100
AcDbEntity
8
1
62
256
6
ByLayer
370
13
48
1
60
0
100
AcDbSpline
70
4
71
3
72
12
73
8
40
0
40
0
40
0
40
0
40
0.708579779368488
40
0.708579779368488
40
0.932133973697437
40
0.932133973697437
40
1
40
1
40
1
40
1
41
1
10
63.3112677608007
20
34.1496592775834
30
0
41
1
10
63.4244377716514
20
34.185195141132
30
0
41
1
10
63.544655374949
20
34.2026720353229
30
0
41
1
10
63.7011317076578
20
34.2016161859685
30
0
41
1
10
63.738967387079
20
34.1998214338273
30
0
41
1
10
63.7882933798859
20
34.1981016447285
30
0
41
1
10
63.7997803862394
20
34.1976963996623
30
0
41
1
10
63.8112677608007
20
34.1973018020992
30
0
0
SPLINE
5
211
100
AcDbEntity
8
1
62
256
6
ByLayer
370
13
48
1
60
0
100
AcDbSpline
70
4
71
3
72
10
73
6
40
0
40
0
40
0
40
0
40
0.561541747824135
40
0.561541747824135
40
1
40
1
40
1
40
1
41
1
10
64.9970257409066
20
34.188205770126
30
0
41
1
10
64.9970257409067
20
34.2195113555598
30
0
41
1
10
64.9911036869238
20
34.2511937739821
30
0
41
1
10
64.9723010966289
20
34.3038265408454
30
0
41
1
10
64.9611390447478
20
34.3260755805459
30
0
41
1
10
64.9480538087948
20
34.3468832225978
30
0
0
SPLINE
5
212
100
AcDbEntity
8
1
62
256
6
ByLayer
370
13
48
1
60
0
100
AcDbSpline
70
4
71
3
72
12
73
8
40
0
40
0
40
0
40
0
40
0.708579779368488
40
0.708579779368488
40
0.932133973697437
40
0.932133973697437
40
1
40
1
40
1
40
1
41
1
10
63.3112677608007
20
33.3503407224169
30
0
41
1
10
63.4244377716514
20
33.3148048588683
30
0
41
1
10
63.544655374949
20
33.2973279646774
30
0
41
1
10
63.7011317076578
20
33.2983838140318
30
0
41
1
10
63.738967387079
20
33.300178566173
30
0
41
1
10
63.7882933798859
20
33.3018983552719
30
0
41
1
10
63.7997803862394
20
33.302303600338
30
0
41
1
10
63.8112677608007
20
33.3026981979011
30
0
0
SPLINE
5
213
100
AcDbEntity
8
1
62
256
6
ByLayer
370
13
48
1
60
0
100
AcDbSpline
70
4
71
3
72
10
73
6
40
0
40
0
40
0
40
0
40
0.561541747824135
40
0.561541747824135
40
1
40
1
40
1
40
1
41
1
10
64.9970257409066
20
33.3117942298743
30
0
41
1
10
64.9970257409067
20
33.2804886444405
30
0
41
1
10
64.9911036869238
20
33.2488062260183
30
0
41
1
10
64.9723010966289
20
33.1961734591549
30
0
41
1
10
64.9611390447478
20
33.1739244194544
30
0
41
1
10
64.9480538087948
20
33.1531167774025
30
0
0
SPLINE
5
214
100
AcDbEntity
8
1
62
256
6
ByLayer
370
13
48
1
60
0
100
AcDbSpline
70
4
71
3
72
8
73
4
40
0
40
0
40
0
40
0
40
1
40
1
40
1
40
1
41
1
10
64.9480538087933
20
33.1531167774031
30
0
41
1
10
64.9407025010737
20
33.1437649625673
30
0
41
1
10
64.9332526545728
20
33.1345164868045
30
0
41
1
10
64.9256934551194
20
33.1254211687776
30
0
0
SPLINE
5
215
100
AcDbEntity
8
1
62
256
6
ByLayer
370
13
48
1
60
0
100
AcDbSpline
70
4
71
3
72
8
73
4
40
0
40
0
40
0
40
0
40
1
40
1
40
1
40
1
41
1
10
64.9480538087933
20
34.3468832225973
30
0
41
1
10
64.9407025010737
20
34.356235037433
30
0
41
1
10
64.9332526545728
20
34.3654835131958
30
0
41
1
10
64.9256934551194
20
34.3745788312227
30
0
0
SPLINE
5
216
100
AcDbEntity
8
1
62
256
6
ByLayer
370
13
48
1
60
0
100
AcDbSpline
70
4
71
3
72
12
73
8
40
0
40
0
40
0
40
0
40
0.103790018033927
40
0.103790018033927
40
0.424238012362856
40
0.424238012362856
40
1
40
1
40
1
40
1
41
1
10
63.8112677608007
20
33.3026981979011
30
0
41
1
10
63.8330673288143
20
33.3032473377128
30
0
41
1
10
63.8548777846227
20
33.3035548907813
30
0
41
1
10
63.9437817615811
20
33.3047410948218
30
0
41
1
10
64.0108617198121
20
33.3052477484347
30
0
41
1
10
64.195202236924
20
33.3054981475993
30
0
41
1
10
64.3116787067388
20
33.3042459582154
30
0
41
1
10
64.4213727254144
20
33.3012268383674
30
0
0
SPLINE
5
217
100
AcDbEntity
8
1
62
256
6
ByLayer
370
18
48
1
60
0
100
AcDbSpline
70
4
71
3
72
14
73
10
40
0
40
0
40
0
40
0
40
0.208995027535852
40
0.208995027535852
40
0.417850725206471
40
0.417850725206471
40
0.626704295977396
40
0.626704295977396
40
1
40
1
40
1
40
1
41
1
10
62.4981203716814
20
32.6280805989456
30
0
41
1
10
62.5562077150716
20
32.6280905664582
30
0
41
1
10
62.6193237323134
20
32.6274243818502
30
0
41
1
10
62.7529850333382
20
32.6247658827781
30
0
41
1
10
62.8239830856551
20
32.6227653392402
30
0
41
1
10
62.9714347232615
20
32.6175033478004
30
0
41
1
10
63.0483929364638
20
32.6142239142204
30
0
41
1
10
63.2664550970089
20
32.6035175474251
30
0
41
1
10
63.4134966889726
20
32.5947043034295
30
0
41
1
10
63.5587805434602
20
32.5844950238395
30
0
0
SPLINE
5
218
100
AcDbEntity
8
1
62
256
6
ByLayer
370
18
48
1
60
0
100
AcDbSpline
70
4
71
3
72
8
73
4
40
0
40
0
40
0
40
0
40
1
40
1
40
1
40
1
41
1
10
63.7587805434612
20
32.5704407717322
30
0
41
1
10
63.8750917668497
20
32.5622674354505
30
0
41
1
10
63.9917418362529
20
32.553350070581
30
0
41
1
10
64.1060768987951
20
32.5438954485368
30
0
0
SPLINE
5
219
100
AcDbEntity
8
1
62
256
6
ByLayer
370
18
48
1
60
0
100
AcDbSpline
70
4
71
3
72
16
73
12
40
0
40
0
40
0
40
0
40
0.202092460849677
40
0.202092460849677
40
0.40403224558886
40
0.40403224558886
40
0.608298678109016
40
0.608298678109016
40
0.816163444624776
40
0.816163444624776
40
1
40
1
40
1
40
1
41
1
10
64.6892494524131
20
32.4996591430351
30
0
41
1
10
64.7220366161256
20
32.4976387335667
30
0
41
1
10
64.7555757070522
20
32.5013359665197
30
0
41
1
10
64.8185605431679
20
32.5194112184794
30
0
41
1
10
64.8488706298536
20
32.5340207887806
30
0
41
1
10
64.9026257090697
20
32.5720734663888
30
0
41
1
10
64.9267215742437
20
32.5961264605197
30
0
41
1
10
64.9656361058238
20
32.6505701083261
30
0
41
1
10
64.9808214046757
20
32.6818077448676
30
0
41
1
10
64.9988410260334
20
32.7430912844222
30
0
41
1
10
65.0030935129213
20
32.7735202828049
30
0
41
1
10
65.0028388286042
20
32.8036304587466
30
0
0
SPLINE
5
21A
100
AcDbEntity
8
1
62
256
6
ByLayer
370
18
48
1
60
0
100
AcDbSpline
70
4
71
3
72
16
73
12
40
0
40
0
40
0
40
0
40
0.21060160365595
40
0.21060160365595
40
0.421213120944743
40
0.421213120944743
40
0.631488126466471
40
0.631488126466471
40
0.839116239426997
40
0.839116239426997
40
1
40
1
40
1
40
1
41
1
10
65.0028388286042
20
34.6963695412537
30
0
41
1
10
65.0031296556105
20
34.7307527040105
30
0
41
1
10
64.997507025955
20
34.7656080877361
30
0
41
1
10
64.9754093689247
20
34.8304982075364
30
0
41
1
10
64.9586256018935
20
34.8614347625977
30
0
41
1
10
64.9163383595428
20
34.9150529788113
30
0
41
1
10
64.8902502953764
20
34.9384967697382
30
0
41
1
10
64.8328186585456
20
34.9743496716449
30
0
41
1
10
64.8007334811871
20
34.9873902149459
30
0
41
1
10
64.7421588737699
20
34.9999462562828
30
0
41
1
10
64.7154914357367
20
35.0019579395541
30
0
41
1
10
64.6892494524131
20
35.0003408569653
30
0
0
SPLINE
5
21B
100
AcDbEntity
8
1
62
256
6
ByLayer
370
18
48
1
60
0
100
AcDbSpline
70
4
71
3
72
14
73
10
40
0
40
0
40
0
40
0
40
0.209562190252725
40
0.209562190252725
40
0.419048660097218
40
0.419048660097218
40
0.628042586344193
40
0.628042586344193
40
1
40
1
40
1
40
1
41
1
10
63.5587805434612
20
34.9155049761614
30
0
41
1
10
63.4766126081606
20
34.9097309317724
30
0
41
1
10
63.394096633241
20
34.9044113402667
30
0
41
1
10
63.2317767669575
20
34.8949047593481
30
0
41
1
10
63.1514176992139
20
34.8906849415351
30
0
41
1
10
62.99577107806
20
34.8834961737297
30
0
41
1
10
62.9199400027966
20
34.8804997576921
30
0
41
1
10
62.719734627046
20
34.8740257942409
30
0
41
1
10
62.6007351939601
20
34.871901792837
30
0
41
1
10
62.4981203716825
20
34.8719194010537
30
0
0
SPLINE
5
21C
100
AcDbEntity
8
1
62
256
6
ByLayer
370
18
48
1
60
0
100
AcDbSpline
70
4
71
3
72
8
73
4
40
0
40
0
40
0
40
0
40
1
40
1
40
1
40
1
41
1
10
64.1060768987951
20
34.9561045514635
30
0
41
1
10
63.9917418362529
20
34.9466499294192
30
0
41
1
10
63.8750917668497
20
34.9377325645498
30
0
41
1
10
63.7587805434612
20
34.9295592282681
30
0
0
LINE
5
70
100
AcDbEntity
8
1
62
256
6
ByLayer
370
13
48
1
60
0
100
AcDbLine
10
0.3
20
25
30
0
11
0
21
24.7
31
0
39
0
210
0
220
0
230
1
0
LINE
5
72
100
AcDbEntity
8
1
62
256
6
ByLayer
370
13
48
1
60
0
100
AcDbLine
10
0
20
-24.7
30
0
11
0.3
21
-25
31
0
39
0
210
0
220
0
230
1
0
LINE
5
73
100
AcDbEntity
8
1
62
256
6
ByLayer
370
13
48
1
60
0
100
AcDbLine
10
23.812505
20
34.75
30
0
11
21.438319
21
25.889417
31
0
39
0
210
0
220
0
230
1
0
LINE
5
74
100
AcDbEntity
8
1
62
256
6
ByLayer
370
13
48
1
60
0
100
AcDbLine
10
0.3
20
-25
30
0
11
20.029236
21
-25
31
0
39
0
210
0
220
0
230
1
0
LINE
5
75
100
AcDbEntity
8
1
62
256
6
ByLayer
370
13
48
1
60
0
100
AcDbLine
10
20.279208
20
25
30
0
11
0.3
21
25
31
0
39
0
210
0
220
0
230
1
0
LINE
5
76
100
AcDbEntity
8
80
62
256
6
ByLayer
370
18
48
1
60
0
100
AcDbLine
10
0
20
0
30
0
11
-5
21
0
31
0
39
0
210
0
220
0
230
1
0
LINE
5
77
100
AcDbEntity
8
81
62
256
6
ByLayer
370
18
48
1
60
0
100
AcDbLine
10
65
20
35
30
0
11
70
21
35
31
0
39
0
210
0
220
0
230
1
0
LINE
5
78
100
AcDbEntity
8
SK1
62
256
6
ByLayer
370
13
48
1
60
0
100
AcDbLine
10
-0.194977
20
17.369987
30
0
11
-0.194977
21
17.365289
31
0
39
0
210
0
220
0
230
1
0
LINE
5
7A
100
AcDbEntity
8
SK1
62
256
6
ByLayer
370
13
48
1
60
0
100
AcDbLine
10
-1.79504
20
17.330272
30
0
11
-1.79504
21
17.325755
31
0
39
0
210
0
220
0
230
1
0
LINE
5
7B
100
AcDbEntity
8
SK1
62
256
6
ByLayer
370
13
48
1
60
0
100
AcDbLine
10
-1.79504
20
-17.325755
30
0
11
-1.79504
21
-17.330272
31
0
39
0
210
0
220
0
230
1
0
LINE
5
7C
100
AcDbEntity
8
SK1
62
256
6
ByLayer
370
13
48
1
60
0
100
AcDbLine
10
-1.315435
20
-3.910269
30
0
11
-1.315435
21
3.910272
31
0
39
0
210
0
220
0
230
1
0
LINE
5
7D
100
AcDbEntity
8
SK1
62
256
6
ByLayer
370
13
48
1
60
0
100
AcDbLine
10
-0.194977
20
-17.36529
30
0
11
-0.194977
21
-17.369987
31
0
39
0
210
0
220
0
230
1
0
LINE
5
7E
100
AcDbEntity
8
1
62
256
6
ByLayer
370
13
48
1
60
0
100
AcDbLine
10
8.105662
20
-23.666502
30
0
11
8.105662
21
-8.055848
31
0
39
0
210
0
220
0
230
1
0
LINE
5
7F
100
AcDbEntity
8
1
62
256
6
ByLayer
370
13
48
1
60
0
100
AcDbLine
10
56.290738
20
32.75
30
0
11
60.413022
21
32.75
31
0
39
0
210
0
220
0
230
1
0
LINE
5
80
100
AcDbEntity
8
1
62
256
6
ByLayer
370
13
48
1
60
0
100
AcDbLine
10
20.279208
20
25
30
0
11
20.279208
21
22.897066
31
0
39
0
210
0
220
0
230
1
0
LINE
5
81
100
AcDbEntity
8
1
62
256
6
ByLayer
370
13
48
1
60
0
100
AcDbLine
10
36.548567
20
-10.5
30
0
11
38.4
21
0
31
0
39
0
210
0
220
0
230
1
0
LINE
5
82
100
AcDbEntity
8
1
62
256
6
ByLayer
370
13
48
1
60
0
100
AcDbLine
10
51.290738
20
32.75
30
0
11
43.6
21
32.75
31
0
39
0
210
0
220
0
230
1
0
LINE
5
83
100
AcDbEntity
8
1
62
256
6
ByLayer
370
13
48
1
60
0
100
AcDbLine
10
35.203528
20
34.75
30
0
11
24.007554
21
34.75
31
0
39
0
210
0
220
0
230
1
0
LINE
5
84
100
AcDbEntity
8
1
62
256
6
ByLayer
370
13
48
1
60
0
100
AcDbLine
10
35.203528
20
34.75
30
0
11
35.203528
21
32.75
31
0
39
0
210
0
220
0
230
1
0
LINE
5
85
100
AcDbEntity
8
1
62
256
6
ByLayer
370
13
48
1
60
0
100
AcDbLine
10
38.4
20
31.15
30
0
11
38.4
21
0
31
0
39
0
210
0
220
0
230
1
0
LINE
5
86
100
AcDbEntity
8
1
62
256
6
ByLayer
370
13
48
1
60
0
100
AcDbLine
10
11.894338
20
-23.666502
30
0
11
11.894338
21
-8.055848
31
0
39
0
210
0
220
0
230
1
0
LINE
5
87
100
AcDbEntity
8
1
62
256
6
ByLayer
370
13
48
1
60
0
100
AcDbLine
10
43.6
20
32.75
30
0
11
40
21
32.75
31
0
39
0
210
0
220
0
230
1
0
LINE
5
88
100
AcDbEntity
8
1
62
256
6
ByLayer
370
13
48
1
60
0
100
AcDbLine
10
8.105662
20
8.055848
30
0
11
8.105662
21
23.666502
31
0
39
0
210
0
220
0
230
1
0
LINE
5
89
100
AcDbEntity
8
1
62
256
6
ByLayer
370
13
48
1
60
0
100
AcDbLine
10
24.12102
20
-10.5
30
0
11
24.12102
21
33.307372
31
0
39
0
210
0
220
0
230
1
0
LINE
5
8A
100
AcDbEntity
8
1
62
256
6
ByLayer
370
13
48
1
60
0
100
AcDbLine
10
51.290738
20
32.75
30
0
11
56.290738
21
32.75
31
0
39
0
210
0
220
0
230
1
0
LINE
5
8B
100
AcDbEntity
8
1
62
256
6
ByLayer
370
13
48
1
60
0
100
AcDbLine
10
0.3
20
25
30
0
11
0.3
21
-25
31
0
39
0
210
0
220
0
230
1
0
LINE
5
8C
100
AcDbEntity
8
1
62
256
6
ByLayer
370
13
48
1
60
0
100
AcDbLine
10
8.538675
20
7.529667
30
0
11
8.538675
21
23.83913
31
0
39
0
210
0
220
0
230
1
0
LINE
5
8D
100
AcDbEntity
8
1
62
256
6
ByLayer
370
13
48
1
60
0
100
AcDbLine
10
11.461325
20
7.529667
30
0
11
8.538675
21
7.529667
31
0
39
0
210
0
220
0
230
1
0
LINE
5
8E
100
AcDbEntity
8
1
62
256
6
ByLayer
370
13
48
1
60
0
100
AcDbLine
10
11.461325
20
7.529667
30
0
11
11.461325
21
23.83913
31
0
39
0
210
0
220
0
230
1
0
LINE
5
8F
100
AcDbEntity
8
1
62
256
6
ByLayer
370
13
48
1
60
0
100
AcDbLine
10
8.538675
20
-7.529667
30
0
11
11.461325
21
-7.529667
31
0
39
0
210
0
220
0
230
1
0
LINE
5
90
100
AcDbEntity
8
1
62
256
6
ByLayer
370
13
48
1
60
0
100
AcDbLine
10
43.6
20
32.75
30
0
11
43.6
21
34.75
31
0
39
0
210
0
220
0
230
1
0
LINE
5
91
100
AcDbEntity
8
1
62
256
6
ByLayer
370
13
48
1
60
0
100
AcDbLine
10
51.290738
20
34.75
30
0
11
51.290738
21
32.75
31
0
39
0
210
0
220
0
230
1
0
LINE
5
92
100
AcDbEntity
8
1
62
256
6
ByLayer
370
13
48
1
60
0
100
AcDbLine
10
20.079213
20
-19.273172
30
0
11
20.121172
21
-14.465094
31
0
39
0
210
0
220
0
230
1
0
LINE
5
93
100
AcDbEntity
8
1
62
256
6
ByLayer
370
13
48
1
60
0
100
AcDbLine
10
20.079213
20
-19.273172
30
0
11
20.029236
21
-25
31
0
39
0
210
0
220
0
230
1
0
LINE
5
94
100
AcDbEntity
8
1
62
256
6
ByLayer
370
13
48
1
60
0
100
AcDbLine
10
60.415611
20
34.284517
30
0
11
60.415611
21
34.741569
31
0
39
0
210
0
220
0
230
1
0
LINE
5
95
100
AcDbEntity
8
1
62
256
6
ByLayer
370
13
48
1
60
0
100
AcDbLine
10
56.290738
20
32.75
30
0
11
56.290738
21
34.75
31
0
39
0
210
0
220
0
230
1
0
LINE
5
96
100
AcDbEntity
8
1
62
256
6
ByLayer
370
13
48
1
60
0
100
AcDbLine
10
21.438319
20
25.889417
30
0
11
21.438319
21
24.562203
31
0
39
0
210
0
220
0
230
1
0
LINE
5
97
100
AcDbEntity
8
1
62
256
6
ByLayer
370
13
48
1
60
0
100
AcDbLine
10
24.12102
20
33.307372
30
0
11
23.629267
21
33.307372
31
0
39
0
210
0
220
0
230
1
0
LINE
5
98
100
AcDbEntity
8
1
62
256
6
ByLayer
370
13
48
1
60
0
100
AcDbLine
10
56.290738
20
34.75
30
0
11
60.413022
21
34.75
31
0
39
0
210
0
220
0
230
1
0
LINE
5
99
100
AcDbEntity
8
1
62
256
6
ByLayer
370
13
48
1
60
0
100
AcDbLine
10
60.415611
20
32.758431
30
0
11
60.413022
21
32.75
31
0
39
0
210
0
220
0
230
1
0
LINE
5
9A
100
AcDbEntity
8
1
62
256
6
ByLayer
370
13
48
1
60
0
100
AcDbLine
10
8.538675
20
23.83913
30
0
11
11.461325
21
23.83913
31
0
39
0
210
0
220
0
230
1
0
LINE
5
9B
100
AcDbEntity
8
1
62
256
6
ByLayer
370
13
48
1
60
0
100
AcDbLine
10
60.413022
20
34.75
30
0
11
60.415611
21
34.741569
31
0
39
0
210
0
220
0
230
1
0
LINE
5
9C
100
AcDbEntity
8
1
62
256
6
ByLayer
370
13
48
1
60
0
100
AcDbLine
10
40
20
32.75
30
0
11
35.203528
21
32.75
31
0
39
0
210
0
220
0
230
1
0
LINE
5
9D
100
AcDbEntity
8
1
62
256
6
ByLayer
370
13
48
1
60
0
100
AcDbLine
10
11.894338
20
8.055848
30
0
11
11.894338
21
23.666502
31
0
39
0
210
0
220
0
230
1
0
LINE
5
9E
100
AcDbEntity
8
1
62
256
6
ByLayer
370
13
48
1
60
0
100
AcDbLine
10
37.991012
20
31.15
30
0
11
38.4
21
31.15
31
0
39
0
210
0
220
0
230
1
0
LINE
5
9F
100
AcDbEntity
8
1
62
256
6
ByLayer
370
13
48
1
60
0
100
AcDbLine
10
0
20
24.7
30
0
11
0
21
-24.7
31
0
39
0
210
0
220
0
230
1
0
LINE
5
A0
100
AcDbEntity
8
1
62
256
6
ByLayer
370
13
48
1
60
0
100
AcDbLine
10
8.538675
20
-23.83913
30
0
11
8.538675
21
-7.529667
31
0
39
0
210
0
220
0
230
1
0
LINE
5
A1
100
AcDbEntity
8
1
62
256
6
ByLayer
370
13
48
1
60
0
100
AcDbLine
10
35.203528
20
34.75
30
0
11
43.6
21
34.75
31
0
39
0
210
0
220
0
230
1
0
LINE
5
A2
100
AcDbEntity
8
1
62
256
6
ByLayer
370
13
48
1
60
0
100
AcDbLine
10
11.461325
20
-23.83913
30
0
11
8.538675
21
-23.83913
31
0
39
0
210
0
220
0
230
1
0
LINE
5
A3
100
AcDbEntity
8
1
62
256
6
ByLayer
370
13
48
1
60
0
100
AcDbLine
10
43.6
20
34.75
30
0
11
51.290738
21
34.75
31
0
39
0
210
0
220
0
230
1
0
LINE
5
A4
100
AcDbEntity
8
1
62
256
6
ByLayer
370
13
48
1
60
0
100
AcDbLine
10
60.415611
20
32.758431
30
0
11
60.415611
21
33.215483
31
0
39
0
210
0
220
0
230
1
0
LINE
5
A5
100
AcDbEntity
8
1
62
256
6
ByLayer
370
13
48
1
60
0
100
AcDbLine
10
11.461325
20
-23.83913
30
0
11
11.461325
21
-7.529667
31
0
39
0
210
0
220
0
230
1
0
LINE
5
A6
100
AcDbEntity
8
1
62
256
6
ByLayer
370
13
48
1
60
0
100
AcDbLine
10
24.12102
20
-10.5
30
0
11
36.548567
21
-10.5
31
0
39
0
210
0
220
0
230
1
0
LINE
5
A7
100
AcDbEntity
8
1
62
256
6
ByLayer
370
13
48
1
60
0
100
AcDbLine
10
20.121172
20
22.393224
30
0
11
20.121172
21
-14.465094
31
0
39
0
210
0
220
0
230
1
0
LINE
5
A8
100
AcDbEntity
8
1
62
256
6
ByLayer
370
13
48
1
60
0
100
AcDbLine
10
51.290738
20
34.75
30
0
11
56.290738
21
34.75
31
0
39
0
210
0
220
0
230
1
0
LINE
5
A9
100
AcDbEntity
8
1
62
256
6
ByLayer
370
13
48
1
60
0
100
AcDbLine
10
63.311268
20
33.350341
30
0
11
63.311268
21
33.75
31
0
39
0
210
0
220
0
230
1
0
LINE
5
AA
100
AcDbEntity
8
1
62
256
6
ByLayer
370
13
48
1
60
0
100
AcDbLine
10
60.390074
20
33.950756
30
0
11
60.54904
21
33.950756
31
0
39
0
210
0
220
0
230
1
0
LINE
5
AB
100
AcDbEntity
8
1
62
256
6
ByLayer
370
13
48
1
60
0
100
AcDbLine
10
63.311268
20
34.149659
30
0
11
63.311268
21
33.75
31
0
39
0
210
0
220
0
230
1
0
LINE
5
AC
100
AcDbEntity
8
1
62
256
6
ByLayer
370
13
48
1
60
0
100
AcDbLine
10
60.389954
20
33.947335
30
0
11
60.552254
21
33.947335
31
0
39
0
210
0
220
0
230
1
0
LINE
5
AD
100
AcDbEntity
8
1
62
256
6
ByLayer
370
13
48
1
60
0
100
AcDbLine
10
60.389954
20
33.552665
30
0
11
60.552254
21
33.552665
31
0
39
0
210
0
220
0
230
1
0
LINE
5
AE
100
AcDbEntity
8
1
62
256
6
ByLayer
370
13
48
1
60
0
100
AcDbLine
10
60.391842
20
34.001024
30
0
11
60.506333
21
34.001024
31
0
39
0
210
0
220
0
230
1
0
LINE
5
AF
100
AcDbEntity
8
1
62
256
6
ByLayer
370
13
48
1
60
0
100
AcDbLine
10
60.390074
20
33.549244
30
0
11
60.54904
21
33.549244
31
0
39
0
210
0
220
0
230
1
0
LINE
5
B0
100
AcDbEntity
8
1
62
256
6
ByLayer
370
13
48
1
60
0
100
AcDbLine
10
63.811268
20
34.197302
30
0
11
63.811268
21
33.302698
31
0
39
0
210
0
220
0
230
1
0
LINE
5
B1
100
AcDbEntity
8
1
62
256
6
ByLayer
370
13
48
1
60
0
100
AcDbLine
10
60.391842
20
33.498976
30
0
11
60.506333
21
33.498976
31
0
39
0
210
0
220
0
230
1
0
LINE
5
B2
100
AcDbEntity
8
1
62
256
6
ByLayer
370
13
48
1
60
0
100
AcDbLine
10
61.711238
20
32.75
30
0
11
61.711238
21
32.977886
31
0
39
0
210
0
220
0
230
1
0
LINE
5
B3
100
AcDbEntity
8
1
62
256
6
ByLayer
370
13
48
1
60
0
100
AcDbLine
10
61.711238
20
32.977886
30
0
11
62.037348
21
32.961829
31
0
39
0
210
0
220
0
230
1
0
LINE
5
B4
100
AcDbEntity
8
1
62
256
6
ByLayer
370
13
48
1
60
0
100
AcDbLine
10
62.230259
20
32.63536
30
0
11
62.218821
21
32.798931
31
0
39
0
210
0
220
0
230
1
0
LINE
5
B5
100
AcDbEntity
8
1
62
256
6
ByLayer
370
13
48
1
60
0
100
AcDbLine
10
62.230259
20
34.86464
30
0
11
62.218821
21
34.701069
31
0
39
0
210
0
220
0
230
1
0
LINE
5
B6
100
AcDbEntity
8
1
62
256
6
ByLayer
370
13
48
1
60
0
100
AcDbLine
10
62.037348
20
34.538171
30
0
11
61.711238
21
34.522114
31
0
39
0
210
0
220
0
230
1
0
LINE
5
B7
100
AcDbEntity
8
1
62
256
6
ByLayer
370
13
48
1
60
0
100
AcDbLine
10
61.711238
20
34.522114
30
0
11
61.711238
21
34.75
31
0
39
0
210
0
220
0
230
1
0
LINE
5
B8
100
AcDbEntity
8
1
62
256
6
ByLayer
370
13
48
1
60
0
100
AcDbLine
10
62.49812
20
32.816567
30
0
11
62.49812
21
32.628081
31
0
39
0
210
0
220
0
230
1
0
LINE
5
B9
100
AcDbEntity
8
1
62
256
6
ByLayer
370
13
48
1
60
0
100
AcDbLine
10
63.558781
20
32.717002
30
0
11
63.558781
21
32.584495
31
0
39
0
210
0
220
0
230
1
0
LINE
5
BA
100
AcDbEntity
8
1
62
256
6
ByLayer
370
13
48
1
60
0
100
AcDbLine
10
63.558781
20
34.782998
30
0
11
63.558781
21
34.915505
31
0
39
0
210
0
220
0
230
1
0
LINE
5
BB
100
AcDbEntity
8
1
62
256
6
ByLayer
370
13
48
1
60
0
100
AcDbLine
10
62.49812
20
34.683433
30
0
11
62.49812
21
34.871919
31
0
39
0
210
0
220
0
230
1
0
LINE
5
BC
100
AcDbEntity
8
1
62
256
6
ByLayer
370
13
48
1
60
0
100
AcDbLine
10
62.007425
20
33.242132
30
0
11
61.547776
21
33.264764
31
0
39
0
210
0
220
0
230
1
0
LINE
5
BD
100
AcDbEntity
8
1
62
256
6
ByLayer
370
13
48
1
60
0
100
AcDbLine
10
61.547776
20
34.235236
30
0
11
62.007425
21
34.257868
31
0
39
0
210
0
220
0
230
1
0
LINE
5
BE
100
AcDbEntity
8
1
62
256
6
ByLayer
370
13
48
1
60
0
100
AcDbLine
10
62.037348
20
32.961829
30
0
11
62.184585
21
33.117882
31
0
39
0
210
0
220
0
230
1
0
LINE
5
BF
100
AcDbEntity
8
1
62
256
6
ByLayer
370
13
48
1
60
0
100
AcDbLine
10
62.184585
20
34.382118
30
0
11
62.037348
21
34.538171
31
0
39
0
210
0
220
0
230
1
0
LINE
5
C0
100
AcDbEntity
8
1
62
256
6
ByLayer
370
13
48
1
60
0
100
AcDbLine
10
62.395173
20
32.814267
30
0
11
62.408193
21
32.628065
31
0
39
0
210
0
220
0
230
1
0
LINE
5
C1
100
AcDbEntity
8
1
62
256
6
ByLayer
370
13
48
1
60
0
100
AcDbLine
10
62.395173
20
34.685733
30
0
11
62.408193
21
34.871935
31
0
39
0
210
0
220
0
230
1
0
LINE
5
C2
100
AcDbEntity
8
1
62
256
6
ByLayer
370
13
48
1
60
0
100
AcDbLine
10
62.059386
20
34.213592
30
0
11
61.436893
21
34.213592
31
0
39
0
210
0
220
0
230
1
0
LINE
5
C3
100
AcDbEntity
8
1
62
256
6
ByLayer
370
13
48
1
60
0
100
AcDbLine
10
62.059386
20
33.286408
30
0
11
61.436893
21
33.286408
31
0
39
0
210
0
220
0
230
1
0
LINE
5
C4
100
AcDbEntity
8
1
62
256
6
ByLayer
370
13
48
1
60
0
100
AcDbLine
10
61.642833
20
34.522114
30
0
11
61.711238
21
34.522114
31
0
39
0
210
0
220
0
230
1
0
LINE
5
C5
100
AcDbEntity
8
1
62
256
6
ByLayer
370
13
48
1
60
0
100
AcDbLine
10
61.642833
20
32.977886
30
0
11
61.711238
21
32.977886
31
0
39
0
210
0
220
0
230
1
0
LINE
5
C6
100
AcDbEntity
8
1
62
256
6
ByLayer
370
13
48
1
60
0
100
AcDbLine
10
61.642833
20
34.75
30
0
11
61.642833
21
34.522114
31
0
39
0
210
0
220
0
230
1
0
LINE
5
C7
100
AcDbEntity
8
1
62
256
6
ByLayer
370
13
48
1
60
0
100
AcDbLine
10
61.642833
20
32.977886
30
0
11
61.642833
21
32.75
31
0
39
0
210
0
220
0
230
1
0
LINE
5
C8
100
AcDbEntity
8
1
62
256
6
ByLayer
370
13
48
1
60
0
100
AcDbLine
10
61.470241
20
34.420672
30
0
11
61.359359
21
34.399029
31
0
39
0
210
0
220
0
230
1
0
LINE
5
C9
100
AcDbEntity
8
1
62
256
6
ByLayer
370
13
48
1
60
0
100
AcDbLine
10
60.717283
20
34.633917
30
0
11
60.717283
21
34.75
31
0
39
0
210
0
220
0
230
1
0
LINE
5
CA
100
AcDbEntity
8
1
62
256
6
ByLayer
370
13
48
1
60
0
100
AcDbLine
10
60.717283
20
32.75
30
0
11
60.717283
21
32.866083
31
0
39
0
210
0
220
0
230
1
0
LINE
5
CB
100
AcDbEntity
8
1
62
256
6
ByLayer
370
13
48
1
60
0
100
AcDbLine
10
61.359359
20
33.100971
30
0
11
61.470241
21
33.079328
31
0
39
0
210
0
220
0
230
1
0
LINE
5
CC
100
AcDbEntity
8
1
62
256
6
ByLayer
370
13
48
1
60
0
100
AcDbLine
10
61.547776
20
33.264764
30
0
11
61.436893
21
33.286408
31
0
39
0
210
0
220
0
230
1
0
LINE
5
CD
100
AcDbEntity
8
1
62
256
6
ByLayer
370
13
48
1
60
0
100
AcDbLine
10
61.436893
20
34.213592
30
0
11
61.547776
21
34.235236
31
0
39
0
210
0
220
0
230
1
0
LINE
5
CE
100
AcDbEntity
8
1
62
256
6
ByLayer
370
13
48
1
60
0
100
AcDbLine
10
60.63041
20
34.75
30
0
11
60.63041
21
34.625983
31
0
39
0
210
0
220
0
230
1
0
LINE
5
CF
100
AcDbEntity
8
1
62
256
6
ByLayer
370
13
48
1
60
0
100
AcDbLine
10
60.63041
20
32.874017
30
0
11
60.63041
21
32.75
31
0
39
0
210
0
220
0
230
1
0
LINE
5
D0
100
AcDbEntity
8
1
62
256
6
ByLayer
370
13
48
1
60
0
100
AcDbLine
10
60.46942
20
34.117998
30
0
11
60.788749
21
34.117998
31
0
39
0
210
0
220
0
230
1
0
LINE
5
D1
100
AcDbEntity
8
1
62
256
6
ByLayer
370
13
48
1
60
0
100
AcDbLine
10
60.415612
20
34.568506
30
0
11
60.46942
21
34.117998
31
0
39
0
210
0
220
0
230
1
0
LINE
5
D2
100
AcDbEntity
8
1
62
256
6
ByLayer
370
13
48
1
60
0
100
AcDbLine
10
60.634752
20
34.575984
30
0
11
60.414718
21
34.575984
31
0
39
0
210
0
220
0
230
1
0
LINE
5
D3
100
AcDbEntity
8
1
62
256
6
ByLayer
370
13
48
1
60
0
100
AcDbLine
10
60.634752
20
32.924016
30
0
11
60.414718
21
32.924016
31
0
39
0
210
0
220
0
230
1
0
LINE
5
D4
100
AcDbEntity
8
1
62
256
6
ByLayer
370
13
48
1
60
0
100
AcDbLine
10
60.415612
20
32.931494
30
0
11
60.46942
21
33.382002
31
0
39
0
210
0
220
0
230
1
0
LINE
5
D5
100
AcDbEntity
8
1
62
256
6
ByLayer
370
13
48
1
60
0
100
AcDbLine
10
60.46942
20
33.382002
30
0
11
60.788749
21
33.382002
31
0
39
0
210
0
220
0
230
1
0
LINE
5
D6
100
AcDbEntity
8
1
62
256
6
ByLayer
370
13
48
1
60
0
100
AcDbLine
10
65.000117
20
34.374579
30
0
11
64.925693
21
34.374579
31
0
39
0
210
0
220
0
230
1
0
LINE
5
D7
100
AcDbEntity
8
1
62
256
6
ByLayer
370
13
48
1
60
0
100
AcDbLine
10
64.535516
20
34.68335
30
0
11
64.535516
21
34.990867
31
0
39
0
210
0
220
0
230
1
0
LINE
5
D8
100
AcDbEntity
8
1
62
256
6
ByLayer
370
13
48
1
60
0
100
AcDbLine
10
64.535516
20
32.81665
30
0
11
64.535516
21
32.509133
31
0
39
0
210
0
220
0
230
1
0
LINE
5
D9
100
AcDbEntity
8
1
62
256
6
ByLayer
370
13
48
1
60
0
100
AcDbLine
10
65.000117
20
33.125421
30
0
11
64.925693
21
33.125421
31
0
39
0
210
0
220
0
230
1
0
LINE
5
DA
100
AcDbEntity
8
1
62
256
6
ByLayer
370
13
48
1
60
0
100
AcDbLine
10
63.228922
20
34.13002
30
0
11
63.228922
21
33.75
31
0
39
0
210
0
220
0
230
1
0
LINE
5
DB
100
AcDbEntity
8
1
62
256
6
ByLayer
370
13
48
1
60
0
100
AcDbLine
10
63.228922
20
33.36998
30
0
11
63.228922
21
33.75
31
0
39
0
210
0
220
0
230
1
0
LINE
5
DC
100
AcDbEntity
8
1
62
256
6
ByLayer
370
13
48
1
60
0
100
AcDbLine
10
60.41185
20
32.874562
30
0
11
60.628277
21
32.874562
31
0
39
0
210
0
220
0
230
1
0
LINE
5
DD
100
AcDbEntity
8
1
62
256
6
ByLayer
370
13
48
1
60
0
100
AcDbLine
10
60.41185
20
34.625438
30
0
11
60.628277
21
34.625438
31
0
39
0
210
0
220
0
230
1
0
LINE
5
DE
100
AcDbEntity
8
1
62
256
6
ByLayer
370
13
48
1
60
0
100
AcDbLine
10
64.46476
20
34.985765
30
0
11
64.46476
21
34.735976
31
0
39
0
210
0
220
0
230
1
0
LINE
5
DF
100
AcDbEntity
8
1
62
256
6
ByLayer
370
13
48
1
60
0
100
AcDbLine
10
64.106077
20
32.71604
30
0
11
64.106077
21
32.543895
31
0
39
0
210
0
220
0
230
1
0
LINE
5
E0
100
AcDbEntity
8
1
62
256
6
ByLayer
370
13
48
1
60
0
100
AcDbLine
10
64.106077
20
34.78396
30
0
11
64.106077
21
34.956105
31
0
39
0
210
0
220
0
230
1
0
LINE
5
E1
100
AcDbEntity
8
1
62
256
6
ByLayer
370
13
48
1
60
0
100
AcDbLine
10
60.506333
20
33.498976
30
0
11
60.876987
21
33.498976
31
0
39
0
210
0
220
0
230
1
0
LINE
5
E2
100
AcDbEntity
8
1
62
256
6
ByLayer
370
13
48
1
60
0
100
AcDbLine
10
64.46476
20
32.514235
30
0
11
64.46476
21
32.764024
31
0
39
0
210
0
220
0
230
1
0
LINE
5
E3
100
AcDbEntity
8
1
62
256
6
ByLayer
370
13
48
1
60
0
100
AcDbLine
10
60.506333
20
34.001024
30
0
11
60.876987
21
34.001024
31
0
39
0
210
0
220
0
230
1
0
LINE
5
E4
100
AcDbEntity
8
1
62
256
6
ByLayer
370
13
48
1
60
0
100
AcDbLine
10
63.758781
20
32.713149
30
0
11
63.758781
21
32.570441
31
0
39
0
210
0
220
0
230
1
0
LINE
5
E5
100
AcDbEntity
8
1
62
256
6
ByLayer
370
13
48
1
60
0
100
AcDbLine
10
63.758781
20
34.786851
30
0
11
63.758781
21
34.929559
31
0
39
0
210
0
220
0
230
1
0
LINE
5
E6
100
AcDbEntity
8
1
62
256
6
ByLayer
370
13
48
1
60
0
100
AcDbLine
10
60.54904
20
33.950756
30
0
11
60.999504
21
33.950756
31
0
39
0
210
0
220
0
230
1
0
LINE
5
E7
100
AcDbEntity
8
1
62
256
6
ByLayer
370
13
48
1
60
0
100
AcDbLine
10
60.54904
20
33.549244
30
0
11
60.999504
21
33.549244
31
0
39
0
210
0
220
0
230
1
0
LINE
5
E8
100
AcDbEntity
8
1
62
256
6
ByLayer
370
13
48
1
60
0
100
AcDbLine
10
60.552254
20
33.552665
30
0
11
61.008222
21
33.552665
31
0
39
0
210
0
220
0
230
1
0
LINE
5
E9
100
AcDbEntity
8
1
62
256
6
ByLayer
370
13
48
1
60
0
100
AcDbLine
10
60.552254
20
33.947335
30
0
11
61.008222
21
33.947335
31
0
39
0
210
0
220
0
230
1
0
LINE
5
EA
100
AcDbEntity
8
1
62
256
6
ByLayer
370
13
48
1
60
0
100
AcDbLine
10
63.311268
20
34.149659
30
0
11
63.215133
21
34.455818
31
0
39
0
210
0
220
0
230
1
0
LINE
5
EB
100
AcDbEntity
8
1
62
256
6
ByLayer
370
13
48
1
60
0
100
AcDbLine
10
63.821706
20
34.501182
30
0
11
63.811268
21
34.197302
31
0
39
0
210
0
220
0
230
1
0
LINE
5
EC
100
AcDbEntity
8
1
62
256
6
ByLayer
370
13
48
1
60
0
100
AcDbLine
10
64.944165
20
34.188206
30
0
11
64.997026
21
34.188206
31
0
39
0
210
0
220
0
230
1
0
LINE
5
ED
100
AcDbEntity
8
1
62
256
6
ByLayer
370
13
48
1
60
0
100
AcDbLine
10
64.997026
20
33.311794
30
0
11
64.997026
21
34.188206
31
0
39
0
210
0
220
0
230
1
0
LINE
5
EE
100
AcDbEntity
8
1
62
256
6
ByLayer
370
13
48
1
60
0
100
AcDbLine
10
64.948054
20
34.346883
30
0
11
65
21
34.346883
31
0
39
0
210
0
220
0
230
1
0
LINE
5
EF
100
AcDbEntity
8
1
62
256
6
ByLayer
370
13
48
1
60
0
100
AcDbLine
10
64.948054
20
33.153117
30
0
11
65
21
33.153117
31
0
39
0
210
0
220
0
230
1
0
LINE
5
F0
100
AcDbEntity
8
1
62
256
6
ByLayer
370
13
48
1
60
0
100
AcDbLine
10
63.311268
20
33.350341
30
0
11
63.215133
21
33.044182
31
0
39
0
210
0
220
0
230
1
0
LINE
5
F1
100
AcDbEntity
8
1
62
256
6
ByLayer
370
13
48
1
60
0
100
AcDbLine
10
63.821706
20
32.998818
30
0
11
63.811268
21
33.302698
31
0
39
0
210
0
220
0
230
1
0
LINE
5
F2
100
AcDbEntity
8
1
62
256
6
ByLayer
370
13
48
1
60
0
100
AcDbLine
10
64.944165
20
33.311794
30
0
11
64.997026
21
33.311794
31
0
39
0
210
0
220
0
230
1
0
LINE
5
F3
100
AcDbEntity
8
1
62
256
6
ByLayer
370
13
48
1
60
0
100
AcDbLine
10
60.398005
20
33.382002
30
0
11
60.46942
21
33.382002
31
0
39
0
210
0
220
0
230
1
0
LINE
5
F4
100
AcDbEntity
8
1
62
256
6
ByLayer
370
13
48
1
60
0
100
AcDbLine
10
60.398005
20
34.117998
30
0
11
60.46942
21
34.117998
31
0
39
0
210
0
220
0
230
1
0
LINE
5
F5
100
AcDbEntity
8
1
62
256
6
ByLayer
370
13
48
1
60
0
100
AcDbLine
10
60.54904
20
33.549244
30
0
11
60.552254
21
33.552665
31
0
39
0
210
0
220
0
230
1
0
LINE
5
F6
100
AcDbEntity
8
1
62
256
6
ByLayer
370
13
48
1
60
0
100
AcDbLine
10
60.54904
20
33.950756
30
0
11
60.552254
21
33.947335
31
0
39
0
210
0
220
0
230
1
0
LINE
5
F7
100
AcDbEntity
8
1
62
256
6
ByLayer
370
13
48
1
60
0
100
AcDbLine
10
64.944165
20
34.188206
30
0
11
64.944165
21
33.311794
31
0
39
0
210
0
220
0
230
1
0
LINE
5
F8
100
AcDbEntity
8
1
62
256
6
ByLayer
370
13
48
1
60
0
100
AcDbLine
10
64.421373
20
34.198773
30
0
11
64.421373
21
33.301227
31
0
39
0
210
0
220
0
230
1
0
LINE
5
F9
100
AcDbEntity
8
1
62
256
6
ByLayer
370
18
48
1
60
0
100
AcDbLine
10
60.717283
20
34.75
30
0
11
60.63041
21
34.75
31
0
39
0
210
0
220
0
230
1
0
LINE
5
FA
100
AcDbEntity
8
1
62
256
6
ByLayer
370
18
48
1
60
0
100
AcDbLine
10
61.711238
20
34.75
30
0
11
61.642833
21
34.75
31
0
39
0
210
0
220
0
230
1
0
LINE
5
FB
100
AcDbEntity
8
1
62
256
6
ByLayer
370
18
48
1
60
0
100
AcDbLine
10
61.875747
20
32.722882
30
0
11
61.959449
21
32.674557
31
0
39
0
210
0
220
0
230
1
0
LINE
5
FC
100
AcDbEntity
8
1
62
256
6
ByLayer
370
18
48
1
60
0
100
AcDbLine
10
62.045343
20
32.64829
30
0
11
62.230259
21
32.63536
31
0
39
0
210
0
220
0
230
1
0
LINE
5
FD
100
AcDbEntity
8
1
62
256
6
ByLayer
370
18
48
1
60
0
100
AcDbLine
10
62.49812
20
34.871919
30
0
11
62.408193
21
34.871935
31
0
39
0
210
0
220
0
230
1
0
LINE
5
FE
100
AcDbEntity
8
1
62
256
6
ByLayer
370
18
48
1
60
0
100
AcDbLine
10
63.558781
20
32.584495
30
0
11
63.758781
21
32.570441
31
0
39
0
210
0
220
0
230
1
0
LINE
5
FF
100
AcDbEntity
8
1
62
256
6
ByLayer
370
18
48
1
60
0
100
AcDbLine
10
62.408193
20
32.628065
30
0
11
62.49812
21
32.628081
31
0
39
0
210
0
220
0
230
1
0
LINE
5
100
100
AcDbEntity
8
1
62
256
6
ByLayer
370
18
48
1
60
0
100
AcDbLine
10
61.94752
20
34.824628
30
0
11
61.865402
21
34.777217
31
0
39
0
210
0
220
0
230
1
0
LINE
5
101
100
AcDbEntity
8
1
62
256
6
ByLayer
370
18
48
1
60
0
100
AcDbLine
10
60.63041
20
34.75
30
0
11
60.41185
21
34.75
31
0
39
0
210
0
220
0
230
1
0
LINE
5
102
100
AcDbEntity
8
1
62
256
6
ByLayer
370
18
48
1
60
0
100
AcDbLine
10
64.689249
20
35.000341
30
0
11
64.535516
21
34.990867
31
0
39
0
210
0
220
0
230
1
0
LINE
5
103
100
AcDbEntity
8
1
62
256
6
ByLayer
370
18
48
1
60
0
100
AcDbLine
10
60.717283
20
32.75
30
0
11
61.642833
21
32.75
31
0
39
0
210
0
220
0
230
1
0
LINE
5
104
100
AcDbEntity
8
1
62
256
6
ByLayer
370
18
48
1
60
0
100
AcDbLine
10
65.000117
20
34.374579
30
0
11
65.002839
21
34.69637
31
0
39
0
210
0
220
0
230
1
0
LINE
5
105
100
AcDbEntity
8
1
62
256
6
ByLayer
370
18
48
1
60
0
100
AcDbLine
10
60.63041
20
32.75
30
0
11
60.717283
21
32.75
31
0
39
0
210
0
220
0
230
1
0
LINE
5
106
100
AcDbEntity
8
1
62
256
6
ByLayer
370
18
48
1
60
0
100
AcDbLine
10
63.758781
20
34.929559
30
0
11
63.558781
21
34.915505
31
0
39
0
210
0
220
0
230
1
0
LINE
5
107
100
AcDbEntity
8
1
62
256
6
ByLayer
370
18
48
1
60
0
100
AcDbLine
10
64.106077
20
32.543895
30
0
11
64.46476
21
32.514235
31
0
39
0
210
0
220
0
230
1
0
LINE
5
108
100
AcDbEntity
8
1
62
256
6
ByLayer
370
18
48
1
60
0
100
AcDbLine
10
61.711238
20
34.75
30
0
11
61.763694
21
34.75
31
0
39
0
210
0
220
0
230
1
0
LINE
5
109
100
AcDbEntity
8
1
62
256
6
ByLayer
370
18
48
1
60
0
100
AcDbLine
10
65.002839
20
32.80363
30
0
11
65.000117
21
33.125421
31
0
39
0
210
0
220
0
230
1
0
LINE
5
10A
100
AcDbEntity
8
1
62
256
6
ByLayer
370
18
48
1
60
0
100
AcDbLine
10
62.230259
20
34.86464
30
0
11
62.03336
21
34.850872
31
0
39
0
210
0
220
0
230
1
0
LINE
5
10B
100
AcDbEntity
8
1
62
256
6
ByLayer
370
18
48
1
60
0
100
AcDbLine
10
61.642833
20
34.75
30
0
11
60.717283
21
34.75
31
0
39
0
210
0
220
0
230
1
0
LINE
5
10C
100
AcDbEntity
8
1
62
256
6
ByLayer
370
18
48
1
60
0
100
AcDbLine
10
64.46476
20
34.985765
30
0
11
64.106077
21
34.956105
31
0
39
0
210
0
220
0
230
1
0
LINE
5
10D
100
AcDbEntity
8
1
62
256
6
ByLayer
370
18
48
1
60
0
100
AcDbLine
10
61.642833
20
32.75
30
0
11
61.711238
21
32.75
31
0
39
0
210
0
220
0
230
1
0
LINE
5
10E
100
AcDbEntity
8
1
62
256
6
ByLayer
370
18
48
1
60
0
100
AcDbLine
10
60.41185
20
32.75
30
0
11
60.63041
21
32.75
31
0
39
0
210
0
220
0
230
1
0
LINE
5
10F
100
AcDbEntity
8
1
62
256
6
ByLayer
370
18
48
1
60
0
100
AcDbLine
10
65
20
33.153117
30
0
11
65
21
34.346883
31
0
39
0
210
0
220
0
230
1
0
LINE
5
110
100
AcDbEntity
8
1
62
256
6
ByLayer
370
18
48
1
60
0
100
AcDbLine
10
64.535516
20
32.509133
30
0
11
64.689249
21
32.499659
31
0
39
0
210
0
220
0
230
1
0
LINE
5
111
100
AcDbEntity
8
1
62
256
6
ByLayer
370
18
48
1
60
0
100
AcDbLine
10
61.77444
20
32.75
30
0
11
61.711238
21
32.75
31
0
39
0
210
0
220
0
230
1
0
MTEXT
5
21D
100
AcDbEntity
8
SK6
62
256
6
ByLayer
370
18
48
1
60
0
100
AcDbMText
10
-14.125
20
-45.874555
30
0
210
0
220
0
230
1
1
\W0.7810;C5-QD-RFF25C35065A
40
3.5
41
0
44
1.084337
50
0
71
7
72
5
7
iso_b_vert
0
DIMENSION
5
22F
100
AcDbEntity
8
2
62
256
6
ByLayer
370
13
48
1
60
0
100
AcDbDimension
2
DimnDraft3D1
10
90.1
20
35
30
0
11
90.1
21
15.409211
31
0
70
32
71
5
72
1
41
1
210
0
220
0
230
1
3
Standard
100
AcDbAlignedDimension
13
42
23
0
33
0
14
67
24
35
34
0
50
90
100
AcDbRotatedDimension
1001
ACAD
1000
DSTYLE
1002
{
1070
    74
1070
     0
1070
   279
1070
     0
1070
   172
1070
     1
1070
   173
1070
     1
1070
   340
1005
21E
1070
   271
1070
     1
1070
    77
1070
     1
1070
    73
1070
     0
1070
   171
1070
     3
1070
   274
1070
     4
1070
   177
1070
     2
1070
   176
1070
     2
1070
   178
1070
     7
1070
    78
1070
     8
1070
    41
1041
3.175
1070
   147
1041
1.75
1070
    42
1041
2.0
1070
    44
1041
2.0
1070
   140
1041
3.5
1070
   343
1005
230
1070
   344
1005
230
1002
}
0
DIMENSION
5
245
100
AcDbEntity
8
SK2
62
256
6
ByLayer
370
13
48
1
60
0
100
AcDbDimension
2
DimnDraft3D2
10
65
20
57.600889
30
0
11
30.409211
21
57.600889
31
0
70
32
71
5
72
1
41
1
210
0
220
0
230
1
3
Standard
100
AcDbAlignedDimension
13
0
23
2
33
0
14
65
24
37
34
0
50
0
100
AcDbRotatedDimension
1001
ACAD
1000
DSTYLE
1002
{
1070
   279
1070
     0
1070
   172
1070
     1
1070
   173
1070
     1
1070
   340
1005
21E
1070
   271
1070
     1
1070
    77
1070
     1
1070
    73
1070
     0
1070
   171
1070
     3
1070
   274
1070
     4
1070
   177
1070
     2
1070
   176
1070
     2
1070
   178
1070
     7
1070
    78
1070
     8
1070
    41
1041
3.175
1070
   147
1041
1.75
1070
    42
1041
2.0
1070
    44
1041
2.0
1070
   140
1041
3.5
1070
   343
1005
230
1070
   344
1005
230
1002
}
0
DIMENSION
5
253
100
AcDbEntity
8
2
62
256
6
ByLayer
370
13
48
1
60
0
100
AcDbDimension
2
DimnDraft3D3
10
40
20
-38.1
30
0
11
50.409211
21
-38.1
31
0
70
32
71
5
72
1
41
1
210
0
220
0
230
1
3
Standard
100
AcDbAlignedDimension
13
65
23
33
33
0
14
40
24
-2
34
0
50
0
100
AcDbRotatedDimension
1001
ACAD
1000
DSTYLE
1002
{
1070
   279
1070
     0
1070
   172
1070
     1
1070
   173
1070
     1
1070
   340
1005
21E
1070
   271
1070
     1
1070
    77
1070
     1
1070
    73
1070
     0
1070
   171
1070
     3
1070
   274
1070
     4
1070
   177
1070
     2
1070
   176
1070
     2
1070
   178
1070
     7
1070
    78
1070
     8
1070
    41
1041
3.175
1070
   147
1041
1.75
1070
    42
1041
2.0
1070
    44
1041
2.0
1070
   140
1041
3.5
1070
   343
1005
230
1070
   344
1005
230
1002
}
0
DIMENSION
5
261
100
AcDbEntity
8
SK2
62
256
6
ByLayer
370
13
48
1
60
0
100
AcDbDimension
2
DimnDraft3D4
10
-39.6
20
-25
30
0
11
-39.6
21
-2.090789
31
0
70
32
71
5
72
1
41
1
210
0
220
0
230
1
3
Standard
100
AcDbAlignedDimension
13
-2
23
25
33
0
14
-2
24
-25
34
0
50
90
100
AcDbRotatedDimension
1001
ACAD
1000
DSTYLE
1002
{
1070
    74
1070
     0
1070
   279
1070
     0
1070
   172
1070
     1
1070
   173
1070
     1
1070
   340
1005
21E
1070
   271
1070
     1
1070
    77
1070
     1
1070
    73
1070
     0
1070
   171
1070
     3
1070
   274
1070
     4
1070
   177
1070
     2
1070
   176
1070
     2
1070
   178
1070
     7
1070
    78
1070
     8
1070
    41
1041
3.175
1070
   147
1041
1.75
1070
    42
1041
2.0
1070
    44
1041
2.0
1070
   140
1041
3.5
1070
   343
1005
230
1070
   344
1005
230
1002
}
0
DIMENSION
5
26F
100
AcDbEntity
8
2
62
256
6
ByLayer
370
13
48
1
60
0
100
AcDbDimension
2
DimnDraft3D5
10
83.1
20
32.5
30
0
11
83.1
21
16.645
31
0
70
32
71
5
72
1
41
1
210
0
220
0
230
1
3
Standard
100
AcDbAlignedDimension
13
67
23
35
33
0
14
67
24
32.5
34
0
50
90
100
AcDbRotatedDimension
1001
ACAD
1000
DSTYLE
1002
{
1070
    74
1070
     0
1070
   279
1070
     0
1070
   172
1070
     1
1070
   173
1070
     1
1070
   340
1005
21E
1070
   271
1070
     1
1070
    77
1070
     1
1070
    73
1070
     0
1070
   171
1070
     3
1070
   274
1070
     4
1070
   177
1070
     2
1070
   176
1070
     2
1070
   178
1070
     7
1070
    78
1070
     8
1070
    41
1041
3.175
1070
   147
1041
1.75
1070
    42
1041
2.0
1070
    44
1041
2.0
1070
   140
1041
3.5
1070
   343
1005
230
1070
   344
1005
230
1002
}
0
ENDSEC
0
SECTION
2
OBJECTS
0
DICTIONARY
5
2d9
330
0
100
AcDbDictionary
280
0
281
1
3
ACAD_GROUP
350
2da
3
ACAD_MLINESTYLE
350
2db
0
DICTIONARY
5
2da
330
0
100
AcDbDictionary
280
0
281
1
0
DICTIONARY
5
2db
330
0
100
AcDbDictionary
280
0
281
1
3
Standard
350
18
0
MLINESTYLE
5
18
330
2db
100
AcDbMlineStyle
2
Standard
70
0
3

62
256
51
90
52
90
71
2
49
-0.5
62
256
6
ByLayer
49
0.5
62
256
6
ByLayer
0
RASTERVARIABLES
5
2c8
330

100
AcDbRasterVariables
90
0
70
1
71
1
72
1
0
ENDSEC
0
EOF
