0
SECTION
2
HEADER
9
$ACADVER
1
AC1015
9
$DWGCODEPAGE
3
ANSI_1252
9
$HANDSEED
5
2ec
9
$ANGBASE
50
0
9
$ANGDIR
70
0
9
$ATTMODE
70
1
9
$AUNITS
70
0
9
$AUPREC
70
0
9
$CECOLOR
62
256
9
$CELTSCALE
40
1
9
$CELTYPE
6
ByLayer
9
$CELWEIGHT
370
18
9
$CLAYER
8
0
9
$CMLJUST
70
0
9
$CMLSCALE
40
1
9
$CMLSTYLE
2
Standard
9
$DIMSTYLE
2
Standard
9
$TEXTSIZE
40
0.2
9
$TEXTSTYLE
7
Standard
9
$LUNITS
70
2
9
$LUPREC
70
4
9
$EXTNAMES
290
1
9
$INSUNITS
70
4
9
$LTSCALE
40
1
9
$LWDISPLAY
290
1
9
$PDMODE
70
0
9
$PDSIZE
40
0
9
$PLINEGEN
70
0
0
ENDSEC
0
SECTION
2
CLASSES
0
CLASS
1
RASTERVARIABLES
2
AcDbRasterVariables
3
ISM
90
0
280
0
281
0
0
ENDSEC
0
SECTION
2
TABLES
0
TABLE
2
VPORT
5
2e2
100
AcDbSymbolTable
0
VPORT
5
1
100
AcDbSymbolTableRecord
100
AcDbViewportTableRecord
2
*Active
70
0
10
0
20
0
11
1
21
1
12
-1
22
1
13
0
23
0
14
0.5
24
0.5
15
10
25
10
16
0
26
0
36
1
17
0
27
0
37
0
0
ENDTAB
0
TABLE
2
LTYPE
5
2e3
100
AcDbSymbolTable
0
LTYPE
5
14
100
AcDbSymbolTableRecord
100
AcDbLinetypeTableRecord
70
0
2
ByBlock
3

72
65
73
0
40
0
0
LTYPE
5
15
100
AcDbSymbolTableRecord
100
AcDbLinetypeTableRecord
70
0
2
ByLayer
3

72
65
73
0
40
0
0
LTYPE
5
16
100
AcDbSymbolTableRecord
100
AcDbLinetypeTableRecord
70
0
2
CONTINUOUS
3
Solid line
72
65
73
0
40
0
0
LTYPE
5
6A
100
AcDbSymbolTableRecord
100
AcDbLinetypeTableRecord
70
0
2
CENTER
3
____ _ ____ _ ____ _ ____
72
65
73
4
40
47.5
49
22
74
0
49
-8.5
74
0
49
8.5
74
0
49
-8.5
74
0
0
LTYPE
5
6B
100
AcDbSymbolTableRecord
100
AcDbLinetypeTableRecord
70
0
2
DASHED
3
__ __ __ __ __ __ __ __ __
72
65
73
2
40
25.72
49
12.86
74
0
49
-12.86
74
0
0
ENDTAB
0
TABLE
2
LAYER
5
2e4
100
AcDbSymbolTable
0
LAYER
5
10
100
AcDbSymbolTableRecord
100
AcDbLayerTableRecord
2
0
70
0
62
7
6
CONTINUOUS
290
1
370
-3
390
0
0
LAYER
5
6D
100
AcDbSymbolTableRecord
100
AcDbLayerTableRecord
2
80
70
0
62
-6
6
CONTINUOUS
290
1
370
-3
390
0
0
LAYER
5
6F
100
AcDbSymbolTableRecord
100
AcDbLayerTableRecord
2
81
70
0
62
-3
6
CONTINUOUS
290
1
370
-3
390
0
0
LAYER
5
71
100
AcDbSymbolTableRecord
100
AcDbLayerTableRecord
2
1
70
0
62
4
6
CONTINUOUS
290
1
370
-3
390
0
0
LAYER
5
23F
100
AcDbSymbolTableRecord
100
AcDbLayerTableRecord
2
2
70
0
62
7
6
CONTINUOUS
290
1
370
-3
390
0
0
LAYER
5
2cf
100
AcDbSymbolTableRecord
100
AcDbLayerTableRecord
2
SK1
70
0
62
4
6
CONTINUOUS
290
1
370
-3
390
0
0
LAYER
5
2d0
100
AcDbSymbolTableRecord
100
AcDbLayerTableRecord
2
SK6
70
0
62
5
6
CONTINUOUS
290
1
370
-3
390
0
0
LAYER
5
2d1
100
AcDbSymbolTableRecord
100
AcDbLayerTableRecord
2
SK2
70
0
62
7
6
CONTINUOUS
290
1
370
-3
390
0
0
ENDTAB
0
TABLE
2
STYLE
5
2e5
100
AcDbSymbolTable
0
STYLE
5
11
100
AcDbSymbolTableRecord
100
AcDbTextStyleTableRecord
2
Standard
3
txt
70
0
71
0
40
0
41
1
42
0
50
0
0
STYLE
5
224
100
AcDbSymbolTableRecord
100
AcDbTextStyleTableRecord
2
iso_b_vert
3
simplex.shx
70
0
71
0
40
0
41
1
42
0
50
0
0
STYLE
5
225
100
AcDbSymbolTableRecord
100
AcDbTextStyleTableRecord
2
DWGDirectTextStyle
3
simplex
70
0
71
0
40
0
41
1
42
0
50
0
0
ENDTAB
0
TABLE
2
DIMSTYLE
5
2e6
100
AcDbSymbolTable
100
AcDbDimStyleTable
0
DIMSTYLE
105
27
100
AcDbSymbolTableRecord
100
AcDbDimStyleTableRecord
2
Standard
70
0
3
<>
41
0.18
42
0.0625
44
0.18
140
0.18
147
0.09
73
0
74
0
77
1
271
2
275
0
278
52
280
0
340
11
0
ENDTAB
0
TABLE
2
VIEW
5
2e7
100
AcDbSymbolTable
0
ENDTAB
0
TABLE
2
UCS
5
2e8
100
AcDbSymbolTable
0
ENDTAB
0
TABLE
2
APPID
5
2e9
100
AcDbSymbolTable
0
APPID
5
12
100
AcDbSymbolTableRecord
100
AcDbRegAppTableRecord
2
ACAD
70
0
0
ENDTAB
0
TABLE
2
BLOCK_RECORD
5
2ea
100
AcDbSymbolTable
0
BLOCK_RECORD
5
1F
100
AcDbSymbolTableRecord
100
AcDbBlockTableRecord
2
*Model_Space
340
0
70
0
0
BLOCK_RECORD
5
1B
100
AcDbSymbolTableRecord
100
AcDbBlockTableRecord
2
*Paper_Space
340
0
70
0
0
BLOCK_RECORD
5
23
100
AcDbSymbolTableRecord
100
AcDbBlockTableRecord
2
*Paper_Space0
340
0
70
0
0
BLOCK_RECORD
5
227
100
AcDbSymbolTableRecord
100
AcDbBlockTableRecord
2
DimnDraft3D1
340
0
70
0
0
BLOCK_RECORD
5
236
100
AcDbSymbolTableRecord
100
AcDbBlockTableRecord
2
_CLOSED
340
0
70
0
0
BLOCK_RECORD
5
23D
100
AcDbSymbolTableRecord
100
AcDbBlockTableRecord
2
DimnDraft3D2
340
0
70
0
0
BLOCK_RECORD
5
24C
100
AcDbSymbolTableRecord
100
AcDbBlockTableRecord
2
DimnDraft3D3
340
0
70
0
0
BLOCK_RECORD
5
25A
100
AcDbSymbolTableRecord
100
AcDbBlockTableRecord
2
DimnDraft3D4
340
0
70
0
0
BLOCK_RECORD
5
268
100
AcDbSymbolTableRecord
100
AcDbBlockTableRecord
2
DimnDraft3D5
340
0
70
0
0
ENDTAB
0
ENDSEC
0
SECTION
2
BLOCKS
0
BLOCK
5
20
100
AcDbEntity
8
0
100
AcDbBlockBegin
2
*Model_Space
70
0
10
0
20
0
30
0
3
*Model_Space
0
ENDBLK
5
21
100
AcDbEntity
8
0
100
AcDbBlockEnd
0
BLOCK
5
1C
100
AcDbEntity
8
0
100
AcDbBlockBegin
2
*Paper_Space
70
0
10
0
20
0
30
0
3
*Paper_Space
0
ENDBLK
5
1D
100
AcDbEntity
8
0
100
AcDbBlockEnd
0
BLOCK
5
24
100
AcDbEntity
8
0
100
AcDbBlockBegin
2
*Paper_Space0
70
0
10
0
20
0
30
0
3
*Paper_Space0
0
ENDBLK
5
25
100
AcDbEntity
8
0
100
AcDbBlockEnd
0
BLOCK
5
233
100
AcDbEntity
8
0
100
AcDbBlockBegin
2
DimnDraft3D1
70
0
10
0
20
0
30
0
3
DimnDraft3D1
0
MTEXT
5
228
100
AcDbEntity
8
SK2
62
256
6
ByLayer
370
18
48
1
60
0
100
AcDbMText
10
33.784211
20
48.475
30
0
210
0
220
0
230
1
1
\W0.6740;70
40
3.5
41
0
44
1.084337
50
0
71
7
72
5
7
iso_b_vert
0
LINE
5
22A
100
AcDbEntity
8
SK2
62
256
6
ByLayer
370
13
48
1
60
0
100
AcDbLine
10
0
20
2
30
0
11
0
21
49.6
31
0
39
0
210
0
220
0
230
1
0
LINE
5
22B
100
AcDbEntity
8
SK2
62
256
6
ByLayer
370
13
48
1
60
0
100
AcDbLine
10
70
20
-33
30
0
11
70
21
49.6
31
0
39
0
210
0
220
0
230
1
0
LINE
5
22C
100
AcDbEntity
8
SK2
62
256
6
ByLayer
370
13
48
1
60
0
100
AcDbLine
10
0
20
47.6
30
0
11
70
21
47.6
31
0
39
0
210
0
220
0
230
1
0
LINE
5
22D
100
AcDbEntity
8
SK2
62
256
6
ByLayer
370
13
48
1
60
0
100
AcDbLine
10
0
20
47.6
30
0
11
3.174998
21
48.017997
31
0
39
0
210
0
220
0
230
1
0
LINE
5
22E
100
AcDbEntity
8
SK2
62
256
6
ByLayer
370
13
48
1
60
0
100
AcDbLine
10
0
20
47.6
30
0
11
3.175002
21
47.182003
31
0
39
0
210
0
220
0
230
1
0
LINE
5
22F
100
AcDbEntity
8
SK2
62
256
6
ByLayer
370
13
48
1
60
0
100
AcDbLine
10
3.174998
20
48.017997
30
0
11
3.175002
21
47.182003
31
0
39
0
210
0
220
0
230
1
0
LINE
5
230
100
AcDbEntity
8
SK2
62
256
6
ByLayer
370
13
48
1
60
0
100
AcDbLine
10
70
20
47.6
30
0
11
66.825002
21
47.182003
31
0
39
0
210
0
220
0
230
1
0
LINE
5
231
100
AcDbEntity
8
SK2
62
256
6
ByLayer
370
13
48
1
60
0
100
AcDbLine
10
70
20
47.6
30
0
11
66.824998
21
48.017997
31
0
39
0
210
0
220
0
230
1
0
LINE
5
232
100
AcDbEntity
8
SK2
62
256
6
ByLayer
370
13
48
1
60
0
100
AcDbLine
10
66.825002
20
47.182003
30
0
11
66.824998
21
48.017997
31
0
39
0
210
0
220
0
230
1
0
ENDBLK
5
234
100
AcDbEntity
8
0
100
AcDbBlockEnd
0
BLOCK
5
237
100
AcDbEntity
8
0
100
AcDbBlockBegin
2
_CLOSED
70
0
10
0
20
0
30
0
3
_CLOSED
0
LINE
5
239
100
AcDbEntity
8
0
62
256
6
ByLayer
370
-2
48
1
60
0
100
AcDbLine
10
-1
20
0.166667
30
0
11
0
21
0
31
0
39
0
210
0
220
0
230
1
0
LINE
5
23A
100
AcDbEntity
8
0
62
256
6
ByLayer
370
-2
48
1
60
0
100
AcDbLine
10
0
20
0
30
0
11
-1
21
-0.166667
31
0
39
0
210
0
220
0
230
1
0
LINE
5
23B
100
AcDbEntity
8
0
62
256
6
ByLayer
370
-2
48
1
60
0
100
AcDbLine
10
-1
20
0.166667
30
0
11
-1
21
-0.166667
31
0
39
0
210
0
220
0
230
1
0
LINE
5
23C
100
AcDbEntity
8
0
62
256
6
ByLayer
370
-2
48
1
60
0
100
AcDbLine
10
0
20
0
30
0
11
-1
21
0
31
0
39
0
210
0
220
0
230
1
0
ENDBLK
5
238
100
AcDbEntity
8
0
100
AcDbBlockEnd
0
BLOCK
5
249
100
AcDbEntity
8
0
100
AcDbBlockBegin
2
DimnDraft3D2
70
0
10
0
20
0
30
0
3
DimnDraft3D2
0
MTEXT
5
23E
100
AcDbEntity
8
2
62
256
6
ByLayer
370
18
48
1
60
0
100
AcDbMText
10
52.784211
20
-47.236273
30
0
210
0
220
0
230
1
1
\W0.6740;32
40
3.5
41
0
44
1.084337
50
0
71
7
72
5
7
iso_b_vert
0
LINE
5
240
100
AcDbEntity
8
2
62
256
6
ByLayer
370
13
48
1
60
0
100
AcDbLine
10
70
20
-37
30
0
11
70
21
-50.111273
31
0
39
0
210
0
220
0
230
1
0
LINE
5
241
100
AcDbEntity
8
2
62
256
6
ByLayer
370
13
48
1
60
0
100
AcDbLine
10
38
20
-27
30
0
11
38
21
-50.111273
31
0
39
0
210
0
220
0
230
1
0
LINE
5
242
100
AcDbEntity
8
2
62
256
6
ByLayer
370
13
48
1
60
0
100
AcDbLine
10
70
20
-48.111273
30
0
11
38
21
-48.111273
31
0
39
0
210
0
220
0
230
1
0
LINE
5
243
100
AcDbEntity
8
2
62
256
6
ByLayer
370
13
48
1
60
0
100
AcDbLine
10
70
20
-48.111273
30
0
11
66.825002
21
-48.529269
31
0
39
0
210
0
220
0
230
1
0
LINE
5
244
100
AcDbEntity
8
2
62
256
6
ByLayer
370
13
48
1
60
0
100
AcDbLine
10
70
20
-48.111273
30
0
11
66.824998
21
-47.693276
31
0
39
0
210
0
220
0
230
1
0
LINE
5
245
100
AcDbEntity
8
2
62
256
6
ByLayer
370
13
48
1
60
0
100
AcDbLine
10
66.825002
20
-48.529269
30
0
11
66.824998
21
-47.693276
31
0
39
0
210
0
220
0
230
1
0
LINE
5
246
100
AcDbEntity
8
2
62
256
6
ByLayer
370
13
48
1
60
0
100
AcDbLine
10
38
20
-48.111273
30
0
11
41.174998
21
-47.693276
31
0
39
0
210
0
220
0
230
1
0
LINE
5
247
100
AcDbEntity
8
2
62
256
6
ByLayer
370
13
48
1
60
0
100
AcDbLine
10
38
20
-48.111273
30
0
11
41.175002
21
-48.529269
31
0
39
0
210
0
220
0
230
1
0
LINE
5
248
100
AcDbEntity
8
2
62
256
6
ByLayer
370
13
48
1
60
0
100
AcDbLine
10
41.174998
20
-47.693276
30
0
11
41.175002
21
-48.529269
31
0
39
0
210
0
220
0
230
1
0
ENDBLK
5
24A
100
AcDbEntity
8
0
100
AcDbBlockEnd
0
BLOCK
5
257
100
AcDbEntity
8
0
100
AcDbBlockBegin
2
DimnDraft3D3
70
0
10
0
20
0
30
0
3
DimnDraft3D3
0
MTEXT
5
24D
100
AcDbEntity
8
SK2
62
256
6
ByLayer
370
18
48
1
60
0
100
AcDbMText
10
-40.475
20
-1.215789
30
0
210
0
220
0
230
1
1
\W0.6740;50
40
3.5
41
0
44
1.084337
50
90
71
7
72
5
7
iso_b_vert
0
LINE
5
24E
100
AcDbEntity
8
SK2
62
256
6
ByLayer
370
13
48
1
60
0
100
AcDbLine
10
-2
20
-25
30
0
11
-41.6
21
-25
31
0
39
0
210
0
220
0
230
1
0
LINE
5
24F
100
AcDbEntity
8
SK2
62
256
6
ByLayer
370
13
48
1
60
0
100
AcDbLine
10
-2
20
25
30
0
11
-41.6
21
25
31
0
39
0
210
0
220
0
230
1
0
LINE
5
250
100
AcDbEntity
8
SK2
62
256
6
ByLayer
370
13
48
1
60
0
100
AcDbLine
10
-39.6
20
-25
30
0
11
-39.6
21
25
31
0
39
0
210
0
220
0
230
1
0
LINE
5
251
100
AcDbEntity
8
SK2
62
256
6
ByLayer
370
13
48
1
60
0
100
AcDbLine
10
-39.6
20
-25
30
0
11
-40.017997
21
-21.825002
31
0
39
0
210
0
220
0
230
1
0
LINE
5
252
100
AcDbEntity
8
SK2
62
256
6
ByLayer
370
13
48
1
60
0
100
AcDbLine
10
-39.6
20
-25
30
0
11
-39.182003
21
-21.824998
31
0
39
0
210
0
220
0
230
1
0
LINE
5
253
100
AcDbEntity
8
SK2
62
256
6
ByLayer
370
13
48
1
60
0
100
AcDbLine
10
-40.017997
20
-21.825002
30
0
11
-39.182003
21
-21.824998
31
0
39
0
210
0
220
0
230
1
0
LINE
5
254
100
AcDbEntity
8
SK2
62
256
6
ByLayer
370
13
48
1
60
0
100
AcDbLine
10
-39.6
20
25
30
0
11
-39.182003
21
21.825002
31
0
39
0
210
0
220
0
230
1
0
LINE
5
255
100
AcDbEntity
8
SK2
62
256
6
ByLayer
370
13
48
1
60
0
100
AcDbLine
10
-39.6
20
25
30
0
11
-40.017997
21
21.824998
31
0
39
0
210
0
220
0
230
1
0
LINE
5
256
100
AcDbEntity
8
SK2
62
256
6
ByLayer
370
13
48
1
60
0
100
AcDbLine
10
-39.182003
20
21.825002
30
0
11
-40.017997
21
21.824998
31
0
39
0
210
0
220
0
230
1
0
ENDBLK
5
258
100
AcDbEntity
8
0
100
AcDbBlockEnd
0
BLOCK
5
265
100
AcDbEntity
8
0
100
AcDbBlockBegin
2
DimnDraft3D4
70
0
10
0
20
0
30
0
3
DimnDraft3D4
0
MTEXT
5
25B
100
AcDbEntity
8
2
62
256
6
ByLayer
370
18
48
1
60
0
100
AcDbMText
10
94.225
20
-18.715789
30
0
210
0
220
0
230
1
1
\W0.6740;35
40
3.5
41
0
44
1.084337
50
90
71
7
72
5
7
iso_b_vert
0
LINE
5
25C
100
AcDbEntity
8
2
62
256
6
ByLayer
370
13
48
1
60
0
100
AcDbLine
10
63
20
0
30
0
11
97.1
21
0
31
0
39
0
210
0
220
0
230
1
0
LINE
5
25D
100
AcDbEntity
8
2
62
256
6
ByLayer
370
13
48
1
60
0
100
AcDbLine
10
72
20
-35
30
0
11
97.1
21
-35
31
0
39
0
210
0
220
0
230
1
0
LINE
5
25E
100
AcDbEntity
8
2
62
256
6
ByLayer
370
13
48
1
60
0
100
AcDbLine
10
95.1
20
0
30
0
11
95.1
21
-35
31
0
39
0
210
0
220
0
230
1
0
LINE
5
25F
100
AcDbEntity
8
2
62
256
6
ByLayer
370
13
48
1
60
0
100
AcDbLine
10
95.1
20
0
30
0
11
95.517997
21
-3.174998
31
0
39
0
210
0
220
0
230
1
0
LINE
5
260
100
AcDbEntity
8
2
62
256
6
ByLayer
370
13
48
1
60
0
100
AcDbLine
10
95.1
20
0
30
0
11
94.682003
21
-3.175002
31
0
39
0
210
0
220
0
230
1
0
LINE
5
261
100
AcDbEntity
8
2
62
256
6
ByLayer
370
13
48
1
60
0
100
AcDbLine
10
95.517997
20
-3.174998
30
0
11
94.682003
21
-3.175002
31
0
39
0
210
0
220
0
230
1
0
LINE
5
262
100
AcDbEntity
8
2
62
256
6
ByLayer
370
13
48
1
60
0
100
AcDbLine
10
95.1
20
-35
30
0
11
94.682003
21
-31.825002
31
0
39
0
210
0
220
0
230
1
0
LINE
5
263
100
AcDbEntity
8
2
62
256
6
ByLayer
370
13
48
1
60
0
100
AcDbLine
10
95.1
20
-35
30
0
11
95.517997
21
-31.824998
31
0
39
0
210
0
220
0
230
1
0
LINE
5
264
100
AcDbEntity
8
2
62
256
6
ByLayer
370
13
48
1
60
0
100
AcDbLine
10
94.682003
20
-31.825002
30
0
11
95.517997
21
-31.824998
31
0
39
0
210
0
220
0
230
1
0
ENDBLK
5
266
100
AcDbEntity
8
0
100
AcDbBlockEnd
0
BLOCK
5
273
100
AcDbEntity
8
0
100
AcDbBlockBegin
2
DimnDraft3D5
70
0
10
0
20
0
30
0
3
DimnDraft3D5
0
MTEXT
5
269
100
AcDbEntity
8
2
62
256
6
ByLayer
370
18
48
1
60
0
100
AcDbMText
10
87.225
20
-46.314211
30
0
210
0
220
0
230
1
1
\W0.6380;4
40
3.5
41
0
44
1.084337
50
90
71
7
72
5
7
iso_b_vert
0
LINE
5
26A
100
AcDbEntity
8
2
62
256
6
ByLayer
370
13
48
1
60
0
100
AcDbLine
10
72
20
-35
30
0
11
90.1
21
-35
31
0
39
0
210
0
220
0
230
1
0
LINE
5
26B
100
AcDbEntity
8
2
62
256
6
ByLayer
370
13
48
1
60
0
100
AcDbLine
10
72
20
-31
30
0
11
90.1
21
-31
31
0
39
0
210
0
220
0
230
1
0
LINE
5
26C
100
AcDbEntity
8
2
62
256
6
ByLayer
370
13
48
1
60
0
100
AcDbLine
10
88.1
20
-22.25
30
0
11
88.1
21
-47.189211
31
0
39
0
210
0
220
0
230
1
0
LINE
5
26D
100
AcDbEntity
8
2
62
256
6
ByLayer
370
13
48
1
60
0
100
AcDbLine
10
88.1
20
-35
30
0
11
88.517997
21
-38.174998
31
0
39
0
210
0
220
0
230
1
0
LINE
5
26E
100
AcDbEntity
8
2
62
256
6
ByLayer
370
13
48
1
60
0
100
AcDbLine
10
88.1
20
-35
30
0
11
87.682003
21
-38.175002
31
0
39
0
210
0
220
0
230
1
0
LINE
5
26F
100
AcDbEntity
8
2
62
256
6
ByLayer
370
13
48
1
60
0
100
AcDbLine
10
88.517997
20
-38.174998
30
0
11
87.682003
21
-38.175002
31
0
39
0
210
0
220
0
230
1
0
LINE
5
270
100
AcDbEntity
8
2
62
256
6
ByLayer
370
13
48
1
60
0
100
AcDbLine
10
88.1
20
-31
30
0
11
87.682003
21
-27.825002
31
0
39
0
210
0
220
0
230
1
0
LINE
5
271
100
AcDbEntity
8
2
62
256
6
ByLayer
370
13
48
1
60
0
100
AcDbLine
10
88.1
20
-31
30
0
11
88.517997
21
-27.824998
31
0
39
0
210
0
220
0
230
1
0
LINE
5
272
100
AcDbEntity
8
2
62
256
6
ByLayer
370
13
48
1
60
0
100
AcDbLine
10
87.682003
20
-27.825002
30
0
11
88.517997
21
-27.824998
31
0
39
0
210
0
220
0
230
1
0
ENDBLK
5
274
100
AcDbEntity
8
0
100
AcDbBlockEnd
0
ENDSEC
0
SECTION
2
ENTITIES
0
ARC
5
FA
100
AcDbEntity
8
1
62
256
6
ByLayer
370
13
48
1
60
0
100
AcDbCircle
39
0
10
-20.279208
20
-26.2
30
0
40
1.2
210
0
220
0
230
-1
100
AcDbArc
50
90
51
165
0
ARC
5
FB
100
AcDbEntity
8
1
62
256
6
ByLayer
370
13
48
1
60
0
100
AcDbCircle
39
0
10
-38
20
-29.725
30
0
40
1.6
210
0
220
0
230
-1
100
AcDbArc
50
270
51
0
0
ARC
5
FC
100
AcDbEntity
8
1
62
256
6
ByLayer
370
13
48
1
60
0
100
AcDbCircle
39
0
10
-24.115124
20
14.5
30
0
40
3.99999999999991
210
0
220
0
230
-1
100
AcDbArc
50
270
51
359.5
0
ELLIPSE
5
FD
100
AcDbEntity
8
1
62
256
6
ByLayer
370
13
48
1
60
0
100
AcDbEllipse
10
21.056258
20
0
30
0
11
11.709272349726
21
24.6771864409377
31
0
210
0
220
0
230
-1
40
0.341999
41
-2.9743795816808
42
-2.05975995310048
0
ELLIPSE
5
FE
100
AcDbEntity
8
1
62
256
6
ByLayer
370
13
48
1
60
0
100
AcDbEllipse
10
-1.056258
20
0
30
0
11
11.7092723497294
21
24.6771864409394
31
0
210
0
220
0
230
-1
40
0.341999
41
0.167213071908966
42
1.0818327004892
0
ELLIPSE
5
FF
100
AcDbEntity
8
1
62
256
6
ByLayer
370
13
48
1
60
0
100
AcDbEllipse
10
63.648998
20
-33
30
0
11
1.6136981775069
21
1.6308664013037E-15
31
0
210
0
220
0
230
-1
40
0.464771
41
1.1543693224621
42
-1.15436932246208
0
ELLIPSE
5
100
100
AcDbEntity
8
1
62
256
6
ByLayer
370
13
48
1
60
0
100
AcDbEllipse
10
20.218172
20
0
30
0
11
-1.5307579422779E-15
21
24.9999999999988
31
0
210
0
220
0
230
-1
40
0.008727
41
-2.65045951231985
42
-0.709680710119424
0
ELLIPSE
5
101
100
AcDbEntity
8
1
62
256
6
ByLayer
370
13
48
1
60
0
100
AcDbEllipse
10
21.056258
20
0
30
0
11
11.7092723497258
21
-24.6771864409373
31
0
210
0
220
0
230
-1
40
0.341999
41
2.05975995310046
42
2.9743795816808
0
ELLIPSE
5
102
100
AcDbEntity
8
1
62
256
6
ByLayer
370
13
48
1
60
0
100
AcDbEllipse
10
-1.056258
20
0
30
0
11
11.7092723497287
21
-24.6771864409385
31
0
210
0
220
0
230
-1
40
0.341999
41
-1.08183270048922
42
-0.167213071908978
0
ELLIPSE
5
103
100
AcDbEntity
8
1
62
256
6
ByLayer
370
13
48
1
60
0
100
AcDbEllipse
10
65.764493
20
-33
30
0
11
1.6318872646966
21
-8.49494409371958E-09
31
0
210
0
220
0
230
-1
40
0.459591
41
-2.00702504983335
42
-1.9547687697648
0
ELLIPSE
5
104
100
AcDbEntity
8
1
62
256
6
ByLayer
370
13
48
1
60
0
100
AcDbEllipse
10
65.764493
20
-33
30
0
11
1.63188711864917
21
-4.54310133401148E-08
31
0
210
0
220
0
230
-1
40
0.459591
41
1.95476872395493
42
2.00702500805118
0
ELLIPSE
5
105
100
AcDbEntity
8
1
62
256
6
ByLayer
370
13
48
1
60
0
100
AcDbEllipse
10
65.64586
20
-32.541644
30
0
11
0.79964430208806
21
0.0600592121777271
31
0
210
0
220
0
230
-1
40
0.397167
41
-1.89004086455792
42
-1.17447974407893
0
ELLIPSE
5
106
100
AcDbEntity
8
1
62
256
6
ByLayer
370
13
48
1
60
0
100
AcDbEllipse
10
66.290882
20
-31.830285
30
0
11
0.999555377576128
21
0.0750740152139538
31
0
210
0
220
0
230
-1
40
0.397167
41
1.60061763941688
42
1.96711290950987
0
ELLIPSE
5
107
100
AcDbEntity
8
1
62
256
6
ByLayer
370
13
48
1
60
0
100
AcDbEllipse
10
66.290882
20
-34.169715
30
0
11
0.999555377709529
21
-0.075074015251588
31
0
210
0
220
0
230
-1
40
0.397167
41
-1.96711290952815
42
-1.60061763948289
0
ELLIPSE
5
108
100
AcDbEntity
8
1
62
256
6
ByLayer
370
13
48
1
60
0
100
AcDbEllipse
10
65.64586
20
-33.458356
30
0
11
0.79964430207263
21
-0.0600592121763748
31
0
210
0
220
0
230
-1
40
0.397167
41
1.17447974407143
42
1.89004086456488
0
ELLIPSE
5
109
100
AcDbEntity
8
1
62
256
6
ByLayer
370
13
48
1
60
0
100
AcDbEllipse
10
65.64
20
-32.448926
30
0
11
0.899768154445419
21
0.0577956472340859
31
0
210
0
220
0
230
-1
40
0.353437
41
-1.89716340067815
42
-1.18160228019416
0
ELLIPSE
5
10A
100
AcDbEntity
8
1
62
256
6
ByLayer
370
13
48
1
60
0
100
AcDbEllipse
10
65.926677
20
-32.132766
30
0
11
-0.00896052458610162
21
-0.0995977359137338
31
0
210
0
220
0
230
1
40
0.357088
41
0.40727623989774
42
1.60291149819115
0
ELLIPSE
5
10B
100
AcDbEntity
8
1
62
256
6
ByLayer
370
13
48
1
60
0
100
AcDbEllipse
10
65.366384
20
-32.16623
30
0
11
0.0204060592957395
21
-0.0978958259785307
31
0
210
0
220
0
230
1
40
0.335642
41
-1.64064594521373
42
-0.403652442249128
0
ELLIPSE
5
10C
100
AcDbEntity
8
1
62
256
6
ByLayer
370
13
48
1
60
0
100
AcDbEllipse
10
65.926677
20
-33.867234
30
0
11
0.00896052458610168
21
-0.0995977359137339
31
0
210
0
220
0
230
1
40
0.357088
41
1.53868115539878
42
2.73431641369229
0
ELLIPSE
5
10D
100
AcDbEntity
8
1
62
256
6
ByLayer
370
13
48
1
60
0
100
AcDbEllipse
10
65.64
20
-33.551074
30
0
11
0.899768154454748
21
-0.0577956472346717
31
0
210
0
220
0
230
-1
40
0.353437
41
1.1816022801984
42
1.89716340067464
0
ELLIPSE
5
10E
100
AcDbEntity
8
1
62
256
6
ByLayer
370
13
48
1
60
0
100
AcDbEllipse
10
65.366384
20
-33.83377
30
0
11
-0.02040605929574
21
-0.0978958259785306
31
0
210
0
220
0
230
1
40
0.335642
41
-2.73794021134041
42
-1.50094670837607
0
ELLIPSE
5
10F
100
AcDbEntity
8
1
62
256
6
ByLayer
370
13
48
1
60
0
100
AcDbEllipse
10
66.285022
20
-31.737567
30
0
11
0.899334981100592
21
0.0784946154058047
31
0
210
0
220
0
230
-1
40
0.44069
41
1.60924111548666
42
1.97573638557344
0
ELLIPSE
5
110
100
AcDbEntity
8
1
62
256
6
ByLayer
370
13
48
1
60
0
100
AcDbEllipse
10
66.285022
20
-34.262433
30
0
11
0.899334981100598
21
-0.0784946154058066
31
0
210
0
220
0
230
-1
40
0.44069
41
-1.97573638557344
42
-1.60924111548667
0
ELLIPSE
5
111
100
AcDbEntity
8
1
62
256
6
ByLayer
370
13
48
1
60
0
100
AcDbEllipse
10
65.147318
20
-33.788106
30
0
11
-0.02040605929574
21
-0.0978958259785306
31
0
210
0
220
0
230
1
40
0.335642
41
-2.73794021134092
42
-1.50094670837621
0
ELLIPSE
5
112
100
AcDbEntity
8
1
62
256
6
ByLayer
370
13
48
1
60
0
100
AcDbEllipse
10
65.730292
20
-33
30
0
11
1.64753122385289
21
2.37015981999982E-07
31
0
210
0
220
0
230
-1
40
0.515924
41
1.95476894577817
42
1.99606356405246
0
ELLIPSE
5
113
100
AcDbEntity
8
1
62
256
6
ByLayer
370
13
48
1
60
0
100
AcDbEllipse
10
65.730291
20
-33
30
0
11
1.64753056455467
21
5.37755412918223E-08
31
0
210
0
220
0
230
-1
40
0.515924
41
-1.99606335437441
42
-1.9547687217972
0
ELLIPSE
5
114
100
AcDbEntity
8
1
62
256
6
ByLayer
370
13
48
1
60
0
100
AcDbEllipse
10
65.147318
20
-32.211894
30
0
11
0.0204060592957395
21
-0.0978958259785307
31
0
210
0
220
0
230
1
40
0.335642
41
-1.64064594521358
42
-0.403652442249379
0
ELLIPSE
5
115
100
AcDbEntity
8
1
62
256
6
ByLayer
370
13
48
1
60
0
100
AcDbEllipse
10
66.809145
20
-31.914957
30
0
11
0.0993076742641672
21
0.21849024196115
31
0
210
0
220
0
230
1
40
0.684643
41
-1.82065987921341
42
-1.32093277447545
0
ELLIPSE
5
116
100
AcDbEntity
8
1
62
256
6
ByLayer
370
13
48
1
60
0
100
AcDbEllipse
10
66.809145
20
-34.085043
30
0
11
0.0993076742641673
21
-0.218490241961151
31
0
210
0
220
0
230
1
40
0.684643
41
1.32093277447539
42
1.82065987921341
0
ELLIPSE
5
117
100
AcDbEntity
8
1
62
256
6
ByLayer
370
13
48
1
60
0
100
AcDbEllipse
10
66.765057
20
-33.864167
30
0
11
0.0628430094928668
21
-0.0777866065455966
31
0
210
0
220
0
230
1
40
0.861674
41
1.63965370412772
42
2.32457401880084
0
ELLIPSE
5
118
100
AcDbEntity
8
1
62
256
6
ByLayer
370
13
48
1
60
0
100
AcDbEllipse
10
66.765057
20
-32.135833
30
0
11
-0.0628430094928667
21
-0.0777866065455968
31
0
210
0
220
0
230
1
40
0.861674
41
0.817018634788738
42
1.50193894946207
0
ELLIPSE
5
119
100
AcDbEntity
8
1
62
256
6
ByLayer
370
13
48
1
60
0
100
AcDbEllipse
10
68.258781
20
-31.624412
30
0
11
0.0584818497756239
21
-0.23276570461909
31
0
210
0
220
0
230
1
40
0.017037
41
-1.50309079968206
42
-0.664838164893337
0
ELLIPSE
5
11A
100
AcDbEntity
8
1
62
256
6
ByLayer
370
13
48
1
60
0
100
AcDbEllipse
10
67.028622
20
-31.883631
30
0
11
0.0296712398023675
21
-0.238158807371448
31
0
210
0
220
0
230
1
40
0.701267
41
0.787275740372052
42
1.43405097029585
0
ELLIPSE
5
11B
100
AcDbEntity
8
1
62
256
6
ByLayer
370
13
48
1
60
0
100
AcDbEllipse
10
68.258781
20
-34.375588
30
0
11
0.058481849775624
21
0.23276570461909
31
0
210
0
220
0
230
1
40
0.017037
41
0.664838164894276
42
1.50309079968194
0
ELLIPSE
5
11C
100
AcDbEntity
8
1
62
256
6
ByLayer
370
13
48
1
60
0
100
AcDbEllipse
10
67.028622
20
-34.116369
30
0
11
0.0296712398023679
21
0.238158807371448
31
0
210
0
220
0
230
1
40
0.701267
41
-1.43405097029585
42
-0.787275740371965
0
ELLIPSE
5
11D
100
AcDbEntity
8
1
62
256
6
ByLayer
370
13
48
1
60
0
100
AcDbEllipse
10
65.06768
20
-32.225711
30
0
11
-0.0453539127209969
21
-0.0210481020734934
31
0
210
0
220
0
230
1
40
0.15145
41
-1.25535186362526
42
-0.415505137036745
0
ELLIPSE
5
11E
100
AcDbEntity
8
1
62
256
6
ByLayer
370
13
48
1
60
0
100
AcDbEllipse
10
64.646487
20
-31.453962
30
0
11
-0.0394011819793233
21
-0.0307822490833963
31
0
210
0
220
0
230
1
40
0.218654
41
-1.29790181863621
42
-0.756489013688836
0
ELLIPSE
5
11F
100
AcDbEntity
8
1
62
256
6
ByLayer
370
13
48
1
60
0
100
AcDbEllipse
10
65.06768
20
-33.774289
30
0
11
0.0453539127209971
21
-0.0210481020734929
31
0
210
0
220
0
230
1
40
0.15145
41
-2.72608751655305
42
-1.88624078996453
0
ELLIPSE
5
120
100
AcDbEntity
8
1
62
256
6
ByLayer
370
13
48
1
60
0
100
AcDbEllipse
10
64.646487
20
-34.546038
30
0
11
0.0394011819793204
21
-0.0307822490833999
31
0
210
0
220
0
230
1
40
0.218654
41
-2.38510363990033
42
-1.8436908349535
0
ELLIPSE
5
121
100
AcDbEntity
8
1
62
256
6
ByLayer
370
13
48
1
60
0
100
AcDbEllipse
10
65.071676
20
-32.274919
30
0
11
0.0431707448900942
21
-0.0252247256800625
31
0
210
0
220
0
230
1
40
0.873615
41
-2.18027064336933
42
-1.03058312084525
0
ELLIPSE
5
122
100
AcDbEntity
8
1
62
256
6
ByLayer
370
13
48
1
60
0
100
AcDbEllipse
10
65.071676
20
-33.725081
30
0
11
0.0431707448900942
21
0.0252247256800625
31
0
210
0
220
0
230
1
40
0.873615
41
1.03058312084566
42
2.18027064336933
0
ELLIPSE
5
123
100
AcDbEntity
8
1
62
256
6
ByLayer
370
13
48
1
60
0
100
AcDbEllipse
10
66.811038
20
-34.084833
30
0
11
0.0381290273564358
21
0.236951845894587
31
0
210
0
220
0
230
1
40
0.698537
41
-1.40913325933156
42
-0.804380097280416
0
ELLIPSE
5
124
100
AcDbEntity
8
1
62
256
6
ByLayer
370
13
48
1
60
0
100
AcDbEllipse
10
66.811038
20
-31.915167
30
0
11
0.0381290273564358
21
-0.236951845894587
31
0
210
0
220
0
230
1
40
0.698537
41
0.804380097280416
42
1.40913325933156
0
ELLIPSE
5
125
100
AcDbEntity
8
1
62
256
6
ByLayer
370
13
48
1
60
0
100
AcDbEllipse
10
65.001973
20
-32.465478
30
0
11
0.0488172744774217
21
-0.0108108146129732
31
0
210
0
220
0
230
1
40
0.649178
41
-2.29846695859492
42
-1.30973779548816
0
ELLIPSE
5
126
100
AcDbEntity
8
1
62
256
6
ByLayer
370
13
48
1
60
0
100
AcDbEllipse
10
65.001973
20
-33.534522
30
0
11
0.0488172744774217
21
0.0108108146129732
31
0
210
0
220
0
230
1
40
0.649178
41
1.30973779548816
42
2.29846695859549
0
ELLIPSE
5
127
100
AcDbEntity
8
1
62
256
6
ByLayer
370
13
48
1
60
0
100
AcDbEllipse
10
66.855379
20
-32.211894
30
0
11
-0.0663198302365384
21
-0.0748443726501648
31
0
210
0
220
0
230
1
40
0.871893
41
0.856507032384957
42
1.52920128671786
0
ELLIPSE
5
128
100
AcDbEntity
8
1
62
256
6
ByLayer
370
13
48
1
60
0
100
AcDbEllipse
10
64.629235
20
-31.441479
30
0
11
2.96302531225332E-05
21
-0.0499999912204803
31
0
210
0
220
0
230
1
40
0.687053
41
-1.5712034777797
42
-1.23545988901382
0
ELLIPSE
5
129
100
AcDbEntity
8
1
62
256
6
ByLayer
370
13
48
1
60
0
100
AcDbEllipse
10
64.629235
20
-34.558521
30
0
11
-2.96302531218854E-05
21
-0.0499999912204803
31
0
210
0
220
0
230
1
40
0.687053
41
-1.9061327645757
42
-1.57038917580981
0
ELLIPSE
5
12A
100
AcDbEntity
8
1
62
256
6
ByLayer
370
13
48
1
60
0
100
AcDbEllipse
10
66.855379
20
-33.788106
30
0
11
0.0663198302365375
21
-0.0748443726501656
31
0
210
0
220
0
230
1
40
0.871893
41
1.61239136687193
42
2.28508562120484
0
ELLIPSE
5
12B
100
AcDbEntity
8
1
62
256
6
ByLayer
370
13
48
1
60
0
100
AcDbEllipse
10
67.292029
20
-32.512415
30
0
11
0.0874722239911491
21
-0.390318600671352
31
0
210
0
220
0
230
1
40
0.698392
41
-2.41494031332489
42
-2.1111824599409
0
ELLIPSE
5
12C
100
AcDbEntity
8
1
62
256
6
ByLayer
370
13
48
1
60
0
100
AcDbEllipse
10
67.292029
20
-33.487585
30
0
11
0.0874722239911492
21
0.390318600671352
31
0
210
0
220
0
230
1
40
0.698392
41
2.1111824599409
42
2.41494031332494
0
ELLIPSE
5
12D
100
AcDbEntity
8
1
62
256
6
ByLayer
370
13
48
1
60
0
100
AcDbEllipse
10
65.046066
20
-33.446424
30
0
11
0.0212624954428799
21
-0.0452537985979245
31
0
210
0
220
0
230
1
40
0.397259
41
2.0374017029721
42
2.86665979514969
0
ELLIPSE
5
12E
100
AcDbEntity
8
1
62
256
6
ByLayer
370
13
48
1
60
0
100
AcDbEllipse
10
65.046066
20
-32.553576
30
0
11
0.0212624954428813
21
0.0452537985979238
31
0
210
0
220
0
230
1
40
0.397259
41
-2.86665979515046
42
-2.03740170297185
0
ELLIPSE
5
12F
100
AcDbEntity
8
1
62
256
6
ByLayer
370
13
48
1
60
0
100
AcDbEllipse
10
66.872998
20
-33.769537
30
0
11
0.0784611863610882
21
-0.0619987276870308
31
0
210
0
220
0
230
1
40
0.873195
41
1.4597497272153
42
2.10501810958165
0
ELLIPSE
5
130
100
AcDbEntity
8
1
62
256
6
ByLayer
370
13
48
1
60
0
100
AcDbEllipse
10
66.872998
20
-32.230463
30
0
11
-0.0784611863611367
21
-0.0619987276869693
31
0
210
0
220
0
230
1
40
0.873195
41
1.03657454400863
42
1.6818429263755
0
ELLIPSE
5
131
100
AcDbEntity
8
1
62
256
6
ByLayer
370
13
48
1
60
0
100
AcDbEllipse
10
66.943585
20
-32.326889
30
0
11
-0.0809620682329364
21
-0.058695344853279
31
0
210
0
220
0
230
1
40
0.756283
41
1.17291667305387
42
1.92455286660227
0
ELLIPSE
5
132
100
AcDbEntity
8
1
62
256
6
ByLayer
370
13
48
1
60
0
100
AcDbEllipse
10
66.943585
20
-33.673111
30
0
11
0.0809620682329358
21
-0.0586953448532799
31
0
210
0
220
0
230
1
40
0.756283
41
1.21703978698739
42
1.96867598053592
0
ELLIPSE
5
133
100
AcDbEntity
8
1
62
256
6
ByLayer
370
13
48
1
60
0
100
AcDbEllipse
10
65.206238
20
-32.620378
30
0
11
0.0173833813679464
21
0.0468808921866525
31
0
210
0
220
0
230
1
40
0.320428
41
-2.92457512659335
42
-1.97909853952183
0
ELLIPSE
5
134
100
AcDbEntity
8
1
62
256
6
ByLayer
370
13
48
1
60
0
100
AcDbEllipse
10
65.206238
20
-33.379622
30
0
11
0.0173833813678365
21
-0.0468808921866932
31
0
210
0
220
0
230
1
40
0.320428
41
1.97909853952305
42
2.92457512659514
0
ELLIPSE
5
135
100
AcDbEntity
8
1
62
256
6
ByLayer
370
13
48
1
60
0
100
AcDbEllipse
10
65.350151
20
-33.131886
30
0
11
0.0496862814333484
21
0.00559226584901827
31
0
210
0
220
0
230
1
40
0.148777
41
1.39817586461262
42
2.49393692538344
0
ELLIPSE
5
136
100
AcDbEntity
8
1
62
256
6
ByLayer
370
13
48
1
60
0
100
AcDbEllipse
10
65.215466
20
-33.376202
30
0
11
0.0173706970697336
21
-0.0468855935582728
31
0
210
0
220
0
230
1
40
0.318454
41
1.97468567311185
42
2.92535400620108
0
ELLIPSE
5
137
100
AcDbEntity
8
1
62
256
6
ByLayer
370
13
48
1
60
0
100
AcDbEllipse
10
65.215466
20
-32.623798
30
0
11
0.0173706970696218
21
0.0468855935583142
31
0
210
0
220
0
230
1
40
0.318454
41
-2.92535400620382
42
-1.97468567311263
0
ELLIPSE
5
138
100
AcDbEntity
8
1
62
256
6
ByLayer
370
13
48
1
60
0
100
AcDbEllipse
10
65.350151
20
-32.868114
30
0
11
0.0496862814333484
21
-0.00559226584901837
31
0
210
0
220
0
230
1
40
0.148777
41
-2.49393692538455
42
-1.39817586461262
0
ELLIPSE
5
139
100
AcDbEntity
8
1
62
256
6
ByLayer
370
13
48
1
60
0
100
AcDbEllipse
10
67.090562
20
-32.48506
30
0
11
-0.0637117915960023
21
-0.0770766346672425
31
0
210
0
220
0
230
1
40
0.52278
41
1.17272243764685
42
1.97869210912809
0
ELLIPSE
5
13A
100
AcDbEntity
8
1
62
256
6
ByLayer
370
13
48
1
60
0
100
AcDbEllipse
10
67.090562
20
-33.51494
30
0
11
-0.0637117915966215
21
0.0770766346667308
31
0
210
0
220
0
230
1
40
0.52278
41
-1.97869210881555
42
-1.17272243762726
0
ELLIPSE
5
13B
100
AcDbEntity
8
1
62
256
6
ByLayer
370
13
48
1
60
0
100
AcDbEllipse
10
69.147654
20
-34.425002
30
0
11
-0.00560126668057452
21
0.239934628204378
31
0
210
0
220
0
230
1
40
0.172043
41
0.732097455141114
42
1.49800588930571
0
ELLIPSE
5
13C
100
AcDbEntity
8
1
62
256
6
ByLayer
370
13
48
1
60
0
100
AcDbEllipse
10
69.147654
20
-31.574998
30
0
11
-0.00560126668057479
21
-0.239934628204378
31
0
210
0
220
0
230
1
40
0.172043
41
-1.49800588930577
42
-0.732097455141114
0
ELLIPSE
5
13D
100
AcDbEntity
8
1
62
256
6
ByLayer
370
13
48
1
60
0
100
AcDbEllipse
10
68.758781
20
-34.428796
30
0
11
-0.00824662055120358
21
0.239858277425409
31
0
210
0
220
0
230
1
40
0.002403
41
-1.50102444918925
42
-0.709373157699375
0
ELLIPSE
5
13E
100
AcDbEntity
8
1
62
256
6
ByLayer
370
13
48
1
60
0
100
AcDbEllipse
10
68.758781
20
-31.571204
30
0
11
-0.00824662055120385
21
-0.239858277425409
31
0
210
0
220
0
230
1
40
0.002403
41
0.709373157682699
42
1.50102444918754
0
ELLIPSE
5
13F
100
AcDbEntity
8
1
62
256
6
ByLayer
370
13
48
1
60
0
100
AcDbEllipse
10
69.752853
20
-31.845188
30
0
11
-0.0533981556875962
21
-0.0845496124719873
31
0
210
0
220
0
230
1
40
0.139768
41
0.740023965275536
42
1.57717485146108
0
ELLIPSE
5
140
100
AcDbEntity
8
1
62
256
6
ByLayer
370
13
48
1
60
0
100
AcDbEllipse
10
69.913527
20
-31.994665
30
0
11
-0.0833341889559587
21
-0.055275789917943
31
0
210
0
220
0
230
1
40
0.125151
41
1.00888984397374
42
1.63388084261221
0
ELLIPSE
5
141
100
AcDbEntity
8
1
62
256
6
ByLayer
370
13
48
1
60
0
100
AcDbEllipse
10
69.752853
20
-34.154812
30
0
11
-0.0533981556875962
21
0.0845496124719874
31
0
210
0
220
0
230
1
40
0.139768
41
-1.57717485146108
42
-0.74002396527421
0
ELLIPSE
5
142
100
AcDbEntity
8
1
62
256
6
ByLayer
370
13
48
1
60
0
100
AcDbEllipse
10
69.258678
20
-32.17728
30
0
11
0.0148293336171675
21
-0.399725019062444
31
0
210
0
220
0
230
1
40
0.406503
41
1.55571667185628
42
2.33595515067487
0
ELLIPSE
5
143
100
AcDbEntity
8
1
62
256
6
ByLayer
370
13
48
1
60
0
100
AcDbEllipse
10
69.258678
20
-33.82272
30
0
11
0.0148293336171678
21
0.399725019062444
31
0
210
0
220
0
230
1
40
0.406503
41
-2.33595515067481
42
-1.55571667185628
0
ELLIPSE
5
144
100
AcDbEntity
8
1
62
256
6
ByLayer
370
13
48
1
60
0
100
AcDbEllipse
10
69.913527
20
-34.005335
30
0
11
-0.0833341889559587
21
0.055275789917943
31
0
210
0
220
0
230
1
40
0.125151
41
-1.63388084261207
42
-1.00888984397386
0
ELLIPSE
5
145
100
AcDbEntity
8
1
62
256
6
ByLayer
370
13
48
1
60
0
100
AcDbEllipse
10
69.523358
20
-31.685726
30
0
11
-0.0777628762498865
21
-0.062872371335467
31
0
210
0
220
0
230
1
40
0.13045
41
1.15581636427974
42
1.62182792903098
0
ELLIPSE
5
146
100
AcDbEntity
8
1
62
256
6
ByLayer
370
13
48
1
60
0
100
AcDbEllipse
10
69.620403
20
-31.763099
30
0
11
-0.0518341759381041
21
-0.0855173561612944
31
0
210
0
220
0
230
1
40
0.13986
41
0.736311954700231
42
1.57460332353055
0
ELLIPSE
5
147
100
AcDbEntity
8
1
62
256
6
ByLayer
370
13
48
1
60
0
100
AcDbEllipse
10
69.620403
20
-34.236901
30
0
11
-0.051834175938104
21
0.0855173561612944
31
0
210
0
220
0
230
1
40
0.13986
41
-1.57460332353055
42
-0.736311954701273
0
ELLIPSE
5
148
100
AcDbEntity
8
1
62
256
6
ByLayer
370
13
48
1
60
0
100
AcDbEllipse
10
69.935862
20
-32.029285
30
0
11
-0.0846493904271148
21
-0.0532398412874971
31
0
210
0
220
0
230
1
40
0.065231
41
1.04577954889663
42
1.67414184501553
0
ELLIPSE
5
149
100
AcDbEntity
8
1
62
256
6
ByLayer
370
13
48
1
60
0
100
AcDbEllipse
10
69.523358
20
-34.314274
30
0
11
-0.0777628762498864
21
0.062872371335467
31
0
210
0
220
0
230
1
40
0.13045
41
-1.62182792903085
42
-1.15581636427987
0
ELLIPSE
5
14A
100
AcDbEntity
8
1
62
256
6
ByLayer
370
13
48
1
60
0
100
AcDbEllipse
10
69.935862
20
-33.970715
30
0
11
-0.0846493904271148
21
0.0532398412874971
31
0
210
0
220
0
230
1
40
0.065231
41
-1.67414184501567
42
-1.04577954889638
0
ELLIPSE
5
14B
100
AcDbEntity
8
1
62
256
6
ByLayer
370
18
48
1
60
0
100
AcDbEllipse
10
69.506337
20
-31.023661
30
0
11
0.23999430561187
21
0.0170571478989853
31
0
210
0
220
0
230
-1
40
0.096932
41
-1.73802346913684
42
-1.4420287653543
0
ELLIPSE
5
14C
100
AcDbEntity
8
1
62
256
6
ByLayer
370
18
48
1
60
0
100
AcDbEllipse
10
66.285022
20
-34.947453
30
0
11
0.898944342581308
21
-0.523851386167049
31
0
210
0
220
0
230
-1
40
0.083195
41
-1.8574685881297
42
-1.74744287175146
0
ELLIPSE
5
14D
100
AcDbEntity
8
1
62
256
6
ByLayer
370
18
48
1
60
0
100
AcDbEllipse
10
66.855207
20
-31.154759
30
0
11
0.251841824113027
21
0.0179368089980257
31
0
210
0
220
0
230
-1
40
0.095335
41
-1.55727336986669
42
-0.770655746900366
0
ELLIPSE
5
14E
100
AcDbEntity
8
1
62
256
6
ByLayer
370
18
48
1
60
0
100
AcDbEllipse
10
69.506337
20
-34.976339
30
0
11
0.239994304220131
21
-0.0170571478078993
31
0
210
0
220
0
230
-1
40
0.096932
41
1.44202876426751
42
1.73802346977736
0
ELLIPSE
5
14F
100
AcDbEntity
8
1
62
256
6
ByLayer
370
18
48
1
60
0
100
AcDbEllipse
10
66.370355
20
-31.567363
30
0
11
0.117518340696116
21
-0.3843851723858
31
1.94289029309403E-16
210
1.60117654267523E-15
220
-1.59252210866294E-17
230
-1
40
0.995153
41
-3.0584188357418
42
-2.91576259201242
0
ELLIPSE
5
150
100
AcDbEntity
8
1
62
256
6
ByLayer
370
18
48
1
60
0
100
AcDbEllipse
10
66.285022
20
-31.052547
30
0
11
0.898944236982748
21
0.5238513195806
31
0
210
0
220
0
230
-1
40
0.083195
41
1.74744284068031
42
1.85746856963052
0
ELLIPSE
5
151
100
AcDbEntity
8
1
62
256
6
ByLayer
370
18
48
1
60
0
100
AcDbEllipse
10
70.048748
20
-33.970715
30
0
11
1.1330996904646E-16
21
0.4
31
0
210
0
220
0
230
1
40
0.121869
41
1.5707963267949
42
1.64009079051255
0
ELLIPSE
5
152
100
AcDbEntity
8
1
62
256
6
ByLayer
370
18
48
1
60
0
100
AcDbEllipse
10
66.855207
20
-34.845241
30
0
11
0.251841824097873
21
-0.0179368089960653
31
0
210
0
220
0
230
-1
40
0.095335
41
0.770655746890103
42
1.55727336990218
0
ELLIPSE
5
153
100
AcDbEntity
8
1
62
256
6
ByLayer
370
18
48
1
60
0
100
AcDbEllipse
10
66.370355
20
-34.432637
30
0
11
0.117518340696115
21
0.3843851723858
31
1.87350135405496E-16
210
1.59612928733378E-15
220
-5.83607263126116E-19
230
-1
40
0.995153
41
2.91576259201242
42
3.05841883574182
0
ELLIPSE
5
154
100
AcDbEntity
8
1
62
256
6
ByLayer
370
18
48
1
60
0
100
AcDbEllipse
10
70.048748
20
-32.029285
30
0
11
1.1330996904646E-16
21
0.4
31
0
210
0
220
0
230
1
40
0.121869
41
1.50150186307724
42
1.5707963267949
0
POINT
5
6C
100
AcDbEntity
8
80
62
256
6
ByLayer
370
18
48
1
60
0
100
AcDbPoint
10
0
20
0
30
0
39
0
210
0
220
0
230
1
50
360
0
POINT
5
6E
100
AcDbEntity
8
81
62
256
6
ByLayer
370
18
48
1
60
0
100
AcDbPoint
10
70
20
-35
30
0
39
0
210
0
220
0
230
1
50
360
0
SPLINE
5
155
100
AcDbEntity
8
SK1
62
256
6
ByLayer
370
13
48
1
60
0
100
AcDbSpline
70
4
71
2
72
6
73
3
40
0
40
0
40
0
40
1
40
1
40
1
41
1
10
-28.5
20
-16.8545212066649
30
0
41
1
10
-15.2499999987993
20
-17.1871851888411
30
0
41
1
10
-1.99999999999994
20
-17.5198482068775
30
0
0
SPLINE
5
156
100
AcDbEntity
8
SK1
62
256
6
ByLayer
370
13
48
1
60
0
100
AcDbSpline
70
4
71
2
72
6
73
3
40
0
40
0
40
0
40
1
40
1
40
1
41
1
10
-1.99999999999994
20
17.5198479235725
30
0
41
1
10
-15.2499999987994
20
17.1871849060499
30
0
41
1
10
-28.4999999999999
20
16.8545209244113
30
0
0
SPLINE
5
157
100
AcDbEntity
8
SK1
62
256
6
ByLayer
370
13
48
1
60
0
100
AcDbSpline
70
4
71
3
72
13
73
9
40
0
40
0
40
0
40
0
40
0.239409099367203
40
0.368297400752122
40
0.499931438691486
40
0.63157686635806
40
0.760496583550934
40
1
40
1
40
1
40
1
41
1
10
-1.99999999999994
20
-17.5251291169229
30
0
41
1
10
-1.99909125719793
20
-17.4990813944883
30
0
41
1
10
-1.99103211472601
20
-17.4617233046647
30
0
41
1
10
-1.96563495891914
20
-17.4155240253432
30
0
41
1
10
-1.93886250822572
20
-17.3842556209573
30
0
41
1
10
-1.90627575278671
20
-17.3590990612904
30
0
41
1
10
-1.85883875467886
20
-17.3360651360603
30
0
41
1
10
-1.82110932008976
20
-17.3298953840654
30
0
41
1
10
-1.79503997793927
20
-17.3302974649007
30
0
0
SPLINE
5
158
100
AcDbEntity
8
SK1
62
256
6
ByLayer
370
13
48
1
60
0
100
AcDbSpline
70
4
71
3
72
13
73
9
40
0
40
0
40
0
40
0
40
0.239503416121655
40
0.368423133196256
40
0.50006856081482
40
0.631702598790245
40
0.760590900287168
40
1
40
1
40
1
40
1
41
1
10
-1.79503997793924
20
17.3302973195575
30
0
41
1
10
-1.8211093200961
20
17.3298952387249
30
0
41
1
10
-1.85883875469068
20
17.3360649907381
30
0
41
1
10
-1.90627575279677
20
17.3590989160413
30
0
41
1
10
-1.93886250823528
20
17.3842554757879
30
0
41
1
10
-1.96563495892639
20
17.4155238802705
30
0
41
1
10
-1.9910321147313
20
17.4617231597379
30
0
41
1
10
-1.9990912572033
20
17.4990812496682
30
0
41
1
10
-1.99999999999994
20
17.5251289721745
30
0
0
SPLINE
5
159
100
AcDbEntity
8
SK1
62
256
6
ByLayer
370
13
48
1
60
0
100
AcDbSpline
70
4
71
2
72
6
73
3
40
0
40
0
40
0
40
1
40
1
40
1
41
1
10
-1.79503997793927
20
-17.3250646819564
30
0
41
1
10
-0.995008433403001
20
-17.3451508243471
30
0
41
1
10
-0.19497688887526
20
-17.3652369633
30
0
0
SPLINE
5
15A
100
AcDbEntity
8
SK1
62
256
6
ByLayer
370
13
48
1
60
0
100
AcDbSpline
70
4
71
2
72
6
73
3
40
0
40
0
40
0
40
1
40
1
40
1
41
1
10
-0.19497688887526
20
17.3652366802367
30
0
41
1
10
-0.995008433403001
20
17.3451505413153
30
0
41
1
10
-1.79503997793924
20
17.3250643989562
30
0
0
SPLINE
5
15B
100
AcDbEntity
8
SK1
62
256
6
ByLayer
370
13
48
1
60
0
100
AcDbSpline
70
4
71
2
72
6
73
3
40
0
40
0
40
0
40
1
40
1
40
1
41
1
10
-30
20
-15.9932495545753
30
0
41
1
10
-29.2499990770552
20
-16.4260289695447
30
0
41
1
10
-28.5
20
-16.8588008432385
30
0
0
SPLINE
5
15C
100
AcDbEntity
8
SK1
62
256
6
ByLayer
370
13
48
1
60
0
100
AcDbSpline
70
4
71
2
72
6
73
3
40
0
40
0
40
0
40
1
40
1
40
1
41
1
10
-28.4999999999999
20
16.8588006436881
30
0
41
1
10
-29.2499990770911
20
16.426028770442
30
0
41
1
10
-30
20
15.9932493559077
30
0
0
SPLINE
5
15D
100
AcDbEntity
8
SK1
62
256
6
ByLayer
370
13
48
1
60
0
100
AcDbSpline
70
4
71
2
72
6
73
3
40
0
40
0
40
0
40
1
40
1
40
1
41
1
10
-0.194976888875232
20
-17.3704796738453
30
0
41
1
10
-0.0591463025171777
20
-17.3755257485882
30
0
41
1
10
-0.0356373333999613
20
-17.465527159715
30
0
0
SPLINE
5
15E
100
AcDbEntity
8
SK1
62
256
6
ByLayer
370
13
48
1
60
0
100
AcDbSpline
70
4
71
2
72
6
73
3
40
0
40
0
40
0
40
1
40
1
40
1
41
1
10
-0.0343899619089427
20
17.4680396001794
30
0
41
1
10
-0.0576204404094653
20
17.3761040543929
30
0
41
1
10
-0.19497688887526
20
17.3704795286248
30
0
0
SPLINE
5
15F
100
AcDbEntity
8
SK1
62
256
6
ByLayer
370
13
48
1
60
0
100
AcDbSpline
70
4
71
3
72
39
73
35
40
0
40
0
40
0
40
0
40
0.0181821472322925
40
0.0465244259693727
40
0.0748667047064529
40
0.103208983443533
40
0.159893540917694
40
0.216578098391854
40
0.244920377128934
40
0.273262655866015
40
0.329947213340175
40
0.358289492077255
40
0.386631770814336
40
0.414974049551416
40
0.443316328288496
40
0.471658607025576
40
0.485829746394117
40
0.500000885762657
40
0.514172025131197
40
0.528343164499737
40
0.556685443236817
40
0.585027721973897
40
0.613370000710977
40
0.641712279448058
40
0.670054558185138
40
0.726739115659299
40
0.755081394396379
40
0.783423673133459
40
0.840108230607619
40
0.89679278808178
40
0.92513506681886
40
0.95347734555594
40
0.981819624293021
40
1
40
1
40
1
40
1
41
1
10
-30
20
15.9932053886387
30
0
41
1
10
-29.9999999999999
20
15.989921975144
30
0
41
1
10
-30
20
15.9548426705961
30
0
41
1
10
-30
20
15.7965327535814
30
0
41
1
10
-30
20
15.4890634139888
30
0
41
1
10
-30
20
14.9202427964399
30
0
41
1
10
-30
20
13.9430330734597
30
0
41
1
10
-30
20
12.6450674903884
30
0
41
1
10
-30
20
11.4213907579163
30
0
41
1
10
-30
20
10.084342571431
30
0
41
1
10
-30
20
8.60269267078095
30
0
41
1
10
-30
20
6.94912049428439
30
0
41
1
10
-30
20
5.64600378047226
30
0
41
1
10
-30
20
4.28092566737897
30
0
41
1
10
-30
20
2.86766148350529
30
0
41
1
10
-30
20
1.67580418173884
30
0
41
1
10
-30
20
0.709818138095841
30
0
41
1
10
-30
20
2.73135953E-07
30
0
41
1
10
-30
20
-0.70981817892806
30
0
41
1
10
-30
20
-1.67580430318819
30
0
41
1
10
-30
20
-2.86766099029049
30
0
41
1
10
-30
20
-4.28092547446497
30
0
41
1
10
-30
20
-5.64600401967206
30
0
41
1
10
-30
20
-6.94912017416215
30
0
41
1
10
-30
20
-8.6026925363725
30
0
41
1
10
-30
20
-10.0843425709124
30
0
41
1
10
-30
20
-11.4213906920357
30
0
41
1
10
-30
20
-12.6450678356931
30
0
41
1
10
-30
20
-13.9430327235572
30
0
41
1
10
-30
20
-14.9202435431777
30
0
41
1
10
-30
20
-15.4890632796305
30
0
41
1
10
-30
20
-15.7965331178349
30
0
41
1
10
-30
20
-15.954839473124
30
0
41
1
10
-30
20
-15.9899195637853
30
0
41
1
10
-30
20
-15.9932046114138
30
0
0
SPLINE
5
160
100
AcDbEntity
8
SK1
62
256
6
ByLayer
370
13
48
1
60
0
100
AcDbSpline
70
4
71
3
72
12
73
8
40
0
40
0
40
0
40
0
40
0.499999999999999
40
0.499999999999999
40
0.75
40
0.75
40
1
40
1
40
1
40
1
41
1
10
-1.3154350650949
20
3.91027172665429
30
0
41
1
10
-1.24592839325498
20
4.29459561059764
30
0
41
1
10
-1.16331416991252
20
4.66760511763007
30
0
41
1
10
-0.926521435133083
20
5.19044404924688
30
0
41
1
10
-0.835622884145891
20
5.40735814273418
30
0
41
1
10
-0.41928226625248
20
5.50342856768941
30
0
41
1
10
-0.281321823101052
20
5.27372622909894
30
0
41
1
10
-0.194976888875232
20
5.1012534532131
30
0
0
SPLINE
5
161
100
AcDbEntity
8
SK1
62
256
6
ByLayer
370
13
48
1
60
0
100
AcDbSpline
70
4
71
3
72
24
73
20
40
0
40
0
40
0
40
0
40
0.129293125150784
40
0.129293125150784
40
0.160890762412128
40
0.160890762412128
40
0.19312509870992
40
0.19312509870992
40
0.210852819122068
40
0.210852819122068
40
0.228629109348263
40
0.228629109348263
40
0.251617995959359
40
0.251617995959359
40
0.291811550492141
40
0.291811550492141
40
0.417285661637736
40
0.417285661637736
40
1
40
1
40
1
40
1
41
1
10
-0.19497688886949
20
5.10125345319466
30
0
41
1
10
-0.181437028789787
20
5.07420777560091
30
0
41
1
10
-0.166263939419508
20
5.04747373607418
30
0
41
1
10
-0.140897870623206
20
5.02184016772043
30
0
41
1
10
-0.135473818669397
20
5.01716196662687
30
0
41
1
10
-0.123549655232125
20
5.00963193359112
30
0
41
1
10
-0.116826960945218
20
5.00671644858764
30
0
41
1
10
-0.105797159779968
20
5.00555851911673
30
0
41
1
10
-0.10166553781238
20
5.00583807674931
30
0
41
1
10
-0.093655000231962
20
5.00800667379835
30
0
41
1
10
-0.0896865034612517
20
5.00992758750442
30
0
41
1
10
-0.0813787136887925
20
5.01564999887208
30
0
41
1
10
-0.0771254542123074
20
5.01988425829646
30
0
41
1
10
-0.0668909728101141
20
5.03253319785696
30
0
41
1
10
-0.061675711972299
20
5.04189507305261
30
0
41
1
10
-0.0435256268499131
20
5.08091090605174
30
0
41
1
10
-0.0358776288921945
20
5.11311220781076
30
0
41
1
10
-0.0008126982963574
20
5.29017319543124
30
0
41
1
10
-2.84E-14
20
5.4366141562501
30
0
41
1
10
-2.84E-14
20
5.57923236301659
30
0
0
SPLINE
5
162
100
AcDbEntity
8
SK1
62
256
6
ByLayer
370
13
48
1
60
0
100
AcDbSpline
70
4
71
3
72
39
73
35
40
0
40
0
40
0
40
0
40
0.0138412308577383
40
0.0424388007900093
40
0.0710363707222803
40
0.0996339406545513
40
0.156829080519093
40
0.214024220383635
40
0.242621790315906
40
0.271219360248177
40
0.32841450011272
40
0.357012070044991
40
0.385609639977262
40
0.414207209909533
40
0.442804779841804
40
0.471402349774075
40
0.48570113474021
40
0.499999919706346
40
0.514298704672481
40
0.528597489638617
40
0.557195059570888
40
0.585792629503159
40
0.61439019943543
40
0.642987769367701
40
0.671585339299972
40
0.728780479164514
40
0.757378049096785
40
0.785975619029056
40
0.843170758893598
40
0.90036589875814
40
0.928963468690411
40
0.957561038622682
40
0.986158608554953
40
1
40
1
40
1
40
1
41
1
10
-1.99999999999994
20
17.5197427587114
30
0
41
1
10
-1.99999999999994
20
17.5129400872133
30
0
41
1
10
-1.99999999999991
20
17.4725596419159
30
0
41
1
10
-1.99999999999994
20
17.3116343538074
30
0
41
1
10
-1.99999999999994
20
16.9815888329671
30
0
41
1
10
-1.99999999999994
20
16.3767064197526
30
0
41
1
10
-1.99999999999991
20
15.3340294930175
30
0
41
1
10
-1.99999999999994
20
13.951909224744
30
0
41
1
10
-1.99999999999991
20
12.6575651420821
30
0
41
1
10
-1.99999999999994
20
11.241205620246
30
0
41
1
10
-1.99999999999991
20
9.64534783198897
30
0
41
1
10
-1.99999999999994
20
7.87638184130799
30
0
41
1
10
-1.99999999999997
20
6.46346246032292
30
0
41
1
10
-1.99999999999991
20
4.96520999967447
30
0
41
1
10
-1.99999999999994
20
3.38314408231233
30
0
41
1
10
-1.99999999999991
20
1.99851186782067
30
0
41
1
10
-1.99999999999994
20
0.861482441955275
30
0
41
1
10
-1.99999999999994
20
1.7609608E-08
30
0
41
1
10
-1.99999999999994
20
-0.861482365135743
30
0
41
1
10
-1.99999999999994
20
-1.99851187450369
30
0
41
1
10
-1.99999999999991
20
-3.38314406709779
30
0
41
1
10
-1.99999999999994
20
-4.96520967393039
30
0
41
1
10
-1.99999999999991
20
-6.46346255594881
30
0
41
1
10
-1.99999999999994
20
-7.87638169367133
30
0
41
1
10
-1.99999999999994
20
-9.64534763909759
30
0
41
1
10
-1.99999999999991
20
-11.241205608504
30
0
41
1
10
-1.99999999999991
20
-12.6575649796176
30
0
41
1
10
-1.99999999999994
20
-13.9519096014719
30
0
41
1
10
-1.99999999999991
20
-15.3340290660616
30
0
41
1
10
-1.99999999999991
20
-16.3767071899765
30
0
41
1
10
-1.99999999999994
20
-16.9815887046989
30
0
41
1
10
-1.99999999999994
20
-17.3116346702718
30
0
41
1
10
-1.99999999999994
20
-17.4725605638895
30
0
41
1
10
-1.99999999999991
20
-17.5129407106546
30
0
41
1
10
-1.99999999999991
20
-17.5197432413686
30
0
0
SPLINE
5
163
100
AcDbEntity
8
SK1
62
256
6
ByLayer
370
13
48
1
60
0
100
AcDbSpline
70
4
71
3
72
10
73
6
40
0
40
0
40
0
40
0
40
0.5
40
0.5
40
1
40
1
40
1
40
1
41
1
10
-1.31543506509493
20
-3.91026939581314
30
0
41
1
10
-1.53994575342873
20
-2.66888211580186
30
0
41
1
10
-1.72361848453113
20
-1.33806859990827
30
0
41
1
10
-1.72276554179191
20
1.34789001624881
30
0
41
1
10
-1.53997014218979
20
2.66874784662466
30
0
41
1
10
-1.3154350650949
20
3.91027172665437
30
0
0
SPLINE
5
164
100
AcDbEntity
8
SK1
62
256
6
ByLayer
370
13
48
1
60
0
100
AcDbSpline
70
4
71
3
72
24
73
20
40
0
40
0
40
0
40
0
40
0.0865398844436245
40
0.0865398844436245
40
0.174606808973549
40
0.174606808973549
40
0.204283232250598
40
0.204283232250598
40
0.234430378298948
40
0.234430378298948
40
0.260963086962097
40
0.260963086962097
40
0.296894251932611
40
0.296894251932611
40
0.362560401604186
40
0.362560401604186
40
0.577775078513391
40
0.577775078513391
40
1
40
1
40
1
40
1
41
1
10
-0.19497688887526
20
-5.10125086895559
30
0
41
1
10
-0.22459265387019
20
-5.16040801377196
30
0
41
1
10
-0.257595479757299
20
-5.21831140841576
30
0
41
1
10
-0.336150389877872
20
-5.32723274028885
30
0
41
1
10
-0.382542848167105
20
-5.38041105877844
30
0
41
1
10
-0.462321250315341
20
-5.43127550158033
30
0
41
1
10
-0.484592781963329
20
-5.44242526658456
30
0
41
1
10
-0.532132005846194
20
-5.45772783053673
30
0
41
1
10
-0.558142899452832
20
-5.46179903845925
30
0
41
1
10
-0.60627894772523
20
-5.46041947085897
30
0
41
1
10
-0.629034072907444
20
-5.45606086620418
30
0
41
1
10
-0.678877240187461
20
-5.43930436278222
30
0
41
1
10
-0.705546599495165
20
-5.42456927125332
30
0
41
1
10
-0.773100753634736
20
-5.37672942900616
30
0
41
1
10
-0.809617767336221
20
-5.33795142049783
30
0
41
1
10
-0.945846243999057
20
-5.16581622302283
30
0
41
1
10
-1.01284657594519
20
-5.01170528380678
30
0
41
1
10
-1.18434707470047
20
-4.5546882692002
30
0
41
1
10
-1.25671595113772
20
-4.23494507919213
30
0
41
1
10
-1.31543506509544
20
-3.91026939581306
30
0
0
SPLINE
5
165
100
AcDbEntity
8
SK1
62
256
6
ByLayer
370
13
48
1
60
0
100
AcDbSpline
70
4
71
3
72
19
73
15
40
0
40
0
40
0
40
0
40
0.0340168326326854
40
0.103731952670181
40
0.173447072707676
40
0.243162192745172
40
0.382592432820163
40
0.522022672895154
40
0.591737792932649
40
0.661452912970145
40
0.800883153045136
40
0.870598273082631
40
0.940313393120127
40
1
40
1
40
1
40
1
41
1
10
-0.194976888875288
20
17.3652894531861
30
0
41
1
10
-0.19497688887526
20
17.3585856737741
30
0
41
1
10
-0.19497688887526
20
17.318567012574
30
0
41
1
10
-0.19497688887526
20
17.1586060420318
30
0
41
1
10
-0.194976888875288
20
16.8308407609472
30
0
41
1
10
-0.19497688887526
20
16.2296006616933
30
0
41
1
10
-0.19497688887526
20
15.1935360543339
30
0
41
1
10
-0.194976888875288
20
13.8199155786832
30
0
41
1
10
-0.19497688887526
20
12.5327090406558
30
0
41
1
10
-0.194976888875288
20
11.1243601233571
30
0
41
1
10
-0.19497688887526
20
9.54003756166787
30
0
41
1
10
-0.19497688887526
20
7.78272657852651
30
0
41
1
10
-0.194976888875288
20
6.44811514689025
30
0
41
1
10
-0.19497688887526
20
5.53313598468048
30
0
41
1
10
-0.19497688887526
20
5.10125345322427
30
0
0
SPLINE
5
166
100
AcDbEntity
8
SK1
62
256
6
ByLayer
370
13
48
1
60
0
100
AcDbSpline
70
4
71
3
72
19
73
15
40
0
40
0
40
0
40
0
40
0.0596866936139429
40
0.129401785683386
40
0.199116877752828
40
0.338547061891714
40
0.408262153961157
40
0.477977246030599
40
0.617407430169485
40
0.75683761430837
40
0.826552706377813
40
0.896267798447256
40
0.965982890516699
40
1
40
1
40
1
40
1
41
1
10
-0.19497688887526
20
-5.10125086896673
30
0
41
1
10
-0.19497688887526
20
-5.53313428609087
30
0
41
1
10
-0.194976888875232
20
-6.44811450197952
30
0
41
1
10
-0.19497688887526
20
-7.78272641346851
30
0
41
1
10
-0.19497688887526
20
-9.54003737468338
30
0
41
1
10
-0.19497688887526
20
-11.1243601127486
30
0
41
1
10
-0.194976888875232
20
-12.5327088879464
30
0
41
1
10
-0.19497688887526
20
-13.8199159522374
30
0
41
1
10
-0.194976888875232
20
-15.1935356351606
30
0
41
1
10
-0.194976888875232
20
-16.2296014295451
30
0
41
1
10
-0.19497688887526
20
-16.8308406320639
30
0
41
1
10
-0.194976888875232
20
-17.1586063633231
30
0
41
1
10
-0.19497688887526
20
-17.3185678369517
30
0
41
1
10
-0.19497688887526
20
-17.3585862138783
30
0
41
1
10
-0.19497688887526
20
-17.365289868956
30
0
0
SPLINE
5
167
100
AcDbEntity
8
SK1
62
256
6
ByLayer
370
13
48
1
60
0
100
AcDbSpline
70
4
71
3
72
28
73
24
40
0
40
0
40
0
40
0
40
0.516446141051588
40
0.516446141051588
40
0.606964722938846
40
0.606964722938846
40
0.693548730180042
40
0.693548730180042
40
0.72661742927892
40
0.72661742927892
40
0.760179667743806
40
0.760179667743806
40
0.778833531745743
40
0.778833531745743
40
0.797654854320558
40
0.797654854320558
40
0.814904576888525
40
0.814904576888525
40
0.845176041490965
40
0.845176041490965
40
0.922307781342542
40
0.922307781342542
40
1
40
1
40
1
40
1
41
1
10
2.84E-14
20
-5.57923036606783
30
0
41
1
10
2.84E-14
20
-5.45236806529761
30
0
41
1
10
-0.0023498218234863
20
-5.32313166238612
30
0
41
1
10
-0.0246707618043729
20
-5.17055408176387
30
0
41
1
10
-0.0286524877798513
20
-5.14764204467337
30
0
41
1
10
-0.0387560546027998
20
-5.10317866975316
30
0
41
1
10
-0.0446943059310456
20
-5.08137365774519
30
0
41
1
10
-0.0565046990696487
20
-5.05263962384069
30
0
41
1
10
-0.0602008880997289
20
-5.04479189761088
30
0
41
1
10
-0.0689466158998471
20
-5.02994474169321
30
0
41
1
10
-0.0741217536318857
20
-5.02277054209384
30
0
41
1
10
-0.0837193538487497
20
-5.01389488612998
30
0
41
1
10
-0.0875463815133628
20
-5.0111447281794
30
0
41
1
10
-0.0956073859927926
20
-5.00725697459058
30
0
41
1
10
-0.0999476032092161
20
-5.00610700608999
30
0
41
1
10
-0.10805644459856
20
-5.00560398939325
30
0
41
1
10
-0.111930329251379
20
-5.00608221695774
30
0
41
1
10
-0.121996996497444
20
-5.00880668081464
30
0
41
1
10
-0.12794810595841
20
-5.01208528001027
30
0
41
1
10
-0.147044934762249
20
-5.0259015161906
30
0
41
1
10
-0.158144588366696
20
-5.03988585432583
30
0
41
1
10
-0.178024754257365
20
-5.06915995887124
30
0
41
1
10
-0.186840242430378
20
-5.08499801267416
30
0
41
1
10
-0.194976888875402
20
-5.1012508689536
30
0
0
SPLINE
5
168
100
AcDbEntity
8
SK1
62
256
6
ByLayer
370
13
48
1
60
0
100
AcDbSpline
70
4
71
3
72
39
73
35
40
0
40
0
40
0
40
0
40
0.0143966635680862
40
0.042961554330293
40
0.0715264450924997
40
0.100091335854706
40
0.15722111737912
40
0.214350898903533
40
0.24291578966574
40
0.271480680427947
40
0.32861046195236
40
0.357175352714567
40
0.385740243476774
40
0.41430513423898
40
0.442870025001187
40
0.471434915763394
40
0.485717361144497
40
0.499999806525601
40
0.514282251906704
40
0.528564697287807
40
0.557129588050014
40
0.585694478812221
40
0.614259369574427
40
0.642824260336634
40
0.671389151098841
40
0.728518932623254
40
0.757083823385461
40
0.785648714147668
40
0.842778495672081
40
0.899908277196495
40
0.928473167958701
40
0.957038058720908
40
0.985602949483115
40
1
40
1
40
1
40
1
41
1
10
-1.79503997793921
20
17.3257551203354
30
0
41
1
10
-1.79503997793921
20
17.3192800091757
30
0
41
1
10
-1.79503997793924
20
17.2795195296648
30
0
41
1
10
-1.79503997793924
20
17.1188450441767
30
0
41
1
10
-1.79503997793924
20
16.7916722325964
30
0
41
1
10
-1.79503997793924
20
16.1913785074866
30
0
41
1
10
-1.79503997793924
20
15.1570319640166
30
0
41
1
10
-1.79503997793927
20
13.785619970132
30
0
41
1
10
-1.79503997793924
20
12.5002679640771
30
0
41
1
10
-1.79503997793927
20
11.0940004239179
30
0
41
1
10
-1.79503997793924
20
9.51267503388604
30
0
41
1
10
-1.79503997793927
20
7.75839234481921
30
0
41
1
10
-1.79503997793927
20
6.35944481918486
30
0
41
1
10
-1.79503997793924
20
4.87813814654285
30
0
41
1
10
-1.79503997793927
20
3.31755142876628
30
0
41
1
10
-1.79503997793927
20
1.95744888431977
30
0
41
1
10
-1.79503997793927
20
0.842183896938622
30
0
41
1
10
-1.79503997793927
20
5.0124072E-08
30
0
41
1
10
-1.79503997793927
20
-0.84218383508977
30
0
41
1
10
-1.7950399779393
20
-1.95744890560624
30
0
41
1
10
-1.79503997793927
20
-3.31755135272854
30
0
41
1
10
-1.7950399779393
20
-4.87813783770076
30
0
41
1
10
-1.79503997793924
20
-6.3594449330798
30
0
41
1
10
-1.79503997793927
20
-7.75839217523469
30
0
41
1
10
-1.7950399779393
20
-9.51267484843632
30
0
41
1
10
-1.79503997793927
20
-11.094000413604
30
0
41
1
10
-1.79503997793927
20
-12.5002678139024
30
0
41
1
10
-1.7950399779393
20
-13.7856203428615
30
0
41
1
10
-1.79503997793924
20
-15.1570315468654
30
0
41
1
10
-1.79503997793924
20
-16.191379274722
30
0
41
1
10
-1.79503997793927
20
-16.7916721035533
30
0
41
1
10
-1.79503997793924
20
-17.118845366722
30
0
41
1
10
-1.79503997793924
20
-17.279520956323
30
0
41
1
10
-1.79503997793924
20
-17.3192810359818
30
0
41
1
10
-1.79503997793927
20
-17.3257558793559
30
0
0
SPLINE
5
169
100
AcDbEntity
8
SK1
62
256
6
ByLayer
370
13
48
1
60
0
100
AcDbSpline
70
4
71
3
72
39
73
35
40
0
40
0
40
0
40
0
40
0.0161825887197835
40
0.0446424315567143
40
0.0731022743936451
40
0.101562117230576
40
0.158481802904438
40
0.215401488578299
40
0.24386133141523
40
0.272321174252161
40
0.329240859926022
40
0.357700702762953
40
0.386160545599884
40
0.414620388436814
40
0.443080231273745
40
0.471540074110676
40
0.485769995529142
40
0.499999916947607
40
0.514229838366072
40
0.528459759784538
40
0.556919602621468
40
0.585379445458399
40
0.61383928829533
40
0.642299131132261
40
0.670758973969191
40
0.727678659643053
40
0.756138502479984
40
0.784598345316915
40
0.841518030990776
40
0.898437716664638
40
0.926897559501568
40
0.955357402338499
40
0.98381724517543
40
1
40
1
40
1
40
1
41
1
10
-28.4999999999999
20
16.8572808151684
30
0
41
1
10
-28.5
20
16.8520758994923
30
0
41
1
10
-28.5
20
16.8141072524903
30
0
41
1
10
-28.5
20
16.6531187925378
30
0
41
1
10
-28.5
20
16.3328856609547
30
0
41
1
10
-28.4999999999999
20
15.7436769514769
30
0
41
1
10
-28.5
20
14.7294543359373
30
0
41
1
10
-28.5
20
13.3839106046769
30
0
41
1
10
-28.5
20
12.1202809967187
30
0
41
1
10
-28.5
20
10.7383929245239
30
0
41
1
10
-28.5
20
9.19217383455461
30
0
41
1
10
-28.5
20
7.47336198687208
30
0
41
1
10
-28.5
20
6.10816664300188
30
0
41
1
10
-28.5
20
4.66779636016511
30
0
41
1
10
-28.5
20
3.15909751485609
30
0
41
1
10
-28.5
20
1.85825194532137
30
0
41
1
10
-28.5
20
0.79556388958531
30
0
41
1
10
-28.5
20
1.286702798E-07
30
0
41
1
10
-28.5
20
-0.795563863901094
30
0
41
1
10
-28.5
20
-1.85825200188594
30
0
41
1
10
-28.5
20
-3.15909729188604
30
0
41
1
10
-28.5
20
-4.66779609215362
30
0
41
1
10
-28.5
20
-6.10816680103011
30
0
41
1
10
-28.5
20
-7.47336176426703
30
0
41
1
10
-28.5
20
-9.19217366708196
30
0
41
1
10
-28.5
20
-10.73839291766
30
0
41
1
10
-28.5
20
-12.120280876233
30
0
41
1
10
-28.5
20
-13.3839109677472
30
0
41
1
10
-28.5
20
-14.7294539424714
30
0
41
1
10
-28.5
20
-15.743677711493
30
0
41
1
10
-28.5
20
-16.3328855300395
30
0
41
1
10
-28.5
20
-16.653119129773
30
0
41
1
10
-28.5
20
-16.8141081747198
30
0
41
1
10
-28.5
20
-16.8520764693977
30
0
41
1
10
-28.5
20
-16.8572811850371
30
0
0
SPLINE
5
16A
100
AcDbEntity
8
1
62
256
6
ByLayer
370
13
48
1
60
0
100
AcDbSpline
70
4
71
3
72
16
73
12
40
0
40
0
40
0
40
0
40
0.111430279628087
40
0.111430279628087
40
0.248747543515578
40
0.248747543515578
40
0.465535329195474
40
0.465535329195474
40
0.883855351868001
40
0.883855351868001
40
1
40
1
40
1
40
1
41
1
10
8.53867513459488
20
-23.8391299750503
30
0
41
1
10
8.51081528400584
20
-23.8391299750503
30
0
41
1
10
8.48260885722453
20
-23.8375361275706
30
0
41
1
10
8.42415079676076
20
-23.831150658589
30
0
41
1
10
8.39395861076949
20
-23.825666877018
30
0
41
1
10
8.32484624564248
20
-23.8089605749787
30
0
41
1
10
8.28921459142958
20
-23.7960379707759
30
0
41
1
10
8.201006109254
20
-23.7556824246832
30
0
41
1
10
8.16026799314915
20
-23.7250165399981
30
0
41
1
10
8.12070829847326
20
-23.6845451449633
30
0
41
1
10
8.11283840142698
20
-23.6755726082078
30
0
41
1
10
8.10566243270256
20
-23.666501792081
30
0
0
SPLINE
5
16B
100
AcDbEntity
8
1
62
256
6
ByLayer
370
13
48
1
60
0
100
AcDbSpline
70
4
71
3
72
8
73
4
40
0
40
0
40
0
40
0
40
1
40
1
40
1
40
1
41
1
10
21.4383186059721
20
-24.3286349128745
30
0
41
1
10
21.9263485096388
20
-26.4267721030802
30
0
41
1
10
22.4501707401925
20
-28.5337331003836
30
0
41
1
10
22.9878681344896
20
-30.6486388911843
30
0
0
SPLINE
5
16C
100
AcDbEntity
8
1
62
256
6
ByLayer
370
13
48
1
60
0
100
AcDbSpline
70
4
71
3
72
8
73
4
40
0
40
0
40
0
40
0
40
1
40
1
40
1
40
1
41
1
10
22.9878681344896
20
-30.6486388911843
30
0
41
1
10
23.1694362483487
20
-31.3770345177283
30
0
41
1
10
23.3568485973334
20
-32.1100845346149
30
0
41
1
10
23.5492037354046
20
-32.8480544156199
30
0
0
SPLINE
5
16D
100
AcDbEntity
8
1
62
256
6
ByLayer
370
13
48
1
60
0
100
AcDbSpline
70
4
71
3
72
16
73
12
40
0
40
0
40
0
40
0
40
0.111430279628029
40
0.111430279628029
40
0.24874754351548
40
0.24874754351548
40
0.465535329195303
40
0.465535329195303
40
0.883855351867728
40
0.883855351867728
40
1
40
1
40
1
40
1
41
1
10
11.4613248654053
20
23.8391299750503
30
0
41
1
10
11.4891847159943
20
23.8391299750503
30
0
41
1
10
11.5173911427756
20
23.8375361275706
30
0
41
1
10
11.5758492032394
20
23.831150658589
30
0
41
1
10
11.6060413892307
20
23.8256668770179
30
0
41
1
10
11.6751537543576
20
23.8089605749787
30
0
41
1
10
11.7107854085706
20
23.7960379707759
30
0
41
1
10
11.7989938907461
20
23.7556824246832
30
0
41
1
10
11.839732006851
20
23.7250165399981
30
0
41
1
10
11.8792917015269
20
23.6845451449632
30
0
41
1
10
11.8871615985732
20
23.6755726082077
30
0
41
1
10
11.8943375672976
20
23.6665017920809
30
0
0
SPLINE
5
16E
100
AcDbEntity
8
1
62
256
6
ByLayer
370
13
48
1
60
0
100
AcDbSpline
70
4
71
3
72
16
73
12
40
0
40
0
40
0
40
0
40
0.461208588217111
40
0.461208588217111
40
0.64353496227854
40
0.64353496227854
40
0.828408472975258
40
0.828408472975258
40
0.943003644159959
40
0.943003644159959
40
1
40
1
40
1
40
1
41
1
10
8.10566243270273
20
-8.05584836782737
30
0
41
1
10
8.13394960848498
20
-7.95080268681409
30
0
41
1
10
8.17266608070938
20
-7.8462867097077
30
0
41
1
10
8.25268397516862
20
-7.71442469145094
30
0
41
1
10
8.27872153625245
20
-7.67825379650702
30
0
41
1
10
8.33934560108369
20
-7.61290523367202
30
0
41
1
10
8.37482777731273
20
-7.5830592305139
30
0
41
1
10
8.44007741480428
20
-7.54855881865572
30
0
41
1
10
8.46752172250569
20
-7.5385201810227
30
0
41
1
10
8.50983152523011
20
-7.53097042135238
30
0
41
1
10
8.52428260692466
20
-7.52966679426456
30
0
41
1
10
8.5386751345948
20
-7.52966679426456
30
0
0
SPLINE
5
16F
100
AcDbEntity
8
1
62
256
6
ByLayer
370
13
48
1
60
0
100
AcDbSpline
70
4
71
3
72
16
73
12
40
0
40
0
40
0
40
0
40
0.111430279628039
40
0.111430279628039
40
0.248747543515487
40
0.248747543515487
40
0.465535329195357
40
0.465535329195357
40
0.883855351867912
40
0.883855351867912
40
1
40
1
40
1
40
1
41
1
10
11.4613248654053
20
-7.52966679426532
30
0
41
1
10
11.4891847159943
20
-7.52966679426532
30
0
41
1
10
11.5173911427756
20
-7.53471706780886
30
0
41
1
10
11.5758492032394
20
-7.5548921022106
30
0
41
1
10
11.6060413892307
20
-7.57218953888474
30
0
41
1
10
11.6751537543576
20
-7.62460019394121
30
0
41
1
10
11.7107854085706
20
-7.66489294253941
30
0
41
1
10
11.7989938907461
20
-7.78941367630392
30
0
41
1
10
11.839732006851
20
-7.8824751100419
30
0
41
1
10
11.8792917015269
20
-8.00269269538049
30
0
41
1
10
11.8871615985732
20
-8.02920008991612
30
0
41
1
10
11.8943375672976
20
-8.05584836782796
30
0
0
SPLINE
5
170
100
AcDbEntity
8
1
62
256
6
ByLayer
370
13
48
1
60
0
100
AcDbSpline
70
4
71
3
72
10
73
6
40
0
40
0
40
0
40
0
40
0.5
40
0.5
40
1
40
1
40
1
40
1
41
1
10
21.4383186059721
20
-24.3286349128745
30
0
41
1
10
21.33136700132
20
-23.868828787088
30
0
41
1
10
21.0587944559536
20
-23.5145166803341
30
0
41
1
10
20.6015356833414
20
-22.9889464131585
30
0
41
1
10
20.4025470166137
20
-22.7958338680363
30
0
41
1
10
20.2792076144253
20
-22.5984282879636
30
0
0
SPLINE
5
171
100
AcDbEntity
8
1
62
256
6
ByLayer
370
13
48
1
60
0
100
AcDbSpline
70
4
71
3
72
8
73
4
40
0
40
0
40
0
40
0
40
1
40
1
40
1
40
1
41
1
10
20.1152763833535
20
-22.0449751661478
30
0
41
1
10
20.1184605318086
20
-22.2401224390222
30
0
41
1
10
20.1723884910805
20
-22.4274635302901
30
0
41
1
10
20.2792076144253
20
-22.5984282879636
30
0
0
SPLINE
5
172
100
AcDbEntity
8
1
62
256
6
ByLayer
370
13
48
1
60
0
100
AcDbSpline
70
4
71
3
72
16
73
12
40
0
40
0
40
0
40
0
40
0.111430279628049
40
0.111430279628049
40
0.24874754351553
40
0.24874754351553
40
0.465535329195379
40
0.465535329195379
40
0.883855351867813
40
0.883855351867813
40
1
40
1
40
1
40
1
41
1
10
8.53867513459485
20
7.52966679426478
30
0
41
1
10
8.51081528400582
20
7.52966679426478
30
0
41
1
10
8.48260885722453
20
7.53471706780832
30
0
41
1
10
8.42415079676076
20
7.55489210221003
30
0
41
1
10
8.39395861076949
20
7.57218953888423
30
0
41
1
10
8.32484624564248
20
7.62460019394067
30
0
41
1
10
8.28921459142958
20
7.66489294253884
30
0
41
1
10
8.20100610925402
20
7.78941367630327
30
0
41
1
10
8.16026799314918
20
7.88247511004124
30
0
41
1
10
8.12070829847326
20
8.00269269537975
30
0
41
1
10
8.11283840142698
20
8.02920008991541
30
0
41
1
10
8.10566243270256
20
8.05584836782725
30
0
0
SPLINE
5
173
100
AcDbEntity
8
1
62
256
6
ByLayer
370
13
48
1
60
0
100
AcDbSpline
70
4
71
3
72
8
73
4
40
0
40
0
40
0
40
0
40
1
40
1
40
1
40
1
41
1
10
23.7988958525447
20
-34.6749999999995
30
0
41
1
10
23.7986773353778
20
-34.6749999999995
30
0
41
1
10
23.872911324678
20
-34.6749999999995
30
0
41
1
10
24.0260808905892
20
-34.6749999999995
30
0
0
SPLINE
5
174
100
AcDbEntity
8
1
62
256
6
ByLayer
370
13
48
1
60
0
100
AcDbSpline
70
4
71
3
72
8
73
4
40
0
40
0
40
0
40
0
40
1
40
1
40
1
40
1
41
1
10
23.5492037354046
20
-32.8480544156199
30
0
41
1
10
23.707951008324
20
-33.457087827885
30
0
41
1
10
23.8669206963488
20
-34.0660671002773
30
0
41
1
10
24.0260808905892
20
-34.6749999999995
30
0
0
SPLINE
5
175
100
AcDbEntity
8
1
62
256
6
ByLayer
370
13
48
1
60
0
100
AcDbSpline
70
4
71
3
72
8
73
4
40
0
40
0
40
0
40
0
40
1
40
1
40
1
40
1
41
1
10
22.9878681344896
20
-30.6486388911843
30
0
41
1
10
23.3561242580753
20
-31.3783416737966
30
0
41
1
10
23.736818104712
20
-32.1154675228893
30
0
41
1
10
24.1151240756102
20
-32.8480544156199
30
0
0
SPLINE
5
176
100
AcDbEntity
8
1
62
256
6
ByLayer
370
13
48
1
60
0
100
AcDbSpline
70
4
71
3
72
16
73
12
40
0
40
0
40
0
40
0
40
0.461208588217091
40
0.461208588217091
40
0.643534962278549
40
0.643534962278549
40
0.828408472975305
40
0.828408472975305
40
0.943003644160046
40
0.943003644160046
40
1
40
1
40
1
40
1
41
1
10
11.8943375672975
20
8.05584836782793
30
0
41
1
10
11.8660503915152
20
7.95080268681465
30
0
41
1
10
11.8273339192909
20
7.84628670970821
30
0
41
1
10
11.7473160248316
20
7.71442469145146
30
0
41
1
10
11.7212784637477
20
7.67825379650748
30
0
41
1
10
11.6606543989164
20
7.61290523367248
30
0
41
1
10
11.6251722226874
20
7.58305923051432
30
0
41
1
10
11.5599225851958
20
7.54855881865612
30
0
41
1
10
11.5324782774944
20
7.53852018102313
30
0
41
1
10
11.49016847477
20
7.53097042135278
30
0
41
1
10
11.4757173930755
20
7.52966679426495
30
0
41
1
10
11.4613248654054
20
7.52966679426495
30
0
0
SPLINE
5
177
100
AcDbEntity
8
1
62
256
6
ByLayer
370
13
48
1
60
0
100
AcDbSpline
70
4
71
3
72
16
73
12
40
0
40
0
40
0
40
0
40
0.461208588217149
40
0.461208588217149
40
0.643534962278635
40
0.643534962278635
40
0.828408472975402
40
0.828408472975402
40
0.943003644160109
40
0.943003644160109
40
1
40
1
40
1
40
1
41
1
10
11.8943375672975
20
-23.6665017920807
30
0
41
1
10
11.8660503915152
20
-23.7022583261631
30
0
41
1
10
11.8273339192909
20
-23.7370095736337
30
0
41
1
10
11.7473160248315
20
-23.7800170858173
30
0
41
1
10
11.7212784637477
20
-23.7917125768792
30
0
41
1
10
11.6606543989164
20
-23.8127037684949
30
0
41
1
10
11.6251722226874
20
-23.8222104320953
30
0
41
1
10
11.5599225851958
20
-23.8331586856491
30
0
41
1
10
11.5324782774944
20
-23.8363323784729
30
0
41
1
10
11.49016847477
20
-23.8387183279985
30
0
41
1
10
11.4757173930755
20
-23.8391299750503
30
0
41
1
10
11.4613248654054
20
-23.8391299750503
30
0
0
SPLINE
5
178
100
AcDbEntity
8
1
62
256
6
ByLayer
370
13
48
1
60
0
100
AcDbSpline
70
4
71
3
72
16
73
12
40
0
40
0
40
0
40
0
40
0.461208588217101
40
0.461208588217101
40
0.643534962278544
40
0.643534962278544
40
0.828408472975297
40
0.828408472975297
40
0.943003644160013
40
0.943003644160013
40
1
40
1
40
1
40
1
41
1
10
8.1056624327027
20
23.6665017920811
30
0
41
1
10
8.13394960848498
20
23.7022583261634
30
0
41
1
10
8.17266608070935
20
23.737009573634
30
0
41
1
10
8.25268397516859
20
23.7800170858176
30
0
41
1
10
8.27872153625242
20
23.7917125768795
30
0
41
1
10
8.33934560108369
20
23.8127037684952
30
0
41
1
10
8.37482777731273
20
23.8222104320955
30
0
41
1
10
8.44007741480431
20
23.8331586856494
30
0
41
1
10
8.46752172250572
20
23.8363323784731
30
0
41
1
10
8.50983152523014
20
23.8387183279987
30
0
41
1
10
8.52428260692466
20
23.8391299750506
30
0
41
1
10
8.5386751345948
20
23.8391299750506
30
0
0
SPLINE
5
179
100
AcDbEntity
8
1
62
256
6
ByLayer
370
13
48
1
60
0
100
AcDbSpline
70
4
71
3
72
10
73
6
40
0
40
0
40
0
40
0
40
0.838937617766275
40
0.838937617766275
40
1
40
1
40
1
40
1
41
1
10
66.9178211501258
20
-32.2727797609648
30
0
41
1
10
66.8935943168163
20
-32.2509072026833
30
0
41
1
10
66.8683899171275
20
-32.2292048971733
30
0
41
1
10
66.83759008949
20
-32.2034811155242
30
0
41
1
10
66.8326058289527
20
-32.1993420856906
30
0
41
1
10
66.8276010148921
20
-32.1952069591954
30
0
0
SPLINE
5
17A
100
AcDbEntity
8
1
62
256
6
ByLayer
370
13
48
1
60
0
100
AcDbSpline
70
4
71
3
72
8
73
4
40
0
40
0
40
0
40
0
40
1
40
1
40
1
40
1
41
1
10
66.8276010148921
20
-32.1952069591954
30
0
41
1
10
66.8701630922749
20
-32.1497895534462
30
0
41
1
10
66.9131571930301
20
-32.104771368004
30
0
41
1
10
66.9567233231079
20
-32.0603190949194
30
0
0
SPLINE
5
17B
100
AcDbEntity
8
1
62
256
6
ByLayer
370
13
48
1
60
0
100
AcDbSpline
70
4
71
3
72
8
73
4
40
0
40
0
40
0
40
0
40
1
40
1
40
1
40
1
41
1
10
66.9567233231079
20
-32.0603190949194
30
0
41
1
10
67.0273458910486
20
-32.0509904813627
30
0
41
1
10
67.0978685108517
20
-32.0427146391797
30
0
41
1
10
67.1678805766493
20
-32.0369772983268
30
0
0
SPLINE
5
17C
100
AcDbEntity
8
1
62
256
6
ByLayer
370
13
48
1
60
0
100
AcDbSpline
70
4
71
3
72
12
73
8
40
0
40
0
40
0
40
0
40
0.0998683717390313
40
0.0998683717390313
40
0.537823266363916
40
0.537823266363916
40
1
40
1
40
1
40
1
41
1
10
67.1678805766493
20
-32.0369772983268
30
0
41
1
10
67.1977300732363
20
-32.0345311951551
30
0
41
1
10
67.228855396395
20
-32.0312825353887
30
0
41
1
10
67.400335943483
20
-32.0103303217508
30
0
41
1
10
67.5643332524475
20
-31.9796973025267
30
0
41
1
10
67.9166201131585
20
-31.9044843792609
30
0
41
1
10
68.112033802554
20
-31.8570358771145
30
0
41
1
10
68.3023602239472
20
-31.8082168034755
30
0
0
SPLINE
5
17D
100
AcDbEntity
8
1
62
256
6
ByLayer
370
13
48
1
60
0
100
AcDbSpline
70
4
71
3
72
8
73
4
40
0
40
0
40
0
40
0
40
1
40
1
40
1
40
1
41
1
10
68.3023602239472
20
-31.8082168034755
30
0
41
1
10
68.4489218064241
20
-31.7706234907069
30
0
41
1
10
68.6016353978424
20
-31.7481726211356
30
0
41
1
10
68.7528986418119
20
-31.7532146083176
30
0
0
SPLINE
5
17E
100
AcDbEntity
8
1
62
256
6
ByLayer
370
13
48
1
60
0
100
AcDbSpline
70
4
71
3
72
8
73
4
40
0
40
0
40
0
40
0
40
1
40
1
40
1
40
1
41
1
10
68.7528986418119
20
-31.7532146083176
30
0
41
1
10
68.8744062234274
20
-31.7572647638804
30
0
41
1
10
68.9966210532666
20
-31.7524251372607
30
0
41
1
10
69.1158957172707
20
-31.7528109280229
30
0
0
SPLINE
5
17F
100
AcDbEntity
8
1
62
256
6
ByLayer
370
13
48
1
60
0
100
AcDbSpline
70
4
71
3
72
8
73
4
40
0
40
0
40
0
40
0
40
1
40
1
40
1
40
1
41
1
10
69.1158957172694
20
-31.7528109280247
30
0
41
1
10
69.2755545267195
20
-31.7533273402427
30
0
41
1
10
69.4354150796997
20
-31.7875200894147
30
0
41
1
10
69.5900286630425
20
-31.8313311738511
30
0
0
SPLINE
5
180
100
AcDbEntity
8
1
62
256
6
ByLayer
370
13
48
1
60
0
100
AcDbSpline
70
4
71
3
72
8
73
4
40
0
40
0
40
0
40
0
40
1
40
1
40
1
40
1
41
1
10
69.5900286630425
20
-31.8313311738511
30
0
41
1
10
69.634090020669
20
-31.857994141758
30
0
41
1
10
69.6778395366007
20
-31.8851709603055
30
0
41
1
10
69.7213895076228
20
-31.912656363149
30
0
0
SPLINE
5
181
100
AcDbEntity
8
1
62
256
6
ByLayer
370
13
48
1
60
0
100
AcDbSpline
70
4
71
3
72
12
73
8
40
0
40
0
40
0
40
0
40
0.178891096392097
40
0.178891096392097
40
0.986291642515957
40
0.986291642515957
40
1
40
1
40
1
40
1
41
1
10
69.7213895076228
20
-31.912656363149
30
0
41
1
10
69.700311526968
20
-31.9118200221019
30
0
41
1
10
69.6792221384666
20
-31.9109770017519
30
0
41
1
10
69.5629014296377
20
-31.9062883096804
30
0
41
1
10
69.4679540502603
20
-31.9006446473865
30
0
41
1
10
69.3689156735318
20
-31.8962008712522
30
0
41
1
10
69.3672607449415
20
-31.8961296383466
30
0
41
1
10
69.3656057053218
20
-31.8960614046735
30
0
0
SPLINE
5
182
100
AcDbEntity
8
1
62
256
6
ByLayer
370
13
48
1
60
0
100
AcDbSpline
70
4
71
3
72
12
73
8
40
0
40
0
40
0
40
0
40
0.609383607481524
40
0.609383607481524
40
0.614539779328588
40
0.614539779328588
40
1
40
1
40
1
40
1
41
1
10
69.3656057053218
20
-31.8960614046735
30
0
41
1
10
69.2600213620047
20
-31.8917083925234
30
0
41
1
10
69.1496097970337
20
-31.8873789395452
30
0
41
1
10
69.0373081383663
20
-31.8831074274146
30
0
41
1
10
69.0363601843113
20
-31.8830713722778
30
0
41
1
10
68.9647049543392
20
-31.8803460732626
30
0
41
1
10
68.8932165299024
20
-31.8775462173261
30
0
41
1
10
68.8219297662852
20
-31.8750596279378
30
0
0
SPLINE
5
183
100
AcDbEntity
8
1
62
256
6
ByLayer
370
13
48
1
60
0
100
AcDbSpline
70
4
71
3
72
16
73
12
40
0
40
0
40
0
40
0
40
0.0442199247554431
40
0.0442199247554431
40
0.0484399555489736
40
0.0484399555489736
40
0.21689535852514
40
0.21689535852514
40
0.889245809545941
40
0.889245809545941
40
1
40
1
40
1
40
1
41
1
10
68.8219297662852
20
-31.8750596279378
30
0
41
1
10
68.8113300785451
20
-31.8746898949086
30
0
41
1
10
68.8007291289449
20
-31.8743585724821
30
0
41
1
10
68.7891179461187
20
-31.8739517826801
30
0
41
1
10
68.7881063966875
20
-31.873916215477
30
0
41
1
10
68.7467182945273
20
-31.8724560567754
30
0
41
1
10
68.7063476610927
20
-31.8705598631909
30
0
41
1
10
68.5067119730518
20
-31.8638164271516
30
0
41
1
10
68.3453726295509
20
-31.8847626147815
30
0
41
1
10
68.1656324617668
20
-31.9322432677878
30
0
41
1
10
68.1400997197493
20
-31.9394121808552
30
0
41
1
10
68.1146869282979
20
-31.9469709203515
30
0
0
SPLINE
5
184
100
AcDbEntity
8
1
62
256
6
ByLayer
370
13
48
1
60
0
100
AcDbSpline
70
4
71
3
72
12
73
8
40
0
40
0
40
0
40
0
40
0.262655118490606
40
0.262655118490606
40
0.697392919166919
40
0.697392919166919
40
1
40
1
40
1
40
1
41
1
10
68.1146869282979
20
-31.9469709203515
30
0
41
1
10
68.0122143236957
20
-31.9774502057605
30
0
41
1
10
67.909497462749
20
-32.0077975264422
30
0
41
1
10
67.6439453836003
20
-32.0859327261647
30
0
41
1
10
67.4820473482736
20
-32.1332259119503
30
0
41
1
10
67.231433044244
20
-32.2065907788862
30
0
41
1
10
67.1338240971893
20
-32.2368143127597
30
0
41
1
10
67.0455473303953
20
-32.2612762011148
30
0
0
SPLINE
5
185
100
AcDbEntity
8
1
62
256
6
ByLayer
370
13
48
1
60
0
100
AcDbSpline
70
4
71
3
72
8
73
4
40
0
40
0
40
0
40
0
40
1
40
1
40
1
40
1
41
1
10
67.0455473303953
20
-32.2612762011148
30
0
41
1
10
67.0087652449776
20
-32.2714686820997
30
0
41
1
10
66.9720869999075
20
-32.2815735577131
30
0
41
1
10
66.9354962551972
20
-32.2916818744051
30
0
0
SPLINE
5
186
100
AcDbEntity
8
1
62
256
6
ByLayer
370
13
48
1
60
0
100
AcDbSpline
70
4
71
3
72
8
73
4
40
0
40
0
40
0
40
0
40
1
40
1
40
1
40
1
41
1
10
66.9354962551913
20
-32.2916818744108
30
0
41
1
10
66.9301777182168
20
-32.2848816411931
30
0
41
1
10
66.9242544977345
20
-32.2785879393889
30
0
41
1
10
66.9178211501258
20
-32.2727797609646
30
0
0
SPLINE
5
187
100
AcDbEntity
8
1
62
256
6
ByLayer
370
13
48
1
60
0
100
AcDbSpline
70
4
71
3
72
8
73
4
40
0
40
0
40
0
40
0
40
1
40
1
40
1
40
1
41
1
10
66.9178211501258
20
-33.7272202390349
30
0
41
1
10
66.9242544977345
20
-33.7214120606106
30
0
41
1
10
66.9301777182172
20
-33.7151183588067
30
0
41
1
10
66.9354962551917
20
-33.7083181255889
30
0
0
SPLINE
5
188
100
AcDbEntity
8
1
62
256
6
ByLayer
370
13
48
1
60
0
100
AcDbSpline
70
4
71
3
72
8
73
4
40
0
40
0
40
0
40
0
40
1
40
1
40
1
40
1
41
1
10
67.0455473303953
20
-33.7387237988849
30
0
41
1
10
67.0087652449776
20
-33.7285313179
30
0
41
1
10
66.9720869999075
20
-33.7184264422867
30
0
41
1
10
66.9354962551972
20
-33.7083181255946
30
0
0
SPLINE
5
189
100
AcDbEntity
8
1
62
256
6
ByLayer
370
13
48
1
60
0
100
AcDbSpline
70
4
71
3
72
12
73
8
40
0
40
0
40
0
40
0
40
0.262655118490606
40
0.262655118490606
40
0.697392919166919
40
0.697392919166919
40
1
40
1
40
1
40
1
41
1
10
68.1146869282979
20
-34.0530290796482
30
0
41
1
10
68.0122143236957
20
-34.0225497942391
30
0
41
1
10
67.909497462749
20
-33.9922024735575
30
0
41
1
10
67.6439453836003
20
-33.914067273835
30
0
41
1
10
67.4820473482736
20
-33.8667740880494
30
0
41
1
10
67.231433044244
20
-33.7934092211135
30
0
41
1
10
67.1338240971893
20
-33.76318568724
30
0
41
1
10
67.0455473303953
20
-33.7387237988849
30
0
0
SPLINE
5
18A
100
AcDbEntity
8
1
62
256
6
ByLayer
370
13
48
1
60
0
100
AcDbSpline
70
4
71
3
72
16
73
12
40
0
40
0
40
0
40
0
40
0.0442199247554431
40
0.0442199247554431
40
0.0484399555489736
40
0.0484399555489736
40
0.21689535852514
40
0.21689535852514
40
0.889245809545941
40
0.889245809545941
40
1
40
1
40
1
40
1
41
1
10
68.8219297662852
20
-34.1249403720619
30
0
41
1
10
68.8113300785451
20
-34.1253101050911
30
0
41
1
10
68.8007291289449
20
-34.1256414275176
30
0
41
1
10
68.7891179461187
20
-34.1260482173196
30
0
41
1
10
68.7881063966875
20
-34.1260837845226
30
0
41
1
10
68.7467182945273
20
-34.1275439432243
30
0
41
1
10
68.7063476610927
20
-34.1294401368088
30
0
41
1
10
68.5067119730518
20
-34.1361835728481
30
0
41
1
10
68.3453726295509
20
-34.1152373852182
30
0
41
1
10
68.1656324617668
20
-34.067756732212
30
0
41
1
10
68.1400997197493
20
-34.0605878191444
30
0
41
1
10
68.1146869282979
20
-34.0530290796482
30
0
0
SPLINE
5
18B
100
AcDbEntity
8
1
62
256
6
ByLayer
370
13
48
1
60
0
100
AcDbSpline
70
4
71
3
72
12
73
8
40
0
40
0
40
0
40
0
40
0.609383607481524
40
0.609383607481524
40
0.614539779328588
40
0.614539779328588
40
1
40
1
40
1
40
1
41
1
10
69.3656057053218
20
-34.1039385953262
30
0
41
1
10
69.2600213620047
20
-34.1082916074763
30
0
41
1
10
69.1496097970337
20
-34.1126210604545
30
0
41
1
10
69.0373081383663
20
-34.1168925725851
30
0
41
1
10
69.0363601843113
20
-34.1169286277219
30
0
41
1
10
68.9647049543392
20
-34.1196539267371
30
0
41
1
10
68.8932165299024
20
-34.1224537826737
30
0
41
1
10
68.8219297662852
20
-34.1249403720619
30
0
0
SPLINE
5
18C
100
AcDbEntity
8
1
62
256
6
ByLayer
370
13
48
1
60
0
100
AcDbSpline
70
4
71
3
72
12
73
8
40
0
40
0
40
0
40
0
40
0.178891096392097
40
0.178891096392097
40
0.986291642515957
40
0.986291642515957
40
1
40
1
40
1
40
1
41
1
10
69.7213895076228
20
-34.0873436368507
30
0
41
1
10
69.700311526968
20
-34.0881799778978
30
0
41
1
10
69.6792221384666
20
-34.0890229982477
30
0
41
1
10
69.5629014296377
20
-34.0937116903193
30
0
41
1
10
69.4679540502603
20
-34.0993553526131
30
0
41
1
10
69.3689156735318
20
-34.1037991287475
30
0
41
1
10
69.3672607449415
20
-34.1038703616531
30
0
41
1
10
69.3656057053218
20
-34.1039385953262
30
0
0
SPLINE
5
18D
100
AcDbEntity
8
1
62
256
6
ByLayer
370
13
48
1
60
0
100
AcDbSpline
70
4
71
3
72
8
73
4
40
0
40
0
40
0
40
0
40
1
40
1
40
1
40
1
41
1
10
69.5900286630425
20
-34.1686688261486
30
0
41
1
10
69.634090020669
20
-34.1420058582417
30
0
41
1
10
69.6778395366007
20
-34.1148290396942
30
0
41
1
10
69.7213895076228
20
-34.0873436368507
30
0
0
SPLINE
5
18E
100
AcDbEntity
8
1
62
256
6
ByLayer
370
13
48
1
60
0
100
AcDbSpline
70
4
71
3
72
8
73
4
40
0
40
0
40
0
40
0
40
1
40
1
40
1
40
1
41
1
10
69.1158957172694
20
-34.247189071975
30
0
41
1
10
69.2755545267195
20
-34.246672659757
30
0
41
1
10
69.4354150796997
20
-34.212479910585
30
0
41
1
10
69.5900286630425
20
-34.1686688261486
30
0
0
SPLINE
5
18F
100
AcDbEntity
8
1
62
256
6
ByLayer
370
13
48
1
60
0
100
AcDbSpline
70
4
71
3
72
8
73
4
40
0
40
0
40
0
40
0
40
1
40
1
40
1
40
1
41
1
10
68.7528986418119
20
-34.2467853916822
30
0
41
1
10
68.8744062234274
20
-34.2427352361193
30
0
41
1
10
68.9966210532666
20
-34.247574862739
30
0
41
1
10
69.1158957172707
20
-34.2471890719768
30
0
0
SPLINE
5
190
100
AcDbEntity
8
1
62
256
6
ByLayer
370
13
48
1
60
0
100
AcDbSpline
70
4
71
3
72
8
73
4
40
0
40
0
40
0
40
0
40
1
40
1
40
1
40
1
41
1
10
68.3023602239472
20
-34.1917831965243
30
0
41
1
10
68.4489218064241
20
-34.2293765092928
30
0
41
1
10
68.6016353978424
20
-34.2518273788641
30
0
41
1
10
68.7528986418119
20
-34.2467853916822
30
0
0
SPLINE
5
191
100
AcDbEntity
8
1
62
256
6
ByLayer
370
13
48
1
60
0
100
AcDbSpline
70
4
71
3
72
12
73
8
40
0
40
0
40
0
40
0
40
0.0998683717390313
40
0.0998683717390313
40
0.537823266363916
40
0.537823266363916
40
1
40
1
40
1
40
1
41
1
10
67.1678805766493
20
-33.9630227016729
30
0
41
1
10
67.1977300732363
20
-33.9654688048446
30
0
41
1
10
67.228855396395
20
-33.968717464611
30
0
41
1
10
67.400335943483
20
-33.9896696782489
30
0
41
1
10
67.5643332524475
20
-34.0203026974729
30
0
41
1
10
67.9166201131585
20
-34.0955156207388
30
0
41
1
10
68.112033802554
20
-34.1429641228852
30
0
41
1
10
68.3023602239472
20
-34.1917831965243
30
0
0
SPLINE
5
192
100
AcDbEntity
8
1
62
256
6
ByLayer
370
13
48
1
60
0
100
AcDbSpline
70
4
71
3
72
8
73
4
40
0
40
0
40
0
40
0
40
1
40
1
40
1
40
1
41
1
10
66.9567233231079
20
-33.9396809050803
30
0
41
1
10
67.0273458910486
20
-33.949009518637
30
0
41
1
10
67.0978685108517
20
-33.95728536082
30
0
41
1
10
67.1678805766493
20
-33.9630227016729
30
0
0
SPLINE
5
193
100
AcDbEntity
8
1
62
256
6
ByLayer
370
13
48
1
60
0
100
AcDbSpline
70
4
71
3
72
8
73
4
40
0
40
0
40
0
40
0
40
1
40
1
40
1
40
1
41
1
10
66.8276010148921
20
-33.8047930408044
30
0
41
1
10
66.8701630922749
20
-33.8502104465534
30
0
41
1
10
66.9131571930301
20
-33.8952286319957
30
0
41
1
10
66.9567233231079
20
-33.9396809050803
30
0
0
SPLINE
5
194
100
AcDbEntity
8
1
62
256
6
ByLayer
370
13
48
1
60
0
100
AcDbSpline
70
4
71
3
72
10
73
6
40
0
40
0
40
0
40
0
40
0.83890545480639
40
0.83890545480639
40
1
40
1
40
1
40
1
41
1
10
66.8276010148921
20
-33.8047930408044
30
0
41
1
10
66.8536671436958
20
-33.7832564285472
30
0
41
1
10
66.8791716040464
20
-33.7616106130768
30
0
41
1
10
66.9084803863995
20
-33.7356146325437
30
0
41
1
10
66.9131686824076
20
-33.7314205969611
30
0
41
1
10
66.9178211501258
20
-33.7272202390349
30
0
0
SPLINE
5
195
100
AcDbEntity
8
1
62
256
6
ByLayer
370
13
48
1
60
0
100
AcDbSpline
70
4
71
3
72
10
73
6
40
0
40
0
40
0
40
0
40
0.164044484569757
40
0.164044484569757
40
1
40
1
40
1
40
1
41
1
10
65.0749813396558
20
-33.6797636730828
30
0
41
1
10
65.0707623351465
20
-33.6727423409174
30
0
41
1
10
65.0668552617126
20
-33.6652019721452
30
0
41
1
10
65.0428320860097
20
-33.6168879304075
30
0
41
1
10
65.02195353334
20
-33.5635403269084
30
0
41
1
10
65.0077920863591
20
-33.5011146342636
30
0
0
SPLINE
5
196
100
AcDbEntity
8
1
62
256
6
ByLayer
370
13
48
1
60
0
100
AcDbSpline
70
4
71
3
72
14
73
10
40
0
40
0
40
0
40
0
40
0.0985152723692072
40
0.0985152723692072
40
0.414436270780364
40
0.414436270780364
40
0.704242772098099
40
0.704242772098099
40
1
40
1
40
1
40
1
41
1
10
65.0077920863591
20
-33.5011146342636
30
0
41
1
10
65.0070883147007
20
-33.4980123076932
30
0
41
1
10
65.006544409998
20
-33.4948758714284
30
0
41
1
10
65.0050532075373
20
-33.4817291074056
30
0
41
1
10
65.0058382838901
20
-33.4713241924904
30
0
41
1
10
65.0123337680469
20
-33.4526088500044
30
0
41
1
10
65.0177790953188
20
-33.4439738793896
30
0
41
1
10
65.032529463701
20
-33.4293174738583
30
0
41
1
10
65.0420968074831
20
-33.4231161461555
30
0
41
1
10
65.0525569632055
20
-33.4185228011354
30
0
0
SPLINE
5
197
100
AcDbEntity
8
1
62
256
6
ByLayer
370
13
48
1
60
0
100
AcDbSpline
70
4
71
3
72
12
73
8
40
0
40
0
40
0
40
0
40
0.496107925963443
40
0.496107925963443
40
0.747917555821972
40
0.747917555821972
40
1
40
1
40
1
40
1
41
1
10
65.0525569632055
20
-33.4185228011354
30
0
41
1
10
65.0782259885473
20
-33.4072508188765
30
0
41
1
10
65.1044232564924
20
-33.3964447553641
30
0
41
1
10
65.1444918597127
20
-33.3808337531946
30
0
41
1
10
65.1580874387439
20
-33.375691655102
30
0
41
1
10
65.1854689641485
20
-33.3656282857144
30
0
41
1
10
65.1992572905257
20
-33.3607064643733
30
0
41
1
10
65.2131234278909
20
-33.3558956653635
30
0
0
SPLINE
5
198
100
AcDbEntity
8
1
62
256
6
ByLayer
370
13
48
1
60
0
100
AcDbSpline
70
4
71
3
72
12
73
8
40
0
40
0
40
0
40
0
40
0.249995921123566
40
0.249995921123566
40
0.499994611291234
40
0.499994611291234
40
1
40
1
40
1
40
1
41
1
10
65.2131234278909
20
-33.3558956653635
30
0
41
1
10
65.2138936076927
20
-33.3556284546667
30
0
41
1
10
65.2146638586454
20
-33.355361246431
30
0
41
1
10
65.2162045107646
20
-33.3548268319195
30
0
41
1
10
65.2169749119805
20
-33.354559625627
30
0
41
1
10
65.2192863519125
20
-33.3537580055675
30
0
41
1
10
65.2208276026664
20
-33.3532235990298
30
0
41
1
10
65.2223691335979
20
-33.352689202163
30
0
0
SPLINE
5
199
100
AcDbEntity
8
1
62
256
6
ByLayer
370
13
48
1
60
0
100
AcDbSpline
70
4
71
3
72
14
73
10
40
0
40
0
40
0
40
0
40
0.209566828991457
40
0.209566828991457
40
0.477962265361934
40
0.477962265361934
40
0.751790472133232
40
0.751790472133232
40
1
40
1
40
1
40
1
41
1
10
65.2223691335978
20
-33.3526892021622
30
0
41
1
10
65.241617540391
20
-33.3460164276682
30
0
41
1
10
65.2598564545835
20
-33.336819747294
30
0
41
1
10
65.2965606674396
20
-33.3107406642387
30
0
41
1
10
65.3142538244808
20
-33.2919867093065
30
0
41
1
10
65.3412074732291
20
-33.2488885420827
30
0
41
1
10
65.3507658802402
20
-33.2237434757156
30
0
41
1
10
65.3600817667494
20
-33.1737734227985
30
0
41
1
10
65.3608032158717
20
-33.1484732564536
30
0
41
1
10
65.3578654950162
20
-33.1236429279547
30
0
0
SPLINE
5
19A
100
AcDbEntity
8
1
62
256
6
ByLayer
370
13
48
1
60
0
100
AcDbSpline
70
4
71
3
72
12
73
8
40
0
40
0
40
0
40
0
40
0.484718757846364
40
0.484718757846364
40
0.742368127854248
40
0.742368127854248
40
1
40
1
40
1
40
1
41
1
10
65.3578654950162
20
-33.1236429279547
30
0
41
1
10
65.3555314956403
20
-33.1039153996861
30
0
41
1
10
65.3537340522476
20
-33.0839966093882
30
0
41
1
10
65.3518563021364
20
-33.0533745113802
30
0
41
1
10
65.3513650480974
20
-33.042712742739
30
0
41
1
10
65.3507097053509
20
-33.0213705130401
30
0
41
1
10
65.3505454016023
20
-33.0106836474106
30
0
41
1
10
65.3505454016023
20
-32.9999999999998
30
0
0
SPLINE
5
19B
100
AcDbEntity
8
1
62
256
6
ByLayer
370
13
48
1
60
0
100
AcDbSpline
70
4
71
3
72
12
73
8
40
0
40
0
40
0
40
0
40
0.484598094488008
40
0.484598094488008
40
0.742275381080524
40
0.742275381080524
40
1
40
1
40
1
40
1
41
1
10
65.3505454016023
20
-32.9999999999998
30
0
41
1
10
65.3505454016023
20
-32.9799195908465
30
0
41
1
10
65.3511276733156
20
-32.9598180030654
30
0
41
1
10
65.3528938955774
20
-32.9291828396049
30
0
41
1
10
65.3536688928945
20
-32.9185636321992
30
0
41
1
10
65.3555334358542
20
-32.8974023459687
30
0
41
1
10
65.3566235745109
20
-32.8868540850815
30
0
41
1
10
65.3578654950162
20
-32.876357072045
30
0
0
SPLINE
5
19C
100
AcDbEntity
8
1
62
256
6
ByLayer
370
13
48
1
60
0
100
AcDbSpline
70
4
71
3
72
14
73
10
40
0
40
0
40
0
40
0
40
0.250234813702171
40
0.250234813702171
40
0.496416801970183
40
0.496416801970183
40
0.738510482714681
40
0.738510482714681
40
1
40
1
40
1
40
1
41
1
10
65.3578654950162
20
-32.876357072045
30
0
41
1
10
65.3608258417356
20
-32.8513355042622
30
0
41
1
10
65.3600693337852
20
-32.8258343076565
30
0
41
1
10
65.3510838008997
20
-32.778289791717
30
0
41
1
10
65.3428512992819
20
-32.7555789288322
30
0
41
1
10
65.3198912433956
20
-32.7157062793547
30
0
41
1
10
65.3049566128546
20
-32.697947432092
30
0
41
1
10
65.2686169570529
20
-32.6678316287486
30
0
41
1
10
65.246247555362
20
-32.6555886426179
30
0
41
1
10
65.2223691335977
20
-32.6473107978374
30
0
0
SPLINE
5
19D
100
AcDbEntity
8
1
62
256
6
ByLayer
370
13
48
1
60
0
100
AcDbSpline
70
4
71
3
72
12
73
8
40
0
40
0
40
0
40
0
40
0.375005495397418
40
0.375005495397418
40
0.750004420334853
40
0.750004420334853
40
1
40
1
40
1
40
1
41
1
10
65.2223691335977
20
-32.6473107978374
30
0
41
1
10
65.2212129808678
20
-32.6469099986165
30
0
41
1
10
65.2200569857664
20
-32.6465091939642
30
0
41
1
10
65.2177453331293
20
-32.645707580821
30
0
41
1
10
65.2165896754277
20
-32.6453067722748
30
0
41
1
10
65.2146638565236
20
-32.6446387528327
30
0
41
1
10
65.2138936066319
20
-32.6443715449649
30
0
41
1
10
65.213123427891
20
-32.6441043346361
30
0
0
SPLINE
5
19E
100
AcDbEntity
8
1
62
256
6
ByLayer
370
13
48
1
60
0
100
AcDbSpline
70
4
71
3
72
12
73
8
40
0
40
0
40
0
40
0
40
0.497315582869531
40
0.497315582869531
40
0.748831584262143
40
0.748831584262143
40
1
40
1
40
1
40
1
41
1
10
65.213123427891
20
-32.6441043346362
30
0
41
1
10
65.185774958576
20
-32.6346158963183
30
0
41
1
10
65.1587228913463
20
-32.6246942465838
30
0
41
1
10
65.1185879067828
20
-32.6090817497884
30
0
41
1
10
65.1052046989863
20
-32.6037215065454
30
0
41
1
10
65.0786905265709
20
-32.5927738536884
30
0
41
1
10
65.0655562462091
20
-32.5871855452251
30
0
41
1
10
65.0525569632055
20
-32.5814771988643
30
0
0
SPLINE
5
19F
100
AcDbEntity
8
1
62
256
6
ByLayer
370
13
48
1
60
0
100
AcDbSpline
70
4
71
3
72
14
73
10
40
0
40
0
40
0
40
0
40
0.146358635709911
40
0.146358635709911
40
0.433881431207652
40
0.433881431207652
40
0.719759865932541
40
0.719759865932541
40
1
40
1
40
1
40
1
41
1
10
65.0525569632055
20
-32.5814771988643
30
0
41
1
10
65.0473223781939
20
-32.5791785471393
30
0
41
1
10
65.0423304731995
20
-32.5765041334038
30
0
41
1
10
65.0288154758868
20
-32.567616667542
30
0
41
1
10
65.0212172293988
20
-32.5602209614942
30
0
41
1
10
65.0106066155424
20
-32.5439020667032
30
0
41
1
10
65.0074118804341
20
-32.5347705803371
30
0
41
1
10
65.0050958171896
20
-32.516740480064
30
0
41
1
10
65.0058073973602
20
-32.5076341599531
30
0
41
1
10
65.0077920863591
20
-32.4988853657361
30
0
0
SPLINE
5
1A0
100
AcDbEntity
8
1
62
256
6
ByLayer
370
13
48
1
60
0
100
AcDbSpline
70
4
71
3
72
10
73
6
40
0
40
0
40
0
40
0
40
0.164022507484308
40
0.164022507484308
40
1
40
1
40
1
40
1
41
1
10
65.0077920863591
20
-32.4988853657361
30
0
41
1
10
65.0106088732772
20
-32.4864685643573
30
0
41
1
10
65.0136935122212
20
-32.4744269876923
30
0
41
1
10
65.0335290779586
20
-32.404340961962
30
0
41
1
10
65.0537691349527
20
-32.3555380040899
30
0
41
1
10
65.0749813396558
20
-32.320236326917
30
0
0
SPLINE
5
1A1
100
AcDbEntity
8
1
62
256
6
ByLayer
370
13
48
1
60
0
100
AcDbSpline
70
4
71
3
72
8
73
4
40
0
40
0
40
0
40
0
40
1
40
1
40
1
40
1
41
1
10
66.8612392286167
20
-32.3046121090748
30
0
41
1
10
66.8678919852692
20
-32.3096117998597
30
0
41
1
10
66.8740636815955
20
-32.315062650854
30
0
41
1
10
66.8796413868037
20
-32.3209963469392
30
0
0
SPLINE
5
1A2
100
AcDbEntity
8
1
62
256
6
ByLayer
370
13
48
1
60
0
100
AcDbSpline
70
4
71
3
72
8
73
4
40
0
40
0
40
0
40
0
40
1
40
1
40
1
40
1
41
1
10
66.8796413868037
20
-32.3209963469393
30
0
41
1
10
66.9017885112893
20
-32.3445569871934
30
0
41
1
10
66.9256559333116
20
-32.373696511109
30
0
41
1
10
66.9531379821875
20
-32.4060784329743
30
0
0
SPLINE
5
1A3
100
AcDbEntity
8
1
62
256
6
ByLayer
370
13
48
1
60
0
100
AcDbSpline
70
4
71
3
72
10
73
6
40
0
40
0
40
0
40
0
40
0.101705478367115
40
0.101705478367115
40
1
40
1
40
1
40
1
41
1
10
66.9531379821875
20
-32.4060784329743
30
0
41
1
10
66.9570571038711
20
-32.4106963089089
30
0
41
1
10
66.961081253706
20
-32.4153708949747
30
0
41
1
10
67.0013120480039
20
-32.4611873135301
30
0
41
1
10
67.0478377355349
20
-32.5058627231216
30
0
41
1
10
67.1030083519938
20
-32.5456409481302
30
0
0
SPLINE
5
1A4
100
AcDbEntity
8
1
62
256
6
ByLayer
370
13
48
1
60
0
100
AcDbSpline
70
4
71
3
72
22
73
18
40
0
40
0
40
0
40
0
40
0.0535247857815907
40
0.0535247857815907
40
0.344422421150875
40
0.344422421150875
40
0.436152029470063
40
0.436152029470063
40
0.486473184357829
40
0.486473184357829
40
0.536644672635369
40
0.536644672635369
40
0.60048485243454
40
0.60048485243454
40
0.694476768116402
40
0.694476768116402
40
1
40
1
40
1
40
1
41
1
10
67.1030083519938
20
-32.5456409481302
30
0
41
1
10
67.1196320996513
20
-32.5576267336315
30
0
41
1
10
67.1363261903864
20
-32.569879891643
30
0
41
1
10
67.2432990561216
20
-32.6499961376879
30
0
41
1
10
67.3386373424032
20
-32.7237102168576
30
0
41
1
10
67.4424827579692
20
-32.8473111339986
30
0
41
1
10
67.466024368827
20
-32.8800664864351
30
0
41
1
10
67.4907794752773
20
-32.9369734361119
30
0
41
1
10
67.497197909396
20
-32.9588598847821
30
0
41
1
10
67.5017476526599
20
-33.0031334443138
30
0
41
1
10
67.4998237299356
20
-33.0260386645669
30
0
41
1
10
67.4874292546899
20
-33.0747124635655
30
0
41
1
10
67.4749890844967
20
-33.1004546557335
30
0
41
1
10
67.4390316300354
20
-33.1585051888263
30
0
41
1
10
67.4127472406221
20
-33.1894354276102
30
0
41
1
10
67.2973943411545
20
-33.3109182123744
30
0
41
1
10
67.197606877986
20
-33.3861531536197
30
0
41
1
10
67.1030083519667
20
-33.454359051889
30
0
0
SPLINE
5
1A5
100
AcDbEntity
8
1
62
256
6
ByLayer
370
13
48
1
60
0
100
AcDbSpline
70
4
71
3
72
10
73
6
40
0
40
0
40
0
40
0
40
0.106342453443183
40
0.106342453443183
40
1
40
1
40
1
40
1
41
1
10
67.1030083519667
20
-33.454359051889
30
0
41
1
10
67.0963895832057
20
-33.4591312094247
30
0
41
1
10
67.0898960212793
20
-33.4639635294984
30
0
41
1
10
67.0307812728787
20
-33.5093118472233
30
0
41
1
10
66.9871169313449
20
-33.5538843892426
30
0
41
1
10
66.9531379821875
20
-33.5939215670253
30
0
0
SPLINE
5
1A6
100
AcDbEntity
8
1
62
256
6
ByLayer
370
13
48
1
60
0
100
AcDbSpline
70
4
71
3
72
8
73
4
40
0
40
0
40
0
40
0
40
1
40
1
40
1
40
1
41
1
10
66.9531379821875
20
-33.5939215670253
30
0
41
1
10
66.9256559333117
20
-33.6263034888906
30
0
41
1
10
66.9017885112896
20
-33.6554430128061
30
0
41
1
10
66.879641386804
20
-33.6790036530601
30
0
0
SPLINE
5
1A7
100
AcDbEntity
8
1
62
256
6
ByLayer
370
13
48
1
60
0
100
AcDbSpline
70
4
71
3
72
8
73
4
40
0
40
0
40
0
40
0
40
1
40
1
40
1
40
1
41
1
10
66.879641386804
20
-33.6790036530601
30
0
41
1
10
66.8740636815957
20
-33.6849373491455
30
0
41
1
10
66.8678919852693
20
-33.6903882001399
30
0
41
1
10
66.8612392286167
20
-33.6953878909249
30
0
0
SPLINE
5
1A8
100
AcDbEntity
8
1
62
256
6
ByLayer
370
13
48
1
60
0
100
AcDbSpline
70
4
71
3
72
8
73
4
40
0
40
0
40
0
40
0
40
1
40
1
40
1
40
1
41
1
10
66.7709170449828
20
-32.2285515017705
30
0
41
1
10
66.8020351268596
20
-32.2536914841097
30
0
41
1
10
66.8323463374083
20
-32.2790100287562
30
0
41
1
10
66.8612392286167
20
-32.3046121090748
30
0
0
SPLINE
5
1A9
100
AcDbEntity
8
1
62
256
6
ByLayer
370
13
48
1
60
0
100
AcDbSpline
70
4
71
3
72
14
73
10
40
0
40
0
40
0
40
0
40
0.266795397634221
40
0.266795397634221
40
0.588216378506765
40
0.588216378506765
40
0.792812125325585
40
0.792812125325585
40
1
40
1
40
1
40
1
41
1
10
66.6117108282577
20
-32.2090596600144
30
0
41
1
10
66.6283191383986
20
-32.2080099545835
30
0
41
1
10
66.6450519942378
20
-32.2074725199396
30
0
41
1
10
66.6810516869464
20
-32.2077567749577
30
0
41
1
10
66.7005882478431
20
-32.2088778839803
30
0
41
1
10
66.7294317577717
20
-32.2129573217305
30
0
41
1
10
66.740075107988
20
-32.2151501376923
30
0
41
1
10
66.7582004556814
20
-32.2208416198183
30
0
41
1
10
66.7658492932568
20
-32.224457316615
30
0
41
1
10
66.7709170449828
20
-32.2285515017705
30
0
0
SPLINE
5
1AA
100
AcDbEntity
8
1
62
256
6
ByLayer
370
13
48
1
60
0
100
AcDbSpline
70
4
71
3
72
8
73
4
40
0
40
0
40
0
40
0
40
1
40
1
40
1
40
1
41
1
10
66.8612392286167
20
-33.6953878909249
30
0
41
1
10
66.8323463374083
20
-33.7209899712434
30
0
41
1
10
66.8020351268596
20
-33.74630851589
30
0
41
1
10
66.7709170449827
20
-33.7714484982292
30
0
0
SPLINE
5
1AB
100
AcDbEntity
8
1
62
256
6
ByLayer
370
18
48
1
60
0
100
AcDbSpline
70
4
71
3
72
8
73
4
40
0
40
0
40
0
40
0
40
1
40
1
40
1
40
1
41
1
10
63.0940255880445
20
-34.6999999999998
30
0
41
1
10
63.0940255881511
20
-34.6916663333332
30
0
41
1
10
63.0940255882572
20
-34.6833326666665
30
0
41
1
10
63.0940255883627
20
-34.6749989999999
30
0
0
SPLINE
5
1AC
100
AcDbEntity
8
1
62
256
6
ByLayer
370
13
48
1
60
0
100
AcDbSpline
70
4
71
3
72
14
73
10
40
0
40
0
40
0
40
0
40
0.136203122873046
40
0.136203122873046
40
0.341331556238926
40
0.341331556238926
40
0.593041737013191
40
0.593041737013191
40
1
40
1
40
1
40
1
41
1
10
66.7709170449828
20
-33.7714484982292
30
0
41
1
10
66.7675517247922
20
-33.7741673062358
30
0
41
1
10
66.7630822252157
20
-33.7766756196041
30
0
41
1
10
66.7499298143351
20
-33.7821536640595
30
0
41
1
10
66.7400783636782
20
-33.7848097294846
30
0
41
1
10
66.716289842691
20
-33.7892525946393
30
0
41
1
10
66.7016257900578
20
-33.7907950377998
30
0
41
1
10
66.6625090196811
20
-33.7929622313751
30
0
41
1
10
66.636864179057
20
-33.7925301229744
30
0
41
1
10
66.6117108282576
20
-33.7909403399853
30
0
0
SPLINE
5
1AD
100
AcDbEntity
8
1
62
256
6
ByLayer
370
18
48
1
60
0
100
AcDbSpline
70
4
71
3
72
8
73
4
40
0
40
0
40
0
40
0
40
1
40
1
40
1
40
1
41
1
10
63.0940255880445
20
-31.2999999999998
30
0
41
1
10
63.0940255881511
20
-31.3083336666665
30
0
41
1
10
63.0940255882572
20
-31.3166673333331
30
0
41
1
10
63.0940255883627
20
-31.3250009999998
30
0
0
SPLINE
5
1AE
100
AcDbEntity
8
1
62
256
6
ByLayer
370
18
48
1
60
0
100
AcDbSpline
70
4
71
2
72
8
73
5
40
0
40
0
40
0
40
0.132603808896999
40
0.132603808896999
40
1
40
1
40
1
41
1
10
64.325754590458
20
-31.2999999999998
30
0
41
1
10
64.3378753748949
20
-31.2999999999998
30
0
41
1
10
64.3462315780005
20
-31.2999999999998
30
0
41
1
10
64.4870084597083
20
-31.2999999999998
30
0
41
1
10
64.594935590458
20
-31.2999999999998
30
0
0
SPLINE
5
1AF
100
AcDbEntity
8
1
62
256
6
ByLayer
370
13
48
1
60
0
100
AcDbSpline
70
4
71
3
72
10
73
6
40
0
40
0
40
0
40
0
40
0.469742002065254
40
0.469742002065254
40
1
40
1
40
1
40
1
41
1
10
64.1943413365114
20
-34.5589593959919
30
0
41
1
10
64.261670967684
20
-34.5588858290222
30
0
41
1
10
64.3284612712287
20
-34.5587129074788
30
0
41
1
10
64.4678981915866
20
-34.558018235017
30
0
41
1
10
64.5365014520711
20
-34.5584843421817
30
0
41
1
10
64.5948828441304
20
-34.5585212761868
30
0
0
SPLINE
5
1B0
100
AcDbEntity
8
1
62
256
6
ByLayer
370
13
48
1
60
0
100
AcDbSpline
70
4
71
3
72
10
73
6
40
0
40
0
40
0
40
0
40
0.271189366890495
40
0.271189366890495
40
1
40
1
40
1
40
1
41
1
10
64.5948828441304
20
-31.4414787238129
30
0
41
1
10
64.5645469964296
20
-31.4414979152764
30
0
41
1
10
64.5316481387212
20
-31.4415496677853
30
0
41
1
10
64.4043566106603
20
-31.4414789147033
30
0
41
1
10
64.2963185202283
20
-31.4413851059162
30
0
41
1
10
64.1916208999759
20
-31.441411117726
30
0
0
SPLINE
5
1B1
100
AcDbEntity
8
1
62
256
6
ByLayer
370
13
48
1
60
0
100
AcDbSpline
70
4
71
3
72
8
73
4
40
0
40
0
40
0
40
0
40
1
40
1
40
1
40
1
41
1
10
66.8022670699779
20
-34.0881688770473
30
0
41
1
10
66.7355916320271
20
-34.0211752868242
30
0
41
1
10
66.6702596862047
20
-33.9528341283806
30
0
41
1
10
66.6058506900535
20
-33.883658725442
30
0
0
SPLINE
5
1B2
100
AcDbEntity
8
1
62
256
6
ByLayer
370
13
48
1
60
0
100
AcDbSpline
70
4
71
3
72
8
73
4
40
0
40
0
40
0
40
0
40
1
40
1
40
1
40
1
41
1
10
66.8022670699779
20
-31.9118311229524
30
0
41
1
10
66.7355916320271
20
-31.9788247131755
30
0
41
1
10
66.6702596862047
20
-32.0471658716191
30
0
41
1
10
66.6058506900535
20
-32.1163412745577
30
0
0
SPLINE
5
1B3
100
AcDbEntity
8
1
62
256
6
ByLayer
370
13
48
1
60
0
100
AcDbSpline
70
4
71
3
72
14
73
10
40
0
40
0
40
0
40
0
40
0.227211797335153
40
0.227211797335153
40
0.440863858228167
40
0.440863858228167
40
0.754067952335979
40
0.754067952335979
40
1
40
1
40
1
40
1
41
1
10
66.8276010148921
20
-32.1952069591954
30
0
41
1
10
66.8194894327671
20
-32.1882083746654
30
0
41
1
10
66.8081952324148
20
-32.180969137958
30
0
41
1
10
66.7819004770139
20
-32.1674261036968
30
0
41
1
10
66.7669338023778
20
-32.1609655327876
30
0
41
1
10
66.7271167273861
20
-32.1461167038842
30
0
41
1
10
66.7003050585002
20
-32.1379846340609
30
0
41
1
10
66.6509997489857
20
-32.125474299007
30
0
41
1
10
66.6284130284009
20
-32.120558227596
30
0
41
1
10
66.6058506900535
20
-32.1163412745576
30
0
0
SPLINE
5
1B4
100
AcDbEntity
8
1
62
256
6
ByLayer
370
13
48
1
60
0
100
AcDbSpline
70
4
71
3
72
14
73
10
40
0
40
0
40
0
40
0
40
0.444167189427318
40
0.444167189427318
40
0.907416360928084
40
0.907416360928084
40
0.983345356785529
40
0.983345356785529
40
1
40
1
40
1
40
1
41
1
10
66.9295320689501
20
-32.0348621210836
30
0
41
1
10
66.9148301349194
20
-32.0206388727067
30
0
41
1
10
66.8972708614501
20
-32.003655153062
30
0
41
1
10
66.8587609098673
20
-31.9664210508993
30
0
41
1
10
66.8370796347395
20
-31.9454649963651
30
0
41
1
10
66.8118382446761
20
-31.9210775368525
30
0
41
1
10
66.8082241827248
20
-31.9175859572316
30
0
41
1
10
66.8038292329151
20
-31.9133402189668
30
0
41
1
10
66.8030481406259
20
-31.912585665577
30
0
41
1
10
66.8022670699779
20
-31.9118311229525
30
0
0
SPLINE
5
1B5
100
AcDbEntity
8
1
62
256
6
ByLayer
370
13
48
1
60
0
100
AcDbSpline
70
4
71
3
72
10
73
6
40
0
40
0
40
0
40
0
40
0.635676539314332
40
0.635676539314332
40
1
40
1
40
1
40
1
41
1
10
66.9567233231079
20
-32.0603190949194
30
0
41
1
10
66.9517886304992
20
-32.0559019009372
30
0
41
1
10
66.9462831167139
20
-32.0508224241615
30
0
41
1
10
66.9368712173819
20
-32.0419242932915
30
0
41
1
10
66.9332733120423
20
-32.0384815517
30
0
41
1
10
66.9295320689356
20
-32.0348621210985
30
0
0
SPLINE
5
1B6
100
AcDbEntity
8
1
62
256
6
ByLayer
370
13
48
1
60
0
100
AcDbSpline
70
4
71
3
72
14
73
10
40
0
40
0
40
0
40
0
40
0.379834320808259
40
0.379834320808259
40
0.631210770699312
40
0.631210770699312
40
0.849410729670967
40
0.849410729670967
40
1
40
1
40
1
40
1
41
1
10
66.6058506900545
20
-33.8836587254474
30
0
41
1
10
66.640403372219
20
-33.8772007495147
30
0
41
1
10
66.6752740386825
20
-33.8690294227424
30
0
41
1
10
66.7283312327764
20
-33.8532657482244
30
0
41
1
10
66.7486005534598
20
-33.8462690010058
30
0
41
1
10
66.7820194936537
20
-33.832517215413
30
0
41
1
10
66.7960160172766
20
-33.825736040522
30
0
41
1
10
66.8153850045279
20
-33.8142340090419
30
0
41
1
10
66.8221856797107
20
-33.8094653328981
30
0
41
1
10
66.8276010148924
20
-33.8047930408047
30
0
0
SPLINE
5
1B7
100
AcDbEntity
8
1
62
256
6
ByLayer
370
13
48
1
60
0
100
AcDbSpline
70
4
71
3
72
10
73
6
40
0
40
0
40
0
40
0
40
0.635676539314332
40
0.635676539314332
40
1
40
1
40
1
40
1
41
1
10
66.9567233231079
20
-33.9396809050803
30
0
41
1
10
66.9517886304992
20
-33.9440980990625
30
0
41
1
10
66.9462831167139
20
-33.9491775758382
30
0
41
1
10
66.9368712173819
20
-33.9580757067082
30
0
41
1
10
66.9332733120423
20
-33.9615184482997
30
0
41
1
10
66.9295320689356
20
-33.9651378789012
30
0
0
SPLINE
5
1B8
100
AcDbEntity
8
1
62
256
6
ByLayer
370
13
48
1
60
0
100
AcDbSpline
70
4
71
3
72
14
73
10
40
0
40
0
40
0
40
0
40
0.444167189427318
40
0.444167189427318
40
0.907416360928084
40
0.907416360928084
40
0.983345356785529
40
0.983345356785529
40
1
40
1
40
1
40
1
41
1
10
66.9295320689501
20
-33.965137878916
30
0
41
1
10
66.9148301349194
20
-33.979361127293
30
0
41
1
10
66.8972708614501
20
-33.9963448469377
30
0
41
1
10
66.8587609098673
20
-34.0335789491004
30
0
41
1
10
66.8370796347395
20
-34.0545350036346
30
0
41
1
10
66.8118382446761
20
-34.0789224631472
30
0
41
1
10
66.8082241827248
20
-34.0824140427681
30
0
41
1
10
66.8038292329151
20
-34.0866597810329
30
0
41
1
10
66.8030481406259
20
-34.0874143344226
30
0
41
1
10
66.8022670699779
20
-34.0881688770473
30
0
0
SPLINE
5
1B9
100
AcDbEntity
8
1
62
256
6
ByLayer
370
13
48
1
60
0
100
AcDbSpline
70
4
71
3
72
14
73
10
40
0
40
0
40
0
40
0
40
0.444167523254406
40
0.444167523254406
40
0.907416528022182
40
0.907416528022182
40
0.983345421218332
40
0.983345421218332
40
1
40
1
40
1
40
1
41
1
10
66.9786440339733
20
-31.9268091916244
30
0
41
1
10
66.9582612980086
20
-31.925078185493
30
0
41
1
10
66.9339198409798
20
-31.9230110169676
30
0
41
1
10
66.8805450699942
20
-31.9184783446694
30
0
41
1
10
66.8504996564203
20
-31.9159268978533
30
0
41
1
10
66.8155273744393
20
-31.9129571446036
30
0
41
1
10
66.8105201979463
20
-31.9125319503182
30
0
41
1
10
66.8044313098843
20
-31.9120149026061
30
0
41
1
10
66.8033491786773
20
-31.9119230118615
30
0
41
1
10
66.8022670704387
20
-31.9118311229846
30
0
0
SPLINE
5
1BA
100
AcDbEntity
8
1
62
256
6
ByLayer
370
13
48
1
60
0
100
AcDbSpline
70
4
71
3
72
14
73
10
40
0
40
0
40
0
40
0
40
0.444167523254406
40
0.444167523254406
40
0.907416528022182
40
0.907416528022182
40
0.983345421218332
40
0.983345421218332
40
1
40
1
40
1
40
1
41
1
10
66.9786440339733
20
-34.0731908083753
30
0
41
1
10
66.9582612980086
20
-34.0749218145066
30
0
41
1
10
66.9339198409798
20
-34.0769889830321
30
0
41
1
10
66.8805450699942
20
-34.0815216553303
30
0
41
1
10
66.8504996564203
20
-34.0840731021464
30
0
41
1
10
66.8155273744393
20
-34.0870428553961
30
0
41
1
10
66.8105201979463
20
-34.0874680496815
30
0
41
1
10
66.8044313098843
20
-34.0879850973936
30
0
41
1
10
66.8033491786773
20
-34.0880769881382
30
0
41
1
10
66.8022670704387
20
-34.0881688770151
30
0
0
SPLINE
5
1BB
100
AcDbEntity
8
1
62
256
6
ByLayer
370
13
48
1
60
0
100
AcDbSpline
70
4
71
3
72
10
73
6
40
0
40
0
40
0
40
0
40
0.502445910949252
40
0.502445910949252
40
1
40
1
40
1
40
1
41
1
10
64.6293861108519
20
-34.5460378850479
30
0
41
1
10
64.719203325922
20
-34.4310721323419
30
0
41
1
10
64.7926923078269
20
-34.3018923265787
30
0
41
1
10
64.927713897839
20
-34.0409033016351
30
0
41
1
10
64.9888213319316
20
-33.9073641753409
30
0
41
1
10
65.0505794795571
20
-33.7742892963121
30
0
0
SPLINE
5
1BC
100
AcDbEntity
8
1
62
256
6
ByLayer
370
13
48
1
60
0
100
AcDbSpline
70
4
71
3
72
10
73
6
40
0
40
0
40
0
40
0
40
0.497554089050764
40
0.497554089050764
40
1
40
1
40
1
40
1
41
1
10
65.0505794795571
20
-32.2257107036876
30
0
41
1
10
64.9888213319316
20
-32.0926358246588
30
0
41
1
10
64.927713897839
20
-31.9590966983646
30
0
41
1
10
64.7926923078269
20
-31.698107673421
30
0
41
1
10
64.7192033259221
20
-31.5689278676577
30
0
41
1
10
64.629386110852
20
-31.4539621149518
30
0
0
SPLINE
5
1BD
100
AcDbEntity
8
1
62
256
6
ByLayer
370
13
48
1
60
0
100
AcDbSpline
70
4
71
3
72
12
73
8
40
0
40
0
40
0
40
0
40
0.463337467097879
40
0.463337467097879
40
0.900600131165872
40
0.900600131165872
40
1
40
1
40
1
40
1
41
1
10
68.2587805434613
20
-31.6411531956112
30
0
41
1
10
68.0818273249508
20
-31.6927084126497
30
0
41
1
10
67.90042203057
20
-31.7419022162884
30
0
41
1
10
67.5720767833214
20
-31.8243048477193
30
0
41
1
10
67.4188276083643
20
-31.8593093778919
30
0
41
1
10
67.256119941952
20
-31.8870495022548
30
0
41
1
10
67.2265505861075
20
-31.891690770669
30
0
41
1
10
67.1981203716814
20
-31.8954832630517
30
0
0
SPLINE
5
1BE
100
AcDbEntity
8
1
62
256
6
ByLayer
370
13
48
1
60
0
100
AcDbSpline
70
4
71
3
72
12
73
8
40
0
40
0
40
0
40
0
40
0.463337467097879
40
0.463337467097879
40
0.900600131165872
40
0.900600131165872
40
1
40
1
40
1
40
1
41
1
10
68.2587805434613
20
-34.3588468043885
30
0
41
1
10
68.0818273249508
20
-34.30729158735
30
0
41
1
10
67.90042203057
20
-34.2580977837113
30
0
41
1
10
67.5720767833214
20
-34.1756951522804
30
0
41
1
10
67.4188276083643
20
-34.1406906221078
30
0
41
1
10
67.256119941952
20
-34.1129504977449
30
0
41
1
10
67.2265505861075
20
-34.1083092293307
30
0
41
1
10
67.1981203716814
20
-34.104516736948
30
0
0
SPLINE
5
1BF
100
AcDbEntity
8
1
62
256
6
ByLayer
370
13
48
1
60
0
100
AcDbSpline
70
4
71
3
72
10
73
6
40
0
40
0
40
0
40
0
40
0.536023803633857
40
0.536023803633857
40
1
40
1
40
1
40
1
41
1
10
64.5968060580059
20
-34.5420477111233
30
0
41
1
10
64.5381775714992
20
-34.5420082354183
30
0
41
1
10
64.4692783108239
20
-34.5415436735714
30
0
41
1
10
64.3307615620125
20
-34.5422165357409
30
0
41
1
10
64.2653396280712
20
-34.5424025865501
30
0
41
1
10
64.1994265962998
20
-34.542500187262
30
0
0
SPLINE
5
1C0
100
AcDbEntity
8
1
62
256
6
ByLayer
370
13
48
1
60
0
100
AcDbSpline
70
4
71
3
72
8
73
4
40
0
40
0
40
0
40
0
40
1
40
1
40
1
40
1
41
1
10
60.0083240679326
20
-31.2999999999998
30
0
41
1
10
60.0083240679326
20
-31.3083336666665
30
0
41
1
10
60.0083240679326
20
-31.3166673333332
30
0
41
1
10
60.0083240679326
20
-31.3250009999998
30
0
0
SPLINE
5
1C1
100
AcDbEntity
8
1
62
256
6
ByLayer
370
13
48
1
60
0
100
AcDbSpline
70
4
71
3
72
17
73
13
40
0
40
0
40
0
40
0
40
0.0114388526231792
40
0.156919219899026
40
0.37650615299095
40
0.493377115564571
40
0.600051337154258
40
0.622975374464462
40
0.655963111498941
40
0.6697730858419
40
0.74443518317573
40
1
40
1
40
1
40
1
41
1.02166924057829
10
64.9642619721898
20
-33.5180483237179
30
0
41
1.02166924057829
10
64.9620121846723
20
-33.5180483237179
30
0
41
1.02166924057829
10
64.9309928442017
20
-33.5180483237179
30
0
41
1.02166924057829
10
64.8508721914324
20
-33.5180483237179
30
0
41
1.02166924057829
10
64.7319780838439
20
-33.5180483237179
30
0
41
1.02166924057829
10
64.6034802291129
20
-33.5180483237179
30
0
41
1.02166924057829
10
64.5299298007581
20
-33.5180483237179
30
0
41
1.02166924057829
10
64.4811802263964
20
-33.5180483237179
30
0
41
1.02166924057829
10
64.4626115241027
20
-33.5180483237178
30
0
41
1.02166924057829
10
64.435484909295
20
-33.5180483237178
30
0
41
1.02166924057829
10
64.3621912359771
20
-33.5180483237178
30
0
41
1.02166924057829
10
64.2896954281707
20
-33.5180483237178
30
0
41
1.02166924057829
10
64.2328999721894
20
-33.5180483237178
30
0
0
SPLINE
5
1C2
100
AcDbEntity
8
1
62
256
6
ByLayer
370
13
48
1
60
0
100
AcDbSpline
70
4
71
3
72
12
73
8
40
0
40
0
40
0
40
0
40
0.0001909827237722
40
0.0001909827237722
40
0.835060855040991
40
0.835060855040991
40
1
40
1
40
1
40
1
41
1
10
64.9642619721899
20
-33.5180483237179
30
0
41
1
10
64.9642649947143
20
-33.518063417298
30
0
41
1
10
64.9642680166039
20
-33.51807851125
30
0
41
1
10
64.9774847059302
20
-33.584071856885
30
0
41
1
10
64.9973504519072
20
-33.641167657604
30
0
41
1
10
65.0206908788007
20
-33.6931932274457
30
0
41
1
10
65.0245975046497
20
-33.7012417336325
30
0
41
1
10
65.0288949833901
20
-33.708596734157
30
0
0
SPLINE
5
1C3
100
AcDbEntity
8
1
62
256
6
ByLayer
370
13
48
1
60
0
100
AcDbSpline
70
4
71
3
72
14
73
10
40
0
40
0
40
0
40
0
40
0.311178400285531
40
0.311178400285531
40
0.543346484169134
40
0.543346484169134
40
0.778369753410881
40
0.778369753410881
40
1
40
1
40
1
40
1
41
1
10
65.0288949833901
20
-33.708596734157
30
0
41
1
10
65.0305297633023
20
-33.7113946088731
30
0
41
1
10
65.0317726045297
20
-33.715015960987
30
0
41
1
10
65.0328133247892
20
-33.7227576019716
30
0
41
1
10
65.0328989549484
20
-33.7266047296154
30
0
41
1
10
65.0321296350064
20
-33.735035048716
30
0
41
1
10
65.0312384651659
20
-33.7397690942224
30
0
41
1
10
65.028603969977
20
-33.7489583805866
30
0
41
1
10
65.0268707498713
20
-33.7535558232454
30
0
41
1
10
65.024898884992
20
-33.7578047547718
30
0
0
SPLINE
5
1C4
100
AcDbEntity
8
1
62
256
6
ByLayer
370
13
48
1
60
0
100
AcDbSpline
70
4
71
3
72
10
73
6
40
0
40
0
40
0
40
0
40
0.499742345998437
40
0.499742345998437
40
1
40
1
40
1
40
1
41
1
10
65.024898884992
20
-33.7578047547718
30
0
41
1
10
64.9633542951558
20
-33.8904196975088
30
0
41
1
10
64.9028086692735
20
-34.0238035572337
30
0
41
1
10
64.771167250745
20
-34.2849078636479
30
0
41
1
10
64.7000490853336
20
-34.4137317616672
30
0
41
1
10
64.61321284836
20
-34.5295647457849
30
0
0
SPLINE
5
1C5
100
AcDbEntity
8
1
62
256
6
ByLayer
370
13
48
1
60
0
100
AcDbSpline
70
4
71
3
72
12
73
8
40
0
40
0
40
0
40
0
40
0.375703177063746
40
0.375703177063746
40
0.751775167261341
40
0.751775167261341
40
1
40
1
40
1
40
1
41
1
10
64.61321284836
20
-34.5295647457849
30
0
41
1
10
64.6114646681789
20
-34.5318966861615
30
0
41
1
10
64.6096033447166
20
-34.5341339265011
30
0
41
1
10
64.6056333610879
20
-34.5380704570086
30
0
41
1
10
64.6034623500599
20
-34.5398252389485
30
0
41
1
10
64.599764819209
20
-34.54162758097
30
0
41
1
10
64.5982273714241
20
-34.5420486681214
30
0
41
1
10
64.5968060580059
20
-34.5420477111233
30
0
0
SPLINE
5
1C6
100
AcDbEntity
8
1
62
256
6
ByLayer
370
13
48
1
60
0
100
AcDbSpline
70
4
71
3
72
12
73
8
40
0
40
0
40
0
40
0
40
0.834949441595139
40
0.834949441595139
40
0.999808961982549
40
0.999808961982549
40
1
40
1
40
1
40
1
41
1
10
65.0288949833901
20
-32.2914032658427
30
0
41
1
10
65.0074358885221
20
-32.3281298358947
30
0
41
1
10
64.9885583727963
20
-32.3814846131083
30
0
41
1
10
64.9698264172733
20
-32.4558671465002
30
0
41
1
10
64.9669159860823
20
-32.4686996931319
30
0
41
1
10
64.964268016604
20
-32.4819214887496
30
0
41
1
10
64.9642649947143
20
-32.4819365827017
30
0
41
1
10
64.9642619721899
20
-32.4819516762819
30
0
0
SPLINE
5
1C7
100
AcDbEntity
8
1
62
256
6
ByLayer
370
13
48
1
60
0
100
AcDbSpline
70
4
71
3
72
17
73
13
40
0
40
0
40
0
40
0
40
0.0114388526231792
40
0.156919219899026
40
0.37650615299095
40
0.493377115564571
40
0.600051337154258
40
0.622975374464462
40
0.655963111498941
40
0.6697730858419
40
0.74443518317573
40
1
40
1
40
1
40
1
41
1.02166924057829
10
64.9642619721898
20
-32.4819516762819
30
0
41
1.02166924057829
10
64.9620121846723
20
-32.4819516762819
30
0
41
1.02166924057829
10
64.9309928442017
20
-32.4819516762819
30
0
41
1.02166924057829
10
64.8508721914324
20
-32.4819516762819
30
0
41
1.02166924057829
10
64.7319780838439
20
-32.4819516762819
30
0
41
1.02166924057829
10
64.6034802291129
20
-32.4819516762819
30
0
41
1.02166924057829
10
64.5299298007581
20
-32.4819516762819
30
0
41
1.02166924057829
10
64.4811802263964
20
-32.4819516762819
30
0
41
1.02166924057829
10
64.4626115241027
20
-32.4819516762818
30
0
41
1.02166924057829
10
64.435484909295
20
-32.4819516762818
30
0
41
1.02166924057829
10
64.3621912359771
20
-32.4819516762819
30
0
41
1.02166924057829
10
64.2896954281707
20
-32.4819516762819
30
0
41
1.02166924057829
10
64.2328999721894
20
-32.4819516762819
30
0
0
SPLINE
5
1C8
100
AcDbEntity
8
1
62
256
6
ByLayer
370
13
48
1
60
0
100
AcDbSpline
70
4
71
3
72
10
73
6
40
0
40
0
40
0
40
0
40
0.725745953634164
40
0.725745953634164
40
1
40
1
40
1
40
1
41
1
10
64.1967651095335
20
-31.4578943944305
30
0
41
1
10
64.3003515864991
20
-31.4578697938083
30
0
41
1
10
64.4069409467158
20
-31.4579496125914
30
0
41
1
10
64.5333197414332
20
-31.4580232561553
30
0
41
1
10
64.5663501006526
20
-31.4579727954673
30
0
41
1
10
64.5968060580059
20
-31.4579522888764
30
0
0
SPLINE
5
1C9
100
AcDbEntity
8
1
62
256
6
ByLayer
370
13
48
1
60
0
100
AcDbSpline
70
4
71
3
72
16
73
12
40
0
40
0
40
0
40
0
40
0.194932576020356
40
0.194932576020356
40
0.39011325308891
40
0.39011325308891
40
0.582453198361958
40
0.582453198361958
40
0.861227543943274
40
0.861227543943274
40
1
40
1
40
1
40
1
41
1
10
65.024898884992
20
-32.2421952452278
30
0
41
1
10
65.0266351273015
20
-32.245936462369
30
0
41
1
10
65.0281854797658
20
-32.2499375173243
30
0
41
1
10
65.0306140427218
20
-32.2578189544101
30
0
41
1
10
65.0315219079949
20
-32.2617995225777
30
0
41
1
10
65.0326119921052
20
-32.2691399812687
30
0
41
1
10
65.0328220918345
20
-32.2725961908823
30
0
41
1
10
65.0326331363435
20
-32.280163643779
30
0
41
1
10
65.0319280541769
20
-32.2840157754429
30
0
41
1
10
65.0302825932795
20
-32.2887299188863
30
0
41
1
10
65.0296297457924
20
-32.29014574296
30
0
41
1
10
65.0288949833902
20
-32.2914032658427
30
0
0
SPLINE
5
1CA
100
AcDbEntity
8
1
62
256
6
ByLayer
370
13
48
1
60
0
100
AcDbSpline
70
4
71
3
72
12
73
8
40
0
40
0
40
0
40
0
40
0.233419544939649
40
0.233419544939649
40
0.533242188339535
40
0.533242188339535
40
1
40
1
40
1
40
1
41
1
10
64.5968060580059
20
-31.4579522888764
30
0
41
1
10
64.5981428732452
20
-31.4579513887726
30
0
41
1
10
64.5995818076069
20
-31.458321761301
30
0
41
1
10
64.6027553138586
20
-31.459788308772
30
0
41
1
10
64.6045163143434
20
-31.4610618922596
30
0
41
1
10
64.6087030592946
20
-31.4647873383902
30
0
41
1
10
64.6110488801263
20
-31.4675486839674
30
0
41
1
10
64.61321284836
20
-31.4704352542148
30
0
0
SPLINE
5
1CB
100
AcDbEntity
8
1
62
256
6
ByLayer
370
13
48
1
60
0
100
AcDbSpline
70
4
71
3
72
12
73
8
40
0
40
0
40
0
40
0
40
0.500303615083402
40
0.500303615083402
40
0.706948141205687
40
0.706948141205687
40
1
40
1
40
1
40
1
41
1
10
64.61321284836
20
-31.4704352542148
30
0
41
1
10
64.7000490853336
20
-31.5862682383325
30
0
41
1
10
64.771167250745
20
-31.7150921363518
30
0
41
1
10
64.8641815336572
20
-31.8995814110639
30
0
41
1
10
64.8905769602075
20
-31.9540279655409
30
0
41
1
10
64.9531524224407
20
-32.0863631950606
30
0
41
1
10
64.9888033962696
20
-32.1644174717026
30
0
41
1
10
65.024898884992
20
-32.2421952452278
30
0
0
SPLINE
5
1CC
100
AcDbEntity
8
1
62
256
6
ByLayer
370
13
48
1
60
0
100
AcDbSpline
70
4
71
3
72
14
73
10
40
0
40
0
40
0
40
0
40
0.233154461884277
40
0.233154461884277
40
0.479060596235394
40
0.479060596235394
40
0.710446838090714
40
0.710446838090714
40
1
40
1
40
1
40
1
41
1
10
65.0505794795571
20
-33.7742892963121
30
0
41
1
10
65.0535287299072
20
-33.7653955416999
30
0
41
1
10
65.0564221376373
20
-33.7561855827973
30
0
41
1
10
65.0618332759262
20
-33.7379818512592
30
0
41
1
10
65.0643914009319
20
-33.72879508385
30
0
41
1
10
65.0685871649079
20
-33.7126014630579
30
0
41
1
10
65.0703175223951
20
-33.7053189771985
30
0
41
1
10
65.0733370258103
20
-33.6911545828675
30
0
41
1
10
65.0744553636977
20
-33.6846117683512
30
0
41
1
10
65.0749813396558
20
-33.6797636730828
30
0
0
SPLINE
5
1CD
100
AcDbEntity
8
1
62
256
6
ByLayer
370
13
48
1
60
0
100
AcDbSpline
70
4
71
3
72
16
73
12
40
0
40
0
40
0
40
0
40
0.126440774462018
40
0.126440774462018
40
0.393583756685852
40
0.393583756685852
40
0.589520715253497
40
0.589520715253497
40
0.795096123384776
40
0.795096123384776
40
1
40
1
40
1
40
1
41
1
10
65.0749813396558
20
-32.320236326917
30
0
41
1
10
65.0747495794539
20
-32.3181001160868
30
0
41
1
10
65.0744061147986
20
-32.3156502336149
30
0
41
1
10
65.0730009566775
20
-32.3071783931592
30
0
41
1
10
65.0715364949884
20
-32.3000420225426
30
0
41
1
10
65.0682103368522
20
-32.2859379767459
30
0
41
1
10
65.0665319974179
20
-32.2793228416124
30
0
41
1
10
65.062680714042
20
-32.2650776859418
30
0
41
1
10
65.0604525899759
20
-32.2572861667476
30
0
41
1
10
65.0557194619694
20
-32.2415830080992
30
0
41
1
10
65.0531724651188
20
-32.233530106783
30
0
41
1
10
65.0505794795553
20
-32.2257107036885
30
0
0
SPLINE
5
1CE
100
AcDbEntity
8
1
62
256
6
ByLayer
370
13
48
1
60
0
100
AcDbSpline
70
4
71
3
72
10
73
6
40
0
40
0
40
0
40
0
40
0.65577982668938
40
0.65577982668938
40
1
40
1
40
1
40
1
41
1
10
66.9805367788458
20
-34.0729807170978
30
0
41
1
10
66.9801191070632
20
-34.072913507582
30
0
41
1
10
66.9796942374048
20
-34.0729068953976
30
0
41
1
10
66.9790658180181
20
-34.0730296981438
30
0
41
1
10
66.9788510647693
20
-34.0730967092215
30
0
41
1
10
66.9786440339733
20
-34.0731908083752
30
0
0
SPLINE
5
1CF
100
AcDbEntity
8
1
62
256
6
ByLayer
370
13
48
1
60
0
100
AcDbSpline
70
4
71
3
72
8
73
4
40
0
40
0
40
0
40
0
40
1
40
1
40
1
40
1
41
1
10
67.1981203716814
20
-34.104516736948
30
0
41
1
10
67.12554414311
20
-34.0954747590104
30
0
41
1
10
67.0530161894472
20
-34.0846437173127
30
0
41
1
10
66.9805367788458
20
-34.0729807170978
30
0
0
SPLINE
5
1D0
100
AcDbEntity
8
1
62
256
6
ByLayer
370
13
48
1
60
0
100
AcDbSpline
70
4
71
3
72
8
73
4
40
0
40
0
40
0
40
0
40
1
40
1
40
1
40
1
41
1
10
67.1981203716814
20
-31.8954832630517
30
0
41
1
10
67.12554414311
20
-31.9045252409893
30
0
41
1
10
67.0530161894472
20
-31.915356282687
30
0
41
1
10
66.9805367788458
20
-31.9270192829019
30
0
0
SPLINE
5
1D1
100
AcDbEntity
8
1
62
256
6
ByLayer
370
13
48
1
60
0
100
AcDbSpline
70
4
71
3
72
10
73
6
40
0
40
0
40
0
40
0
40
0.65577982668938
40
0.65577982668938
40
1
40
1
40
1
40
1
41
1
10
66.9805367788458
20
-31.9270192829019
30
0
41
1
10
66.9801191070632
20
-31.9270864924177
30
0
41
1
10
66.9796942374048
20
-31.9270931046021
30
0
41
1
10
66.9790658180181
20
-31.9269703018558
30
0
41
1
10
66.9788510647693
20
-31.9269032907782
30
0
41
1
10
66.9786440339733
20
-31.9268091916245
30
0
0
SPLINE
5
1D2
100
AcDbEntity
8
1
62
256
6
ByLayer
370
13
48
1
60
0
100
AcDbSpline
70
4
71
3
72
12
73
8
40
0
40
0
40
0
40
0
40
0.186611634810624
40
0.186611634810624
40
0.693388820832762
40
0.693388820832762
40
1
40
1
40
1
40
1
41
1
10
67.1528237184974
20
-33.5149402587956
30
0
41
1
10
67.2090277271683
20
-33.525983118863
30
0
41
1
10
67.2680824534451
20
-33.5379280426867
30
0
41
1
10
67.4939294786756
20
-33.5847273046345
30
0
41
1
10
67.6774173301442
20
-33.6248129502765
30
0
41
1
10
67.9783768705611
20
-33.6937455248083
30
0
41
1
10
68.0952214954586
20
-33.7212503932895
30
0
41
1
10
68.2112677608008
20
-33.7494859343237
30
0
0
SPLINE
5
1D3
100
AcDbEntity
8
1
62
256
6
ByLayer
370
13
48
1
60
0
100
AcDbSpline
70
4
71
3
72
10
73
6
40
0
40
0
40
0
40
0
40
0.895575341108676
40
0.895575341108676
40
1
40
1
40
1
40
1
41
1
10
67.1528237185281
20
-32.4850597412118
30
0
41
1
10
67.1017089957986
20
-32.4501416307693
30
0
41
1
10
67.0590917006009
20
-32.4109963768919
30
0
41
1
10
67.0210320216285
20
-32.3720272543165
30
0
41
1
10
67.0171123387418
20
-32.3679741936718
30
0
41
1
10
67.0132739541157
20
-32.3639941066531
30
0
0
SPLINE
5
1D4
100
AcDbEntity
8
1
62
256
6
ByLayer
370
13
48
1
60
0
100
AcDbSpline
70
4
71
3
72
12
73
8
40
0
40
0
40
0
40
0
40
0.186611634777379
40
0.186611634777379
40
0.69338882082023
40
0.69338882082023
40
1
40
1
40
1
40
1
41
1
10
67.1528237185343
20
-32.4850597411968
30
0
41
1
10
67.2090277271941
20
-32.4740168811315
30
0
41
1
10
67.2680824534585
20
-32.4620719573103
30
0
41
1
10
67.4939294786756
20
-32.4152726953652
30
0
41
1
10
67.6774173301442
20
-32.3751870497232
30
0
41
1
10
67.9783768705611
20
-32.3062544751915
30
0
41
1
10
68.0952214954586
20
-32.2787496067102
30
0
41
1
10
68.2112677608008
20
-32.250514065676
30
0
0
SPLINE
5
1D5
100
AcDbEntity
8
1
62
256
6
ByLayer
370
13
48
1
60
0
100
AcDbSpline
70
4
71
3
72
10
73
6
40
0
40
0
40
0
40
0
40
0.895407880007388
40
0.895407880007388
40
1
40
1
40
1
40
1
41
1
10
67.0132739541157
20
-33.6360058933466
30
0
41
1
10
67.0458088830839
20
-33.6022698660709
30
0
41
1
10
67.0859541892358
20
-33.5631217894105
30
0
41
1
10
67.1408552378462
20
-33.5232461828697
30
0
41
1
10
67.1467812438335
20
-33.5190680675187
30
0
41
1
10
67.1528237185017
20
-33.5149402588059
30
0
0
SPLINE
5
1D6
100
AcDbEntity
8
1
62
256
6
ByLayer
370
13
48
1
60
0
100
AcDbSpline
70
4
71
3
72
12
73
8
40
0
40
0
40
0
40
0
40
0.284615438372511
40
0.284615438372511
40
0.667690975958614
40
0.667690975958614
40
1
40
1
40
1
40
1
41
1
10
64.5948828441304
20
-34.5585212761868
30
0
41
1
10
64.5978605568158
20
-34.5585221584908
30
0
41
1
10
64.6010318130271
20
-34.5581314463064
30
0
41
1
10
64.6086278393444
20
-34.5563780844257
30
0
41
1
10
64.6131769281054
20
-34.5547131903038
30
0
41
1
10
64.6215997566267
20
-34.5507277210878
30
0
41
1
10
64.6255317184139
20
-34.5485046901521
30
0
41
1
10
64.6293861108528
20
-34.5460378850545
30
0
0
SPLINE
5
1D7
100
AcDbEntity
8
1
62
256
6
ByLayer
370
13
48
1
60
0
100
AcDbSpline
70
4
71
3
72
12
73
8
40
0
40
0
40
0
40
0
40
0.419389511187602
40
0.419389511187602
40
0.73199563373051
40
0.73199563373051
40
1
40
1
40
1
40
1
41
1
10
64.6293861108519
20
-31.4539621149519
30
0
41
1
10
64.6245354591971
20
-31.4508577055234
30
0
41
1
10
64.6195494047903
20
-31.4481341041131
30
0
41
1
10
64.6109438735579
20
-31.4444858078298
30
0
41
1
10
64.6072592207381
20
-31.443266557594
30
0
41
1
10
64.6006642853839
20
-31.4418238979993
30
0
41
1
10
64.597688192018
20
-31.441477892581
30
0
41
1
10
64.5948828441304
20
-31.4414787238128
30
0
0
SPLINE
5
1D8
100
AcDbEntity
8
1
62
256
6
ByLayer
370
13
48
1
60
0
100
AcDbSpline
70
4
71
3
72
18
73
14
40
0
40
0
40
0
40
0
40
0.0003522007305194
40
0.0003522007305194
40
0.297488387658359
40
0.297488387658359
40
0.59301932818094
40
0.59301932818094
40
0.905704189131033
40
0.905704189131033
40
0.999647799262026
40
0.999647799262026
40
1
40
1
40
1
40
1
41
1
10
65.0304829603426
20
-33.4005769633987
30
0
41
1
10
65.0304668731362
20
-33.4005848471204
30
0
41
1
10
65.0304507857493
20
-33.4005927333916
30
0
41
1
10
65.016865097381
20
-33.4072564096237
30
0
41
1
10
65.0045872514045
20
-33.4160794023089
30
0
41
1
10
64.9848447184793
20
-33.4368078464567
30
0
41
1
10
64.9771334079903
20
-33.4489430527533
30
0
41
1
10
64.9666355950013
20
-33.4753918764916
30
0
41
1
10
64.9640066394331
20
-33.4900840946998
30
0
41
1
10
64.9637463392745
20
-33.5091215423362
30
0
41
1
10
64.9639024360132
20
-33.5135653659696
30
0
41
1
10
64.9642593256509
20
-33.5180154269587
30
0
41
1
10
64.9642606486735
20
-33.5180318745851
30
0
41
1
10
64.9642619721899
20
-33.5180483237176
30
0
0
SPLINE
5
1D9
100
AcDbEntity
8
1
62
256
6
ByLayer
370
13
48
1
60
0
100
AcDbSpline
70
4
71
3
72
17
73
13
40
0
40
0
40
0
40
0
40
0.118467527994006
40
0.326190253528662
40
0.436746717612473
40
0.537657367171121
40
0.559342826516465
40
0.590548247301472
40
0.603612073412118
40
0.674240202936676
40
0.924100453486021
40
1
40
1
40
1
40
1
41
1.02166924057829
10
65.0304829603475
20
-33.4005769633987
30
0
41
1.02166924057829
10
65.0025181202443
20
-33.4005769633987
30
0
41
1.02166924057829
10
64.921029746144
20
-33.4005769633987
30
0
41
1.02166924057829
10
64.7958987039928
20
-33.4005769633987
30
0
41
1.02166924057829
10
64.6536837810793
20
-33.4005769633987
30
0
41
1.02166924057829
10
64.5730086984349
20
-33.4005769633987
30
0
41
1.02166924057829
10
64.5197953278362
20
-33.4005769633987
30
0
41
1.02166924057829
10
64.5001019769151
20
-33.4005769633987
30
0
41
1.02166924057829
10
64.4726113637335
20
-33.4005769633987
30
0
41
1.02166924057829
10
64.3976871203487
20
-33.4005769633987
30
0
41
1.02166924057829
10
64.3056201861381
20
-33.4005769633987
30
0
41
1.02166924057829
10
64.2287411960617
20
-33.4005769633987
30
0
41
1.02166924057829
10
64.2107649603517
20
-33.4005769633987
30
0
0
SPLINE
5
1DA
100
AcDbEntity
8
1
62
256
6
ByLayer
370
13
48
1
60
0
100
AcDbSpline
70
4
71
3
72
18
73
14
40
0
40
0
40
0
40
0
40
0.0003510431352723
40
0.0003510431352723
40
0.272262893622951
40
0.272262893622951
40
0.561312801131931
40
0.561312801131931
40
0.853766373242132
40
0.853766373242132
40
0.999648956870035
40
0.999648956870035
40
1
40
1
40
1
40
1
41
1
10
64.9642619721899
20
-32.4819516762821
30
0
41
1
10
64.9642606486735
20
-32.4819681254146
30
0
41
1
10
64.9642593256509
20
-32.4819845730409
30
0
41
1
10
64.9632362148503
20
-32.4947417533612
30
0
41
1
10
64.963881351676
20
-32.5076486712827
30
0
41
1
10
64.9693719002484
20
-32.5332299675925
30
0
41
1
10
64.9745633812585
20
-32.5460754921451
30
0
41
1
10
64.9895898623041
20
-32.5691495774425
30
0
41
1
10
64.9996551870804
20
-32.5795967378794
30
0
41
1
10
65.0173245018118
20
-32.5923002941297
30
0
41
1
10
65.0237139278252
20
-32.5961028893246
30
0
41
1
10
65.0304507857487
20
-32.599407266608
30
0
41
1
10
65.0304668731359
20
-32.5994151528793
30
0
41
1
10
65.0304829603426
20
-32.599423036601
30
0
0
SPLINE
5
1DB
100
AcDbEntity
8
1
62
256
6
ByLayer
370
13
48
1
60
0
100
AcDbSpline
70
4
71
3
72
17
73
13
40
0
40
0
40
0
40
0
40
0.118467527994006
40
0.326190253528662
40
0.436746717612473
40
0.537657367171121
40
0.559342826516465
40
0.590548247301472
40
0.603612073412118
40
0.674240202936676
40
0.924100453486021
40
1
40
1
40
1
40
1
41
1.02166924057829
10
65.0304829603475
20
-32.599423036601
30
0
41
1.02166924057829
10
65.0025181202443
20
-32.599423036601
30
0
41
1.02166924057829
10
64.921029746144
20
-32.599423036601
30
0
41
1.02166924057829
10
64.7958987039928
20
-32.599423036601
30
0
41
1.02166924057829
10
64.6536837810793
20
-32.599423036601
30
0
41
1.02166924057829
10
64.5730086984349
20
-32.599423036601
30
0
41
1.02166924057829
10
64.5197953278362
20
-32.599423036601
30
0
41
1.02166924057829
10
64.5001019769151
20
-32.599423036601
30
0
41
1.02166924057829
10
64.4726113637335
20
-32.599423036601
30
0
41
1.02166924057829
10
64.3976871203487
20
-32.599423036601
30
0
41
1.02166924057829
10
64.3056201861381
20
-32.599423036601
30
0
41
1.02166924057829
10
64.2287411960617
20
-32.5994230366011
30
0
41
1.02166924057829
10
64.2107649603517
20
-32.5994230366011
30
0
0
SPLINE
5
1DC
100
AcDbEntity
8
1
62
256
6
ByLayer
370
13
48
1
60
0
100
AcDbSpline
70
4
71
3
72
22
73
18
40
0
40
0
40
0
40
0
40
0.29870209965608
40
0.29870209965608
40
0.393670626081331
40
0.393670626081331
40
0.460670630485623
40
0.460670630485623
40
0.514736103979951
40
0.514736103979951
40
0.568442815189713
40
0.568442815189713
40
0.662542648285732
40
0.662542648285732
40
0.948162779223048
40
0.948162779223048
40
1
40
1
40
1
40
1
41
1
10
67.1528237185025
20
-33.5149402588073
30
0
41
1
10
67.2419293692554
20
-33.4369525963025
30
0
41
1
10
67.3361316772848
20
-33.3504063452278
30
0
41
1
10
67.4431900401125
20
-33.2141997153865
30
0
41
1
10
67.4678625682307
20
-33.1788869458916
30
0
41
1
10
67.5015158097832
20
-33.1133204620137
30
0
41
1
10
67.5130478798159
20
-33.0841241480437
30
0
41
1
10
67.524625712091
20
-33.0292792347197
30
0
41
1
10
67.5263864751529
20
-33.0035708826645
30
0
41
1
10
67.5221313786763
20
-32.9536272721045
30
0
41
1
10
67.5162091749462
20
-32.9289307890583
30
0
41
1
10
67.4931821174294
20
-32.8650674200841
30
0
41
1
10
67.4711990350885
20
-32.8276476551663
30
0
41
1
10
67.3750568619266
20
-32.6894685277523
30
0
41
1
10
67.2849150861722
20
-32.6042415892047
30
0
41
1
10
67.1839523892536
20
-32.5125434210339
30
0
41
1
10
67.1683562737128
20
-32.4986542513426
30
0
41
1
10
67.152823718527
20
-32.4850597412138
30
0
0
SPLINE
5
1DD
100
AcDbEntity
8
1
62
256
6
ByLayer
370
13
48
1
60
0
100
AcDbSpline
70
4
71
3
72
16
73
12
40
0
40
0
40
0
40
0
40
0.0003180357848869
40
0.0003180357848869
40
0.251729887964903
40
0.251729887964903
40
0.50339433347081
40
0.50339433347081
40
0.999681964215131
40
0.999681964215131
40
1
40
1
40
1
40
1
41
1
10
65.0304829603426
20
-32.599423036601
30
0
41
1
10
65.0304995095588
20
-32.5994308527328
30
0
41
1
10
65.0305160586533
20
-32.5994386687269
30
0
41
1
10
65.043615233039
20
-32.6056249580858
30
0
41
1
10
65.0568468497938
20
-32.6116796442317
30
0
41
1
10
65.0835771699334
20
-32.6235481777803
30
0
41
1
10
65.0970793416627
20
-32.6293631965057
30
0
41
1
10
65.1375333608593
20
-32.6462815222394
30
0
41
1
10
65.1648203203588
20
-32.6570401186552
30
0
41
1
10
65.1924618795183
20
-32.6673453565602
30
0
41
1
10
65.19247958602
20
-32.6673519575425
30
0
41
1
10
65.1924972924749
20
-32.667358558383
30
0
0
SPLINE
5
1DE
100
AcDbEntity
8
1
62
256
6
ByLayer
370
13
48
1
60
0
100
AcDbSpline
70
4
71
3
72
18
73
14
40
0
40
0
40
0
40
0
40
0.0147623169458799
40
0.132429609800232
40
0.310035705020795
40
0.404563166264038
40
0.490843309123477
40
0.509384707266012
40
0.536065817486738
40
0.547235587853366
40
0.607623714695541
40
0.821258035816062
40
1
40
1
40
1
40
1
41
1
10
65.1924972924751
20
-32.6673585583829
30
0
41
1
10
65.1879894571145
20
-32.6673585583829
30
0
41
1
10
65.1472798005846
20
-32.6673585583829
30
0
41
1
10
65.0446180997779
20
-32.6673585583829
30
0
41
1
10
64.89569510329
20
-32.6673585583829
30
0
41
1
10
64.7320643366261
20
-32.6673585583829
30
0
41
1
10
64.6402658505686
20
-32.6673585583829
30
0
41
1
10
64.5800833549737
20
-32.6673585583829
30
0
41
1
10
64.5586341405576
20
-32.6673585583829
30
0
41
1
10
64.5305752330293
20
-32.6673585583829
30
0
41
1
10
64.4559545081916
20
-32.6673585583829
30
0
41
1
10
64.3329490835555
20
-32.6673585583829
30
0
41
1
10
64.2239387570542
20
-32.6673585583829
30
0
41
1
10
64.1738222924751
20
-32.6673585583829
30
0
0
SPLINE
5
1DF
100
AcDbEntity
8
1
62
256
6
ByLayer
370
13
48
1
60
0
100
AcDbSpline
70
4
71
3
72
16
73
12
40
0
40
0
40
0
40
0
40
0.0003180203342997
40
0.0003180203342997
40
0.251566631388001
40
0.251566631388001
40
0.503174270286074
40
0.503174270286074
40
0.999681979668716
40
0.999681979668716
40
1
40
1
40
1
40
1
41
1
10
65.1924972924749
20
-33.3326414416167
30
0
41
1
10
65.1924795860199
20
-33.3326480424572
30
0
41
1
10
65.1924618795182
20
-33.3326546434395
30
0
41
1
10
65.1784555263874
20
-33.3378764473313
30
0
41
1
10
65.1645549869885
20
-33.3432091519378
30
0
41
1
10
65.13693675467
20
-33.3541188908999
30
0
41
1
10
65.123216935737
20
-33.359697202414
30
0
41
1
10
65.0827734687441
20
-33.3766376302248
30
0
41
1
10
65.056361440587
20
-33.3883554466489
30
0
41
1
10
65.0305160586543
20
-33.4005613312732
30
0
41
1
10
65.0304995095591
20
-33.4005691472671
30
0
41
1
10
65.0304829603426
20
-33.4005769633987
30
0
0
SPLINE
5
1E0
100
AcDbEntity
8
1
62
256
6
ByLayer
370
13
48
1
60
0
100
AcDbSpline
70
4
71
3
72
18
73
14
40
0
40
0
40
0
40
0
40
0.0147623169459483
40
0.132429609801041
40
0.310035705022722
40
0.40456316626656
40
0.490843309126542
40
0.509384707269195
40
0.536065817490088
40
0.547235587856787
40
0.607623714699341
40
0.821258035821207
40
1
40
1
40
1
40
1
41
1
10
65.1924972924751
20
-33.3326414416168
30
0
41
1
10
65.1879894571145
20
-33.3326414416168
30
0
41
1
10
65.1472798005846
20
-33.3326414416168
30
0
41
1
10
65.0446180997779
20
-33.3326414416168
30
0
41
1
10
64.89569510329
20
-33.3326414416168
30
0
41
1
10
64.7320643366261
20
-33.3326414416168
30
0
41
1
10
64.6402658505686
20
-33.3326414416168
30
0
41
1
10
64.5800833549737
20
-33.3326414416168
30
0
41
1
10
64.5586341405576
20
-33.3326414416168
30
0
41
1
10
64.5305752330293
20
-33.3326414416168
30
0
41
1
10
64.4559545081916
20
-33.3326414416168
30
0
41
1
10
64.3329490835573
20
-33.3326414416168
30
0
41
1
10
64.2239387570577
20
-33.3326414416168
30
0
41
1
10
64.1738222924804
20
-33.3326414416168
30
0
0
SPLINE
5
1E1
100
AcDbEntity
8
1
62
256
6
ByLayer
370
13
48
1
60
0
100
AcDbSpline
70
4
71
3
72
8
73
4
40
0
40
0
40
0
40
0
40
1
40
1
40
1
40
1
41
1
10
67.0132739541157
20
-32.3639941066531
30
0
41
1
10
66.9848441187077
20
-32.3357950635863
30
0
41
1
10
66.9594573268684
20
-32.3111555409981
30
0
41
1
10
66.9354962551919
20
-32.2916818744101
30
0
0
SPLINE
5
1E2
100
AcDbEntity
8
1
62
256
6
ByLayer
370
13
48
1
60
0
100
AcDbSpline
70
4
71
3
72
8
73
4
40
0
40
0
40
0
40
0
40
1
40
1
40
1
40
1
41
1
10
66.9354962551923
20
-33.7083181255894
30
0
41
1
10
66.9594573268689
20
-33.6888444590014
30
0
41
1
10
66.9848441187079
20
-33.6642049364133
30
0
41
1
10
67.0132739541157
20
-33.6360058933466
30
0
0
SPLINE
5
1E3
100
AcDbEntity
8
1
62
256
6
ByLayer
370
13
48
1
60
0
100
AcDbSpline
70
4
71
3
72
18
73
14
40
0
40
0
40
0
40
0
40
0.00023158089382
40
0.00023158089382
40
0.253623359717151
40
0.253623359717151
40
0.529920957096893
40
0.529920957096893
40
0.795188631627136
40
0.795188631627136
40
0.999768419108964
40
0.999768419108964
40
1
40
1
40
1
40
1
41
1
10
65.3100240060454
20
-33.1318857898183
30
0
41
1
10
65.3100266345093
20
-33.1319052985268
30
0
41
1
10
65.3100292610427
20
-33.1319248071349
30
0
41
1
10
65.3129028077692
20
-33.1532905139973
30
0
41
1
10
65.3128100982841
20
-33.1750098279674
30
0
41
1
10
65.306145671286
20
-33.21794963432
30
0
41
1
10
65.298878144387
20
-33.2395993383122
30
0
41
1
10
65.2774807999278
20
-33.2767272008536
30
0
41
1
10
65.2632336335329
20
-33.292977962734
30
0
41
1
10
65.2330132258611
20
-33.3155162094176
30
0
41
1
10
65.2178470302409
20
-33.3234675746874
30
0
41
1
10
65.2017399278975
20
-33.3292082994536
30
0
41
1
10
65.2017217604414
20
-33.329214770911
30
0
41
1
10
65.2017035929297
20
-33.3292212401835
30
0
0
SPLINE
5
1E4
100
AcDbEntity
8
1
62
256
6
ByLayer
370
13
48
1
60
0
100
AcDbSpline
70
4
71
3
72
18
73
14
40
0
40
0
40
0
40
0
40
0.0002325599132508
40
0.0002325599132508
40
0.255891971717352
40
0.255891971717352
40
0.495789486831356
40
0.495789486831356
40
0.744387685796496
40
0.744387685796496
40
0.999767440083953
40
0.999767440083953
40
1
40
1
40
1
40
1
41
1
10
65.2017035929297
20
-32.6707787598162
30
0
41
1
10
65.2017217604414
20
-32.6707852290887
30
0
41
1
10
65.2017399278975
20
-32.6707917005461
30
0
41
1
10
65.2217278570614
20
-32.6779155889732
30
0
41
1
10
65.2403039926447
20
-32.6885330991039
30
0
41
1
10
65.2700010474331
20
-32.7145091374584
30
0
41
1
10
65.281961910292
20
-32.7298697239333
30
0
41
1
10
65.3001095834958
20
-32.7642119686372
30
0
41
1
10
65.3063619410124
20
-32.7837648267159
30
0
41
1
10
65.3128079648331
20
-32.8246542455953
30
0
41
1
10
65.3129248724814
20
-32.8465454280566
30
0
41
1
10
65.3100292610427
20
-32.8680751928648
30
0
41
1
10
65.3100266345093
20
-32.8680947014729
30
0
41
1
10
65.3100240060454
20
-32.8681142101814
30
0
0
SPLINE
5
1E5
100
AcDbEntity
8
1
62
256
6
ByLayer
370
13
48
1
60
0
100
AcDbSpline
70
4
71
3
72
10
73
6
40
0
40
0
40
0
40
0
40
0.848961873468764
40
0.848961873468764
40
1
40
1
40
1
40
1
41
1
10
69.9256851850747
20
-32.0015893930764
30
0
41
1
10
69.8912977154035
20
-31.9497465899331
30
0
41
1
10
69.843874742716
20
-31.906290942168
30
0
41
1
10
69.7838155264513
20
-31.8642853680485
30
0
41
1
10
69.7744787017949
20
-31.8580914324089
30
0
41
1
10
69.7650107000385
20
-31.852111820947
30
0
0
SPLINE
5
1E6
100
AcDbEntity
8
1
62
256
6
ByLayer
370
13
48
1
60
0
100
AcDbSpline
70
4
71
3
72
8
73
4
40
0
40
0
40
0
40
0
40
1
40
1
40
1
40
1
41
1
10
69.7650107000385
20
-31.8521118209471
30
0
41
1
10
69.7210937227593
20
-31.824375613512
30
0
41
1
10
69.6769798114244
20
-31.7969459655531
30
0
41
1
10
69.632560747957
20
-31.7700224771044
30
0
0
SPLINE
5
1E7
100
AcDbEntity
8
1
62
256
6
ByLayer
370
13
48
1
60
0
100
AcDbSpline
70
4
71
3
72
10
73
6
40
0
40
0
40
0
40
0
40
0.657586553479241
40
0.657586553479241
40
1
40
1
40
1
40
1
41
1
10
69.632560747957
20
-31.7700224771044
30
0
41
1
10
69.6092305437702
20
-31.7558814657031
30
0
41
1
10
69.5864384919004
20
-31.7405580461434
30
0
41
1
10
69.5548281900599
20
-31.7136492455976
30
0
41
1
10
69.5444660370969
20
-31.7037198060761
30
0
41
1
10
69.535515563742
20
-31.6926495293061
30
0
0
SPLINE
5
1E8
100
AcDbEntity
8
1
62
256
6
ByLayer
370
13
48
1
60
0
100
AcDbSpline
70
4
71
3
72
10
73
6
40
0
40
0
40
0
40
0
40
0.657586553479241
40
0.657586553479241
40
1
40
1
40
1
40
1
41
1
10
69.632560747957
20
-34.2299775228953
30
0
41
1
10
69.6092305437702
20
-34.2441185342966
30
0
41
1
10
69.5864384919004
20
-34.2594419538563
30
0
41
1
10
69.5548281900599
20
-34.2863507544021
30
0
41
1
10
69.5444660370969
20
-34.2962801939236
30
0
41
1
10
69.535515563742
20
-34.3073504706936
30
0
0
SPLINE
5
1E9
100
AcDbEntity
8
1
62
256
6
ByLayer
370
13
48
1
60
0
100
AcDbSpline
70
4
71
3
72
8
73
4
40
0
40
0
40
0
40
0
40
1
40
1
40
1
40
1
41
1
10
69.7650107000385
20
-34.1478881790526
30
0
41
1
10
69.7210937227593
20
-34.1756243864877
30
0
41
1
10
69.6769798114244
20
-34.2030540344466
30
0
41
1
10
69.632560747957
20
-34.2299775228953
30
0
0
SPLINE
5
1EA
100
AcDbEntity
8
1
62
256
6
ByLayer
370
13
48
1
60
0
100
AcDbSpline
70
4
71
3
72
10
73
6
40
0
40
0
40
0
40
0
40
0.848961873468764
40
0.848961873468764
40
1
40
1
40
1
40
1
41
1
10
69.9256851850747
20
-33.9984106069233
30
0
41
1
10
69.8912977154035
20
-34.0502534100666
30
0
41
1
10
69.843874742716
20
-34.0937090578317
30
0
41
1
10
69.7838155264513
20
-34.1357146319512
30
0
41
1
10
69.7744787017949
20
-34.1419085675907
30
0
41
1
10
69.7650107000385
20
-34.1478881790526
30
0
0
SPLINE
5
1EB
100
AcDbEntity
8
1
62
256
6
ByLayer
370
13
48
1
60
0
100
AcDbSpline
70
4
71
3
72
18
73
14
40
0
40
0
40
0
40
0
40
0.0127522791560605
40
0.121124696795741
40
0.284701179773217
40
0.371761647127995
40
0.451226275311022
40
0.468303035508213
40
0.492876528700666
40
0.503163967034188
40
0.558781863425488
40
0.755540599936067
40
1
40
1
40
1
40
1
41
1
10
65.3100240060454
20
-32.8681142101814
30
0
41
1
10
65.305326900298
20
-32.8681142101814
30
0
41
1
10
65.2604415120432
20
-32.8681142101814
30
0
41
1
10
65.1469736785093
20
-32.8681142101814
30
0
41
1
10
64.9821864796328
20
-32.8681142101814
30
0
41
1
10
64.7999950653449
20
-32.8681142101814
30
0
41
1
10
64.6985561666313
20
-32.8681142101814
30
0
41
1
10
64.6323336814468
20
-32.8681142101814
30
0
41
1
10
64.6093626981952
20
-32.8681142101814
30
0
41
1
10
64.5808112622735
20
-32.8681142101814
30
0
41
1
10
64.5064535903822
20
-32.8681142101814
30
0
41
1
10
64.3598856588518
20
-32.8681142101814
30
0
41
1
10
64.2261354777727
20
-32.8681142101814
30
0
41
1
10
64.1510660060461
20
-32.8681142101814
30
0
0
SPLINE
5
1EC
100
AcDbEntity
8
1
62
256
6
ByLayer
370
13
48
1
60
0
100
AcDbSpline
70
4
71
3
72
18
73
14
40
0
40
0
40
0
40
0
40
0.0164366124739458
40
0.133179670181368
40
0.309390732070834
40
0.403175713395386
40
0.488778156117613
40
0.507173918107392
40
0.533645457603518
40
0.544727493357532
40
0.604641292730018
40
0.81659759149292
40
1
40
1
40
1
40
1
41
1.02166924057829
10
65.2017035929298
20
-32.6707787598162
30
0
41
1.02166924057829
10
65.1966174631242
20
-32.6707787598162
30
0
41
1.02166924057829
10
65.155108594915
20
-32.6707787598162
30
0
41
1.02166924057829
10
65.051135754098
20
-32.6707787598162
30
0
41
1.02166924057829
10
64.9012025792835
20
-32.6707787598162
30
0
41
1.02166924057829
10
64.7363899338529
20
-32.6707787598162
30
0
41
1.02166924057829
10
64.6439775791819
20
-32.6707787598162
30
0
41
1.02166924057829
10
64.5834104776404
20
-32.6707787598162
30
0
41
1.02166924057829
10
64.5618643621726
20
-32.6707787598162
30
0
41
1.02166924057829
10
64.5337740921153
20
-32.6707787598162
30
0
41
1.02166924057829
10
64.4591701175925
20
-32.6707787598162
30
0
41
1.02166924057829
10
64.3345034206933
20
-32.6707787598162
30
0
41
1.02166924057829
10
64.2237563950344
20
-32.6707787598162
30
0
41
1.02166924057829
10
64.171893592929
20
-32.6707787598162
30
0
0
SPLINE
5
1ED
100
AcDbEntity
8
1
62
256
6
ByLayer
370
13
48
1
60
0
100
AcDbSpline
70
4
71
3
72
18
73
14
40
0
40
0
40
0
40
0
40
0.0164366124739958
40
0.13317967018153
40
0.309390732071164
40
0.403175713395805
40
0.488778156118114
40
0.507173918107911
40
0.533645457604062
40
0.544727493358087
40
0.604641292730629
40
0.816597591493734
40
1
40
1
40
1
40
1
41
1.02166924057829
10
65.2017035929298
20
-33.3292212401835
30
0
41
1.02166924057829
10
65.1966174631242
20
-33.3292212401835
30
0
41
1.02166924057829
10
65.155108594915
20
-33.3292212401835
30
0
41
1.02166924057829
10
65.051135754098
20
-33.3292212401835
30
0
41
1.02166924057829
10
64.9012025792835
20
-33.3292212401835
30
0
41
1.02166924057829
10
64.7363899338529
20
-33.3292212401835
30
0
41
1.02166924057829
10
64.6439775791819
20
-33.3292212401835
30
0
41
1.02166924057829
10
64.5834104776404
20
-33.3292212401835
30
0
41
1.02166924057829
10
64.5618643621726
20
-33.3292212401835
30
0
41
1.02166924057829
10
64.5337740921153
20
-33.3292212401835
30
0
41
1.02166924057829
10
64.4591701175925
20
-33.3292212401835
30
0
41
1.02166924057829
10
64.3345034206935
20
-33.3292212401835
30
0
41
1.02166924057829
10
64.2237563950349
20
-33.3292212401835
30
0
41
1.02166924057829
10
64.1718935929297
20
-33.3292212401835
30
0
0
SPLINE
5
1EE
100
AcDbEntity
8
1
62
256
6
ByLayer
370
13
48
1
60
0
100
AcDbSpline
70
4
71
3
72
18
73
14
40
0
40
0
40
0
40
0
40
0.0127522791560605
40
0.121124696795741
40
0.284701179773217
40
0.371761647127995
40
0.451226275311022
40
0.468303035508213
40
0.492876528700666
40
0.503163967034188
40
0.558781863425488
40
0.755540599936067
40
1
40
1
40
1
40
1
41
1
10
65.3100240060454
20
-33.1318857898183
30
0
41
1
10
65.305326900298
20
-33.1318857898183
30
0
41
1
10
65.2604415120432
20
-33.1318857898183
30
0
41
1
10
65.1469736785093
20
-33.1318857898183
30
0
41
1
10
64.9821864796328
20
-33.1318857898183
30
0
41
1
10
64.7999950653449
20
-33.1318857898183
30
0
41
1
10
64.6985561666313
20
-33.1318857898183
30
0
41
1
10
64.6323336814468
20
-33.1318857898183
30
0
41
1
10
64.6093626981952
20
-33.1318857898183
30
0
41
1
10
64.5808112622735
20
-33.1318857898183
30
0
41
1
10
64.5064535903822
20
-33.1318857898183
30
0
41
1
10
64.3598856588518
20
-33.1318857898183
30
0
41
1
10
64.2261354777727
20
-33.1318857898183
30
0
41
1
10
64.1510660060461
20
-33.1318857898183
30
0
0
SPLINE
5
1EF
100
AcDbEntity
8
1
62
256
6
ByLayer
370
13
48
1
60
0
100
AcDbSpline
70
4
71
3
72
16
73
12
40
0
40
0
40
0
40
0
40
0.0057828244240233
40
0.0057828244240233
40
0.500000493987984
40
0.500000493987984
40
0.750000398281966
40
0.750000398281966
40
0.994217175588821
40
0.994217175588821
40
1
40
1
40
1
40
1
41
1
10
65.2017035929295
20
-33.3292212401834
30
0
41
1
10
65.2016858395656
20
-33.3292278328906
30
0
41
1
10
65.2016680861537
20
-33.3292344255762
30
0
41
1
10
65.200133079949
20
-33.329804450126
30
0
41
1
10
65.1986161325266
20
-33.3303678867315
30
0
41
1
10
65.196332301323
20
-33.3312163446658
30
0
41
1
10
65.1955651882595
20
-33.3315013625601
30
0
41
1
10
65.1940488637028
20
-33.3320648075589
30
0
41
1
10
65.1932996485426
20
-33.3323432346272
30
0
41
1
10
65.1925327701838
20
-33.3326282557771
30
0
41
1
10
65.1925150313536
20
-33.3326348487078
30
0
41
1
10
65.1924972924749
20
-33.3326414416167
30
0
0
SPLINE
5
1F0
100
AcDbEntity
8
1
62
256
6
ByLayer
370
13
48
1
60
0
100
AcDbSpline
70
4
71
3
72
10
73
6
40
0
40
0
40
0
40
0
40
0.638823417468494
40
0.638823417468494
40
1
40
1
40
1
40
1
41
1
10
69.5900286630425
20
-34.1686688261486
30
0
41
1
10
69.566841990865
20
-34.1883555177385
30
0
41
1
10
69.5449724664755
20
-34.2101471475117
30
0
41
1
10
69.5161775948407
20
-34.2486647328026
30
0
41
1
10
69.5068123576004
20
-34.2636431554479
30
0
41
1
10
69.4995116901682
20
-34.2796428196304
30
0
0
SPLINE
5
1F1
100
AcDbEntity
8
1
62
256
6
ByLayer
370
13
48
1
60
0
100
AcDbSpline
70
4
71
3
72
16
73
12
40
0
40
0
40
0
40
0
40
0.0355702320994276
40
0.0355702320994276
40
0.0905081710166269
40
0.0905081710166269
40
0.198049233530912
40
0.198049233530912
40
0.436780146594186
40
0.436780146594186
40
1
40
1
40
1
40
1
41
1
10
69.4647600217563
20
-34.3599668953994
30
0
41
1
10
69.4651586810189
20
-34.3590001194368
30
0
41
1
10
69.4655584542086
20
-34.358033780945
30
0
41
1
10
69.4665771815565
20
-34.3555717147672
30
0
41
1
10
69.4671970808021
20
-34.3540763687534
30
0
41
1
10
69.4690334070428
20
-34.3496560607674
30
0
41
1
10
69.4702528942053
20
-34.3467326560679
30
0
41
1
10
69.4741930527674
20
-34.3373346984058
30
0
41
1
10
69.4769343827304
20
-34.3308729195473
30
0
41
1
10
69.4861946238308
20
-34.3093042958688
30
0
41
1
10
69.4928248586496
20
-34.2942972412639
30
0
41
1
10
69.4995116901682
20
-34.2796428196304
30
0
0
SPLINE
5
1F2
100
AcDbEntity
8
1
62
256
6
ByLayer
370
13
48
1
60
0
100
AcDbSpline
70
4
71
3
72
8
73
4
40
0
40
0
40
0
40
0
40
1
40
1
40
1
40
1
41
1
10
69.4647600217523
20
-34.3599668954014
30
0
41
1
10
69.3478492133728
20
-34.390718450689
30
0
41
1
10
69.2265101800571
20
-34.4057021466157
30
0
41
1
10
69.1060768987951
20
-34.4085136579453
30
0
0
SPLINE
5
1F3
100
AcDbEntity
8
1
62
256
6
ByLayer
370
13
48
1
60
0
100
AcDbSpline
70
4
71
3
72
16
73
12
40
0
40
0
40
0
40
0
40
0.0355702320994276
40
0.0355702320994276
40
0.0905081710166269
40
0.0905081710166269
40
0.198049233530912
40
0.198049233530912
40
0.436780146594186
40
0.436780146594186
40
1
40
1
40
1
40
1
41
1
10
69.4647600217563
20
-31.6400331046003
30
0
41
1
10
69.4651586810189
20
-31.6409998805629
30
0
41
1
10
69.4655584542086
20
-31.6419662190548
30
0
41
1
10
69.4665771815565
20
-31.6444282852325
30
0
41
1
10
69.4671970808021
20
-31.6459236312462
30
0
41
1
10
69.4690334070428
20
-31.6503439392323
30
0
41
1
10
69.4702528942053
20
-31.6532673439318
30
0
41
1
10
69.4741930527674
20
-31.6626653015939
30
0
41
1
10
69.4769343827304
20
-31.6691270804524
30
0
41
1
10
69.4861946238308
20
-31.6906957041309
30
0
41
1
10
69.4928248586496
20
-31.7057027587358
30
0
41
1
10
69.4995116901682
20
-31.7203571803693
30
0
0
SPLINE
5
1F4
100
AcDbEntity
8
1
62
256
6
ByLayer
370
13
48
1
60
0
100
AcDbSpline
70
4
71
3
72
16
73
12
40
0
40
0
40
0
40
0
40
0.0057828239042467
40
0.0057828239042467
40
0.249999260186564
40
0.249999260186564
40
0.624999089284546
40
0.624999089284546
40
0.99421717603004
40
0.99421717603004
40
1
40
1
40
1
40
1
41
1
10
65.1924972924749
20
-32.667358558383
30
0
41
1
10
65.1925150313537
20
-32.6673651512919
30
0
41
1
10
65.1925327701838
20
-32.6673717442226
30
0
41
1
10
65.1932996474864
20
-32.66765676498
30
0
41
1
10
65.1940488615901
20
-32.6679351916557
30
0
41
1
10
65.1959487019351
20
-32.668641145758
30
0
41
1
10
65.1970994307141
20
-32.6690686716477
30
0
41
1
10
65.1993834972573
20
-32.6699171263815
30
0
41
1
10
65.2005168297864
20
-32.6703380553747
30
0
41
1
10
65.2016680861533
20
-32.6707655744234
30
0
41
1
10
65.2016858395654
20
-32.6707721671091
30
0
41
1
10
65.2017035929295
20
-32.6707787598163
30
0
0
SPLINE
5
1F5
100
AcDbEntity
8
1
62
256
6
ByLayer
370
13
48
1
60
0
100
AcDbSpline
70
4
71
3
72
10
73
6
40
0
40
0
40
0
40
0
40
0.638823417468494
40
0.638823417468494
40
1
40
1
40
1
40
1
41
1
10
69.5900286630425
20
-31.8313311738511
30
0
41
1
10
69.566841990865
20
-31.8116444822612
30
0
41
1
10
69.5449724664755
20
-31.7898528524881
30
0
41
1
10
69.5161775948407
20
-31.7513352671971
30
0
41
1
10
69.5068123576004
20
-31.7363568445518
30
0
41
1
10
69.4995116901682
20
-31.7203571803694
30
0
0
SPLINE
5
1F6
100
AcDbEntity
8
1
62
256
6
ByLayer
370
13
48
1
60
0
100
AcDbSpline
70
4
71
3
72
8
73
4
40
0
40
0
40
0
40
0
40
1
40
1
40
1
40
1
41
1
10
69.4647600217523
20
-31.6400331045984
30
0
41
1
10
69.3478492133728
20
-31.6092815493107
30
0
41
1
10
69.2265101800571
20
-31.594297853384
30
0
41
1
10
69.1060768987951
20
-31.5914863420543
30
0
0
SPLINE
5
1F7
100
AcDbEntity
8
1
62
256
6
ByLayer
370
13
48
1
60
0
100
AcDbSpline
70
4
71
3
72
8
73
4
40
0
40
0
40
0
40
0
40
1
40
1
40
1
40
1
41
1
10
68.7587805434613
20
-34.4120540871953
30
0
41
1
10
68.5912677337033
20
-34.4178133822022
30
0
41
1
10
68.4213169004326
20
-34.3996836915366
30
0
41
1
10
68.2587805434613
20
-34.3588468043885
30
0
0
SPLINE
5
1F8
100
AcDbEntity
8
1
62
256
6
ByLayer
370
13
48
1
60
0
100
AcDbSpline
70
4
71
3
72
8
73
4
40
0
40
0
40
0
40
0
40
1
40
1
40
1
40
1
41
1
10
68.7587805434613
20
-31.5879459128044
30
0
41
1
10
68.5912677337033
20
-31.5821866177975
30
0
41
1
10
68.4213169004326
20
-31.6003163084631
30
0
41
1
10
68.2587805434613
20
-31.6411531956112
30
0
0
SPLINE
5
1F9
100
AcDbEntity
8
1
62
256
6
ByLayer
370
13
48
1
60
0
100
AcDbSpline
70
4
71
3
72
16
73
12
40
0
40
0
40
0
40
0
40
0.0355303527441879
40
0.0355303527441879
40
0.0917680599187698
40
0.0917680599187698
40
0.200182520092124
40
0.200182520092124
40
0.4395335047121
40
0.4395335047121
40
1
40
1
40
1
40
1
41
1
10
69.4647600217524
20
-34.3599668954014
30
0
41
1
10
69.4655855998636
20
-34.3593331678194
30
0
41
1
10
69.4664120929671
20
-34.3586999338024
30
0
41
1
10
69.4685507889318
20
-34.3570620142689
30
0
41
1
10
69.4698640688781
20
-34.3560577004988
30
0
41
1
10
69.4737129338245
20
-34.3531188369133
30
0
41
1
10
69.4762525536656
20
-34.3511853782211
30
0
41
1
10
69.4844114693383
20
-34.3449941211034
30
0
41
1
10
69.4900517136001
20
-34.3407458003268
30
0
41
1
10
69.5089188273347
20
-34.3266493315569
30
0
41
1
10
69.5222466489563
20
-34.3168765987495
30
0
41
1
10
69.535515563742
20
-34.3073504706936
30
0
0
SPLINE
5
1FA
100
AcDbEntity
8
1
62
256
6
ByLayer
370
13
48
1
60
0
100
AcDbSpline
70
4
71
3
72
16
73
12
40
0
40
0
40
0
40
0
40
0.0355303527441879
40
0.0355303527441879
40
0.0917680599187698
40
0.0917680599187698
40
0.200182520092124
40
0.200182520092124
40
0.439533504712099
40
0.439533504712099
40
1
40
1
40
1
40
1
41
1
10
69.4647600217524
20
-31.6400331045984
30
0
41
1
10
69.4655855998636
20
-31.6406668321803
30
0
41
1
10
69.4664120929671
20
-31.6413000661973
30
0
41
1
10
69.4685507889318
20
-31.6429379857308
30
0
41
1
10
69.4698640688781
20
-31.6439422995009
30
0
41
1
10
69.4737129338245
20
-31.6468811630864
30
0
41
1
10
69.4762525536656
20
-31.6488146217787
30
0
41
1
10
69.4844114693383
20
-31.6550058788963
30
0
41
1
10
69.4900517136001
20
-31.6592541996729
30
0
41
1
10
69.5089188273347
20
-31.6733506684428
30
0
41
1
10
69.5222466489563
20
-31.6831234012502
30
0
41
1
10
69.535515563742
20
-31.6926495293061
30
0
0
SPLINE
5
1FB
100
AcDbEntity
8
1
62
256
6
ByLayer
370
13
48
1
60
0
100
AcDbSpline
70
4
71
3
72
8
73
4
40
0
40
0
40
0
40
0
40
1
40
1
40
1
40
1
41
1
10
69.1060768987951
20
-34.4085136579453
30
0
41
1
10
68.9916360304015
20
-34.4113370311762
30
0
41
1
10
68.8749005955276
20
-34.4075838230837
30
0
41
1
10
68.7587805434613
20
-34.4120540871953
30
0
0
SPLINE
5
1FC
100
AcDbEntity
8
1
62
256
6
ByLayer
370
13
48
1
60
0
100
AcDbSpline
70
4
71
3
72
8
73
4
40
0
40
0
40
0
40
0
40
1
40
1
40
1
40
1
41
1
10
69.1060768987951
20
-31.5914863420543
30
0
41
1
10
68.9916360304015
20
-31.5886629688235
30
0
41
1
10
68.8749005955276
20
-31.592416176916
30
0
41
1
10
68.7587805434613
20
-31.5879459128044
30
0
0
SPLINE
5
1FD
100
AcDbEntity
8
1
62
256
6
ByLayer
370
13
48
1
60
0
100
AcDbSpline
70
4
71
3
72
10
73
6
40
0
40
0
40
0
40
0
40
0.155061591761412
40
0.155061591761412
40
1
40
1
40
1
40
1
41
1
10
69.7213895076228
20
-31.912656363149
30
0
41
1
10
69.7304066184319
20
-31.9174622082047
30
0
41
1
10
69.7393274149503
20
-31.9224531705166
30
0
41
1
10
69.7954797246053
20
-31.9555743639142
30
0
41
1
10
69.8409287471059
20
-31.9898372008862
30
0
41
1
10
69.8749811562301
20
-32.0329422292472
30
0
0
SPLINE
5
1FE
100
AcDbEntity
8
1
62
256
6
ByLayer
370
13
48
1
60
0
100
AcDbSpline
70
4
71
3
72
16
73
12
40
0
40
0
40
0
40
0
40
0.0004523985411366
40
0.0004523985411366
40
0.257549970995908
40
0.257549970995908
40
0.515211450419599
40
0.515211450419599
40
0.999547601459687
40
0.999547601459687
40
1
40
1
40
1
40
1
41
1
10
65.3100240060454
20
-32.8681142101814
30
0
41
1
10
65.310021864881
20
-32.8681338855377
30
0
41
1
10
65.310019723233
20
-32.8681535607495
30
0
41
1
10
65.3088010179857
20
-32.8793548008853
30
0
41
1
10
65.3077336238965
20
-32.8905860696142
30
0
41
1
10
65.3059057653384
20
-32.9131377512557
30
0
41
1
10
65.305145500161
20
-32.9244643360053
30
0
41
1
10
65.3034134795949
20
-32.9571255627714
30
0
41
1
10
65.3028425855878
20
-32.978542988086
30
0
41
1
10
65.3028415235942
20
-32.99996
30
0
41
1
10
65.3028415235928
20
-32.99998
30
0
41
1
10
65.3028415230963
20
-32.9999999999999
30
0
0
SPLINE
5
1FF
100
AcDbEntity
8
1
62
256
6
ByLayer
370
13
48
1
60
0
100
AcDbSpline
70
4
71
3
72
16
73
12
40
0
40
0
40
0
40
0
40
0.0004524024963632
40
0.0004524024963632
40
0.257769385461147
40
0.257769385461147
40
0.515499162994264
40
0.515499162994264
40
0.999547597506527
40
0.999547597506527
40
1
40
1
40
1
40
1
41
1
10
65.3028415230963
20
-32.9999999999999
30
0
41
1
10
65.3028415235923
20
-33.0000199999998
30
0
41
1
10
65.3028415235929
20
-33.0000399999998
30
0
41
1
10
65.3028420886591
20
-33.011435577434
30
0
41
1
10
65.303003252671
20
-33.0228142337223
30
0
41
1
10
65.3036456179239
20
-33.0455586804419
30
0
41
1
10
65.3041275042308
20
-33.0569306234702
30
0
41
1
10
65.3059682233651
20
-33.0895657919345
30
0
41
1
10
65.307728672899
20
-33.1107891696356
30
0
41
1
10
65.3100197232347
20
-33.1318464392499
30
0
41
1
10
65.3100218648815
20
-33.1318661144619
30
0
41
1
10
65.3100240060454
20
-33.1318857898183
30
0
0
SPLINE
5
200
100
AcDbEntity
8
1
62
256
6
ByLayer
370
13
48
1
60
0
100
AcDbSpline
70
4
71
3
72
10
73
6
40
0
40
0
40
0
40
0
40
0.155061591761412
40
0.155061591761412
40
1
40
1
40
1
40
1
41
1
10
69.7213895076228
20
-34.0873436368507
30
0
41
1
10
69.7304066184319
20
-34.082537791795
30
0
41
1
10
69.7393274149503
20
-34.0775468294831
30
0
41
1
10
69.7954797246053
20
-34.0444256360855
30
0
41
1
10
69.8409287471059
20
-34.0101627991135
30
0
41
1
10
69.8749811562301
20
-33.9670577707525
30
0
0
SPLINE
5
201
100
AcDbEntity
8
1
62
256
6
ByLayer
370
13
48
1
60
0
100
AcDbSpline
70
4
71
3
72
12
73
8
40
0
40
0
40
0
40
0
40
0.0075770979408485
40
0.0075770979408485
40
0.524912447401224
40
0.524912447401224
40
1
40
1
40
1
40
1
41
1
10
69.4213727254144
20
-32.1772795177638
30
0
41
1
10
69.4226938848631
20
-32.1772305042838
30
0
41
1
10
69.4240151186688
20
-32.1771838354129
30
0
41
1
10
69.5154638182291
20
-32.1741173471658
30
0
41
1
10
69.6056735270381
20
-32.1788814005795
30
0
41
1
10
69.7786115881781
20
-32.1829377292973
30
0
41
1
10
69.8613940232688
20
-32.1852575903152
30
0
41
1
10
69.9441651422333
20
-32.1879655215312
30
0
0
SPLINE
5
202
100
AcDbEntity
8
1
62
256
6
ByLayer
370
13
48
1
60
0
100
AcDbSpline
70
4
71
3
72
12
73
8
40
0
40
0
40
0
40
0
40
0.0075770979408485
40
0.0075770979408485
40
0.524912447401224
40
0.524912447401224
40
1
40
1
40
1
40
1
41
1
10
69.4213727254144
20
-33.822720482236
30
0
41
1
10
69.4226938848631
20
-33.8227694957159
30
0
41
1
10
69.4240151186688
20
-33.8228161645867
30
0
41
1
10
69.5154638182291
20
-33.8258826528339
30
0
41
1
10
69.6056735270381
20
-33.8211185994202
30
0
41
1
10
69.7786115881781
20
-33.8170622707024
30
0
41
1
10
69.8613940232688
20
-33.8147424096845
30
0
41
1
10
69.9441651422333
20
-33.8120344784685
30
0
0
SPLINE
5
203
100
AcDbEntity
8
1
62
256
6
ByLayer
370
13
48
1
60
0
100
AcDbSpline
70
4
71
3
72
18
73
14
40
0
40
0
40
0
40
0
40
0.0063240448349337
40
0.115571666530152
40
0.280469175691325
40
0.368232734070234
40
0.448339110092539
40
0.465553780378898
40
0.49032572647449
40
0.500696245059857
40
0.556763305634648
40
0.755111044659956
40
1
40
1
40
1
40
1
41
1
10
65.302841523097
20
-32.9999999999999
30
0
41
1
10
65.3005154116541
20
-32.9999999999999
30
0
41
1
10
65.2578593433939
20
-32.9999999999999
30
0
41
1
10
65.1469736785093
20
-32.9999999999999
30
0
41
1
10
64.9821864796328
20
-32.9999999999999
30
0
41
1
10
64.7999950653449
20
-32.9999999999999
30
0
41
1
10
64.6985561666312
20
-32.9999999999999
30
0
41
1
10
64.6323336814467
20
-32.9999999999999
30
0
41
1
10
64.6093626981952
20
-32.9999999999999
30
0
41
1
10
64.5808112622735
20
-32.9999999999999
30
0
41
1
10
64.5064535903822
20
-32.9999999999999
30
0
41
1
10
64.360337690783
20
-32.9999999999998
30
0
41
1
10
64.2270644313657
20
-32.9999999999999
30
0
41
1
10
64.1524775230986
20
-32.9999999999999
30
0
0
SPLINE
5
204
100
AcDbEntity
8
1
62
256
6
ByLayer
370
13
48
1
60
0
100
AcDbSpline
70
4
71
3
72
8
73
4
40
0
40
0
40
0
40
0
40
1
40
1
40
1
40
1
41
1
10
69.8749811562301
20
-32.0329422292472
30
0
41
1
10
69.8822263780105
20
-32.0421135477634
30
0
41
1
10
69.8893737130963
20
-32.0513998069488
30
0
41
1
10
69.8964383490931
20
-32.060748349725
30
0
0
SPLINE
5
205
100
AcDbEntity
8
1
62
256
6
ByLayer
370
13
48
1
60
0
100
AcDbSpline
70
4
71
3
72
10
73
6
40
0
40
0
40
0
40
0
40
0.596085739020482
40
0.596085739020482
40
1
40
1
40
1
40
1
41
1
10
69.8964383490931
20
-33.9392516502747
30
0
41
1
10
69.9128939358857
20
-33.9174761819977
30
0
41
1
10
69.9267245821227
20
-33.8930477604037
30
0
41
1
10
69.94081187438
20
-33.8493753797689
30
0
41
1
10
69.944038381206
20
-33.8306258450722
30
0
41
1
10
69.9441651422481
20
-33.8120344784733
30
0
0
SPLINE
5
206
100
AcDbEntity
8
1
62
256
6
ByLayer
370
13
48
1
60
0
100
AcDbSpline
70
4
71
3
72
10
73
6
40
0
40
0
40
0
40
0
40
0.596085739020482
40
0.596085739020482
40
1
40
1
40
1
40
1
41
1
10
69.8964383490931
20
-32.060748349725
30
0
41
1
10
69.9128939358857
20
-32.082523818002
30
0
41
1
10
69.9267245821227
20
-32.106952239596
30
0
41
1
10
69.94081187438
20
-32.1506246202308
30
0
41
1
10
69.944038381206
20
-32.1693741549275
30
0
41
1
10
69.9441651422481
20
-32.1879655215265
30
0
0
SPLINE
5
207
100
AcDbEntity
8
1
62
256
6
ByLayer
370
13
48
1
60
0
100
AcDbSpline
70
4
71
3
72
8
73
4
40
0
40
0
40
0
40
0
40
1
40
1
40
1
40
1
41
1
10
69.8749811562301
20
-33.9670577707525
30
0
41
1
10
69.8822263780105
20
-33.9578864522362
30
0
41
1
10
69.8893737130963
20
-33.9486001930509
30
0
41
1
10
69.8964383490931
20
-33.9392516502747
30
0
0
SPLINE
5
208
100
AcDbEntity
8
1
62
256
6
ByLayer
370
13
48
1
60
0
100
AcDbSpline
70
4
71
3
72
16
73
12
40
0
40
0
40
0
40
0
40
0.113631665737396
40
0.113631665737396
40
0.758132216188138
40
0.758132216188138
40
0.942823120098959
40
0.942823120098959
40
0.947778003019264
40
0.947778003019264
40
1
40
1
40
1
40
1
41
1
10
68.2112677608008
20
-33.7494859343237
30
0
41
1
10
68.2332807942053
20
-33.7564900031846
30
0
41
1
10
68.255408813319
20
-33.7631426509561
30
0
41
1
10
68.4026697940169
20
-33.8048304290926
30
0
41
1
10
68.5333481685156
20
-33.827572818562
30
0
41
1
10
68.7009734748332
20
-33.8260882857967
30
0
41
1
10
68.7386296238165
20
-33.8242820503594
30
0
41
1
10
68.7773004835499
20
-33.822903895592
30
0
41
1
10
68.7783108496887
20
-33.8228678782586
30
0
41
1
10
68.7899699703881
20
-33.8224522350519
30
0
41
1
10
68.80061882194
20
-33.8220753216858
30
0
41
1
10
68.8112677608007
20
-33.8217009012839
30
0
0
SPLINE
5
209
100
AcDbEntity
8
1
62
256
6
ByLayer
370
13
48
1
60
0
100
AcDbSpline
70
4
71
3
72
10
73
6
40
0
40
0
40
0
40
0
40
0.41187861913105
40
0.41187861913105
40
1
40
1
40
1
40
1
41
1
10
69.9970257408783
20
-32.187965521531
30
0
41
1
10
69.9970257408783
20
-32.1648570156271
30
0
41
1
10
69.9938567437525
20
-32.1415749976981
30
0
41
1
10
69.9795589487909
20
-32.0875075865424
30
0
41
1
10
69.9654981180154
20
-32.057028871131
30
0
41
1
10
69.9480487400853
20
-32.0292850017018
30
0
0
SPLINE
5
20A
100
AcDbEntity
8
1
62
256
6
ByLayer
370
13
48
1
60
0
100
AcDbSpline
70
4
71
3
72
16
73
12
40
0
40
0
40
0
40
0
40
0.113631665737396
40
0.113631665737396
40
0.758132216188138
40
0.758132216188138
40
0.942823120098959
40
0.942823120098959
40
0.947778003019264
40
0.947778003019264
40
1
40
1
40
1
40
1
41
1
10
68.2112677608008
20
-32.250514065676
30
0
41
1
10
68.2332807942053
20
-32.2435099968151
30
0
41
1
10
68.255408813319
20
-32.2368573490436
30
0
41
1
10
68.4026697940169
20
-32.1951695709071
30
0
41
1
10
68.5333481685156
20
-32.1724271814377
30
0
41
1
10
68.7009734748332
20
-32.173911714203
30
0
41
1
10
68.7386296238165
20
-32.1757179496403
30
0
41
1
10
68.7773004835499
20
-32.1770961044077
30
0
41
1
10
68.7783108496887
20
-32.1771321217411
30
0
41
1
10
68.7899699703881
20
-32.1775477649479
30
0
41
1
10
68.80061882194
20
-32.1779246783139
30
0
41
1
10
68.8112677608007
20
-32.1782990987158
30
0
0
SPLINE
5
20B
100
AcDbEntity
8
1
62
256
6
ByLayer
370
13
48
1
60
0
100
AcDbSpline
70
4
71
3
72
10
73
6
40
0
40
0
40
0
40
0
40
0.41187861913105
40
0.41187861913105
40
1
40
1
40
1
40
1
41
1
10
69.9970257408783
20
-33.8120344784687
30
0
41
1
10
69.9970257408783
20
-33.8351429843726
30
0
41
1
10
69.9938567437525
20
-33.8584250023016
30
0
41
1
10
69.9795589487909
20
-33.9124924134573
30
0
41
1
10
69.9654981180154
20
-33.9429711288687
30
0
41
1
10
69.9480487400853
20
-33.970714998298
30
0
0
SPLINE
5
20C
100
AcDbEntity
8
1
62
256
6
ByLayer
370
13
48
1
60
0
100
AcDbSpline
70
4
71
3
72
8
73
4
40
0
40
0
40
0
40
0
40
1
40
1
40
1
40
1
41
1
10
69.9480487400851
20
-32.0292850017018
30
0
41
1
10
69.9406964490065
20
-32.0199331036796
30
0
41
1
10
69.9332455329699
20
-32.0106846256969
30
0
41
1
10
69.9256851850747
20
-32.0015893930764
30
0
0
SPLINE
5
20D
100
AcDbEntity
8
1
62
256
6
ByLayer
370
13
48
1
60
0
100
AcDbSpline
70
4
71
3
72
8
73
4
40
0
40
0
40
0
40
0
40
1
40
1
40
1
40
1
41
1
10
69.9480487400851
20
-33.9707149982979
30
0
41
1
10
69.9406964490065
20
-33.98006689632
30
0
41
1
10
69.9332455329699
20
-33.9893153743027
30
0
41
1
10
69.9256851850747
20
-33.9984106069233
30
0
0
SPLINE
5
20E
100
AcDbEntity
8
1
62
256
6
ByLayer
370
18
48
1
60
0
100
AcDbSpline
70
4
71
3
72
10
73
6
40
0
40
0
40
0
40
0
40
0.212779332486078
40
0.212779332486078
40
1
40
1
40
1
40
1
41
1
10
58.1869028690682
20
-34.677841463352
30
0
41
1
10
58.1947459125518
20
-34.6810442374217
30
0
41
1
10
58.2026693586331
20
-34.6838945474544
30
0
41
1
10
58.2401025194281
20
-34.6955777253525
30
0
41
1
10
58.2706763772595
20
-34.6999999999998
30
0
41
1
10
58.3
20
-34.6999999999998
30
0
0
SPLINE
5
20F
100
AcDbEntity
8
1
62
256
6
ByLayer
370
18
48
1
60
0
100
AcDbSpline
70
4
71
3
72
10
73
6
40
0
40
0
40
0
40
0
40
0.826582342134819
40
0.826582342134819
40
1
40
1
40
1
40
1
41
1
10
58.3
20
-31.2999999999998
30
0
41
1
10
58.269042764099
20
-31.2999999999998
30
0
41
1
10
58.236660104769
20
-31.3049467723673
30
0
41
1
10
58.1991341599142
20
-31.3173819465624
30
0
41
1
10
58.1926581551495
20
-31.3197848150969
30
0
41
1
10
58.1862348207101
20
-31.3224268551201
30
0
0
SPLINE
5
210
100
AcDbEntity
8
1
62
256
6
ByLayer
370
13
48
1
60
0
100
AcDbSpline
70
4
71
3
72
12
73
8
40
0
40
0
40
0
40
0
40
0.39010501540954
40
0.39010501540954
40
0.395238792461496
40
0.395238792461496
40
1
40
1
40
1
40
1
41
1
10
68.8112677608007
20
-33.8217009012839
30
0
41
1
10
68.8930131894971
20
-33.8195931562564
30
0
41
1
10
68.9750694911574
20
-33.8191824040312
30
0
41
1
10
69.0568134956409
20
-33.8188969022386
30
0
41
1
10
69.057878637216
20
-33.8188932955295
30
0
41
1
10
69.1833815366516
20
-33.8184817236513
30
0
41
1
10
69.3061458913858
20
-33.8195856423833
30
0
41
1
10
69.4213727254144
20
-33.822720482236
30
0
0
SPLINE
5
211
100
AcDbEntity
8
1
62
256
6
ByLayer
370
13
48
1
60
0
100
AcDbSpline
70
4
71
3
72
12
73
8
40
0
40
0
40
0
40
0
40
0.39010501540954
40
0.39010501540954
40
0.395238792461496
40
0.395238792461496
40
1
40
1
40
1
40
1
41
1
10
68.8112677608007
20
-32.1782990987158
30
0
41
1
10
68.8930131894971
20
-32.1804068437433
30
0
41
1
10
68.9750694911574
20
-32.1808175959685
30
0
41
1
10
69.0568134956409
20
-32.1811030977611
30
0
41
1
10
69.057878637216
20
-32.1811067044702
30
0
41
1
10
69.1833815366516
20
-32.1815182763484
30
0
41
1
10
69.3061458913858
20
-32.1804143576165
30
0
41
1
10
69.4213727254144
20
-32.1772795177638
30
0
0
SPLINE
5
212
100
AcDbEntity
8
1
62
256
6
ByLayer
370
13
48
1
60
0
100
AcDbSpline
70
4
71
3
72
8
73
4
40
0
40
0
40
0
40
0
40
1
40
1
40
1
40
1
41
1
10
60.0740397982514
20
-31.3250009999998
30
0
41
1
10
60.0740398026121
20
-31.3166673333332
30
0
41
1
10
60.0740398069724
20
-31.3083336666665
30
0
41
1
10
60.0740398113324
20
-31.2999999999998
30
0
0
SPLINE
5
213
100
AcDbEntity
8
1
62
256
6
ByLayer
370
13
48
1
60
0
100
AcDbSpline
70
4
71
3
72
8
73
4
40
0
40
0
40
0
40
0
40
1
40
1
40
1
40
1
41
1
10
60.0740398113324
20
-34.6999999999998
30
0
41
1
10
60.0740398069724
20
-34.6916663333332
30
0
41
1
10
60.074039802612
20
-34.6833326666665
30
0
41
1
10
60.0740397982514
20
-34.6749989999999
30
0
0
SPLINE
5
214
100
AcDbEntity
8
1
62
256
6
ByLayer
370
13
48
1
60
0
100
AcDbSpline
70
4
71
3
72
8
73
4
40
0
40
0
40
0
40
0
40
1
40
1
40
1
40
1
41
1
10
60.0083240679326
20
-34.6749989999999
30
0
41
1
10
60.0083240679326
20
-34.6833326666665
30
0
41
1
10
60.0083240679326
20
-34.6916663333332
30
0
41
1
10
60.0083240679326
20
-34.6999999999998
30
0
0
SPLINE
5
215
100
AcDbEntity
8
1
62
256
6
ByLayer
370
18
48
1
60
0
100
AcDbSpline
70
4
71
3
72
14
73
10
40
0
40
0
40
0
40
0
40
2.49454458866E-05
40
0.702618794454769
40
0.792467529467181
40
0.812468433208223
40
0.845022366499195
40
0.877690761653481
40
1
40
1
40
1
40
1
41
1
10
63.0940281899384
20
-34.6999999999998
30
0
41
1
10
63.0940411490977
20
-34.6999999999998
30
0
41
1
10
63.4590514885965
20
-34.6999999999998
30
0
41
1
10
63.8665957239975
20
-34.6999999999998
30
0
41
1
10
64.276688140454
20
-34.6999999999998
30
0
41
1
10
64.3486320961792
20
-34.6999999999998
30
0
41
1
10
64.3911192099325
20
-34.6999999999998
30
0
41
1
10
64.4815867463963
20
-34.6999999999998
30
0
41
1
10
64.5482281661727
20
-34.6999999999998
30
0
41
1
10
64.5948827170793
20
-34.6999999999998
30
0
0
SPLINE
5
216
100
AcDbEntity
8
1
62
256
6
ByLayer
370
18
48
1
60
0
100
AcDbSpline
70
4
71
3
72
12
73
8
40
0
40
0
40
0
40
0
40
0.42509336529619
40
0.42509336529619
40
0.63310712595513
40
0.63310712595513
40
1
40
1
40
1
40
1
41
1
10
68.2587805434613
20
-31.097563617507
30
0
41
1
10
68.0933804472914
20
-31.1092081149523
30
0
41
1
10
67.9253561091228
20
-31.118301396226
30
0
41
1
10
67.6910861495544
20
-31.1269228507061
30
0
41
1
10
67.6154780531596
20
-31.1290083942046
30
0
41
1
10
67.4170751815051
20
-31.1325137277431
30
0
41
1
10
67.2995633762628
20
-31.132257574718
30
0
41
1
10
67.1981203716823
20
-31.1295411231325
30
0
0
SPLINE
5
217
100
AcDbEntity
8
1
62
256
6
ByLayer
370
18
48
1
60
0
100
AcDbSpline
70
4
71
3
72
16
73
12
40
0
40
0
40
0
40
0
40
0.196760955633402
40
0.508348567368135
40
0.819936179102867
40
0.858884630569709
40
0.878358856303129
40
0.88809596916984
40
0.89783308203655
40
0.975729984970233
40
1
40
1
40
1
40
1
41
1
10
60.0083240825036
20
-34.6999999999998
30
0
41
1
10
59.8982572451221
20
-34.6999999999998
30
0
41
1
10
59.6138938508502
20
-34.6999999999998
30
0
41
1
10
59.1552730786467
20
-34.6999999999998
30
0
41
1
10
58.7846982842063
20
-34.6999999999998
30
0
41
1
10
58.5778907405698
20
-34.6999999999998
30
0
41
1
10
58.5396427111087
20
-34.6999999999998
30
0
41
1
10
58.5180702984969
20
-34.6999999999998
30
0
41
1
10
58.4626446860048
20
-34.6999999999998
30
0
41
1
10
58.3900833075675
20
-34.6999999999998
30
0
41
1
10
58.3175211413097
20
-34.6999999999998
30
0
41
1
10
58.3000000000001
20
-34.6999999999998
30
0
0
SPLINE
5
218
100
AcDbEntity
8
1
62
256
6
ByLayer
370
18
48
1
60
0
100
AcDbSpline
70
4
71
3
72
16
73
12
40
0
40
0
40
0
40
0
40
0.211361443762593
40
0.211361443762593
40
0.422716290819052
40
0.422716290819052
40
0.633949151070055
40
0.633949151070055
40
0.842299705561758
40
0.842299705561758
40
1
40
1
40
1
40
1
41
1
10
70.0060954592073
20
-31.294781962994
30
0
41
1
10
70.0063878799804
20
-31.2602103763891
30
0
41
1
10
70.0007247736217
20
-31.2251648008462
30
0
41
1
10
69.9784973461869
20
-31.1599239857477
30
0
41
1
10
69.9616237145543
20
-31.1288209220541
30
0
41
1
10
69.9190960738524
20
-31.0748776608239
30
0
41
1
10
69.8928432477739
20
-31.0512774927974
30
0
41
1
10
69.8350670289677
20
-31.0152282213546
30
0
41
1
10
69.8027995289617
20
-31.0021316946025
30
0
41
1
10
69.744484454926
20
-30.9897148246123
30
0
41
1
10
69.7183039576486
20
-30.9877122736675
30
0
41
1
10
69.6925195383577
20
-30.9892198830585
30
0
0
SPLINE
5
219
100
AcDbEntity
8
1
62
256
6
ByLayer
370
18
48
1
60
0
100
AcDbSpline
70
4
71
3
72
8
73
4
40
0
40
0
40
0
40
0
40
1
40
1
40
1
40
1
41
1
10
62.9844087821128
20
-34.6999999999998
30
0
41
1
10
63.0172113217341
20
-34.6999999999998
30
0
41
1
10
63.0540512603422
20
-34.6999999999998
30
0
41
1
10
63.0940255880445
20
-34.6999999999998
30
0
0
SPLINE
5
21A
100
AcDbEntity
8
1
62
256
6
ByLayer
370
18
48
1
60
0
100
AcDbSpline
70
4
71
3
72
8
73
4
40
0
40
0
40
0
40
0
40
1
40
1
40
1
40
1
41
1
10
68.7587805434613
20
-34.9376373821144
30
0
41
1
10
68.8751145296814
20
-34.9458275273242
30
0
41
1
10
68.9917705115932
20
-34.9550344158145
30
0
41
1
10
69.1060768987951
20
-34.9650405081988
30
0
0
SPLINE
5
21B
100
AcDbEntity
8
1
62
256
6
ByLayer
370
18
48
1
60
0
100
AcDbSpline
70
4
71
1
72
4
73
2
40
0
40
0
40
1
40
1
41
1
10
60.2733329548635
20
-34.6999999999998
30
0
41
1
10
60.0740398113324
20
-34.6999999999998
30
0
0
SPLINE
5
21C
100
AcDbEntity
8
1
62
256
6
ByLayer
370
18
48
1
60
0
100
AcDbSpline
70
4
71
3
72
14
73
10
40
0
40
0
40
0
40
0
40
0.208299027735494
40
0.208299027735494
40
0.416431647973881
40
0.416431647973881
40
0.624564826978372
40
0.624564826978372
40
1
40
1
40
1
40
1
41
1
10
67.1981203716814
20
-34.8704588768681
30
0
41
1
10
67.2559629158584
20
-34.868909963057
30
0
41
1
10
67.3188120459094
20
-34.8681531253791
30
0
41
1
10
67.4519206443794
20
-34.8682600662139
30
0
41
1
10
67.5226293120466
20
-34.8691229557037
30
0
41
1
10
67.6695068973413
20
-34.8724339807096
30
0
41
1
10
67.7461789808539
20
-34.8748934627583
30
0
41
1
10
67.9647101978241
20
-34.8838549306265
30
0
41
1
10
68.112666896291
20
-34.8921496896145
30
0
41
1
10
68.2587805434601
20
-34.9024363824919
30
0
0
SPLINE
5
21D
100
AcDbEntity
8
1
62
256
6
ByLayer
370
18
48
1
60
0
100
AcDbSpline
70
4
71
3
72
8
73
4
40
0
40
0
40
0
40
0
40
1
40
1
40
1
40
1
41
1
10
66.285022192013
20
-31.1745910419866
30
0
41
1
10
66.2448570829341
20
-31.1832834012282
30
0
41
1
10
66.2055404050446
20
-31.1981914663188
30
0
41
1
10
66.1699547982735
20
-31.2182267800329
30
0
0
SPLINE
5
21E
100
AcDbEntity
8
1
62
256
6
ByLayer
370
18
48
1
60
0
100
AcDbSpline
70
4
71
3
72
8
73
4
40
0
40
0
40
0
40
0
40
1
40
1
40
1
40
1
41
1
10
69.1060768987951
20
-31.0349594918009
30
0
41
1
10
68.9917705115932
20
-31.0449655841852
30
0
41
1
10
68.8751145296814
20
-31.0541724726755
30
0
41
1
10
68.7587805434613
20
-31.0623626178854
30
0
0
SPLINE
5
21F
100
AcDbEntity
8
1
62
256
6
ByLayer
370
18
48
1
60
0
100
AcDbSpline
70
4
71
3
72
10
73
6
40
0
40
0
40
0
40
0
40
0.658092800347461
40
0.658092800347461
40
1
40
1
40
1
40
1
41
1
10
66.0726381143077
20
-34.7275923210766
30
0
41
1
10
66.0503265951329
20
-34.7153131761917
30
0
41
1
10
66.0257492517909
20
-34.7071403835229
30
0
41
1
10
65.9885109918381
20
-34.7010170305406
30
0
41
1
10
65.9755836924548
20
-34.6999999999998
30
0
41
1
10
65.9628139582057
20
-34.6999999999998
30
0
0
SPLINE
5
220
100
AcDbEntity
8
1
62
256
6
ByLayer
370
18
48
1
60
0
100
AcDbSpline
70
4
71
3
72
8
73
4
40
0
40
0
40
0
40
0
40
1
40
1
40
1
40
1
41
1
10
66.1699547982735
20
-34.7817732199668
30
0
41
1
10
66.2055404050452
20
-34.8018085336812
30
0
41
1
10
66.2448570829354
20
-34.8167165987719
30
0
41
1
10
66.2850221920149
20
-34.8254089580135
30
0
0
SPLINE
5
221
100
AcDbEntity
8
1
62
256
6
ByLayer
370
18
48
1
60
0
100
AcDbSpline
70
4
71
3
72
16
73
12
40
0
40
0
40
0
40
0
40
0.201783384736309
40
0.201783384736309
40
0.40337786454364
40
0.40337786454364
40
0.60783295932887
40
0.60783295932887
40
0.816478248424763
40
0.816478248424763
40
1
40
1
40
1
40
1
41
1
10
69.6925195383577
20
-35.0107801169412
30
0
41
1
10
69.7253231085993
20
-35.0126981345625
30
0
41
1
10
69.7588610300669
20
-35.0088779817091
30
0
41
1
10
69.8217991281965
20
-34.9905770934465
30
0
41
1
10
69.8520629393796
20
-34.9758656033463
30
0
41
1
10
69.9058024815465
20
-34.9376143310754
30
0
41
1
10
69.9299089005271
20
-34.9134414142565
30
0
41
1
10
69.9688991836001
20
-34.8587015844237
30
0
41
1
10
69.9841231155448
20
-34.8272666741768
30
0
41
1
10
70.002113628816
20
-34.7657679170015
30
0
41
1
10
70.0063502038844
20
-34.7353353490279
30
0
41
1
10
70.0060954592073
20
-34.7052180370057
30
0
0
SPLINE
5
222
100
AcDbEntity
8
1
62
256
6
ByLayer
370
18
48
1
60
0
100
AcDbSpline
70
4
71
3
72
10
73
6
40
0
40
0
40
0
40
0
40
0.67805397343686
40
0.67805397343686
40
1
40
1
40
1
40
1
41
1
10
65.9628139582058
20
-31.2999999999998
30
0
41
1
10
65.9878743353474
20
-31.2999999999998
30
0
41
1
10
66.0137719550684
20
-31.2960015563357
30
0
41
1
10
66.0500459353044
20
-31.2835568869416
30
0
41
1
10
66.0616013632273
20
-31.2784817550345
30
0
41
1
10
66.0726381143083
20
-31.2724076789253
30
0
0
LINE
5
70
100
AcDbEntity
8
1
62
256
6
ByLayer
370
13
48
1
60
0
100
AcDbLine
10
0.3
20
25
30
0
11
0
21
24.7
31
0
39
0
210
0
220
0
230
1
0
LINE
5
72
100
AcDbEntity
8
1
62
256
6
ByLayer
370
13
48
1
60
0
100
AcDbLine
10
0
20
-24.7
30
0
11
0.3
21
-25
31
0
39
0
210
0
220
0
230
1
0
LINE
5
73
100
AcDbEntity
8
1
62
256
6
ByLayer
370
13
48
1
60
0
100
AcDbLine
10
21.438319
20
-25.889417
30
0
11
23.792408
21
-34.675
31
0
39
0
210
0
220
0
230
1
0
LINE
5
74
100
AcDbEntity
8
1
62
256
6
ByLayer
370
13
48
1
60
0
100
AcDbLine
10
0.3
20
-25
30
0
11
20.279208
21
-25
31
0
39
0
210
0
220
0
230
1
0
LINE
5
75
100
AcDbEntity
8
1
62
256
6
ByLayer
370
13
48
1
60
0
100
AcDbLine
10
20.02334
20
25
30
0
11
0.3
21
25
31
0
39
0
210
0
220
0
230
1
0
LINE
5
76
100
AcDbEntity
8
80
62
256
6
ByLayer
370
18
48
1
60
0
100
AcDbLine
10
0
20
0
30
0
11
-5
21
0
31
0
39
0
210
0
220
0
230
1
0
LINE
5
77
100
AcDbEntity
8
81
62
256
6
ByLayer
370
18
48
1
60
0
100
AcDbLine
10
70
20
-35
30
0
11
75
21
-35
31
0
39
0
210
0
220
0
230
1
0
LINE
5
78
100
AcDbEntity
8
SK1
62
256
6
ByLayer
370
13
48
1
60
0
100
AcDbLine
10
-1.315435
20
-3.910269
30
0
11
-1.315435
21
3.910272
31
0
39
0
210
0
220
0
230
1
0
LINE
5
7A
100
AcDbEntity
8
SK1
62
256
6
ByLayer
370
13
48
1
60
0
100
AcDbLine
10
-0.194977
20
17.369987
30
0
11
-0.194977
21
17.365289
31
0
39
0
210
0
220
0
230
1
0
LINE
5
7B
100
AcDbEntity
8
SK1
62
256
6
ByLayer
370
13
48
1
60
0
100
AcDbLine
10
-0.194977
20
-17.36529
30
0
11
-0.194977
21
-17.369987
31
0
39
0
210
0
220
0
230
1
0
LINE
5
7C
100
AcDbEntity
8
SK1
62
256
6
ByLayer
370
13
48
1
60
0
100
AcDbLine
10
-1.79504
20
17.330272
30
0
11
-1.79504
21
17.325755
31
0
39
0
210
0
220
0
230
1
0
LINE
5
7D
100
AcDbEntity
8
SK1
62
256
6
ByLayer
370
13
48
1
60
0
100
AcDbLine
10
-1.79504
20
-17.325755
30
0
11
-1.79504
21
-17.330272
31
0
39
0
210
0
220
0
230
1
0
LINE
5
7E
100
AcDbEntity
8
1
62
256
6
ByLayer
370
13
48
1
60
0
100
AcDbLine
10
11.461325
20
-23.83913
30
0
11
11.461325
21
-7.529667
31
0
39
0
210
0
220
0
230
1
0
LINE
5
7F
100
AcDbEntity
8
1
62
256
6
ByLayer
370
13
48
1
60
0
100
AcDbLine
10
64.301732
20
-33.685905
30
0
11
64.301732
21
-32.314095
31
0
39
0
210
0
220
0
230
1
0
LINE
5
80
100
AcDbEntity
8
1
62
256
6
ByLayer
370
13
48
1
60
0
100
AcDbLine
10
24.115124
20
-32.848054
30
0
11
24.115124
21
10.5
31
0
39
0
210
0
220
0
230
1
0
LINE
5
81
100
AcDbEntity
8
1
62
256
6
ByLayer
370
13
48
1
60
0
100
AcDbLine
10
24.115124
20
10.5
30
0
11
34.548567
21
10.5
31
0
39
0
210
0
220
0
230
1
0
LINE
5
82
100
AcDbEntity
8
1
62
256
6
ByLayer
370
13
48
1
60
0
100
AcDbLine
10
20.076013
20
18.964249
30
0
11
20.115276
21
14.465094
31
0
39
0
210
0
220
0
230
1
0
LINE
5
83
100
AcDbEntity
8
1
62
256
6
ByLayer
370
13
48
1
60
0
100
AcDbLine
10
38.200279
20
-34.675
30
0
11
24.026081
21
-34.675
31
0
39
0
210
0
220
0
230
1
0
LINE
5
84
100
AcDbEntity
8
1
62
256
6
ByLayer
370
13
48
1
60
0
100
AcDbLine
10
8.538675
20
-23.83913
30
0
11
8.538675
21
-7.529667
31
0
39
0
210
0
220
0
230
1
0
LINE
5
85
100
AcDbEntity
8
1
62
256
6
ByLayer
370
13
48
1
60
0
100
AcDbLine
10
45.9
20
-31.325
30
0
11
38.200279
21
-31.325
31
0
39
0
210
0
220
0
230
1
0
LINE
5
86
100
AcDbEntity
8
1
62
256
6
ByLayer
370
13
48
1
60
0
100
AcDbLine
10
11.894338
20
8.055848
30
0
11
11.894338
21
23.666502
31
0
39
0
210
0
220
0
230
1
0
LINE
5
87
100
AcDbEntity
8
1
62
256
6
ByLayer
370
13
48
1
60
0
100
AcDbLine
10
0.3
20
25
30
0
11
0.3
21
-25
31
0
39
0
210
0
220
0
230
1
0
LINE
5
88
100
AcDbEntity
8
1
62
256
6
ByLayer
370
13
48
1
60
0
100
AcDbLine
10
8.538675
20
7.529667
30
0
11
8.538675
21
23.83913
31
0
39
0
210
0
220
0
230
1
0
LINE
5
89
100
AcDbEntity
8
1
62
256
6
ByLayer
370
13
48
1
60
0
100
AcDbLine
10
64.301732
20
-32.314095
30
0
11
64.301732
21
-31.79966
31
0
39
0
210
0
220
0
230
1
0
LINE
5
8A
100
AcDbEntity
8
1
62
256
6
ByLayer
370
13
48
1
60
0
100
AcDbLine
10
36.4
20
0
30
0
11
34.548567
21
10.5
31
0
39
0
210
0
220
0
230
1
0
LINE
5
8B
100
AcDbEntity
8
1
62
256
6
ByLayer
370
13
48
1
60
0
100
AcDbLine
10
8.105662
20
8.055848
30
0
11
8.105662
21
23.666502
31
0
39
0
210
0
220
0
230
1
0
LINE
5
8C
100
AcDbEntity
8
1
62
256
6
ByLayer
370
13
48
1
60
0
100
AcDbLine
10
8.538675
20
23.83913
30
0
11
11.461325
21
23.83913
31
0
39
0
210
0
220
0
230
1
0
LINE
5
8D
100
AcDbEntity
8
1
62
256
6
ByLayer
370
13
48
1
60
0
100
AcDbLine
10
53.273801
20
-34.675
30
0
11
45.9
21
-34.675
31
0
39
0
210
0
220
0
230
1
0
LINE
5
8E
100
AcDbEntity
8
1
62
256
6
ByLayer
370
13
48
1
60
0
100
AcDbLine
10
11.461325
20
7.529667
30
0
11
11.461325
21
23.83913
31
0
39
0
210
0
220
0
230
1
0
LINE
5
8F
100
AcDbEntity
8
1
62
256
6
ByLayer
370
13
48
1
60
0
100
AcDbLine
10
45.9
20
-34.675
30
0
11
45.9
21
-31.325
31
0
39
0
210
0
220
0
230
1
0
LINE
5
90
100
AcDbEntity
8
1
62
256
6
ByLayer
370
13
48
1
60
0
100
AcDbLine
10
45.9
20
-31.325
30
0
11
53.273801
21
-31.325
31
0
39
0
210
0
220
0
230
1
0
LINE
5
91
100
AcDbEntity
8
1
62
256
6
ByLayer
370
13
48
1
60
0
100
AcDbLine
10
24.115124
20
-32.848054
30
0
11
23.549204
21
-32.848054
31
0
39
0
210
0
220
0
230
1
0
LINE
5
92
100
AcDbEntity
8
1
62
256
6
ByLayer
370
13
48
1
60
0
100
AcDbLine
10
11.894338
20
-23.666502
30
0
11
11.894338
21
-8.055848
31
0
39
0
210
0
220
0
230
1
0
LINE
5
93
100
AcDbEntity
8
1
62
256
6
ByLayer
370
13
48
1
60
0
100
AcDbLine
10
64.155966
20
-31.325
30
0
11
64.301732
21
-31.79966
31
0
39
0
210
0
220
0
230
1
0
LINE
5
94
100
AcDbEntity
8
1
62
256
6
ByLayer
370
13
48
1
60
0
100
AcDbLine
10
11.461325
20
7.529667
30
0
11
8.538675
21
7.529667
31
0
39
0
210
0
220
0
230
1
0
LINE
5
95
100
AcDbEntity
8
1
62
256
6
ByLayer
370
13
48
1
60
0
100
AcDbLine
10
0
20
24.7
30
0
11
0
21
-24.7
31
0
39
0
210
0
220
0
230
1
0
LINE
5
96
100
AcDbEntity
8
1
62
256
6
ByLayer
370
13
48
1
60
0
100
AcDbLine
10
38.200279
20
-31.325
30
0
11
38.200279
21
-34.675
31
0
39
0
210
0
220
0
230
1
0
LINE
5
97
100
AcDbEntity
8
1
62
256
6
ByLayer
370
13
48
1
60
0
100
AcDbLine
10
64.301732
20
-34.20034
30
0
11
64.155966
21
-34.675
31
0
39
0
210
0
220
0
230
1
0
LINE
5
98
100
AcDbEntity
8
1
62
256
6
ByLayer
370
13
48
1
60
0
100
AcDbLine
10
20.076013
20
18.964249
30
0
11
20.02334
21
25
31
0
39
0
210
0
220
0
230
1
0
LINE
5
99
100
AcDbEntity
8
1
62
256
6
ByLayer
370
13
48
1
60
0
100
AcDbLine
10
58.273801
20
-34.675
30
0
11
58.273801
21
-31.325
31
0
39
0
210
0
220
0
230
1
0
LINE
5
9A
100
AcDbEntity
8
1
62
256
6
ByLayer
370
13
48
1
60
0
100
AcDbLine
10
53.273801
20
-31.325
30
0
11
53.273801
21
-34.675
31
0
39
0
210
0
220
0
230
1
0
LINE
5
9B
100
AcDbEntity
8
1
62
256
6
ByLayer
370
13
48
1
60
0
100
AcDbLine
10
21.438319
20
-24.328635
30
0
11
21.438319
21
-25.889417
31
0
39
0
210
0
220
0
230
1
0
LINE
5
9C
100
AcDbEntity
8
1
62
256
6
ByLayer
370
13
48
1
60
0
100
AcDbLine
10
53.273801
20
-31.325
30
0
11
58.273801
21
-31.325
31
0
39
0
210
0
220
0
230
1
0
LINE
5
9D
100
AcDbEntity
8
1
62
256
6
ByLayer
370
13
48
1
60
0
100
AcDbLine
10
36.4
20
-29.725
30
0
11
36.4
21
0
31
0
39
0
210
0
220
0
230
1
0
LINE
5
9E
100
AcDbEntity
8
1
62
256
6
ByLayer
370
13
48
1
60
0
100
AcDbLine
10
20.279208
20
-25
30
0
11
20.279208
21
-22.598428
31
0
39
0
210
0
220
0
230
1
0
LINE
5
9F
100
AcDbEntity
8
1
62
256
6
ByLayer
370
13
48
1
60
0
100
AcDbLine
10
8.105662
20
-23.666502
30
0
11
8.105662
21
-8.055848
31
0
39
0
210
0
220
0
230
1
0
LINE
5
A0
100
AcDbEntity
8
1
62
256
6
ByLayer
370
13
48
1
60
0
100
AcDbLine
10
8.538675
20
-7.529667
30
0
11
11.461325
21
-7.529667
31
0
39
0
210
0
220
0
230
1
0
LINE
5
A1
100
AcDbEntity
8
1
62
256
6
ByLayer
370
13
48
1
60
0
100
AcDbLine
10
58.273801
20
-34.675
30
0
11
64.155966
21
-34.675
31
0
39
0
210
0
220
0
230
1
0
LINE
5
A2
100
AcDbEntity
8
1
62
256
6
ByLayer
370
13
48
1
60
0
100
AcDbLine
10
20.115276
20
14.465094
30
0
11
20.115276
21
-22.044975
31
0
39
0
210
0
220
0
230
1
0
LINE
5
A3
100
AcDbEntity
8
1
62
256
6
ByLayer
370
13
48
1
60
0
100
AcDbLine
10
64.301732
20
-34.20034
30
0
11
64.301732
21
-33.685905
31
0
39
0
210
0
220
0
230
1
0
LINE
5
A4
100
AcDbEntity
8
1
62
256
6
ByLayer
370
13
48
1
60
0
100
AcDbLine
10
58.273801
20
-31.325
30
0
11
64.155966
21
-31.325
31
0
39
0
210
0
220
0
230
1
0
LINE
5
A5
100
AcDbEntity
8
1
62
256
6
ByLayer
370
13
48
1
60
0
100
AcDbLine
10
38.200279
20
-31.325
30
0
11
38
21
-31.325
31
0
39
0
210
0
220
0
230
1
0
LINE
5
A6
100
AcDbEntity
8
1
62
256
6
ByLayer
370
13
48
1
60
0
100
AcDbLine
10
11.461325
20
-23.83913
30
0
11
8.538675
21
-23.83913
31
0
39
0
210
0
220
0
230
1
0
LINE
5
A7
100
AcDbEntity
8
1
62
256
6
ByLayer
370
13
48
1
60
0
100
AcDbLine
10
53.273801
20
-34.675
30
0
11
58.273801
21
-34.675
31
0
39
0
210
0
220
0
230
1
0
LINE
5
A8
100
AcDbEntity
8
1
62
256
6
ByLayer
370
13
48
1
60
0
100
AcDbLine
10
45.9
20
-34.675
30
0
11
38.200279
21
-34.675
31
0
39
0
210
0
220
0
230
1
0
LINE
5
A9
100
AcDbEntity
8
1
62
256
6
ByLayer
370
13
48
1
60
0
100
AcDbLine
10
65.153178
20
-32.304612
30
0
11
66.861239
21
-32.304612
31
0
39
0
210
0
220
0
230
1
0
LINE
5
AA
100
AcDbEntity
8
1
62
256
6
ByLayer
370
13
48
1
60
0
100
AcDbLine
10
65.153178
20
-33.695388
30
0
11
66.861239
21
-33.695388
31
0
39
0
210
0
220
0
230
1
0
LINE
5
AB
100
AcDbEntity
8
1
62
256
6
ByLayer
370
13
48
1
60
0
100
AcDbLine
10
65.153178
20
-32.304612
30
0
11
65.372244
21
-32.258948
31
0
39
0
210
0
220
0
230
1
0
LINE
5
AC
100
AcDbEntity
8
1
62
256
6
ByLayer
370
13
48
1
60
0
100
AcDbLine
10
66.290882
20
-32.229337
30
0
11
66.611711
21
-32.20906
31
0
39
0
210
0
220
0
230
1
0
LINE
5
AD
100
AcDbEntity
8
1
62
256
6
ByLayer
370
13
48
1
60
0
100
AcDbLine
10
66.611711
20
-33.79094
30
0
11
66.290882
21
-33.770663
31
0
39
0
210
0
220
0
230
1
0
LINE
5
AE
100
AcDbEntity
8
1
62
256
6
ByLayer
370
13
48
1
60
0
100
AcDbLine
10
65.372244
20
-33.741052
30
0
11
65.153178
21
-33.695388
31
0
39
0
210
0
220
0
230
1
0
LINE
5
AF
100
AcDbEntity
8
1
62
256
6
ByLayer
370
13
48
1
60
0
100
AcDbLine
10
64.594883
20
-34.558521
30
0
11
64.594883
21
-34.7
31
0
39
0
210
0
220
0
230
1
0
LINE
5
B0
100
AcDbEntity
8
1
62
256
6
ByLayer
370
13
48
1
60
0
100
AcDbLine
10
64.594883
20
-31.3
30
0
11
64.594883
21
-31.441479
31
0
39
0
210
0
220
0
230
1
0
LINE
5
B1
100
AcDbEntity
8
1
62
256
6
ByLayer
370
13
48
1
60
0
100
AcDbLine
10
65.332182
20
-34.7
30
0
11
65.332182
21
-33.83377
31
0
39
0
210
0
220
0
230
1
0
LINE
5
B2
100
AcDbEntity
8
1
62
256
6
ByLayer
370
13
48
1
60
0
100
AcDbLine
10
65.962511
20
-33.867234
30
0
11
65.962511
21
-34.7
31
0
39
0
210
0
220
0
230
1
0
LINE
5
B3
100
AcDbEntity
8
1
62
256
6
ByLayer
370
13
48
1
60
0
100
AcDbLine
10
65.962511
20
-31.3
30
0
11
65.962511
21
-32.132766
31
0
39
0
210
0
220
0
230
1
0
LINE
5
B4
100
AcDbEntity
8
1
62
256
6
ByLayer
370
13
48
1
60
0
100
AcDbLine
10
65.332182
20
-31.3
30
0
11
65.332182
21
-32.16623
31
0
39
0
210
0
220
0
230
1
0
LINE
5
B5
100
AcDbEntity
8
1
62
256
6
ByLayer
370
13
48
1
60
0
100
AcDbLine
10
66.285022
20
-34.825409
30
0
11
66.285022
21
-33.863381
31
0
39
0
210
0
220
0
230
1
0
LINE
5
B6
100
AcDbEntity
8
1
62
256
6
ByLayer
370
13
48
1
60
0
100
AcDbLine
10
66.285022
20
-33.863381
30
0
11
66.605851
21
-33.883659
31
0
39
0
210
0
220
0
230
1
0
LINE
5
B7
100
AcDbEntity
8
1
62
256
6
ByLayer
370
13
48
1
60
0
100
AcDbLine
10
66.856902
20
-34.869491
30
0
11
66.802267
21
-34.088169
31
0
39
0
210
0
220
0
230
1
0
LINE
5
B8
100
AcDbEntity
8
1
62
256
6
ByLayer
370
13
48
1
60
0
100
AcDbLine
10
66.856902
20
-31.130509
30
0
11
66.802267
21
-31.911831
31
0
39
0
210
0
220
0
230
1
0
LINE
5
B9
100
AcDbEntity
8
1
62
256
6
ByLayer
370
13
48
1
60
0
100
AcDbLine
10
66.605851
20
-32.116341
30
0
11
66.285022
21
-32.136619
31
0
39
0
210
0
220
0
230
1
0
LINE
5
BA
100
AcDbEntity
8
1
62
256
6
ByLayer
370
13
48
1
60
0
100
AcDbLine
10
66.285022
20
-32.136619
30
0
11
66.285022
21
-31.174591
31
0
39
0
210
0
220
0
230
1
0
LINE
5
BB
100
AcDbEntity
8
1
62
256
6
ByLayer
370
13
48
1
60
0
100
AcDbLine
10
66.285022
20
-33.863381
30
0
11
66.290882
21
-33.770663
31
0
39
0
210
0
220
0
230
1
0
LINE
5
BC
100
AcDbEntity
8
1
62
256
6
ByLayer
370
13
48
1
60
0
100
AcDbLine
10
66.290882
20
-32.229337
30
0
11
66.285022
21
-32.136619
31
0
39
0
210
0
220
0
230
1
0
LINE
5
BD
100
AcDbEntity
8
1
62
256
6
ByLayer
370
13
48
1
60
0
100
AcDbLine
10
66.605851
20
-33.883659
30
0
11
66.611711
21
-33.79094
31
0
39
0
210
0
220
0
230
1
0
LINE
5
BE
100
AcDbEntity
8
1
62
256
6
ByLayer
370
13
48
1
60
0
100
AcDbLine
10
66.611711
20
-32.20906
30
0
11
66.605851
21
-32.116341
31
0
39
0
210
0
220
0
230
1
0
LINE
5
BF
100
AcDbEntity
8
1
62
256
6
ByLayer
370
13
48
1
60
0
100
AcDbLine
10
66.978644
20
-31.926809
30
0
11
67.0347
21
-31.125165
31
0
39
0
210
0
220
0
230
1
0
LINE
5
C0
100
AcDbEntity
8
1
62
256
6
ByLayer
370
13
48
1
60
0
100
AcDbLine
10
66.978644
20
-34.073191
30
0
11
67.0347
21
-34.874835
31
0
39
0
210
0
220
0
230
1
0
LINE
5
C1
100
AcDbEntity
8
1
62
256
6
ByLayer
370
13
48
1
60
0
100
AcDbLine
10
65.113116
20
-33.788106
30
0
11
65.332182
21
-33.83377
31
0
39
0
210
0
220
0
230
1
0
LINE
5
C2
100
AcDbEntity
8
1
62
256
6
ByLayer
370
13
48
1
60
0
100
AcDbLine
10
65.332182
20
-32.16623
30
0
11
65.113116
21
-32.211894
31
0
39
0
210
0
220
0
230
1
0
LINE
5
C3
100
AcDbEntity
8
1
62
256
6
ByLayer
370
13
48
1
60
0
100
AcDbLine
10
64.629386
20
-34.7
30
0
11
64.629386
21
-34.546038
31
0
39
0
210
0
220
0
230
1
0
LINE
5
C4
100
AcDbEntity
8
1
62
256
6
ByLayer
370
13
48
1
60
0
100
AcDbLine
10
64.629386
20
-31.453962
30
0
11
64.629386
21
-31.3
31
0
39
0
210
0
220
0
230
1
0
LINE
5
C5
100
AcDbEntity
8
1
62
256
6
ByLayer
370
13
48
1
60
0
100
AcDbLine
10
68.258781
20
-31.641153
30
0
11
68.258781
21
-31.097564
31
0
39
0
210
0
220
0
230
1
0
LINE
5
C6
100
AcDbEntity
8
1
62
256
6
ByLayer
370
13
48
1
60
0
100
AcDbLine
10
67.19812
20
-31.895483
30
0
11
67.19812
21
-31.129541
31
0
39
0
210
0
220
0
230
1
0
LINE
5
C7
100
AcDbEntity
8
1
62
256
6
ByLayer
370
13
48
1
60
0
100
AcDbLine
10
67.19812
20
-34.104517
30
0
11
67.19812
21
-34.870459
31
0
39
0
210
0
220
0
230
1
0
LINE
5
C8
100
AcDbEntity
8
1
62
256
6
ByLayer
370
13
48
1
60
0
100
AcDbLine
10
68.258781
20
-34.358847
30
0
11
68.258781
21
-34.902436
31
0
39
0
210
0
220
0
230
1
0
LINE
5
C9
100
AcDbEntity
8
1
62
256
6
ByLayer
370
13
48
1
60
0
100
AcDbLine
10
68.114687
20
-31.946971
30
0
11
68.211268
21
-32.250514
31
0
39
0
210
0
220
0
230
1
0
LINE
5
CA
100
AcDbEntity
8
1
62
256
6
ByLayer
370
13
48
1
60
0
100
AcDbLine
10
68.114687
20
-34.053029
30
0
11
68.211268
21
-33.749486
31
0
39
0
210
0
220
0
230
1
0
LINE
5
CB
100
AcDbEntity
8
1
62
256
6
ByLayer
370
13
48
1
60
0
100
AcDbLine
10
68.211268
20
-32.250514
30
0
11
68.211268
21
-33.749486
31
0
39
0
210
0
220
0
230
1
0
LINE
5
CC
100
AcDbEntity
8
1
62
256
6
ByLayer
370
13
48
1
60
0
100
AcDbLine
10
70.000117
20
-32.001589
30
0
11
69.925685
21
-32.001589
31
0
39
0
210
0
220
0
230
1
0
LINE
5
CD
100
AcDbEntity
8
1
62
256
6
ByLayer
370
13
48
1
60
0
100
AcDbLine
10
69.535516
20
-31.69265
30
0
11
69.535516
21
-30.9984
31
0
39
0
210
0
220
0
230
1
0
LINE
5
CE
100
AcDbEntity
8
1
62
256
6
ByLayer
370
13
48
1
60
0
100
AcDbLine
10
69.535516
20
-34.30735
30
0
11
69.535516
21
-35.0016
31
0
39
0
210
0
220
0
230
1
0
LINE
5
CF
100
AcDbEntity
8
1
62
256
6
ByLayer
370
13
48
1
60
0
100
AcDbLine
10
70.000117
20
-33.998411
30
0
11
69.925685
21
-33.998411
31
0
39
0
210
0
220
0
230
1
0
LINE
5
D0
100
AcDbEntity
8
1
62
256
6
ByLayer
370
13
48
1
60
0
100
AcDbLine
10
69.46476
20
-31.003561
30
0
11
69.46476
21
-31.640033
31
0
39
0
210
0
220
0
230
1
0
LINE
5
D1
100
AcDbEntity
8
1
62
256
6
ByLayer
370
13
48
1
60
0
100
AcDbLine
10
69.106077
20
-31.591486
30
0
11
69.106077
21
-31.034959
31
0
39
0
210
0
220
0
230
1
0
LINE
5
D2
100
AcDbEntity
8
1
62
256
6
ByLayer
370
13
48
1
60
0
100
AcDbLine
10
69.106077
20
-34.408514
30
0
11
69.106077
21
-34.965041
31
0
39
0
210
0
220
0
230
1
0
LINE
5
D3
100
AcDbEntity
8
1
62
256
6
ByLayer
370
13
48
1
60
0
100
AcDbLine
10
69.46476
20
-34.996439
30
0
11
69.46476
21
-34.359967
31
0
39
0
210
0
220
0
230
1
0
LINE
5
D4
100
AcDbEntity
8
1
62
256
6
ByLayer
370
13
48
1
60
0
100
AcDbLine
10
68.758781
20
-34.412054
30
0
11
68.758781
21
-34.937637
31
0
39
0
210
0
220
0
230
1
0
LINE
5
D5
100
AcDbEntity
8
1
62
256
6
ByLayer
370
13
48
1
60
0
100
AcDbLine
10
68.758781
20
-31.587946
30
0
11
68.758781
21
-31.062363
31
0
39
0
210
0
220
0
230
1
0
LINE
5
D6
100
AcDbEntity
8
1
62
256
6
ByLayer
370
13
48
1
60
0
100
AcDbLine
10
65.350545
20
-33
30
0
11
65.302842
21
-33
31
0
39
0
210
0
220
0
230
1
0
LINE
5
D7
100
AcDbEntity
8
1
62
256
6
ByLayer
370
13
48
1
60
0
100
AcDbLine
10
68.82193
20
-34.12494
30
0
11
68.811268
21
-33.821701
31
0
39
0
210
0
220
0
230
1
0
LINE
5
D8
100
AcDbEntity
8
1
62
256
6
ByLayer
370
13
48
1
60
0
100
AcDbLine
10
69.944165
20
-32.187966
30
0
11
69.997026
21
-32.187966
31
0
39
0
210
0
220
0
230
1
0
LINE
5
D9
100
AcDbEntity
8
1
62
256
6
ByLayer
370
13
48
1
60
0
100
AcDbLine
10
68.82193
20
-31.87506
30
0
11
68.811268
21
-32.178299
31
0
39
0
210
0
220
0
230
1
0
LINE
5
DA
100
AcDbEntity
8
1
62
256
6
ByLayer
370
13
48
1
60
0
100
AcDbLine
10
69.944165
20
-33.812034
30
0
11
69.997026
21
-33.812034
31
0
39
0
210
0
220
0
230
1
0
LINE
5
DB
100
AcDbEntity
8
1
62
256
6
ByLayer
370
13
48
1
60
0
100
AcDbLine
10
69.948049
20
-33.970715
30
0
11
70
21
-33.970715
31
0
39
0
210
0
220
0
230
1
0
LINE
5
DC
100
AcDbEntity
8
1
62
256
6
ByLayer
370
13
48
1
60
0
100
AcDbLine
10
69.997026
20
-33.812034
30
0
11
69.997026
21
-32.187966
31
0
39
0
210
0
220
0
230
1
0
LINE
5
DD
100
AcDbEntity
8
1
62
256
6
ByLayer
370
13
48
1
60
0
100
AcDbLine
10
69.948049
20
-32.029285
30
0
11
70
21
-32.029285
31
0
39
0
210
0
220
0
230
1
0
LINE
5
DE
100
AcDbEntity
8
1
62
256
6
ByLayer
370
13
48
1
60
0
100
AcDbLine
10
69.944165
20
-32.187966
30
0
11
69.944165
21
-33.812034
31
0
39
0
210
0
220
0
230
1
0
LINE
5
DF
100
AcDbEntity
8
1
62
256
6
ByLayer
370
13
48
1
60
0
100
AcDbLine
10
69.421373
20
-32.17728
30
0
11
69.421373
21
-33.82272
31
0
39
0
210
0
220
0
230
1
0
LINE
5
E0
100
AcDbEntity
8
1
62
256
6
ByLayer
370
13
48
1
60
0
100
AcDbLine
10
68.811268
20
-32.178299
30
0
11
68.811268
21
-33.821701
31
0
39
0
210
0
220
0
230
1
0
LINE
5
E1
100
AcDbEntity
8
1
62
256
6
ByLayer
370
18
48
1
60
0
100
AcDbLine
10
67.19812
20
-31.129541
30
0
11
67.0347
21
-31.125165
31
0
39
0
210
0
220
0
230
1
0
LINE
5
E2
100
AcDbEntity
8
1
62
256
6
ByLayer
370
18
48
1
60
0
100
AcDbLine
10
60.273333
20
-34.7
30
0
11
62.984409
21
-34.7
31
0
39
0
210
0
220
0
230
1
0
LINE
5
E3
100
AcDbEntity
8
1
62
256
6
ByLayer
370
18
48
1
60
0
100
AcDbLine
10
65.332182
20
-34.7
30
0
11
65.962511
21
-34.7
31
0
39
0
210
0
220
0
230
1
0
LINE
5
E4
100
AcDbEntity
8
1
62
256
6
ByLayer
370
18
48
1
60
0
100
AcDbLine
10
66.341473
20
-31.166552
30
0
11
66.856902
21
-31.130509
31
0
39
0
210
0
220
0
230
1
0
LINE
5
E5
100
AcDbEntity
8
1
62
256
6
ByLayer
370
18
48
1
60
0
100
AcDbLine
10
65.962511
20
-31.3
30
0
11
65.962814
21
-31.3
31
0
39
0
210
0
220
0
230
1
0
LINE
5
E6
100
AcDbEntity
8
1
62
256
6
ByLayer
370
18
48
1
60
0
100
AcDbLine
10
69.106077
20
-34.965041
30
0
11
69.46476
21
-34.996439
31
0
39
0
210
0
220
0
230
1
0
LINE
5
E7
100
AcDbEntity
8
1
62
256
6
ByLayer
370
18
48
1
60
0
100
AcDbLine
10
65.962511
20
-31.3
30
0
11
65.332182
21
-31.3
31
0
39
0
210
0
220
0
230
1
0
LINE
5
E8
100
AcDbEntity
8
1
62
256
6
ByLayer
370
18
48
1
60
0
100
AcDbLine
10
60.07404
20
-31.3
30
0
11
60.008324
21
-31.3
31
0
39
0
210
0
220
0
230
1
0
LINE
5
E9
100
AcDbEntity
8
1
62
256
6
ByLayer
370
18
48
1
60
0
100
AcDbLine
10
69.69252
20
-30.98922
30
0
11
69.535516
21
-30.9984
31
0
39
0
210
0
220
0
230
1
0
LINE
5
EA
100
AcDbEntity
8
1
62
256
6
ByLayer
370
18
48
1
60
0
100
AcDbLine
10
65.332182
20
-31.3
30
0
11
64.629386
21
-31.3
31
0
39
0
210
0
220
0
230
1
0
LINE
5
EB
100
AcDbEntity
8
1
62
256
6
ByLayer
370
18
48
1
60
0
100
AcDbLine
10
68.258781
20
-34.902436
30
0
11
68.758781
21
-34.937637
31
0
39
0
210
0
220
0
230
1
0
LINE
5
EC
100
AcDbEntity
8
1
62
256
6
ByLayer
370
18
48
1
60
0
100
AcDbLine
10
70.000117
20
-32.001589
30
0
11
70.006095
21
-31.294782
31
0
39
0
210
0
220
0
230
1
0
LINE
5
ED
100
AcDbEntity
8
1
62
256
6
ByLayer
370
18
48
1
60
0
100
AcDbLine
10
64.594883
20
-34.7
30
0
11
64.629386
21
-34.7
31
0
39
0
210
0
220
0
230
1
0
LINE
5
EE
100
AcDbEntity
8
1
62
256
6
ByLayer
370
18
48
1
60
0
100
AcDbLine
10
69.535516
20
-35.0016
30
0
11
69.69252
21
-35.01078
31
0
39
0
210
0
220
0
230
1
0
LINE
5
EF
100
AcDbEntity
8
1
62
256
6
ByLayer
370
18
48
1
60
0
100
AcDbLine
10
65.962814
20
-34.7
30
0
11
65.962511
21
-34.7
31
0
39
0
210
0
220
0
230
1
0
LINE
5
F0
100
AcDbEntity
8
1
62
256
6
ByLayer
370
18
48
1
60
0
100
AcDbLine
10
70.006095
20
-34.705218
30
0
11
70.000117
21
-33.998411
31
0
39
0
210
0
220
0
230
1
0
LINE
5
F1
100
AcDbEntity
8
1
62
256
6
ByLayer
370
18
48
1
60
0
100
AcDbLine
10
67.0347
20
-34.874835
30
0
11
67.19812
21
-34.870459
31
0
39
0
210
0
220
0
230
1
0
LINE
5
F2
100
AcDbEntity
8
1
62
256
6
ByLayer
370
18
48
1
60
0
100
AcDbLine
10
68.758781
20
-31.062363
30
0
11
68.258781
21
-31.097564
31
0
39
0
210
0
220
0
230
1
0
LINE
5
F3
100
AcDbEntity
8
1
62
256
6
ByLayer
370
18
48
1
60
0
100
AcDbLine
10
60.008324
20
-34.7
30
0
11
60.07404
21
-34.7
31
0
39
0
210
0
220
0
230
1
0
LINE
5
F4
100
AcDbEntity
8
1
62
256
6
ByLayer
370
18
48
1
60
0
100
AcDbLine
10
66.856902
20
-34.869491
30
0
11
66.341473
21
-34.833448
31
0
39
0
210
0
220
0
230
1
0
LINE
5
F5
100
AcDbEntity
8
1
62
256
6
ByLayer
370
18
48
1
60
0
100
AcDbLine
10
64.629386
20
-34.7
30
0
11
65.332182
21
-34.7
31
0
39
0
210
0
220
0
230
1
0
LINE
5
F6
100
AcDbEntity
8
1
62
256
6
ByLayer
370
18
48
1
60
0
100
AcDbLine
10
69.46476
20
-31.003561
30
0
11
69.106077
21
-31.034959
31
0
39
0
210
0
220
0
230
1
0
LINE
5
F7
100
AcDbEntity
8
1
62
256
6
ByLayer
370
18
48
1
60
0
100
AcDbLine
10
64.629386
20
-31.3
30
0
11
64.594883
21
-31.3
31
0
39
0
210
0
220
0
230
1
0
LINE
5
F8
100
AcDbEntity
8
1
62
256
6
ByLayer
370
18
48
1
60
0
100
AcDbLine
10
70
20
-33.970715
30
0
11
70
21
-32.029285
31
0
39
0
210
0
220
0
230
1
0
LINE
5
F9
100
AcDbEntity
8
1
62
256
6
ByLayer
370
18
48
1
60
0
100
AcDbLine
10
60.273333
20
-31.3
30
0
11
62.984409
21
-31.3
31
0
39
0
210
0
220
0
230
1
0
MTEXT
5
223
100
AcDbEntity
8
SK6
62
256
6
ByLayer
370
18
48
1
60
0
100
AcDbMText
10
-11.625
20
-55.880636
30
0
210
0
220
0
230
1
1
\W0.7810;C5-QD-LFH32C35070A
40
3.5
41
0
44
1.084337
50
0
71
7
72
5
7
iso_b_vert
0
DIMENSION
5
235
100
AcDbEntity
8
SK2
62
256
6
ByLayer
370
13
48
1
60
0
100
AcDbDimension
2
DimnDraft3D1
10
70
20
47.6
30
0
11
32.909211
21
47.6
31
0
70
32
71
5
72
1
41
1
210
0
220
0
230
1
3
Standard
100
AcDbAlignedDimension
13
0
23
2
33
0
14
70
24
-33
34
0
50
0
100
AcDbRotatedDimension
1001
ACAD
1000
DSTYLE
1002
{
1070
   279
1070
     0
1070
   172
1070
     1
1070
   173
1070
     1
1070
   340
1005
224
1070
   271
1070
     1
1070
    77
1070
     1
1070
    73
1070
     0
1070
   171
1070
     3
1070
   274
1070
     4
1070
   177
1070
     2
1070
   176
1070
     2
1070
   178
1070
     7
1070
    78
1070
     8
1070
    41
1041
3.175
1070
   147
1041
1.75
1070
    42
1041
2.0
1070
    44
1041
2.0
1070
   140
1041
3.5
1070
   343
1005
236
1070
   344
1005
236
1002
}
0
DIMENSION
5
24B
100
AcDbEntity
8
2
62
256
6
ByLayer
370
13
48
1
60
0
100
AcDbDimension
2
DimnDraft3D2
10
38
20
-48.111273
30
0
11
51.909211
21
-48.111273
31
0
70
32
71
5
72
1
41
1
210
0
220
0
230
1
3
Standard
100
AcDbAlignedDimension
13
70
23
-37
33
0
14
38
24
-27
34
0
50
0
100
AcDbRotatedDimension
1001
ACAD
1000
DSTYLE
1002
{
1070
   279
1070
     0
1070
   172
1070
     1
1070
   173
1070
     1
1070
   340
1005
224
1070
   271
1070
     1
1070
    77
1070
     1
1070
    73
1070
     0
1070
   171
1070
     3
1070
   274
1070
     4
1070
   177
1070
     2
1070
   176
1070
     2
1070
   178
1070
     7
1070
    78
1070
     8
1070
    41
1041
3.175
1070
   147
1041
1.75
1070
    42
1041
2.0
1070
    44
1041
2.0
1070
   140
1041
3.5
1070
   343
1005
236
1070
   344
1005
236
1002
}
0
DIMENSION
5
259
100
AcDbEntity
8
SK2
62
256
6
ByLayer
370
13
48
1
60
0
100
AcDbDimension
2
DimnDraft3D3
10
-39.6
20
25
30
0
11
-39.6
21
-2.090789
31
0
70
32
71
5
72
1
41
1
210
0
220
0
230
1
3
Standard
100
AcDbAlignedDimension
13
-2
23
-25
33
0
14
-2
24
25
34
0
50
90
100
AcDbRotatedDimension
1001
ACAD
1000
DSTYLE
1002
{
1070
    74
1070
     0
1070
   279
1070
     0
1070
   172
1070
     1
1070
   173
1070
     1
1070
   340
1005
224
1070
   271
1070
     1
1070
    77
1070
     1
1070
    73
1070
     0
1070
   171
1070
     3
1070
   274
1070
     4
1070
   177
1070
     2
1070
   176
1070
     2
1070
   178
1070
     7
1070
    78
1070
     8
1070
    41
1041
3.175
1070
   147
1041
1.75
1070
    42
1041
2.0
1070
    44
1041
2.0
1070
   140
1041
3.5
1070
   343
1005
236
1070
   344
1005
236
1002
}
0
DIMENSION
5
267
100
AcDbEntity
8
2
62
256
6
ByLayer
370
13
48
1
60
0
100
AcDbDimension
2
DimnDraft3D4
10
95.1
20
-35
30
0
11
95.1
21
-19.590789
31
0
70
32
71
5
72
1
41
1
210
0
220
0
230
1
3
Standard
100
AcDbAlignedDimension
13
63
23
0
33
0
14
72
24
-35
34
0
50
90
100
AcDbRotatedDimension
1001
ACAD
1000
DSTYLE
1002
{
1070
    74
1070
     0
1070
   279
1070
     0
1070
   172
1070
     1
1070
   173
1070
     1
1070
   340
1005
224
1070
   271
1070
     1
1070
    77
1070
     1
1070
    73
1070
     0
1070
   171
1070
     3
1070
   274
1070
     4
1070
   177
1070
     2
1070
   176
1070
     2
1070
   178
1070
     7
1070
    78
1070
     8
1070
    41
1041
3.175
1070
   147
1041
1.75
1070
    42
1041
2.0
1070
    44
1041
2.0
1070
   140
1041
3.5
1070
   343
1005
236
1070
   344
1005
236
1002
}
0
DIMENSION
5
275
100
AcDbEntity
8
2
62
256
6
ByLayer
370
13
48
1
60
0
100
AcDbDimension
2
DimnDraft3D5
10
88.1
20
-31
30
0
11
88.1
21
-47.189211
31
0
70
32
71
5
72
1
41
1
210
0
220
0
230
1
3
Standard
100
AcDbAlignedDimension
13
72
23
-35
33
0
14
72
24
-31
34
0
50
90
100
AcDbRotatedDimension
1001
ACAD
1000
DSTYLE
1002
{
1070
    74
1070
     0
1070
   279
1070
     0
1070
   172
1070
     1
1070
   173
1070
     1
1070
   340
1005
224
1070
   271
1070
     1
1070
    77
1070
     1
1070
    73
1070
     0
1070
   171
1070
     3
1070
   274
1070
     4
1070
   177
1070
     2
1070
   176
1070
     2
1070
   178
1070
     7
1070
    78
1070
     8
1070
    41
1041
3.175
1070
   147
1041
1.75
1070
    42
1041
2.0
1070
    44
1041
2.0
1070
   140
1041
3.5
1070
   343
1005
236
1070
   344
1005
236
1002
}
0
ENDSEC
0
SECTION
2
OBJECTS
0
DICTIONARY
5
2df
330
0
100
AcDbDictionary
280
0
281
1
3
ACAD_GROUP
350
2e0
3
ACAD_MLINESTYLE
350
2e1
0
DICTIONARY
5
2e0
330
0
100
AcDbDictionary
280
0
281
1
0
DICTIONARY
5
2e1
330
0
100
AcDbDictionary
280
0
281
1
3
Standard
350
18
0
MLINESTYLE
5
18
330
2e1
100
AcDbMlineStyle
2
Standard
70
0
3

62
256
51
90
52
90
71
2
49
-0.5
62
256
6
ByLayer
49
0.5
62
256
6
ByLayer
0
RASTERVARIABLES
5
2ce
330

100
AcDbRasterVariables
90
0
70
1
71
1
72
1
0
ENDSEC
0
EOF
