0
SECTION
2
HEADER
9
$ACADVER
1
AC1015
9
$DWGCODEPAGE
3
ANSI_1252
9
$HANDSEED
5
2fe
9
$ANGBASE
50
0
9
$ANGDIR
70
0
9
$ATTMODE
70
1
9
$AUNITS
70
0
9
$AUPREC
70
0
9
$CECOLOR
62
256
9
$CELTSCALE
40
1
9
$CELTYPE
6
ByLayer
9
$CELWEIGHT
370
18
9
$CLAYER
8
0
9
$CMLJUST
70
0
9
$CMLSCALE
40
1
9
$CMLSTYLE
2
Standard
9
$DIMSTYLE
2
Standard
9
$TEXTSIZE
40
0.2
9
$TEXTSTYLE
7
Standard
9
$LUNITS
70
2
9
$LUPREC
70
4
9
$EXTNAMES
290
1
9
$INSUNITS
70
4
9
$LTSCALE
40
1
9
$LWDISPLAY
290
1
9
$PDMODE
70
0
9
$PDSIZE
40
0
9
$PLINEGEN
70
0
0
ENDSEC
0
SECTION
2
CLASSES
0
CLASS
1
RASTERVARIABLES
2
AcDbRasterVariables
3
ISM
90
0
280
0
281
0
0
ENDSEC
0
SECTION
2
TABLES
0
TABLE
2
VPORT
5
2f4
100
AcDbSymbolTable
0
VPORT
5
1
100
AcDbSymbolTableRecord
100
AcDbViewportTableRecord
2
*Active
70
0
10
0
20
0
11
1
21
1
12
-1
22
1
13
0
23
0
14
0.5
24
0.5
15
10
25
10
16
0
26
0
36
1
17
0
27
0
37
0
0
ENDTAB
0
TABLE
2
LTYPE
5
2f5
100
AcDbSymbolTable
0
LTYPE
5
14
100
AcDbSymbolTableRecord
100
AcDbLinetypeTableRecord
70
0
2
ByBlock
3

72
65
73
0
40
0
0
LTYPE
5
15
100
AcDbSymbolTableRecord
100
AcDbLinetypeTableRecord
70
0
2
ByLayer
3

72
65
73
0
40
0
0
LTYPE
5
16
100
AcDbSymbolTableRecord
100
AcDbLinetypeTableRecord
70
0
2
CONTINUOUS
3
Solid line
72
65
73
0
40
0
0
LTYPE
5
6A
100
AcDbSymbolTableRecord
100
AcDbLinetypeTableRecord
70
0
2
CENTER
3
____ _ ____ _ ____ _ ____
72
65
73
4
40
47.5
49
22
74
0
49
-8.5
74
0
49
8.5
74
0
49
-8.5
74
0
0
LTYPE
5
6B
100
AcDbSymbolTableRecord
100
AcDbLinetypeTableRecord
70
0
2
DASHED
3
__ __ __ __ __ __ __ __ __
72
65
73
2
40
25.72
49
12.86
74
0
49
-12.86
74
0
0
ENDTAB
0
TABLE
2
LAYER
5
2f6
100
AcDbSymbolTable
0
LAYER
5
10
100
AcDbSymbolTableRecord
100
AcDbLayerTableRecord
2
0
70
0
62
7
6
CONTINUOUS
290
1
370
-3
390
0
0
LAYER
5
6D
100
AcDbSymbolTableRecord
100
AcDbLayerTableRecord
2
80
70
0
62
-6
6
CONTINUOUS
290
1
370
-3
390
0
0
LAYER
5
6F
100
AcDbSymbolTableRecord
100
AcDbLayerTableRecord
2
81
70
0
62
-3
6
CONTINUOUS
290
1
370
-3
390
0
0
LAYER
5
71
100
AcDbSymbolTableRecord
100
AcDbLayerTableRecord
2
1
70
0
62
4
6
CONTINUOUS
290
1
370
-3
390
0
0
LAYER
5
251
100
AcDbSymbolTableRecord
100
AcDbLayerTableRecord
2
2
70
0
62
7
6
CONTINUOUS
290
1
370
-3
390
0
0
LAYER
5
2e1
100
AcDbSymbolTableRecord
100
AcDbLayerTableRecord
2
SK1
70
0
62
4
6
CONTINUOUS
290
1
370
-3
390
0
0
LAYER
5
2e2
100
AcDbSymbolTableRecord
100
AcDbLayerTableRecord
2
SK6
70
0
62
5
6
CONTINUOUS
290
1
370
-3
390
0
0
LAYER
5
2e3
100
AcDbSymbolTableRecord
100
AcDbLayerTableRecord
2
SK2
70
0
62
7
6
CONTINUOUS
290
1
370
-3
390
0
0
ENDTAB
0
TABLE
2
STYLE
5
2f7
100
AcDbSymbolTable
0
STYLE
5
11
100
AcDbSymbolTableRecord
100
AcDbTextStyleTableRecord
2
Standard
3
txt
70
0
71
0
40
0
41
1
42
0
50
0
0
STYLE
5
236
100
AcDbSymbolTableRecord
100
AcDbTextStyleTableRecord
2
iso_b_vert
3
simplex.shx
70
0
71
0
40
0
41
1
42
0
50
0
0
STYLE
5
237
100
AcDbSymbolTableRecord
100
AcDbTextStyleTableRecord
2
DWGDirectTextStyle
3
simplex
70
0
71
0
40
0
41
1
42
0
50
0
0
ENDTAB
0
TABLE
2
DIMSTYLE
5
2f8
100
AcDbSymbolTable
100
AcDbDimStyleTable
0
DIMSTYLE
105
27
100
AcDbSymbolTableRecord
100
AcDbDimStyleTableRecord
2
Standard
70
0
3
<>
41
0.18
42
0.0625
44
0.18
140
0.18
147
0.09
73
0
74
0
77
1
271
2
275
0
278
52
280
0
340
11
0
ENDTAB
0
TABLE
2
VIEW
5
2f9
100
AcDbSymbolTable
0
ENDTAB
0
TABLE
2
UCS
5
2fa
100
AcDbSymbolTable
0
ENDTAB
0
TABLE
2
APPID
5
2fb
100
AcDbSymbolTable
0
APPID
5
12
100
AcDbSymbolTableRecord
100
AcDbRegAppTableRecord
2
ACAD
70
0
0
ENDTAB
0
TABLE
2
BLOCK_RECORD
5
2fc
100
AcDbSymbolTable
0
BLOCK_RECORD
5
1F
100
AcDbSymbolTableRecord
100
AcDbBlockTableRecord
2
*Model_Space
340
0
70
0
0
BLOCK_RECORD
5
1B
100
AcDbSymbolTableRecord
100
AcDbBlockTableRecord
2
*Paper_Space
340
0
70
0
0
BLOCK_RECORD
5
23
100
AcDbSymbolTableRecord
100
AcDbBlockTableRecord
2
*Paper_Space0
340
0
70
0
0
BLOCK_RECORD
5
239
100
AcDbSymbolTableRecord
100
AcDbBlockTableRecord
2
DimnDraft3D1
340
0
70
0
0
BLOCK_RECORD
5
248
100
AcDbSymbolTableRecord
100
AcDbBlockTableRecord
2
_CLOSED
340
0
70
0
0
BLOCK_RECORD
5
24F
100
AcDbSymbolTableRecord
100
AcDbBlockTableRecord
2
DimnDraft3D2
340
0
70
0
0
BLOCK_RECORD
5
25E
100
AcDbSymbolTableRecord
100
AcDbBlockTableRecord
2
DimnDraft3D3
340
0
70
0
0
BLOCK_RECORD
5
26C
100
AcDbSymbolTableRecord
100
AcDbBlockTableRecord
2
DimnDraft3D4
340
0
70
0
0
BLOCK_RECORD
5
27A
100
AcDbSymbolTableRecord
100
AcDbBlockTableRecord
2
DimnDraft3D5
340
0
70
0
0
ENDTAB
0
ENDSEC
0
SECTION
2
BLOCKS
0
BLOCK
5
20
100
AcDbEntity
8
0
100
AcDbBlockBegin
2
*Model_Space
70
0
10
0
20
0
30
0
3
*Model_Space
0
ENDBLK
5
21
100
AcDbEntity
8
0
100
AcDbBlockEnd
0
BLOCK
5
1C
100
AcDbEntity
8
0
100
AcDbBlockBegin
2
*Paper_Space
70
0
10
0
20
0
30
0
3
*Paper_Space
0
ENDBLK
5
1D
100
AcDbEntity
8
0
100
AcDbBlockEnd
0
BLOCK
5
24
100
AcDbEntity
8
0
100
AcDbBlockBegin
2
*Paper_Space0
70
0
10
0
20
0
30
0
3
*Paper_Space0
0
ENDBLK
5
25
100
AcDbEntity
8
0
100
AcDbBlockEnd
0
BLOCK
5
245
100
AcDbEntity
8
0
100
AcDbBlockBegin
2
DimnDraft3D1
70
0
10
0
20
0
30
0
3
DimnDraft3D1
0
MTEXT
5
23A
100
AcDbEntity
8
SK2
62
256
6
ByLayer
370
18
48
1
60
0
100
AcDbMText
10
31.284211
20
48.475
30
0
210
0
220
0
230
1
1
\W0.6740;65
40
3.5
41
0
44
1.084337
50
0
71
7
72
5
7
iso_b_vert
0
LINE
5
23C
100
AcDbEntity
8
SK2
62
256
6
ByLayer
370
13
48
1
60
0
100
AcDbLine
10
0
20
2
30
0
11
0
21
49.6
31
0
39
0
210
0
220
0
230
1
0
LINE
5
23D
100
AcDbEntity
8
SK2
62
256
6
ByLayer
370
13
48
1
60
0
100
AcDbLine
10
65
20
-33
30
0
11
65
21
49.6
31
0
39
0
210
0
220
0
230
1
0
LINE
5
23E
100
AcDbEntity
8
SK2
62
256
6
ByLayer
370
13
48
1
60
0
100
AcDbLine
10
0
20
47.6
30
0
11
65
21
47.6
31
0
39
0
210
0
220
0
230
1
0
LINE
5
23F
100
AcDbEntity
8
SK2
62
256
6
ByLayer
370
13
48
1
60
0
100
AcDbLine
10
0
20
47.6
30
0
11
3.174998
21
48.017997
31
0
39
0
210
0
220
0
230
1
0
LINE
5
240
100
AcDbEntity
8
SK2
62
256
6
ByLayer
370
13
48
1
60
0
100
AcDbLine
10
0
20
47.6
30
0
11
3.175002
21
47.182003
31
0
39
0
210
0
220
0
230
1
0
LINE
5
241
100
AcDbEntity
8
SK2
62
256
6
ByLayer
370
13
48
1
60
0
100
AcDbLine
10
3.174998
20
48.017997
30
0
11
3.175002
21
47.182003
31
0
39
0
210
0
220
0
230
1
0
LINE
5
242
100
AcDbEntity
8
SK2
62
256
6
ByLayer
370
13
48
1
60
0
100
AcDbLine
10
65
20
47.6
30
0
11
61.825002
21
47.182003
31
0
39
0
210
0
220
0
230
1
0
LINE
5
243
100
AcDbEntity
8
SK2
62
256
6
ByLayer
370
13
48
1
60
0
100
AcDbLine
10
65
20
47.6
30
0
11
61.824998
21
48.017997
31
0
39
0
210
0
220
0
230
1
0
LINE
5
244
100
AcDbEntity
8
SK2
62
256
6
ByLayer
370
13
48
1
60
0
100
AcDbLine
10
61.825002
20
47.182003
30
0
11
61.824998
21
48.017997
31
0
39
0
210
0
220
0
230
1
0
ENDBLK
5
246
100
AcDbEntity
8
0
100
AcDbBlockEnd
0
BLOCK
5
249
100
AcDbEntity
8
0
100
AcDbBlockBegin
2
_CLOSED
70
0
10
0
20
0
30
0
3
_CLOSED
0
LINE
5
24B
100
AcDbEntity
8
0
62
256
6
ByLayer
370
-2
48
1
60
0
100
AcDbLine
10
-1
20
0.166667
30
0
11
0
21
0
31
0
39
0
210
0
220
0
230
1
0
LINE
5
24C
100
AcDbEntity
8
0
62
256
6
ByLayer
370
-2
48
1
60
0
100
AcDbLine
10
0
20
0
30
0
11
-1
21
-0.166667
31
0
39
0
210
0
220
0
230
1
0
LINE
5
24D
100
AcDbEntity
8
0
62
256
6
ByLayer
370
-2
48
1
60
0
100
AcDbLine
10
-1
20
0.166667
30
0
11
-1
21
-0.166667
31
0
39
0
210
0
220
0
230
1
0
LINE
5
24E
100
AcDbEntity
8
0
62
256
6
ByLayer
370
-2
48
1
60
0
100
AcDbLine
10
0
20
0
30
0
11
-1
21
0
31
0
39
0
210
0
220
0
230
1
0
ENDBLK
5
24A
100
AcDbEntity
8
0
100
AcDbBlockEnd
0
BLOCK
5
25B
100
AcDbEntity
8
0
100
AcDbBlockBegin
2
DimnDraft3D2
70
0
10
0
20
0
30
0
3
DimnDraft3D2
0
MTEXT
5
250
100
AcDbEntity
8
2
62
256
6
ByLayer
370
18
48
1
60
0
100
AcDbMText
10
51.284211
20
-47.233569
30
0
210
0
220
0
230
1
1
\W0.6740;25
40
3.5
41
0
44
1.084337
50
0
71
7
72
5
7
iso_b_vert
0
LINE
5
252
100
AcDbEntity
8
2
62
256
6
ByLayer
370
13
48
1
60
0
100
AcDbLine
10
65
20
-37
30
0
11
65
21
-50.108569
31
0
39
0
210
0
220
0
230
1
0
LINE
5
253
100
AcDbEntity
8
2
62
256
6
ByLayer
370
13
48
1
60
0
100
AcDbLine
10
40
20
-27
30
0
11
40
21
-50.108569
31
0
39
0
210
0
220
0
230
1
0
LINE
5
254
100
AcDbEntity
8
2
62
256
6
ByLayer
370
13
48
1
60
0
100
AcDbLine
10
65
20
-48.108569
30
0
11
40
21
-48.108569
31
0
39
0
210
0
220
0
230
1
0
LINE
5
255
100
AcDbEntity
8
2
62
256
6
ByLayer
370
13
48
1
60
0
100
AcDbLine
10
65
20
-48.108569
30
0
11
61.825002
21
-48.526566
31
0
39
0
210
0
220
0
230
1
0
LINE
5
256
100
AcDbEntity
8
2
62
256
6
ByLayer
370
13
48
1
60
0
100
AcDbLine
10
65
20
-48.108569
30
0
11
61.824998
21
-47.690573
31
0
39
0
210
0
220
0
230
1
0
LINE
5
257
100
AcDbEntity
8
2
62
256
6
ByLayer
370
13
48
1
60
0
100
AcDbLine
10
61.825002
20
-48.526566
30
0
11
61.824998
21
-47.690573
31
0
39
0
210
0
220
0
230
1
0
LINE
5
258
100
AcDbEntity
8
2
62
256
6
ByLayer
370
13
48
1
60
0
100
AcDbLine
10
40
20
-48.108569
30
0
11
43.174998
21
-47.690573
31
0
39
0
210
0
220
0
230
1
0
LINE
5
259
100
AcDbEntity
8
2
62
256
6
ByLayer
370
13
48
1
60
0
100
AcDbLine
10
40
20
-48.108569
30
0
11
43.175002
21
-48.526566
31
0
39
0
210
0
220
0
230
1
0
LINE
5
25A
100
AcDbEntity
8
2
62
256
6
ByLayer
370
13
48
1
60
0
100
AcDbLine
10
43.174998
20
-47.690573
30
0
11
43.175002
21
-48.526566
31
0
39
0
210
0
220
0
230
1
0
ENDBLK
5
25C
100
AcDbEntity
8
0
100
AcDbBlockEnd
0
BLOCK
5
269
100
AcDbEntity
8
0
100
AcDbBlockBegin
2
DimnDraft3D3
70
0
10
0
20
0
30
0
3
DimnDraft3D3
0
MTEXT
5
25F
100
AcDbEntity
8
SK2
62
256
6
ByLayer
370
18
48
1
60
0
100
AcDbMText
10
-40.475
20
-1.215789
30
0
210
0
220
0
230
1
1
\W0.6740;50
40
3.5
41
0
44
1.084337
50
90
71
7
72
5
7
iso_b_vert
0
LINE
5
260
100
AcDbEntity
8
SK2
62
256
6
ByLayer
370
13
48
1
60
0
100
AcDbLine
10
-2
20
-25
30
0
11
-41.6
21
-25
31
0
39
0
210
0
220
0
230
1
0
LINE
5
261
100
AcDbEntity
8
SK2
62
256
6
ByLayer
370
13
48
1
60
0
100
AcDbLine
10
-2
20
25
30
0
11
-41.6
21
25
31
0
39
0
210
0
220
0
230
1
0
LINE
5
262
100
AcDbEntity
8
SK2
62
256
6
ByLayer
370
13
48
1
60
0
100
AcDbLine
10
-39.6
20
-25
30
0
11
-39.6
21
25
31
0
39
0
210
0
220
0
230
1
0
LINE
5
263
100
AcDbEntity
8
SK2
62
256
6
ByLayer
370
13
48
1
60
0
100
AcDbLine
10
-39.6
20
-25
30
0
11
-40.017997
21
-21.825002
31
0
39
0
210
0
220
0
230
1
0
LINE
5
264
100
AcDbEntity
8
SK2
62
256
6
ByLayer
370
13
48
1
60
0
100
AcDbLine
10
-39.6
20
-25
30
0
11
-39.182003
21
-21.824998
31
0
39
0
210
0
220
0
230
1
0
LINE
5
265
100
AcDbEntity
8
SK2
62
256
6
ByLayer
370
13
48
1
60
0
100
AcDbLine
10
-40.017997
20
-21.825002
30
0
11
-39.182003
21
-21.824998
31
0
39
0
210
0
220
0
230
1
0
LINE
5
266
100
AcDbEntity
8
SK2
62
256
6
ByLayer
370
13
48
1
60
0
100
AcDbLine
10
-39.6
20
25
30
0
11
-39.182003
21
21.825002
31
0
39
0
210
0
220
0
230
1
0
LINE
5
267
100
AcDbEntity
8
SK2
62
256
6
ByLayer
370
13
48
1
60
0
100
AcDbLine
10
-39.6
20
25
30
0
11
-40.017997
21
21.824998
31
0
39
0
210
0
220
0
230
1
0
LINE
5
268
100
AcDbEntity
8
SK2
62
256
6
ByLayer
370
13
48
1
60
0
100
AcDbLine
10
-39.182003
20
21.825002
30
0
11
-40.017997
21
21.824998
31
0
39
0
210
0
220
0
230
1
0
ENDBLK
5
26A
100
AcDbEntity
8
0
100
AcDbBlockEnd
0
BLOCK
5
277
100
AcDbEntity
8
0
100
AcDbBlockBegin
2
DimnDraft3D4
70
0
10
0
20
0
30
0
3
DimnDraft3D4
0
MTEXT
5
26D
100
AcDbEntity
8
2
62
256
6
ByLayer
370
18
48
1
60
0
100
AcDbMText
10
89.225
20
-18.715789
30
0
210
0
220
0
230
1
1
\W0.6740;35
40
3.5
41
0
44
1.084337
50
90
71
7
72
5
7
iso_b_vert
0
LINE
5
26E
100
AcDbEntity
8
2
62
256
6
ByLayer
370
13
48
1
60
0
100
AcDbLine
10
58
20
0
30
0
11
92.1
21
0
31
0
39
0
210
0
220
0
230
1
0
LINE
5
26F
100
AcDbEntity
8
2
62
256
6
ByLayer
370
13
48
1
60
0
100
AcDbLine
10
67
20
-35
30
0
11
92.1
21
-35
31
0
39
0
210
0
220
0
230
1
0
LINE
5
270
100
AcDbEntity
8
2
62
256
6
ByLayer
370
13
48
1
60
0
100
AcDbLine
10
90.1
20
0
30
0
11
90.1
21
-35
31
0
39
0
210
0
220
0
230
1
0
LINE
5
271
100
AcDbEntity
8
2
62
256
6
ByLayer
370
13
48
1
60
0
100
AcDbLine
10
90.1
20
0
30
0
11
90.517997
21
-3.174998
31
0
39
0
210
0
220
0
230
1
0
LINE
5
272
100
AcDbEntity
8
2
62
256
6
ByLayer
370
13
48
1
60
0
100
AcDbLine
10
90.1
20
0
30
0
11
89.682003
21
-3.175002
31
0
39
0
210
0
220
0
230
1
0
LINE
5
273
100
AcDbEntity
8
2
62
256
6
ByLayer
370
13
48
1
60
0
100
AcDbLine
10
90.517997
20
-3.174998
30
0
11
89.682003
21
-3.175002
31
0
39
0
210
0
220
0
230
1
0
LINE
5
274
100
AcDbEntity
8
2
62
256
6
ByLayer
370
13
48
1
60
0
100
AcDbLine
10
90.1
20
-35
30
0
11
89.682003
21
-31.825002
31
0
39
0
210
0
220
0
230
1
0
LINE
5
275
100
AcDbEntity
8
2
62
256
6
ByLayer
370
13
48
1
60
0
100
AcDbLine
10
90.1
20
-35
30
0
11
90.517997
21
-31.824998
31
0
39
0
210
0
220
0
230
1
0
LINE
5
276
100
AcDbEntity
8
2
62
256
6
ByLayer
370
13
48
1
60
0
100
AcDbLine
10
89.682003
20
-31.825002
30
0
11
90.517997
21
-31.824998
31
0
39
0
210
0
220
0
230
1
0
ENDBLK
5
278
100
AcDbEntity
8
0
100
AcDbBlockEnd
0
BLOCK
5
285
100
AcDbEntity
8
0
100
AcDbBlockBegin
2
DimnDraft3D5
70
0
10
0
20
0
30
0
3
DimnDraft3D5
0
MTEXT
5
27B
100
AcDbEntity
8
2
62
256
6
ByLayer
370
18
48
1
60
0
100
AcDbMText
10
82.225
20
-45.945789
30
0
210
0
220
0
230
1
1
\W0.5404;3
40
3.5
41
0
44
1.084337
50
90
71
7
72
5
7
iso_b_vert
0
LINE
5
27C
100
AcDbEntity
8
2
62
256
6
ByLayer
370
13
48
1
60
0
100
AcDbLine
10
67
20
-35
30
0
11
85.1
21
-35
31
0
39
0
210
0
220
0
230
1
0
LINE
5
27D
100
AcDbEntity
8
2
62
256
6
ByLayer
370
13
48
1
60
0
100
AcDbLine
10
67
20
-32
30
0
11
85.1
21
-32
31
0
39
0
210
0
220
0
230
1
0
LINE
5
27E
100
AcDbEntity
8
2
62
256
6
ByLayer
370
13
48
1
60
0
100
AcDbLine
10
83.1
20
-23.25
30
0
11
83.1
21
-46.820789
31
0
39
0
210
0
220
0
230
1
0
LINE
5
27F
100
AcDbEntity
8
2
62
256
6
ByLayer
370
13
48
1
60
0
100
AcDbLine
10
83.1
20
-35
30
0
11
83.517997
21
-38.174998
31
0
39
0
210
0
220
0
230
1
0
LINE
5
280
100
AcDbEntity
8
2
62
256
6
ByLayer
370
13
48
1
60
0
100
AcDbLine
10
83.1
20
-35
30
0
11
82.682003
21
-38.175002
31
0
39
0
210
0
220
0
230
1
0
LINE
5
281
100
AcDbEntity
8
2
62
256
6
ByLayer
370
13
48
1
60
0
100
AcDbLine
10
83.517997
20
-38.174998
30
0
11
82.682003
21
-38.175002
31
0
39
0
210
0
220
0
230
1
0
LINE
5
282
100
AcDbEntity
8
2
62
256
6
ByLayer
370
13
48
1
60
0
100
AcDbLine
10
83.1
20
-32
30
0
11
82.682003
21
-28.825002
31
0
39
0
210
0
220
0
230
1
0
LINE
5
283
100
AcDbEntity
8
2
62
256
6
ByLayer
370
13
48
1
60
0
100
AcDbLine
10
83.1
20
-32
30
0
11
83.517997
21
-28.824998
31
0
39
0
210
0
220
0
230
1
0
LINE
5
284
100
AcDbEntity
8
2
62
256
6
ByLayer
370
13
48
1
60
0
100
AcDbLine
10
82.682003
20
-28.825002
30
0
11
83.517997
21
-28.824998
31
0
39
0
210
0
220
0
230
1
0
ENDBLK
5
286
100
AcDbEntity
8
0
100
AcDbBlockEnd
0
ENDSEC
0
SECTION
2
ENTITIES
0
ARC
5
123
100
AcDbEntity
8
1
62
256
6
ByLayer
370
13
48
1
60
0
100
AcDbCircle
39
0
10
-20.279208
20
-26.2
30
0
40
1.2
210
0
220
0
230
-1
100
AcDbArc
50
90
51
165
0
ARC
5
124
100
AcDbEntity
8
1
62
256
6
ByLayer
370
13
48
1
60
0
100
AcDbCircle
39
0
10
-24.12102
20
14.5
30
0
40
4.00000000000009
210
0
220
0
230
-1
100
AcDbArc
50
270
51
359.5
0
ARC
5
125
100
AcDbEntity
8
1
62
256
6
ByLayer
370
18
48
1
60
0
100
AcDbCircle
39
0
10
55.2
20
-32.45
30
0
40
0.2
210
0
220
0
230
1
100
AcDbArc
50
120
51
141.318614
0
ARC
5
126
100
AcDbEntity
8
1
62
256
6
ByLayer
370
18
48
1
60
0
100
AcDbCircle
39
0
10
55.2
20
-34.55
30
0
40
0.2
210
0
220
0
230
1
100
AcDbArc
50
218.681386
51
240
0
ELLIPSE
5
127
100
AcDbEntity
8
1
62
256
6
ByLayer
370
13
48
1
60
0
100
AcDbEllipse
10
21.056258
20
0
30
0
11
11.7092723497274
21
-24.6771864409377
31
0
210
0
220
0
230
-1
40
0.341999
41
2.05975995310056
42
2.97437958168078
0
ELLIPSE
5
128
100
AcDbEntity
8
1
62
256
6
ByLayer
370
13
48
1
60
0
100
AcDbEllipse
10
59.839209
20
-33.5
30
0
11
1.26883854643261
21
1.28233778961873E-15
31
0
210
0
220
0
230
-1
40
0.472873
41
1.09923797102142
42
-1.09923797102143
0
ELLIPSE
5
129
100
AcDbEntity
8
1
62
256
6
ByLayer
370
13
48
1
60
0
100
AcDbEllipse
10
-1.056258
20
0
30
0
11
11.7092723497268
21
-24.6771864409369
31
0
210
0
220
0
230
-1
40
0.341999
41
-1.08183270048925
42
-0.167213071909026
0
ELLIPSE
5
12A
100
AcDbEntity
8
1
62
256
6
ByLayer
370
13
48
1
60
0
100
AcDbEllipse
10
21.056258
20
0
30
0
11
11.709272349727
21
24.6771864409372
31
0
210
0
220
0
230
-1
40
0.341999
41
-2.97437958168077
42
-2.05975995310055
0
ELLIPSE
5
12B
100
AcDbEntity
8
1
62
256
6
ByLayer
370
13
48
1
60
0
100
AcDbEllipse
10
20.218172
20
0
30
0
11
4.02035718084805E-15
21
25.0000000000015
31
0
210
0
220
0
230
-1
40
0.008727
41
-2.68086439484328
42
-0.690501219800854
0
ELLIPSE
5
12C
100
AcDbEntity
8
1
62
256
6
ByLayer
370
13
48
1
60
0
100
AcDbEllipse
10
60.439369
20
-33.5
30
0
11
9.64885723403028E-17
21
0.599999999999722
31
0
210
0
220
0
230
-1
40
0.087165
41
-2.67003429781724
42
-0.47155835577255
0
ELLIPSE
5
12D
100
AcDbEntity
8
1
62
256
6
ByLayer
370
13
48
1
60
0
100
AcDbEllipse
10
-1.056258
20
0
30
0
11
11.7092723497265
21
24.6771864409365
31
0
210
0
220
0
230
-1
40
0.341999
41
0.167213071909018
42
1.08183270048927
0
ELLIPSE
5
12E
100
AcDbEntity
8
1
62
256
6
ByLayer
370
13
48
1
60
0
100
AcDbEllipse
10
57.308132
20
-34.769586
30
0
11
0.97958205229009
21
0.301726209234043
31
0
210
0
220
0
230
-1
40
0.270086
41
-2.24185105455148
42
-2.0527307451284
0
ELLIPSE
5
12F
100
AcDbEntity
8
1
62
256
6
ByLayer
370
13
48
1
60
0
100
AcDbEllipse
10
57.308132
20
-32.230414
30
0
11
0.99891419166406
21
-0.226032306471104
31
0
210
0
220
0
230
-1
40
0.206112
41
1.99506909478339
42
2.24548541566299
0
ELLIPSE
5
130
100
AcDbEntity
8
1
62
256
6
ByLayer
370
13
48
1
60
0
100
AcDbEllipse
10
57.308132
20
-34.769586
30
0
11
0.998914191682314
21
0.226032306472981
31
0
210
0
220
0
230
-1
40
0.206112
41
-2.24548541565967
42
-1.99506909478476
0
ELLIPSE
5
131
100
AcDbEntity
8
1
62
256
6
ByLayer
370
13
48
1
60
0
100
AcDbEllipse
10
64.37413
20
-33.5
30
0
11
-7.38495814331257
21
9.04366666501288E-16
31
0
210
0
220
0
230
1
40
0.121869
41
1.16456723893879
42
1.18682389135614
0
ELLIPSE
5
132
100
AcDbEntity
8
1
62
256
6
ByLayer
370
13
48
1
60
0
100
AcDbEllipse
10
63.458781
20
-34.681166
30
0
11
0.0322705528359686
21
0.237820544570188
31
0
210
0
220
0
230
1
40
0.009402
41
0.684082575269648
42
1.5016181525348
0
ELLIPSE
5
133
100
AcDbEntity
8
1
62
256
6
ByLayer
370
13
48
1
60
0
100
AcDbEllipse
10
62.228622
20
-34.559701
30
0
11
-0.0129780832447762
21
0.239648845929397
31
0
210
0
220
0
230
1
40
0.707925
41
-1.55967335367813
42
-0.878821726712005
0
ELLIPSE
5
134
100
AcDbEntity
8
1
62
256
6
ByLayer
370
13
48
1
60
0
100
AcDbEllipse
10
64.37413
20
-33.5
30
0
11
-7.38495814331257
21
9.04366666501288E-16
31
0
210
0
220
0
230
1
40
0.121869
41
-1.18682389135615
42
-1.16456723893881
0
ELLIPSE
5
135
100
AcDbEntity
8
1
62
256
6
ByLayer
370
13
48
1
60
0
100
AcDbEllipse
10
63.458781
20
-32.318834
30
0
11
0.0322705528359684
21
-0.237820544570188
31
0
210
0
220
0
230
1
40
0.009402
41
-1.50161815253465
42
-0.684082575269648
0
ELLIPSE
5
136
100
AcDbEntity
8
1
62
256
6
ByLayer
370
13
48
1
60
0
100
AcDbEllipse
10
62.228622
20
-32.440299
30
0
11
-0.0129780832447759
21
-0.239648845929397
31
0
210
0
220
0
230
1
40
0.707925
41
0.878821726712005
42
1.55967335367816
0
ELLIPSE
5
137
100
AcDbEntity
8
1
62
256
6
ByLayer
370
13
48
1
60
0
100
AcDbEllipse
10
64.374132
20
-33.5
30
0
11
7.34840019897959
21
1.47619710347048E-07
31
0
210
0
220
0
230
-1
40
0.08165
41
1.9547688936116
42
2.00162060753087
0
ELLIPSE
5
138
100
AcDbEntity
8
1
62
256
6
ByLayer
370
13
48
1
60
0
100
AcDbEllipse
10
61.986644
20
-33.5
30
0
11
1.63150680420528
21
1.57926384946475E-09
31
0
210
0
220
0
230
-1
40
0.367758
41
-2.17407423280727
42
-2.00162049020401
0
ELLIPSE
5
139
100
AcDbEntity
8
1
62
256
6
ByLayer
370
13
48
1
60
0
100
AcDbEllipse
10
64.374128
20
-33.5
30
0
11
7.34839465439994
21
1.3875382436748E-07
31
0
210
0
220
0
230
-1
40
0.08165
41
-2.00162038314125
42
-1.95476863864694
0
ELLIPSE
5
13A
100
AcDbEntity
8
1
62
256
6
ByLayer
370
13
48
1
60
0
100
AcDbEllipse
10
61.986644
20
-33.5
30
0
11
1.63150681522744
21
1.6650038323673E-09
31
0
210
0
220
0
230
-1
40
0.367758
41
2.0016204937271
42
2.17407423538902
0
ELLIPSE
5
13B
100
AcDbEntity
8
1
62
256
6
ByLayer
370
13
48
1
60
0
100
AcDbEllipse
10
62.123829
20
-34.561383
30
0
11
0.1082392992065
21
-0.214206101937563
31
0
210
0
220
0
230
1
40
0.678671
41
1.29279293091362
42
1.84879976311947
0
ELLIPSE
5
13C
100
AcDbEntity
8
1
62
256
6
ByLayer
370
13
48
1
60
0
100
AcDbEllipse
10
62.123829
20
-32.438617
30
0
11
0.1082392992065
21
0.214206101937563
31
0
210
0
220
0
230
1
40
0.678671
41
-1.8487997631195
42
-1.29279293091362
0
ELLIPSE
5
13D
100
AcDbEntity
8
1
62
256
6
ByLayer
370
13
48
1
60
0
100
AcDbEllipse
10
61.859452
20
-34.321836
30
0
11
0.219354463278089
21
0.119931728245622
31
0
210
0
220
0
230
1
40
0.441633
41
0.600579851753478
42
1.30662817391549
0
ELLIPSE
5
13E
100
AcDbEntity
8
1
62
256
6
ByLayer
370
13
48
1
60
0
100
AcDbEllipse
10
61.859452
20
-32.678164
30
0
11
-0.219354463278086
21
0.119931728245626
31
0
210
0
220
0
230
1
40
0.441633
41
1.83496447967427
42
2.54101280183645
0
ELLIPSE
5
13F
100
AcDbEntity
8
1
62
256
6
ByLayer
370
13
48
1
60
0
100
AcDbEllipse
10
61.295115
20
-34.226897
30
0
11
-0.0433548151255266
21
-0.195244359727577
31
0
210
0
220
0
230
1
40
0.334809
41
-2.68611088405472
42
-1.49658713340603
0
ELLIPSE
5
140
100
AcDbEntity
8
1
62
256
6
ByLayer
370
13
48
1
60
0
100
AcDbEllipse
10
61.295115
20
-32.773103
30
0
11
-0.0433548151255279
21
0.195244359727577
31
0
210
0
220
0
230
1
40
0.334809
41
1.49658713340592
42
2.68611088405472
0
ELLIPSE
5
141
100
AcDbEntity
8
1
62
256
6
ByLayer
370
13
48
1
60
0
100
AcDbEllipse
10
61.91824
20
-33.5
30
0
11
1.65588067723732
21
-4.42474711680278E-10
31
0
210
0
220
0
230
-1
40
0.483127
41
2.00162049153681
42
2.17407423376597
0
ELLIPSE
5
142
100
AcDbEntity
8
1
62
256
6
ByLayer
370
13
48
1
60
0
100
AcDbEllipse
10
61.91824
20
-33.5
30
0
11
1.65588067856903
21
1.67349768431815E-15
31
0
210
0
220
0
230
-1
40
0.483127
41
-2.17407423398387
42
-2.00162049187709
0
ELLIPSE
5
143
100
AcDbEntity
8
1
62
256
6
ByLayer
370
13
48
1
60
0
100
AcDbEllipse
10
62.125564
20
-32.438978
30
0
11
0.00742724597932567
21
-0.239885047506431
31
0
210
0
220
0
230
1
40
0.70617
41
0.84639308412255
42
1.49951821957466
0
ELLIPSE
5
144
100
AcDbEntity
8
1
62
256
6
ByLayer
370
13
48
1
60
0
100
AcDbEllipse
10
62.125564
20
-34.561022
30
0
11
0.00742724597932589
21
0.239885047506431
31
0
210
0
220
0
230
1
40
0.70617
41
-1.49951821957463
42
-0.84639308412255
0
ELLIPSE
5
145
100
AcDbEntity
8
1
62
256
6
ByLayer
370
13
48
1
60
0
100
AcDbEllipse
10
61.047188
20
-34.158784
30
0
11
-0.0631638165780187
21
-0.189763885592856
31
0
210
0
220
0
230
1
40
0.326425
41
-2.50339446299667
42
-1.46256868006916
0
ELLIPSE
5
146
100
AcDbEntity
8
1
62
256
6
ByLayer
370
13
48
1
60
0
100
AcDbEllipse
10
61.047188
20
-32.841216
30
0
11
-0.0631638165785347
21
0.189763885592684
31
0
210
0
220
0
230
1
40
0.326425
41
1.46256868006827
42
2.50339446299233
0
ELLIPSE
5
147
100
AcDbEntity
8
1
62
256
6
ByLayer
370
13
48
1
60
0
100
AcDbEllipse
10
61.850683
20
-34.334465
30
0
11
0.195064510201759
21
-0.227925068519783
31
0
210
0
220
0
230
1
40
0.863833
41
1.64869430110502
42
2.31141389753816
0
ELLIPSE
5
148
100
AcDbEntity
8
1
62
256
6
ByLayer
370
13
48
1
60
0
100
AcDbEllipse
10
61.850683
20
-32.665535
30
0
11
-0.195064510201764
21
-0.227925068519779
31
0
210
0
220
0
230
1
40
0.863833
41
0.830178756051618
42
1.49289835248475
0
ELLIPSE
5
149
100
AcDbEntity
8
1
62
256
6
ByLayer
370
13
48
1
60
0
100
AcDbEllipse
10
60.950966
20
-34.197967
30
0
11
0.182866340278506
21
-0.0809932194269721
31
0
210
0
220
0
230
1
40
0.14582
41
-2.77286095187715
42
-1.88885149068665
0
ELLIPSE
5
14A
100
AcDbEntity
8
1
62
256
6
ByLayer
370
13
48
1
60
0
100
AcDbEllipse
10
60.950966
20
-32.802033
30
0
11
0.182866340278443
21
0.0809932194271139
31
0
210
0
220
0
230
1
40
0.14582
41
1.88885149068652
42
2.77286095187533
0
ELLIPSE
5
14B
100
AcDbEntity
8
1
62
256
6
ByLayer
370
13
48
1
60
0
100
AcDbEllipse
10
61.902412
20
-32.793067
30
0
11
-0.299757884748935
21
0.0120503332254432
31
0
210
0
220
0
230
1
40
0.786325
41
1.677914350623
42
2.25220990045422
0
ELLIPSE
5
14C
100
AcDbEntity
8
1
62
256
6
ByLayer
370
13
48
1
60
0
100
AcDbEllipse
10
61.902412
20
-34.206933
30
0
11
0.299757884748933
21
0.0120503332254948
31
0
210
0
220
0
230
1
40
0.786325
41
0.889382753135404
42
1.46367830296665
0
ELLIPSE
5
14D
100
AcDbEntity
8
1
62
256
6
ByLayer
370
13
48
1
60
0
100
AcDbEllipse
10
60.692326
20
-32.374098
30
0
11
0.0570319130279923
21
-0.138734858259803
31
0
210
0
220
0
230
1
40
0.776494
41
-1.87977830526732
42
-1.56980601158798
0
ELLIPSE
5
14E
100
AcDbEntity
8
1
62
256
6
ByLayer
370
13
48
1
60
0
100
AcDbEllipse
10
60.692326
20
-34.625902
30
0
11
-0.0570319130268966
21
-0.138734858260253
31
0
210
0
220
0
230
1
40
0.776494
41
-1.57178664200825
42
-1.26181434832865
0
ELLIPSE
5
14F
100
AcDbEntity
8
1
62
256
6
ByLayer
370
13
48
1
60
0
100
AcDbEllipse
10
61.08147
20
-33.979243
30
0
11
-0.105329348464612
21
0.280901634655301
31
0
210
0
220
0
230
1
40
0.319781
41
-1.09012327608125
42
-0.20369511440013
0
ELLIPSE
5
150
100
AcDbEntity
8
1
62
256
6
ByLayer
370
13
48
1
60
0
100
AcDbEllipse
10
61.08147
20
-33.020757
30
0
11
-0.105329348464631
21
-0.280901634655294
31
0
210
0
220
0
230
1
40
0.319781
41
0.203695114400129
42
1.09012327608125
0
ELLIPSE
5
151
100
AcDbEntity
8
1
62
256
6
ByLayer
370
13
48
1
60
0
100
AcDbEllipse
10
62.009329
20
-33.788572
30
0
11
-0.263738087060282
21
0.142976296755033
31
0
210
0
220
0
230
1
40
0.337339
41
-2.12742665195263
42
-1.51944467242793
0
ELLIPSE
5
152
100
AcDbEntity
8
1
62
256
6
ByLayer
370
13
48
1
60
0
100
AcDbEllipse
10
62.009329
20
-33.211428
30
0
11
-0.26373808706239
21
-0.142976296751144
31
0
210
0
220
0
230
1
40
0.337339
41
1.51944467242558
42
2.12742665190389
0
ELLIPSE
5
153
100
AcDbEntity
8
1
62
256
6
ByLayer
370
13
48
1
60
0
100
AcDbEllipse
10
60.689927
20
-34.625438
30
0
11
4.24912383924225E-17
21
0.15
31
0
210
0
220
0
230
1
40
0.795546
41
1.23482044578599
42
1.5707963267949
0
ELLIPSE
5
154
100
AcDbEntity
8
1
62
256
6
ByLayer
370
13
48
1
60
0
100
AcDbEllipse
10
60.689927
20
-32.374562
30
0
11
4.24912383924225E-17
21
0.15
31
0
210
0
220
0
230
1
40
0.795546
41
1.5707963267949
42
1.90677220780381
0
ELLIPSE
5
155
100
AcDbEntity
8
1
62
256
6
ByLayer
370
13
48
1
60
0
100
AcDbEllipse
10
60.433293
20
-34.625438
30
0
11
-2.75536429610035E-17
21
-0.15
31
0
210
0
220
0
230
1
40
0.34202
41
-1.75278811305915
42
-1.5707963267949
0
ELLIPSE
5
156
100
AcDbEntity
8
1
62
256
6
ByLayer
370
13
48
1
60
0
100
AcDbEllipse
10
60.433293
20
-32.374562
30
0
11
4.24912383924225E-17
21
0.15
31
0
210
0
220
0
230
1
40
0.34202
41
1.5707963267949
42
1.75278811305915
0
ELLIPSE
5
157
100
AcDbEntity
8
1
62
256
6
ByLayer
370
13
48
1
60
0
100
AcDbEllipse
10
60.939982
20
-33.066549
30
0
11
-0.0205626710087509
21
-0.198940133107892
31
0
210
0
220
0
230
1
40
0.702979
41
-1.10867675839078
42
-0.337059544638716
0
ELLIPSE
5
158
100
AcDbEntity
8
1
62
256
6
ByLayer
370
13
48
1
60
0
100
AcDbEllipse
10
60.939982
20
-33.933451
30
0
11
-0.0205626710087514
21
0.198940133107892
31
0
210
0
220
0
230
1
40
0.702979
41
0.337059544638871
42
1.10867675839083
0
ELLIPSE
5
159
100
AcDbEntity
8
1
62
256
6
ByLayer
370
13
48
1
60
0
100
AcDbEllipse
10
61.072352
20
-33.017337
30
0
11
0.1054031629799
21
0.280873945452106
31
0
210
0
220
0
230
1
40
0.321796
41
-2.93702761420043
42
-2.05551827773611
0
ELLIPSE
5
15A
100
AcDbEntity
8
1
62
256
6
ByLayer
370
13
48
1
60
0
100
AcDbEllipse
10
61.072352
20
-33.982663
30
0
11
-0.105403162979924
21
0.280873945452097
31
0
210
0
220
0
230
1
40
0.321796
41
-1.08607437585372
42
-0.204565039389442
0
ELLIPSE
5
15B
100
AcDbEntity
8
1
62
256
6
ByLayer
370
13
48
1
60
0
100
AcDbEllipse
10
64.147654
20
-34.691357
30
0
11
-0.00560126668057228
21
0.239934628204378
31
0
210
0
220
0
230
1
40
0.172043
41
0.732097455141114
42
1.49800588930577
0
ELLIPSE
5
15C
100
AcDbEntity
8
1
62
256
6
ByLayer
370
13
48
1
60
0
100
AcDbEllipse
10
64.147654
20
-32.308643
30
0
11
-0.00560126668057245
21
-0.239934628204378
31
0
210
0
220
0
230
1
40
0.172043
41
-1.49800588930577
42
-0.732097455141114
0
ELLIPSE
5
15D
100
AcDbEntity
8
1
62
256
6
ByLayer
370
13
48
1
60
0
100
AcDbEllipse
10
60.931197
20
-33.066064
30
0
11
5.665498452323E-17
21
0.2
31
0
210
0
220
0
230
1
40
0.803713
41
1.90677220780378
42
2.72521072930059
0
ELLIPSE
5
15E
100
AcDbEntity
8
1
62
256
6
ByLayer
370
13
48
1
60
0
100
AcDbEllipse
10
60.931197
20
-33.933936
30
0
11
5.665498452323E-17
21
0.2
31
0
210
0
220
0
230
1
40
0.803713
41
0.416381924289203
42
1.23482044578601
0
ELLIPSE
5
15F
100
AcDbEntity
8
1
62
256
6
ByLayer
370
13
48
1
60
0
100
AcDbEllipse
10
60.533999
20
-33.933936
30
0
11
-3.67381906146713E-17
21
-0.2
31
0
210
0
220
0
230
1
40
0.34202
41
-2.72521072930056
42
-1.9067722078038
0
ELLIPSE
5
160
100
AcDbEntity
8
1
62
256
6
ByLayer
370
13
48
1
60
0
100
AcDbEllipse
10
60.533999
20
-33.066064
30
0
11
5.665498452323E-17
21
0.2
31
0
210
0
220
0
230
1
40
0.34202
41
1.9067722078038
42
2.72521072930056
0
ELLIPSE
5
161
100
AcDbEntity
8
1
62
256
6
ByLayer
370
13
48
1
60
0
100
AcDbEllipse
10
64.752853
20
-34.421167
30
0
11
-0.0533981556875965
21
0.0845496124719871
31
0
210
0
220
0
230
1
40
0.139768
41
-1.57717485146094
42
-0.740023965274873
0
ELLIPSE
5
162
100
AcDbEntity
8
1
62
256
6
ByLayer
370
13
48
1
60
0
100
AcDbEllipse
10
64.913527
20
-34.27169
30
0
11
-0.0833341889559589
21
0.0552757899179428
31
0
210
0
220
0
230
1
40
0.125151
41
-1.63388084261207
42
-1.0088898439735
0
ELLIPSE
5
163
100
AcDbEntity
8
1
62
256
6
ByLayer
370
13
48
1
60
0
100
AcDbEllipse
10
64.913527
20
-32.72831
30
0
11
-0.0833341889559589
21
-0.0552757899179427
31
0
210
0
220
0
230
1
40
0.125151
41
1.00888984397374
42
1.63388084261207
0
ELLIPSE
5
164
100
AcDbEntity
8
1
62
256
6
ByLayer
370
13
48
1
60
0
100
AcDbEllipse
10
64.752853
20
-32.578833
30
0
11
-0.0533981556875966
21
-0.0845496124719871
31
0
210
0
220
0
230
1
40
0.139768
41
0.74002396527421
42
1.57717485146094
0
ELLIPSE
5
165
100
AcDbEntity
8
1
62
256
6
ByLayer
370
13
48
1
60
0
100
AcDbEllipse
10
64.258678
20
-34.089076
30
0
11
0.0148293336171642
21
0.399725019062444
31
0
210
0
220
0
230
1
40
0.406503
41
-2.33595515067488
42
-1.55571667185628
0
ELLIPSE
5
166
100
AcDbEntity
8
1
62
256
6
ByLayer
370
13
48
1
60
0
100
AcDbEllipse
10
64.620403
20
-34.503257
30
0
11
-0.0518341759381039
21
0.0855173561612945
31
0
210
0
220
0
230
1
40
0.13986
41
-1.57460332353084
42
-0.736311954701273
0
ELLIPSE
5
167
100
AcDbEntity
8
1
62
256
6
ByLayer
370
13
48
1
60
0
100
AcDbEllipse
10
64.523358
20
-34.58063
30
0
11
-0.0777628762498878
21
0.0628723713354654
31
0
210
0
220
0
230
1
40
0.13045
41
-1.62182792903071
42
-1.15581636427987
0
ELLIPSE
5
168
100
AcDbEntity
8
1
62
256
6
ByLayer
370
13
48
1
60
0
100
AcDbEllipse
10
64.620403
20
-32.496743
30
0
11
-0.0518341759381039
21
-0.0855173561612945
31
0
210
0
220
0
230
1
40
0.13986
41
0.736311954700043
42
1.57460332353069
0
ELLIPSE
5
169
100
AcDbEntity
8
1
62
256
6
ByLayer
370
13
48
1
60
0
100
AcDbEllipse
10
64.258678
20
-32.910924
30
0
11
0.014829333617164
21
-0.399725019062444
31
0
210
0
220
0
230
1
40
0.406503
41
1.55571667185628
42
2.33595515067495
0
ELLIPSE
5
16A
100
AcDbEntity
8
1
62
256
6
ByLayer
370
13
48
1
60
0
100
AcDbEllipse
10
64.523358
20
-32.41937
30
0
11
-0.0777628762498878
21
-0.0628723713354653
31
0
210
0
220
0
230
1
40
0.13045
41
1.15581636427987
42
1.62182792903085
0
ELLIPSE
5
16B
100
AcDbEntity
8
1
62
256
6
ByLayer
370
13
48
1
60
0
100
AcDbEllipse
10
63.758781
20
-32.304849
30
0
11
-0.0082466205512047
21
-0.239858277425409
31
0
210
0
220
0
230
1
40
0.002403
41
0.709373157667507
42
1.50102444918866
0
ELLIPSE
5
16C
100
AcDbEntity
8
1
62
256
6
ByLayer
370
13
48
1
60
0
100
AcDbEllipse
10
63.758781
20
-34.695151
30
0
11
-0.00824662055120453
21
0.239858277425409
31
0
210
0
220
0
230
1
40
0.002403
41
-1.50102444918692
42
-0.709373157665675
0
ELLIPSE
5
16D
100
AcDbEntity
8
1
62
256
6
ByLayer
370
13
48
1
60
0
100
AcDbEllipse
10
60.782996
20
-31.419859
30
0
11
5.665498452323E-16
21
2
31
0
210
0
220
0
230
1
40
0.34202
41
2.7252107293006
42
2.79252680319093
0
ELLIPSE
5
16E
100
AcDbEntity
8
1
62
256
6
ByLayer
370
13
48
1
60
0
100
AcDbEllipse
10
60.782996
20
-35.580141
30
0
11
-3.67381906146713E-16
21
-2
31
0
210
0
220
0
230
1
40
0.34202
41
-2.79252680319093
42
-2.72521072930061
0
ELLIPSE
5
16F
100
AcDbEntity
8
1
62
256
6
ByLayer
370
13
48
1
60
0
100
AcDbEllipse
10
64.935862
20
-34.23707
30
0
11
-0.0846493904271157
21
0.0532398412874958
31
0
210
0
220
0
230
1
40
0.065231
41
-1.67414184501539
42
-1.04577954889712
0
ELLIPSE
5
170
100
AcDbEntity
8
1
62
256
6
ByLayer
370
13
48
1
60
0
100
AcDbEllipse
10
64.935862
20
-32.76293
30
0
11
-0.0846493904271157
21
-0.0532398412874957
31
0
210
0
220
0
230
1
40
0.065231
41
1.04577954889663
42
1.67414184501525
0
ELLIPSE
5
171
100
AcDbEntity
8
1
62
256
6
ByLayer
370
13
48
1
60
0
100
AcDbEllipse
10
60.527689
20
-33.5
30
0
11
5.94877337493915E-17
21
0.21
31
0
210
0
220
0
230
1
40
0.34202
41
-2.79252680319093
42
-0.349065850398866
0
ELLIPSE
5
172
100
AcDbEntity
8
1
62
256
6
ByLayer
370
13
48
1
60
0
100
AcDbEllipse
10
57.308132
20
-32.230414
30
0
11
0.979582052313473
21
-0.301726209236653
31
0
210
0
220
0
230
-1
40
0.270086
41
2.0527307451359
42
2.24185105455526
0
ELLIPSE
5
173
100
AcDbEntity
8
1
62
256
6
ByLayer
370
18
48
1
60
0
100
AcDbEllipse
10
64.506337
20
-34.973303
30
0
11
0.239997045660836
21
-0.0169489930470565
31
0
210
0
220
0
230
-1
40
0.070266
41
1.44395567154198
42
1.73995037573446
0
ELLIPSE
5
174
100
AcDbEntity
8
1
62
256
6
ByLayer
370
18
48
1
60
0
100
AcDbEllipse
10
65.048748
20
-34.23707
30
0
11
1.1330996904646E-16
21
0.4
31
0
210
0
220
0
230
1
40
0.121869
41
1.5707963267949
42
1.64009079051255
0
ELLIPSE
5
175
100
AcDbEntity
8
1
62
256
6
ByLayer
370
18
48
1
60
0
100
AcDbEllipse
10
65.048748
20
-32.76293
30
0
11
1.1330996904646E-16
21
0.4
31
0
210
0
220
0
230
1
40
0.121869
41
1.50150186307724
42
1.5707963267949
0
ELLIPSE
5
176
100
AcDbEntity
8
1
62
256
6
ByLayer
370
18
48
1
60
0
100
AcDbEllipse
10
61.542652
20
-32.05
30
0
11
0.201946432116473
21
0
31
0
210
0
220
0
230
1
40
0.990362
41
-1.5707963267949
42
-1.04299365512072
0
ELLIPSE
5
177
100
AcDbEntity
8
1
62
256
6
ByLayer
370
18
48
1
60
0
100
AcDbEllipse
10
62.136306
20
-34.841309
30
0
11
0.251841921922129
21
-0.0177818623305181
31
0
210
0
220
0
230
-1
40
0.06924
41
0.774400198844831
42
1.56101782193667
0
ELLIPSE
5
178
100
AcDbEntity
8
1
62
256
6
ByLayer
370
18
48
1
60
0
100
AcDbEllipse
10
61.553398
20
-34.95
30
0
11
-0.201490790302156
21
2.46746902040712E-17
31
0
210
0
220
0
230
1
40
0.992601
41
-2.09761674342107
42
-1.5707963267949
0
ELLIPSE
5
179
100
AcDbEntity
8
1
62
256
6
ByLayer
370
18
48
1
60
0
100
AcDbEllipse
10
62.136306
20
-32.158691
30
0
11
0.251841922003651
21
0.0177818623401886
31
0
210
0
220
0
230
-1
40
0.06924
41
-1.56101782170596
42
-0.774400198842743
0
ELLIPSE
5
17A
100
AcDbEntity
8
1
62
256
6
ByLayer
370
18
48
1
60
0
100
AcDbEllipse
10
64.506337
20
-32.026697
30
0
11
0.239997043532622
21
0.0169489928944527
31
0
210
0
220
0
230
-1
40
0.070266
41
-1.73995037738565
42
-1.44395567054681
0
ELLIPSE
5
17B
100
AcDbEntity
8
1
62
256
6
ByLayer
370
18
48
1
60
0
100
AcDbEllipse
10
61.79757
20
-32.365831
30
0
11
0.058624730201206
21
-0.191752852286547
31
0
210
-1.59644179966719E-15
220
4.38574520942052E-19
230
1
40
0.997435
41
2.91526219766618
42
-2.91526219766618
0
ELLIPSE
5
17C
100
AcDbEntity
8
1
62
256
6
ByLayer
370
18
48
1
60
0
100
AcDbEllipse
10
61.809275
20
-34.634987
30
0
11
0.00297293931671267
21
0.200467814146891
31
0
210
-1.59612295829283E-15
220
-1.26268957575375E-19
230
1
40
0.997557
41
2.63386280411411
42
3.08674247812914
0
POINT
5
6C
100
AcDbEntity
8
80
62
256
6
ByLayer
370
18
48
1
60
0
100
AcDbPoint
10
0
20
0
30
0
39
0
210
0
220
0
230
1
50
360
0
POINT
5
6E
100
AcDbEntity
8
81
62
256
6
ByLayer
370
18
48
1
60
0
100
AcDbPoint
10
65
20
-35
30
0
39
0
210
0
220
0
230
1
50
360
0
SPLINE
5
17D
100
AcDbEntity
8
SK1
62
256
6
ByLayer
370
13
48
1
60
0
100
AcDbSpline
70
4
71
2
72
6
73
3
40
0
40
0
40
0
40
1
40
1
40
1
41
1
10
-28.5
20
-16.8545212066649
30
0
41
1
10
-15.2499999987993
20
-17.1871851888411
30
0
41
1
10
-1.99999999999991
20
-17.5198482068775
30
0
0
SPLINE
5
17E
100
AcDbEntity
8
SK1
62
256
6
ByLayer
370
13
48
1
60
0
100
AcDbSpline
70
4
71
2
72
6
73
3
40
0
40
0
40
0
40
1
40
1
40
1
41
1
10
-1.99999999999991
20
17.5198479235725
30
0
41
1
10
-15.2499999987994
20
17.1871849060498
30
0
41
1
10
-28.5
20
16.8545209244113
30
0
0
SPLINE
5
17F
100
AcDbEntity
8
SK1
62
256
6
ByLayer
370
13
48
1
60
0
100
AcDbSpline
70
4
71
3
72
13
73
9
40
0
40
0
40
0
40
0
40
0.239409099367216
40
0.368297400752129
40
0.499931438691499
40
0.63157686635808
40
0.760496583550954
40
1
40
1
40
1
40
1
41
1
10
-1.99999999999991
20
-17.525129116923
30
0
41
1
10
-1.9990912571979
20
-17.4990813944884
30
0
41
1
10
-1.99103211472598
20
-17.4617233046648
30
0
41
1
10
-1.96563495891911
20
-17.4155240253432
30
0
41
1
10
-1.9388625082257
20
-17.3842556209573
30
0
41
1
10
-1.90627575278668
20
-17.3590990612904
30
0
41
1
10
-1.85883875467883
20
-17.3360651360603
30
0
41
1
10
-1.82110932008973
20
-17.3298953840654
30
0
41
1
10
-1.79503997793921
20
-17.3302974649007
30
0
0
SPLINE
5
180
100
AcDbEntity
8
SK1
62
256
6
ByLayer
370
13
48
1
60
0
100
AcDbSpline
70
4
71
3
72
13
73
9
40
0
40
0
40
0
40
0
40
0.239503416121649
40
0.36842313319626
40
0.500068560814821
40
0.631702598790227
40
0.760590900287168
40
1
40
1
40
1
40
1
41
1
10
-1.79503997793924
20
17.3302973195575
30
0
41
1
10
-1.8211093200961
20
17.3298952387249
30
0
41
1
10
-1.85883875469071
20
17.3360649907381
30
0
41
1
10
-1.90627575279677
20
17.3590989160413
30
0
41
1
10
-1.93886250823528
20
17.3842554757878
30
0
41
1
10
-1.96563495892642
20
17.4155238802705
30
0
41
1
10
-1.9910321147313
20
17.4617231597379
30
0
41
1
10
-1.9990912572033
20
17.4990812496681
30
0
41
1
10
-1.99999999999991
20
17.5251289721745
30
0
0
SPLINE
5
181
100
AcDbEntity
8
SK1
62
256
6
ByLayer
370
13
48
1
60
0
100
AcDbSpline
70
4
71
2
72
6
73
3
40
0
40
0
40
0
40
1
40
1
40
1
41
1
10
-1.79503997793921
20
-17.3250646819564
30
0
41
1
10
-0.995008433402973
20
-17.3451508243471
30
0
41
1
10
-0.194976888875232
20
-17.3652369633
30
0
0
SPLINE
5
182
100
AcDbEntity
8
SK1
62
256
6
ByLayer
370
13
48
1
60
0
100
AcDbSpline
70
4
71
2
72
6
73
3
40
0
40
0
40
0
40
1
40
1
40
1
41
1
10
-0.194976888875232
20
17.3652366802367
30
0
41
1
10
-0.995008433402973
20
17.3451505413153
30
0
41
1
10
-1.79503997793924
20
17.3250643989562
30
0
0
SPLINE
5
183
100
AcDbEntity
8
SK1
62
256
6
ByLayer
370
13
48
1
60
0
100
AcDbSpline
70
4
71
2
72
6
73
3
40
0
40
0
40
0
40
1
40
1
40
1
41
1
10
-30
20
-15.9932495545752
30
0
41
1
10
-29.2499990770552
20
-16.4260289695446
30
0
41
1
10
-28.5
20
-16.8588008432385
30
0
0
SPLINE
5
184
100
AcDbEntity
8
SK1
62
256
6
ByLayer
370
13
48
1
60
0
100
AcDbSpline
70
4
71
2
72
6
73
3
40
0
40
0
40
0
40
1
40
1
40
1
41
1
10
-28.5
20
16.8588006436881
30
0
41
1
10
-29.2499990770911
20
16.426028770442
30
0
41
1
10
-29.9999999999999
20
15.9932493559076
30
0
0
SPLINE
5
185
100
AcDbEntity
8
SK1
62
256
6
ByLayer
370
13
48
1
60
0
100
AcDbSpline
70
4
71
2
72
6
73
3
40
0
40
0
40
0
40
1
40
1
40
1
41
1
10
-0.194976888875232
20
-17.3704796738453
30
0
41
1
10
-0.0591463025171493
20
-17.3755257485881
30
0
41
1
10
-0.0356373333999045
20
-17.465527159715
30
0
0
SPLINE
5
186
100
AcDbEntity
8
SK1
62
256
6
ByLayer
370
13
48
1
60
0
100
AcDbSpline
70
4
71
2
72
6
73
3
40
0
40
0
40
0
40
1
40
1
40
1
41
1
10
-0.0343899619089143
20
17.4680396001794
30
0
41
1
10
-0.0576204404094085
20
17.3761040543929
30
0
41
1
10
-0.194976888875232
20
17.3704795286247
30
0
0
SPLINE
5
187
100
AcDbEntity
8
SK1
62
256
6
ByLayer
370
13
48
1
60
0
100
AcDbSpline
70
4
71
3
72
39
73
35
40
0
40
0
40
0
40
0
40
0.0138412302313391
40
0.0424388001683995
40
0.0710363701054599
40
0.0996339400425202
40
0.156829079916641
40
0.214024219790762
40
0.242621789727822
40
0.271219359664882
40
0.328414499539003
40
0.357012069476064
40
0.385609639413124
40
0.414207209350184
40
0.442804779287245
40
0.471402349224305
40
0.485701134192835
40
0.499999919161365
40
0.514298704129896
40
0.528597489098426
40
0.557195059035486
40
0.585792628972547
40
0.614390198909607
40
0.642987768846667
40
0.671585338783728
40
0.728780478657848
40
0.757378048594909
40
0.785975618531969
40
0.84317075840609
40
0.900365898280211
40
0.928963468217271
40
0.957561038154332
40
0.986158608091392
40
1
40
1
40
1
40
1
41
1
10
-1.99999999999991
20
17.5197427577844
30
0
41
1
10
-1.99999999999991
20
17.5129400860168
30
0
41
1
10
-1.99999999999991
20
17.4725596404916
30
0
41
1
10
-1.99999999999994
20
17.3116343538074
30
0
41
1
10
-1.99999999999991
20
16.9815888329671
30
0
41
1
10
-1.99999999999991
20
16.3767064197525
30
0
41
1
10
-1.99999999999991
20
15.3340294930175
30
0
41
1
10
-1.99999999999991
20
13.951909224744
30
0
41
1
10
-1.99999999999991
20
12.6575651420821
30
0
41
1
10
-1.99999999999991
20
11.241205620246
30
0
41
1
10
-1.99999999999994
20
9.64534783198894
30
0
41
1
10
-1.99999999999991
20
7.87638184130796
30
0
41
1
10
-1.99999999999991
20
6.46346246032292
30
0
41
1
10
-1.99999999999991
20
4.96520999967441
30
0
41
1
10
-1.99999999999991
20
3.3831440823123
30
0
41
1
10
-1.99999999999991
20
1.99851186782055
30
0
41
1
10
-1.99999999999994
20
0.861482441955246
30
0
41
1
10
-1.99999999999991
20
1.76095796E-08
30
0
41
1
10
-1.99999999999994
20
-0.861482365135799
30
0
41
1
10
-1.99999999999991
20
-1.99851187450375
30
0
41
1
10
-1.99999999999991
20
-3.38314406709793
30
0
41
1
10
-1.99999999999991
20
-4.96520967393036
30
0
41
1
10
-1.99999999999991
20
-6.46346255594887
30
0
41
1
10
-1.99999999999991
20
-7.87638169367142
30
0
41
1
10
-1.99999999999991
20
-9.64534763909759
30
0
41
1
10
-1.99999999999991
20
-11.2412056085041
30
0
41
1
10
-1.99999999999994
20
-12.6575649796177
30
0
41
1
10
-1.99999999999991
20
-13.951909601472
30
0
41
1
10
-1.99999999999991
20
-15.3340290660617
30
0
41
1
10
-1.99999999999991
20
-16.3767071899765
30
0
41
1
10
-1.99999999999991
20
-16.9815887046989
30
0
41
1
10
-1.99999999999994
20
-17.3116346702719
30
0
41
1
10
-1.99999999999989
20
-17.4725605649344
30
0
41
1
10
-1.99999999999989
20
-17.5129407115324
30
0
41
1
10
-1.99999999999989
20
-17.5197432420487
30
0
0
SPLINE
5
188
100
AcDbEntity
8
SK1
62
256
6
ByLayer
370
13
48
1
60
0
100
AcDbSpline
70
4
71
3
72
39
73
35
40
0
40
0
40
0
40
0
40
0.0161825881564476
40
0.0446424310042991
40
0.0731022738521506
40
0.101562116700002
40
0.158481802395705
40
0.215401488091408
40
0.243861330939259
40
0.272321173787111
40
0.329240859482814
40
0.357700702330665
40
0.386160545178517
40
0.414620388026369
40
0.44308023087422
40
0.471540073722072
40
0.485769995145997
40
0.499999916569923
40
0.514229837993849
40
0.528459759417775
40
0.556919602265626
40
0.585379445113478
40
0.613839287961329
40
0.64229913080918
40
0.670758973657032
40
0.727678659352735
40
0.756138502200587
40
0.784598345048438
40
0.841518030744141
40
0.898437716439844
40
0.926897559287695
40
0.955357402135547
40
0.983817244983399
40
1
40
1
40
1
40
1
41
1
10
-28.5
20
16.8572808146188
30
0
41
1
10
-28.4999999999999
20
16.8520758985235
30
0
41
1
10
-28.5
20
16.814107251236
30
0
41
1
10
-28.5
20
16.6531187925377
30
0
41
1
10
-28.5
20
16.3328856609547
30
0
41
1
10
-28.5
20
15.7436769514769
30
0
41
1
10
-28.5
20
14.7294543359372
30
0
41
1
10
-28.5
20
13.3839106046769
30
0
41
1
10
-28.5
20
12.1202809967187
30
0
41
1
10
-28.5
20
10.7383929245239
30
0
41
1
10
-28.5
20
9.19217383455461
30
0
41
1
10
-28.5
20
7.47336198687179
30
0
41
1
10
-28.5
20
6.10816664300197
30
0
41
1
10
-28.5
20
4.66779636016517
30
0
41
1
10
-28.5
20
3.15909751485589
30
0
41
1
10
-28.5
20
1.85825194532154
30
0
41
1
10
-28.5
20
0.795563889585026
30
0
41
1
10
-28.5
20
1.286698534E-07
30
0
41
1
10
-28.5
20
-0.795563863901322
30
0
41
1
10
-28.5
20
-1.85825200188577
30
0
41
1
10
-28.5
20
-3.15909729188601
30
0
41
1
10
-28.5
20
-4.66779609215371
30
0
41
1
10
-28.5
20
-6.10816680103008
30
0
41
1
10
-28.5
20
-7.47336176426714
30
0
41
1
10
-28.5
20
-9.19217366708196
30
0
41
1
10
-28.4999999999999
20
-10.7383929176599
30
0
41
1
10
-28.5
20
-12.120280876233
30
0
41
1
10
-28.5
20
-13.3839109677472
30
0
41
1
10
-28.5
20
-14.7294539424714
30
0
41
1
10
-28.5
20
-15.7436777114931
30
0
41
1
10
-28.5
20
-16.3328855300395
30
0
41
1
10
-28.5
20
-16.653119129773
30
0
41
1
10
-28.5
20
-16.8141081751291
30
0
41
1
10
-28.4999999999999
20
-16.8520764697138
30
0
41
1
10
-28.4999999999999
20
-16.8572811852164
30
0
0
SPLINE
5
189
100
AcDbEntity
8
SK1
62
256
6
ByLayer
370
13
48
1
60
0
100
AcDbSpline
70
4
71
3
72
39
73
35
40
0
40
0
40
0
40
0
40
0.0181821471934368
40
0.0465244259246606
40
0.0748667046558846
40
0.103208983387109
40
0.159893540849556
40
0.216578098312004
40
0.244920377043228
40
0.273262655774452
40
0.3299472132369
40
0.358289491968124
40
0.386631770699348
40
0.414974049430572
40
0.443316328161796
40
0.47165860689302
40
0.485829746258632
40
0.500000885624244
40
0.514172024989855
40
0.528343164355467
40
0.556685443086691
40
0.585027721817916
40
0.613370000549139
40
0.641712279280363
40
0.670054558011587
40
0.726739115474035
40
0.755081394205259
40
0.783423672936483
40
0.840108230398931
40
0.896792787861379
40
0.925135066592603
40
0.953477345323826
40
0.981819624055051
40
1
40
1
40
1
40
1
41
1
10
-29.9999999999999
20
15.9932053886196
30
0
41
1
10
-29.9999999999999
20
15.9899219750911
30
0
41
1
10
-30
20
15.9548426705218
30
0
41
1
10
-30
20
15.7965327535813
30
0
41
1
10
-29.9999999999999
20
15.4890634139888
30
0
41
1
10
-30
20
14.9202427964398
30
0
41
1
10
-29.9999999999999
20
13.9430330734596
30
0
41
1
10
-30
20
12.6450674903884
30
0
41
1
10
-29.9999999999999
20
11.4213907579162
30
0
41
1
10
-29.9999999999999
20
10.084342571431
30
0
41
1
10
-30
20
8.60269267078095
30
0
41
1
10
-30
20
6.94912049428407
30
0
41
1
10
-29.9999999999999
20
5.64600378047231
30
0
41
1
10
-29.9999999999999
20
4.28092566737902
30
0
41
1
10
-30
20
2.86766148350509
30
0
41
1
10
-29.9999999999999
20
1.67580418173901
30
0
41
1
10
-30
20
0.709818138095585
30
0
41
1
10
-30
20
2.731355266E-07
30
0
41
1
10
-30
20
-0.709818178928259
30
0
41
1
10
-30
20
-1.67580430318799
30
0
41
1
10
-30
20
-2.86766099029043
30
0
41
1
10
-30
20
-4.28092547446502
30
0
41
1
10
-29.9999999999999
20
-5.64600401967203
30
0
41
1
10
-30
20
-6.94912017416223
30
0
41
1
10
-30
20
-8.6026925363725
30
0
41
1
10
-29.9999999999999
20
-10.0843425709123
30
0
41
1
10
-30
20
-11.4213906920357
30
0
41
1
10
-30
20
-12.6450678356931
30
0
41
1
10
-30
20
-13.9430327235571
30
0
41
1
10
-30
20
-14.9202435431778
30
0
41
1
10
-30
20
-15.4890632796304
30
0
41
1
10
-30
20
-15.7965331178348
30
0
41
1
10
-30
20
-15.9548394736352
30
0
41
1
10
-29.9999999999999
20
-15.9899195641499
30
0
41
1
10
-30
20
-15.9932046115449
30
0
0
SPLINE
5
18A
100
AcDbEntity
8
1
62
256
6
ByLayer
370
13
48
1
60
0
100
AcDbSpline
70
4
71
3
72
8
73
4
40
0
40
0
40
0
40
0
40
1
40
1
40
1
40
1
41
1
10
23.7980461600122
20
-34.6749999999995
30
0
41
1
10
23.7982211869762
20
-34.6749999999995
30
0
41
1
10
23.8602144389086
20
-34.6749999999995
30
0
41
1
10
23.9878711600015
20
-34.6749999999995
30
0
0
SPLINE
5
18B
100
AcDbEntity
8
SK1
62
256
6
ByLayer
370
13
48
1
60
0
100
AcDbSpline
70
4
71
3
72
39
73
35
40
0
40
0
40
0
40
0
40
0.0143966644957772
40
0.0429615552601316
40
0.071526446024486
40
0.10009133678884
40
0.157221118317549
40
0.214350899846258
40
0.242915790610613
40
0.271480681374967
40
0.328610462903676
40
0.35717535366803
40
0.385740244432385
40
0.414305135196739
40
0.442870025961094
40
0.471434916725448
40
0.485717362107625
40
0.499999807489802
40
0.51428225287198
40
0.528564698254157
40
0.557129589018511
40
0.585694479782866
40
0.61425937054722
40
0.642824261311575
40
0.671389152075929
40
0.728518933604638
40
0.757083824368992
40
0.785648715133347
40
0.842778496662056
40
0.899908278190765
40
0.928473168955119
40
0.957038059719473
40
0.985602950483828
40
1
40
1
40
1
40
1
41
1
10
-1.79503997793924
20
17.3257551215856
30
0
41
1
10
-1.79503997793924
20
17.3192800108908
30
0
41
1
10
-1.79503997793924
20
17.2795195317463
30
0
41
1
10
-1.79503997793924
20
17.1188450441767
30
0
41
1
10
-1.79503997793924
20
16.7916722325964
30
0
41
1
10
-1.79503997793924
20
16.1913785074866
30
0
41
1
10
-1.79503997793924
20
15.1570319640165
30
0
41
1
10
-1.79503997793924
20
13.785619970132
30
0
41
1
10
-1.79503997793924
20
12.500267964077
30
0
41
1
10
-1.79503997793924
20
11.0940004239178
30
0
41
1
10
-1.79503997793924
20
9.51267503388598
30
0
41
1
10
-1.79503997793924
20
7.75839234481919
30
0
41
1
10
-1.79503997793927
20
6.3594448191848
30
0
41
1
10
-1.79503997793924
20
4.8781381465428
30
0
41
1
10
-1.79503997793927
20
3.31755142876625
30
0
41
1
10
-1.79503997793924
20
1.95744888431966
30
0
41
1
10
-1.79503997793927
20
0.842183896938593
30
0
41
1
10
-1.79503997793924
20
5.01240436E-08
30
0
41
1
10
-1.79503997793924
20
-0.842183835089827
30
0
41
1
10
-1.79503997793924
20
-1.9574489056063
30
0
41
1
10
-1.79503997793927
20
-3.31755135272868
30
0
41
1
10
-1.79503997793924
20
-4.87813783770071
30
0
41
1
10
-1.79503997793924
20
-6.35944493307983
30
0
41
1
10
-1.79503997793924
20
-7.75839217523475
30
0
41
1
10
-1.79503997793924
20
-9.51267484843632
30
0
41
1
10
-1.79503997793924
20
-11.0940004136041
30
0
41
1
10
-1.79503997793927
20
-12.5002678139024
30
0
41
1
10
-1.79503997793924
20
-13.7856203428615
30
0
41
1
10
-1.79503997793924
20
-15.1570315468654
30
0
41
1
10
-1.79503997793924
20
-16.191379274722
30
0
41
1
10
-1.79503997793924
20
-16.7916721035533
30
0
41
1
10
-1.79503997793927
20
-17.118845366722
30
0
41
1
10
-1.79503997793921
20
-17.2795209540725
30
0
41
1
10
-1.79503997793921
20
-17.3192810341274
30
0
41
1
10
-1.79503997793921
20
-17.3257558780043
30
0
0
SPLINE
5
18C
100
AcDbEntity
8
SK1
62
256
6
ByLayer
370
13
48
1
60
0
100
AcDbSpline
70
4
71
3
72
19
73
15
40
0
40
0
40
0
40
0
40
0.0340168328143442
40
0.103731952838729
40
0.173447072863114
40
0.243162192887499
40
0.382592432936268
40
0.522022672985038
40
0.591737793009423
40
0.661452913033808
40
0.800883153082577
40
0.870598273106962
40
0.940313393131347
40
1
40
1
40
1
40
1
41
1
10
-0.194976888875232
20
17.3652894532973
30
0
41
1
10
-0.194976888875232
20
17.3585856739192
30
0
41
1
10
-0.19497688887526
20
17.3185670127474
30
0
41
1
10
-0.194976888875232
20
17.1586060420318
30
0
41
1
10
-0.194976888875232
20
16.8308407609472
30
0
41
1
10
-0.194976888875232
20
16.2296006616932
30
0
41
1
10
-0.194976888875232
20
15.1935360543338
30
0
41
1
10
-0.194976888875232
20
13.8199155786832
30
0
41
1
10
-0.194976888875232
20
12.5327090406557
30
0
41
1
10
-0.194976888875232
20
11.124360123357
30
0
41
1
10
-0.194976888875232
20
9.54003756166782
30
0
41
1
10
-0.194976888875232
20
7.78272657852645
30
0
41
1
10
-0.194976888875232
20
6.44811514689016
30
0
41
1
10
-0.194976888875232
20
5.53313598468034
30
0
41
1
10
-0.194976888875232
20
5.1012534532241
30
0
0
SPLINE
5
18D
100
AcDbEntity
8
SK1
62
256
6
ByLayer
370
13
48
1
60
0
100
AcDbSpline
70
4
71
3
72
19
73
15
40
0
40
0
40
0
40
0
40
0.0596866936193128
40
0.129401785695021
40
0.19911687777073
40
0.338547061922147
40
0.408262153997856
40
0.477977246073564
40
0.617407430224981
40
0.756837614376399
40
0.826552706452107
40
0.896267798527816
40
0.965982890603524
40
1
40
1
40
1
40
1
41
1
10
-0.194976888875232
20
-5.10125086896659
30
0
41
1
10
-0.194976888875232
20
-5.53313428609076
30
0
41
1
10
-0.194976888875232
20
-6.44811450197952
30
0
41
1
10
-0.194976888875232
20
-7.78272641346857
30
0
41
1
10
-0.194976888875232
20
-9.54003737468335
30
0
41
1
10
-0.194976888875232
20
-11.1243601127486
30
0
41
1
10
-0.19497688887526
20
-12.5327088879464
30
0
41
1
10
-0.194976888875232
20
-13.8199159522374
30
0
41
1
10
-0.194976888875232
20
-15.1935356351605
30
0
41
1
10
-0.194976888875232
20
-16.2296014295451
30
0
41
1
10
-0.194976888875232
20
-16.8308406320638
30
0
41
1
10
-0.19497688887526
20
-17.158606363323
30
0
41
1
10
-0.194976888875203
20
-17.3185678368688
30
0
41
1
10
-0.194976888875203
20
-17.358586213809
30
0
41
1
10
-0.194976888875203
20
-17.3652898689029
30
0
0
SPLINE
5
18E
100
AcDbEntity
8
SK1
62
256
6
ByLayer
370
13
48
1
60
0
100
AcDbSpline
70
4
71
3
72
24
73
20
40
0
40
0
40
0
40
0
40
0.0865398844436548
40
0.0865398844436548
40
0.174606808973597
40
0.174606808973597
40
0.204283232250635
40
0.204283232250635
40
0.234430378298962
40
0.234430378298962
40
0.26096308696213
40
0.26096308696213
40
0.296894251932652
40
0.296894251932652
40
0.362560401604259
40
0.362560401604259
40
0.577775078513674
40
0.577775078513674
40
1
40
1
40
1
40
1
41
1
10
-0.194976888875232
20
-5.10125086895548
30
0
41
1
10
-0.224592653870161
20
-5.16040801377184
30
0
41
1
10
-0.257595479757299
20
-5.21831140841567
30
0
41
1
10
-0.336150389877901
20
-5.32723274028876
30
0
41
1
10
-0.382542848167134
20
-5.38041105877838
30
0
41
1
10
-0.462321250315398
20
-5.43127550158027
30
0
41
1
10
-0.484592781963386
20
-5.44242526658451
30
0
41
1
10
-0.532132005846222
20
-5.45772783053664
30
0
41
1
10
-0.558142899452861
20
-5.46179903845916
30
0
41
1
10
-0.606278947725258
20
-5.46041947085885
30
0
41
1
10
-0.629034072907444
20
-5.45606086620407
30
0
41
1
10
-0.678877240187489
20
-5.43930436278205
30
0
41
1
10
-0.705546599495221
20
-5.4245692712532
30
0
41
1
10
-0.773100753634793
20
-5.37672942900602
30
0
41
1
10
-0.809617767336277
20
-5.33795142049763
30
0
41
1
10
-0.945846243999199
20
-5.16581622302249
30
0
41
1
10
-1.01284657594536
20
-5.01170528380629
30
0
41
1
10
-1.18434707470053
20
-4.55468826919974
30
0
41
1
10
-1.25671595113764
20
-4.2349450791919
30
0
41
1
10
-1.31543506509533
20
-3.91026939581309
30
0
0
SPLINE
5
18F
100
AcDbEntity
8
SK1
62
256
6
ByLayer
370
13
48
1
60
0
100
AcDbSpline
70
4
71
3
72
24
73
20
40
0
40
0
40
0
40
0
40
0.129293125150747
40
0.129293125150747
40
0.160890762412042
40
0.160890762412042
40
0.193125098709774
40
0.193125098709774
40
0.210852819121875
40
0.210852819121875
40
0.228629109348074
40
0.228629109348074
40
0.251617995959132
40
0.251617995959132
40
0.2918115504918
40
0.2918115504918
40
0.417285661636715
40
0.417285661636715
40
1
40
1
40
1
40
1
41
1
10
-0.194976888869462
20
5.10125345319449
30
0
41
1
10
-0.18143702878973
20
5.07420777560071
30
0
41
1
10
-0.166263939419423
20
5.04747373607401
30
0
41
1
10
-0.140897870623121
20
5.02184016772026
30
0
41
1
10
-0.13547381866934
20
5.01716196662667
30
0
41
1
10
-0.123549655232097
20
5.00963193359092
30
0
41
1
10
-0.116826960945218
20
5.00671644858747
30
0
41
1
10
-0.105797159779968
20
5.00555851911656
30
0
41
1
10
-0.101665537812409
20
5.00583807674911
30
0
41
1
10
-0.0936550002320189
20
5.00800667379812
30
0
41
1
10
-0.0896865034612802
20
5.00992758750428
30
0
41
1
10
-0.0813787136888209
20
5.01564999887191
30
0
41
1
10
-0.0771254542123074
20
5.01988425829617
30
0
41
1
10
-0.0668909728101426
20
5.03253319785665
30
0
41
1
10
-0.0616757119723559
20
5.04189507305227
30
0
41
1
10
-0.0435256268500268
20
5.0809109060512
30
0
41
1
10
-0.0358776288922229
20
5.11311220781005
30
0
41
1
10
-0.0008126982962438
20
5.29017319543058
30
0
41
1
10
2.84E-14
20
5.4366141562497
30
0
41
1
10
2.84E-14
20
5.57923236301644
30
0
0
SPLINE
5
190
100
AcDbEntity
8
SK1
62
256
6
ByLayer
370
13
48
1
60
0
100
AcDbSpline
70
4
71
3
72
28
73
24
40
0
40
0
40
0
40
0
40
0.516446141051606
40
0.516446141051606
40
0.606964722938858
40
0.606964722938858
40
0.693548730180216
40
0.693548730180216
40
0.726617429278874
40
0.726617429278874
40
0.76017966774354
40
0.76017966774354
40
0.778833531745537
40
0.778833531745537
40
0.797654854320428
40
0.797654854320428
40
0.814904576888341
40
0.814904576888341
40
0.845176041490646
40
0.845176041490646
40
0.922307781341695
40
0.922307781341695
40
1
40
1
40
1
40
1
41
1
10
5.68E-14
20
-5.57923036606775
30
0
41
1
10
5.68E-14
20
-5.45236806529749
30
0
41
1
10
-0.0023498218234295
20
-5.32313166238597
30
0
41
1
10
-0.0246707618043445
20
-5.17055408176367
30
0
41
1
10
-0.0286524877797945
20
-5.14764204467321
30
0
41
1
10
-0.038756054602743
20
-5.10317866975294
30
0
41
1
10
-0.0446943059310172
20
-5.0813736577449
30
0
41
1
10
-0.0565046990696203
20
-5.05263962384044
30
0
41
1
10
-0.0602008880997289
20
-5.04479189761071
30
0
41
1
10
-0.0689466158998187
20
-5.02994474169316
30
0
41
1
10
-0.074121753631772
20
-5.02277054209381
30
0
41
1
10
-0.0837193538486076
20
-5.01389488612992
30
0
41
1
10
-0.0875463815132207
20
-5.01114472817932
30
0
41
1
10
-0.0956073859926789
20
-5.00725697459046
30
0
41
1
10
-0.0999476032091593
20
-5.00610700608982
30
0
41
1
10
-0.108056444598503
20
-5.00560398939308
30
0
41
1
10
-0.111930329251265
20
-5.00608221695765
30
0
41
1
10
-0.121996996497302
20
-5.00880668081453
30
0
41
1
10
-0.127948105958239
20
-5.01208528001013
30
0
41
1
10
-0.147044934761965
20
-5.02590151619032
30
0
41
1
10
-0.158144588366383
20
-5.03988585432541
30
0
41
1
10
-0.178024754257137
20
-5.06915995887081
30
0
41
1
10
-0.186840242430293
20
-5.08499801267388
30
0
41
1
10
-0.194976888875402
20
-5.10125086895348
30
0
0
SPLINE
5
191
100
AcDbEntity
8
SK1
62
256
6
ByLayer
370
13
48
1
60
0
100
AcDbSpline
70
4
71
3
72
12
73
8
40
0
40
0
40
0
40
0
40
0.499999999999999
40
0.499999999999999
40
0.749999999999999
40
0.749999999999999
40
1
40
1
40
1
40
1
41
1
10
-1.31543506509487
20
3.9102717266542
30
0
41
1
10
-1.24592839325496
20
4.29459561059758
30
0
41
1
10
-1.16331416991247
20
4.66760511762999
30
0
41
1
10
-0.926521435133026
20
5.19044404924682
30
0
41
1
10
-0.835622884145721
20
5.40735814273421
30
0
41
1
10
-0.419282266252367
20
5.50342856768918
30
0
41
1
10
-0.281321823100996
20
5.27372622909871
30
0
41
1
10
-0.194976888875203
20
5.10125345321293
30
0
0
SPLINE
5
192
100
AcDbEntity
8
SK1
62
256
6
ByLayer
370
13
48
1
60
0
100
AcDbSpline
70
4
71
3
72
10
73
6
40
0
40
0
40
0
40
0
40
0.5
40
0.5
40
1
40
1
40
1
40
1
41
1
10
-1.3154350650949
20
-3.91026939581309
30
0
41
1
10
-1.5399457534287
20
-2.66888211580181
30
0
41
1
10
-1.72361848453104
20
-1.33806859990835
30
0
41
1
10
-1.72276554179191
20
1.34789001624873
30
0
41
1
10
-1.53997014218982
20
2.66874784662454
30
0
41
1
10
-1.31543506509493
20
3.91027172665426
30
0
0
SPLINE
5
193
100
AcDbEntity
8
1
62
256
6
ByLayer
370
13
48
1
60
0
100
AcDbSpline
70
4
71
3
72
8
73
4
40
0
40
0
40
0
40
0
40
1
40
1
40
1
40
1
41
1
10
23.1335059784842
20
-31.3840683563027
30
0
41
1
10
23.2949720517861
20
-32.0217482538677
30
0
41
1
10
23.4603998078886
20
-32.662794712513
30
0
41
1
10
23.6292669003428
20
-33.307372334422
30
0
0
SPLINE
5
194
100
AcDbEntity
8
1
62
256
6
ByLayer
370
13
48
1
60
0
100
AcDbSpline
70
4
71
3
72
22
73
18
40
0
40
0
40
0
40
0
40
0.0215557516852757
40
0.0215557516852757
40
0.17380295213153
40
0.17380295213153
40
0.331585713390183
40
0.331585713390183
40
0.490611144975594
40
0.490611144975594
40
0.64880288605709
40
0.64880288605709
40
0.81308882734692
40
0.81308882734692
40
0.986564101951609
40
0.986564101951609
40
1
40
1
40
1
40
1
41
1
10
40
20
-32.3249999999995
30
0
41
1
10
39.9740905696101
20
-32.3249999999995
30
0
41
1
10
39.9481971832057
20
-32.3243703262376
30
0
41
1
10
39.7417352563615
20
-32.3143403532375
30
0
41
1
10
39.5612775824287
20
-32.2739553420041
30
0
41
1
10
39.225441673801
20
-32.1371238300529
30
0
41
1
10
39.066877261415
20
-32.0366292321335
30
0
41
1
10
38.8026594676476
20
-31.8010742714343
30
0
41
1
10
38.6941593070837
20
-31.6628002159147
30
0
41
1
10
38.537016606815
20
-31.3914484093057
30
0
41
1
10
38.4857108829966
20
-31.2554358209578
30
0
41
1
10
38.4222812398247
20
-31.0188873398875
30
0
41
1
10
38.4100105271685
20
-30.9171013995065
30
0
41
1
10
38.3989821451767
20
-30.7726634995363
30
0
41
1
10
38.400002706454
20
-30.7314230271572
30
0
41
1
10
38.3999999597162
20
-30.7252666387732
30
0
41
1
10
38.4000000000468
20
-30.725029758972
30
0
41
1
10
38.4000000000021
20
-30.7250026317894
30
0
0
SPLINE
5
195
100
AcDbEntity
8
1
62
256
6
ByLayer
370
13
48
1
60
0
100
AcDbSpline
70
4
71
3
72
16
73
12
40
0
40
0
40
0
40
0
40
0.461208588217009
40
0.461208588217009
40
0.643534962278456
40
0.643534962278456
40
0.828408472975218
40
0.828408472975218
40
0.943003644159931
40
0.943003644159931
40
1
40
1
40
1
40
1
41
1
10
8.10566243270262
20
23.6665017920806
30
0
41
1
10
8.13394960848487
20
23.702258326163
30
0
41
1
10
8.17266608070923
20
23.7370095736336
30
0
41
1
10
8.25268397516851
20
23.7800170858172
30
0
41
1
10
8.27872153625233
20
23.7917125768791
30
0
41
1
10
8.33934560108361
20
23.8127037684949
30
0
41
1
10
8.37482777731265
20
23.8222104320952
30
0
41
1
10
8.44007741480422
20
23.8331586856491
30
0
41
1
10
8.46752172250564
20
23.8363323784728
30
0
41
1
10
8.50983152523006
20
23.8387183279984
30
0
41
1
10
8.52428260692463
20
23.8391299750503
30
0
41
1
10
8.53867513459477
20
23.8391299750503
30
0
0
SPLINE
5
196
100
AcDbEntity
8
1
62
256
6
ByLayer
370
13
48
1
60
0
100
AcDbSpline
70
4
71
3
72
8
73
4
40
0
40
0
40
0
40
0
40
1
40
1
40
1
40
1
41
1
10
23.6292669003428
20
-33.307372334422
30
0
41
1
10
23.7487039491712
20
-33.7632719877096
30
0
41
1
10
23.8682424053408
20
-34.2191469755547
30
0
41
1
10
23.9878711599961
20
-34.6749999999789
30
0
0
SPLINE
5
197
100
AcDbEntity
8
1
62
256
6
ByLayer
370
13
48
1
60
0
100
AcDbSpline
70
4
71
3
72
16
73
12
40
0
40
0
40
0
40
0
40
0.461208588217034
40
0.461208588217034
40
0.643534962278478
40
0.643534962278478
40
0.82840847297522
40
0.82840847297522
40
0.943003644159923
40
0.943003644159923
40
1
40
1
40
1
40
1
41
1
10
8.10566243270262
20
-8.05584836782859
30
0
41
1
10
8.13394960848487
20
-7.95080268681531
30
0
41
1
10
8.17266608070926
20
-7.84628670970889
30
0
41
1
10
8.25268397516851
20
-7.71442469145214
30
0
41
1
10
8.27872153625233
20
-7.67825379650816
30
0
41
1
10
8.33934560108361
20
-7.61290523367316
30
0
41
1
10
8.37482777731262
20
-7.583059230515
30
0
41
1
10
8.44007741480419
20
-7.5485588186568
30
0
41
1
10
8.46752172250564
20
-7.53852018102381
30
0
41
1
10
8.50983152523006
20
-7.53097042135346
30
0
41
1
10
8.5242826069246
20
-7.52966679426564
30
0
41
1
10
8.53867513459477
20
-7.52966679426561
30
0
0
SPLINE
5
198
100
AcDbEntity
8
1
62
256
6
ByLayer
370
13
48
1
60
0
100
AcDbSpline
70
4
71
3
72
10
73
6
40
0
40
0
40
0
40
0
40
0.5
40
0.5
40
1
40
1
40
1
40
1
41
1
10
21.4383186059723
20
-24.5622028367026
30
0
41
1
10
21.33064506383
20
-24.1062119233385
30
0
41
1
10
21.0555321605177
20
-23.761644030782
30
0
41
1
10
20.5983892291144
20
-23.2602800426564
30
0
41
1
10
20.4005780937599
20
-23.0805687114074
30
0
41
1
10
20.2792076144254
20
-22.8970660421984
30
0
0
SPLINE
5
199
100
AcDbEntity
8
1
62
256
6
ByLayer
370
13
48
1
60
0
100
AcDbSpline
70
4
71
3
72
10
73
6
40
0
40
0
40
0
40
0
40
0.5
40
0.5
40
1
40
1
40
1
40
1
41
1
10
35.2035275944497
20
-32.3249999999994
30
0
41
1
10
35.2035275944497
20
-31.7253420249352
30
0
41
1
10
35.7284109834195
20
-31.2623064575557
30
0
41
1
10
36.80676325498
20
-30.7974663499374
30
0
41
1
10
37.4038161113361
20
-30.7249999999995
30
0
41
1
10
37.9910117795481
20
-30.7249999999995
30
0
0
SPLINE
5
19A
100
AcDbEntity
8
1
62
256
6
ByLayer
370
13
48
1
60
0
100
AcDbSpline
70
4
71
3
72
8
73
4
40
0
40
0
40
0
40
0
40
1
40
1
40
1
40
1
41
1
10
21.4383186059722
20
-24.5622028367026
30
0
41
1
10
21.9711289666563
20
-26.8186223635827
30
0
41
1
10
22.5448288216868
20
-29.0941030175046
30
0
41
1
10
23.1335059784842
20
-31.3840683563027
30
0
0
SPLINE
5
19B
100
AcDbEntity
8
1
62
256
6
ByLayer
370
13
48
1
60
0
100
AcDbSpline
70
4
71
3
72
8
73
4
40
0
40
0
40
0
40
0
40
1
40
1
40
1
40
1
41
1
10
23.1335059784842
20
-31.3840683563027
30
0
41
1
10
23.4574149296033
20
-32.0223397235717
30
0
41
1
10
23.7904091967495
20
-32.66714654739
30
0
41
1
10
24.121020132137
20
-33.3073723344221
30
0
0
SPLINE
5
19C
100
AcDbEntity
8
1
62
256
6
ByLayer
370
13
48
1
60
0
100
AcDbSpline
70
4
71
3
72
16
73
12
40
0
40
0
40
0
40
0
40
0.11143027962802
40
0.11143027962802
40
0.248747543515429
40
0.248747543515429
40
0.465535329195171
40
0.465535329195171
40
0.883855351867491
40
0.883855351867491
40
1
40
1
40
1
40
1
41
1
10
11.4613248654053
20
-7.52966679426603
30
0
41
1
10
11.4891847159943
20
-7.52966679426603
30
0
41
1
10
11.5173911427756
20
-7.53471706780959
30
0
41
1
10
11.5758492032393
20
-7.55489210221131
30
0
41
1
10
11.6060413892306
20
-7.57218953888545
30
0
41
1
10
11.6751537543576
20
-7.62460019394189
30
0
41
1
10
11.7107854085705
20
-7.66489294254004
30
0
41
1
10
11.798993890746
20
-7.78941367630446
30
0
41
1
10
11.8397320068509
20
-7.88247511004238
30
0
41
1
10
11.8792917015268
20
-8.002692695381
30
0
41
1
10
11.8871615985732
20
-8.02920008991674
30
0
41
1
10
11.8943375672976
20
-8.0558483678287
30
0
0
SPLINE
5
19D
100
AcDbEntity
8
1
62
256
6
ByLayer
370
13
48
1
60
0
100
AcDbSpline
70
4
71
3
72
16
73
12
40
0
40
0
40
0
40
0
40
0.46120858821707
40
0.46120858821707
40
0.643534962278534
40
0.643534962278534
40
0.82840847297528
40
0.82840847297528
40
0.943003644159986
40
0.943003644159986
40
1
40
1
40
1
40
1
41
1
10
11.8943375672975
20
-23.6665017920805
30
0
41
1
10
11.8660503915152
20
-23.7022583261628
30
0
41
1
10
11.8273339192909
20
-23.7370095736334
30
0
41
1
10
11.7473160248316
20
-23.780017085817
30
0
41
1
10
11.7212784637478
20
-23.7917125768789
30
0
41
1
10
11.6606543989165
20
-23.8127037684947
30
0
41
1
10
11.6251722226875
20
-23.822210432095
30
0
41
1
10
11.5599225851959
20
-23.8331586856489
30
0
41
1
10
11.5324782774944
20
-23.8363323784726
30
0
41
1
10
11.49016847477
20
-23.8387183279982
30
0
41
1
10
11.4757173930755
20
-23.8391299750501
30
0
41
1
10
11.4613248654054
20
-23.8391299750501
30
0
0
SPLINE
5
19E
100
AcDbEntity
8
1
62
256
6
ByLayer
370
13
48
1
60
0
100
AcDbSpline
70
4
71
3
72
16
73
12
40
0
40
0
40
0
40
0
40
0.111430279628018
40
0.111430279628018
40
0.248747543515446
40
0.248747543515446
40
0.465535329195219
40
0.465535329195219
40
0.88385535186752
40
0.88385535186752
40
1
40
1
40
1
40
1
41
1
10
11.4613248654053
20
23.8391299750501
30
0
41
1
10
11.4891847159943
20
23.8391299750501
30
0
41
1
10
11.5173911427756
20
23.8375361275704
30
0
41
1
10
11.5758492032394
20
23.8311506585888
30
0
41
1
10
11.6060413892306
20
23.8256668770177
30
0
41
1
10
11.6751537543576
20
23.8089605749785
30
0
41
1
10
11.7107854085705
20
23.7960379707757
30
0
41
1
10
11.798993890746
20
23.755682424683
30
0
41
1
10
11.8397320068509
20
23.7250165399979
30
0
41
1
10
11.8792917015268
20
23.684545144963
30
0
41
1
10
11.8871615985732
20
23.6755726082075
30
0
41
1
10
11.8943375672976
20
23.6665017920806
30
0
0
SPLINE
5
19F
100
AcDbEntity
8
1
62
256
6
ByLayer
370
13
48
1
60
0
100
AcDbSpline
70
4
71
3
72
16
73
12
40
0
40
0
40
0
40
0
40
0.111430279627993
40
0.111430279627993
40
0.24874754351545
40
0.24874754351545
40
0.465535329195251
40
0.465535329195251
40
0.883855351867606
40
0.883855351867606
40
1
40
1
40
1
40
1
41
1
10
8.53867513459485
20
-23.83912997505
30
0
41
1
10
8.51081528400582
20
-23.83912997505
30
0
41
1
10
8.48260885722453
20
-23.8375361275703
30
0
41
1
10
8.42415079676076
20
-23.8311506585887
30
0
41
1
10
8.39395861076946
20
-23.8256668770176
30
0
41
1
10
8.32484624564245
20
-23.8089605749784
30
0
41
1
10
8.28921459142958
20
-23.7960379707756
30
0
41
1
10
8.201006109254
20
-23.7556824246829
30
0
41
1
10
8.16026799314915
20
-23.7250165399978
30
0
41
1
10
8.1207082984732
20
-23.6845451449629
30
0
41
1
10
8.1128384014269
20
-23.6755726082074
30
0
41
1
10
8.10566243270245
20
-23.6665017920805
30
0
0
SPLINE
5
1A0
100
AcDbEntity
8
1
62
256
6
ByLayer
370
13
48
1
60
0
100
AcDbSpline
70
4
71
3
72
8
73
4
40
0
40
0
40
0
40
0
40
1
40
1
40
1
40
1
41
1
10
20.1211724398803
20
-22.3932237711677
30
0
41
1
10
20.124302116187
20
-22.5712296752253
30
0
41
1
10
20.176457558064
20
-22.7417159957367
30
0
41
1
10
20.2792076144254
20
-22.8970660421984
30
0
0
SPLINE
5
1A1
100
AcDbEntity
8
1
62
256
6
ByLayer
370
13
48
1
60
0
100
AcDbSpline
70
4
71
3
72
16
73
12
40
0
40
0
40
0
40
0
40
0.111430279628012
40
0.111430279628012
40
0.248747543515467
40
0.248747543515467
40
0.465535329195334
40
0.465535329195334
40
0.883855351867735
40
0.883855351867735
40
1
40
1
40
1
40
1
41
1
10
8.53867513459483
20
7.52966679426586
30
0
41
1
10
8.51081528400579
20
7.52966679426586
30
0
41
1
10
8.48260885722448
20
7.5347170678094
30
0
41
1
10
8.42415079676073
20
7.55489210221111
30
0
41
1
10
8.39395861076943
20
7.57218953888528
30
0
41
1
10
8.32484624564242
20
7.62460019394175
30
0
41
1
10
8.28921459142956
20
7.66489294253995
30
0
41
1
10
8.20100610925397
20
7.78941367630441
30
0
41
1
10
8.16026799314909
20
7.88247511004238
30
0
41
1
10
8.12070829847318
20
8.00269269538094
30
0
41
1
10
8.11283840142687
20
8.0292000899166
30
0
41
1
10
8.10566243270245
20
8.05584836782847
30
0
0
SPLINE
5
1A2
100
AcDbEntity
8
1
62
256
6
ByLayer
370
13
48
1
60
0
100
AcDbSpline
70
4
71
3
72
16
73
12
40
0
40
0
40
0
40
0
40
0.461208588217057
40
0.461208588217057
40
0.643534962278517
40
0.643534962278517
40
0.828408472975275
40
0.828408472975275
40
0.943003644160007
40
0.943003644160007
40
1
40
1
40
1
40
1
41
1
10
11.8943375672975
20
8.05584836782867
30
0
41
1
10
11.8660503915152
20
7.95080268681539
30
0
41
1
10
11.8273339192909
20
7.84628670970895
30
0
41
1
10
11.7473160248316
20
7.71442469145219
30
0
41
1
10
11.7212784637477
20
7.67825379650824
30
0
41
1
10
11.6606543989165
20
7.61290523367325
30
0
41
1
10
11.6251722226874
20
7.58305923051506
30
0
41
1
10
11.5599225851959
20
7.54855881865689
30
0
41
1
10
11.5324782774944
20
7.53852018102387
30
0
41
1
10
11.49016847477
20
7.53097042135354
30
0
41
1
10
11.4757173930755
20
7.52966679426569
30
0
41
1
10
11.4613248654054
20
7.52966679426569
30
0
0
SPLINE
5
1A3
100
AcDbEntity
8
1
62
256
6
ByLayer
370
13
48
1
60
0
100
AcDbSpline
70
4
71
3
72
10
73
6
40
0
40
0
40
0
40
0
40
0.664993946719532
40
0.664993946719532
40
1
40
1
40
1
40
1
41
1
10
62.031795236158
20
-34.1487363109571
30
0
41
1
10
62.0544008183665
20
-34.1279097292379
30
0
41
1
10
62.071972629713
20
-34.1020653977736
30
0
41
1
10
62.0836688596485
20
-34.0537893475429
30
0
41
1
10
62.0849134160383
20
-34.0356089155524
30
0
41
1
10
62.0838678419132
20
-34.0162732843469
30
0
0
SPLINE
5
1A4
100
AcDbEntity
8
1
62
256
6
ByLayer
370
13
48
1
60
0
100
AcDbSpline
70
4
71
3
72
12
73
8
40
0
40
0
40
0
40
0
40
0.274450233641753
40
0.274450233641753
40
0.728710906931613
40
0.728710906931613
40
1
40
1
40
1
40
1
41
1
10
63.1146869282979
20
-34.3193842198351
30
0
41
1
10
63.0122143236957
20
-34.2889049344261
30
0
41
1
10
62.909497462749
20
-34.2585576137444
30
0
41
1
10
62.6439453836002
20
-34.1804224140219
30
0
41
1
10
62.4820473482734
20
-34.1331292282363
30
0
41
1
10
62.246079380226
20
-34.0640519317748
30
0
41
1
10
62.1617198878049
20
-34.0394840952044
30
0
41
1
10
62.0838678419132
20
-34.0162732843469
30
0
0
SPLINE
5
1A5
100
AcDbEntity
8
1
62
256
6
ByLayer
370
13
48
1
60
0
100
AcDbSpline
70
4
71
3
72
16
73
12
40
0
40
0
40
0
40
0
40
0.0442199247554627
40
0.0442199247554627
40
0.048439955548864
40
0.048439955548864
40
0.216895358525141
40
0.216895358525141
40
0.889245809546153
40
0.889245809546153
40
1
40
1
40
1
40
1
41
1
10
63.8219297662852
20
-34.3912955122488
30
0
41
1
10
63.8113300785451
20
-34.391665245278
30
0
41
1
10
63.8007291289449
20
-34.3919965677045
30
0
41
1
10
63.7891179461187
20
-34.3924033575065
30
0
41
1
10
63.7881063966876
20
-34.3924389247096
30
0
41
1
10
63.7467182945273
20
-34.3938990834112
30
0
41
1
10
63.7063476610928
20
-34.3957952769957
30
0
41
1
10
63.5067119730518
20
-34.4025387130351
30
0
41
1
10
63.3453726295508
20
-34.3815925254051
30
0
41
1
10
63.1656324617667
20
-34.3341118723988
30
0
41
1
10
63.1400997197492
20
-34.3269429593314
30
0
41
1
10
63.1146869282979
20
-34.3193842198351
30
0
0
SPLINE
5
1A6
100
AcDbEntity
8
1
62
256
6
ByLayer
370
13
48
1
60
0
100
AcDbSpline
70
4
71
3
72
12
73
8
40
0
40
0
40
0
40
0
40
0.609383607480292
40
0.609383607480292
40
0.614539779329414
40
0.614539779329414
40
1
40
1
40
1
40
1
41
1
10
64.3656057053218
20
-34.3702937355132
30
0
41
1
10
64.2600213620049
20
-34.3746467476632
30
0
41
1
10
64.1496097970342
20
-34.3789762006414
30
0
41
1
10
64.0373081383667
20
-34.383247712772
30
0
41
1
10
64.0363601843113
20
-34.3832837679088
30
0
41
1
10
63.9647049543389
20
-34.386009066924
30
0
41
1
10
63.8932165299022
20
-34.3888089228606
30
0
41
1
10
63.8219297662852
20
-34.3912955122488
30
0
0
SPLINE
5
1A7
100
AcDbEntity
8
1
62
256
6
ByLayer
370
13
48
1
60
0
100
AcDbSpline
70
4
71
3
72
12
73
8
40
0
40
0
40
0
40
0
40
0.178891096392299
40
0.178891096392299
40
0.986291642516443
40
0.986291642516443
40
1
40
1
40
1
40
1
41
1
10
64.7213895076228
20
-34.3536987770376
30
0
41
1
10
64.7003115269679
20
-34.3545351180847
30
0
41
1
10
64.6792221384665
20
-34.3553781384347
30
0
41
1
10
64.5629014296376
20
-34.3600668305062
30
0
41
1
10
64.4679540502601
20
-34.3657104928001
30
0
41
1
10
64.3689156735317
20
-34.3701542689344
30
0
41
1
10
64.3672607449414
20
-34.37022550184
30
0
41
1
10
64.3656057053219
20
-34.3702937355132
30
0
0
SPLINE
5
1A8
100
AcDbEntity
8
1
62
256
6
ByLayer
370
13
48
1
60
0
100
AcDbSpline
70
4
71
3
72
8
73
4
40
0
40
0
40
0
40
0
40
1
40
1
40
1
40
1
41
1
10
64.5900286630425
20
-34.4350239663355
30
0
41
1
10
64.634090020669
20
-34.4083609984286
30
0
41
1
10
64.6778395366007
20
-34.3811841798811
30
0
41
1
10
64.7213895076228
20
-34.3536987770376
30
0
0
SPLINE
5
1A9
100
AcDbEntity
8
1
62
256
6
ByLayer
370
13
48
1
60
0
100
AcDbSpline
70
4
71
3
72
8
73
4
40
0
40
0
40
0
40
0
40
1
40
1
40
1
40
1
41
1
10
64.1158957172693
20
-34.5135442121619
30
0
41
1
10
64.2755545267195
20
-34.5130277999439
30
0
41
1
10
64.4354150796997
20
-34.4788350507719
30
0
41
1
10
64.5900286630425
20
-34.4350239663355
30
0
0
SPLINE
5
1AA
100
AcDbEntity
8
1
62
256
6
ByLayer
370
13
48
1
60
0
100
AcDbSpline
70
4
71
3
72
8
73
4
40
0
40
0
40
0
40
0
40
1
40
1
40
1
40
1
41
1
10
63.7528986418119
20
-34.5131405318691
30
0
41
1
10
63.8744062234275
20
-34.5090903763062
30
0
41
1
10
63.9966210532666
20
-34.5139300029259
30
0
41
1
10
64.1158957172706
20
-34.5135442121638
30
0
0
SPLINE
5
1AB
100
AcDbEntity
8
1
62
256
6
ByLayer
370
13
48
1
60
0
100
AcDbSpline
70
4
71
3
72
8
73
4
40
0
40
0
40
0
40
0
40
1
40
1
40
1
40
1
41
1
10
63.4823771357602
20
-34.4966632769218
30
0
41
1
10
63.5716495580756
20
-34.5103648582544
30
0
41
1
10
63.6625883571386
20
-34.5161508024796
30
0
41
1
10
63.7528986418104
20
-34.5131405318695
30
0
0
SPLINE
5
1AC
100
AcDbEntity
8
1
62
256
6
ByLayer
370
13
48
1
60
0
100
AcDbSpline
70
4
71
3
72
14
73
10
40
0
40
0
40
0
40
0
40
0.102691686735347
40
0.102691686735347
40
0.53816841361549
40
0.53816841361549
40
0.926474667639871
40
0.926474667639871
40
1
40
1
40
1
40
1
41
1
10
62.3509720530679
20
-34.3997161884495
30
0
41
1
10
62.380893999408
20
-34.3964733053308
30
0
41
1
10
62.4122711139629
20
-34.3942683386647
30
0
41
1
10
62.5807977171794
20
-34.3875856117881
30
0
41
1
10
62.742161843352
20
-34.39790023917
30
0
41
1
10
63.0640413220708
20
-34.4324660546539
30
0
41
1
10
63.2272620626367
20
-34.4559450447093
30
0
41
1
10
63.4201021624027
20
-34.4870419880046
30
0
41
1
10
63.4512578164011
20
-34.4918870663725
30
0
41
1
10
63.4823771357602
20
-34.4966632769217
30
0
0
SPLINE
5
1AD
100
AcDbEntity
8
1
62
256
6
ByLayer
370
13
48
1
60
0
100
AcDbSpline
70
4
71
3
72
8
73
4
40
0
40
0
40
0
40
0
40
1
40
1
40
1
40
1
41
1
10
62.2573483090605
20
-34.4059807254672
30
0
41
1
10
62.2886707932501
20
-34.405314377306
30
0
41
1
10
62.3198681643654
20
-34.4030871682131
30
0
41
1
10
62.3509720530679
20
-34.3997161884495
30
0
0
SPLINE
5
1AE
100
AcDbEntity
8
1
62
256
6
ByLayer
370
13
48
1
60
0
100
AcDbSpline
70
4
71
3
72
10
73
6
40
0
40
0
40
0
40
0
40
0.436659189793396
40
0.436659189793396
40
1
40
1
40
1
40
1
41
1
10
62.0305156049706
20
-34.1937288291373
30
0
41
1
10
62.0626760675876
20
-34.2255132220168
30
0
41
1
10
62.0951835994715
20
-34.2569513132944
30
0
41
1
10
62.1705662077347
20
-34.3279669604641
30
0
41
1
10
62.2138220700955
20
-34.367174534857
30
0
41
1
10
62.2573483090634
20
-34.405980725468
30
0
0
SPLINE
5
1AF
100
AcDbEntity
8
1
62
256
6
ByLayer
370
13
48
1
60
0
100
AcDbSpline
70
4
71
3
72
10
73
6
40
0
40
0
40
0
40
0
40
0.73561768390405
40
0.73561768390405
40
1
40
1
40
1
40
1
41
1
10
62.0305156049706
20
-34.1937288291373
30
0
41
1
10
62.0246851208416
20
-34.1879665240225
30
0
41
1
10
62.0191348692197
20
-34.1816539877759
30
0
41
1
10
62.0131625911601
20
-34.1728770110706
30
0
41
1
10
62.0117118978094
20
-34.1704952463859
30
0
41
1
10
62.0104895579181
20
-34.1681459458917
30
0
0
SPLINE
5
1B0
100
AcDbEntity
8
1
62
256
6
ByLayer
370
13
48
1
60
0
100
AcDbSpline
70
4
71
3
72
8
73
4
40
0
40
0
40
0
40
0
40
1
40
1
40
1
40
1
41
1
10
62.0104895579211
20
-34.1681459458883
30
0
41
1
10
62.0176603296031
20
-34.161683352543
30
0
41
1
10
62.0247646325939
20
-34.1552136243176
30
0
41
1
10
62.031795236158
20
-34.1487363109571
30
0
0
SPLINE
5
1B1
100
AcDbEntity
8
1
62
256
6
ByLayer
370
13
48
1
60
0
100
AcDbSpline
70
4
71
3
72
12
73
8
40
0
40
0
40
0
40
0
40
0.233793069268613
40
0.233793069268613
40
0.849542984529965
40
0.849542984529965
40
1
40
1
40
1
40
1
41
1
10
62.010489557929
20
-32.8318540541034
30
0
41
1
10
62.0115678802707
20
-32.8297815510058
30
0
41
1
10
62.0128235703367
20
-32.8276841848607
30
0
41
1
10
62.0177801949082
20
-32.8202108278762
30
0
41
1
10
62.0222297367628
20
-32.8148705552539
30
0
41
1
10
62.0281198492317
20
-32.80867441669
30
0
41
1
10
62.0293089587678
20
-32.8074637070965
30
0
41
1
10
62.0305156049706
20
-32.8062711708625
30
0
0
SPLINE
5
1B2
100
AcDbEntity
8
1
62
256
6
ByLayer
370
13
48
1
60
0
100
AcDbSpline
70
4
71
3
72
10
73
6
40
0
40
0
40
0
40
0
40
0.436659189793399
40
0.436659189793399
40
1
40
1
40
1
40
1
41
1
10
62.0305156049706
20
-32.8062711708625
30
0
41
1
10
62.0626760675876
20
-32.774486777983
30
0
41
1
10
62.0951835994715
20
-32.7430486867053
30
0
41
1
10
62.1705662077347
20
-32.6720330395356
30
0
41
1
10
62.2138220700955
20
-32.6328254651428
30
0
41
1
10
62.2573483090634
20
-32.5940192745318
30
0
0
SPLINE
5
1B3
100
AcDbEntity
8
1
62
256
6
ByLayer
370
13
48
1
60
0
100
AcDbSpline
70
4
71
3
72
8
73
4
40
0
40
0
40
0
40
0
40
1
40
1
40
1
40
1
41
1
10
62.2573483090605
20
-32.5940192745325
30
0
41
1
10
62.2886707932501
20
-32.5946856226937
30
0
41
1
10
62.3198681643654
20
-32.5969128317866
30
0
41
1
10
62.3509720530679
20
-32.6002838115502
30
0
0
SPLINE
5
1B4
100
AcDbEntity
8
1
62
256
6
ByLayer
370
13
48
1
60
0
100
AcDbSpline
70
4
71
3
72
14
73
10
40
0
40
0
40
0
40
0
40
0.102691686735347
40
0.102691686735347
40
0.53816841361549
40
0.53816841361549
40
0.926474667639871
40
0.926474667639871
40
1
40
1
40
1
40
1
41
1
10
62.3509720530679
20
-32.6002838115502
30
0
41
1
10
62.380893999408
20
-32.6035266946689
30
0
41
1
10
62.4122711139629
20
-32.605731661335
30
0
41
1
10
62.5807977171794
20
-32.6124143882116
30
0
41
1
10
62.742161843352
20
-32.6020997608297
30
0
41
1
10
63.0640413220708
20
-32.5675339453458
30
0
41
1
10
63.2272620626367
20
-32.5440549552904
30
0
41
1
10
63.4201021624027
20
-32.5129580119951
30
0
41
1
10
63.4512578164011
20
-32.5081129336272
30
0
41
1
10
63.4823771357602
20
-32.503336723078
30
0
0
SPLINE
5
1B5
100
AcDbEntity
8
1
62
256
6
ByLayer
370
13
48
1
60
0
100
AcDbSpline
70
4
71
3
72
8
73
4
40
0
40
0
40
0
40
0
40
1
40
1
40
1
40
1
41
1
10
63.4823771357602
20
-32.5033367230779
30
0
41
1
10
63.5716495580756
20
-32.4896351417453
30
0
41
1
10
63.6625883571386
20
-32.4838491975201
30
0
41
1
10
63.7528986418104
20
-32.4868594681302
30
0
0
SPLINE
5
1B6
100
AcDbEntity
8
1
62
256
6
ByLayer
370
13
48
1
60
0
100
AcDbSpline
70
4
71
3
72
8
73
4
40
0
40
0
40
0
40
0
40
1
40
1
40
1
40
1
41
1
10
63.7528986418119
20
-32.4868594681306
30
0
41
1
10
63.8744062234275
20
-32.4909096236935
30
0
41
1
10
63.9966210532666
20
-32.4860699970738
30
0
41
1
10
64.1158957172706
20
-32.486455787836
30
0
0
SPLINE
5
1B7
100
AcDbEntity
8
1
62
256
6
ByLayer
370
13
48
1
60
0
100
AcDbSpline
70
4
71
3
72
8
73
4
40
0
40
0
40
0
40
0
40
1
40
1
40
1
40
1
41
1
10
64.1158957172693
20
-32.4864557878378
30
0
41
1
10
64.2755545267195
20
-32.4869722000558
30
0
41
1
10
64.4354150796997
20
-32.5211649492278
30
0
41
1
10
64.5900286630425
20
-32.5649760336642
30
0
0
SPLINE
5
1B8
100
AcDbEntity
8
1
62
256
6
ByLayer
370
13
48
1
60
0
100
AcDbSpline
70
4
71
3
72
8
73
4
40
0
40
0
40
0
40
0
40
1
40
1
40
1
40
1
41
1
10
64.5900286630425
20
-32.5649760336642
30
0
41
1
10
64.634090020669
20
-32.5916390015711
30
0
41
1
10
64.6778395366007
20
-32.6188158201186
30
0
41
1
10
64.7213895076228
20
-32.6463012229621
30
0
0
SPLINE
5
1B9
100
AcDbEntity
8
1
62
256
6
ByLayer
370
13
48
1
60
0
100
AcDbSpline
70
4
71
3
72
12
73
8
40
0
40
0
40
0
40
0
40
0.178891096392299
40
0.178891096392299
40
0.986291642516443
40
0.986291642516443
40
1
40
1
40
1
40
1
41
1
10
64.7213895076228
20
-32.6463012229621
30
0
41
1
10
64.7003115269679
20
-32.645464881915
30
0
41
1
10
64.6792221384665
20
-32.644621861565
30
0
41
1
10
64.5629014296376
20
-32.6399331694935
30
0
41
1
10
64.4679540502601
20
-32.6342895071996
30
0
41
1
10
64.3689156735317
20
-32.6298457310653
30
0
41
1
10
64.3672607449414
20
-32.6297744981597
30
0
41
1
10
64.3656057053219
20
-32.6297062644865
30
0
0
SPLINE
5
1BA
100
AcDbEntity
8
1
62
256
6
ByLayer
370
13
48
1
60
0
100
AcDbSpline
70
4
71
3
72
12
73
8
40
0
40
0
40
0
40
0
40
0.609383607480292
40
0.609383607480292
40
0.614539779329414
40
0.614539779329414
40
1
40
1
40
1
40
1
41
1
10
64.3656057053218
20
-32.6297062644865
30
0
41
1
10
64.2600213620049
20
-32.6253532523365
30
0
41
1
10
64.1496097970342
20
-32.6210237993583
30
0
41
1
10
64.0373081383667
20
-32.6167522872277
30
0
41
1
10
64.0363601843113
20
-32.6167162320909
30
0
41
1
10
63.9647049543389
20
-32.6139909330757
30
0
41
1
10
63.8932165299022
20
-32.6111910771391
30
0
41
1
10
63.8219297662852
20
-32.6087044877509
30
0
0
SPLINE
5
1BB
100
AcDbEntity
8
1
62
256
6
ByLayer
370
13
48
1
60
0
100
AcDbSpline
70
4
71
3
72
16
73
12
40
0
40
0
40
0
40
0
40
0.0442199247554627
40
0.0442199247554627
40
0.048439955548864
40
0.048439955548864
40
0.216895358525141
40
0.216895358525141
40
0.889245809546153
40
0.889245809546153
40
1
40
1
40
1
40
1
41
1
10
63.8219297662852
20
-32.6087044877509
30
0
41
1
10
63.8113300785451
20
-32.6083347547217
30
0
41
1
10
63.8007291289449
20
-32.6080034322952
30
0
41
1
10
63.7891179461187
20
-32.6075966424932
30
0
41
1
10
63.7881063966876
20
-32.6075610752901
30
0
41
1
10
63.7467182945273
20
-32.6061009165885
30
0
41
1
10
63.7063476610928
20
-32.604204723004
30
0
41
1
10
63.5067119730518
20
-32.5974612869647
30
0
41
1
10
63.3453726295508
20
-32.6184074745946
30
0
41
1
10
63.1656324617667
20
-32.6658881276009
30
0
41
1
10
63.1400997197492
20
-32.6730570406683
30
0
41
1
10
63.1146869282979
20
-32.6806157801646
30
0
0
SPLINE
5
1BC
100
AcDbEntity
8
1
62
256
6
ByLayer
370
13
48
1
60
0
100
AcDbSpline
70
4
71
3
72
12
73
8
40
0
40
0
40
0
40
0
40
0.274450233641753
40
0.274450233641753
40
0.728710906931611
40
0.728710906931611
40
1
40
1
40
1
40
1
41
1
10
63.1146869282979
20
-32.6806157801646
30
0
41
1
10
63.0122143236957
20
-32.7110950655736
30
0
41
1
10
62.909497462749
20
-32.7414423862553
30
0
41
1
10
62.6439453836002
20
-32.8195775859778
30
0
41
1
10
62.4820473482734
20
-32.8668707717634
30
0
41
1
10
62.246079380226
20
-32.9359480682249
30
0
41
1
10
62.1617198878049
20
-32.9605159047954
30
0
41
1
10
62.0838678419132
20
-32.9837267156528
30
0
0
SPLINE
5
1BD
100
AcDbEntity
8
1
62
256
6
ByLayer
370
13
48
1
60
0
100
AcDbSpline
70
4
71
3
72
10
73
6
40
0
40
0
40
0
40
0
40
0.659159716151023
40
0.659159716151023
40
1
40
1
40
1
40
1
41
1
10
62.0838678419132
20
-32.9837267156528
30
0
41
1
10
62.0859020371366
20
-32.9461086762459
30
0
41
1
10
62.0777349617729
20
-32.9137408361742
30
0
41
1
10
62.0536893544428
20
-32.8742206936552
30
0
41
1
10
62.0434984870353
20
-32.8620459245333
30
0
41
1
10
62.031795236158
20
-32.8512636890426
30
0
0
SPLINE
5
1BE
100
AcDbEntity
8
1
62
256
6
ByLayer
370
13
48
1
60
0
100
AcDbSpline
70
4
71
3
72
8
73
4
40
0
40
0
40
0
40
0
40
1
40
1
40
1
40
1
41
1
10
62.031795236158
20
-32.8512636890426
30
0
41
1
10
62.0247646325939
20
-32.8447863756821
30
0
41
1
10
62.0176603296031
20
-32.8383166474568
30
0
41
1
10
62.0104895579211
20
-32.8318540541114
30
0
0
SPLINE
5
1BF
100
AcDbEntity
8
1
62
256
6
ByLayer
370
13
48
1
60
0
100
AcDbSpline
70
4
71
3
72
8
73
4
40
0
40
0
40
0
40
0
40
1
40
1
40
1
40
1
41
1
10
62.1169741247547
20
-34.5648446992159
30
0
41
1
10
62.0355486668608
20
-34.4954493196158
30
0
41
1
10
61.9571073551695
20
-34.4225205419942
30
0
41
1
10
61.8804455603128
20
-34.3478961953477
30
0
0
SPLINE
5
1C0
100
AcDbEntity
8
1
62
256
6
ByLayer
370
13
48
1
60
0
100
AcDbSpline
70
4
71
3
72
8
73
4
40
0
40
0
40
0
40
0
40
1
40
1
40
1
40
1
41
1
10
62.1169741247547
20
-32.4351553007838
30
0
41
1
10
62.0355486668608
20
-32.5045506803839
30
0
41
1
10
61.9571073551695
20
-32.5774794580055
30
0
41
1
10
61.8804455603128
20
-32.6521038046521
30
0
0
SPLINE
5
1C1
100
AcDbEntity
8
1
62
256
6
ByLayer
370
13
48
1
60
0
100
AcDbSpline
70
4
71
3
72
12
73
8
40
0
40
0
40
0
40
0
40
0.46817896742225
40
0.46817896742225
40
0.899165978787896
40
0.899165978787896
40
1
40
1
40
1
40
1
41
1
10
63.4587805434613
20
-34.664424185351
30
0
41
1
10
63.277506035505
20
-34.6359004882464
30
0
41
1
10
63.0936117660435
20
-34.6011182702038
30
0
41
1
10
62.7658158689767
20
-34.5574653627289
30
0
41
1
10
62.6153724323278
20
-34.5433983198626
30
0
41
1
10
62.4560286247614
20
-34.5446525221276
30
0
41
1
10
62.4264524991725
20
-34.5457520960092
30
0
41
1
10
62.3981203716814
20
-34.5478480284312
30
0
0
SPLINE
5
1C2
100
AcDbEntity
8
1
62
256
6
ByLayer
370
13
48
1
60
0
100
AcDbSpline
70
4
71
3
72
12
73
8
40
0
40
0
40
0
40
0
40
0.46817896742225
40
0.46817896742225
40
0.899165978787896
40
0.899165978787896
40
1
40
1
40
1
40
1
41
1
10
63.4587805434613
20
-32.3355758146487
30
0
41
1
10
63.277506035505
20
-32.3640995117533
30
0
41
1
10
63.0936117660435
20
-32.3988817297959
30
0
41
1
10
62.7658158689767
20
-32.4425346372708
30
0
41
1
10
62.6153724323278
20
-32.4566016801371
30
0
41
1
10
62.4560286247614
20
-32.455347477872
30
0
41
1
10
62.4264524991725
20
-32.4542479039905
30
0
41
1
10
62.3981203716814
20
-32.4521519715685
30
0
0
SPLINE
5
1C3
100
AcDbEntity
8
1
62
256
6
ByLayer
370
13
48
1
60
0
100
AcDbSpline
70
4
71
3
72
10
73
6
40
0
40
0
40
0
40
0
40
0.132191617121101
40
0.132191617121101
40
1
40
1
40
1
40
1
41
1
10
62.2573483090604
20
-34.4059807254672
30
0
41
1
10
62.2564468305523
20
-34.4069459406577
30
0
41
1
10
62.25552642843
20
-34.4079366369628
30
0
41
1
10
62.248454107713
20
-34.4155876604871
30
0
41
1
10
62.2414978788606
20
-34.4233291937066
30
0
41
1
10
62.2339180002563
20
-34.431958608995
30
0
0
SPLINE
5
1C4
100
AcDbEntity
8
1
62
256
6
ByLayer
370
13
48
1
60
0
100
AcDbSpline
70
4
71
3
72
14
73
10
40
0
40
0
40
0
40
0
40
0.447953066725052
40
0.447953066725052
40
0.912809598186729
40
0.912809598186729
40
0.983423615312508
40
0.983423615312508
40
1
40
1
40
1
40
1
41
1
10
62.2339180002563
20
-34.4319586089956
30
0
41
1
10
62.2203040290404
20
-34.4474576186458
30
0
41
1
10
62.2040154112901
20
-34.4659907513417
30
0
41
1
10
62.1683740707567
20
-34.506505079702
30
0
41
1
10
62.1483538761323
20
-34.5292431727843
30
0
41
1
10
62.1253006224606
20
-34.5553996929225
30
0
41
1
10
62.1222095971505
20
-34.5589062950434
30
0
41
1
10
62.1184037038145
20
-34.5632232403093
30
0
41
1
10
62.1176888999301
20
-34.5640339722494
30
0
41
1
10
62.1169741247485
20
-34.5648446992148
30
0
0
SPLINE
5
1C5
100
AcDbEntity
8
1
62
256
6
ByLayer
370
13
48
1
60
0
100
AcDbSpline
70
4
71
3
72
14
73
10
40
0
40
0
40
0
40
0
40
0.447953066725053
40
0.447953066725053
40
0.912809598186729
40
0.912809598186729
40
0.983423615312508
40
0.983423615312508
40
1
40
1
40
1
40
1
41
1
10
62.2339180002563
20
-32.5680413910041
30
0
41
1
10
62.2203040290404
20
-32.5525423813539
30
0
41
1
10
62.2040154112901
20
-32.534009248658
30
0
41
1
10
62.1683740707567
20
-32.4934949202977
30
0
41
1
10
62.1483538761323
20
-32.4707568272154
30
0
41
1
10
62.1253006224606
20
-32.4446003070772
30
0
41
1
10
62.1222095971505
20
-32.4410937049563
30
0
41
1
10
62.1184037038145
20
-32.4367767596905
30
0
41
1
10
62.1176888999301
20
-32.4359660277502
30
0
41
1
10
62.1169741247485
20
-32.4351553007849
30
0
0
SPLINE
5
1C6
100
AcDbEntity
8
1
62
256
6
ByLayer
370
13
48
1
60
0
100
AcDbSpline
70
4
71
3
72
10
73
6
40
0
40
0
40
0
40
0
40
0.132191617121101
40
0.132191617121101
40
1
40
1
40
1
40
1
41
1
10
62.2573483090604
20
-32.5940192745325
30
0
41
1
10
62.2564468305523
20
-32.593054059342
30
0
41
1
10
62.25552642843
20
-32.5920633630369
30
0
41
1
10
62.248454107713
20
-32.5844123395126
30
0
41
1
10
62.2414978788606
20
-32.5766708062931
30
0
41
1
10
62.2339180002563
20
-32.5680413910047
30
0
0
SPLINE
5
1C7
100
AcDbEntity
8
1
62
256
6
ByLayer
370
13
48
1
60
0
100
AcDbSpline
70
4
71
3
72
12
73
8
40
0
40
0
40
0
40
0
40
0.559278359968975
40
0.559278359968975
40
0.982064699130975
40
0.982064699130975
40
1
40
1
40
1
40
1
41
1
10
61.8655988415542
20
-34.1970076234222
30
0
41
1
10
61.8639058993619
20
-34.1648080621544
30
0
41
1
10
61.8615176185074
20
-34.135633087518
30
0
41
1
10
61.8565061637906
20
-34.0946350461351
30
0
41
1
10
61.8540306406306
20
-34.0798924597157
30
0
41
1
10
61.8512781291035
20
-34.0685192129116
30
0
41
1
10
61.8511665651818
20
-34.0680661052063
30
0
41
1
10
61.8510546870628
20
-34.0676195138537
30
0
0
SPLINE
5
1C8
100
AcDbEntity
8
1
62
256
6
ByLayer
370
13
48
1
60
0
100
AcDbSpline
70
4
71
3
72
10
73
6
40
0
40
0
40
0
40
0
40
0.709641074204652
40
0.709641074204652
40
1
40
1
40
1
40
1
41
1
10
61.8804455603128
20
-34.3478961953477
30
0
41
1
10
61.8753414889782
20
-34.3110319885919
30
0
41
1
10
61.8711861437205
20
-34.2733941765534
30
0
41
1
10
61.8672412502849
20
-34.224392902485
30
0
41
1
10
61.8663022439904
20
-34.2103862549867
30
0
41
1
10
61.8655988415525
20
-34.1970076234221
30
0
0
SPLINE
5
1C9
100
AcDbEntity
8
1
62
256
6
ByLayer
370
13
48
1
60
0
100
AcDbSpline
70
4
71
3
72
12
73
8
40
0
40
0
40
0
40
0
40
0.135507654329451
40
0.135507654329451
40
0.742115377580087
40
0.742115377580087
40
1
40
1
40
1
40
1
41
1
10
61.8804455603128
20
-32.6521038046521
30
0
41
1
10
61.8794577311546
20
-32.6592384107227
30
0
41
1
10
61.8785068164279
20
-32.666382672982
30
0
41
1
10
61.8735694178171
20
-32.7050350454403
30
0
41
1
10
61.8702919601627
20
-32.7367056490604
30
0
41
1
10
61.8670296012879
20
-32.7787994893875
30
0
41
1
10
61.8662219824782
20
-32.7911403095503
30
0
41
1
10
61.8655988415537
20
-32.8029923765775
30
0
0
SPLINE
5
1CA
100
AcDbEntity
8
1
62
256
6
ByLayer
370
13
48
1
60
0
100
AcDbSpline
70
4
71
3
72
14
73
10
40
0
40
0
40
0
40
0
40
0.0177509856471946
40
0.0177509856471946
40
0.340726860481444
40
0.340726860481444
40
0.792711195890233
40
0.792711195890233
40
1
40
1
40
1
40
1
41
1
10
61.8510546870628
20
-32.9323804861461
30
0
41
1
10
61.8511665651505
20
-32.9319338947936
30
0
41
1
10
61.8512781289784
20
-32.9314807870889
30
0
41
1
10
61.8534062656342
20
-32.9226874300443
30
0
41
1
10
61.855323964045
20
-32.9121526240238
30
0
41
1
10
61.8595178404373
20
-32.8825410382397
30
0
41
1
10
61.8616827821098
20
-32.8613706218627
30
0
41
1
10
61.8642384176627
20
-32.826653122272
30
0
41
1
10
61.8649648606851
20
-32.8150506180987
30
0
41
1
10
61.8655988415542
20
-32.8029923765775
30
0
0
SPLINE
5
1CB
100
AcDbEntity
8
1
62
256
6
ByLayer
370
13
48
1
60
0
100
AcDbSpline
70
4
71
3
72
18
73
14
40
0
40
0
40
0
40
0
40
0.10212592206704
40
0.10212592206704
40
0.219798180864097
40
0.219798180864097
40
0.395678331134856
40
0.395678331134856
40
0.733655817510089
40
0.733655817510089
40
0.802063348489368
40
0.802063348489368
40
1
40
1
40
1
40
1
41
1
10
61.4559779585026
20
-34.326755677451
30
0
41
1
10
61.4564416368178
20
-34.3134760472197
30
0
41
1
10
61.45608929913
20
-34.3001169525712
30
0
41
1
10
61.4536446728814
20
-34.2718846307219
30
0
41
1
10
61.4512850832915
20
-34.2569521064426
30
0
41
1
10
61.4431564052165
20
-34.2212015586244
30
0
41
1
10
61.436209646695
20
-34.2007733452544
30
0
41
1
10
61.4118798067115
20
-34.1465335593216
30
0
41
1
10
61.3902866995539
20
-34.1161518198649
30
0
41
1
10
61.3616240935597
20
-34.0871939333326
30
0
41
1
10
61.3566229893451
20
-34.0824945864557
30
0
41
1
10
61.3368310070575
20
-34.0651641154966
30
0
41
1
10
61.3212866355731
20
-34.0542191462932
30
0
41
1
10
61.3052940680713
20
-34.0451731223788
30
0
0
SPLINE
5
1CC
100
AcDbEntity
8
1
62
256
6
ByLayer
370
13
48
1
60
0
100
AcDbSpline
70
4
71
3
72
14
73
10
40
0
40
0
40
0
40
0
40
0.447954004797037
40
0.447954004797037
40
0.912810038934036
40
0.912810038934036
40
0.983423779130199
40
0.983423779130199
40
1
40
1
40
1
40
1
41
1
10
62.2933275812136
20
-34.5495304559491
30
0
41
1
10
62.2727755286919
20
-34.5513153960274
30
0
41
1
10
62.2481939779358
20
-34.5534502100752
30
0
41
1
10
62.1944355442363
20
-34.5581186183362
30
0
41
1
10
62.1642532997474
20
-34.5607395039343
30
0
41
1
10
62.1295181484127
20
-34.5637555302519
30
0
41
1
10
62.1248611889835
20
-34.5641598862849
30
0
41
1
10
62.1191276857054
20
-34.5646577116979
30
0
41
1
10
62.1180508939064
20
-34.564751206329
30
0
41
1
10
62.1169741247543
20
-34.564844699216
30
0
0
SPLINE
5
1CD
100
AcDbEntity
8
1
62
256
6
ByLayer
370
13
48
1
60
0
100
AcDbSpline
70
4
71
3
72
14
73
10
40
0
40
0
40
0
40
0
40
0.447954004797037
40
0.447954004797037
40
0.912810038934036
40
0.912810038934036
40
0.983423779130199
40
0.983423779130199
40
1
40
1
40
1
40
1
41
1
10
62.2933275812136
20
-32.4504695440506
30
0
41
1
10
62.2727755286919
20
-32.4486846039723
30
0
41
1
10
62.2481939779358
20
-32.4465497899245
30
0
41
1
10
62.1944355442363
20
-32.4418813816635
30
0
41
1
10
62.1642532997474
20
-32.4392604960653
30
0
41
1
10
62.1295181484127
20
-32.4362444697478
30
0
41
1
10
62.1248611889835
20
-32.4358401137149
30
0
41
1
10
62.1191276857054
20
-32.4353422883018
30
0
41
1
10
62.1180508939064
20
-32.4352487936707
30
0
41
1
10
62.1169741247543
20
-32.4351553007837
30
0
0
SPLINE
5
1CE
100
AcDbEntity
8
1
62
256
6
ByLayer
370
13
48
1
60
0
100
AcDbSpline
70
4
71
3
72
12
73
8
40
0
40
0
40
0
40
0
40
0.356479833160399
40
0.356479833160399
40
0.824168720346733
40
0.824168720346733
40
1
40
1
40
1
40
1
41
1
10
61.8643787537961
20
-32.9436896872598
30
0
41
1
10
61.8767763033464
20
-32.9502026864514
30
0
41
1
10
61.8880463981537
20
-32.9577987637905
30
0
41
1
10
61.9095864832785
20
-32.9783151088321
30
0
41
1
10
61.9185295226104
20
-32.9924948935568
30
0
41
1
10
61.92407326674
20
-33.015200440075
30
0
41
1
10
61.9249217874923
20
-33.0218159823497
30
0
41
1
10
61.9250392603487
20
-33.0287110476952
30
0
0
SPLINE
5
1CF
100
AcDbEntity
8
1
62
256
6
ByLayer
370
13
48
1
60
0
100
AcDbSpline
70
4
71
3
72
12
73
8
40
0
40
0
40
0
40
0
40
0.443558069836982
40
0.443558069836982
40
0.507222026557664
40
0.507222026557664
40
1
40
1
40
1
40
1
41
1
10
61.9250392603487
20
-33.0287110476952
30
0
41
1
10
61.925625933741
20
-33.0631458226603
30
0
41
1
10
61.9334575781989
20
-33.1040741850545
30
0
41
1
10
61.9513800260717
20
-33.1526159305866
30
0
41
1
10
61.9538277204397
20
-33.158840655052
30
0
41
1
10
61.976282853545
20
-33.2126034618302
30
0
41
1
10
62.006340828125
20
-33.2625008733966
30
0
41
1
10
62.0439598709927
20
-33.307618515785
30
0
0
SPLINE
5
1D0
100
AcDbEntity
8
1
62
256
6
ByLayer
370
13
48
1
60
0
100
AcDbSpline
70
4
71
3
72
18
73
14
40
0
40
0
40
0
40
0
40
0.262962488711577
40
0.262962488711577
40
0.43136352889061
40
0.43136352889061
40
0.488169625072958
40
0.488169625072958
40
0.652801403480982
40
0.652801403480982
40
0.712254155913291
40
0.712254155913291
40
1
40
1
40
1
40
1
41
1
10
62.0439598709927
20
-33.307618515785
30
0
41
1
10
62.0671201854563
20
-33.335395373086
30
0
41
1
10
62.0885389915202
20
-33.3661566550824
30
0
41
1
10
62.113950371308
20
-33.4220894838633
30
0
41
1
10
62.1214580237961
20
-33.4457924278391
30
0
41
1
10
62.1259784141927
20
-33.4782878333404
30
0
41
1
10
62.1266641796623
20
-33.4866563003372
30
0
41
1
10
62.1274106952605
20
-33.5189215057643
30
0
41
1
10
62.12374714007
20
-33.5432293424189
30
0
41
1
10
62.1143596854291
20
-33.5741657882316
30
0
41
1
10
62.1114227244078
20
-33.5823043815642
30
0
41
1
10
62.0925277493289
20
-33.6281138424875
30
0
41
1
10
62.0692256559174
20
-33.6620794732649
30
0
41
1
10
62.0439598709999
20
-33.6923814842061
30
0
0
SPLINE
5
1D1
100
AcDbEntity
8
1
62
256
6
ByLayer
370
13
48
1
60
0
100
AcDbSpline
70
4
71
3
72
12
73
8
40
0
40
0
40
0
40
0
40
0.0695374380305743
40
0.0695374380305743
40
0.564718845075643
40
0.564718845075643
40
1
40
1
40
1
40
1
41
1
10
62.0439598709999
20
-33.6923814842061
30
0
41
1
10
62.0385610813285
20
-33.6988564140061
30
0
41
1
10
62.0333230650435
20
-33.7054109635301
30
0
41
1
10
61.9927993674551
20
-33.7583263081585
30
0
41
1
10
61.9653523725795
20
-33.8087888540874
30
0
41
1
10
61.9331669750443
20
-33.8974117671847
30
0
41
1
10
61.9256153955241
20
-33.937472717622
30
0
41
1
10
61.9250392603487
20
-33.9712889523045
30
0
0
SPLINE
5
1D2
100
AcDbEntity
8
1
62
256
6
ByLayer
370
13
48
1
60
0
100
AcDbSpline
70
4
71
3
72
10
73
6
40
0
40
0
40
0
40
0
40
0.323499890762715
40
0.323499890762715
40
1
40
1
40
1
40
1
41
1
10
61.9250392603487
20
-33.9712889523045
30
0
41
1
10
61.9248229895013
20
-33.9839829623967
30
0
41
1
10
61.9221009308091
20
-33.9957465266667
30
0
41
1
10
61.9072698303882
20
-34.0276860745182
30
0
41
1
10
61.8876680100065
20
-34.0440754024251
30
0
41
1
10
61.8643787537961
20
-34.0563103127399
30
0
0
SPLINE
5
1D3
100
AcDbEntity
8
1
62
256
6
ByLayer
370
13
48
1
60
0
100
AcDbSpline
70
4
71
3
72
12
73
8
40
0
40
0
40
0
40
0
40
0.833271550695841
40
0.833271550695841
40
0.924873187913958
40
0.924873187913958
40
1
40
1
40
1
40
1
41
1
10
61.0610166945645
20
-33.9940882031481
30
0
41
1
10
61.0544754484441
20
-33.9595708997962
30
0
41
1
10
61.0449923927373
20
-33.9168966793299
30
0
41
1
10
61.040181068922
20
-33.8635669341888
30
0
41
1
10
61.0397613475273
20
-33.8581473055585
30
0
41
1
10
61.0391308505303
20
-33.8481631661793
30
0
41
1
10
61.0388959908553
20
-33.8436188918927
30
0
41
1
10
61.0387159227923
20
-33.8390329632429
30
0
0
SPLINE
5
1D4
100
AcDbEntity
8
1
62
256
6
ByLayer
370
13
48
1
60
0
100
AcDbSpline
70
4
71
3
72
8
73
4
40
0
40
0
40
0
40
0
40
1
40
1
40
1
40
1
41
1
10
61.0387159227923
20
-33.8390329632429
30
0
41
1
10
61.059987312203
20
-33.8328942415295
30
0
41
1
10
61.0815114137464
20
-33.8271522119493
30
0
41
1
10
61.1032105368037
20
-33.8217756253576
30
0
0
SPLINE
5
1D5
100
AcDbEntity
8
1
62
256
6
ByLayer
370
13
48
1
60
0
100
AcDbSpline
70
4
71
3
72
8
73
4
40
0
40
0
40
0
40
0
40
1
40
1
40
1
40
1
41
1
10
61.1032105368034
20
-33.8217756253559
30
0
41
1
10
61.1062783445423
20
-33.8210154870816
30
0
41
1
10
61.1093468504694
20
-33.8202554427515
30
0
41
1
10
61.1124160421628
20
-33.819495491067
30
0
0
SPLINE
5
1D6
100
AcDbEntity
8
1
62
256
6
ByLayer
370
13
48
1
60
0
100
AcDbSpline
70
4
71
3
72
26
73
22
40
0
40
0
40
0
40
0
40
0.0783346115779722
40
0.0783346115779722
40
0.229067417424992
40
0.229067417424992
40
0.361148737487712
40
0.361148737487712
40
0.451044286208709
40
0.451044286208709
40
0.480076288213215
40
0.480076288213215
40
0.580804987892491
40
0.580804987892491
40
0.598553408472289
40
0.598553408472289
40
0.721865021031447
40
0.721865021031447
40
0.852573440596253
40
0.852573440596253
40
1
40
1
40
1
40
1
41
1
10
61.1124160421628
20
-33.819495491067
30
0
41
1
10
61.1363716105935
20
-33.8135639376159
30
0
41
1
10
61.1598327503349
20
-33.8061586706428
30
0
41
1
10
61.2253859658397
20
-33.7799008296078
30
0
41
1
10
61.2659116446279
20
-33.7563010498236
30
0
41
1
10
61.3301656555828
20
-33.6993484326081
30
0
41
1
10
61.3562012292316
20
-33.6666292496864
30
0
41
1
10
61.3871009177856
20
-33.6042269467144
30
0
41
1
10
61.3963228169934
20
-33.5762181158148
30
0
41
1
10
61.4026526489823
20
-33.5381476115942
30
0
41
1
10
61.4037565534503
20
-33.5286470667844
30
0
41
1
10
61.406535622122
20
-33.4866487424098
30
0
41
1
10
61.4029896944569
20
-33.4530994502487
30
0
41
1
10
61.3928135335291
20
-33.4165606236643
30
0
41
1
10
61.3911033398723
20
-33.4110584618828
30
0
41
1
10
61.3765578244499
20
-33.3686791181926
30
0
41
1
10
61.3563208175635
20
-33.3345999946106
30
0
41
1
10
61.3056247831178
20
-33.2756980780515
30
0
41
1
10
61.273851925294
20
-33.250414714149
30
0
41
1
10
61.2004676930902
20
-33.2079441245458
30
0
41
1
10
61.1571805456305
20
-33.1915884890853
30
0
41
1
10
61.1124160421628
20
-33.1805045089326
30
0
0
SPLINE
5
1D7
100
AcDbEntity
8
1
62
256
6
ByLayer
370
13
48
1
60
0
100
AcDbSpline
70
4
71
3
72
8
73
4
40
0
40
0
40
0
40
0
40
1
40
1
40
1
40
1
41
1
10
61.1124160421628
20
-33.1805045089326
30
0
41
1
10
61.1093468504694
20
-33.1797445572482
30
0
41
1
10
61.1062783445423
20
-33.1789845129181
30
0
41
1
10
61.1032105368034
20
-33.1782243746438
30
0
0
SPLINE
5
1D8
100
AcDbEntity
8
1
62
256
6
ByLayer
370
13
48
1
60
0
100
AcDbSpline
70
4
71
3
72
8
73
4
40
0
40
0
40
0
40
0
40
1
40
1
40
1
40
1
41
1
10
61.1032105368034
20
-33.1782243746438
30
0
41
1
10
61.0815114137461
20
-33.1728477880521
30
0
41
1
10
61.0599873122031
20
-33.1671057584685
30
0
41
1
10
61.0387159227924
20
-33.160967036755
30
0
0
SPLINE
5
1D9
100
AcDbEntity
8
1
62
256
6
ByLayer
370
13
48
1
60
0
100
AcDbSpline
70
4
71
3
72
10
73
6
40
0
40
0
40
0
40
0
40
0.0748872813144652
40
0.0748872813144652
40
1
40
1
40
1
40
1
41
1
10
61.0387159227923
20
-33.1609670367568
30
0
41
1
10
61.0388959908553
20
-33.156381108107
30
0
41
1
10
61.0391308505303
20
-33.1518368338204
30
0
41
1
10
61.0428644178648
20
-33.0927144956872
30
0
41
1
10
61.0537561749332
20
-33.0442246127879
30
0
41
1
10
61.0610166945643
20
-33.005911796853
30
0
0
SPLINE
5
1DA
100
AcDbEntity
8
1
62
256
6
ByLayer
370
13
48
1
60
0
100
AcDbSpline
70
4
71
3
72
20
73
16
40
0
40
0
40
0
40
0
40
0.114266316237489
40
0.114266316237489
40
0.331231960429442
40
0.331231960429442
40
0.599155656755157
40
0.599155656755157
40
0.722874848940947
40
0.722874848940947
40
0.871512516236653
40
0.871512516236653
40
0.967654963824484
40
0.967654963824484
40
1
40
1
40
1
40
1
41
1
10
61.3052940680729
20
-32.9548268776214
30
0
41
1
10
61.3145383163395
20
-32.9495979679495
30
0
41
1
10
61.3236231348747
20
-32.9437409175789
30
0
41
1
10
61.3492280670811
20
-32.9249682151514
30
0
41
1
10
61.365276744252
20
-32.9103163055361
30
0
41
1
10
61.3980286906964
20
-32.872427118395
30
0
41
1
10
61.4143711478299
20
-32.8475318277619
30
0
41
1
10
61.4331414661541
20
-32.8062303621544
30
0
41
1
10
61.4383907764822
20
-32.7922856633344
30
0
41
1
10
61.447858461063
20
-32.7603462150163
30
0
41
1
10
61.4517121178798
20
-32.741882314626
30
0
41
1
10
61.4553663096761
20
-32.7108205811756
30
0
41
1
10
61.4561297476895
20
-32.6983453571316
30
0
41
1
10
61.4561906263781
20
-32.6816675033306
30
0
41
1
10
61.4561249332387
20
-32.6774536419886
30
0
41
1
10
61.4559779585028
20
-32.6732443225487
30
0
0
SPLINE
5
1DB
100
AcDbEntity
8
1
62
256
6
ByLayer
370
13
48
1
60
0
100
AcDbSpline
70
4
71
3
72
16
73
12
40
0
40
0
40
0
40
0
40
0.249954056036558
40
0.249954056036558
40
0.699484194384015
40
0.699484194384015
40
0.851133931227642
40
0.851133931227642
40
0.935108677236773
40
0.935108677236773
40
1
40
1
40
1
40
1
41
1
10
61.2267110292774
20
-34.2268974965044
30
0
41
1
10
61.2427048966234
20
-34.2304490006951
30
0
41
1
10
61.2585947536486
20
-34.234631905269
30
0
41
1
10
61.3021970348682
20
-34.2485674865995
30
0
41
1
10
61.3302297071818
20
-34.2597714076045
30
0
41
1
10
61.3625570510524
20
-34.283219319487
30
0
41
1
10
61.3704121947257
20
-34.2900650624512
30
0
41
1
10
61.3801629147231
20
-34.3028211492217
30
0
41
1
10
61.3831940821262
20
-34.3079077531609
30
0
41
1
10
61.3866841498694
20
-34.3176298067032
30
0
41
1
10
61.3875739298376
20
-34.3222200449414
30
0
41
1
10
61.3875739298376
20
-34.326755677451
30
0
0
SPLINE
5
1DC
100
AcDbEntity
8
1
62
256
6
ByLayer
370
13
48
1
60
0
100
AcDbSpline
70
4
71
3
72
20
73
16
40
0
40
0
40
0
40
0
40
0.0199906994069362
40
0.0199906994069362
40
0.0825919577440876
40
0.0825919577440876
40
0.195169299288357
40
0.195169299288357
40
0.306011529795777
40
0.306011529795777
40
0.591177675589546
40
0.591177675589546
40
0.85412822131223
40
0.85412822131223
40
1
40
1
40
1
40
1
41
1
10
61.3875739298377
20
-32.6732443225487
30
0
41
1
10
61.3875739298377
20
-32.6746558473501
30
0
41
1
10
61.3874914943693
20
-32.6760698732453
30
0
41
1
10
61.3868329759386
20
-32.6818028702279
30
0
41
1
10
61.3855574593884
20
-32.6860718491901
30
0
41
1
10
61.3806296077618
20
-32.6970378588875
30
0
41
1
10
61.3758782533064
20
-32.7032863595625
30
0
41
1
10
61.3654630806491
20
-32.7141451041685
30
0
41
1
10
61.359676381482
20
-32.7189174098232
30
0
41
1
10
61.3382455610535
20
-32.7342830738215
30
0
41
1
10
61.3211325656859
20
-32.7426612867127
30
0
41
1
10
61.2877211729543
20
-32.7562475648145
30
0
41
1
10
61.2712362948113
20
-32.7616193506469
30
0
41
1
10
61.2453568251732
20
-32.7687358047044
30
0
41
1
10
61.2360536989462
20
-32.7710279251729
30
0
41
1
10
61.2267110292773
20
-32.7731025034953
30
0
0
SPLINE
5
1DD
100
AcDbEntity
8
1
62
256
6
ByLayer
370
13
48
1
60
0
100
AcDbSpline
70
4
71
3
72
14
73
10
40
0
40
0
40
0
40
0
40
0.0177534078899156
40
0.0177534078899156
40
0.340744812432132
40
0.340744812432132
40
0.785966596962005
40
0.785966596962005
40
1
40
1
40
1
40
1
41
1
10
61.8510546870628
20
-32.9323804861461
30
0
41
1
10
61.8520935591131
20
-32.9321193181416
30
0
41
1
10
61.8531321595046
20
-32.931851656369
30
0
41
1
10
61.8729966272014
20
-32.9266051557524
30
0
41
1
10
61.8917885884792
20
-32.9194399402448
30
0
41
1
10
61.9347600859257
20
-32.8978226896955
30
0
41
1
10
61.9587945413718
20
-32.8813851019799
30
0
41
1
10
61.9910000960522
20
-32.8526738137018
30
0
41
1
10
62.0010527060187
20
-32.84255827921
30
0
41
1
10
62.010489557929
20
-32.8318540541034
30
0
0
SPLINE
5
1DE
100
AcDbEntity
8
1
62
256
6
ByLayer
370
13
48
1
60
0
100
AcDbSpline
70
4
71
3
72
12
73
8
40
0
40
0
40
0
40
0
40
0.559301985460886
40
0.559301985460886
40
0.982067221682947
40
0.982067221682947
40
1
40
1
40
1
40
1
41
1
10
62.010489557929
20
-34.1681459458963
30
0
41
1
10
61.9860762799805
20
-34.1404539544106
30
0
41
1
10
61.9571861880885
20
-34.1165461082716
30
0
41
1
10
61.9034740589433
20
-34.0852512885932
30
0
41
1
10
61.8788250511787
20
-34.0749342174857
30
0
41
1
10
61.8531321595027
20
-34.0681483436319
30
0
41
1
10
61.8520935591125
20
-34.0678806818585
30
0
41
1
10
61.8510546870628
20
-34.0676195138537
30
0
0
SPLINE
5
1DF
100
AcDbEntity
8
1
62
256
6
ByLayer
370
13
48
1
60
0
100
AcDbSpline
70
4
71
3
72
8
73
4
40
0
40
0
40
0
40
0
40
1
40
1
40
1
40
1
41
1
10
60.6639115680548
20
-34.6339172375212
30
0
41
1
10
60.7472851478713
20
-34.4951344673783
30
0
41
1
10
60.816569163954
20
-34.3469659249435
30
0
41
1
10
60.8825621452742
20
-34.1979670943812
30
0
0
SPLINE
5
1E0
100
AcDbEntity
8
1
62
256
6
ByLayer
370
13
48
1
60
0
100
AcDbSpline
70
4
71
3
72
16
73
12
40
0
40
0
40
0
40
0
40
0.0745951303882249
40
0.0745951303882249
40
0.27553513169183
40
0.27553513169183
40
0.501427420118119
40
0.501427420118119
40
0.725494997757322
40
0.725494997757322
40
1
40
1
40
1
40
1
41
1
10
60.8825621452742
20
-34.1979670943812
30
0
41
1
10
60.8837736749443
20
-34.1952317049441
30
0
41
1
10
60.8851163296951
20
-34.1925572078749
30
0
41
1
10
60.8905147865576
20
-34.1830767358222
30
0
41
1
10
60.895461783055
20
-34.1767105424776
30
0
41
1
10
60.9076198241713
20
-34.1655631329548
30
0
41
1
10
60.9152342937161
20
-34.1609241671941
30
0
41
1
10
60.931205119136
20
-34.1550310189243
30
0
41
1
10
60.9397662566659
20
-34.1536400991377
30
0
41
1
10
60.9585207140202
20
-34.1535642009221
30
0
41
1
10
60.9689309570329
20
-34.1555045458584
30
0
41
1
10
60.9787842780359
20
-34.1587842708631
30
0
0
SPLINE
5
1E1
100
AcDbEntity
8
1
62
256
6
ByLayer
370
13
48
1
60
0
100
AcDbSpline
70
4
71
3
72
16
73
12
40
0
40
0
40
0
40
0
40
0.108772443208259
40
0.108772443208259
40
0.369799377627614
40
0.369799377627614
40
0.571154122074464
40
0.571154122074464
40
0.786314444449857
40
0.786314444449857
40
1
40
1
40
1
40
1
41
1
10
60.9787842780347
20
-32.8412157291374
30
0
41
1
10
60.974842530994
20
-32.8425277584854
30
0
41
1
10
60.9708295616293
20
-32.8436227135308
30
0
41
1
10
60.9571495011343
20
-32.8464561410264
30
0
41
1
10
60.9470910912765
20
-32.8470160849208
30
0
41
1
10
60.9298590002818
20
-32.8445065950911
30
0
41
1
10
60.9223925092281
20
-32.8421859946965
30
0
41
1
10
60.9083165495633
20
-32.8348649951487
30
0
41
1
10
60.9016145563071
20
-32.8295801783689
30
0
41
1
10
60.8905405846473
20
-32.8171023139174
30
0
41
1
10
60.8859929686991
20
-32.8097790123652
30
0
41
1
10
60.8825621452759
20
-32.8020329056174
30
0
0
SPLINE
5
1E2
100
AcDbEntity
8
1
62
256
6
ByLayer
370
13
48
1
60
0
100
AcDbSpline
70
4
71
3
72
8
73
4
40
0
40
0
40
0
40
0
40
1
40
1
40
1
40
1
41
1
10
60.8825621452735
20
-32.8020329056199
30
0
41
1
10
60.8165691639542
20
-32.6530340750598
30
0
41
1
10
60.7472851478721
20
-32.5048655326272
30
0
41
1
10
60.6639115680571
20
-32.3660827624861
30
0
0
SPLINE
5
1E3
100
AcDbEntity
8
1
62
256
6
ByLayer
370
13
48
1
60
0
100
AcDbSpline
70
4
71
3
72
10
73
6
40
0
40
0
40
0
40
0
40
0.140418403423082
40
0.140418403423082
40
1
40
1
40
1
40
1
41
1
10
62.2950622867786
20
-34.549169449934
30
0
41
1
10
62.2949786281127
20
-34.5491668597205
30
0
41
1
10
62.2948949964083
20
-34.5491666556348
30
0
41
1
10
62.2943060068435
20
-34.5491831719814
30
0
41
1
10
62.2937967459171
20
-34.5492933847364
30
0
41
1
10
62.2933275812036
20
-34.5495304557446
30
0
0
SPLINE
5
1E4
100
AcDbEntity
8
1
62
256
6
ByLayer
370
13
48
1
60
0
100
AcDbSpline
70
4
71
3
72
8
73
4
40
0
40
0
40
0
40
0
40
1
40
1
40
1
40
1
41
1
10
62.3981203716814
20
-34.5478480284312
30
0
41
1
10
62.3638409048776
20
-34.549704418651
30
0
41
1
10
62.3294607622627
20
-34.5502344847972
30
0
41
1
10
62.2950622867787
20
-34.549169449934
30
0
0
SPLINE
5
1E5
100
AcDbEntity
8
1
62
256
6
ByLayer
370
13
48
1
60
0
100
AcDbSpline
70
4
71
3
72
8
73
4
40
0
40
0
40
0
40
0
40
1
40
1
40
1
40
1
41
1
10
62.3981203716814
20
-32.4521519715685
30
0
41
1
10
62.3638409048776
20
-32.4502955813487
30
0
41
1
10
62.3294607622627
20
-32.4497655152026
30
0
41
1
10
62.2950622867787
20
-32.4508305500657
30
0
0
SPLINE
5
1E6
100
AcDbEntity
8
1
62
256
6
ByLayer
370
13
48
1
60
0
100
AcDbSpline
70
4
71
3
72
10
73
6
40
0
40
0
40
0
40
0
40
0.140418403423082
40
0.140418403423082
40
1
40
1
40
1
40
1
41
1
10
62.2950622867786
20
-32.4508305500657
30
0
41
1
10
62.2949786281127
20
-32.4508331402792
30
0
41
1
10
62.2948949964083
20
-32.4508333443649
30
0
41
1
10
62.2943060068435
20
-32.4508168280183
30
0
41
1
10
62.2937967459171
20
-32.4507066152633
30
0
41
1
10
62.2933275812036
20
-32.4504695442551
30
0
0
SPLINE
5
1E7
100
AcDbEntity
8
1
62
256
6
ByLayer
370
13
48
1
60
0
100
AcDbSpline
70
4
71
3
72
8
73
4
40
0
40
0
40
0
40
0
40
1
40
1
40
1
40
1
41
1
10
61.8643787537961
20
-34.0563103127399
30
0
41
1
10
61.859967111299
20
-34.0600859171018
30
0
41
1
10
61.8555251065502
20
-34.0638555577374
30
0
41
1
10
61.8510546870628
20
-34.0676195138537
30
0
0
SPLINE
5
1E8
100
AcDbEntity
8
1
62
256
6
ByLayer
370
13
48
1
60
0
100
AcDbSpline
70
4
71
3
72
8
73
4
40
0
40
0
40
0
40
0
40
1
40
1
40
1
40
1
41
1
10
61.8510546870628
20
-32.9323804861461
30
0
41
1
10
61.8555251065502
20
-32.9361444422623
30
0
41
1
10
61.859967111299
20
-32.9399140828979
30
0
41
1
10
61.8643787537961
20
-32.9436896872598
30
0
0
SPLINE
5
1E9
100
AcDbEntity
8
1
62
256
6
ByLayer
370
13
48
1
60
0
100
AcDbSpline
70
4
71
3
72
12
73
8
40
0
40
0
40
0
40
0
40
0.473871515909109
40
0.473871515909109
40
0.928528687587425
40
0.928528687587425
40
1
40
1
40
1
40
1
41
1
10
62.18962014135
20
-33.2114277736804
30
0
41
1
10
62.1605769079864
20
-33.1729785205614
30
0
41
1
10
62.138076503972
20
-33.1320708637637
30
0
41
1
10
62.1054858788087
20
-33.0585283835132
30
0
41
1
10
62.0944900899473
20
-33.0248133486183
30
0
41
1
10
62.0859581625813
20
-32.9922594476796
30
0
41
1
10
62.084884631021
20
-32.9879167218483
30
0
41
1
10
62.0838678419132
20
-32.9837267156528
30
0
0
SPLINE
5
1EA
100
AcDbEntity
8
1
62
256
6
ByLayer
370
13
48
1
60
0
100
AcDbSpline
70
4
71
3
72
12
73
8
40
0
40
0
40
0
40
0
40
0.152393412067187
40
0.152393412067187
40
0.68049007519868
40
0.68049007519868
40
1
40
1
40
1
40
1
41
1
10
62.1896201413457
20
-33.2114277736854
30
0
41
1
10
62.2346105972806
20
-33.2024736954455
30
0
41
1
10
62.2812734171468
20
-33.1929834299363
30
0
41
1
10
62.4939294786754
20
-33.1489175551783
30
0
41
1
10
62.6774173301441
20
-33.1088319095363
30
0
41
1
10
62.978376870561
20
-33.0398993350045
30
0
41
1
10
63.0952214954585
20
-33.0123944665233
30
0
41
1
10
63.2112677608008
20
-32.9841589254891
30
0
0
SPLINE
5
1EB
100
AcDbEntity
8
1
62
256
6
ByLayer
370
13
48
1
60
0
100
AcDbSpline
70
4
71
3
72
12
73
8
40
0
40
0
40
0
40
0
40
0.453713856043948
40
0.453713856043948
40
0.935255270278036
40
0.935255270278036
40
1
40
1
40
1
40
1
41
1
10
62.0838678419132
20
-34.0162732843469
30
0
41
1
10
62.0902549278144
20
-33.9899532448314
30
0
41
1
10
62.0997841086873
20
-33.9576855385581
30
0
41
1
10
62.1293410835708
20
-33.8854599986052
30
0
41
1
10
62.1503116579037
20
-33.8441812682374
30
0
41
1
10
62.1817069341031
20
-33.7992580890006
30
0
41
1
10
62.1855997151618
20
-33.7938947185575
30
0
41
1
10
62.1896201413555
20
-33.788572226312
30
0
0
SPLINE
5
1EC
100
AcDbEntity
8
1
62
256
6
ByLayer
370
13
48
1
60
0
100
AcDbSpline
70
4
71
3
72
12
73
8
40
0
40
0
40
0
40
0
40
0.152393412053729
40
0.152393412053729
40
0.680490075193607
40
0.680490075193607
40
1
40
1
40
1
40
1
41
1
10
62.1896201413597
20
-33.7885722263171
30
0
41
1
10
62.2346105972902
20
-33.7975263045562
30
0
41
1
10
62.2812734171518
20
-33.8070165700644
30
0
41
1
10
62.4939294786754
20
-33.8510824448213
30
0
41
1
10
62.6774173301441
20
-33.8911680904634
30
0
41
1
10
62.978376870561
20
-33.9601006649952
30
0
41
1
10
63.0952214954585
20
-33.9876055334764
30
0
41
1
10
63.2112677608008
20
-34.0158410745106
30
0
0
SPLINE
5
1ED
100
AcDbEntity
8
1
62
256
6
ByLayer
370
13
48
1
60
0
100
AcDbSpline
70
4
71
3
72
16
73
12
40
0
40
0
40
0
40
0
40
0.257384746008501
40
0.257384746008501
40
0.483485531381172
40
0.483485531381172
40
0.71945910330869
40
0.71945910330869
40
0.925748185145375
40
0.925748185145375
40
1
40
1
40
1
40
1
41
1
10
61.0610166945645
20
-33.9940882031481
30
0
41
1
10
61.0316687367362
20
-33.9915861532452
30
0
41
1
10
61.0016686457385
20
-33.9930316735146
30
0
41
1
10
60.9476222628196
20
-34.0030255811652
30
0
41
1
10
60.9228412392242
20
-34.0107769362004
30
0
41
1
10
60.8759336807441
20
-34.0321780148551
30
0
41
1
10
60.8535298246701
20
-34.0462768998188
30
0
41
1
10
60.8168300974004
20
-34.0773137419916
30
0
41
1
10
60.8015959942175
20
-34.0939052091306
30
0
41
1
10
60.7843415664157
20
-34.1184150272251
30
0
41
1
10
60.7800684610182
20
-34.1251384780967
30
0
41
1
10
60.7761342837701
20
-34.1320289653287
30
0
0
SPLINE
5
1EE
100
AcDbEntity
8
1
62
256
6
ByLayer
370
13
48
1
60
0
100
AcDbSpline
70
4
71
3
72
16
73
12
40
0
40
0
40
0
40
0
40
0.215940694014332
40
0.215940694014332
40
0.440749342864023
40
0.440749342864023
40
0.6480631149087
40
0.6480631149087
40
0.900502256755734
40
0.900502256755734
40
1
40
1
40
1
40
1
41
1
10
60.7761342837701
20
-32.8679710346725
30
0
41
1
10
60.7874887091377
20
-32.8878576635884
30
0
41
1
10
60.8017703058923
20
-32.9064361598136
30
0
41
1
10
60.8355311178213
20
-32.9399193928967
30
0
41
1
10
60.8554935542142
20
-32.9549357614887
30
0
41
1
10
60.8971485157203
20
-32.9784750870558
30
0
41
1
10
60.9188925805651
20
-32.9875896477209
30
0
41
1
10
60.9687388690062
20
-33.0021464515233
30
0
41
1
10
60.9977360562636
20
-33.0065221205434
30
0
41
1
10
61.0380565109324
20
-33.0072707033974
30
0
41
1
10
61.0495709364867
20
-33.0068876009637
30
0
41
1
10
61.0610166945642
20
-33.005911796853
30
0
0
SPLINE
5
1EF
100
AcDbEntity
8
1
62
256
6
ByLayer
370
13
48
1
60
0
100
AcDbSpline
70
4
71
3
72
14
73
10
40
0
40
0
40
0
40
0
40
0.0140696667047013
40
0.0140696667047013
40
0.158297294424887
40
0.158297294424887
40
0.557403345933072
40
0.557403345933072
40
1
40
1
40
1
40
1
41
1
10
61.0387159227632
20
-33.1609670367588
30
0
41
1
10
61.0375460584102
20
-33.1611302068006
30
0
41
1
10
61.036375468005
20
-33.1612893370034
30
0
41
1
10
61.0230171191251
20
-33.1630656762815
30
0
41
1
10
61.0107456069811
20
-33.1642969270918
30
0
41
1
10
60.9650925286651
20
-33.1674390259888
30
0
41
1
10
60.9314247709742
20
-33.1668145658748
30
0
41
1
10
60.8656728605842
20
-33.1597035542507
30
0
41
1
10
60.8330791217041
20
-33.1524710109448
30
0
41
1
10
60.8056329534176
20
-33.1423064434263
30
0
0
SPLINE
5
1F0
100
AcDbEntity
8
1
62
256
6
ByLayer
370
13
48
1
60
0
100
AcDbSpline
70
4
71
3
72
8
73
4
40
0
40
0
40
0
40
0
40
1
40
1
40
1
40
1
41
1
10
60.8056329534175
20
-33.1423064434049
30
0
41
1
10
60.796339183532
20
-33.1388645366697
30
0
41
1
10
60.7875722949159
20
-33.1354048260507
30
0
41
1
10
60.7794417210372
20
-33.1320021197186
30
0
0
SPLINE
5
1F1
100
AcDbEntity
8
1
62
256
6
ByLayer
370
13
48
1
60
0
100
AcDbSpline
70
4
71
3
72
10
73
6
40
0
40
0
40
0
40
0
40
0.782589980152529
40
0.782589980152529
40
1
40
1
40
1
40
1
41
1
10
60.7761342837701
20
-32.8679710346725
30
0
41
1
10
60.7750264075113
20
-32.9278868040868
30
0
41
1
10
60.7733409185196
20
-32.9972283883655
30
0
41
1
10
60.7768419616687
20
-33.0902982850525
30
0
41
1
10
60.7779402791545
20
-33.1110249027803
30
0
41
1
10
60.7794417210385
20
-33.1320021197165
30
0
0
SPLINE
5
1F2
100
AcDbEntity
8
1
62
256
6
ByLayer
370
13
48
1
60
0
100
AcDbSpline
70
4
71
3
72
10
73
6
40
0
40
0
40
0
40
0
40
0.217410019846355
40
0.217410019846355
40
1
40
1
40
1
40
1
41
1
10
60.7794417210371
20
-33.8679978802819
30
0
41
1
10
60.777940279153
20
-33.8889750972181
30
0
41
1
10
60.7768419616687
20
-33.9097017149472
30
0
41
1
10
60.7733409185196
20
-34.0027716116348
30
0
41
1
10
60.7750264075113
20
-34.072113195914
30
0
41
1
10
60.7761342837701
20
-34.1320289653287
30
0
0
SPLINE
5
1F3
100
AcDbEntity
8
1
62
256
6
ByLayer
370
13
48
1
60
0
100
AcDbSpline
70
4
71
3
72
8
73
4
40
0
40
0
40
0
40
0
40
1
40
1
40
1
40
1
41
1
10
60.7794417210371
20
-33.867997880282
30
0
41
1
10
60.7875722949159
20
-33.8645951739498
30
0
41
1
10
60.796339183532
20
-33.8611354633301
30
0
41
1
10
60.8056329534175
20
-33.8576935565949
30
0
0
SPLINE
5
1F4
100
AcDbEntity
8
1
62
256
6
ByLayer
370
13
48
1
60
0
100
AcDbSpline
70
4
71
3
72
14
73
10
40
0
40
0
40
0
40
0
40
0.362290872375782
40
0.362290872375782
40
0.75921727113372
40
0.75921727113372
40
0.985981513552925
40
0.985981513552925
40
1
40
1
40
1
40
1
41
1
10
60.8056329534176
20
-33.8576935565733
30
0
41
1
10
60.8281812464505
20
-33.8493428955789
30
0
41
1
10
60.8541207849953
20
-33.8429736241296
30
0
41
1
10
60.9118571823039
20
-33.8344830133914
30
0
41
1
10
60.9447419197083
20
-33.8327066008655
30
0
41
1
10
60.9968158183066
20
-33.8344356382935
30
0
41
1
10
61.0161285437686
20
-33.8360183087435
30
0
41
1
10
61.0363754679909
20
-33.8387106630087
30
0
41
1
10
61.0375460583942
20
-33.8388697931997
30
0
41
1
10
61.0387159227443
20
-33.839032963237
30
0
0
SPLINE
5
1F5
100
AcDbEntity
8
1
62
256
6
ByLayer
370
13
48
1
60
0
100
AcDbSpline
70
4
71
3
72
12
73
8
40
0
40
0
40
0
40
0
40
0.027753964396557
40
0.027753964396557
40
0.667826589987148
40
0.667826589987148
40
1
40
1
40
1
40
1
41
1
10
60.6639115680571
20
-32.3660827624861
30
0
41
1
10
60.66302249383
20
-32.3665946871149
30
0
41
1
10
60.6621362973346
20
-32.3671065367085
30
0
41
1
10
60.641139438886
20
-32.3792800928328
30
0
41
1
10
60.6223677783528
20
-32.3911474247194
30
0
41
1
10
60.5985834198732
20
-32.4077783083682
30
0
41
1
10
60.5911418620728
20
-32.4133204733209
30
0
41
1
10
60.5846560826642
20
-32.4185200609353
30
0
0
SPLINE
5
1F6
100
AcDbEntity
8
1
62
256
6
ByLayer
370
13
48
1
60
0
100
AcDbSpline
70
4
71
3
72
10
73
6
40
0
40
0
40
0
40
0
40
0.820434354426583
40
0.820434354426583
40
1
40
1
40
1
40
1
41
1
10
60.5772670677278
20
-32.4240156686539
30
0
41
1
10
60.6373176229179
20
-32.5427324181904
30
0
41
1
10
60.6907218307757
20
-32.6648162505155
30
0
41
1
10
60.7537878651402
20
-32.8141877093672
30
0
41
1
10
60.765006782063
20
-32.8410617225016
30
0
41
1
10
60.7761342837706
20
-32.8679710346722
30
0
0
SPLINE
5
1F7
100
AcDbEntity
8
1
62
256
6
ByLayer
370
13
48
1
60
0
100
AcDbSpline
70
4
71
3
72
8
73
4
40
0
40
0
40
0
40
0
40
1
40
1
40
1
40
1
41
1
10
60.5846560826642
20
-32.4185200609353
30
0
41
1
10
60.5821308679729
20
-32.4205445015154
30
0
41
1
10
60.5796628452491
20
-32.4223801985338
30
0
41
1
10
60.5772670677278
20
-32.4240156686539
30
0
0
SPLINE
5
1F8
100
AcDbEntity
8
1
62
256
6
ByLayer
370
13
48
1
60
0
100
AcDbSpline
70
4
71
3
72
12
73
8
40
0
40
0
40
0
40
0
40
0.0278313206712517
40
0.0278313206712517
40
0.611473023609022
40
0.611473023609022
40
1
40
1
40
1
40
1
41
1
10
60.6639115680654
20
-34.6339172375034
30
0
41
1
10
60.6630224938381
20
-34.6334053128775
30
0
41
1
10
60.6621362973421
20
-34.6328934632878
30
0
41
1
10
60.6428803330612
20
-34.6217292426223
30
0
41
1
10
60.6256423082254
20
-34.6109187529852
30
0
41
1
10
60.6010972420243
20
-34.5940822902433
30
0
41
1
10
60.5922210960019
20
-34.5875447382466
30
0
41
1
10
60.584656082664
20
-34.5814799390643
30
0
0
SPLINE
5
1F9
100
AcDbEntity
8
1
62
256
6
ByLayer
370
13
48
1
60
0
100
AcDbSpline
70
4
71
3
72
8
73
4
40
0
40
0
40
0
40
0
40
1
40
1
40
1
40
1
41
1
10
60.584656082664
20
-34.5814799390643
30
0
41
1
10
60.5821308679729
20
-34.5794554984842
30
0
41
1
10
60.5796628452491
20
-34.5776198014658
30
0
41
1
10
60.5772670677278
20
-34.5759843313458
30
0
0
SPLINE
5
1FA
100
AcDbEntity
8
1
62
256
6
ByLayer
370
13
48
1
60
0
100
AcDbSpline
70
4
71
3
72
10
73
6
40
0
40
0
40
0
40
0
40
0.819881036339605
40
0.819881036339605
40
1
40
1
40
1
40
1
41
1
10
60.7761342837701
20
-34.1320289653287
30
0
41
1
10
60.7253430321445
20
-34.2548559647256
30
0
41
1
10
60.6729973133249
20
-34.3771935301972
30
0
41
1
10
60.6032770273131
20
-34.5236422096646
30
0
41
1
10
60.5904566776892
20
-34.5499091748829
30
0
41
1
10
60.5772670677279
20
-34.5759843313458
30
0
0
SPLINE
5
1FB
100
AcDbEntity
8
1
62
256
6
ByLayer
370
13
48
1
60
0
100
AcDbSpline
70
4
71
3
72
12
73
8
40
0
40
0
40
0
40
0
40
0.0277499781510944
40
0.0277499781510944
40
0.667808133384293
40
0.667808133384293
40
1
40
1
40
1
40
1
41
1
10
60.663911568057
20
-32.3660827624861
30
0
41
1
10
60.6629034320478
20
-32.3661611799299
30
0
41
1
10
60.6618982158727
20
-32.3662395951406
30
0
41
1
10
60.6380665525594
20
-32.3681043677515
30
0
41
1
10
60.61651808857
20
-32.3699193486593
30
0
41
1
10
60.5888224267558
20
-32.3724591528697
30
0
41
1
10
60.580073554872
20
-32.3733048712674
30
0
41
1
10
60.5723583203581
20
-32.3740977768681
30
0
0
SPLINE
5
1FC
100
AcDbEntity
8
1
62
256
6
ByLayer
370
13
48
1
60
0
100
AcDbSpline
70
4
71
3
72
12
73
8
40
0
40
0
40
0
40
0
40
0.0278272716373759
40
0.0278272716373759
40
0.611453167879501
40
0.611453167879501
40
1
40
1
40
1
40
1
41
1
10
60.6639115680571
20
-34.6339172375136
30
0
41
1
10
60.6629034319402
20
-34.6338388216492
30
0
41
1
10
60.6618982154425
20
-34.6337604111761
30
0
41
1
10
60.6400426145075
20
-34.6320502262531
30
0
41
1
10
60.6202762805606
20
-34.6303966595152
30
0
41
1
10
60.5917749645618
20
-34.627824783171
30
0
41
1
10
60.5813573467759
20
-34.6268270658482
30
0
41
1
10
60.5723583203581
20
-34.6259022231316
30
0
0
SPLINE
5
1FD
100
AcDbEntity
8
1
62
256
6
ByLayer
370
13
48
1
60
0
100
AcDbSpline
70
4
71
3
72
26
73
22
40
0
40
0
40
0
40
0
40
0.102035501666901
40
0.102035501666901
40
0.129284389714829
40
0.129284389714829
40
0.254161410871578
40
0.254161410871578
40
0.386333886983898
40
0.386333886983898
40
0.523125606178389
40
0.523125606178389
40
0.658908540792033
40
0.658908540792033
40
0.795133361230144
40
0.795133361230144
40
0.895568684120736
40
0.895568684120736
40
0.931575554525879
40
0.931575554525879
40
1
40
1
40
1
40
1
41
1
10
60.9964890019636
20
-33.3026645496348
30
0
41
1
10
61.0131393767336
20
-33.3079841234694
30
0
41
1
10
61.0291034127914
20
-33.3156550932707
30
0
41
1
10
61.0463800184522
20
-33.3278720373239
30
0
41
1
10
61.04992822141
20
-33.3306310478253
30
0
41
1
10
61.0686371526018
20
-33.3465700376583
30
0
41
1
10
61.0810099307052
20
-33.362598290587
30
0
41
1
10
61.1005417637306
20
-33.3988739209839
30
0
41
1
10
61.1077186636934
20
-33.4198861104083
30
0
41
1
10
61.116817379671
20
-33.4642649527195
30
0
41
1
10
61.1186673668159
20
-33.4883255343374
30
0
41
1
10
61.1168386014334
20
-33.5351292011225
30
0
41
1
10
61.1131780830524
20
-33.5585218607743
30
0
41
1
10
61.100271409133
20
-33.6016592445896
30
0
41
1
10
61.0908281262292
20
-33.6220284975206
30
0
41
1
10
61.068731185536
20
-33.652503296625
30
0
41
1
10
61.0572851116735
20
-33.6641967965665
30
0
41
1
10
61.0391386222023
20
-33.6773146373364
30
0
41
1
10
61.0340445533438
20
-33.6805566278108
30
0
41
1
10
61.0187059419968
20
-33.6891056025423
30
0
41
1
10
61.0077600338148
20
-33.6937345052238
30
0
41
1
10
60.9964890019636
20
-33.6973354503649
30
0
0
SPLINE
5
1FE
100
AcDbEntity
8
1
62
256
6
ByLayer
370
13
48
1
60
0
100
AcDbSpline
70
4
71
3
72
14
73
10
40
0
40
0
40
0
40
0
40
0.27475847941734
40
0.27475847941734
40
0.512436463803127
40
0.512436463803127
40
0.749993769781322
40
0.749993769781322
40
1
40
1
40
1
40
1
41
1
10
62.1896201413547
20
-33.7885722263114
30
0
41
1
10
62.2118015893238
20
-33.7404351427234
30
0
41
1
10
62.2306589366166
20
-33.6889104453592
30
0
41
1
10
62.253462576975
20
-33.5891040181781
30
0
41
1
10
62.2590594822314
20
-33.5405550900569
30
0
41
1
10
62.2578279543455
20
-33.444525225954
30
0
41
1
10
62.2510126304754
20
-33.3962474359845
30
0
41
1
10
62.2272786525577
20
-33.3019245959617
30
0
41
1
10
62.2098376614737
20
-33.2553028379871
30
0
41
1
10
62.1896201413508
20
-33.2114277736798
30
0
0
SPLINE
5
1FF
100
AcDbEntity
8
1
62
256
6
ByLayer
370
13
48
1
60
0
100
AcDbSpline
70
4
71
3
72
8
73
4
40
0
40
0
40
0
40
0
40
1
40
1
40
1
40
1
41
1
10
60.5705951003268
20
-34.6254379281352
30
0
41
1
10
60.5711929686635
20
-34.6254379281352
30
0
41
1
10
60.5717967952489
20
-34.6255881269812
30
0
41
1
10
60.5723583203562
20
-34.625902223117
30
0
0
SPLINE
5
200
100
AcDbEntity
8
1
62
256
6
ByLayer
370
13
48
1
60
0
100
AcDbSpline
70
4
71
3
72
8
73
4
40
0
40
0
40
0
40
0
40
1
40
1
40
1
40
1
41
1
10
60.5723583203562
20
-32.3740977768694
30
0
41
1
10
60.5717967952486
20
-32.3744118730058
30
0
41
1
10
60.5711929686639
20
-32.3745620718645
30
0
41
1
10
60.5705951003268
20
-32.3745620718645
30
0
0
SPLINE
5
201
100
AcDbEntity
8
1
62
256
6
ByLayer
370
13
48
1
60
0
100
AcDbSpline
70
4
71
3
72
10
73
6
40
0
40
0
40
0
40
0
40
0.84896187346875
40
0.84896187346875
40
1
40
1
40
1
40
1
41
1
10
64.9256851850747
20
-32.7352342528895
30
0
41
1
10
64.8912977154035
20
-32.6833914497462
30
0
41
1
10
64.843874742716
20
-32.6399358019811
30
0
41
1
10
64.7838155264513
20
-32.5979302278616
30
0
41
1
10
64.7744787017949
20
-32.591736292222
30
0
41
1
10
64.7650107000385
20
-32.5857566807601
30
0
0
SPLINE
5
202
100
AcDbEntity
8
1
62
256
6
ByLayer
370
13
48
1
60
0
100
AcDbSpline
70
4
71
3
72
8
73
4
40
0
40
0
40
0
40
0
40
1
40
1
40
1
40
1
41
1
10
64.7650107000385
20
-32.5857566807601
30
0
41
1
10
64.7210937227593
20
-32.558020473325
30
0
41
1
10
64.6769798114245
20
-32.5305908253662
30
0
41
1
10
64.632560747957
20
-32.5036673369174
30
0
0
SPLINE
5
203
100
AcDbEntity
8
1
62
256
6
ByLayer
370
13
48
1
60
0
100
AcDbSpline
70
4
71
3
72
10
73
6
40
0
40
0
40
0
40
0
40
0.657586553479613
40
0.657586553479613
40
1
40
1
40
1
40
1
41
1
10
64.632560747957
20
-32.5036673369174
30
0
41
1
10
64.6092305437702
20
-32.4895263255162
30
0
41
1
10
64.5864384919004
20
-32.4742029059565
30
0
41
1
10
64.5548281900598
20
-32.4472941054107
30
0
41
1
10
64.5444660370969
20
-32.4373646658892
30
0
41
1
10
64.535515563742
20
-32.4262943891192
30
0
0
SPLINE
5
204
100
AcDbEntity
8
1
62
256
6
ByLayer
370
13
48
1
60
0
100
AcDbSpline
70
4
71
3
72
10
73
6
40
0
40
0
40
0
40
0
40
0.657586553479614
40
0.657586553479614
40
1
40
1
40
1
40
1
41
1
10
64.632560747957
20
-34.4963326630823
30
0
41
1
10
64.6092305437702
20
-34.5104736744835
30
0
41
1
10
64.5864384919004
20
-34.5257970940433
30
0
41
1
10
64.5548281900598
20
-34.5527058945891
30
0
41
1
10
64.5444660370969
20
-34.5626353341105
30
0
41
1
10
64.535515563742
20
-34.5737056108805
30
0
0
SPLINE
5
205
100
AcDbEntity
8
1
62
256
6
ByLayer
370
13
48
1
60
0
100
AcDbSpline
70
4
71
3
72
8
73
4
40
0
40
0
40
0
40
0
40
1
40
1
40
1
40
1
41
1
10
64.7650107000385
20
-34.4142433192396
30
0
41
1
10
64.7210937227593
20
-34.4419795266747
30
0
41
1
10
64.6769798114245
20
-34.4694091746335
30
0
41
1
10
64.632560747957
20
-34.4963326630823
30
0
0
SPLINE
5
206
100
AcDbEntity
8
1
62
256
6
ByLayer
370
13
48
1
60
0
100
AcDbSpline
70
4
71
3
72
10
73
6
40
0
40
0
40
0
40
0
40
0.84896187346875
40
0.84896187346875
40
1
40
1
40
1
40
1
41
1
10
64.9256851850747
20
-34.2647657471103
30
0
41
1
10
64.8912977154035
20
-34.3166085502535
30
0
41
1
10
64.843874742716
20
-34.3600641980186
30
0
41
1
10
64.7838155264513
20
-34.4020697721381
30
0
41
1
10
64.7744787017949
20
-34.4082637077777
30
0
41
1
10
64.7650107000385
20
-34.4142433192396
30
0
0
SPLINE
5
207
100
AcDbEntity
8
1
62
256
6
ByLayer
370
13
48
1
60
0
100
AcDbSpline
70
4
71
3
72
14
73
10
40
0
40
0
40
0
40
0
40
0.0140322366304758
40
0.0140322366304758
40
0.158091565624719
40
0.158091565624719
40
0.557043656612004
40
0.557043656612004
40
1
40
1
40
1
40
1
41
1
10
61.0387159228241
20
-33.1609670367485
30
0
41
1
10
61.0379360645915
20
-33.1617277696408
30
0
41
1
10
61.0371559091054
20
-33.1624850537707
30
0
41
1
10
61.0282316685991
20
-33.1710835651133
30
0
41
1
10
61.0199670064645
20
-33.1785038459877
30
0
41
1
10
60.9889415558847
20
-33.2043673979609
30
0
41
1
10
60.9655368582111
20
-33.2198053070195
30
0
41
1
10
60.9187541033905
20
-33.2424891446818
30
0
41
1
10
60.8949133424734
20
-33.2490099070337
30
0
41
1
10
60.8743263124385
20
-33.2495141354523
30
0
0
SPLINE
5
208
100
AcDbEntity
8
1
62
256
6
ByLayer
370
13
48
1
60
0
100
AcDbSpline
70
4
71
3
72
14
73
10
40
0
40
0
40
0
40
0
40
0.362636115875106
40
0.362636115875106
40
0.759502173372961
40
0.759502173372961
40
0.986017775516147
40
0.986017775516147
40
1
40
1
40
1
40
1
41
1
10
60.8743263124385
20
-33.7504858645474
30
0
41
1
10
60.8912406290799
20
-33.7509001389288
30
0
41
1
10
60.9102969105352
20
-33.7553333287586
30
0
41
1
10
60.9517568775429
20
-33.7724121105697
30
0
41
1
10
60.9748386743135
20
-33.7860125947447
30
0
41
1
10
61.0105592323138
20
-33.8132263585058
30
0
41
1
10
61.023626747303
20
-33.82447959032
30
0
41
1
10
61.0371559091053
20
-33.837514946229
30
0
41
1
10
61.0379360645915
20
-33.8382722303589
30
0
41
1
10
61.0387159228241
20
-33.8390329632512
30
0
0
SPLINE
5
209
100
AcDbEntity
8
1
62
256
6
ByLayer
370
13
48
1
60
0
100
AcDbSpline
70
4
71
3
72
8
73
4
40
0
40
0
40
0
40
0
40
1
40
1
40
1
40
1
41
1
10
60.8743263124398
20
-33.2495141354547
30
0
41
1
10
60.9107270135585
20
-33.2675286793668
30
0
41
1
10
60.9486103280918
20
-33.284119884111
30
0
41
1
10
60.9875073723823
20
-33.2992443482015
30
0
0
SPLINE
5
20A
100
AcDbEntity
8
1
62
256
6
ByLayer
370
13
48
1
60
0
100
AcDbSpline
70
4
71
3
72
8
73
4
40
0
40
0
40
0
40
0
40
1
40
1
40
1
40
1
41
1
10
60.9875073723823
20
-33.7007556517981
30
0
41
1
10
60.9486103280918
20
-33.7158801158887
30
0
41
1
10
60.9107270135585
20
-33.732471320633
30
0
41
1
10
60.8743263124398
20
-33.750485864545
30
0
0
SPLINE
5
20B
100
AcDbEntity
8
1
62
256
6
ByLayer
370
13
48
1
60
0
100
AcDbSpline
70
4
71
3
72
10
73
6
40
0
40
0
40
0
40
0
40
0.638823417468865
40
0.638823417468865
40
1
40
1
40
1
40
1
41
1
10
64.5900286630425
20
-34.4350239663355
30
0
41
1
10
64.566841990865
20
-34.4547106579255
30
0
41
1
10
64.5449724664755
20
-34.4765022876986
30
0
41
1
10
64.5161775948407
20
-34.5150198729895
30
0
41
1
10
64.5068123576004
20
-34.5299982956348
30
0
41
1
10
64.4995116901682
20
-34.5459979598173
30
0
0
SPLINE
5
20C
100
AcDbEntity
8
1
62
256
6
ByLayer
370
13
48
1
60
0
100
AcDbSpline
70
4
71
3
72
16
73
12
40
0
40
0
40
0
40
0
40
0.0355702320992689
40
0.0355702320992689
40
0.09050817101665
40
0.09050817101665
40
0.198049233530909
40
0.198049233530909
40
0.436780146594192
40
0.436780146594192
40
1
40
1
40
1
40
1
41
1
10
64.4647600217563
20
-34.6263220355864
30
0
41
1
10
64.4651586810189
20
-34.6253552596237
30
0
41
1
10
64.4655584542086
20
-34.6243889211319
30
0
41
1
10
64.4665771815565
20
-34.6219268549541
30
0
41
1
10
64.4671970808021
20
-34.6204315089404
30
0
41
1
10
64.4690334070428
20
-34.6160112009543
30
0
41
1
10
64.4702528942054
20
-34.6130877962549
30
0
41
1
10
64.4741930527674
20
-34.6036898385927
30
0
41
1
10
64.4769343827305
20
-34.5972280597342
30
0
41
1
10
64.4861946238307
20
-34.5756594360557
30
0
41
1
10
64.4928248586496
20
-34.5606523814508
30
0
41
1
10
64.4995116901683
20
-34.5459979598173
30
0
0
SPLINE
5
20D
100
AcDbEntity
8
1
62
256
6
ByLayer
370
13
48
1
60
0
100
AcDbSpline
70
4
71
3
72
8
73
4
40
0
40
0
40
0
40
0
40
1
40
1
40
1
40
1
41
1
10
64.4647600217523
20
-34.6263220355883
30
0
41
1
10
64.3478492133728
20
-34.6570735908759
30
0
41
1
10
64.2265101800571
20
-34.6720572868026
30
0
41
1
10
64.1060768987951
20
-34.6748687981323
30
0
0
SPLINE
5
20E
100
AcDbEntity
8
1
62
256
6
ByLayer
370
13
48
1
60
0
100
AcDbSpline
70
4
71
3
72
16
73
12
40
0
40
0
40
0
40
0
40
0.0355702320992689
40
0.0355702320992689
40
0.09050817101665
40
0.09050817101665
40
0.198049233530909
40
0.198049233530909
40
0.436780146594192
40
0.436780146594192
40
1
40
1
40
1
40
1
41
1
10
64.4647600217563
20
-32.3736779644134
30
0
41
1
10
64.4651586810189
20
-32.374644740376
30
0
41
1
10
64.4655584542086
20
-32.3756110788678
30
0
41
1
10
64.4665771815565
20
-32.3780731450455
30
0
41
1
10
64.4671970808021
20
-32.3795684910593
30
0
41
1
10
64.4690334070428
20
-32.3839887990453
30
0
41
1
10
64.4702528942054
20
-32.3869122037449
30
0
41
1
10
64.4741930527674
20
-32.3963101614069
30
0
41
1
10
64.4769343827305
20
-32.4027719402655
30
0
41
1
10
64.4861946238307
20
-32.424340563944
30
0
41
1
10
64.4928248586496
20
-32.4393476185489
30
0
41
1
10
64.4995116901683
20
-32.4540020401824
30
0
0
SPLINE
5
20F
100
AcDbEntity
8
1
62
256
6
ByLayer
370
13
48
1
60
0
100
AcDbSpline
70
4
71
3
72
10
73
6
40
0
40
0
40
0
40
0
40
0.638823417468865
40
0.638823417468865
40
1
40
1
40
1
40
1
41
1
10
64.5900286630425
20
-32.5649760336642
30
0
41
1
10
64.566841990865
20
-32.5452893420743
30
0
41
1
10
64.5449724664755
20
-32.5234977123011
30
0
41
1
10
64.5161775948407
20
-32.4849801270102
30
0
41
1
10
64.5068123576004
20
-32.4700017043649
30
0
41
1
10
64.4995116901682
20
-32.4540020401824
30
0
0
SPLINE
5
210
100
AcDbEntity
8
1
62
256
6
ByLayer
370
13
48
1
60
0
100
AcDbSpline
70
4
71
3
72
8
73
4
40
0
40
0
40
0
40
0
40
1
40
1
40
1
40
1
41
1
10
60.9875073723823
20
-33.2992443482015
30
0
41
1
10
60.990499776207
20
-33.3003844320354
30
0
41
1
10
60.9934936621595
20
-33.3015244996308
30
0
41
1
10
60.9964890019636
20
-33.3026645496348
30
0
0
SPLINE
5
211
100
AcDbEntity
8
1
62
256
6
ByLayer
370
13
48
1
60
0
100
AcDbSpline
70
4
71
3
72
8
73
4
40
0
40
0
40
0
40
0
40
1
40
1
40
1
40
1
41
1
10
64.4647600217523
20
-32.3736779644114
30
0
41
1
10
64.3478492133728
20
-32.3429264091238
30
0
41
1
10
64.2265101800571
20
-32.327942713197
30
0
41
1
10
64.1060768987951
20
-32.3251312018674
30
0
0
SPLINE
5
212
100
AcDbEntity
8
1
62
256
6
ByLayer
370
13
48
1
60
0
100
AcDbSpline
70
4
71
3
72
8
73
4
40
0
40
0
40
0
40
0
40
1
40
1
40
1
40
1
41
1
10
60.9964890019636
20
-33.6973354503649
30
0
41
1
10
60.9934936621595
20
-33.6984755003689
30
0
41
1
10
60.990499776207
20
-33.6996155679643
30
0
41
1
10
60.9875073723823
20
-33.7007556517981
30
0
0
SPLINE
5
213
100
AcDbEntity
8
1
62
256
6
ByLayer
370
13
48
1
60
0
100
AcDbSpline
70
4
71
3
72
8
73
4
40
0
40
0
40
0
40
0
40
1
40
1
40
1
40
1
41
1
10
60.8661840397672
20
-33.2489756444471
30
0
41
1
10
60.8686096513477
20
-33.2489756444471
30
0
41
1
10
60.8713428169147
20
-33.2491516400979
30
0
41
1
10
60.8743263124381
20
-33.2495141354524
30
0
0
SPLINE
5
214
100
AcDbEntity
8
1
62
256
6
ByLayer
370
13
48
1
60
0
100
AcDbSpline
70
4
71
3
72
16
73
12
40
0
40
0
40
0
40
0
40
0.0355303527441481
40
0.0355303527441481
40
0.0917680599187357
40
0.0917680599187357
40
0.200182520092063
40
0.200182520092063
40
0.439533504711995
40
0.439533504711995
40
1
40
1
40
1
40
1
41
1
10
64.4647600217524
20
-32.3736779644114
30
0
41
1
10
64.4655855998636
20
-32.3743116919934
30
0
41
1
10
64.4664120929671
20
-32.3749449260104
30
0
41
1
10
64.4685507889318
20
-32.3765828455439
30
0
41
1
10
64.4698640688781
20
-32.3775871593139
30
0
41
1
10
64.4737129338246
20
-32.3805260228995
30
0
41
1
10
64.4762525536656
20
-32.3824594815917
30
0
41
1
10
64.4844114693383
20
-32.3886507387094
30
0
41
1
10
64.4900517136001
20
-32.392899059486
30
0
41
1
10
64.5089188273347
20
-32.4069955282559
30
0
41
1
10
64.5222466489562
20
-32.4167682610633
30
0
41
1
10
64.535515563742
20
-32.4262943891192
30
0
0
SPLINE
5
215
100
AcDbEntity
8
1
62
256
6
ByLayer
370
13
48
1
60
0
100
AcDbSpline
70
4
71
3
72
8
73
4
40
0
40
0
40
0
40
0
40
1
40
1
40
1
40
1
41
1
10
60.8743263124385
20
-33.7504858645474
30
0
41
1
10
60.871342816915
20
-33.7508483599018
30
0
41
1
10
60.8686096513474
20
-33.7510243555527
30
0
41
1
10
60.8661840397669
20
-33.7510243555527
30
0
0
SPLINE
5
216
100
AcDbEntity
8
1
62
256
6
ByLayer
370
13
48
1
60
0
100
AcDbSpline
70
4
71
3
72
16
73
12
40
0
40
0
40
0
40
0
40
0.0355303527441481
40
0.0355303527441481
40
0.0917680599187357
40
0.0917680599187357
40
0.200182520092063
40
0.200182520092063
40
0.439533504711995
40
0.439533504711995
40
1
40
1
40
1
40
1
41
1
10
64.4647600217524
20
-34.6263220355883
30
0
41
1
10
64.4655855998636
20
-34.6256883080063
30
0
41
1
10
64.4664120929671
20
-34.6250550739893
30
0
41
1
10
64.4685507889318
20
-34.6234171544558
30
0
41
1
10
64.4698640688781
20
-34.6224128406857
30
0
41
1
10
64.4737129338246
20
-34.6194739771003
30
0
41
1
10
64.4762525536656
20
-34.617540518408
30
0
41
1
10
64.4844114693383
20
-34.6113492612903
30
0
41
1
10
64.4900517136001
20
-34.6071009405137
30
0
41
1
10
64.5089188273347
20
-34.5930044717438
30
0
41
1
10
64.5222466489562
20
-34.5832317389364
30
0
41
1
10
64.535515563742
20
-34.5737056108805
30
0
0
SPLINE
5
217
100
AcDbEntity
8
1
62
256
6
ByLayer
370
13
48
1
60
0
100
AcDbSpline
70
4
71
3
72
10
73
6
40
0
40
0
40
0
40
0
40
0.155061591761428
40
0.155061591761428
40
1
40
1
40
1
40
1
41
1
10
64.7213895076228
20
-34.3536987770376
30
0
41
1
10
64.7304066184319
20
-34.3488929319819
30
0
41
1
10
64.7393274149503
20
-34.34390196967
30
0
41
1
10
64.7954797246053
20
-34.3107807762725
30
0
41
1
10
64.8409287471059
20
-34.2765179393004
30
0
41
1
10
64.8749811562301
20
-34.2334129109394
30
0
0
SPLINE
5
218
100
AcDbEntity
8
1
62
256
6
ByLayer
370
13
48
1
60
0
100
AcDbSpline
70
4
71
3
72
8
73
4
40
0
40
0
40
0
40
0
40
1
40
1
40
1
40
1
41
1
10
64.1060768987951
20
-34.6748687981323
30
0
41
1
10
63.9916360304015
20
-34.6776921713631
30
0
41
1
10
63.8749005955276
20
-34.6739389632706
30
0
41
1
10
63.7587805434613
20
-34.6784092273822
30
0
0
SPLINE
5
219
100
AcDbEntity
8
1
62
256
6
ByLayer
370
13
48
1
60
0
100
AcDbSpline
70
4
71
3
72
8
73
4
40
0
40
0
40
0
40
0
40
1
40
1
40
1
40
1
41
1
10
64.1060768987951
20
-32.3251312018674
30
0
41
1
10
63.9916360304015
20
-32.3223078286366
30
0
41
1
10
63.8749005955276
20
-32.3260610367291
30
0
41
1
10
63.7587805434613
20
-32.3215907726175
30
0
0
SPLINE
5
21A
100
AcDbEntity
8
1
62
256
6
ByLayer
370
13
48
1
60
0
100
AcDbSpline
70
4
71
3
72
10
73
6
40
0
40
0
40
0
40
0
40
0.155061591761428
40
0.155061591761428
40
1
40
1
40
1
40
1
41
1
10
64.7213895076228
20
-32.6463012229621
30
0
41
1
10
64.7304066184319
20
-32.6511070680178
30
0
41
1
10
64.7393274149503
20
-32.6560980303297
30
0
41
1
10
64.7954797246053
20
-32.6892192237272
30
0
41
1
10
64.8409287471059
20
-32.7234820606993
30
0
41
1
10
64.8749811562301
20
-32.7665870890603
30
0
0
SPLINE
5
21B
100
AcDbEntity
8
1
62
256
6
ByLayer
370
13
48
1
60
0
100
AcDbSpline
70
4
71
3
72
10
73
6
40
0
40
0
40
0
40
0
40
0.596085739020476
40
0.596085739020476
40
1
40
1
40
1
40
1
41
1
10
64.8964383490931
20
-32.7943932095381
30
0
41
1
10
64.9128939358857
20
-32.8161686778151
30
0
41
1
10
64.9267245821227
20
-32.8405970994091
30
0
41
1
10
64.94081187438
20
-32.8842694800439
30
0
41
1
10
64.944038381206
20
-32.9030190147406
30
0
41
1
10
64.9441651422481
20
-32.9216103813395
30
0
0
SPLINE
5
21C
100
AcDbEntity
8
1
62
256
6
ByLayer
370
13
48
1
60
0
100
AcDbSpline
70
4
71
3
72
10
73
6
40
0
40
0
40
0
40
0
40
0.596085739020476
40
0.596085739020476
40
1
40
1
40
1
40
1
41
1
10
64.8964383490931
20
-34.2056067904616
30
0
41
1
10
64.9128939358857
20
-34.1838313221846
30
0
41
1
10
64.9267245821227
20
-34.1594029005907
30
0
41
1
10
64.94081187438
20
-34.1157305199558
30
0
41
1
10
64.944038381206
20
-34.0969809852591
30
0
41
1
10
64.9441651422481
20
-34.0783896186602
30
0
0
SPLINE
5
21D
100
AcDbEntity
8
1
62
256
6
ByLayer
370
13
48
1
60
0
100
AcDbSpline
70
4
71
3
72
8
73
4
40
0
40
0
40
0
40
0
40
1
40
1
40
1
40
1
41
1
10
64.8749811562301
20
-34.2334129109394
30
0
41
1
10
64.8822263780105
20
-34.2242415924232
30
0
41
1
10
64.8893737130963
20
-34.2149553332378
30
0
41
1
10
64.8964383490931
20
-34.2056067904616
30
0
0
SPLINE
5
21E
100
AcDbEntity
8
1
62
256
6
ByLayer
370
13
48
1
60
0
100
AcDbSpline
70
4
71
3
72
8
73
4
40
0
40
0
40
0
40
0
40
1
40
1
40
1
40
1
41
1
10
64.8749811562301
20
-32.7665870890603
30
0
41
1
10
64.8822263780105
20
-32.7757584075765
30
0
41
1
10
64.8893737130963
20
-32.7850446667619
30
0
41
1
10
64.8964383490931
20
-32.7943932095381
30
0
0
SPLINE
5
21F
100
AcDbEntity
8
1
62
256
6
ByLayer
370
13
48
1
60
0
100
AcDbSpline
70
4
71
3
72
12
73
8
40
0
40
0
40
0
40
0
40
0.0075770979405842
40
0.0075770979405842
40
0.524912447401083
40
0.524912447401083
40
1
40
1
40
1
40
1
41
1
10
64.4213727254145
20
-34.0890756224228
30
0
41
1
10
64.4226938848631
20
-34.0891246359028
30
0
41
1
10
64.4240151186687
20
-34.0891713047737
30
0
41
1
10
64.515463818229
20
-34.0922377930208
30
0
41
1
10
64.6056735270381
20
-34.0874737396071
30
0
41
1
10
64.7786115881781
20
-34.0834174108894
30
0
41
1
10
64.8613940232688
20
-34.0810975498714
30
0
41
1
10
64.9441651422333
20
-34.0783896186555
30
0
0
SPLINE
5
220
100
AcDbEntity
8
1
62
256
6
ByLayer
370
13
48
1
60
0
100
AcDbSpline
70
4
71
3
72
12
73
8
40
0
40
0
40
0
40
0
40
0.0075770979405842
40
0.0075770979405842
40
0.524912447401083
40
0.524912447401083
40
1
40
1
40
1
40
1
41
1
10
64.4213727254145
20
-32.9109243775768
30
0
41
1
10
64.4226938848631
20
-32.9108753640969
30
0
41
1
10
64.4240151186687
20
-32.910828695226
30
0
41
1
10
64.515463818229
20
-32.9077622069789
30
0
41
1
10
64.6056735270381
20
-32.9125262603926
30
0
41
1
10
64.7786115881781
20
-32.9165825891104
30
0
41
1
10
64.8613940232688
20
-32.9189024501283
30
0
41
1
10
64.9441651422333
20
-32.9216103813443
30
0
0
SPLINE
5
221
100
AcDbEntity
8
1
62
256
6
ByLayer
370
13
48
1
60
0
100
AcDbSpline
70
4
71
3
72
8
73
4
40
0
40
0
40
0
40
0
40
1
40
1
40
1
40
1
41
1
10
63.7587805434613
20
-34.6784092273822
30
0
41
1
10
63.6587308196864
20
-34.6818490590906
30
0
41
1
10
63.5579761895169
20
-34.6778843275053
30
0
41
1
10
63.4587805434613
20
-34.664424185351
30
0
0
SPLINE
5
222
100
AcDbEntity
8
1
62
256
6
ByLayer
370
13
48
1
60
0
100
AcDbSpline
70
4
71
3
72
8
73
4
40
0
40
0
40
0
40
0
40
1
40
1
40
1
40
1
41
1
10
63.7587805434613
20
-32.3215907726175
30
0
41
1
10
63.6587308196864
20
-32.318150940909
30
0
41
1
10
63.5579761895169
20
-32.3221156724944
30
0
41
1
10
63.4587805434613
20
-32.3355758146487
30
0
0
SPLINE
5
223
100
AcDbEntity
8
1
62
256
6
ByLayer
370
13
48
1
60
0
100
AcDbSpline
70
4
71
3
72
16
73
12
40
0
40
0
40
0
40
0
40
0.113631665737173
40
0.113631665737173
40
0.758132216188134
40
0.758132216188134
40
0.942823120099093
40
0.942823120099093
40
0.947778003019258
40
0.947778003019258
40
1
40
1
40
1
40
1
41
1
10
63.2112677608008
20
-34.0158410745106
30
0
41
1
10
63.2332807942052
20
-34.0228451433715
30
0
41
1
10
63.2554088133189
20
-34.029497791143
30
0
41
1
10
63.4026697940168
20
-34.0711855692795
30
0
41
1
10
63.5333481685156
20
-34.0939279587489
30
0
41
1
10
63.7009734748332
20
-34.0924434259836
30
0
41
1
10
63.7386296238166
20
-34.0906371905464
30
0
41
1
10
63.77730048355
20
-34.089259035779
30
0
41
1
10
63.7783108496887
20
-34.0892230184455
30
0
41
1
10
63.7899699703881
20
-34.0888073752388
30
0
41
1
10
63.80061882194
20
-34.0884304618728
30
0
41
1
10
63.8112677608008
20
-34.0880560414708
30
0
0
SPLINE
5
224
100
AcDbEntity
8
1
62
256
6
ByLayer
370
13
48
1
60
0
100
AcDbSpline
70
4
71
3
72
16
73
12
40
0
40
0
40
0
40
0
40
0.113631665737173
40
0.113631665737173
40
0.758132216188134
40
0.758132216188134
40
0.942823120099093
40
0.942823120099093
40
0.947778003019258
40
0.947778003019258
40
1
40
1
40
1
40
1
41
1
10
63.2112677608008
20
-32.9841589254891
30
0
41
1
10
63.2332807942052
20
-32.9771548566281
30
0
41
1
10
63.2554088133189
20
-32.9705022088567
30
0
41
1
10
63.4026697940168
20
-32.9288144307202
30
0
41
1
10
63.5333481685156
20
-32.9060720412508
30
0
41
1
10
63.7009734748332
20
-32.9075565740161
30
0
41
1
10
63.7386296238166
20
-32.9093628094534
30
0
41
1
10
63.77730048355
20
-32.9107409642208
30
0
41
1
10
63.7783108496887
20
-32.9107769815542
30
0
41
1
10
63.7899699703881
20
-32.9111926247609
30
0
41
1
10
63.80061882194
20
-32.9115695381269
30
0
41
1
10
63.8112677608008
20
-32.9119439585289
30
0
0
SPLINE
5
225
100
AcDbEntity
8
1
62
256
6
ByLayer
370
13
48
1
60
0
100
AcDbSpline
70
4
71
3
72
10
73
6
40
0
40
0
40
0
40
0
40
0.411878619131049
40
0.411878619131049
40
1
40
1
40
1
40
1
41
1
10
64.9970257408783
20
-34.0783896186556
30
0
41
1
10
64.9970257408783
20
-34.1014981245595
30
0
41
1
10
64.9938567437525
20
-34.1247801424886
30
0
41
1
10
64.9795589487909
20
-34.1788475536442
30
0
41
1
10
64.9654981180154
20
-34.2093262690557
30
0
41
1
10
64.9480487400853
20
-34.2370701384849
30
0
0
SPLINE
5
226
100
AcDbEntity
8
1
62
256
6
ByLayer
370
13
48
1
60
0
100
AcDbSpline
70
4
71
3
72
10
73
6
40
0
40
0
40
0
40
0
40
0.411878619131049
40
0.411878619131049
40
1
40
1
40
1
40
1
41
1
10
64.9970257408783
20
-32.9216103813441
30
0
41
1
10
64.9970257408783
20
-32.8985018754402
30
0
41
1
10
64.9938567437525
20
-32.8752198575111
30
0
41
1
10
64.9795589487909
20
-32.8211524463555
30
0
41
1
10
64.9654981180154
20
-32.7906737309441
30
0
41
1
10
64.9480487400853
20
-32.7629298615148
30
0
0
SPLINE
5
227
100
AcDbEntity
8
1
62
256
6
ByLayer
370
13
48
1
60
0
100
AcDbSpline
70
4
71
3
72
8
73
4
40
0
40
0
40
0
40
0
40
1
40
1
40
1
40
1
41
1
10
64.9480487400851
20
-32.7629298615149
30
0
41
1
10
64.9406964490065
20
-32.7535779634928
30
0
41
1
10
64.9332455329699
20
-32.74432948551
30
0
41
1
10
64.9256851850748
20
-32.7352342528895
30
0
0
SPLINE
5
228
100
AcDbEntity
8
1
62
256
6
ByLayer
370
13
48
1
60
0
100
AcDbSpline
70
4
71
3
72
8
73
4
40
0
40
0
40
0
40
0
40
1
40
1
40
1
40
1
41
1
10
64.9480487400851
20
-34.2370701384848
30
0
41
1
10
64.9406964490065
20
-34.246422036507
30
0
41
1
10
64.9332455329699
20
-34.2556705144897
30
0
41
1
10
64.9256851850748
20
-34.2647657471103
30
0
0
SPLINE
5
229
100
AcDbEntity
8
1
62
256
6
ByLayer
370
13
48
1
60
0
100
AcDbSpline
70
4
71
3
72
12
73
8
40
0
40
0
40
0
40
0
40
0.390105015408732
40
0.390105015408732
40
0.395238792462735
40
0.395238792462735
40
1
40
1
40
1
40
1
41
1
10
63.8112677608008
20
-32.9119439585289
30
0
41
1
10
63.8930131894969
20
-32.9140517035563
30
0
41
1
10
63.9750694911571
20
-32.9144624557816
30
0
41
1
10
64.0568134956408
20
-32.9147479575742
30
0
41
1
10
64.0578786372164
20
-32.9147515642833
30
0
41
1
10
64.1833815366521
20
-32.9151631361615
30
0
41
1
10
64.3061458913861
20
-32.9140592174295
30
0
41
1
10
64.4213727254145
20
-32.9109243775768
30
0
0
SPLINE
5
22A
100
AcDbEntity
8
1
62
256
6
ByLayer
370
13
48
1
60
0
100
AcDbSpline
70
4
71
3
72
12
73
8
40
0
40
0
40
0
40
0
40
0.390105015408732
40
0.390105015408732
40
0.395238792462735
40
0.395238792462735
40
1
40
1
40
1
40
1
41
1
10
63.8112677608008
20
-34.0880560414708
30
0
41
1
10
63.8930131894969
20
-34.0859482964433
30
0
41
1
10
63.9750694911571
20
-34.0855375442181
30
0
41
1
10
64.0568134956408
20
-34.0852520424255
30
0
41
1
10
64.0578786372164
20
-34.0852484357164
30
0
41
1
10
64.1833815366521
20
-34.0848368638382
30
0
41
1
10
64.3061458913861
20
-34.0859407825702
30
0
41
1
10
64.4213727254145
20
-34.0890756224228
30
0
0
SPLINE
5
22B
100
AcDbEntity
8
1
62
256
6
ByLayer
370
18
48
1
60
0
100
AcDbSpline
70
4
71
3
72
16
73
12
40
0
40
0
40
0
40
0
40
0.210601603648632
40
0.210601603648632
40
0.421213120937357
40
0.421213120937357
40
0.631488126460197
40
0.631488126460197
40
0.839116239420829
40
0.839116239420829
40
1
40
1
40
1
40
1
41
1
10
65.0046912194302
20
-32.1944437461469
30
0
41
1
10
65.004885104101
20
-32.1715216376432
30
0
41
1
10
65.0011366843306
20
-32.1482847151601
30
0
41
1
10
64.9864049129777
20
-32.1050246352938
30
0
41
1
10
64.9752157349576
20
-32.0844002652529
30
0
41
1
10
64.9470242400575
20
-32.0486547877767
30
0
41
1
10
64.92963219728
20
-32.0330255938252
30
0
41
1
10
64.8913444393929
20
-32.0091236592203
30
0
41
1
10
64.869954321154
20
-32.0004299636861
30
0
41
1
10
64.8309045828753
20
-31.9920592694609
30
0
41
1
10
64.8131262908525
20
-31.9907181472799
30
0
41
1
10
64.7956316353028
20
-31.9917962023392
30
0
0
SPLINE
5
22C
100
AcDbEntity
8
1
62
256
6
ByLayer
370
18
48
1
60
0
100
AcDbSpline
70
4
71
3
72
10
73
6
40
0
40
0
40
0
40
0
40
0.584711417492912
40
0.584711417492912
40
1
40
1
40
1
40
1
41
1
10
56.6351939284819
20
-34.7499999999999
30
0
41
1
10
56.6376165600087
20
-34.7499999999999
30
0
41
1
10
56.6400566535847
20
-34.7499999999999
30
0
41
1
10
56.6442589248979
20
-34.7499999999999
30
0
41
1
10
56.6460127381757
20
-34.7499999999999
30
0
41
1
10
56.6477750315741
20
-34.7499999999999
30
0
0
SPLINE
5
22D
100
AcDbEntity
8
1
62
256
6
ByLayer
370
18
48
1
60
0
100
AcDbSpline
70
4
71
3
72
16
73
12
40
0
40
0
40
0
40
0
40
0.202092460849674
40
0.202092460849674
40
0.404032245588857
40
0.404032245588857
40
0.608298678109005
40
0.608298678109005
40
0.816163444624768
40
0.816163444624768
40
1
40
1
40
1
40
1
41
1
10
64.7956316353028
20
-35.0082037976605
30
0
41
1
10
64.8174897444444
20
-35.0095507373061
30
0
41
1
10
64.8398491383955
20
-35.0070859153374
30
0
41
1
10
64.8818390291393
20
-34.9950357473643
30
0
41
1
10
64.9020457535964
20
-34.9852960338301
30
0
41
1
10
64.9378824730738
20
-34.9599275820914
30
0
41
1
10
64.9539463831898
20
-34.9438922526708
30
0
41
1
10
64.9798894042432
20
-34.9075964874665
30
0
41
1
10
64.9900129368112
20
-34.8867713964388
30
0
41
1
10
65.0020260177163
20
-34.8459157034024
30
0
41
1
10
65.0048610089749
20
-34.8256297044806
30
0
41
1
10
65.0046912194302
20
-34.8055562538528
30
0
0
SPLINE
5
22E
100
AcDbEntity
8
1
62
256
6
ByLayer
370
18
48
1
60
0
100
AcDbSpline
70
4
71
3
72
10
73
6
40
0
40
0
40
0
40
0
40
0.629562107774395
40
0.629562107774395
40
1
40
1
40
1
40
1
41
1
10
55.2
20
-34.7499999999999
30
0
41
1
10
55.1782969300919
20
-34.7499999999999
30
0
41
1
10
55.156172793229
20
-34.7463589368065
30
0
41
1
10
55.1231987911384
20
-34.7351217868949
30
0
41
1
10
55.1112516429095
20
-34.7297012198197
30
0
41
1
10
55.0999999999999
20
-34.723205080757
30
0
0
SPLINE
5
22F
100
AcDbEntity
8
1
62
256
6
ByLayer
370
18
48
1
60
0
100
AcDbSpline
70
4
71
3
72
10
73
6
40
0
40
0
40
0
40
0
40
0.62956174027551
40
0.62956174027551
40
1
40
1
40
1
40
1
41
1
10
55.1
20
-32.276794919243
30
0
41
1
10
55.118944038489
20
-32.2658575735218
30
0
41
1
10
55.1400004695306
20
-32.2579691588872
30
0
41
1
10
55.1741148019193
20
-32.2512594713555
30
0
41
1
10
55.1871096425299
20
-32.2499999999998
30
0
41
1
10
55.2
20
-32.2499999999998
30
0
0
SPLINE
5
230
100
AcDbEntity
8
1
62
256
6
ByLayer
370
18
48
1
60
0
100
AcDbSpline
70
4
71
3
72
10
73
6
40
0
40
0
40
0
40
0
40
0.76746257010027
40
0.76746257010027
40
1
40
1
40
1
40
1
41
1
10
56.6477750315741
20
-32.2499999999999
30
0
41
1
10
56.6445183560327
20
-32.2499999999999
30
0
41
1
10
56.6412905642182
20
-32.2499999999999
30
0
41
1
10
56.637123695827
20
-32.2499999999999
30
0
41
1
10
56.6361574346188
20
-32.2499999999999
30
0
41
1
10
56.6351939284819
20
-32.2499999999999
30
0
0
SPLINE
5
231
100
AcDbEntity
8
1
62
256
6
ByLayer
370
18
48
1
60
0
100
AcDbSpline
70
4
71
3
72
14
73
10
40
0
40
0
40
0
40
0
40
0.209562190252725
40
0.209562190252725
40
0.419048660097219
40
0.419048660097219
40
0.628042586344193
40
0.628042586344193
40
1
40
1
40
1
40
1
41
1
10
63.4587805434613
20
-32.0902146883914
30
0
41
1
10
63.3766126081607
20
-32.0959887327804
30
0
41
1
10
63.294096633241
20
-32.101308324286
30
0
41
1
10
63.1317767669575
20
-32.1108149052047
30
0
41
1
10
63.051417699214
20
-32.1150347230177
30
0
41
1
10
62.89577107806
20
-32.1222234908231
30
0
41
1
10
62.8199400027966
20
-32.1252199068607
30
0
41
1
10
62.6197346270461
20
-32.1316938703119
30
0
41
1
10
62.5007351939601
20
-32.1338178717158
30
0
41
1
10
62.3981203716826
20
-32.1338002634991
30
0
0
SPLINE
5
232
100
AcDbEntity
8
1
62
256
6
ByLayer
370
18
48
1
60
0
100
AcDbSpline
70
4
71
3
72
8
73
4
40
0
40
0
40
0
40
0
40
1
40
1
40
1
40
1
41
1
10
64.1060768987951
20
-32.0425879870359
30
0
41
1
10
63.991741836253
20
-32.0520426090802
30
0
41
1
10
63.8750917668497
20
-32.0609599739496
30
0
41
1
10
63.7587805434613
20
-32.0691333102313
30
0
0
SPLINE
5
233
100
AcDbEntity
8
1
62
256
6
ByLayer
370
18
48
1
60
0
100
AcDbSpline
70
4
71
3
72
14
73
10
40
0
40
0
40
0
40
0
40
0.208995027535852
40
0.208995027535852
40
0.417850725206471
40
0.417850725206471
40
0.626704295977397
40
0.626704295977397
40
1
40
1
40
1
40
1
41
1
10
62.3981203716814
20
-34.8661997365016
30
0
41
1
10
62.4562077150717
20
-34.8661897689891
30
0
41
1
10
62.5193237323134
20
-34.8668559535971
30
0
41
1
10
62.6529850333382
20
-34.8695144526691
30
0
41
1
10
62.7239830856551
20
-34.8715149962071
30
0
41
1
10
62.8714347232616
20
-34.8767769876468
30
0
41
1
10
62.9483929364638
20
-34.8800564212268
30
0
41
1
10
63.1664550970089
20
-34.8907627880221
30
0
41
1
10
63.3134966889726
20
-34.8995760320177
30
0
41
1
10
63.4587805434602
20
-34.9097853116077
30
0
0
SPLINE
5
234
100
AcDbEntity
8
1
62
256
6
ByLayer
370
18
48
1
60
0
100
AcDbSpline
70
4
71
3
72
8
73
4
40
0
40
0
40
0
40
0
40
1
40
1
40
1
40
1
41
1
10
63.7587805434613
20
-34.9308666897684
30
0
41
1
10
63.8750917668497
20
-34.9390400260501
30
0
41
1
10
63.991741836253
20
-34.9479573909195
30
0
41
1
10
64.1060768987951
20
-34.9574120129638
30
0
0
LINE
5
70
100
AcDbEntity
8
1
62
256
6
ByLayer
370
13
48
1
60
0
100
AcDbLine
10
0.3
20
-25
30
0
11
20.279208
21
-25
31
0
39
0
210
0
220
0
230
1
0
LINE
5
72
100
AcDbEntity
8
1
62
256
6
ByLayer
370
13
48
1
60
0
100
AcDbLine
10
20.029236
20
25
30
0
11
0.3
21
25
31
0
39
0
210
0
220
0
230
1
0
LINE
5
73
100
AcDbEntity
8
1
62
256
6
ByLayer
370
13
48
1
60
0
100
AcDbLine
10
0.3
20
25
30
0
11
0
21
24.7
31
0
39
0
210
0
220
0
230
1
0
LINE
5
74
100
AcDbEntity
8
1
62
256
6
ByLayer
370
13
48
1
60
0
100
AcDbLine
10
0
20
-24.7
30
0
11
0.3
21
-25
31
0
39
0
210
0
220
0
230
1
0
LINE
5
75
100
AcDbEntity
8
1
62
256
6
ByLayer
370
13
48
1
60
0
100
AcDbLine
10
21.438319
20
-25.889417
30
0
11
23.792408
21
-34.675
31
0
39
0
210
0
220
0
230
1
0
LINE
5
76
100
AcDbEntity
8
80
62
256
6
ByLayer
370
18
48
1
60
0
100
AcDbLine
10
0
20
0
30
0
11
-5
21
0
31
0
39
0
210
0
220
0
230
1
0
LINE
5
77
100
AcDbEntity
8
81
62
256
6
ByLayer
370
18
48
1
60
0
100
AcDbLine
10
65
20
-35
30
0
11
70
21
-35
31
0
39
0
210
0
220
0
230
1
0
LINE
5
78
100
AcDbEntity
8
1
62
256
6
ByLayer
370
13
48
1
60
0
100
AcDbLine
10
0.3
20
25
30
0
11
0.3
21
-25
31
0
39
0
210
0
220
0
230
1
0
LINE
5
79
100
AcDbEntity
8
1
62
256
6
ByLayer
370
13
48
1
60
0
100
AcDbLine
10
20.079213
20
19.273172
30
0
11
20.029236
21
25
31
0
39
0
210
0
220
0
230
1
0
LINE
5
7A
100
AcDbEntity
8
1
62
256
6
ByLayer
370
13
48
1
60
0
100
AcDbLine
10
0
20
24.7
30
0
11
0
21
-24.7
31
0
39
0
210
0
220
0
230
1
0
LINE
5
7B
100
AcDbEntity
8
1
62
256
6
ByLayer
370
13
48
1
60
0
100
AcDbLine
10
20.279208
20
-25
30
0
11
20.279208
21
-22.897066
31
0
39
0
210
0
220
0
230
1
0
LINE
5
7C
100
AcDbEntity
8
1
62
256
6
ByLayer
370
13
48
1
60
0
100
AcDbLine
10
20.121172
20
14.465094
30
0
11
20.121172
21
-22.393224
31
0
39
0
210
0
220
0
230
1
0
LINE
5
7D
100
AcDbEntity
8
1
62
256
6
ByLayer
370
13
48
1
60
0
100
AcDbLine
10
11.894338
20
8.055848
30
0
11
11.894338
21
23.666502
31
0
39
0
210
0
220
0
230
1
0
LINE
5
7E
100
AcDbEntity
8
1
62
256
6
ByLayer
370
13
48
1
60
0
100
AcDbLine
10
11.461325
20
7.529667
30
0
11
11.461325
21
23.83913
31
0
39
0
210
0
220
0
230
1
0
LINE
5
7F
100
AcDbEntity
8
1
62
256
6
ByLayer
370
13
48
1
60
0
100
AcDbLine
10
8.538675
20
-23.83913
30
0
11
8.538675
21
-7.529667
31
0
39
0
210
0
220
0
230
1
0
LINE
5
80
100
AcDbEntity
8
1
62
256
6
ByLayer
370
13
48
1
60
0
100
AcDbLine
10
8.105662
20
-23.666502
30
0
11
8.105662
21
-8.055848
31
0
39
0
210
0
220
0
230
1
0
LINE
5
81
100
AcDbEntity
8
1
62
256
6
ByLayer
370
13
48
1
60
0
100
AcDbLine
10
11.894338
20
-23.666502
30
0
11
11.894338
21
-8.055848
31
0
39
0
210
0
220
0
230
1
0
LINE
5
82
100
AcDbEntity
8
1
62
256
6
ByLayer
370
13
48
1
60
0
100
AcDbLine
10
56.290738
20
-34.675
30
0
11
56.290738
21
-32.325
31
0
39
0
210
0
220
0
230
1
0
LINE
5
83
100
AcDbEntity
8
1
62
256
6
ByLayer
370
13
48
1
60
0
100
AcDbLine
10
51.290738
20
-32.325
30
0
11
51.290738
21
-34.675
31
0
39
0
210
0
220
0
230
1
0
LINE
5
84
100
AcDbEntity
8
SK1
62
256
6
ByLayer
370
13
48
1
60
0
100
AcDbLine
10
-1.79504
20
17.330272
30
0
11
-1.79504
21
17.325755
31
0
39
0
210
0
220
0
230
1
0
LINE
5
86
100
AcDbEntity
8
SK1
62
256
6
ByLayer
370
13
48
1
60
0
100
AcDbLine
10
-1.79504
20
-17.325755
30
0
11
-1.79504
21
-17.330272
31
0
39
0
210
0
220
0
230
1
0
LINE
5
87
100
AcDbEntity
8
SK1
62
256
6
ByLayer
370
13
48
1
60
0
100
AcDbLine
10
-1.315435
20
-3.910269
30
0
11
-1.315435
21
3.910272
31
0
39
0
210
0
220
0
230
1
0
LINE
5
88
100
AcDbEntity
8
1
62
256
6
ByLayer
370
13
48
1
60
0
100
AcDbLine
10
11.461325
20
-23.83913
30
0
11
11.461325
21
-7.529667
31
0
39
0
210
0
220
0
230
1
0
LINE
5
89
100
AcDbEntity
8
1
62
256
6
ByLayer
370
13
48
1
60
0
100
AcDbLine
10
8.538675
20
7.529667
30
0
11
8.538675
21
23.83913
31
0
39
0
210
0
220
0
230
1
0
LINE
5
8A
100
AcDbEntity
8
1
62
256
6
ByLayer
370
13
48
1
60
0
100
AcDbLine
10
8.105662
20
8.055848
30
0
11
8.105662
21
23.666502
31
0
39
0
210
0
220
0
230
1
0
LINE
5
8B
100
AcDbEntity
8
1
62
256
6
ByLayer
370
13
48
1
60
0
100
AcDbLine
10
24.12102
20
-33.307372
30
0
11
24.12102
21
10.5
31
0
39
0
210
0
220
0
230
1
0
LINE
5
8C
100
AcDbEntity
8
1
62
256
6
ByLayer
370
13
48
1
60
0
100
AcDbLine
10
21.438319
20
-24.562203
30
0
11
21.438319
21
-25.889417
31
0
39
0
210
0
220
0
230
1
0
LINE
5
8D
100
AcDbEntity
8
1
62
256
6
ByLayer
370
13
48
1
60
0
100
AcDbLine
10
24.12102
20
-33.307372
30
0
11
23.629267
21
-33.307372
31
0
39
0
210
0
220
0
230
1
0
LINE
5
8E
100
AcDbEntity
8
1
62
256
6
ByLayer
370
13
48
1
60
0
100
AcDbLine
10
35.203528
20
-32.325
30
0
11
40
21
-32.325
31
0
39
0
210
0
220
0
230
1
0
LINE
5
8F
100
AcDbEntity
8
1
62
256
6
ByLayer
370
13
48
1
60
0
100
AcDbLine
10
43.6
20
-34.675
30
0
11
43.6
21
-32.325
31
0
39
0
210
0
220
0
230
1
0
LINE
5
90
100
AcDbEntity
8
SK1
62
256
6
ByLayer
370
13
48
1
60
0
100
AcDbLine
10
-0.194977
20
17.369987
30
0
11
-0.194977
21
17.365289
31
0
39
0
210
0
220
0
230
1
0
LINE
5
91
100
AcDbEntity
8
SK1
62
256
6
ByLayer
370
13
48
1
60
0
100
AcDbLine
10
-0.194977
20
-17.36529
30
0
11
-0.194977
21
-17.369987
31
0
39
0
210
0
220
0
230
1
0
LINE
5
92
100
AcDbEntity
8
1
62
256
6
ByLayer
370
13
48
1
60
0
100
AcDbLine
10
56.290738
20
-32.325
30
0
11
60.35928
21
-32.325
31
0
39
0
210
0
220
0
230
1
0
LINE
5
93
100
AcDbEntity
8
1
62
256
6
ByLayer
370
13
48
1
60
0
100
AcDbLine
10
20.079213
20
19.273172
30
0
11
20.121172
21
14.465094
31
0
39
0
210
0
220
0
230
1
0
LINE
5
94
100
AcDbEntity
8
1
62
256
6
ByLayer
370
13
48
1
60
0
100
AcDbLine
10
56.290738
20
-34.675
30
0
11
60.35928
21
-34.675
31
0
39
0
210
0
220
0
230
1
0
LINE
5
95
100
AcDbEntity
8
1
62
256
6
ByLayer
370
13
48
1
60
0
100
AcDbLine
10
60.415611
20
-34.491569
30
0
11
60.415611
21
-34.034517
31
0
39
0
210
0
220
0
230
1
0
LINE
5
96
100
AcDbEntity
8
1
62
256
6
ByLayer
370
13
48
1
60
0
100
AcDbLine
10
60.35928
20
-32.325
30
0
11
60.415611
21
-32.508431
31
0
39
0
210
0
220
0
230
1
0
LINE
5
97
100
AcDbEntity
8
1
62
256
6
ByLayer
370
13
48
1
60
0
100
AcDbLine
10
51.290738
20
-32.325
30
0
11
56.290738
21
-32.325
31
0
39
0
210
0
220
0
230
1
0
LINE
5
98
100
AcDbEntity
8
1
62
256
6
ByLayer
370
13
48
1
60
0
100
AcDbLine
10
37.991012
20
-30.725
30
0
11
38.4
21
-30.725
31
0
39
0
210
0
220
0
230
1
0
LINE
5
99
100
AcDbEntity
8
1
62
256
6
ByLayer
370
13
48
1
60
0
100
AcDbLine
10
43.6
20
-34.675
30
0
11
35.203528
21
-34.675
31
0
39
0
210
0
220
0
230
1
0
LINE
5
9A
100
AcDbEntity
8
1
62
256
6
ByLayer
370
13
48
1
60
0
100
AcDbLine
10
38.4
20
-30.725
30
0
11
38.4
21
0
31
0
39
0
210
0
220
0
230
1
0
LINE
5
9B
100
AcDbEntity
8
1
62
256
6
ByLayer
370
13
48
1
60
0
100
AcDbLine
10
51.290738
20
-34.675
30
0
11
56.290738
21
-34.675
31
0
39
0
210
0
220
0
230
1
0
LINE
5
9C
100
AcDbEntity
8
1
62
256
6
ByLayer
370
13
48
1
60
0
100
AcDbLine
10
60.415611
20
-34.491569
30
0
11
60.35928
21
-34.675
31
0
39
0
210
0
220
0
230
1
0
LINE
5
9D
100
AcDbEntity
8
1
62
256
6
ByLayer
370
13
48
1
60
0
100
AcDbLine
10
60.415611
20
-32.965483
30
0
11
60.415611
21
-32.508431
31
0
39
0
210
0
220
0
230
1
0
LINE
5
9E
100
AcDbEntity
8
1
62
256
6
ByLayer
370
13
48
1
60
0
100
AcDbLine
10
38.4
20
0
30
0
11
36.548567
21
10.5
31
0
39
0
210
0
220
0
230
1
0
LINE
5
9F
100
AcDbEntity
8
1
62
256
6
ByLayer
370
13
48
1
60
0
100
AcDbLine
10
8.538675
20
23.83913
30
0
11
11.461325
21
23.83913
31
0
39
0
210
0
220
0
230
1
0
LINE
5
A0
100
AcDbEntity
8
1
62
256
6
ByLayer
370
13
48
1
60
0
100
AcDbLine
10
24.12102
20
10.5
30
0
11
36.548567
21
10.5
31
0
39
0
210
0
220
0
230
1
0
LINE
5
A1
100
AcDbEntity
8
1
62
256
6
ByLayer
370
13
48
1
60
0
100
AcDbLine
10
8.538675
20
-7.529667
30
0
11
11.461325
21
-7.529667
31
0
39
0
210
0
220
0
230
1
0
LINE
5
A2
100
AcDbEntity
8
1
62
256
6
ByLayer
370
13
48
1
60
0
100
AcDbLine
10
35.203528
20
-32.325
30
0
11
35.203528
21
-34.675
31
0
39
0
210
0
220
0
230
1
0
LINE
5
A3
100
AcDbEntity
8
1
62
256
6
ByLayer
370
13
48
1
60
0
100
AcDbLine
10
43.6
20
-32.325
30
0
11
51.290738
21
-32.325
31
0
39
0
210
0
220
0
230
1
0
LINE
5
A4
100
AcDbEntity
8
1
62
256
6
ByLayer
370
13
48
1
60
0
100
AcDbLine
10
35.203528
20
-34.675
30
0
11
23.987871
21
-34.675
31
0
39
0
210
0
220
0
230
1
0
LINE
5
A5
100
AcDbEntity
8
1
62
256
6
ByLayer
370
13
48
1
60
0
100
AcDbLine
10
43.6
20
-32.325
30
0
11
40
21
-32.325
31
0
39
0
210
0
220
0
230
1
0
LINE
5
A6
100
AcDbEntity
8
1
62
256
6
ByLayer
370
13
48
1
60
0
100
AcDbLine
10
11.461325
20
-23.83913
30
0
11
8.538675
21
-23.83913
31
0
39
0
210
0
220
0
230
1
0
LINE
5
A7
100
AcDbEntity
8
1
62
256
6
ByLayer
370
13
48
1
60
0
100
AcDbLine
10
11.461325
20
7.529667
30
0
11
8.538675
21
7.529667
31
0
39
0
210
0
220
0
230
1
0
LINE
5
A8
100
AcDbEntity
8
1
62
256
6
ByLayer
370
13
48
1
60
0
100
AcDbLine
10
51.290738
20
-34.675
30
0
11
43.6
21
-34.675
31
0
39
0
210
0
220
0
230
1
0
LINE
5
A9
100
AcDbEntity
8
1
62
256
6
ByLayer
370
13
48
1
60
0
100
AcDbLine
10
56.589581
20
-32.25
30
0
11
56.545758
21
-32.325002
31
0
39
0
210
0
220
0
230
1
0
LINE
5
AA
100
AcDbEntity
8
1
62
256
6
ByLayer
370
13
48
1
60
0
100
AcDbLine
10
55.665685
20
-32.325003
30
0
11
55.665685
21
-32.25
31
0
39
0
210
0
220
0
230
1
0
LINE
5
AB
100
AcDbEntity
8
1
62
256
6
ByLayer
370
13
48
1
60
0
100
AcDbLine
10
55.665685
20
-34.674997
30
0
11
55.665685
21
-34.75
31
0
39
0
210
0
220
0
230
1
0
LINE
5
AC
100
AcDbEntity
8
1
62
256
6
ByLayer
370
13
48
1
60
0
100
AcDbLine
10
56.589581
20
-34.75
30
0
11
56.545758
21
-34.674998
31
0
39
0
210
0
220
0
230
1
0
LINE
5
AD
100
AcDbEntity
8
1
62
256
6
ByLayer
370
13
48
1
60
0
100
AcDbLine
10
61.455978
20
-34.75
30
0
11
61.455978
21
-34.326756
31
0
39
0
210
0
220
0
230
1
0
LINE
5
AE
100
AcDbEntity
8
1
62
256
6
ByLayer
370
13
48
1
60
0
100
AcDbLine
10
61.607676
20
-34.334465
30
0
11
61.880446
21
-34.347896
31
0
39
0
210
0
220
0
230
1
0
LINE
5
AF
100
AcDbEntity
8
1
62
256
6
ByLayer
370
13
48
1
60
0
100
AcDbLine
10
62.137538
20
-34.858919
30
0
11
62.116974
21
-34.564845
31
0
39
0
210
0
220
0
230
1
0
LINE
5
B0
100
AcDbEntity
8
1
62
256
6
ByLayer
370
13
48
1
60
0
100
AcDbLine
10
62.137538
20
-32.141081
30
0
11
62.116974
21
-32.435155
31
0
39
0
210
0
220
0
230
1
0
LINE
5
B1
100
AcDbEntity
8
1
62
256
6
ByLayer
370
13
48
1
60
0
100
AcDbLine
10
61.880446
20
-32.652104
30
0
11
61.607676
21
-32.665535
31
0
39
0
210
0
220
0
230
1
0
LINE
5
B2
100
AcDbEntity
8
1
62
256
6
ByLayer
370
13
48
1
60
0
100
AcDbLine
10
61.455978
20
-32.673244
30
0
11
61.455978
21
-32.25
31
0
39
0
210
0
220
0
230
1
0
LINE
5
B3
100
AcDbEntity
8
1
62
256
6
ByLayer
370
13
48
1
60
0
100
AcDbLine
10
62.39812
20
-34.547848
30
0
11
62.39812
21
-34.8662
31
0
39
0
210
0
220
0
230
1
0
LINE
5
B4
100
AcDbEntity
8
1
62
256
6
ByLayer
370
13
48
1
60
0
100
AcDbLine
10
63.458781
20
-34.664424
30
0
11
63.458781
21
-34.909785
31
0
39
0
210
0
220
0
230
1
0
LINE
5
B5
100
AcDbEntity
8
1
62
256
6
ByLayer
370
13
48
1
60
0
100
AcDbLine
10
63.458781
20
-32.335576
30
0
11
63.458781
21
-32.090215
31
0
39
0
210
0
220
0
230
1
0
LINE
5
B6
100
AcDbEntity
8
1
62
256
6
ByLayer
370
13
48
1
60
0
100
AcDbLine
10
62.39812
20
-32.452152
30
0
11
62.39812
21
-32.1338
31
0
39
0
210
0
220
0
230
1
0
LINE
5
B7
100
AcDbEntity
8
1
62
256
6
ByLayer
370
13
48
1
60
0
100
AcDbLine
10
61.880446
20
-34.347896
30
0
11
62.030516
21
-34.193729
31
0
39
0
210
0
220
0
230
1
0
LINE
5
B8
100
AcDbEntity
8
1
62
256
6
ByLayer
370
13
48
1
60
0
100
AcDbLine
10
62.030516
20
-32.806271
30
0
11
61.880446
21
-32.652104
31
0
39
0
210
0
220
0
230
1
0
LINE
5
B9
100
AcDbEntity
8
1
62
256
6
ByLayer
370
13
48
1
60
0
100
AcDbLine
10
61.607676
20
-34.334465
30
0
11
61.621372
21
-34.05631
31
0
39
0
210
0
220
0
230
1
0
LINE
5
BA
100
AcDbEntity
8
1
62
256
6
ByLayer
370
13
48
1
60
0
100
AcDbLine
10
61.851055
20
-34.06762
30
0
11
61.621372
21
-34.05631
31
0
39
0
210
0
220
0
230
1
0
LINE
5
BB
100
AcDbEntity
8
1
62
256
6
ByLayer
370
13
48
1
60
0
100
AcDbLine
10
61.621372
20
-32.94369
30
0
11
61.851055
21
-32.93238
31
0
39
0
210
0
220
0
230
1
0
LINE
5
BC
100
AcDbEntity
8
1
62
256
6
ByLayer
370
13
48
1
60
0
100
AcDbLine
10
61.621372
20
-32.94369
30
0
11
61.607676
21
-32.665535
31
0
39
0
210
0
220
0
230
1
0
LINE
5
BD
100
AcDbEntity
8
1
62
256
6
ByLayer
370
13
48
1
60
0
100
AcDbLine
10
62.293328
20
-34.54953
30
0
11
62.315472
21
-34.866214
31
0
39
0
210
0
220
0
230
1
0
LINE
5
BE
100
AcDbEntity
8
1
62
256
6
ByLayer
370
13
48
1
60
0
100
AcDbLine
10
62.293328
20
-32.45047
30
0
11
62.315472
21
-32.133786
31
0
39
0
210
0
220
0
230
1
0
LINE
5
BF
100
AcDbEntity
8
1
62
256
6
ByLayer
370
13
48
1
60
0
100
AcDbLine
10
61.864379
20
-32.94369
30
0
11
61.621372
21
-32.94369
31
0
39
0
210
0
220
0
230
1
0
LINE
5
C0
100
AcDbEntity
8
1
62
256
6
ByLayer
370
13
48
1
60
0
100
AcDbLine
10
61.864379
20
-34.05631
30
0
11
61.621372
21
-34.05631
31
0
39
0
210
0
220
0
230
1
0
LINE
5
C1
100
AcDbEntity
8
1
62
256
6
ByLayer
370
13
48
1
60
0
100
AcDbLine
10
61.387574
20
-34.326756
30
0
11
61.455978
21
-34.326756
31
0
39
0
210
0
220
0
230
1
0
LINE
5
C2
100
AcDbEntity
8
1
62
256
6
ByLayer
370
13
48
1
60
0
100
AcDbLine
10
61.387574
20
-32.673244
30
0
11
61.455978
21
-32.673244
31
0
39
0
210
0
220
0
230
1
0
LINE
5
C3
100
AcDbEntity
8
1
62
256
6
ByLayer
370
13
48
1
60
0
100
AcDbLine
10
61.387574
20
-32.25
30
0
11
61.387574
21
-32.673244
31
0
39
0
210
0
220
0
230
1
0
LINE
5
C4
100
AcDbEntity
8
1
62
256
6
ByLayer
370
13
48
1
60
0
100
AcDbLine
10
61.387574
20
-34.326756
30
0
11
61.387574
21
-34.75
31
0
39
0
210
0
220
0
230
1
0
LINE
5
C5
100
AcDbEntity
8
1
62
256
6
ByLayer
370
13
48
1
60
0
100
AcDbLine
10
60.663912
20
-34.75
30
0
11
60.663912
21
-34.633917
31
0
39
0
210
0
220
0
230
1
0
LINE
5
C6
100
AcDbEntity
8
1
62
256
6
ByLayer
370
13
48
1
60
0
100
AcDbLine
10
60.663912
20
-32.366083
30
0
11
60.663912
21
-32.25
31
0
39
0
210
0
220
0
230
1
0
LINE
5
C7
100
AcDbEntity
8
1
62
256
6
ByLayer
370
13
48
1
60
0
100
AcDbLine
10
63.114687
20
-32.680616
30
0
11
63.211268
21
-32.984159
31
0
39
0
210
0
220
0
230
1
0
LINE
5
C8
100
AcDbEntity
8
1
62
256
6
ByLayer
370
13
48
1
60
0
100
AcDbLine
10
63.114687
20
-34.319384
30
0
11
63.211268
21
-34.015841
31
0
39
0
210
0
220
0
230
1
0
LINE
5
C9
100
AcDbEntity
8
1
62
256
6
ByLayer
370
13
48
1
60
0
100
AcDbLine
10
60.46942
20
-33.132002
30
0
11
60.779442
21
-33.132002
31
0
39
0
210
0
220
0
230
1
0
LINE
5
CA
100
AcDbEntity
8
1
62
256
6
ByLayer
370
13
48
1
60
0
100
AcDbLine
10
60.415611
20
-32.68149
30
0
11
60.46942
21
-33.132002
31
0
39
0
210
0
220
0
230
1
0
LINE
5
CB
100
AcDbEntity
8
1
62
256
6
ByLayer
370
13
48
1
60
0
100
AcDbLine
10
60.577267
20
-32.424016
30
0
11
60.384859
21
-32.424016
31
0
39
0
210
0
220
0
230
1
0
LINE
5
CC
100
AcDbEntity
8
1
62
256
6
ByLayer
370
13
48
1
60
0
100
AcDbLine
10
60.577267
20
-34.575984
30
0
11
60.384859
21
-34.575984
31
0
39
0
210
0
220
0
230
1
0
LINE
5
CD
100
AcDbEntity
8
1
62
256
6
ByLayer
370
13
48
1
60
0
100
AcDbLine
10
60.415611
20
-34.31851
30
0
11
60.46942
21
-33.867998
31
0
39
0
210
0
220
0
230
1
0
LINE
5
CE
100
AcDbEntity
8
1
62
256
6
ByLayer
370
13
48
1
60
0
100
AcDbLine
10
60.46942
20
-33.867998
30
0
11
60.779442
21
-33.867998
31
0
39
0
210
0
220
0
230
1
0
LINE
5
CF
100
AcDbEntity
8
1
62
256
6
ByLayer
370
13
48
1
60
0
100
AcDbLine
10
60.572358
20
-32.25
30
0
11
60.572358
21
-32.374098
31
0
39
0
210
0
220
0
230
1
0
LINE
5
D0
100
AcDbEntity
8
1
62
256
6
ByLayer
370
13
48
1
60
0
100
AcDbLine
10
60.572358
20
-34.625902
30
0
11
60.572358
21
-34.75
31
0
39
0
210
0
220
0
230
1
0
LINE
5
D1
100
AcDbEntity
8
1
62
256
6
ByLayer
370
13
48
1
60
0
100
AcDbLine
10
63.211268
20
-32.984159
30
0
11
63.211268
21
-34.015841
31
0
39
0
210
0
220
0
230
1
0
LINE
5
D2
100
AcDbEntity
8
1
62
256
6
ByLayer
370
13
48
1
60
0
100
AcDbLine
10
60.38199
20
-32.374562
30
0
11
60.570595
21
-32.374562
31
0
39
0
210
0
220
0
230
1
0
LINE
5
D3
100
AcDbEntity
8
1
62
256
6
ByLayer
370
13
48
1
60
0
100
AcDbLine
10
60.38199
20
-32.25
30
0
11
60.38199
21
-32.374562
31
0
39
0
210
0
220
0
230
1
0
LINE
5
D4
100
AcDbEntity
8
1
62
256
6
ByLayer
370
13
48
1
60
0
100
AcDbLine
10
60.38199
20
-34.75
30
0
11
60.38199
21
-34.625438
31
0
39
0
210
0
220
0
230
1
0
LINE
5
D5
100
AcDbEntity
8
1
62
256
6
ByLayer
370
13
48
1
60
0
100
AcDbLine
10
60.38199
20
-34.625438
30
0
11
60.570595
21
-34.625438
31
0
39
0
210
0
220
0
230
1
0
LINE
5
D6
100
AcDbEntity
8
1
62
256
6
ByLayer
370
13
48
1
60
0
100
AcDbLine
10
65.000117
20
-32.735234
30
0
11
64.925685
21
-32.735234
31
0
39
0
210
0
220
0
230
1
0
LINE
5
D7
100
AcDbEntity
8
1
62
256
6
ByLayer
370
13
48
1
60
0
100
AcDbLine
10
64.535516
20
-32.426294
30
0
11
64.535516
21
-32.007825
31
0
39
0
210
0
220
0
230
1
0
LINE
5
D8
100
AcDbEntity
8
1
62
256
6
ByLayer
370
13
48
1
60
0
100
AcDbLine
10
64.535516
20
-34.573706
30
0
11
64.535516
21
-34.992175
31
0
39
0
210
0
220
0
230
1
0
LINE
5
D9
100
AcDbEntity
8
1
62
256
6
ByLayer
370
13
48
1
60
0
100
AcDbLine
10
65.000117
20
-34.264766
30
0
11
64.925685
21
-34.264766
31
0
39
0
210
0
220
0
230
1
0
LINE
5
DA
100
AcDbEntity
8
1
62
256
6
ByLayer
370
13
48
1
60
0
100
AcDbLine
10
64.46476
20
-34.987072
30
0
11
64.46476
21
-34.626322
31
0
39
0
210
0
220
0
230
1
0
LINE
5
DB
100
AcDbEntity
8
1
62
256
6
ByLayer
370
13
48
1
60
0
100
AcDbLine
10
64.106077
20
-34.674869
30
0
11
64.106077
21
-34.957412
31
0
39
0
210
0
220
0
230
1
0
LINE
5
DC
100
AcDbEntity
8
1
62
256
6
ByLayer
370
13
48
1
60
0
100
AcDbLine
10
64.46476
20
-32.012928
30
0
11
64.46476
21
-32.373678
31
0
39
0
210
0
220
0
230
1
0
LINE
5
DD
100
AcDbEntity
8
1
62
256
6
ByLayer
370
13
48
1
60
0
100
AcDbLine
10
64.106077
20
-32.325131
30
0
11
64.106077
21
-32.042588
31
0
39
0
210
0
220
0
230
1
0
LINE
5
DE
100
AcDbEntity
8
1
62
256
6
ByLayer
370
13
48
1
60
0
100
AcDbLine
10
60.506333
20
-33.751024
30
0
11
60.866184
21
-33.751024
31
0
39
0
210
0
220
0
230
1
0
LINE
5
DF
100
AcDbEntity
8
1
62
256
6
ByLayer
370
13
48
1
60
0
100
AcDbLine
10
60.506333
20
-33.248976
30
0
11
60.866184
21
-33.248976
31
0
39
0
210
0
220
0
230
1
0
LINE
5
E0
100
AcDbEntity
8
1
62
256
6
ByLayer
370
13
48
1
60
0
100
AcDbLine
10
63.758781
20
-34.678409
30
0
11
63.758781
21
-34.930867
31
0
39
0
210
0
220
0
230
1
0
LINE
5
E1
100
AcDbEntity
8
1
62
256
6
ByLayer
370
13
48
1
60
0
100
AcDbLine
10
63.758781
20
-32.321591
30
0
11
63.758781
21
-32.069133
31
0
39
0
210
0
220
0
230
1
0
LINE
5
E2
100
AcDbEntity
8
1
62
256
6
ByLayer
370
13
48
1
60
0
100
AcDbLine
10
60.374468
20
-32.374562
30
0
11
60.38199
21
-32.374562
31
0
39
0
210
0
220
0
230
1
0
LINE
5
E3
100
AcDbEntity
8
1
62
256
6
ByLayer
370
13
48
1
60
0
100
AcDbLine
10
56.966112
20
-34.675001
30
0
11
56.966112
21
-34.75
31
0
39
0
210
0
220
0
230
1
0
LINE
5
E4
100
AcDbEntity
8
1
62
256
6
ByLayer
370
13
48
1
60
0
100
AcDbLine
10
60.374468
20
-34.625438
30
0
11
60.38199
21
-34.625438
31
0
39
0
210
0
220
0
230
1
0
LINE
5
E5
100
AcDbEntity
8
1
62
256
6
ByLayer
370
13
48
1
60
0
100
AcDbLine
10
56.966112
20
-32.324999
30
0
11
56.966112
21
-32.25
31
0
39
0
210
0
220
0
230
1
0
LINE
5
E6
100
AcDbEntity
8
1
62
256
6
ByLayer
370
13
48
1
60
0
100
AcDbLine
10
60.398005
20
-33.867998
30
0
11
60.46942
21
-33.867998
31
0
39
0
210
0
220
0
230
1
0
LINE
5
E7
100
AcDbEntity
8
1
62
256
6
ByLayer
370
13
48
1
60
0
100
AcDbLine
10
60.398005
20
-33.132002
30
0
11
60.46942
21
-33.132002
31
0
39
0
210
0
220
0
230
1
0
LINE
5
E8
100
AcDbEntity
8
1
62
256
6
ByLayer
370
13
48
1
60
0
100
AcDbLine
10
60.54904
20
-33.299244
30
0
11
60.987507
21
-33.299244
31
0
39
0
210
0
220
0
230
1
0
LINE
5
E9
100
AcDbEntity
8
1
62
256
6
ByLayer
370
13
48
1
60
0
100
AcDbLine
10
63.82193
20
-34.391296
30
0
11
63.811268
21
-34.088056
31
0
39
0
210
0
220
0
230
1
0
LINE
5
EA
100
AcDbEntity
8
1
62
256
6
ByLayer
370
13
48
1
60
0
100
AcDbLine
10
60.54904
20
-33.700756
30
0
11
60.987507
21
-33.700756
31
0
39
0
210
0
220
0
230
1
0
LINE
5
EB
100
AcDbEntity
8
1
62
256
6
ByLayer
370
13
48
1
60
0
100
AcDbLine
10
64.944165
20
-34.07839
30
0
11
64.997026
21
-34.07839
31
0
39
0
210
0
220
0
230
1
0
LINE
5
EC
100
AcDbEntity
8
1
62
256
6
ByLayer
370
13
48
1
60
0
100
AcDbLine
10
63.82193
20
-32.608704
30
0
11
63.811268
21
-32.911944
31
0
39
0
210
0
220
0
230
1
0
LINE
5
ED
100
AcDbEntity
8
1
62
256
6
ByLayer
370
13
48
1
60
0
100
AcDbLine
10
64.944165
20
-32.92161
30
0
11
64.997026
21
-32.92161
31
0
39
0
210
0
220
0
230
1
0
LINE
5
EE
100
AcDbEntity
8
1
62
256
6
ByLayer
370
13
48
1
60
0
100
AcDbLine
10
64.948049
20
-34.23707
30
0
11
65
21
-34.23707
31
0
39
0
210
0
220
0
230
1
0
LINE
5
EF
100
AcDbEntity
8
1
62
256
6
ByLayer
370
13
48
1
60
0
100
AcDbLine
10
64.997026
20
-34.07839
30
0
11
64.997026
21
-32.92161
31
0
39
0
210
0
220
0
230
1
0
LINE
5
F0
100
AcDbEntity
8
1
62
256
6
ByLayer
370
13
48
1
60
0
100
AcDbLine
10
64.948049
20
-32.76293
30
0
11
65
21
-32.76293
31
0
39
0
210
0
220
0
230
1
0
LINE
5
F1
100
AcDbEntity
8
1
62
256
6
ByLayer
370
13
48
1
60
0
100
AcDbLine
10
60.552254
20
-33.697335
30
0
11
60.996489
21
-33.697335
31
0
39
0
210
0
220
0
230
1
0
LINE
5
F2
100
AcDbEntity
8
1
62
256
6
ByLayer
370
13
48
1
60
0
100
AcDbLine
10
60.552254
20
-33.302665
30
0
11
60.996489
21
-33.302665
31
0
39
0
210
0
220
0
230
1
0
LINE
5
F3
100
AcDbEntity
8
1
62
256
6
ByLayer
370
13
48
1
60
0
100
AcDbLine
10
64.944165
20
-32.92161
30
0
11
64.944165
21
-34.07839
31
0
39
0
210
0
220
0
230
1
0
LINE
5
F4
100
AcDbEntity
8
1
62
256
6
ByLayer
370
13
48
1
60
0
100
AcDbLine
10
60.54904
20
-33.299244
30
0
11
60.552254
21
-33.302665
31
0
39
0
210
0
220
0
230
1
0
LINE
5
F5
100
AcDbEntity
8
1
62
256
6
ByLayer
370
13
48
1
60
0
100
AcDbLine
10
64.421373
20
-32.910924
30
0
11
64.421373
21
-34.089076
31
0
39
0
210
0
220
0
230
1
0
LINE
5
F6
100
AcDbEntity
8
1
62
256
6
ByLayer
370
13
48
1
60
0
100
AcDbLine
10
60.54904
20
-33.700756
30
0
11
60.552254
21
-33.697335
31
0
39
0
210
0
220
0
230
1
0
LINE
5
F7
100
AcDbEntity
8
1
62
256
6
ByLayer
370
13
48
1
60
0
100
AcDbLine
10
63.811268
20
-32.911944
30
0
11
63.811268
21
-34.088056
31
0
39
0
210
0
220
0
230
1
0
LINE
5
F8
100
AcDbEntity
8
1
62
256
6
ByLayer
370
13
48
1
60
0
100
AcDbLine
10
60.391842
20
-33.248976
30
0
11
60.506333
21
-33.248976
31
0
39
0
210
0
220
0
230
1
0
LINE
5
F9
100
AcDbEntity
8
1
62
256
6
ByLayer
370
13
48
1
60
0
100
AcDbLine
10
60.391842
20
-33.751024
30
0
11
60.506333
21
-33.751024
31
0
39
0
210
0
220
0
230
1
0
LINE
5
FA
100
AcDbEntity
8
1
62
256
6
ByLayer
370
13
48
1
60
0
100
AcDbLine
10
60.390074
20
-33.700756
30
0
11
60.54904
21
-33.700756
31
0
39
0
210
0
220
0
230
1
0
LINE
5
FB
100
AcDbEntity
8
1
62
256
6
ByLayer
370
13
48
1
60
0
100
AcDbLine
10
60.389954
20
-33.697335
30
0
11
60.552254
21
-33.697335
31
0
39
0
210
0
220
0
230
1
0
LINE
5
FC
100
AcDbEntity
8
1
62
256
6
ByLayer
370
13
48
1
60
0
100
AcDbLine
10
60.390074
20
-33.299244
30
0
11
60.54904
21
-33.299244
31
0
39
0
210
0
220
0
230
1
0
LINE
5
FD
100
AcDbEntity
8
1
62
256
6
ByLayer
370
13
48
1
60
0
100
AcDbLine
10
60.389954
20
-33.302665
30
0
11
60.552254
21
-33.302665
31
0
39
0
210
0
220
0
230
1
0
LINE
5
FE
100
AcDbEntity
8
1
62
256
6
ByLayer
370
13
48
1
60
0
100
AcDbLine
10
55.1
20
-32.276795
30
0
11
55.1
21
-32.325035
31
0
39
0
210
0
220
0
230
1
0
LINE
5
FF
100
AcDbEntity
8
1
62
256
6
ByLayer
370
13
48
1
60
0
100
AcDbLine
10
55.1
20
-34.674965
30
0
11
55.1
21
-34.723205
31
0
39
0
210
0
220
0
230
1
0
LINE
5
100
100
AcDbEntity
8
1
62
256
6
ByLayer
370
18
48
1
60
0
100
AcDbLine
10
65.000117
20
-32.735234
30
0
11
65.004691
21
-32.194444
31
0
39
0
210
0
220
0
230
1
0
LINE
5
101
100
AcDbEntity
8
1
62
256
6
ByLayer
370
18
48
1
60
0
100
AcDbLine
10
65
20
-34.23707
30
0
11
65
21
-32.76293
31
0
39
0
210
0
220
0
230
1
0
LINE
5
102
100
AcDbEntity
8
1
62
256
6
ByLayer
370
18
48
1
60
0
100
AcDbLine
10
61.69752
20
-32.192091
30
0
11
61.64436
21
-32.222783
31
0
39
0
210
0
220
0
230
1
0
LINE
5
103
100
AcDbEntity
8
1
62
256
6
ByLayer
370
18
48
1
60
0
100
AcDbLine
10
55.2
20
-34.75
30
0
11
55.665685
21
-34.75
31
0
39
0
210
0
220
0
230
1
0
LINE
5
104
100
AcDbEntity
8
1
62
256
6
ByLayer
370
18
48
1
60
0
100
AcDbLine
10
56.589581
20
-32.25
30
0
11
55.665685
21
-32.25
31
0
39
0
210
0
220
0
230
1
0
LINE
5
105
100
AcDbEntity
8
1
62
256
6
ByLayer
370
18
48
1
60
0
100
AcDbLine
10
60.663912
20
-34.75
30
0
11
61.387574
21
-34.75
31
0
39
0
210
0
220
0
230
1
0
LINE
5
106
100
AcDbEntity
8
1
62
256
6
ByLayer
370
18
48
1
60
0
100
AcDbLine
10
55.665685
20
-34.75
30
0
11
56.589581
21
-34.75
31
0
39
0
210
0
220
0
230
1
0
LINE
5
107
100
AcDbEntity
8
1
62
256
6
ByLayer
370
18
48
1
60
0
100
AcDbLine
10
62.39812
20
-32.1338
30
0
11
62.315472
21
-32.133786
31
0
39
0
210
0
220
0
230
1
0
LINE
5
108
100
AcDbEntity
8
1
62
256
6
ByLayer
370
18
48
1
60
0
100
AcDbLine
10
61.795343
20
-34.834991
30
0
11
62.137538
21
-34.858919
31
0
39
0
210
0
220
0
230
1
0
LINE
5
109
100
AcDbEntity
8
1
62
256
6
ByLayer
370
18
48
1
60
0
100
AcDbLine
10
56.966112
20
-32.25
30
0
11
56.647775
21
-32.25
31
0
39
0
210
0
220
0
230
1
0
LINE
5
10A
100
AcDbEntity
8
1
62
256
6
ByLayer
370
18
48
1
60
0
100
AcDbLine
10
64.535516
20
-34.992175
30
0
11
64.795632
21
-35.008204
31
0
39
0
210
0
220
0
230
1
0
LINE
5
10B
100
AcDbEntity
8
1
62
256
6
ByLayer
370
18
48
1
60
0
100
AcDbLine
10
56.966112
20
-34.75
30
0
11
60.38199
21
-34.75
31
0
39
0
210
0
220
0
230
1
0
LINE
5
10C
100
AcDbEntity
8
1
62
256
6
ByLayer
370
18
48
1
60
0
100
AcDbLine
10
61.387574
20
-32.25
30
0
11
60.663912
21
-32.25
31
0
39
0
210
0
220
0
230
1
0
LINE
5
10D
100
AcDbEntity
8
1
62
256
6
ByLayer
370
18
48
1
60
0
100
AcDbLine
10
64.46476
20
-32.012928
30
0
11
64.106077
21
-32.042588
31
0
39
0
210
0
220
0
230
1
0
LINE
5
10E
100
AcDbEntity
8
1
62
256
6
ByLayer
370
18
48
1
60
0
100
AcDbLine
10
60.38199
20
-32.25
30
0
11
56.966112
21
-32.25
31
0
39
0
210
0
220
0
230
1
0
LINE
5
10F
100
AcDbEntity
8
1
62
256
6
ByLayer
370
18
48
1
60
0
100
AcDbLine
10
61.553398
20
-34.75
30
0
11
61.455978
21
-34.75
31
0
39
0
210
0
220
0
230
1
0
LINE
5
110
100
AcDbEntity
8
1
62
256
6
ByLayer
370
18
48
1
60
0
100
AcDbLine
10
56.647775
20
-34.75
30
0
11
56.966112
21
-34.75
31
0
39
0
210
0
220
0
230
1
0
LINE
5
111
100
AcDbEntity
8
1
62
256
6
ByLayer
370
18
48
1
60
0
100
AcDbLine
10
61.455978
20
-32.25
30
0
11
61.387574
21
-32.25
31
0
39
0
210
0
220
0
230
1
0
LINE
5
112
100
AcDbEntity
8
1
62
256
6
ByLayer
370
18
48
1
60
0
100
AcDbLine
10
64.795632
20
-31.991796
30
0
11
64.535516
21
-32.007825
31
0
39
0
210
0
220
0
230
1
0
LINE
5
113
100
AcDbEntity
8
1
62
256
6
ByLayer
370
18
48
1
60
0
100
AcDbLine
10
63.458781
20
-34.909785
30
0
11
63.758781
21
-34.930867
31
0
39
0
210
0
220
0
230
1
0
LINE
5
114
100
AcDbEntity
8
1
62
256
6
ByLayer
370
18
48
1
60
0
100
AcDbLine
10
61.654705
20
-34.777118
30
0
11
61.709449
21
-34.808724
31
0
39
0
210
0
220
0
230
1
0
LINE
5
115
100
AcDbEntity
8
1
62
256
6
ByLayer
370
18
48
1
60
0
100
AcDbLine
10
61.387574
20
-34.75
30
0
11
61.455978
21
-34.75
31
0
39
0
210
0
220
0
230
1
0
LINE
5
116
100
AcDbEntity
8
1
62
256
6
ByLayer
370
18
48
1
60
0
100
AcDbLine
10
64.106077
20
-34.957412
30
0
11
64.46476
21
-34.987072
31
0
39
0
210
0
220
0
230
1
0
LINE
5
117
100
AcDbEntity
8
1
62
256
6
ByLayer
370
18
48
1
60
0
100
AcDbLine
10
62.315472
20
-34.866214
30
0
11
62.39812
21
-34.8662
31
0
39
0
210
0
220
0
230
1
0
LINE
5
118
100
AcDbEntity
8
1
62
256
6
ByLayer
370
18
48
1
60
0
100
AcDbLine
10
60.572358
20
-32.25
30
0
11
60.38199
21
-32.25
31
0
39
0
210
0
220
0
230
1
0
LINE
5
119
100
AcDbEntity
8
1
62
256
6
ByLayer
370
18
48
1
60
0
100
AcDbLine
10
56.589581
20
-34.75
30
0
11
56.635194
21
-34.75
31
0
39
0
210
0
220
0
230
1
0
LINE
5
11A
100
AcDbEntity
8
1
62
256
6
ByLayer
370
18
48
1
60
0
100
AcDbLine
10
63.758781
20
-32.069133
30
0
11
63.458781
21
-32.090215
31
0
39
0
210
0
220
0
230
1
0
LINE
5
11B
100
AcDbEntity
8
1
62
256
6
ByLayer
370
18
48
1
60
0
100
AcDbLine
10
62.137538
20
-32.141081
30
0
11
61.78336
21
-32.165847
31
0
39
0
210
0
220
0
230
1
0
LINE
5
11C
100
AcDbEntity
8
1
62
256
6
ByLayer
370
18
48
1
60
0
100
AcDbLine
10
60.663912
20
-32.25
30
0
11
60.572358
21
-32.25
31
0
39
0
210
0
220
0
230
1
0
LINE
5
11D
100
AcDbEntity
8
1
62
256
6
ByLayer
370
18
48
1
60
0
100
AcDbLine
10
60.572358
20
-34.75
30
0
11
60.663912
21
-34.75
31
0
39
0
210
0
220
0
230
1
0
LINE
5
11E
100
AcDbEntity
8
1
62
256
6
ByLayer
370
18
48
1
60
0
100
AcDbLine
10
56.635194
20
-32.25
30
0
11
56.589581
21
-32.25
31
0
39
0
210
0
220
0
230
1
0
LINE
5
11F
100
AcDbEntity
8
1
62
256
6
ByLayer
370
18
48
1
60
0
100
AcDbLine
10
65.004691
20
-34.805556
30
0
11
65.000117
21
-34.264766
31
0
39
0
210
0
220
0
230
1
0
LINE
5
120
100
AcDbEntity
8
1
62
256
6
ByLayer
370
18
48
1
60
0
100
AcDbLine
10
61.455978
20
-32.25
30
0
11
61.542652
21
-32.25
31
0
39
0
210
0
220
0
230
1
0
LINE
5
121
100
AcDbEntity
8
1
62
256
6
ByLayer
370
18
48
1
60
0
100
AcDbLine
10
60.38199
20
-34.75
30
0
11
60.572358
21
-34.75
31
0
39
0
210
0
220
0
230
1
0
LINE
5
122
100
AcDbEntity
8
1
62
256
6
ByLayer
370
18
48
1
60
0
100
AcDbLine
10
55.665685
20
-32.25
30
0
11
55.2
21
-32.25
31
0
39
0
210
0
220
0
230
1
0
MTEXT
5
235
100
AcDbEntity
8
SK6
62
256
6
ByLayer
370
18
48
1
60
0
100
AcDbMText
10
-14.125
20
-55.879285
30
0
210
0
220
0
230
1
1
\W0.7831;C5-QD-LFG25C35065A
40
3.5
41
0
44
1.084337
50
0
71
7
72
5
7
iso_b_vert
0
DIMENSION
5
247
100
AcDbEntity
8
SK2
62
256
6
ByLayer
370
13
48
1
60
0
100
AcDbDimension
2
DimnDraft3D1
10
65
20
47.6
30
0
11
30.409211
21
47.6
31
0
70
32
71
5
72
1
41
1
210
0
220
0
230
1
3
Standard
100
AcDbAlignedDimension
13
0
23
2
33
0
14
65
24
-33
34
0
50
0
100
AcDbRotatedDimension
1001
ACAD
1000
DSTYLE
1002
{
1070
   279
1070
     0
1070
   172
1070
     1
1070
   173
1070
     1
1070
   340
1005
236
1070
   271
1070
     1
1070
    77
1070
     1
1070
    73
1070
     0
1070
   171
1070
     3
1070
   274
1070
     4
1070
   177
1070
     2
1070
   176
1070
     2
1070
   178
1070
     7
1070
    78
1070
     8
1070
    41
1041
3.175
1070
   147
1041
1.75
1070
    42
1041
2.0
1070
    44
1041
2.0
1070
   140
1041
3.5
1070
   343
1005
248
1070
   344
1005
248
1002
}
0
DIMENSION
5
25D
100
AcDbEntity
8
2
62
256
6
ByLayer
370
13
48
1
60
0
100
AcDbDimension
2
DimnDraft3D2
10
40
20
-48.108569
30
0
11
50.409211
21
-48.108569
31
0
70
32
71
5
72
1
41
1
210
0
220
0
230
1
3
Standard
100
AcDbAlignedDimension
13
65
23
-37
33
0
14
40
24
-27
34
0
50
0
100
AcDbRotatedDimension
1001
ACAD
1000
DSTYLE
1002
{
1070
   279
1070
     0
1070
   172
1070
     1
1070
   173
1070
     1
1070
   340
1005
236
1070
   271
1070
     1
1070
    77
1070
     1
1070
    73
1070
     0
1070
   171
1070
     3
1070
   274
1070
     4
1070
   177
1070
     2
1070
   176
1070
     2
1070
   178
1070
     7
1070
    78
1070
     8
1070
    41
1041
3.175
1070
   147
1041
1.75
1070
    42
1041
2.0
1070
    44
1041
2.0
1070
   140
1041
3.5
1070
   343
1005
248
1070
   344
1005
248
1002
}
0
DIMENSION
5
26B
100
AcDbEntity
8
SK2
62
256
6
ByLayer
370
13
48
1
60
0
100
AcDbDimension
2
DimnDraft3D3
10
-39.6
20
25
30
0
11
-39.6
21
-2.090789
31
0
70
32
71
5
72
1
41
1
210
0
220
0
230
1
3
Standard
100
AcDbAlignedDimension
13
-2
23
-25
33
0
14
-2
24
25
34
0
50
90
100
AcDbRotatedDimension
1001
ACAD
1000
DSTYLE
1002
{
1070
    74
1070
     0
1070
   279
1070
     0
1070
   172
1070
     1
1070
   173
1070
     1
1070
   340
1005
236
1070
   271
1070
     1
1070
    77
1070
     1
1070
    73
1070
     0
1070
   171
1070
     3
1070
   274
1070
     4
1070
   177
1070
     2
1070
   176
1070
     2
1070
   178
1070
     7
1070
    78
1070
     8
1070
    41
1041
3.175
1070
   147
1041
1.75
1070
    42
1041
2.0
1070
    44
1041
2.0
1070
   140
1041
3.5
1070
   343
1005
248
1070
   344
1005
248
1002
}
0
DIMENSION
5
279
100
AcDbEntity
8
2
62
256
6
ByLayer
370
13
48
1
60
0
100
AcDbDimension
2
DimnDraft3D4
10
90.1
20
-35
30
0
11
90.1
21
-19.590789
31
0
70
32
71
5
72
1
41
1
210
0
220
0
230
1
3
Standard
100
AcDbAlignedDimension
13
58
23
0
33
0
14
67
24
-35
34
0
50
90
100
AcDbRotatedDimension
1001
ACAD
1000
DSTYLE
1002
{
1070
    74
1070
     0
1070
   279
1070
     0
1070
   172
1070
     1
1070
   173
1070
     1
1070
   340
1005
236
1070
   271
1070
     1
1070
    77
1070
     1
1070
    73
1070
     0
1070
   171
1070
     3
1070
   274
1070
     4
1070
   177
1070
     2
1070
   176
1070
     2
1070
   178
1070
     7
1070
    78
1070
     8
1070
    41
1041
3.175
1070
   147
1041
1.75
1070
    42
1041
2.0
1070
    44
1041
2.0
1070
   140
1041
3.5
1070
   343
1005
248
1070
   344
1005
248
1002
}
0
DIMENSION
5
287
100
AcDbEntity
8
2
62
256
6
ByLayer
370
13
48
1
60
0
100
AcDbDimension
2
DimnDraft3D5
10
83.1
20
-32
30
0
11
83.1
21
-46.820789
31
0
70
32
71
5
72
1
41
1
210
0
220
0
230
1
3
Standard
100
AcDbAlignedDimension
13
67
23
-35
33
0
14
67
24
-32
34
0
50
90
100
AcDbRotatedDimension
1001
ACAD
1000
DSTYLE
1002
{
1070
    74
1070
     0
1070
   279
1070
     0
1070
   172
1070
     1
1070
   173
1070
     1
1070
   340
1005
236
1070
   271
1070
     1
1070
    77
1070
     1
1070
    73
1070
     0
1070
   171
1070
     3
1070
   274
1070
     4
1070
   177
1070
     2
1070
   176
1070
     2
1070
   178
1070
     7
1070
    78
1070
     8
1070
    41
1041
3.175
1070
   147
1041
1.75
1070
    42
1041
2.0
1070
    44
1041
2.0
1070
   140
1041
3.5
1070
   343
1005
248
1070
   344
1005
248
1002
}
0
ENDSEC
0
SECTION
2
OBJECTS
0
DICTIONARY
5
2f1
330
0
100
AcDbDictionary
280
0
281
1
3
ACAD_GROUP
350
2f2
3
ACAD_MLINESTYLE
350
2f3
0
DICTIONARY
5
2f2
330
0
100
AcDbDictionary
280
0
281
1
0
DICTIONARY
5
2f3
330
0
100
AcDbDictionary
280
0
281
1
3
Standard
350
18
0
MLINESTYLE
5
18
330
2f3
100
AcDbMlineStyle
2
Standard
70
0
3

62
256
51
90
52
90
71
2
49
-0.5
62
256
6
ByLayer
49
0.5
62
256
6
ByLayer
0
RASTERVARIABLES
5
2e0
330

100
AcDbRasterVariables
90
0
70
1
71
1
72
1
0
ENDSEC
0
EOF
