  0
SECTION
  2
HEADER
  9
$ACADVER
  1
AC1015
  9
$ACADMAINTVER
 70
    20
  9
$DWGCODEPAGE
  3
ANSI_1252
  9
$INSBASE
 10
0.0
 20
0.0
 30
0.0
  9
$EXTMIN
 10
-41.28559700083633
 20
-26.71478154686599
 30
-2.203617171903545
  9
$EXTMAX
 10
119.0423137606615
 20
41.98181227080271
 30
0.0000000099815534
  9
$LIMMIN
 10
-170.0
 20
-170.0
  9
$LIMMAX
 10
519.0
 20
260.0
  9
$ORTHOMODE
 70
     0
  9
$REGENMODE
 70
     1
  9
$FILLMODE
 70
     1
  9
$QTEXTMODE
 70
     0
  9
$MIRRTEXT
 70
     0
  9
$LTSCALE
 40
1.0
  9
$ATTMODE
 70
     1
  9
$TEXTSIZE
 40
3.5
  9
$TRACEWID
 40
1.0
  9
$TEXTSTYLE
  7
SIMPLEX
  9
$CLAYER
  8
1
  9
$CELTYPE
  6
BYLAYER
  9
$CECOLOR
 62
   256
  9
$CELTSCALE
 40
1.0
  9
$DISPSILH
 70
     0
  9
$DIMSCALE
 40
1.0
  9
$DIMASZ
 40
2.5
  9
$DIMEXO
 40
0.0
  9
$DIMDLI
 40
3.75
  9
$DIMRND
 40
0.0
  9
$DIMDLE
 40
0.0
  9
$DIMEXE
 40
1.25
  9
$DIMTP
 40
0.0
  9
$DIMTM
 40
0.0
  9
$DIMTXT
 40
3.5
  9
$DIMCEN
 40
0.0
  9
$DIMTSZ
 40
0.0
  9
$DIMTOL
 70
     0
  9
$DIMLIM
 70
     0
  9
$DIMTIH
 70
     0
  9
$DIMTOH
 70
     0
  9
$DIMSE1
 70
     0
  9
$DIMSE2
 70
     0
  9
$DIMTAD
 70
     1
  9
$DIMZIN
 70
     8
  9
$DIMBLK
  1

  9
$DIMASO
 70
     1
  9
$DIMSHO
 70
     1
  9
$DIMPOST
  1

  9
$DIMAPOST
  1

  9
$DIMALT
 70
     0
  9
$DIMALTD
 70
     3
  9
$DIMALTF
 40
0.039370078
  9
$DIMLFAC
 40
1.0
  9
$DIMTOFL
 70
     0
  9
$DIMTVP
 40
0.0
  9
$DIMTIX
 70
     0
  9
$DIMSOXD
 70
     0
  9
$DIMSAH
 70
     0
  9
$DIMBLK1
  1

  9
$DIMBLK2
  1

  9
$DIMSTYLE
  2
SANDVIK_STYLE
  9
$DIMCLRD
 70
     0
  9
$DIMCLRE
 70
     0
  9
$DIMCLRT
 70
     0
  9
$DIMTFAC
 40
1.0
  9
$DIMGAP
 40
0.625
  9
$DIMJUST
 70
     0
  9
$DIMSD1
 70
     0
  9
$DIMSD2
 70
     0
  9
$DIMTOLJ
 70
     0
  9
$DIMTZIN
 70
     8
  9
$DIMALTZ
 70
     0
  9
$DIMALTTZ
 70
     0
  9
$DIMUPT
 70
     0
  9
$DIMDEC
 70
     2
  9
$DIMTDEC
 70
     2
  9
$DIMALTU
 70
     2
  9
$DIMALTTD
 70
     3
  9
$DIMTXSTY
  7
SIMPLEX
  9
$DIMAUNIT
 70
     0
  9
$DIMADEC
 70
     2
  9
$DIMALTRND
 40
0.0
  9
$DIMAZIN
 70
     2
  9
$DIMDSEP
 70
    46
  9
$DIMATFIT
 70
     3
  9
$DIMFRAC
 70
     0
  9
$DIMLDRBLK
  1

  9
$DIMLUNIT
 70
     2
  9
$DIMLWD
 70
    -2
  9
$DIMLWE
 70
    -2
  9
$DIMTMOVE
 70
     0
  9
$LUNITS
 70
     2
  9
$LUPREC
 70
     4
  9
$SKETCHINC
 40
1.0
  9
$FILLETRAD
 40
0.0
  9
$AUNITS
 70
     0
  9
$AUPREC
 70
     0
  9
$MENU
  1
c:\tdm21\cad\caduti13\tdm13
  9
$ELEVATION
 40
0.0
  9
$PELEVATION
 40
0.0
  9
$THICKNESS
 40
0.0
  9
$LIMCHECK
 70
     0
  9
$CHAMFERA
 40
0.0
  9
$CHAMFERB
 40
0.0
  9
$CHAMFERC
 40
0.0
  9
$CHAMFERD
 40
0.0
  9
$SKPOLY
 70
     0
  9
$TDCREATE
 40
2455883.643486840
  9
$TDUCREATE
 40
2455883.560153508
  9
$TDUPDATE
 40
2456817.856398854
  9
$TDUUPDATE
 40
2456817.773065521
  9
$TDINDWG
 40
0.0014898148
  9
$TDUSRTIMER
 40
0.0014897685
  9
$USRTIMER
 70
     1
  9
$ANGBASE
 50
0.0
  9
$ANGDIR
 70
     0
  9
$PDMODE
 70
     1
  9
$PDSIZE
 40
0.0
  9
$PLINEWID
 40
0.0
  9
$SPLFRAME
 70
     0
  9
$SPLINETYPE
 70
     6
  9
$SPLINESEGS
 70
     8
  9
$HANDSEED
  5
2E67A
  9
$SURFTAB1
 70
     6
  9
$SURFTAB2
 70
     6
  9
$SURFTYPE
 70
     6
  9
$SURFU
 70
     6
  9
$SURFV
 70
     6
  9
$UCSBASE
  2

  9
$UCSNAME
  2

  9
$UCSORG
 10
0.0
 20
0.0
 30
0.0
  9
$UCSXDIR
 10
1.0
 20
0.0
 30
0.0
  9
$UCSYDIR
 10
0.0
 20
1.0
 30
0.0
  9
$UCSORTHOREF
  2

  9
$UCSORTHOVIEW
 70
     0
  9
$UCSORGTOP
 10
0.0
 20
0.0
 30
0.0
  9
$UCSORGBOTTOM
 10
0.0
 20
0.0
 30
0.0
  9
$UCSORGLEFT
 10
0.0
 20
0.0
 30
0.0
  9
$UCSORGRIGHT
 10
0.0
 20
0.0
 30
0.0
  9
$UCSORGFRONT
 10
0.0
 20
0.0
 30
0.0
  9
$UCSORGBACK
 10
0.0
 20
0.0
 30
0.0
  9
$PUCSBASE
  2

  9
$PUCSNAME
  2

  9
$PUCSORG
 10
0.0
 20
0.0
 30
0.0
  9
$PUCSXDIR
 10
1.0
 20
0.0
 30
0.0
  9
$PUCSYDIR
 10
0.0
 20
1.0
 30
0.0
  9
$PUCSORTHOREF
  2

  9
$PUCSORTHOVIEW
 70
     0
  9
$PUCSORGTOP
 10
0.0
 20
0.0
 30
0.0
  9
$PUCSORGBOTTOM
 10
0.0
 20
0.0
 30
0.0
  9
$PUCSORGLEFT
 10
0.0
 20
0.0
 30
0.0
  9
$PUCSORGRIGHT
 10
0.0
 20
0.0
 30
0.0
  9
$PUCSORGFRONT
 10
0.0
 20
0.0
 30
0.0
  9
$PUCSORGBACK
 10
0.0
 20
0.0
 30
0.0
  9
$USERI1
 70
     0
  9
$USERI2
 70
     0
  9
$USERI3
 70
     0
  9
$USERI4
 70
     0
  9
$USERI5
 70
     0
  9
$USERR1
 40
0.0
  9
$USERR2
 40
0.0
  9
$USERR3
 40
0.0
  9
$USERR4
 40
0.0
  9
$USERR5
 40
0.0
  9
$WORLDVIEW
 70
     1
  9
$SHADEDGE
 70
     3
  9
$SHADEDIF
 70
    70
  9
$TILEMODE
 70
     1
  9
$MAXACTVP
 70
    64
  9
$PINSBASE
 10
0.0
 20
0.0
 30
0.0
  9
$PLIMCHECK
 70
     0
  9
$PEXTMIN
 10
0.0
 20
0.0
 30
0.0
  9
$PEXTMAX
 10
0.0
 20
0.0
 30
0.0
  9
$PLIMMIN
 10
0.0
 20
0.0
  9
$PLIMMAX
 10
12.0
 20
9.0
  9
$UNITMODE
 70
     0
  9
$VISRETAIN
 70
     0
  9
$PLINEGEN
 70
     0
  9
$PSLTSCALE
 70
     1
  9
$TREEDEPTH
 70
  3020
  9
$CMLSTYLE
  2
STANDARD
  9
$CMLJUST
 70
     0
  9
$CMLSCALE
 40
20.0
  9
$PROXYGRAPHICS
 70
     1
  9
$MEASUREMENT
 70
     1
  9
$CELWEIGHT
370
    -1
  9
$ENDCAPS
280
     0
  9
$JOINSTYLE
280
     0
  9
$LWDISPLAY
290
     0
  9
$INSUNITS
 70
     4
  9
$HYPERLINKBASE
  1

  9
$STYLESHEET
  1
MONOCHROME.CTB
  9
$XEDIT
290
     1
  9
$CEPSNTYPE
380
     0
  9
$PSTYLEMODE
290
     1
  9
$FINGERPRINTGUID
  2
{2541ECFD-A15C-4867-AF57-EDFAAE528261}
  9
$VERSIONGUID
  2
{1F31473E-A363-4381-BA90-832DE6EC6580}
  9
$EXTNAMES
290
     1
  9
$PSVPSCALE
 40
0.0
  9
$OLESTARTUP
290
     0
  0
ENDSEC
  0
SECTION
  2
CLASSES
  0
CLASS
  1
ACDBDICTIONARYWDFLT
  2
AcDbDictionaryWithDefault
  3
ObjectDBX Classes
 90
        0
280
     0
281
     0
  0
CLASS
  1
ACDBPLACEHOLDER
  2
AcDbPlaceHolder
  3
ObjectDBX Classes
 90
        0
280
     0
281
     0
  0
CLASS
  1
LAYOUT
  2
AcDbLayout
  3
ObjectDBX Classes
 90
        0
280
     0
281
     0
  0
CLASS
  1
DICTIONARYVAR
  2
AcDbDictionaryVar
  3
ObjectDBX Classes
 90
        0
280
     0
281
     0
  0
CLASS
  1
TABLESTYLE
  2
AcDbTableStyle
  3
ObjectDBX Classes
 90
     4095
280
     0
281
     0
  0
CLASS
  1
MATERIAL
  2
AcDbMaterial
  3
ObjectDBX Classes
 90
     1153
280
     0
281
     0
  0
CLASS
  1
VISUALSTYLE
  2
AcDbVisualStyle
  3
ObjectDBX Classes
 90
     4095
280
     0
281
     0
  0
CLASS
  1
SCALE
  2
AcDbScale
  3
ObjectDBX Classes
 90
     1153
280
     0
281
     0
  0
CLASS
  1
MLEADERSTYLE
  2
AcDbMLeaderStyle
  3
ACDB_MLEADERSTYLE_CLASS
 90
     4095
280
     0
281
     0
  0
CLASS
  1
CELLSTYLEMAP
  2
AcDbCellStyleMap
  3
ObjectDBX Classes
 90
     1152
280
     0
281
     0
  0
CLASS
  1
SORTENTSTABLE
  2
AcDbSortentsTable
  3
ObjectDBX Classes
 90
        0
280
     0
281
     0
  0
CLASS
  1
ACDBSECTIONVIEWSTYLE
  2
AcDbSectionViewStyle
  3
ObjectDBX Classes
 90
     1025
280
     0
281
     0
  0
CLASS
  1
ACDBDETAILVIEWSTYLE
  2
AcDbDetailViewStyle
  3
ObjectDBX Classes
 90
     1025
280
     0
281
     0
  0
CLASS
  1
EXACXREFPANELOBJECT
  2
ExAcXREFPanelObject
  3
EXAC_ESW
 90
     1025
280
     0
281
     0
  0
CLASS
  1
NPOCOLLECTION
  2
AcDbImpNonPersistentObjectsCollection
  3
ObjectDBX Classes
 90
     1153
280
     0
281
     0
  0
ENDSEC
  0
SECTION
  2
TABLES
  0
TABLE
  2
VPORT
  5
8
330
0
100
AcDbSymbolTable
 70
     1
  0
VPORT
  5
3ED
330
8
100
AcDbSymbolTableRecord
100
AcDbViewportTableRecord
  2
*Active
 70
     0
 10
0.0
 20
0.0
 11
1.0
 21
1.0
 12
38.87835837991258
 22
7.633515361968367
 13
0.0
 23
0.0
 14
5.0
 24
5.0
 15
5.0
 25
5.0
 16
0.0
 26
0.0
 36
1.0
 17
0.0
 27
0.0
 37
0.0
 40
81.23785180456032
 41
2.2
 42
50.0
 43
0.0
 44
0.0
 50
0.0
 51
0.0
 71
     0
 72
  2000
 73
     1
 74
     1
 75
     0
 76
     0
 77
     0
 78
     0
281
     0
 65
     1
110
0.0
120
0.0
130
0.0
111
1.0
121
0.0
131
0.0
112
0.0
122
1.0
132
0.0
 79
     0
146
0.0
1001
ACAD_NAV_VCDISPLAY
1070
     3
  0
ENDTAB
  0
TABLE
  2
LTYPE
  5
5
330
0
100
AcDbSymbolTable
 70
    28
  0
LTYPE
  5
12
330
5
100
AcDbSymbolTableRecord
100
AcDbLinetypeTableRecord
  2
BYBLOCK
 70
     0
  3

 72
    65
 73
     0
 40
0.0
  0
LTYPE
  5
13
330
5
100
AcDbSymbolTableRecord
100
AcDbLinetypeTableRecord
  2
BYLAYER
 70
     0
  3

 72
    65
 73
     0
 40
0.0
  0
LTYPE
  5
14
330
5
100
AcDbSymbolTableRecord
100
AcDbLinetypeTableRecord
  2
CONTINUOUS
 70
     0
  3
Solid line
 72
    65
 73
     0
 40
0.0
  0
LTYPE
  5
2E2C4
330
5
100
AcDbSymbolTableRecord
100
AcDbLinetypeTableRecord
  2
BORDER
 70
     0
  3
__ __ . __ __ . __ __ . __ __ . __ __ . __ __ .
 72
    65
 73
     6
 40
44.45
 49
12.7
 74
     0
 49
-6.349999999999997
 74
     0
 49
12.7
 74
     0
 49
-6.349999999999997
 74
     0
 49
0.0
 74
     0
 49
-6.349999999999997
 74
     0
  0
LTYPE
  5
2E2C5
330
5
100
AcDbSymbolTableRecord
100
AcDbLinetypeTableRecord
  2
BORDER2
 70
     0
  3
__.__.__.__.__.__.__.__.__.__.__.__.__.__.__.__
 72
    65
 73
     6
 40
22.225
 49
6.349999999999997
 74
     0
 49
-3.174999999999998
 74
     0
 49
6.349999999999997
 74
     0
 49
-3.174999999999998
 74
     0
 49
0.0
 74
     0
 49
-3.174999999999998
 74
     0
  0
LTYPE
  5
2E2C6
330
5
100
AcDbSymbolTableRecord
100
AcDbLinetypeTableRecord
  2
BORDERX2
 70
     0
  3
____  ____  .  ____  ____  .  ____  ____  .  __
 72
    65
 73
     6
 40
88.9
 49
25.4
 74
     0
 49
-12.7
 74
     0
 49
25.4
 74
     0
 49
-12.7
 74
     0
 49
0.0
 74
     0
 49
-12.7
 74
     0
  0
LTYPE
  5
2E2C7
330
5
100
AcDbSymbolTableRecord
100
AcDbLinetypeTableRecord
  2
CENTER
 70
     0
  3
____ _ ____ _ ____ _ ____ _ ____ _ ____ _ ____ 
 72
    65
 73
     4
 40
50.8
 49
31.75
 74
     0
 49
-6.349999999999997
 74
     0
 49
6.349999999999997
 74
     0
 49
-6.349999999999997
 74
     0
  0
LTYPE
  5
2E2C8
330
5
100
AcDbSymbolTableRecord
100
AcDbLinetypeTableRecord
  2
CENTER2
 70
     0
  3
___ _ ___ _ ___ _ ___ _ ___ _ ___ _ ___ _ ___ _
 72
    65
 73
     4
 40
28.57499999999999
 49
19.05
 74
     0
 49
-3.174999999999998
 74
     0
 49
3.174999999999998
 74
     0
 49
-3.174999999999998
 74
     0
  0
LTYPE
  5
2E2C9
330
5
100
AcDbSymbolTableRecord
100
AcDbLinetypeTableRecord
  2
CENTERX2
 70
     0
  3
________  __  ________  __  ________  __  _____
 72
    65
 73
     4
 40
101.6
 49
63.5
 74
     0
 49
-12.7
 74
     0
 49
12.7
 74
     0
 49
-12.7
 74
     0
  0
LTYPE
  5
2E2CA
330
5
100
AcDbSymbolTableRecord
100
AcDbLinetypeTableRecord
  2
CENTRE
 70
     0
  3
____ _ ____ _ ____ _ ____ _ ____ _ ____ _ ____ 
 72
    65
 73
     4
 40
50.8
 49
31.75
 74
     0
 49
-6.349999999999997
 74
     0
 49
6.349999999999997
 74
     0
 49
-6.349999999999997
 74
     0
  0
LTYPE
  5
2E2CB
330
5
100
AcDbSymbolTableRecord
100
AcDbLinetypeTableRecord
  2
CENTRE2
 70
     0
  3
___ _ ___ _ ___ _ ___ _ ___ _ ___ _ ___ _ ___ _
 72
    65
 73
     4
 40
28.57499999999999
 49
19.05
 74
     0
 49
-3.174999999999998
 74
     0
 49
3.174999999999998
 74
     0
 49
-3.174999999999998
 74
     0
  0
LTYPE
  5
2E2CC
330
5
100
AcDbSymbolTableRecord
100
AcDbLinetypeTableRecord
  2
CENTREX2
 70
     0
  3
________  __  ________  __  ________  __  _____
 72
    65
 73
     4
 40
101.6
 49
63.5
 74
     0
 49
-12.7
 74
     0
 49
12.7
 74
     0
 49
-12.7
 74
     0
  0
LTYPE
  5
2E2CD
330
5
100
AcDbSymbolTableRecord
100
AcDbLinetypeTableRecord
  2
DASHDOT
 70
     0
  3
__ . __ . __ . __ . __ . __ . __ . __ . __ . __
 72
    65
 73
     4
 40
25.4
 49
12.7
 74
     0
 49
-6.349999999999997
 74
     0
 49
0.0
 74
     0
 49
-6.349999999999997
 74
     0
  0
LTYPE
  5
2E2CE
330
5
100
AcDbSymbolTableRecord
100
AcDbLinetypeTableRecord
  2
DASHDOT2
 70
     0
  3
_._._._._._._._._._._._._._._._._._._._._._._._
 72
    65
 73
     4
 40
12.7
 49
6.349999999999997
 74
     0
 49
-3.174999999999998
 74
     0
 49
0.0
 74
     0
 49
-3.174999999999998
 74
     0
  0
LTYPE
  5
2E2CF
330
5
100
AcDbSymbolTableRecord
100
AcDbLinetypeTableRecord
  2
DASHDOTX2
 70
     0
  3
____  .  ____  .  ____  .  ____  .  ____  .  __
 72
    65
 73
     4
 40
50.8
 49
25.4
 74
     0
 49
-12.7
 74
     0
 49
0.0
 74
     0
 49
-12.7
 74
     0
  0
LTYPE
  5
2E2D0
330
5
100
AcDbSymbolTableRecord
100
AcDbLinetypeTableRecord
  2
DASHED
 70
     0
  3
__ __ __ __ __ __ __ __ __ __ __ __ __ __ __ __
 72
    65
 73
     2
 40
19.05
 49
12.7
 74
     0
 49
-6.349999999999997
 74
     0
  0
LTYPE
  5
2E2D1
330
5
100
AcDbSymbolTableRecord
100
AcDbLinetypeTableRecord
  2
DASHED2
 70
     0
  3
_ _ _ _ _ _ _ _ _ _ _ _ _ _ _ _ _ _ _ _ _ _ _ _
 72
    65
 73
     2
 40
9.525
 49
6.349999999999997
 74
     0
 49
-3.174999999999998
 74
     0
  0
LTYPE
  5
2E2D2
330
5
100
AcDbSymbolTableRecord
100
AcDbLinetypeTableRecord
  2
DASHEDX2
 70
     0
  3
____  ____  ____  ____  ____  ____  ____  ____ 
 72
    65
 73
     2
 40
38.1
 49
25.4
 74
     0
 49
-12.7
 74
     0
  0
LTYPE
  5
2E2D3
330
5
100
AcDbSymbolTableRecord
100
AcDbLinetypeTableRecord
  2
DIVIDE
 70
     0
  3
____ . . ____ . . ____ . . ____ . . ____ . . __
 72
    65
 73
     6
 40
31.75
 49
12.7
 74
     0
 49
-6.349999999999997
 74
     0
 49
0.0
 74
     0
 49
-6.349999999999997
 74
     0
 49
0.0
 74
     0
 49
-6.349999999999997
 74
     0
  0
LTYPE
  5
2E2D4
330
5
100
AcDbSymbolTableRecord
100
AcDbLinetypeTableRecord
  2
DIVIDE2
 70
     0
  3
__..__..__..__..__..__..__..__..__..__..__..__.
 72
    65
 73
     6
 40
15.875
 49
6.349999999999997
 74
     0
 49
-3.174999999999998
 74
     0
 49
0.0
 74
     0
 49
-3.174999999999998
 74
     0
 49
0.0
 74
     0
 49
-3.174999999999998
 74
     0
  0
LTYPE
  5
2E2D5
330
5
100
AcDbSymbolTableRecord
100
AcDbLinetypeTableRecord
  2
DIVIDEX2
 70
     0
  3
________  .  .  ________  .  .  ________  .  . 
 72
    65
 73
     6
 40
63.5
 49
25.4
 74
     0
 49
-12.7
 74
     0
 49
0.0
 74
     0
 49
-12.7
 74
     0
 49
0.0
 74
     0
 49
-12.7
 74
     0
  0
LTYPE
  5
2E2D6
330
5
100
AcDbSymbolTableRecord
100
AcDbLinetypeTableRecord
  2
DOT
 70
     0
  3
. . . . . . . . . . . . . . . . . . . . . . . .
 72
    65
 73
     2
 40
6.349999999999997
 49
0.0
 74
     0
 49
-6.349999999999997
 74
     0
  0
LTYPE
  5
2E2D7
330
5
100
AcDbSymbolTableRecord
100
AcDbLinetypeTableRecord
  2
DOT2
 70
     0
  3
...............................................
 72
    65
 73
     2
 40
3.174999999999998
 49
0.0
 74
     0
 49
-3.174999999999998
 74
     0
  0
LTYPE
  5
2E2D8
330
5
100
AcDbSymbolTableRecord
100
AcDbLinetypeTableRecord
  2
DOTX2
 70
     0
  3
.  .  .  .  .  .  .  .  .  .  .  .  .  .  .  . 
 72
    65
 73
     2
 40
12.7
 49
0.0
 74
     0
 49
-12.7
 74
     0
  0
LTYPE
  5
2E2D9
330
5
100
AcDbSymbolTableRecord
100
AcDbLinetypeTableRecord
  2
HIDDEN
 70
     0
  3
__ __ __ __ __ __ __ __ __ __ __ __ __ __ __ __
 72
    65
 73
     2
 40
9.525
 49
6.349999999999997
 74
     0
 49
-3.174999999999998
 74
     0
  0
LTYPE
  5
2E2DA
330
5
100
AcDbSymbolTableRecord
100
AcDbLinetypeTableRecord
  2
HIDDEN2
 70
     0
  3
_ _ _ _ _ _ _ _ _ _ _ _ _ _ _ _ _ _ _ _ _ _ _ _
 72
    65
 73
     2
 40
4.7625
 49
3.174999999999998
 74
     0
 49
-1.587499999999999
 74
     0
  0
LTYPE
  5
2E2DB
330
5
100
AcDbSymbolTableRecord
100
AcDbLinetypeTableRecord
  2
HIDDENX2
 70
     0
  3
____ ____ ____ ____ ____ ____ ____ ____ ____ __
 72
    65
 73
     2
 40
19.05
 49
12.7
 74
     0
 49
-6.349999999999997
 74
     0
  0
LTYPE
  5
2E2DC
330
5
100
AcDbSymbolTableRecord
100
AcDbLinetypeTableRecord
  2
PHANTOM
 70
     0
  3
______  __  __  ______  __  __  ______  __  __ 
 72
    65
 73
     6
 40
63.5
 49
31.75
 74
     0
 49
-6.349999999999997
 74
     0
 49
6.349999999999997
 74
     0
 49
-6.349999999999997
 74
     0
 49
6.349999999999997
 74
     0
 49
-6.349999999999997
 74
     0
  0
LTYPE
  5
2E2DD
330
5
100
AcDbSymbolTableRecord
100
AcDbLinetypeTableRecord
  2
PHANTOM2
 70
     0
  3
___ _ _ ___ _ _ ___ _ _ ___ _ _ ___ _ _ ___ _ _
 72
    65
 73
     6
 40
31.75
 49
15.875
 74
     0
 49
-3.174999999999998
 74
     0
 49
3.174999999999998
 74
     0
 49
-3.174999999999998
 74
     0
 49
3.174999999999998
 74
     0
 49
-3.174999999999998
 74
     0
  0
LTYPE
  5
2E2DE
330
5
100
AcDbSymbolTableRecord
100
AcDbLinetypeTableRecord
  2
PHANTOMX2
 70
     0
  3
____________    ____    ____    ____________   
 72
    65
 73
     6
 40
127.0
 49
63.5
 74
     0
 49
-12.7
 74
     0
 49
12.7
 74
     0
 49
-12.7
 74
     0
 49
12.7
 74
     0
 49
-12.7
 74
     0
  0
ENDTAB
  0
TABLE
  2
LAYER
  5
2
330
0
100
AcDbSymbolTable
 70
    25
  0
LAYER
  5
F
102
{ACAD_XDICTIONARY
360
2E607
102
}
330
2
100
AcDbSymbolTableRecord
100
AcDbLayerTableRecord
  2
0
 70
     0
 62
     7
  6
CONTINUOUS
370
    -3
390
300
  0
LAYER
  5
23
102
{ACAD_XDICTIONARY
360
2E609
102
}
330
2
100
AcDbSymbolTableRecord
100
AcDbLayerTableRecord
  2
1
 70
     0
 62
     4
  6
CONTINUOUS
370
    -3
390
300
  0
LAYER
  5
2E2DF
102
{ACAD_XDICTIONARY
360
2E60B
102
}
330
2
100
AcDbSymbolTableRecord
100
AcDbLayerTableRecord
  2
2
 70
     0
 62
     7
  6
CONTINUOUS
370
    -3
390
300
  0
LAYER
  5
2E2E0
330
2
100
AcDbSymbolTableRecord
100
AcDbLayerTableRecord
  2
DEFPOINTS
 70
     0
 62
     7
  6
CONTINUOUS
290
     0
370
    -3
390
300
  0
LAYER
  5
2E2E1
102
{ACAD_XDICTIONARY
360
2E60D
102
}
330
2
100
AcDbSymbolTableRecord
100
AcDbLayerTableRecord
  2
IGES_FRZ
 70
     0
 62
     7
  6
CONTINUOUS
370
    -3
390
300
  0
LAYER
  5
2E2E2
102
{ACAD_XDICTIONARY
360
2E60F
102
}
330
2
100
AcDbSymbolTableRecord
100
AcDbLayerTableRecord
  2
95
 70
     0
 62
     7
  6
CONTINUOUS
370
    -3
390
300
  0
LAYER
  5
2E2E3
102
{ACAD_XDICTIONARY
360
2E611
102
}
330
2
100
AcDbSymbolTableRecord
100
AcDbLayerTableRecord
  2
95_TOP
 70
     0
 62
     7
  6
CONTINUOUS
370
    -3
390
300
  0
LAYER
  5
2E2E4
102
{ACAD_XDICTIONARY
360
2E613
102
}
330
2
100
AcDbSymbolTableRecord
100
AcDbLayerTableRecord
  2
90
 70
     0
 62
     7
  6
CONTINUOUS
370
    -3
390
300
  0
LAYER
  5
2E2E5
102
{ACAD_XDICTIONARY
360
2E615
102
}
330
2
100
AcDbSymbolTableRecord
100
AcDbLayerTableRecord
  2
90_TOP
 70
     0
 62
     7
  6
CONTINUOUS
370
    -3
390
300
  0
LAYER
  5
2E2E6
102
{ACAD_XDICTIONARY
360
2E617
102
}
330
2
100
AcDbSymbolTableRecord
100
AcDbLayerTableRecord
  2
91
 70
     0
 62
     7
  6
CONTINUOUS
370
    -3
390
300
  0
LAYER
  5
2E2E7
102
{ACAD_XDICTIONARY
360
2E619
102
}
330
2
100
AcDbSymbolTableRecord
100
AcDbLayerTableRecord
  2
91_TOP
 70
     0
 62
     7
  6
CONTINUOUS
370
    -3
390
300
  0
LAYER
  5
2E2E8
102
{ACAD_XDICTIONARY
360
2E61B
102
}
330
2
100
AcDbSymbolTableRecord
100
AcDbLayerTableRecord
  2
IGES
 70
     0
 62
     7
  6
CONTINUOUS
370
    -3
390
300
  0
LAYER
  5
2E2E9
102
{ACAD_XDICTIONARY
360
2E61D
102
}
330
2
100
AcDbSymbolTableRecord
100
AcDbLayerTableRecord
  2
11
 70
     0
 62
     4
  6
CONTINUOUS
370
    -3
390
300
  0
LAYER
  5
2E2EA
102
{ACAD_XDICTIONARY
360
2E61F
102
}
330
2
100
AcDbSymbolTableRecord
100
AcDbLayerTableRecord
  2
20
 70
     0
 62
     7
  6
CONTINUOUS
370
    -3
390
300
  0
LAYER
  5
2E2EB
102
{ACAD_XDICTIONARY
360
2E621
102
}
330
2
100
AcDbSymbolTableRecord
100
AcDbLayerTableRecord
  2
12
 70
     0
 62
     7
  6
CONTINUOUS
370
    -3
390
300
  0
LAYER
  5
2E2EC
102
{ACAD_XDICTIONARY
360
2E623
102
}
330
2
100
AcDbSymbolTableRecord
100
AcDbLayerTableRecord
  2
3
 70
     0
 62
     1
  6
HIDDEN
370
    -3
390
300
  0
LAYER
  5
2E2ED
102
{ACAD_XDICTIONARY
360
2E625
102
}
330
2
100
AcDbSymbolTableRecord
100
AcDbLayerTableRecord
  2
13
 70
     0
 62
     1
  6
HIDDEN
370
    -3
390
300
  0
LAYER
  5
2E2EE
102
{ACAD_XDICTIONARY
360
2E627
102
}
330
2
100
AcDbSymbolTableRecord
100
AcDbLayerTableRecord
  2
4
 70
     0
 62
     2
  6
CENTER
370
    -3
390
300
  0
LAYER
  5
2E2EF
102
{ACAD_XDICTIONARY
360
2E629
102
}
330
2
100
AcDbSymbolTableRecord
100
AcDbLayerTableRecord
  2
14
 70
     0
 62
     2
  6
CENTER
370
    -3
390
300
  0
LAYER
  5
2E2F0
102
{ACAD_XDICTIONARY
360
2E62B
102
}
330
2
100
AcDbSymbolTableRecord
100
AcDbLayerTableRecord
  2
5
 70
     0
 62
    -7
  6
CONTINUOUS
370
    -3
390
300
  0
LAYER
  5
2E2F1
102
{ACAD_XDICTIONARY
360
2E62D
102
}
330
2
100
AcDbSymbolTableRecord
100
AcDbLayerTableRecord
  2
6
 70
     0
 62
     5
  6
CONTINUOUS
370
    -3
390
300
  0
LAYER
  5
2E2F2
102
{ACAD_XDICTIONARY
360
2E62F
102
}
330
2
100
AcDbSymbolTableRecord
100
AcDbLayerTableRecord
  2
16
 70
     0
 62
     5
  6
CONTINUOUS
370
    -3
390
300
  0
LAYER
  5
2E2F3
102
{ACAD_XDICTIONARY
360
2E631
102
}
330
2
100
AcDbSymbolTableRecord
100
AcDbLayerTableRecord
  2
80
 70
     0
 62
     2
  6
CENTER
370
    -3
390
300
  0
LAYER
  5
2E2F4
102
{ACAD_XDICTIONARY
360
2E633
102
}
330
2
100
AcDbSymbolTableRecord
100
AcDbLayerTableRecord
  2
81
 70
     0
 62
     2
  6
CENTER
370
    -3
390
300
  0
LAYER
  5
2E2F5
102
{ACAD_XDICTIONARY
360
2E635
102
}
330
2
100
AcDbSymbolTableRecord
100
AcDbLayerTableRecord
  2
82
 70
     0
 62
     2
  6
CENTER
370
    -3
390
300
  0
ENDTAB
  0
TABLE
  2
STYLE
  5
3
330
0
100
AcDbSymbolTable
 70
     5
  0
STYLE
  5
10
330
3
100
AcDbSymbolTableRecord
100
AcDbTextStyleTableRecord
  2
STANDARD
 70
     0
 40
0.0
 41
1.0
 50
0.0
 71
     0
 42
5.0
  3
txt
  4

  0
STYLE
  5
1E
330
3
100
AcDbSymbolTableRecord
100
AcDbTextStyleTableRecord
  2
SIMPLEX
 70
     0
 40
0.0
 41
1.0
 50
0.0
 71
     0
 42
3.5
  3
simplex
  4

  0
STYLE
  5
2E2F6
330
3
100
AcDbSymbolTableRecord
100
AcDbTextStyleTableRecord
  2
Annotative
 70
     0
 40
0.0
 41
1.0
 50
0.0
 71
     0
 42
0.2
  3
txt
  4

1001
AcadAnnotative
1000
AnnotativeData
1002
{
1070
     1
1070
     1
1002
}
  0
STYLE
  5
2E2F7
330
3
100
AcDbSymbolTableRecord
100
AcDbTextStyleTableRecord
  2
TDM_STYLE
 70
     0
 40
0.0
 41
1.0
 50
0.0
 71
     0
 42
0.2
  3
txt
  4

  0
STYLE
  5
2E2F8
330
3
100
AcDbSymbolTableRecord
100
AcDbTextStyleTableRecord
  2
SANDVIK_STYLE
 70
     0
 40
4.57
 41
1.0
 50
15.0
 71
     0
 42
4.57
  3
simplex.shx
  4

  0
ENDTAB
  0
TABLE
  2
VIEW
  5
6
330
0
100
AcDbSymbolTable
 70
     0
  0
ENDTAB
  0
TABLE
  2
UCS
  5
7
330
0
100
AcDbSymbolTable
 70
     0
  0
ENDTAB
  0
TABLE
  2
APPID
  5
9
330
0
100
AcDbSymbolTable
 70
    11
  0
APPID
  5
11
330
9
100
AcDbSymbolTableRecord
100
AcDbRegAppTableRecord
  2
ACAD
 70
     0
  0
APPID
  5
3A6
330
9
100
AcDbSymbolTableRecord
100
AcDbRegAppTableRecord
  2
ACAD_PSEXT
 70
     0
  0
APPID
  5
3A8
330
9
100
AcDbSymbolTableRecord
100
AcDbRegAppTableRecord
  2
ACAD_EXEMPT_FROM_CAD_STANDARDS
 70
     0
  0
APPID
  5
43E
330
9
100
AcDbSymbolTableRecord
100
AcDbRegAppTableRecord
  2
ACAD_MLEADERVER
 70
     0
  0
APPID
  5
454
330
9
100
AcDbSymbolTableRecord
100
AcDbRegAppTableRecord
  2
ACAD_DSTYLE_DIMJAG
 70
     0
  0
APPID
  5
455
330
9
100
AcDbSymbolTableRecord
100
AcDbRegAppTableRecord
  2
ACAD_DSTYLE_DIMBREAK
 70
     0
  0
APPID
  5
456
330
9
100
AcDbSymbolTableRecord
100
AcDbRegAppTableRecord
  2
ACAD_DSTYLE_DIMTALN
 70
     0
  0
APPID
  5
58A
330
9
100
AcDbSymbolTableRecord
100
AcDbRegAppTableRecord
  2
AcadAnnotative
 70
     0
  0
APPID
  5
58B
330
9
100
AcDbSymbolTableRecord
100
AcDbRegAppTableRecord
  2
ACADIGES
 70
     0
  0
APPID
  5
58C
330
9
100
AcDbSymbolTableRecord
100
AcDbRegAppTableRecord
  2
ACAD_DSTYLE_DIMJOGGED_JOGANGLE_SYMBOL
 70
     0
  0
APPID
  5
2E63A
330
9
100
AcDbSymbolTableRecord
100
AcDbRegAppTableRecord
  2
ACAD_NAV_VCDISPLAY
 70
     0
  0
ENDTAB
  0
TABLE
  2
DIMSTYLE
  5
A
330
0
100
AcDbSymbolTable
 70
     5
100
AcDbDimStyleTable
 71
     1
340
457
  0
DIMSTYLE
105
457
102
{ACAD_REACTORS
330
2E545
330
2E544
330
2E543
330
2E542
330
2E541
330
2E540
102
}
330
A
100
AcDbSymbolTableRecord
100
AcDbDimStyleTableRecord
  2
SANDVIK_STYLE
 70
     0
 41
2.5
 42
0.0
 43
3.75
 44
1.25
 73
     0
 74
     0
 77
     1
 78
     8
 79
     2
140
3.5
141
0.0
143
0.039370078
147
0.625
171
     3
179
     2
271
     2
272
     2
274
     3
283
     0
284
     8
340
1E
1001
ACAD_DSTYLE_DIMBREAK
1070
   391
1040
3.75
1001
ACAD_DSTYLE_DIMJAG
1070
   388
1040
1.5
1001
ACAD_DSTYLE_DIMTALN
1070
   392
1070
     0
  0
DIMSTYLE
105
2E2F9
330
A
100
AcDbSymbolTableRecord
100
AcDbDimStyleTableRecord
  2
ISO-25
 70
     0
 41
2.5
 42
0.625
 43
3.75
 44
1.25
 73
     0
 74
     0
 77
     1
 78
     8
140
2.5
141
2.5
143
0.03937007874016
147
0.625
171
     3
172
     1
271
     2
272
     2
274
     3
278
    44
283
     0
284
     8
340
10
1001
ACAD_DSTYLE_DIMJOGGED_JOGANGLE_SYMBOL
1070
   384
1040
1.570796326794896
  0
DIMSTYLE
105
2E2FA
330
A
100
AcDbSymbolTableRecord
100
AcDbDimStyleTableRecord
  2
STANDARD
 70
     0
 41
3.0
 42
2.5
 43
10.0
 44
2.5
 46
1.25
 73
     0
 74
     0
140
3.0
141
-3.0
143
0.039
145
1.5
146
0.75
147
1.5
271
     2
272
     2
279
     2
340
2E2F7
  0
DIMSTYLE
105
2E2FB
330
A
100
AcDbSymbolTableRecord
100
AcDbDimStyleTableRecord
  2
Annotative
 70
     0
340
10
1001
AcadAnnotative
1000
AnnotativeData
1002
{
1070
     1
1070
     1
1002
}
  0
DIMSTYLE
105
2E2FC
330
A
100
AcDbSymbolTableRecord
100
AcDbDimStyleTableRecord
  2
SANDVIK_DIM
 70
     0
 41
3.0
 42
2.5
 43
10.0
 44
2.5
 46
1.25
 73
     0
 74
     0
140
3.0
141
-3.0
143
0.039
145
1.5
146
0.75
147
1.5
176
   256
177
   256
178
   256
271
     2
272
     2
279
     2
340
2E2F7
  0
ENDTAB
  0
TABLE
  2
BLOCK_RECORD
  5
1
330
0
100
AcDbSymbolTable
 70
    31
  0
BLOCK_RECORD
  5
18
330
1
100
AcDbSymbolTableRecord
100
AcDbBlockTableRecord
  2
*MODEL_SPACE
340
303
  0
BLOCK_RECORD
  5
338
330
1
100
AcDbSymbolTableRecord
100
AcDbBlockTableRecord
  2
*Paper_Space
340
33B
  0
BLOCK_RECORD
  5
2E172
330
1
100
AcDbSymbolTableRecord
100
AcDbBlockTableRecord
  2
$MODEL_SPACE
340
0
  0
BLOCK_RECORD
  5
2E175
330
1
100
AcDbSymbolTableRecord
100
AcDbBlockTableRecord
  2
$PAPER_SPACE
340
0
  0
BLOCK_RECORD
  5
2E178
330
1
100
AcDbSymbolTableRecord
100
AcDbBlockTableRecord
  2
IGES_214_02
340
0
102
{BLKREFS
331
2E180
331
2E182
331
2E18A
331
2E18C
331
2E194
331
2E196
331
2E19E
331
2E1A0
331
2E1A8
331
2E1AA
331
2E1B2
331
2E1B4
102
}
  0
BLOCK_RECORD
  5
2E17D
330
1
100
AcDbSymbolTableRecord
100
AcDbBlockTableRecord
  2
*U3
340
0
  0
BLOCK_RECORD
  5
2E187
330
1
100
AcDbSymbolTableRecord
100
AcDbBlockTableRecord
  2
*U4
340
0
  0
BLOCK_RECORD
  5
2E191
330
1
100
AcDbSymbolTableRecord
100
AcDbBlockTableRecord
  2
*U5
340
0
  0
BLOCK_RECORD
  5
2E19B
330
1
100
AcDbSymbolTableRecord
100
AcDbBlockTableRecord
  2
*U6
340
0
  0
BLOCK_RECORD
  5
2E1A5
330
1
100
AcDbSymbolTableRecord
100
AcDbBlockTableRecord
  2
*U7
340
0
  0
BLOCK_RECORD
  5
2E1AF
330
1
100
AcDbSymbolTableRecord
100
AcDbBlockTableRecord
  2
*U8
340
0
  0
BLOCK_RECORD
  5
2E1B9
330
1
100
AcDbSymbolTableRecord
100
AcDbBlockTableRecord
  2
DVIEWBLOCK
340
0
  0
BLOCK_RECORD
  5
2E1CF
330
1
100
AcDbSymbolTableRecord
100
AcDbBlockTableRecord
  2
*D10
340
0
  0
BLOCK_RECORD
  5
2E1DB
330
1
100
AcDbSymbolTableRecord
100
AcDbBlockTableRecord
  2
*D11
340
0
  0
BLOCK_RECORD
  5
2E1E7
330
1
100
AcDbSymbolTableRecord
100
AcDbBlockTableRecord
  2
*D12
340
0
  0
BLOCK_RECORD
  5
2E1F3
330
1
100
AcDbSymbolTableRecord
100
AcDbBlockTableRecord
  2
*D13
340
0
  0
BLOCK_RECORD
  5
2E1FF
330
1
100
AcDbSymbolTableRecord
100
AcDbBlockTableRecord
  2
*D14
340
0
  0
BLOCK_RECORD
  5
2E20B
330
1
100
AcDbSymbolTableRecord
100
AcDbBlockTableRecord
  2
*D15
340
0
  0
BLOCK_RECORD
  5
2E21A
330
1
100
AcDbSymbolTableRecord
100
AcDbBlockTableRecord
  2
*D16
340
0
  0
BLOCK_RECORD
  5
2E226
330
1
100
AcDbSymbolTableRecord
100
AcDbBlockTableRecord
  2
*D17
340
0
  0
BLOCK_RECORD
  5
2E232
330
1
100
AcDbSymbolTableRecord
100
AcDbBlockTableRecord
  2
*D18
340
0
  0
BLOCK_RECORD
  5
2E23E
330
1
100
AcDbSymbolTableRecord
100
AcDbBlockTableRecord
  2
*U19
340
0
102
{BLKREFS
331
2E237
102
}
  0
BLOCK_RECORD
  5
2E243
330
1
100
AcDbSymbolTableRecord
100
AcDbBlockTableRecord
  2
*D20
340
0
  0
BLOCK_RECORD
  5
2E24F
330
1
100
AcDbSymbolTableRecord
100
AcDbBlockTableRecord
  2
*D21
340
0
  0
BLOCK_RECORD
  5
2E25B
330
1
100
AcDbSymbolTableRecord
100
AcDbBlockTableRecord
  2
*D22
340
0
  0
BLOCK_RECORD
  5
2E26A
330
1
100
AcDbSymbolTableRecord
100
AcDbBlockTableRecord
  2
*D23
340
0
  0
BLOCK_RECORD
  5
2E276
330
1
100
AcDbSymbolTableRecord
100
AcDbBlockTableRecord
  2
*D24
340
0
  0
BLOCK_RECORD
  5
2E282
330
1
100
AcDbSymbolTableRecord
100
AcDbBlockTableRecord
  2
*D25
340
0
  0
BLOCK_RECORD
  5
2E28E
330
1
100
AcDbSymbolTableRecord
100
AcDbBlockTableRecord
  2
*D26
340
0
  0
BLOCK_RECORD
  5
2E29B
330
1
100
AcDbSymbolTableRecord
100
AcDbBlockTableRecord
  2
*D27
340
0
  0
BLOCK_RECORD
  5
2E2A8
330
1
100
AcDbSymbolTableRecord
100
AcDbBlockTableRecord
  2
*D28
340
0
  0
BLOCK_RECORD
  5
2E2B7
102
{ACAD_XDICTIONARY
360
2E2B8
102
}
330
1
100
AcDbSymbolTableRecord
100
AcDbBlockTableRecord
  2
_Zeropoint.dwg
340
0
102
{BLKREFS
331
2E2C2
102
}
  0
BLOCK_RECORD
  5
2E2C0
330
1
100
AcDbSymbolTableRecord
100
AcDbBlockTableRecord
  2
_nullpunkt
340
0
102
{BLKREFS
331
2E548
102
}
1001
ACAD
1000
DesignCenter Data
1002
{
1070
     1
1070
     4
1002
}
  0
ENDTAB
  0
ENDSEC
  0
SECTION
  2
BLOCKS
  0
BLOCK
  5
32
330
18
100
AcDbEntity
  8
0
100
AcDbBlockBegin
  2
*MODEL_SPACE
 70
     0
 10
0.0
 20
0.0
 30
0.0
  3
*MODEL_SPACE
  1

  0
ENDBLK
  5
33
330
18
100
AcDbEntity
  8
0
100
AcDbBlockEnd
  0
BLOCK
  5
339
330
338
100
AcDbEntity
 67
     1
  8
0
100
AcDbBlockBegin
  2
*Paper_Space
 70
     0
 10
0.0
 20
0.0
 30
0.0
  3
*Paper_Space
  1

  0
ENDBLK
  5
33A
330
338
100
AcDbEntity
 67
     1
  8
0
100
AcDbBlockEnd
  0
BLOCK
  5
2E173
330
2E172
100
AcDbEntity
  8
0
100
AcDbBlockBegin
  2
$MODEL_SPACE
 70
     0
 10
0.0
 20
0.0
 30
0.0
  3
$MODEL_SPACE
  1

  0
ENDBLK
  5
2E174
330
2E172
100
AcDbEntity
  8
0
100
AcDbBlockEnd
  0
BLOCK
  5
2E176
330
2E175
100
AcDbEntity
  8
0
100
AcDbBlockBegin
  2
$PAPER_SPACE
 70
     0
 10
0.0
 20
0.0
 30
0.0
  3
$PAPER_SPACE
  1

  0
ENDBLK
  5
2E177
330
2E175
100
AcDbEntity
  8
0
100
AcDbBlockEnd
  0
BLOCK
  5
2E179
330
2E178
100
AcDbEntity
  8
0
100
AcDbBlockBegin
  2
IGES_214_02
 70
     0
 10
0.0
 20
0.0
 30
0.0
  3
IGES_214_02
  1

  0
LWPOLYLINE
  5
2E17A
330
2E178
100
AcDbEntity
  8
0
100
AcDbPolyline
 90
        3
 70
     1
 43
0.0
 10
-1.0
 20
0.5
 10
0.0
 20
0.0
 10
-1.0
 20
-0.5
  0
LINE
  5
2E17B
330
2E178
100
AcDbEntity
  8
0
100
AcDbLine
 10
0.0
 20
0.0
 30
0.0
 11
-1.0
 21
0.0
 31
0.0
  0
ENDBLK
  5
2E17C
330
2E178
100
AcDbEntity
  8
0
100
AcDbBlockEnd
  0
BLOCK
  5
2E17E
330
2E17D
100
AcDbEntity
  8
0
100
AcDbBlockBegin
  2
*U3
 70
     1
 10
0.0
 20
0.0
 30
0.0
  3
*U3
  1
*IGES
  0
TEXT
  5
2E17F
330
2E17D
100
AcDbEntity
  8
20
100
AcDbText
 10
-2.543886
 20
-25.852102
 30
0.0
 40
3.0
  1
17
 41
0.6613156666666669
  7
SANDVIK_STYLE
 72
     5
 11
0.290324
 21
-25.852102
 31
0.0
100
AcDbText
  0
INSERT
  5
2E180
330
2E17D
100
AcDbEntity
  8
20
100
AcDbBlockReference
  2
IGES_214_02
 10
-9.564280999999999
 20
-27.352102
 30
0.0
 41
3.0
 42
0.7899149999999999
 43
3.0
 50
180.0
  0
LINE
  5
2E181
330
2E17D
100
AcDbEntity
  8
20
100
AcDbLine
 10
-6.564280999999997
 20
-27.352102
 30
0.0
 11
-1.126781
 21
-27.352102
 31
0.0
  0
INSERT
  5
2E182
330
2E17D
100
AcDbEntity
  8
20
100
AcDbBlockReference
  2
IGES_214_02
 10
7.310718999999997
 20
-27.352102
 30
0.0
 41
3.0
 42
0.7899149999999999
 43
3.0
  0
LINE
  5
2E183
330
2E17D
100
AcDbEntity
  8
20
100
AcDbLine
 10
4.310718999999997
 20
-27.352102
 30
0.0
 11
-1.126781
 21
-27.352102
 31
0.0
  0
LINE
  5
2E184
330
2E17D
100
AcDbEntity
  8
20
100
AcDbLine
 10
-9.564280999999999
 20
-11.977102
 30
0.0
 11
-9.564280999999999
 21
-30.352102
 31
0.0
  0
LINE
  5
2E185
330
2E17D
100
AcDbEntity
  8
20
100
AcDbLine
 10
7.310718999999997
 20
-6.352101999999997
 30
0.0
 11
7.310718999999997
 21
-30.352102
 31
0.0
  0
ENDBLK
  5
2E186
330
2E17D
100
AcDbEntity
  8
0
100
AcDbBlockEnd
  0
BLOCK
  5
2E188
330
2E187
100
AcDbEntity
  8
0
100
AcDbBlockBegin
  2
*U4
 70
     1
 10
0.0
 20
0.0
 30
0.0
  3
*U4
  1
*IGES
  0
TEXT
  5
2E189
330
2E187
100
AcDbEntity
  8
12
100
AcDbText
 10
-13.756386
 20
122.147898
 30
0.0
 40
3.0
  1
D=50
 41
0.7245613580246914
  7
SANDVIK_STYLE
 72
     5
 11
-5.372175999999997
 21
122.147898
 31
0.0
100
AcDbText
  0
INSERT
  5
2E18A
330
2E187
100
AcDbEntity
  8
12
100
AcDbBlockReference
  2
IGES_214_02
 10
-34.564281
 20
120.6478979999999
 30
0.0
 41
3.0
 42
0.7899149999999999
 43
3.0
 50
180.0
  0
LINE
  5
2E18B
330
2E187
100
AcDbEntity
  8
12
100
AcDbLine
 10
-31.564281
 20
120.6478979999999
 30
0.0
 11
-9.564280999999999
 21
120.6478979999999
 31
0.0
  0
INSERT
  5
2E18C
330
2E187
100
AcDbEntity
  8
12
100
AcDbBlockReference
  2
IGES_214_02
 10
15.435719
 20
120.6478979999999
 30
0.0
 41
3.0
 42
0.7899149999999999
 43
3.0
  0
LINE
  5
2E18D
330
2E187
100
AcDbEntity
  8
12
100
AcDbLine
 10
12.435719
 20
120.6478979999999
 30
0.0
 11
-9.564280999999999
 21
120.6478979999999
 31
0.0
  0
LINE
  5
2E18E
330
2E187
100
AcDbEntity
  8
12
100
AcDbLine
 10
-34.564281
 20
86.64789799999999
 30
0.0
 11
-34.564281
 21
123.647898
 31
0.0
  0
LINE
  5
2E18F
330
2E187
100
AcDbEntity
  8
12
100
AcDbLine
 10
15.435719
 20
86.64789799999999
 30
0.0
 11
15.435719
 21
123.647898
 31
0.0
  0
ENDBLK
  5
2E190
330
2E187
100
AcDbEntity
  8
0
100
AcDbBlockEnd
  0
BLOCK
  5
2E192
330
2E191
100
AcDbEntity
  8
0
100
AcDbBlockBegin
  2
*U5
 70
     1
 10
0.0
 20
0.0
 30
0.0
  3
*U5
  1
*IGES
  0
TEXT
  5
2E193
330
2E191
100
AcDbEntity
  8
12
100
AcDbText
 10
-14.689281
 20
40.889662
 30
0.0
 40
3.0
  1
%%c25.0
 41
0.8396004939759041
  7
SANDVIK_STYLE
 72
     5
 11
-4.734017999999998
 21
40.889662
 31
0.0
100
AcDbText
  0
INSERT
  5
2E194
330
2E191
100
AcDbEntity
  8
12
100
AcDbBlockReference
  2
IGES_214_02
 10
-22.064281
 20
39.389662
 30
0.0
 41
3.0
 42
0.7899149999999999
 43
3.0
 50
180.0
  0
LINE
  5
2E195
330
2E191
100
AcDbEntity
  8
12
100
AcDbLine
 10
-19.064281
 20
39.389662
 30
0.0
 11
-9.564280999999999
 21
39.389662
 31
0.0
  0
INSERT
  5
2E196
330
2E191
100
AcDbEntity
  8
12
100
AcDbBlockReference
  2
IGES_214_02
 10
2.935718999999998
 20
39.389662
 30
0.0
 41
3.0
 42
0.7899149999999999
 43
3.0
  0
LINE
  5
2E197
330
2E191
100
AcDbEntity
  8
12
100
AcDbLine
 10
-0.064281
 20
39.389662
 30
0.0
 11
-9.564280999999999
 21
39.389662
 31
0.0
  0
LINE
  5
2E198
330
2E191
100
AcDbEntity
  8
12
100
AcDbLine
 10
-22.064281
 20
60.79853299999999
 30
0.0
 11
-22.064281
 21
36.389662
 31
0.0
  0
LINE
  5
2E199
330
2E191
100
AcDbEntity
  8
12
100
AcDbLine
 10
2.935718999999998
 20
60.79853299999999
 30
0.0
 11
2.935718999999998
 21
36.389662
 31
0.0
  0
ENDBLK
  5
2E19A
330
2E191
100
AcDbEntity
  8
0
100
AcDbBlockEnd
  0
BLOCK
  5
2E19C
330
2E19B
100
AcDbEntity
  8
0
100
AcDbBlockBegin
  2
*U6
 70
     1
 10
0.0
 20
0.0
 30
0.0
  3
*U6
  1
*IGES
  0
TEXT
  5
2E19D
330
2E19B
100
AcDbEntity
  8
20
100
AcDbText
 10
27.31071899999999
 20
36.62684500000001
 30
0.0
 40
3.0
  1
90.0
 50
90.0
 41
0.7702302343749992
  7
SANDVIK_STYLE
 72
     5
 11
27.31071899999999
 21
43.66895
 31
0.0
100
AcDbText
  0
INSERT
  5
2E19E
330
2E19B
100
AcDbEntity
  8
20
100
AcDbBlockReference
  2
IGES_214_02
 10
28.810719
 20
85.147898
 30
0.0
 41
3.0
 42
0.7899149999999999
 43
3.0
 50
90.0
  0
LINE
  5
2E19F
330
2E19B
100
AcDbEntity
  8
20
100
AcDbLine
 10
28.810719
 20
82.147898
 30
0.0
 11
28.810719
 21
40.14789799999999
 31
0.0
  0
INSERT
  5
2E1A0
330
2E19B
100
AcDbEntity
  8
20
100
AcDbBlockReference
  2
IGES_214_02
 10
28.810719
 20
-4.852101999999998
 30
0.0
 41
3.0
 42
0.7899149999999999
 43
3.0
 50
270.0
  0
LINE
  5
2E1A1
330
2E19B
100
AcDbEntity
  8
20
100
AcDbLine
 10
28.810719
 20
-1.852102
 30
0.0
 11
28.810719
 21
40.14789799999999
 31
0.0
  0
LINE
  5
2E1A2
330
2E19B
100
AcDbEntity
  8
20
100
AcDbLine
 10
16.935719
 20
85.147898
 30
0.0
 11
31.810719
 21
85.147898
 31
0.0
  0
LINE
  5
2E1A3
330
2E19B
100
AcDbEntity
  8
20
100
AcDbLine
 10
8.810719
 20
-4.852101999999998
 30
0.0
 11
31.810719
 21
-4.852101999999998
 31
0.0
  0
ENDBLK
  5
2E1A4
330
2E19B
100
AcDbEntity
  8
0
100
AcDbBlockEnd
  0
BLOCK
  5
2E1A6
330
2E1A5
100
AcDbEntity
  8
0
100
AcDbBlockBegin
  2
*U7
 70
     1
 10
0.0
 20
0.0
 30
0.0
  3
*U7
  1
*IGES
  0
TEXT
  5
2E1A7
330
2E1A5
100
AcDbEntity
  8
12
100
AcDbText
 10
17.31071899999999
 20
25.20216299999999
 30
0.0
 40
3.0
  1
67.2
 50
90.0
 41
0.7702302343750002
  7
SANDVIK_STYLE
 72
     5
 11
17.31071899999999
 21
32.24426799999999
 31
0.0
100
AcDbText
  0
INSERT
  5
2E1A8
330
2E1A5
100
AcDbEntity
  8
12
100
AcDbBlockReference
  2
IGES_214_02
 10
18.810719
 20
62.298533
 30
0.0
 41
3.0
 42
0.7899149999999999
 43
3.0
 50
90.0
  0
LINE
  5
2E1A9
330
2E1A5
100
AcDbEntity
  8
12
100
AcDbLine
 10
18.810719
 20
59.298533
 30
0.0
 11
18.810719
 21
28.723215
 31
0.0
  0
INSERT
  5
2E1AA
330
2E1A5
100
AcDbEntity
  8
12
100
AcDbBlockReference
  2
IGES_214_02
 10
18.810719
 20
-4.852101999999998
 30
0.0
 41
3.0
 42
0.7899149999999999
 43
3.0
 50
270.0
  0
LINE
  5
2E1AB
330
2E1A5
100
AcDbEntity
  8
12
100
AcDbLine
 10
18.810719
 20
-1.852102
 30
0.0
 11
18.810719
 21
28.723215
 31
0.0
  0
LINE
  5
2E1AC
330
2E1A5
100
AcDbEntity
  8
12
100
AcDbLine
 10
4.435718999999997
 20
62.298533
 30
0.0
 11
21.810719
 21
62.298533
 31
0.0
  0
LINE
  5
2E1AD
330
2E1A5
100
AcDbEntity
  8
12
100
AcDbLine
 10
8.810719
 20
-4.852101999999998
 30
0.0
 11
21.810719
 21
-4.852101999999998
 31
0.0
  0
ENDBLK
  5
2E1AE
330
2E1A5
100
AcDbEntity
  8
0
100
AcDbBlockEnd
  0
BLOCK
  5
2E1B0
330
2E1AF
100
AcDbEntity
  8
0
100
AcDbBlockBegin
  2
*U8
 70
     1
 10
0.0
 20
0.0
 30
0.0
  3
*U8
  1
*IGES
  0
TEXT
  5
2E1B1
330
2E1AF
100
AcDbEntity
  8
20
100
AcDbText
 10
-30.332807
 20
-19.399179
 30
0.0
 40
3.0
  1
91%%d0'
 50
314.4999999313378
 41
0.8423444748790743
  7
SANDVIK_STYLE
 72
     5
 11
-24.766112
 21
-25.063889
 31
0.0
100
AcDbText
  0
INSERT
  5
2E1B2
330
2E1AF
100
AcDbEntity
  8
20
100
AcDbBlockReference
  2
IGES_214_02
 10
-36.276009
 20
-4.091293
 30
0.0
 41
3.0
 42
0.7899149999999999
 43
3.0
 50
92.21695999999994
  0
ARC
  5
2E1B3
330
2E1AF
100
AcDbEntity
  8
20
100
AcDbCircle
 10
-9.564280999999999
 20
-4.557547999999997
 30
0.0
 40
26.715797
100
AcDbArc
 50
185.4339219999999
 51
224.5
  0
INSERT
  5
2E1B4
330
2E1AF
100
AcDbEntity
  8
20
100
AcDbBlockReference
  2
IGES_214_02
 10
-9.564280999999999
 20
-31.273345
 30
0.0
 41
3.0
 42
0.7899149999999999
 43
3.0
 50
356.783037
  0
ARC
  5
2E1B5
330
2E1AF
100
AcDbEntity
  8
20
100
AcDbCircle
 10
-9.564280999999999
 20
-4.557547999999997
 30
0.0
 40
26.715797
100
AcDbArc
 50
224.5
 51
263.566079
  0
LINE
  5
2E1B6
330
2E1AF
100
AcDbEntity
  8
20
100
AcDbLine
 10
-11.189052
 20
-4.529187999999996
 30
0.0
 11
-39.275552
 21
-4.038935999999996
 31
0.0
  0
LINE
  5
2E1B7
330
2E1AF
100
AcDbEntity
  8
20
100
AcDbLine
 10
-9.564280999999999
 20
-11.977102
 30
0.0
 11
-9.564280999999999
 21
-34.273345
 31
0.0
  0
ENDBLK
  5
2E1B8
330
2E1AF
100
AcDbEntity
  8
0
100
AcDbBlockEnd
  0
BLOCK
  5
2E1BA
330
2E1B9
100
AcDbEntity
  8
0
100
AcDbBlockBegin
  2
DVIEWBLOCK
 70
     0
 10
0.0
 20
0.0
 30
0.0
  3
DVIEWBLOCK
  1

  0
3DFACE
  5
2E1BB
330
2E1B9
100
AcDbEntity
  8
IGES
100
AcDbFace
 10
0.1
 20
0.1
 30
0.0
 11
0.9
 21
0.1
 31
0.0
 12
0.9
 22
0.9
 32
0.0
 13
0.1
 23
0.9
 33
0.0
  0
3DFACE
  5
2E1BC
330
2E1B9
100
AcDbEntity
  8
IGES
100
AcDbFace
 10
0.1
 20
0.1
 30
0.0
 11
0.1
 21
0.1
 31
0.595
 12
0.2
 22
0.1
 32
0.4
 13
0.2
 23
0.1
 33
0.0
 70
    10
  0
3DFACE
  5
2E1BD
330
2E1B9
100
AcDbEntity
  8
IGES
100
AcDbFace
 10
0.2
 20
0.1
 30
0.4
 11
0.1
 21
0.1
 31
0.595
 12
0.9
 22
0.1
 32
0.595
 13
0.4
 23
0.1
 33
0.4
 70
     5
  0
3DFACE
  5
2E1BE
330
2E1B9
100
AcDbEntity
  8
IGES
100
AcDbFace
 10
0.4
 20
0.1
 30
0.0
 11
0.4
 21
0.1
 31
0.4
 12
0.9
 22
0.1
 32
0.595
 13
0.9
 23
0.1
 33
0.0
 70
    14
  0
3DFACE
  5
2E1BF
330
2E1B9
100
AcDbEntity
  8
IGES
100
AcDbFace
 10
0.2
 20
0.1
 30
0.005
 11
0.2
 21
0.1
 31
0.4
 12
0.34
 22
0.24
 32
0.4
 13
0.34
 23
0.24
 33
0.005
 70
     1
  0
3DFACE
  5
2E1C0
330
2E1B9
100
AcDbEntity
  8
IGES
100
AcDbFace
 10
0.9
 20
0.1
 30
0.0
 11
0.9
 21
0.1
 31
0.595
 12
0.9
 22
0.5
 32
0.9949999999999999
 13
0.9
 23
0.3
 33
0.4
 70
    12
  0
3DFACE
  5
2E1C1
330
2E1B9
100
AcDbEntity
  8
IGES
100
AcDbFace
 10
0.9
 20
0.3
 30
0.4
 11
0.9
 21
0.5
 31
0.9949999999999999
 12
0.9
 22
0.9
 32
0.595
 13
0.9
 23
0.7
 33
0.4
 70
     5
  0
3DFACE
  5
2E1C2
330
2E1B9
100
AcDbEntity
  8
IGES
100
AcDbFace
 10
0.9
 20
0.7
 30
0.4
 11
0.9
 21
0.9
 31
0.595
 12
0.9
 22
0.9
 32
0.0
 13
0.9
 23
0.7
 33
0.2
 70
     7
  0
3DFACE
  5
2E1C3
330
2E1B9
100
AcDbEntity
  8
IGES
100
AcDbFace
 10
0.9
 20
0.7
 30
0.2
 11
0.9
 21
0.9
 31
0.0
 12
0.9
 22
0.1
 32
0.0
 13
0.9
 23
0.3
 33
0.2
 70
     7
  0
3DFACE
  5
2E1C4
330
2E1B9
100
AcDbEntity
  8
IGES
100
AcDbFace
 10
0.9
 20
0.3
 30
0.2
 11
0.9
 21
0.3
 31
0.2
 12
0.9
 22
0.1
 32
0.0
 13
0.9
 23
0.3
 33
0.4
 70
     7
  0
3DFACE
  5
2E1C5
330
2E1B9
100
AcDbEntity
  8
IGES
100
AcDbFace
 10
0.9
 20
0.9
 30
0.0
 11
0.9
 21
0.9
 31
0.595
 12
0.1
 22
0.9
 32
0.595
 13
0.1
 23
0.9
 33
0.0
 70
    12
  0
3DFACE
  5
2E1C6
330
2E1B9
100
AcDbEntity
  8
IGES
100
AcDbFace
 10
0.1
 20
0.9
 30
0.0
 11
0.1
 21
0.9
 31
0.595
 12
0.1
 22
0.5
 32
0.9949999999999999
 13
0.1
 23
0.5
 33
0.0
 70
    12
  0
3DFACE
  5
2E1C7
330
2E1B9
100
AcDbEntity
  8
IGES
100
AcDbFace
 10
0.1
 20
0.5
 30
0.0
 11
0.1
 21
0.5
 31
0.9949999999999999
 12
0.1
 22
0.1
 32
0.595
 13
0.1
 23
0.1
 33
0.0
 70
    13
  0
3DFACE
  5
2E1C8
330
2E1B9
100
AcDbEntity
  8
IGES
100
AcDbFace
 10
0.2
 20
0.6
 30
0.9
 11
0.2
 21
0.6
 31
1.0
 12
0.3
 22
0.6
 32
1.0
 13
0.3
 23
0.6
 33
0.9
 70
     4
  0
3DFACE
  5
2E1C9
330
2E1B9
100
AcDbEntity
  8
IGES
100
AcDbFace
 10
0.3
 20
0.6
 30
0.9
 11
0.3
 21
0.6
 31
1.0
 12
0.3
 22
0.7
 32
1.0
 13
0.3
 23
0.7
 33
0.8
 70
     4
  0
3DFACE
  5
2E1CA
330
2E1B9
100
AcDbEntity
  8
IGES
100
AcDbFace
 10
0.3
 20
0.7
 30
0.8
 11
0.3
 21
0.7
 31
1.0
 12
0.2
 22
0.7
 32
1.0
 13
0.2
 23
0.7
 33
0.8
 70
     4
  0
3DFACE
  5
2E1CB
330
2E1B9
100
AcDbEntity
  8
IGES
100
AcDbFace
 10
0.2
 20
0.7
 30
0.8
 11
0.2
 21
0.7
 31
1.0
 12
0.2
 22
0.6
 32
1.0
 13
0.2
 23
0.6
 33
0.9
 70
     4
  0
3DFACE
  5
2E1CC
330
2E1B9
100
AcDbEntity
  8
IGES
100
AcDbFace
 10
0.0
 20
0.0
 30
0.5
 11
1.0
 21
0.0
 31
0.5
 12
1.0
 22
0.5
 32
1.0
 13
0.0
 23
0.5
 33
1.0
  0
3DFACE
  5
2E1CD
330
2E1B9
100
AcDbEntity
  8
IGES
100
AcDbFace
 10
0.0
 20
0.5
 30
1.0
 11
1.0
 21
0.5
 31
1.0
 12
1.0
 22
1.0
 32
0.5
 13
0.0
 23
1.0
 33
0.5
 70
     1
  0
ENDBLK
  5
2E1CE
330
2E1B9
100
AcDbEntity
  8
0
100
AcDbBlockEnd
  0
BLOCK
  5
2E1D0
330
2E1CF
100
AcDbEntity
  8
0
100
AcDbBlockBegin
  2
*D10
 70
     1
 10
0.0
 20
0.0
 30
0.0
  3
*D10
  1

  0
LINE
  5
2E1D1
330
2E1CF
100
AcDbEntity
  8
0
100
AcDbLine
 10
-9.564280999999999
 20
-12.977102
 30
0.0
 11
-9.564280999999999
 21
-29.852102
 31
0.0
  0
LINE
  5
2E1D2
330
2E1CF
100
AcDbEntity
  8
0
100
AcDbLine
 10
7.310718999999997
 20
-7.352102
 30
0.0
 11
7.310718999999997
 21
-29.852102
 31
0.0
  0
LINE
  5
2E1D3
330
2E1CF
100
AcDbEntity
  8
0
100
AcDbLine
 10
-6.564280999999997
 20
-27.352102
 30
0.0
 11
4.310718999999997
 21
-27.352102
 31
0.0
  0
SOLID
  5
2E1D4
330
2E1CF
100
AcDbEntity
  8
0
100
AcDbTrace
 10
-6.564280999999997
 20
-26.852102
 30
0.0
 11
-6.564280999999997
 21
-27.852102
 31
0.0
 12
-9.564280999999999
 22
-27.352102
 32
0.0
 13
-9.564280999999999
 23
-27.352102
 33
0.0
  0
SOLID
  5
2E1D5
330
2E1CF
100
AcDbEntity
  8
0
100
AcDbTrace
 10
4.310718999999997
 20
-26.852102
 30
0.0
 11
4.310718999999997
 21
-27.852102
 31
0.0
 12
7.310718999999997
 22
-27.352102
 32
0.0
 13
7.310718999999997
 23
-27.352102
 33
0.0
  0
TEXT
  5
2E1D6
330
2E1CF
100
AcDbEntity
  8
0
100
AcDbText
 10
-3.269638142857142
 20
-25.852102
 30
0.0
 40
3.0
  1
17
  7
SANDVIK_STYLE
 72
     1
 11
-1.126781
 21
-24.352102
 31
0.0
100
AcDbText
 73
     2
  0
POINT
  5
2E1D7
330
2E1CF
100
AcDbEntity
  8
DEFPOINTS
100
AcDbPoint
 10
-9.564280999999999
 20
-10.477102
 30
0.0
  0
POINT
  5
2E1D8
330
2E1CF
100
AcDbEntity
  8
DEFPOINTS
100
AcDbPoint
 10
7.310718999999997
 20
-4.852101999999998
 30
0.0
  0
POINT
  5
2E1D9
330
2E1CF
100
AcDbEntity
  8
DEFPOINTS
100
AcDbPoint
 10
7.310718999999997
 20
-27.352102
 30
0.0
  0
ENDBLK
  5
2E1DA
330
2E1CF
100
AcDbEntity
  8
0
100
AcDbBlockEnd
  0
BLOCK
  5
2E1DC
330
2E1DB
100
AcDbEntity
  8
0
100
AcDbBlockBegin
  2
*D11
 70
     1
 10
0.0
 20
0.0
 30
0.0
  3
*D11
  1

  0
LINE
  5
2E1DD
330
2E1DB
100
AcDbEntity
  8
0
100
AcDbLine
 10
-34.564281
 20
87.647898
 30
0.0
 11
-34.564281
 21
123.147898
 31
0.0
  0
LINE
  5
2E1DE
330
2E1DB
100
AcDbEntity
  8
0
100
AcDbLine
 10
15.435719
 20
87.647898
 30
0.0
 11
15.435719
 21
123.147898
 31
0.0
  0
LINE
  5
2E1DF
330
2E1DB
100
AcDbEntity
  8
0
100
AcDbLine
 10
-31.564281
 20
120.6478979999999
 30
0.0
 11
12.435719
 21
120.6478979999999
 31
0.0
  0
SOLID
  5
2E1E0
330
2E1DB
100
AcDbEntity
  8
0
100
AcDbTrace
 10
-31.564281
 20
121.147898
 30
0.0
 11
-31.564281
 21
120.147898
 31
0.0
 12
-34.564281
 22
120.6478979999999
 32
0.0
 13
-34.564281
 23
120.6478979999999
 33
0.0
  0
SOLID
  5
2E1E1
330
2E1DB
100
AcDbEntity
  8
0
100
AcDbTrace
 10
12.435719
 20
121.147898
 30
0.0
 11
12.435719
 21
120.147898
 31
0.0
 12
15.435719
 22
120.6478979999999
 32
0.0
 13
15.435719
 23
120.6478979999999
 33
0.0
  0
TEXT
  5
2E1E2
330
2E1DB
100
AcDbEntity
  8
0
100
AcDbText
 10
-15.34999528571428
 20
122.147898
 30
0.0
 40
3.0
  1
D=50
  7
SANDVIK_STYLE
 72
     1
 11
-9.564280999999999
 21
123.647898
 31
0.0
100
AcDbText
 73
     2
  0
POINT
  5
2E1E3
330
2E1DB
100
AcDbEntity
  8
DEFPOINTS
100
AcDbPoint
 10
-34.564281
 20
85.147898
 30
0.0
  0
POINT
  5
2E1E4
330
2E1DB
100
AcDbEntity
  8
DEFPOINTS
100
AcDbPoint
 10
15.435719
 20
85.147898
 30
0.0
  0
POINT
  5
2E1E5
330
2E1DB
100
AcDbEntity
  8
DEFPOINTS
100
AcDbPoint
 10
15.435719
 20
120.6478979999999
 30
0.0
  0
ENDBLK
  5
2E1E6
330
2E1DB
100
AcDbEntity
  8
0
100
AcDbBlockEnd
  0
BLOCK
  5
2E1E8
330
2E1E7
100
AcDbEntity
  8
0
100
AcDbBlockBegin
  2
*D12
 70
     1
 10
0.0
 20
0.0
 30
0.0
  3
*D12
  1

  0
LINE
  5
2E1E9
330
2E1E7
100
AcDbEntity
  8
0
100
AcDbLine
 10
-22.064281
 20
59.798533
 30
0.0
 11
-22.064281
 21
36.889662
 31
0.0
  0
LINE
  5
2E1EA
330
2E1E7
100
AcDbEntity
  8
0
100
AcDbLine
 10
2.935718999999998
 20
59.798533
 30
0.0
 11
2.935718999999998
 21
36.889662
 31
0.0
  0
LINE
  5
2E1EB
330
2E1E7
100
AcDbEntity
  8
0
100
AcDbLine
 10
-19.064281
 20
39.389662
 30
0.0
 11
-0.064281
 21
39.389662
 31
0.0
  0
SOLID
  5
2E1EC
330
2E1E7
100
AcDbEntity
  8
0
100
AcDbTrace
 10
-19.064281
 20
39.889662
 30
0.0
 11
-19.064281
 21
38.889662
 31
0.0
 12
-22.064281
 22
39.389662
 32
0.0
 13
-22.064281
 23
39.389662
 33
0.0
  0
SOLID
  5
2E1ED
330
2E1E7
100
AcDbEntity
  8
0
100
AcDbTrace
 10
-0.064281
 20
39.889662
 30
0.0
 11
-0.064281
 21
38.889662
 31
0.0
 12
2.935718999999998
 22
39.389662
 32
0.0
 13
2.935718999999998
 23
39.389662
 33
0.0
  0
TEXT
  5
2E1EE
330
2E1E7
100
AcDbEntity
  8
0
100
AcDbText
 10
-15.64022042857143
 20
40.889662
 30
0.0
 40
3.0
  1
%%c25.0
  7
SANDVIK_STYLE
 72
     1
 11
-9.711648999999999
 21
42.389662
 31
0.0
100
AcDbText
 73
     2
  0
POINT
  5
2E1EF
330
2E1E7
100
AcDbEntity
  8
DEFPOINTS
100
AcDbPoint
 10
-22.064281
 20
62.298533
 30
0.0
  0
POINT
  5
2E1F0
330
2E1E7
100
AcDbEntity
  8
DEFPOINTS
100
AcDbPoint
 10
2.935718999999998
 20
62.298533
 30
0.0
  0
POINT
  5
2E1F1
330
2E1E7
100
AcDbEntity
  8
DEFPOINTS
100
AcDbPoint
 10
2.935718999999998
 20
39.389662
 30
0.0
  0
ENDBLK
  5
2E1F2
330
2E1E7
100
AcDbEntity
  8
0
100
AcDbBlockEnd
  0
BLOCK
  5
2E1F4
330
2E1F3
100
AcDbEntity
  8
0
100
AcDbBlockBegin
  2
*D13
 70
     1
 10
0.0
 20
0.0
 30
0.0
  3
*D13
  1

  0
LINE
  5
2E1F5
330
2E1F3
100
AcDbEntity
  8
0
100
AcDbLine
 10
17.93571899999999
 20
85.147898
 30
0.0
 11
31.310719
 21
85.147898
 31
0.0
  0
LINE
  5
2E1F6
330
2E1F3
100
AcDbEntity
  8
0
100
AcDbLine
 10
9.810719
 20
-4.852101999999998
 30
0.0
 11
31.310719
 21
-4.852101999999998
 31
0.0
  0
LINE
  5
2E1F7
330
2E1F3
100
AcDbEntity
  8
0
100
AcDbLine
 10
28.810719
 20
82.147898
 30
0.0
 11
28.810719
 21
-1.852102
 31
0.0
  0
SOLID
  5
2E1F8
330
2E1F3
100
AcDbEntity
  8
0
100
AcDbTrace
 10
28.31071899999999
 20
82.147898
 30
0.0
 11
29.310719
 21
82.147898
 31
0.0
 12
28.810719
 22
85.147898
 32
0.0
 13
28.810719
 23
85.147898
 33
0.0
  0
SOLID
  5
2E1F9
330
2E1F3
100
AcDbEntity
  8
0
100
AcDbTrace
 10
28.31071899999999
 20
-1.852102
 30
0.0
 11
29.310719
 21
-1.852102
 31
0.0
 12
28.810719
 22
-4.852101999999998
 32
0.0
 13
28.810719
 23
-4.852101999999998
 33
0.0
  0
TEXT
  5
2E1FA
330
2E1F3
100
AcDbEntity
  8
0
100
AcDbText
 10
27.31071884042703
 20
35.57646937621154
 30
0.0
 40
3.0
  1
90.0
 50
89.99999800000002
  7
SANDVIK_STYLE
 72
     1
 11
25.81071899999999
 21
40.14789799999999
 31
0.0
100
AcDbText
 73
     2
  0
POINT
  5
2E1FB
330
2E1F3
100
AcDbEntity
  8
DEFPOINTS
100
AcDbPoint
 10
15.435719
 20
85.147898
 30
0.0
  0
POINT
  5
2E1FC
330
2E1F3
100
AcDbEntity
  8
DEFPOINTS
100
AcDbPoint
 10
7.310718999999997
 20
-4.852101999999998
 30
0.0
  0
POINT
  5
2E1FD
330
2E1F3
100
AcDbEntity
  8
DEFPOINTS
100
AcDbPoint
 10
28.810719
 20
-4.852101999999998
 30
0.0
  0
ENDBLK
  5
2E1FE
330
2E1F3
100
AcDbEntity
  8
0
100
AcDbBlockEnd
  0
BLOCK
  5
2E200
330
2E1FF
100
AcDbEntity
  8
0
100
AcDbBlockBegin
  2
*D14
 70
     1
 10
0.0
 20
0.0
 30
0.0
  3
*D14
  1

  0
LINE
  5
2E201
330
2E1FF
100
AcDbEntity
  8
0
100
AcDbLine
 10
5.435718999999997
 20
62.298533
 30
0.0
 11
21.31071899999999
 21
62.298533
 31
0.0
  0
LINE
  5
2E202
330
2E1FF
100
AcDbEntity
  8
0
100
AcDbLine
 10
9.810719
 20
-4.852101999999998
 30
0.0
 11
21.31071899999999
 21
-4.852101999999998
 31
0.0
  0
LINE
  5
2E203
330
2E1FF
100
AcDbEntity
  8
0
100
AcDbLine
 10
18.810719
 20
59.298533
 30
0.0
 11
18.810719
 21
-1.852102
 31
0.0
  0
SOLID
  5
2E204
330
2E1FF
100
AcDbEntity
  8
0
100
AcDbTrace
 10
18.31071899999999
 20
59.298533
 30
0.0
 11
19.310719
 21
59.298533
 31
0.0
 12
18.810719
 22
62.298533
 32
0.0
 13
18.810719
 23
62.298533
 33
0.0
  0
SOLID
  5
2E205
330
2E1FF
100
AcDbEntity
  8
0
100
AcDbTrace
 10
18.31071899999999
 20
-1.852102
 30
0.0
 11
19.310719
 21
-1.852102
 31
0.0
 12
18.810719
 22
-4.852101999999998
 32
0.0
 13
18.810719
 23
-4.852101999999998
 33
0.0
  0
TEXT
  5
2E206
330
2E1FF
100
AcDbEntity
  8
0
100
AcDbText
 10
17.31071884042704
 20
24.15178637621156
 30
0.0
 40
3.0
  1
67.2
 50
89.99999800000002
  7
SANDVIK_STYLE
 72
     1
 11
15.810719
 21
28.723215
 31
0.0
100
AcDbText
 73
     2
  0
POINT
  5
2E207
330
2E1FF
100
AcDbEntity
  8
DEFPOINTS
100
AcDbPoint
 10
2.935718999999998
 20
62.298533
 30
0.0
  0
POINT
  5
2E208
330
2E1FF
100
AcDbEntity
  8
DEFPOINTS
100
AcDbPoint
 10
7.310718999999997
 20
-4.852101999999998
 30
0.0
  0
POINT
  5
2E209
330
2E1FF
100
AcDbEntity
  8
DEFPOINTS
100
AcDbPoint
 10
18.810719
 20
-4.852101999999998
 30
0.0
  0
ENDBLK
  5
2E20A
330
2E1FF
100
AcDbEntity
  8
0
100
AcDbBlockEnd
  0
BLOCK
  5
2E20C
330
2E20B
100
AcDbEntity
  8
0
100
AcDbBlockBegin
  2
*D15
 70
     1
 10
0.0
 20
0.0
 30
0.0
  3
*D15
  1

  0
LINE
  5
2E20D
330
2E20B
100
AcDbEntity
  8
0
100
AcDbLine
 10
-12.1889
 20
-4.511737
 30
0.0
 11
-38.77562800000001
 21
-4.047682
 31
0.0
  0
LINE
  5
2E20E
330
2E20B
100
AcDbEntity
  8
0
100
AcDbLine
 10
-9.564280999999999
 20
-12.977102
 30
0.0
 11
-9.564280999999999
 21
-33.77334499999999
 31
0.0
  0
ARC
  5
2E20F
330
2E20B
100
AcDbEntity
  8
0
100
AcDbCircle
 10
-9.564280999999999
 20
-4.557547999999997
 30
0.0
 40
26.715797
100
AcDbArc
 50
185.4373449999999
 51
212.932451
  0
ARC
  5
2E210
330
2E20B
100
AcDbEntity
  8
0
100
AcDbCircle
 10
-9.564280999999999
 20
-4.557547999999997
 30
0.0
 40
26.715797
100
AcDbArc
 50
236.067588
 51
263.562693
  0
SOLID
  5
2E211
330
2E20B
100
AcDbEntity
  8
0
100
AcDbTrace
 10
-36.65949299999999
 20
-7.108418999999997
 30
0.0
 11
-35.660243
 21
-7.069704999999999
 31
0.0
 12
-36.276009
 22
-4.091311
 32
0.0
 13
-36.276009
 23
-4.091311
 33
0.0
  0
SOLID
  5
2E212
330
2E20B
100
AcDbEntity
  8
0
100
AcDbTrace
 10
-12.531475
 20
-30.605694
 30
0.0
 11
-12.587622
 21
-31.604117
 31
0.0
 12
-9.564280999999999
 22
-31.273345
 32
0.0
 13
-9.564280999999999
 23
-31.273345
 33
0.0
  0
TEXT
  5
2E213
330
2E20B
100
AcDbEntity
  8
0
100
AcDbText
 10
-32.99349120543056
 20
-20.97180149329435
 30
0.0
 40
3.0
  1
91%%d0'
 50
314.5
  7
SANDVIK_STYLE
 72
     1
 11
-28.61932899999999
 21
-23.282904
 31
0.0
100
AcDbText
 73
     2
  0
POINT
  5
2E214
330
2E20B
100
AcDbEntity
  8
DEFPOINTS
100
AcDbPoint
 10
-9.565281
 20
-31.273345
 30
0.0
  0
POINT
  5
2E215
330
2E20B
100
AcDbEntity
  8
DEFPOINTS
100
AcDbPoint
 10
-9.564280999999999
 20
-4.557547999999997
 30
-2.203593999999998
  0
POINT
  5
2E216
330
2E20B
100
AcDbEntity
  8
DEFPOINTS
100
AcDbPoint
 10
-9.564280999999999
 20
-10.477102
 30
-2.203593999999998
  0
POINT
  5
2E217
330
2E20B
100
AcDbEntity
  8
DEFPOINTS
100
AcDbPoint
 10
-9.564280999999999
 20
-4.557547999999997
 30
-2.203593999999998
  0
POINT
  5
2E218
330
2E20B
100
AcDbEntity
  8
DEFPOINTS
100
AcDbPoint
 10
-9.689280999999999
 20
-4.555366
 30
-2.203593999999998
  0
ENDBLK
  5
2E219
330
2E20B
100
AcDbEntity
  8
0
100
AcDbBlockEnd
  0
BLOCK
  5
2E21B
330
2E21A
100
AcDbEntity
  8
0
100
AcDbBlockBegin
  2
*D16
 70
     1
 10
0.0
 20
0.0
 30
0.0
  3
*D16
  1

  0
LINE
  5
2E21C
330
2E21A
100
AcDbEntity
  8
20
100
AcDbLine
 10
-9.564280999999999
 20
-12.977102
 30
0.0
 11
-9.564280999999999
 21
-29.852102
 31
0.0
  0
LINE
  5
2E21D
330
2E21A
100
AcDbEntity
  8
20
100
AcDbLine
 10
7.310718999999997
 20
-7.352101999999997
 30
0.0
 11
7.310718999999997
 21
-29.852102
 31
0.0
  0
LINE
  5
2E21E
330
2E21A
100
AcDbEntity
  8
20
100
AcDbLine
 10
-6.564281000000001
 20
-27.352102
 30
0.0
 11
4.310718999999997
 21
-27.352102
 31
0.0
  0
TEXT
  5
2E21F
330
2E21A
100
AcDbEntity
  8
1
100
AcDbText
 10
-3.269638142857142
 20
-25.852102
 30
0.0
 40
3.0
  1
17
  7
TDM_STYLE
100
AcDbText
  0
SOLID
  5
2E220
330
2E21A
100
AcDbEntity
  8
20
100
AcDbTrace
 10
-6.564281000000001
 20
-26.852102
 30
0.0
 11
-6.564281000000001
 21
-27.852102
 31
0.0
 12
-9.564280999999999
 22
-27.352102
 32
0.0
 13
-9.564280999999999
 23
-27.352102
 33
0.0
  0
SOLID
  5
2E221
330
2E21A
100
AcDbEntity
  8
20
100
AcDbTrace
 10
4.310718999999997
 20
-26.852102
 30
0.0
 11
4.310718999999997
 21
-27.852102
 31
0.0
 12
7.310718999999997
 22
-27.352102
 32
0.0
 13
7.310718999999997
 23
-27.352102
 33
0.0
  0
POINT
  5
2E222
330
2E21A
100
AcDbEntity
  8
DEFPOINTS
 62
     0
100
AcDbPoint
 10
-9.564280999999999
 20
-10.477102
 30
0.0
  0
POINT
  5
2E223
330
2E21A
100
AcDbEntity
  8
DEFPOINTS
 62
     0
100
AcDbPoint
 10
7.310718999999997
 20
-4.852101999999998
 30
0.0
  0
POINT
  5
2E224
330
2E21A
100
AcDbEntity
  8
DEFPOINTS
 62
     0
100
AcDbPoint
 10
7.310718999999997
 20
-27.352102
 30
0.0
  0
ENDBLK
  5
2E225
330
2E21A
100
AcDbEntity
  8
0
100
AcDbBlockEnd
  0
BLOCK
  5
2E227
330
2E226
100
AcDbEntity
  8
0
100
AcDbBlockBegin
  2
*D17
 70
     1
 10
0.0
 20
0.0
 30
0.0
  3
*D17
  1

  0
LINE
  5
2E228
330
2E226
100
AcDbEntity
  8
12
100
AcDbLine
 10
-34.564281
 20
87.647898
 30
0.0
 11
-34.564281
 21
123.147898
 31
0.0
  0
LINE
  5
2E229
330
2E226
100
AcDbEntity
  8
12
100
AcDbLine
 10
15.435719
 20
87.647898
 30
0.0
 11
15.435719
 21
123.147898
 31
0.0
  0
LINE
  5
2E22A
330
2E226
100
AcDbEntity
  8
12
100
AcDbLine
 10
-31.564281
 20
120.6478979999999
 30
0.0
 11
12.435719
 21
120.6478979999999
 31
0.0
  0
TEXT
  5
2E22B
330
2E226
100
AcDbEntity
  8
1
100
AcDbText
 10
-15.34999528571428
 20
122.147898
 30
0.0
 40
3.0
  1
D=50
  7
TDM_STYLE
100
AcDbText
  0
SOLID
  5
2E22C
330
2E226
100
AcDbEntity
  8
12
100
AcDbTrace
 10
-31.564281
 20
121.147898
 30
0.0
 11
-31.564281
 21
120.147898
 31
0.0
 12
-34.564281
 22
120.6478979999999
 32
0.0
 13
-34.564281
 23
120.6478979999999
 33
0.0
  0
SOLID
  5
2E22D
330
2E226
100
AcDbEntity
  8
12
100
AcDbTrace
 10
12.435719
 20
121.147898
 30
0.0
 11
12.435719
 21
120.147898
 31
0.0
 12
15.435719
 22
120.6478979999999
 32
0.0
 13
15.435719
 23
120.6478979999999
 33
0.0
  0
POINT
  5
2E22E
330
2E226
100
AcDbEntity
  8
DEFPOINTS
 62
     0
100
AcDbPoint
 10
-34.564281
 20
85.147898
 30
0.0
  0
POINT
  5
2E22F
330
2E226
100
AcDbEntity
  8
DEFPOINTS
 62
     0
100
AcDbPoint
 10
15.435719
 20
85.147898
 30
0.0
  0
POINT
  5
2E230
330
2E226
100
AcDbEntity
  8
DEFPOINTS
 62
     0
100
AcDbPoint
 10
15.435719
 20
120.6478979999999
 30
0.0
  0
ENDBLK
  5
2E231
330
2E226
100
AcDbEntity
  8
0
100
AcDbBlockEnd
  0
BLOCK
  5
2E233
330
2E232
100
AcDbEntity
  8
0
100
AcDbBlockBegin
  2
*D18
 70
     1
 10
0.0
 20
0.0
 30
0.0
  3
*D18
  1

  0
LINE
  5
2E234
330
2E232
100
AcDbEntity
  8
12
100
AcDbLine
 10
-22.064281
 20
59.798533
 30
0.0
 11
-22.064281
 21
36.889662
 31
0.0
  0
LINE
  5
2E235
330
2E232
100
AcDbEntity
  8
12
100
AcDbLine
 10
2.935718999999998
 20
59.798533
 30
0.0
 11
2.935718999999995
 21
36.889662
 31
0.0
  0
LINE
  5
2E236
330
2E232
100
AcDbEntity
  8
12
100
AcDbLine
 10
-19.064281
 20
39.389662
 30
0.0
 11
-0.0642810000000016
 21
39.389662
 31
0.0
  0
INSERT
  5
2E237
330
2E232
100
AcDbEntity
  8
1
100
AcDbBlockReference
  2
*U19
 10
0.0
 20
0.0
 30
0.0
  0
SOLID
  5
2E238
330
2E232
100
AcDbEntity
  8
12
100
AcDbTrace
 10
-19.064281
 20
39.889662
 30
0.0
 11
-19.064281
 21
38.889662
 31
0.0
 12
-22.064281
 22
39.389662
 32
0.0
 13
-22.064281
 23
39.389662
 33
0.0
  0
SOLID
  5
2E239
330
2E232
100
AcDbEntity
  8
12
100
AcDbTrace
 10
-0.0642810000000016
 20
39.889662
 30
0.0
 11
-0.0642810000000016
 21
38.889662
 31
0.0
 12
2.935718999999998
 22
39.389662
 32
0.0
 13
2.935718999999998
 23
39.389662
 33
0.0
  0
POINT
  5
2E23A
330
2E232
100
AcDbEntity
  8
DEFPOINTS
 62
     0
100
AcDbPoint
 10
-22.064281
 20
62.298533
 30
0.0
  0
POINT
  5
2E23B
330
2E232
100
AcDbEntity
  8
DEFPOINTS
 62
     0
100
AcDbPoint
 10
2.935718999999998
 20
62.298533
 30
0.0
  0
POINT
  5
2E23C
330
2E232
100
AcDbEntity
  8
DEFPOINTS
 62
     0
100
AcDbPoint
 10
2.935718999999998
 20
39.389662
 30
0.0
  0
ENDBLK
  5
2E23D
330
2E232
100
AcDbEntity
  8
0
100
AcDbBlockEnd
  0
BLOCK
  5
2E23F
330
2E23E
100
AcDbEntity
  8
0
100
AcDbBlockBegin
  2
*U19
 70
     1
 10
0.0
 20
0.0
 30
0.0
  3
*U19
  1

  0
TEXT
  5
2E240
330
2E23E
100
AcDbEntity
  8
1
100
AcDbText
 10
-15.64022042857143
 20
40.889662
 30
0.0
 40
3.0
  1
\U+2205
  7
TDM_STYLE
100
AcDbText
  0
TEXT
  5
2E241
330
2E23E
100
AcDbEntity
  8
1
100
AcDbText
 10
-12.92593471428571
 20
40.889662
 30
0.0
 40
3.0
  1
25.0
  7
TDM_STYLE
100
AcDbText
  0
ENDBLK
  5
2E242
330
2E23E
100
AcDbEntity
  8
0
100
AcDbBlockEnd
  0
BLOCK
  5
2E244
330
2E243
100
AcDbEntity
  8
0
100
AcDbBlockBegin
  2
*D20
 70
     1
 10
0.0
 20
0.0
 30
0.0
  3
*D20
  1

  0
LINE
  5
2E245
330
2E243
100
AcDbEntity
  8
20
100
AcDbLine
 10
17.93571899999999
 20
85.147898
 30
0.0
 11
31.31071900000002
 21
85.147898
 31
0.0
  0
LINE
  5
2E246
330
2E243
100
AcDbEntity
  8
20
100
AcDbLine
 10
9.810719
 20
-4.852101999999998
 30
0.0
 11
31.310719
 21
-4.852102000000003
 31
0.0
  0
LINE
  5
2E247
330
2E243
100
AcDbEntity
  8
20
100
AcDbLine
 10
28.81071900000002
 20
82.147898
 30
0.0
 11
28.810719
 21
-1.852102000000003
 31
0.0
  0
TEXT
  5
2E248
330
2E243
100
AcDbEntity
  8
1
100
AcDbText
 10
27.31071884042703
 20
35.57646937621155
 30
0.0
 40
3.0
  1
90.0
 50
89.99999800000002
  7
TDM_STYLE
100
AcDbText
  0
SOLID
  5
2E249
330
2E243
100
AcDbEntity
  8
20
100
AcDbTrace
 10
28.31071900000001
 20
82.147898
 30
0.0
 11
29.31071900000001
 21
82.147898
 31
0.0
 12
28.81071900000002
 22
85.147898
 32
0.0
 13
28.81071900000002
 23
85.147898
 33
0.0
  0
SOLID
  5
2E24A
330
2E243
100
AcDbEntity
  8
20
100
AcDbTrace
 10
28.31071899999999
 20
-1.852102000000003
 30
0.0
 11
29.310719
 21
-1.852102000000003
 31
0.0
 12
28.810719
 22
-4.852102000000003
 32
0.0
 13
28.810719
 23
-4.852102000000003
 33
0.0
  0
POINT
  5
2E24B
330
2E243
100
AcDbEntity
  8
DEFPOINTS
 62
     0
100
AcDbPoint
 10
15.435719
 20
85.147898
 30
0.0
  0
POINT
  5
2E24C
330
2E243
100
AcDbEntity
  8
DEFPOINTS
 62
     0
100
AcDbPoint
 10
7.310718999999997
 20
-4.852101999999998
 30
0.0
  0
POINT
  5
2E24D
330
2E243
100
AcDbEntity
  8
DEFPOINTS
 62
     0
100
AcDbPoint
 10
28.810719
 20
-4.852102000000003
 30
0.0
  0
ENDBLK
  5
2E24E
330
2E243
100
AcDbEntity
  8
0
100
AcDbBlockEnd
  0
BLOCK
  5
2E250
330
2E24F
100
AcDbEntity
  8
0
100
AcDbBlockBegin
  2
*D21
 70
     1
 10
0.0
 20
0.0
 30
0.0
  3
*D21
  1

  0
LINE
  5
2E251
330
2E24F
100
AcDbEntity
  8
12
100
AcDbLine
 10
5.435718999999997
 20
62.298533
 30
0.0
 11
21.31071900000002
 21
62.29853299999999
 31
0.0
  0
LINE
  5
2E252
330
2E24F
100
AcDbEntity
  8
12
100
AcDbLine
 10
9.810719
 20
-4.852101999999998
 30
0.0
 11
21.31071899999999
 21
-4.852102000000003
 31
0.0
  0
LINE
  5
2E253
330
2E24F
100
AcDbEntity
  8
12
100
AcDbLine
 10
18.81071900000001
 20
59.29853299999999
 30
0.0
 11
18.810719
 21
-1.852102
 31
0.0
  0
TEXT
  5
2E254
330
2E24F
100
AcDbEntity
  8
1
100
AcDbText
 10
17.31071884042702
 20
24.15178637621155
 30
0.0
 40
3.0
  1
67.2
 50
89.99999800000002
  7
TDM_STYLE
100
AcDbText
  0
SOLID
  5
2E255
330
2E24F
100
AcDbEntity
  8
12
100
AcDbTrace
 10
18.31071900000001
 20
59.29853299999999
 30
0.0
 11
19.31071900000001
 21
59.29853299999999
 31
0.0
 12
18.81071900000001
 22
62.29853299999999
 32
0.0
 13
18.81071900000001
 23
62.29853299999999
 33
0.0
  0
SOLID
  5
2E256
330
2E24F
100
AcDbEntity
  8
12
100
AcDbTrace
 10
18.31071899999999
 20
-1.852102
 30
0.0
 11
19.310719
 21
-1.852102
 31
0.0
 12
18.810719
 22
-4.852102000000003
 32
0.0
 13
18.810719
 23
-4.852102000000003
 33
0.0
  0
POINT
  5
2E257
330
2E24F
100
AcDbEntity
  8
DEFPOINTS
 62
     0
100
AcDbPoint
 10
2.935718999999998
 20
62.298533
 30
0.0
  0
POINT
  5
2E258
330
2E24F
100
AcDbEntity
  8
DEFPOINTS
 62
     0
100
AcDbPoint
 10
7.310718999999997
 20
-4.852101999999998
 30
0.0
  0
POINT
  5
2E259
330
2E24F
100
AcDbEntity
  8
DEFPOINTS
 62
     0
100
AcDbPoint
 10
18.810719
 20
-4.852102000000003
 30
0.0
  0
ENDBLK
  5
2E25A
330
2E24F
100
AcDbEntity
  8
0
100
AcDbBlockEnd
  0
BLOCK
  5
2E25C
330
2E25B
100
AcDbEntity
  8
0
100
AcDbBlockBegin
  2
*D22
 70
     1
 10
0.0
 20
0.0
 30
0.0
  3
*D22
  1

  0
LINE
  5
2E25D
330
2E25B
100
AcDbEntity
  8
20
100
AcDbLine
 10
-12.18890019710418
 20
-4.511732647295341
 30
0.0
 11
-38.77562783467216
 21
-4.047634729653863
 31
0.0
  0
LINE
  5
2E25E
330
2E25B
100
AcDbEntity
  8
20
100
AcDbLine
 10
-9.564280999999995
 20
-12.977102
 30
0.0
 11
-9.564280999999976
 21
-33.77334501871552
 31
0.0
  0
ARC
  5
2E25F
330
2E25B
100
AcDbEntity
  8
20
100
AcDbCircle
 10
-9.564280999999999
 20
-4.557547999999997
 30
0.0
 40
26.71579701871552
100
AcDbArc
 50
185.4372530801153
 51
211.0493574659412
  0
ARC
  5
2E260
330
2E25B
100
AcDbEntity
  8
20
100
AcDbCircle
 10
-9.564280999999999
 20
-4.557547999999997
 30
0.0
 40
26.71579701871552
100
AcDbArc
 50
237.9505874641872
 51
263.5626933605371
  0
SOLID
  5
2E261
330
2E25B
100
AcDbEntity
  8
20
100
AcDbTrace
 10
-36.65949725406449
 20
-7.108375385889102
 30
0.0
 11
-35.66024685202775
 21
-7.069663191048483
 31
0.0
 12
-36.27600863756799
 22
-4.091268082358521
 32
0.0
 13
-36.27600863756799
 23
-4.091268082358521
 33
0.0
  0
SOLID
  5
2E262
330
2E25B
100
AcDbEntity
  8
20
100
AcDbTrace
 10
-12.53147533562882
 20
-30.60569408101519
 30
0.0
 11
-12.58762189187601
 21
-31.60411661893267
 31
0.0
 12
-9.564280999999981
 22
-31.27334501871552
 32
0.0
 13
-9.564280999999981
 23
-31.27334501871552
 33
0.0
  0
TEXT
  5
2E263
330
2E25B
100
AcDbEntity
  8
20
100
AcDbText
 10
-34.61930000000001
 20
-28.5929
 30
0.0
 40
3.0
  1
91%%d0'
  7
TDM_STYLE
100
AcDbText
  0
POINT
  5
2E264
330
2E25B
100
AcDbEntity
  8
DEFPOINTS
 62
     0
100
AcDbPoint
 10
-32.85470459659772
 20
-17.6453277596175
 30
0.0
  0
POINT
  5
2E265
330
2E25B
100
AcDbEntity
  8
DEFPOINTS
 62
     0
100
AcDbPoint
 10
-9.564280999999999
 20
-4.557547999999997
 30
-2.203593999999998
  0
POINT
  5
2E266
330
2E25B
100
AcDbEntity
  8
DEFPOINTS
 62
     0
100
AcDbPoint
 10
-9.564280999999995
 20
-10.47710199999999
 30
-2.203593999999998
  0
POINT
  5
2E267
330
2E25B
100
AcDbEntity
  8
DEFPOINTS
 62
     0
100
AcDbPoint
 10
-9.564280999999999
 20
-4.557547999999997
 30
-2.203593999999998
  0
POINT
  5
2E268
330
2E25B
100
AcDbEntity
  8
DEFPOINTS
 62
     0
100
AcDbPoint
 10
-9.689280999999999
 20
-4.555366
 30
-2.203593999999998
  0
ENDBLK
  5
2E269
330
2E25B
100
AcDbEntity
  8
0
100
AcDbBlockEnd
  0
BLOCK
  5
2E26B
330
2E26A
100
AcDbEntity
  8
0
100
AcDbBlockBegin
  2
*D23
 70
     1
 10
0.0
 20
0.0
 30
0.0
  3
*D23
  1

  0
LINE
  5
2E5B7
330
2E26A
100
AcDbEntity
  8
20
 62
     0
370
    -2
100
AcDbLine
 10
96.987193
 20
1.258060999999994
 30
0.0
 11
112.112193
 21
1.258060999999988
 31
0.0
  0
LINE
  5
2E5B8
330
2E26A
100
AcDbEntity
  8
20
 62
     0
370
    -2
100
AcDbLine
 10
91.362193
 20
18.13306099999999
 30
0.0
 11
112.112193
 21
18.13306099999998
 31
0.0
  0
LINE
  5
2E5B9
330
2E26A
100
AcDbEntity
  8
20
 62
     0
370
    -2
100
AcDbLine
 10
110.862193
 20
3.75806099999999
 30
0.0
 11
110.862193
 21
15.63306099999998
 31
0.0
  0
SOLID
  5
2E5BA
330
2E26A
100
AcDbEntity
  8
20
 62
     0
100
AcDbTrace
 10
110.4455263333333
 20
3.75806099999999
 30
0.0
 11
111.2788596666666
 21
3.758060999999988
 31
0.0
 12
110.862193
 22
1.25806099999999
 32
0.0
 13
110.862193
 23
1.25806099999999
 33
0.0
  0
SOLID
  5
2E5BB
330
2E26A
100
AcDbEntity
  8
20
 62
     0
100
AcDbTrace
 10
110.4455263333333
 20
15.63306099999998
 30
0.0
 11
111.2788596666666
 21
15.63306099999998
 31
0.0
 12
110.862193
 22
18.13306099999998
 32
0.0
 13
110.862193
 23
18.13306099999998
 33
0.0
  0
MTEXT
  5
2E5BC
330
2E26A
100
AcDbEntity
  8
20
 62
     0
100
AcDbMText
 10
108.487193
 20
9.69556099999999
 30
0.0
 40
3.5
 41
0.0
 71
     5
 72
     1
  1
17
  7
SIMPLEX
 11
0.0000000000000001
 21
1.0
 31
0.0
 73
     1
 44
1.0
1001
ACAD
1000
MTEXTBEGIN
1070
    73
1070
     1
1070
    44
1040
1.0
1070
    74
1070
     0
1000
MTEXTEND
  0
POINT
  5
2E5BD
330
2E26A
100
AcDbEntity
  8
DEFPOINTS
 62
     0
100
AcDbPoint
 10
96.987193
 20
1.258060999999994
 30
0.0
  0
POINT
  5
2E5BE
330
2E26A
100
AcDbEntity
  8
DEFPOINTS
 62
     0
100
AcDbPoint
 10
91.362193
 20
18.13306099999999
 30
0.0
  0
POINT
  5
2E5BF
330
2E26A
100
AcDbEntity
  8
DEFPOINTS
 62
     0
100
AcDbPoint
 10
110.862193
 20
18.13306099999998
 30
0.0
  0
ENDBLK
  5
2E275
330
2E26A
100
AcDbEntity
  8
0
100
AcDbBlockEnd
  0
BLOCK
  5
2E277
330
2E276
100
AcDbEntity
  8
0
100
AcDbBlockBegin
  2
*D24
 70
     1
 10
0.0
 20
0.0
 30
0.0
  3
*D24
  1

  0
LINE
  5
2E5AE
330
2E276
100
AcDbEntity
  8
12
 62
     0
370
    -2
100
AcDbLine
 10
1.362193000000004
 20
-23.74193900000001
 30
0.0
 11
-38.38780700000001
 21
-23.741939
 31
0.0
  0
LINE
  5
2E5AF
330
2E276
100
AcDbEntity
  8
12
 62
     0
370
    -2
100
AcDbLine
 10
1.362193000000004
 20
26.258061
 30
0.0
 11
-38.387807
 21
26.25806100000001
 31
0.0
  0
LINE
  5
2E5B0
330
2E276
100
AcDbEntity
  8
12
 62
     0
370
    -2
100
AcDbLine
 10
-37.13780700000001
 20
-21.241939
 30
0.0
 11
-37.137807
 21
23.75806100000001
 31
0.0
  0
SOLID
  5
2E5B1
330
2E276
100
AcDbEntity
  8
12
 62
     0
100
AcDbTrace
 10
-37.55447366666667
 20
-21.241939
 30
0.0
 11
-36.72114033333335
 21
-21.241939
 31
0.0
 12
-37.13780700000001
 22
-23.741939
 32
0.0
 13
-37.13780700000001
 23
-23.741939
 33
0.0
  0
SOLID
  5
2E5B2
330
2E276
100
AcDbEntity
  8
12
 62
     0
100
AcDbTrace
 10
-37.55447366666665
 20
23.75806100000001
 30
0.0
 11
-36.72114033333333
 21
23.75806100000001
 31
0.0
 12
-37.137807
 22
26.25806100000001
 32
0.0
 13
-37.137807
 23
26.25806100000001
 33
0.0
  0
MTEXT
  5
2E5B3
330
2E276
100
AcDbEntity
  8
12
 62
     0
100
AcDbMText
 10
-39.512807
 20
1.258061
 30
0.0
 40
3.5
 41
0.0
 71
     5
 72
     1
  1
D=50
  7
SIMPLEX
 11
0.0000000000000001
 21
1.0
 31
0.0
 73
     1
 44
1.0
1001
ACAD
1000
MTEXTBEGIN
1070
    73
1070
     1
1070
    44
1040
1.0
1070
    74
1070
     0
1000
MTEXTEND
  0
POINT
  5
2E5B4
330
2E276
100
AcDbEntity
  8
DEFPOINTS
 62
     0
100
AcDbPoint
 10
1.362193000000004
 20
-23.74193900000001
 30
0.0
  0
POINT
  5
2E5B5
330
2E276
100
AcDbEntity
  8
DEFPOINTS
 62
     0
100
AcDbPoint
 10
1.362193000000004
 20
26.258061
 30
0.0
  0
POINT
  5
2E5B6
330
2E276
100
AcDbEntity
  8
DEFPOINTS
 62
     0
100
AcDbPoint
 10
-37.137807
 20
26.25806100000001
 30
0.0
  0
ENDBLK
  5
2E281
330
2E276
100
AcDbEntity
  8
0
100
AcDbBlockEnd
  0
BLOCK
  5
2E283
330
2E282
100
AcDbEntity
  8
0
100
AcDbBlockBegin
  2
*D25
 70
     1
 10
0.0
 20
0.0
 30
0.0
  3
*D25
  1

  0
LINE
  5
2E5A5
330
2E282
100
AcDbEntity
  8
12
 62
     0
370
    -2
100
AcDbLine
 10
24.21155800000001
 20
-11.241939
 30
0.0
 11
45.370429
 21
-11.241939
 31
0.0
  0
LINE
  5
2E5A6
330
2E282
100
AcDbEntity
  8
12
 62
     0
370
    -2
100
AcDbLine
 10
24.21155800000001
 20
13.75806099999999
 30
0.0
 11
45.370429
 21
13.75806099999998
 31
0.0
  0
LINE
  5
2E5A7
330
2E282
100
AcDbEntity
  8
12
 62
     0
370
    -2
100
AcDbLine
 10
44.120429
 20
-8.741939000000009
 30
0.0
 11
44.120429
 21
11.25806099999998
 31
0.0
  0
SOLID
  5
2E5A8
330
2E282
100
AcDbEntity
  8
12
 62
     0
100
AcDbTrace
 10
43.70376233333334
 20
-8.741939000000003
 30
0.0
 11
44.53709566666666
 21
-8.741939000000009
 31
0.0
 12
44.120429
 22
-11.241939
 32
0.0
 13
44.120429
 23
-11.241939
 33
0.0
  0
SOLID
  5
2E5A9
330
2E282
100
AcDbEntity
  8
12
 62
     0
100
AcDbTrace
 10
43.70376233333334
 20
11.25806099999998
 30
0.0
 11
44.53709566666666
 21
11.25806099999998
 31
0.0
 12
44.120429
 22
13.75806099999998
 32
0.0
 13
44.120429
 23
13.75806099999998
 33
0.0
  0
MTEXT
  5
2E5AA
330
2E282
100
AcDbEntity
  8
12
 62
     0
100
AcDbMText
 10
41.745429
 20
1.110692999999997
 30
0.0
 40
3.5
 41
0.0
 71
     5
 72
     1
  1
%%c25.0
  7
SIMPLEX
 11
0.0000000000000001
 21
1.0
 31
0.0
 73
     1
 44
1.0
1001
ACAD
1000
MTEXTBEGIN
1070
    73
1070
     1
1070
    44
1040
1.0
1070
    74
1070
     0
1000
MTEXTEND
  0
POINT
  5
2E5AB
330
2E282
100
AcDbEntity
  8
DEFPOINTS
 62
     0
100
AcDbPoint
 10
24.21155800000001
 20
-11.241939
 30
0.0
  0
POINT
  5
2E5AC
330
2E282
100
AcDbEntity
  8
DEFPOINTS
 62
     0
100
AcDbPoint
 10
24.21155800000001
 20
13.75806099999999
 30
0.0
  0
POINT
  5
2E5AD
330
2E282
100
AcDbEntity
  8
DEFPOINTS
 62
     0
100
AcDbPoint
 10
44.120429
 20
13.75806099999998
 30
0.0
  0
ENDBLK
  5
2E28D
330
2E282
100
AcDbEntity
  8
0
100
AcDbBlockEnd
  0
BLOCK
  5
2E28F
330
2E28E
100
AcDbEntity
  8
0
100
AcDbBlockBegin
  2
*D26
 70
     1
 10
0.0
 20
0.0
 30
0.0
  3
*D26
  1

  0
LINE
  5
2E59B
330
2E28E
100
AcDbEntity
  8
20
 62
     0
370
    -2
100
AcDbLine
 10
1.362193000000004
 20
26.258061
 30
0.0
 11
1.362193000000004
 21
37.88306099999998
 31
0.0
  0
LINE
  5
2E59C
330
2E28E
100
AcDbEntity
  8
20
 62
     0
370
    -2
100
AcDbLine
 10
91.362193
 20
18.13306099999999
 30
0.0
 11
91.362193
 21
37.88306099999998
 31
0.0
  0
LINE
  5
2E59D
330
2E28E
100
AcDbEntity
  8
20
 62
     0
370
    -2
100
AcDbLine
 10
3.862193000000003
 20
36.63306099999998
 30
0.0
 11
43.98719300000001
 21
36.63306099999998
 31
0.0
  0
LINE
  5
2E59E
330
2E28E
100
AcDbEntity
  8
20
 62
     0
370
    -2
100
AcDbLine
 10
88.862193
 20
36.63306099999998
 30
0.0
 11
48.73719300000001
 21
36.63306099999998
 31
0.0
  0
SOLID
  5
2E59F
330
2E28E
100
AcDbEntity
  8
20
 62
     0
100
AcDbTrace
 10
3.862193000000003
 20
37.04972766666664
 30
0.0
 11
3.862193000000003
 21
36.21639433333331
 31
0.0
 12
1.362193000000004
 22
36.63306099999998
 32
0.0
 13
1.362193000000004
 23
36.63306099999998
 33
0.0
  0
SOLID
  5
2E5A0
330
2E28E
100
AcDbEntity
  8
20
 62
     0
100
AcDbTrace
 10
88.862193
 20
37.04972766666664
 30
0.0
 11
88.862193
 21
36.21639433333331
 31
0.0
 12
91.362193
 22
36.63306099999998
 32
0.0
 13
91.362193
 23
36.63306099999998
 33
0.0
  0
MTEXT
  5
2E5A1
330
2E28E
100
AcDbEntity
  8
20
 62
     0
100
AcDbMText
 10
46.36219300000001
 20
36.63306099999998
 30
0.0
 40
3.5
 41
0.0
 71
     5
 72
     1
  1
90.0
  7
SIMPLEX
 11
0.0000000349065848
 21
0.9999999999999994
 31
0.0
 73
     1
 44
1.0
1001
ACAD
1000
MTEXTBEGIN
1070
    73
1070
     1
1070
    44
1040
1.0
1070
    74
1070
     0
1000
MTEXTEND
  0
POINT
  5
2E5A2
330
2E28E
100
AcDbEntity
  8
DEFPOINTS
 62
     0
100
AcDbPoint
 10
1.362193000000004
 20
26.258061
 30
0.0
  0
POINT
  5
2E5A3
330
2E28E
100
AcDbEntity
  8
DEFPOINTS
 62
     0
100
AcDbPoint
 10
91.362193
 20
18.13306099999999
 30
0.0
  0
POINT
  5
2E5A4
330
2E28E
100
AcDbEntity
  8
DEFPOINTS
 62
     0
100
AcDbPoint
 10
91.362193
 20
36.63306099999998
 30
0.0
  0
ENDBLK
  5
2E29A
330
2E28E
100
AcDbEntity
  8
0
100
AcDbBlockEnd
  0
BLOCK
  5
2E29C
330
2E29B
100
AcDbEntity
  8
0
100
AcDbBlockBegin
  2
*D27
 70
     1
 10
0.0
 20
0.0
 30
0.0
  3
*D27
  1

  0
LINE
  5
2E591
330
2E29B
100
AcDbEntity
  8
12
 62
     0
370
    -2
100
AcDbLine
 10
24.21155800000001
 20
13.75806099999999
 30
0.0
 11
24.21155800000001
 21
27.883061
 31
0.0
  0
LINE
  5
2E592
330
2E29B
100
AcDbEntity
  8
12
 62
     0
370
    -2
100
AcDbLine
 10
91.362193
 20
18.13306099999999
 30
0.0
 11
91.362193
 21
27.883061
 31
0.0
  0
LINE
  5
2E593
330
2E29B
100
AcDbEntity
  8
12
 62
     0
370
    -2
100
AcDbLine
 10
26.71155800000001
 20
26.633061
 30
0.0
 11
55.411876
 21
26.633061
 31
0.0
  0
LINE
  5
2E594
330
2E29B
100
AcDbEntity
  8
12
 62
     0
370
    -2
100
AcDbLine
 10
88.862193
 20
26.633061
 30
0.0
 11
60.161876
 21
26.633061
 31
0.0
  0
SOLID
  5
2E595
330
2E29B
100
AcDbEntity
  8
12
 62
     0
100
AcDbTrace
 10
26.71155800000001
 20
27.04972766666667
 30
0.0
 11
26.71155800000001
 21
26.21639433333333
 31
0.0
 12
24.21155800000001
 22
26.633061
 32
0.0
 13
24.21155800000001
 23
26.633061
 33
0.0
  0
SOLID
  5
2E596
330
2E29B
100
AcDbEntity
  8
12
 62
     0
100
AcDbTrace
 10
88.862193
 20
27.04972766666667
 30
0.0
 11
88.862193
 21
26.21639433333333
 31
0.0
 12
91.362193
 22
26.633061
 32
0.0
 13
91.362193
 23
26.633061
 33
0.0
  0
MTEXT
  5
2E597
330
2E29B
100
AcDbEntity
  8
12
 62
     0
100
AcDbMText
 10
57.786876
 20
26.633061
 30
0.0
 40
3.5
 41
0.0
 71
     5
 72
     1
  1
67.2
  7
SIMPLEX
 11
0.0000000349065848
 21
0.9999999999999994
 31
0.0
 73
     1
 44
1.0
1001
ACAD
1000
MTEXTBEGIN
1070
    73
1070
     1
1070
    44
1040
1.0
1070
    74
1070
     0
1000
MTEXTEND
  0
POINT
  5
2E598
330
2E29B
100
AcDbEntity
  8
DEFPOINTS
 62
     0
100
AcDbPoint
 10
24.21155800000001
 20
13.75806099999999
 30
0.0
  0
POINT
  5
2E599
330
2E29B
100
AcDbEntity
  8
DEFPOINTS
 62
     0
100
AcDbPoint
 10
91.362193
 20
18.13306099999999
 30
0.0
  0
POINT
  5
2E59A
330
2E29B
100
AcDbEntity
  8
DEFPOINTS
 62
     0
100
AcDbPoint
 10
91.362193
 20
26.633061
 30
0.0
  0
ENDBLK
  5
2E2A7
330
2E29B
100
AcDbEntity
  8
0
100
AcDbBlockEnd
  0
BLOCK
  5
2E2A9
330
2E2A8
100
AcDbEntity
  8
0
100
AcDbBlockBegin
  2
*D28
 70
     1
 10
0.0
 20
0.0
 30
0.0
  3
*D28
  1

  0
LINE
  5
2E585
330
2E2A8
100
AcDbEntity
  8
20
 62
     0
370
    -2
100
AcDbLine
 10
91.06545699999999
 20
1.13306099999999
 30
0.0
 11
90.57954240600523
 21
-26.70347623612003
 31
0.0
  0
LINE
  5
2E586
330
2E2A8
100
AcDbEntity
  8
20
 62
     0
370
    -2
100
AcDbLine
 10
96.987193
 20
1.258061000000004
 30
0.0
 11
119.0334360187154
 21
1.258061000000011
 31
0.0
  0
ARC
  5
2E587
330
2E2A8
100
AcDbEntity
  8
20
 62
     0
370
    -2
100
AcDbCircle
 10
91.06763899999998
 20
1.258060999999996
 30
0.0
 40
26.71579701871549
100
AcDbArc
 50
274.3635058109129
 51
308.6815766511831
  0
ARC
  5
2E588
330
2E2A8
100
AcDbEntity
  8
20
 62
     0
370
    -2
100
AcDbCircle
 10
91.06763899999998
 20
1.258060999999996
 30
0.0
 40
26.71579701871549
100
AcDbArc
 50
320.318369512112
 51
354.6364406297377
  0
SOLID
  5
2E589
330
2E2A8
100
AcDbEntity
  8
20
 62
     0
100
AcDbTrace
 10
93.11251036142094
 20
-25.79678522460405
 30
0.0
 11
93.08805415834816
 21
-24.96381083209506
 31
0.0
 12
90.60135908235761
 22
-25.45366663756792
 32
0.0
 13
90.60135908235761
 23
-25.45366663756792
 33
0.0
  0
SOLID
  5
2E58A
330
2E2A8
100
AcDbEntity
  8
20
 62
     0
100
AcDbTrace
 10
117.2502536913183
 20
-1.219705679262282
 30
0.0
 11
118.0826743617492
 21
-1.258696343322845
 31
0.0
 12
117.7834360187154
 22
1.258061000000011
 32
0.0
 13
117.7834360187154
 23
1.258061000000011
 33
0.0
  0
MTEXT
  5
2E58B
330
2E2A8
100
AcDbEntity
  8
20
 62
     0
100
AcDbMText
 10
109.7929797273615
 20
-17.79700197521532
 30
0.0
 40
3.5
 41
0.0
 71
     5
 72
     1
  1
91%%d0'
  7
SIMPLEX
 11
0.7009092642998506
 21
-0.7132504491541822
 31
0.0
 73
     1
 44
1.0
1001
ACAD
1000
MTEXTBEGIN
1070
    73
1070
     1
1070
    44
1040
1.0
1070
    74
1070
     0
1000
MTEXTEND
  0
POINT
  5
2E58C
330
2E2A8
100
AcDbEntity
  8
DEFPOINTS
 62
     0
100
AcDbPoint
 10
104.1554187596169
 20
-22.03236259659798
 30
0.0
  0
POINT
  5
2E58D
330
2E2A8
100
AcDbEntity
  8
DEFPOINTS
 62
     0
100
AcDbPoint
 10
91.067639
 20
1.25806099999999
 30
-2.203593999999998
  0
POINT
  5
2E58E
330
2E2A8
100
AcDbEntity
  8
DEFPOINTS
 62
     0
100
AcDbPoint
 10
96.987193
 20
1.258061000000004
 30
-2.203593999999998
  0
POINT
  5
2E58F
330
2E2A8
100
AcDbEntity
  8
DEFPOINTS
 62
     0
100
AcDbPoint
 10
91.067639
 20
1.25806099999999
 30
-2.203593999999998
  0
POINT
  5
2E590
330
2E2A8
100
AcDbEntity
  8
DEFPOINTS
 62
     0
100
AcDbPoint
 10
91.06545699999999
 20
1.13306099999999
 30
-2.203593999999998
  0
ENDBLK
  5
2E2B6
330
2E2A8
100
AcDbEntity
  8
0
100
AcDbBlockEnd
  0
BLOCK
  5
2E2BA
330
2E2B7
100
AcDbEntity
  8
0
100
AcDbBlockBegin
  2
_Zeropoint.dwg
 70
     0
 10
0.0
 20
0.0
 30
0.0
  3
_Zeropoint.dwg
  1

  0
HATCH
  5
2E2BB
330
2E2B7
100
AcDbEntity
  8
2
100
AcDbHatch
 10
0.0
 20
0.0
 30
0.0
210
0.0
220
0.0
230
1.0
  2
_USER
 70
     0
 71
     1
 91
        2
 92
        7
 72
     1
 73
     1
 93
        3
 10
-2.5
 20
0.0
 42
0.4142135623730951
 10
0.0
 20
-2.5
 42
0.0
 10
0.0
 20
0.0
 42
0.0
 97
        3
330
2E2BC
330
2E2BE
330
2E2BD
 92
        7
 72
     1
 73
     1
 93
        3
 10
0.0
 20
2.5
 42
0.0
 10
0.0
 20
0.0
 42
0.0
 10
2.5
 20
0.0
 42
0.4142135623730951
 97
        3
330
2E2BD
330
2E2BC
330
2E2BE
 75
     0
 76
     0
 52
45.0
 41
0.5
 77
     0
 78
     1
 53
45.0
 43
0.0
 44
0.0
 45
-0.3535533905932737
 46
0.3535533905932738
 79
     0
 47
0.0807540860238484
 98
        2
 10
-1.081351813010084
 20
-0.6749528531090621
 10
1.100054950607727
 20
1.263145885468702
  0
LINE
  5
2E2BC
102
{ACAD_REACTORS
330
2E2BB
102
}
330
2E2B7
100
AcDbEntity
  8
2
100
AcDbLine
 10
5.0
 20
0.0
 30
0.0
 11
-5.0
 21
0.0
 31
0.0
  0
LINE
  5
2E2BD
102
{ACAD_REACTORS
330
2E2BB
102
}
330
2E2B7
100
AcDbEntity
  8
2
100
AcDbLine
 10
0.0
 20
5.0
 30
0.0
 11
0.0
 21
-5.0
 31
0.0
  0
CIRCLE
  5
2E2BE
102
{ACAD_REACTORS
330
2E2BB
102
}
330
2E2B7
100
AcDbEntity
  8
2
100
AcDbCircle
 10
0.0
 20
0.0
 30
0.0
 40
2.5
  0
ENDBLK
  5
2E2BF
330
2E2B7
100
AcDbEntity
  8
0
100
AcDbBlockEnd
  0
BLOCK
  5
2E2C1
330
2E2C0
100
AcDbEntity
  8
0
100
AcDbBlockBegin
  2
_nullpunkt
 70
     0
 10
0.0
 20
0.0
 30
0.0
  3
_nullpunkt
  1

  0
INSERT
  5
2E2C2
330
2E2C0
100
AcDbEntity
  8
0
100
AcDbBlockReference
  2
_Zeropoint.dwg
 10
0.0
 20
0.0
 30
0.0
  0
ENDBLK
  5
2E2C3
330
2E2C0
100
AcDbEntity
  8
0
100
AcDbBlockEnd
  0
ENDSEC
  0
SECTION
  2
ENTITIES
  0
POINT
  5
2E2FD
330
18
100
AcDbEntity
  8
81
100
AcDbPoint
 10
91.362193
 20
18.13306099999999
 30
-2.203593999999998
 50
90.0
  0
POINT
  5
2E2FE
330
18
100
AcDbEntity
  8
80
100
AcDbPoint
 10
1.362193000000004
 20
1.258060999999998
 30
-2.203593999999998
 50
90.0
  0
LINE
  5
2E2FF
330
18
100
AcDbEntity
  8
1
100
AcDbLine
 10
91.20445399999999
 20
17.12007199999999
 30
-2.203593999999998
 11
90.90856499999999
 21
0.1685619999999925
 31
-2.203593999999998
  0
LINE
  5
2E300
330
18
100
AcDbEntity
  8
1
100
AcDbLine
 10
90.90856499999999
 20
0.1685619999999925
 30
-2.203593999999998
 11
85.73451
 21
-8.156460999999994
 31
-2.203593999999998
  0
LINE
  5
2E301
330
18
100
AcDbEntity
  8
1
100
AcDbLine
 10
77.36431500000001
 20
11.28345599999999
 30
-2.203593999999998
 11
91.22843399999998
 21
18.49388399999998
 31
-2.203593999999998
  0
LINE
  5
2E302
330
18
100
AcDbEntity
  8
1
100
AcDbLine
 10
86.08724700000001
 20
-7.588909000000006
 30
-2.203593999999998
 11
69.79939200000001
 21
2.383776999999996
 31
-2.203593999999998
  0
LINE
  5
2E303
330
18
100
AcDbEntity
  8
1
100
AcDbLine
 10
20.86219300000002
 20
26.258061
 30
-2.203593999999998
 11
24.21155800000001
 21
13.75806099999999
 31
-2.203593999999998
  0
LINE
  5
2E304
330
18
100
AcDbEntity
  8
1
100
AcDbLine
 10
24.21155800000001
 20
13.75806099999999
 30
-2.203593999999998
 11
71.49407300000001
 21
13.75806099999999
 31
-2.203593999999998
  0
LINE
  5
2E305
330
18
100
AcDbEntity
  8
1
100
AcDbLine
 10
20.86219300000002
 20
-23.74193900000001
 30
-2.203593999999998
 11
24.21155800000001
 21
-11.241939
 31
-2.203593999999998
  0
LINE
  5
2E306
330
18
100
AcDbEntity
  8
1
100
AcDbLine
 10
24.21155800000001
 20
-11.241939
 30
-2.203593999999998
 11
83.816866
 21
-11.241939
 31
-2.203593999999998
  0
LINE
  5
2E307
330
18
100
AcDbEntity
  8
1
100
AcDbLine
 10
20.86219300000002
 20
-23.74193900000001
 30
-2.203593999999998
 11
20.86219300000002
 21
26.258061
 31
-2.203593999999998
  0
LINE
  5
2E308
330
18
100
AcDbEntity
  8
1
100
AcDbLine
 10
27.28086600000001
 20
13.75806099999999
 30
-2.203593999999998
 11
71.49407300000001
 21
13.75806099999999
 31
-2.203593999999998
  0
LINE
  5
2E309
330
18
100
AcDbEntity
  8
1
100
AcDbLine
 10
27.28086600000001
 20
-11.241939
 30
-2.203593999999998
 11
83.816866
 21
-11.241939
 31
-2.203593999999998
  0
LINE
  5
2E30A
330
18
100
AcDbEntity
  8
1
100
AcDbLine
 10
20.86219300000002
 20
26.258061
 30
-2.203593999999998
 11
23.417163
 21
16.72278499999999
 31
-2.203593999999998
  0
LINE
  5
2E30B
330
18
100
AcDbEntity
  8
1
100
AcDbLine
 10
20.86219300000002
 20
-23.74193900000001
 30
-2.203593999999998
 11
23.417163
 21
-14.20666299999999
 31
-2.203593999999998
  0
LINE
  5
2E30C
330
18
100
AcDbEntity
  8
1
100
AcDbLine
 10
68.07237399999999
 20
5.764079999999991
 30
-2.203593999999998
 11
68.07237399999999
 21
13.75806099999999
 31
-2.203593999999998
  0
LINE
  5
2E30D
330
18
100
AcDbEntity
  8
1
100
AcDbLine
 10
67.03224500000001
 20
7.241910999999996
 30
-2.203593999999998
 11
67.03224500000001
 21
13.75806099999999
 31
-2.203593999999998
  0
LINE
  5
2E30E
330
18
100
AcDbEntity
  8
1
100
AcDbLine
 10
71.49407300000001
 20
13.75806099999999
 30
-2.203593999999998
 11
71.95655399999998
 21
12.92988499999999
 31
-2.203593999999998
  0
LINE
  5
2E30F
330
18
100
AcDbEntity
  8
1
100
AcDbLine
 10
18.800138
 20
1.258060999999995
 30
-2.203593999999998
 11
17.362193
 21
1.258060999999995
 31
-2.203593999999998
  0
LINE
  5
2E310
330
18
100
AcDbEntity
  8
1
100
AcDbLine
 10
1.362193000000004
 20
-4.739196999999997
 30
-2.203593999999998
 11
1.362193000000004
 21
7.255319
 31
-2.203593999999998
  0
LINE
  5
2E311
330
18
100
AcDbEntity
  8
1
100
AcDbLine
 10
9.900869
 20
8.787727999999999
 30
-2.203593999999998
 11
9.900869
 21
25.097191
 31
-2.203593999999998
  0
LINE
  5
2E312
330
18
100
AcDbEntity
  8
1
100
AcDbLine
 10
12.82351800000002
 20
8.787727999999999
 30
-2.203593999999998
 11
12.82351800000002
 21
25.097191
 31
-2.203593999999998
  0
LINE
  5
2E313
330
18
100
AcDbEntity
  8
1
100
AcDbLine
 10
9.467856000000024
 20
9.313908999999997
 30
-2.203593999999998
 11
9.467868000000036
 21
24.924609
 31
-2.203593999999998
  0
LINE
  5
2E314
330
18
100
AcDbEntity
  8
1
100
AcDbLine
 10
13.25653100000002
 20
9.313908999999997
 30
-2.203593999999998
 11
13.25651900000002
 21
24.924609
 31
-2.203593999999998
  0
LINE
  5
2E315
330
18
100
AcDbEntity
  8
1
100
AcDbLine
 10
9.900869
 20
-22.58106899999999
 30
-2.203593999999998
 11
9.900869
 21
-6.271606000000008
 31
-2.203593999999998
  0
LINE
  5
2E316
330
18
100
AcDbEntity
  8
1
100
AcDbLine
 10
12.82351800000002
 20
-22.58106899999999
 30
-2.203593999999998
 11
12.82351800000002
 21
-6.271606000000008
 31
-2.203593999999998
  0
LINE
  5
2E317
330
18
100
AcDbEntity
  8
1
100
AcDbLine
 10
9.467856000000024
 20
-22.40844100000001
 30
-2.203593999999998
 11
9.467868000000036
 21
-6.797709999999987
 31
-2.203593999999998
  0
LINE
  5
2E318
330
18
100
AcDbEntity
  8
1
100
AcDbLine
 10
13.25653100000002
 20
-22.40844100000001
 30
-2.203593999999998
 11
13.25651900000002
 21
-6.797709999999987
 31
-2.203593999999998
  0
LINE
  5
2E319
330
18
100
AcDbEntity
  8
11
100
AcDbLine
 10
-28.63780699999999
 20
-14.663351
 30
-2.203593999999998
 11
-28.63780699999999
 21
17.179473
 31
-2.203593999999998
  0
LINE
  5
2E31A
330
18
100
AcDbEntity
  8
11
100
AcDbLine
 10
-0.6811610000000031
 20
18.70697299999999
 30
-2.203593999999998
 11
-27.1378069999999
 21
18.045498
 31
-2.203593999999998
  0
LINE
  5
2E31B
330
18
100
AcDbEntity
  8
11
100
AcDbLine
 10
-0.6811610000000031
 20
-16.19085099999999
 30
-2.203593999999998
 11
-27.1378069999999
 21
-15.529376
 31
-2.203593999999998
  0
LINE
  5
2E31C
330
18
100
AcDbEntity
  8
1
100
AcDbLine
 10
20.86219300000002
 20
26.258061
 30
-2.203593999999998
 11
1.362193000000004
 21
26.258061
 31
-2.203593999999998
  0
LINE
  5
2E31D
330
18
100
AcDbEntity
  8
1
100
AcDbLine
 10
20.86219300000002
 20
-23.74193900000001
 30
-2.203593999999998
 11
1.362193000000004
 21
-23.74193900000001
 31
-2.203593999999998
  0
LINE
  5
2E31E
330
18
100
AcDbEntity
  8
11
100
AcDbLine
 10
-0.6811610000000031
 20
-16.19085099999999
 30
-2.203593999999998
 11
-0.6811610000000031
 21
18.70697299999999
 31
-2.203593999999998
  0
LINE
  5
2E31F
330
18
100
AcDbEntity
  8
11
100
AcDbLine
 10
-27.1378069999999
 20
-15.529376
 30
-2.203593999999998
 11
-27.1378069999999
 21
18.045498
 31
-2.203593999999998
  0
LINE
  5
2E320
330
18
100
AcDbEntity
  8
11
100
AcDbLine
 10
-27.1378069999999
 20
-15.529376
 30
-2.203593999999998
 11
-28.63780699999999
 21
-14.663351
 31
-2.203593999999998
  0
LINE
  5
2E321
330
18
100
AcDbEntity
  8
11
100
AcDbLine
 10
-27.1378069999999
 20
18.045498
 30
-2.203593999999998
 11
-28.63780699999999
 21
17.179473
 31
-2.203593999999998
  0
LINE
  5
2E322
330
18
100
AcDbEntity
  8
1
100
AcDbLine
 10
91.36207199999999
 20
17.32698199999999
 30
-2.203593999999998
 11
91.128298
 21
3.934076999999993
 31
-2.203593999999998
  0
LINE
  5
2E323
330
18
100
AcDbEntity
  8
1
100
AcDbLine
 10
89.93245899999998
 20
3.312146999999995
 30
-2.203593999999998
 11
78.212356
 21
10.48809999999999
 31
-2.203593999999998
  0
LINE
  5
2E324
330
18
100
AcDbEntity
  8
1
100
AcDbLine
 10
78.235742
 20
11.82789699999999
 30
-2.203593999999998
 11
90.18961899999998
 21
18.04484899999999
 31
-2.203593999999998
  0
LINE
  5
2E325
330
18
100
AcDbEntity
  8
1
100
AcDbLine
 10
87.197413
 20
-6.903704000000004
 30
-2.203593999999998
 11
90.32827799999999
 21
-1.894388000000006
 31
-2.203593999999998
  0
LINE
  5
2E326
330
18
100
AcDbEntity
  8
1
100
AcDbLine
 10
90.928652
 20
-0.6344140000000067
 30
-2.203593999999998
 11
86.90758
 21
-7.053039000000008
 31
-2.203593999999998
  0
LINE
  5
2E327
330
18
100
AcDbEntity
  8
1
100
AcDbLine
 10
86.67554800000003
 20
-7.455642000000006
 30
-2.203593999999998
 11
86.70381799999999
 21
-7.396312999999991
 31
-2.203593999999998
  0
LINE
  5
2E328
330
18
100
AcDbEntity
  8
1
100
AcDbLine
 10
75.156676
 20
9.022409999999997
 30
-2.203593999999998
 11
71.135604
 21
2.603784999999996
 31
-2.203593999999998
  0
LINE
  5
2E329
330
18
100
AcDbEntity
  8
1
100
AcDbLine
 10
70.903571
 20
2.201181999999997
 30
-2.203593999999998
 11
70.93184100000001
 21
2.260511999999996
 31
-2.203593999999998
  0
LINE
  5
2E32A
330
18
100
AcDbEntity
  8
1
100
AcDbLine
 10
77.82244
 20
10.35367599999999
 30
-2.203593999999998
 11
82.67941
 21
7.379862999999994
 31
-2.203593999999998
  0
LINE
  5
2E32B
330
18
100
AcDbEntity
  8
1
100
AcDbLine
 10
78.212356
 20
10.48809999999999
 30
-2.203593999999998
 11
82.85695100000003
 21
7.644319999999995
 31
-2.203593999999998
  0
LINE
  5
2E32C
330
18
100
AcDbEntity
  8
1
100
AcDbLine
 10
86.70381799999999
 20
-7.396312999999991
 30
-2.203593999999998
 11
70.93184100000001
 21
2.260511999999996
 31
-2.203593999999998
  0
LINE
  5
2E32D
330
18
100
AcDbEntity
  8
1
100
AcDbLine
 10
86.90758
 20
-7.053039000000008
 30
-2.203593999999998
 11
71.135604
 21
2.603784999999996
 31
-2.203593999999998
  0
LINE
  5
2E32E
330
18
100
AcDbEntity
  8
1
100
AcDbLine
 10
90.928652
 20
-0.6344140000000067
 30
-2.203593999999998
 11
90.32827799999999
 21
-1.894388000000006
 31
-2.203593999999998
  0
LINE
  5
2E32F
330
18
100
AcDbEntity
  8
1
100
AcDbLine
 10
90.928652
 20
-0.6344140000000067
 30
-2.203593999999998
 11
90.946537
 21
2.318087999999995
 31
-2.203593999999998
  0
LINE
  5
2E330
330
18
100
AcDbEntity
  8
1
100
AcDbLine
 10
90.91170299999999
 20
2.712577999999993
 30
-2.203593999999998
 11
90.69805399999999
 21
2.663266999999995
 31
-2.203593999999998
  0
LINE
  5
2E331
330
18
100
AcDbEntity
  8
1
100
AcDbLine
 10
90.62458900000001
 20
2.509088999999995
 30
-2.203593999999998
 11
90.31298900000001
 21
1.310026999999994
 31
-2.203593999999998
  0
LINE
  5
2E332
330
18
100
AcDbEntity
  8
1
100
AcDbLine
 10
90.337653
 20
-0.5619290000000065
 30
-2.203593999999998
 11
90.31077600000001
 21
0.3628939999999936
 31
-2.203593999999998
  0
LINE
  5
2E333
330
18
100
AcDbEntity
  8
1
100
AcDbLine
 10
90.33911299999999
 20
-0.7406399999999973
 30
-2.203593999999998
 11
90.32827799999999
 21
-1.894388000000006
 31
-2.203593999999998
  0
LINE
  5
2E334
330
18
100
AcDbEntity
  8
1
100
AcDbLine
 10
85.50849799999998
 20
0.3162349999999936
 30
-2.203593999999998
 11
85.80781599999998
 21
0.7940199999999944
 31
-2.203593999999998
  0
LINE
  5
2E335
330
18
100
AcDbEntity
  8
1
100
AcDbLine
 10
78.432422
 20
4.648755999999995
 30
-2.203593999999998
 11
78.73174
 21
5.126540999999995
 31
-2.203593999999998
  0
LINE
  5
2E336
330
18
100
AcDbEntity
  8
1
100
AcDbLine
 10
90.946537
 20
2.318087999999995
 30
-2.203593999999998
 11
86.089567
 21
5.291900999999993
 31
-2.203593999999998
  0
LINE
  5
2E337
330
18
100
AcDbEntity
  8
1
100
AcDbLine
 10
90.91170299999999
 20
2.712577999999993
 30
-2.203593999999998
 11
86.26710800000003
 21
5.556357999999995
 31
-2.203593999999998
  0
LINE
  5
2E338
330
18
100
AcDbEntity
  8
1
100
AcDbLine
 10
85.78876599999999
 20
4.811747999999993
 30
-2.203593999999998
 11
86.089567
 21
5.291900999999993
 31
-2.203593999999998
  0
LINE
  5
2E339
330
18
100
AcDbEntity
  8
1
100
AcDbLine
 10
82.37860899999999
 20
6.899709999999995
 30
-2.203593999999998
 11
82.67941
 21
7.379862999999994
 31
-2.203593999999998
  0
LINE
  5
2E33A
330
18
100
AcDbEntity
  8
1
100
AcDbLine
 10
82.834678
 20
7.534130999999995
 30
-2.203593999999998
 11
86.24483500000001
 21
5.446168999999994
 31
-2.203593999999998
  0
LINE
  5
2E33B
330
18
100
AcDbEntity
  8
1
100
AcDbLine
 10
75.156676
 20
9.022409999999997
 30
-2.203593999999998
 11
77.82244
 21
10.35367599999999
 31
-2.203593999999998
  0
LINE
  5
2E33C
330
18
100
AcDbEntity
  8
1
100
AcDbLine
 10
91.06545699999999
 20
1.133060999999994
 30
-2.203593999999998
 11
91.067203
 21
1.233060999999991
 31
-2.203593999999998
  0
LINE
  5
2E33D
330
18
100
AcDbEntity
  8
1
100
AcDbLine
 10
91.362193
 20
18.13306099999999
 30
-2.203593999999998
 11
91.362193
 21
18.23306099999999
 31
-2.203593999999998
  0
LINE
  5
2E33E
330
18
100
AcDbEntity
  8
1
100
AcDbLine
 10
1.362193000000004
 20
26.258061
 30
-2.203593999999998
 11
1.362193000000004
 21
-23.74193900000001
 31
-2.203593999999998
  0
LINE
  5
2E33F
330
18
100
AcDbEntity
  8
1
100
AcDbLine
 10
83.81686399999997
 20
-11.241942
 30
-2.203593999999998
 11
85.73451
 21
-8.156460999999994
 31
-2.203593999999998
  0
ARC
  5
2E340
330
18
100
AcDbEntity
  8
1
100
AcDbCircle
 10
27.28086600000001
 20
17.758061
 30
-2.203593999999998
 40
4.0
100
AcDbArc
 50
195.0000000000001
 51
270.0
  0
ARC
  5
2E341
330
18
100
AcDbEntity
  8
1
100
AcDbCircle
 10
27.28086600000001
 20
-15.24193900000001
 30
-2.203593999999998
 40
4.0
100
AcDbArc
 50
90.0
 51
164.9999999999999
  0
CIRCLE
  5
2E342
330
18
100
AcDbEntity
  8
1
100
AcDbCircle
 10
51.612929
 20
1.258060999999995
 30
-2.203593999999998
 40
3.007499999999998
  0
LINE
  5
2E343
330
18
100
AcDbEntity
  8
1
100
AcDbLine
 10
71.135604
 20
2.603784999999996
 30
-2.203593999999998
 11
70.93184100000001
 21
2.260511999999996
 31
-2.203593999999998
  0
LWPOLYLINE
  5
2E344
330
18
100
AcDbEntity
  8
1
100
AcDbPolyline
 90
        9
 70
     0
 43
0.0
 38
-2.203593999999998
 10
91.36207199999999
 20
17.32698199999999
 10
91.338667
 20
17.52827699999999
 10
91.263059
 20
17.71803199999999
 10
91.14040000000001
 20
17.88331799999999
 10
90.97905
 20
18.01286999999999
 10
90.790003
 20
18.09785899999999
 10
90.586143
 20
18.13249299999999
 10
90.38136299999999
 20
18.11441199999999
 10
90.18961899999998
 20
18.04484899999999
  0
LWPOLYLINE
  5
2E345
330
18
100
AcDbEntity
  8
1
100
AcDbPolyline
 90
       33
 70
     1
 43
0.0
 38
-2.203593999999998
 10
86.47769600000001
 20
8.966449999999994
 10
86.84782700000004
 20
8.987141999999991
 10
87.20497900000003
 20
9.078359999999994
 10
87.535427
 20
9.236597999999991
 10
87.826471
 20
9.455774999999992
 10
88.066928
 20
9.727468999999995
 10
88.247557
 20
10.04123799999999
 10
88.36141500000001
 20
10.38502499999999
 10
88.404129
 20
10.74561699999999
 10
88.374055
 20
11.10915799999999
 10
88.27235100000001
 20
11.46167699999999
 10
88.102923
 20
11.78962599999999
 10
87.87228400000001
 20
12.08040299999999
 10
87.58929700000001
 20
12.32283399999999
 10
87.26483700000001
 20
12.50760199999999
 10
86.911372
 20
12.62760599999999
 10
86.542486
 20
12.67823399999999
 10
86.17235499999997
 20
12.65754199999999
 10
85.81520299999999
 20
12.56632399999999
 10
85.484755
 20
12.40808599999999
 10
85.19371099999998
 20
12.18890899999999
 10
84.953254
 20
11.91721499999999
 10
84.772625
 20
11.60344599999999
 10
84.658767
 20
11.25965899999999
 10
84.616053
 20
10.89906699999999
 10
84.64612700000001
 20
10.53552599999999
 10
84.74783100000001
 20
10.18300699999999
 10
84.917259
 20
9.855057999999994
 10
85.147898
 20
9.564280999999994
 10
85.43088500000001
 20
9.321849999999994
 10
85.75534500000001
 20
9.137081999999994
 10
86.10880999999997
 20
9.017077999999994
 10
86.47769600000001
 20
8.966449999999994
  0
LWPOLYLINE
  5
2E346
330
18
100
AcDbEntity
  8
1
100
AcDbPolyline
 90
        9
 70
     0
 43
0.0
 38
-2.203593999999998
 10
89.93245899999998
 20
3.312146999999995
 10
90.121505
 20
3.227157999999993
 10
90.325365
 20
3.192523999999995
 10
90.53014500000001
 20
3.210604999999993
 10
90.721889
 20
3.280167999999993
 10
90.88753199999999
 20
3.396473999999995
 10
91.01578299999999
 20
3.551594999999993
 10
91.09790399999999
 20
3.734961999999995
 10
91.128298
 20
3.934076999999993
  0
LINE
  5
2E347
330
18
100
AcDbEntity
  8
1
100
AcDbLine
 10
86.90758
 20
-7.053039000000008
 30
-2.203593999999998
 11
86.70381799999999
 21
-7.396312999999991
 31
-2.203593999999998
  0
LWPOLYLINE
  5
2E348
330
18
100
AcDbEntity
  8
1
100
AcDbPolyline
 90
        9
 70
     0
 43
0.0
 38
-2.203593999999998
 10
78.235742
 20
11.82789699999999
 10
78.0701
 20
11.71159099999999
 10
77.94184900000002
 20
11.55646999999999
 10
77.859728
 20
11.37310299999999
 10
77.82933400000001
 20
11.17398799999999
 10
77.852738
 20
10.97269399999999
 10
77.92834599999998
 20
10.78293799999999
 10
78.051005
 20
10.61765199999999
 10
78.212356
 20
10.48809999999999
  0
LWPOLYLINE
  5
2E349
330
18
100
AcDbEntity
  8
1
100
AcDbPolyline
 90
        5
 70
     0
 43
0.0
 38
-2.203593999999998
 10
86.67554800000003
 20
-7.455642000000006
 10
86.690117
 20
-7.469830000000007
 10
86.763039
 20
-7.426590999999991
 10
86.98095999999997
 20
-7.183398000000003
 10
87.197413
 20
-6.903704000000004
  0
LWPOLYLINE
  5
2E34A
330
18
100
AcDbEntity
  8
1
100
AcDbPolyline
 90
        9
 70
     0
 43
0.0
 38
-2.203593999999998
 10
68.07237399999999
 20
5.764079999999991
 10
68.10530199999999
 20
5.262631999999995
 10
68.20354
 20
4.767922999999995
 10
68.36546199999999
 20
4.288143999999995
 10
68.58838700000001
 20
3.831236999999993
 10
68.86862300000001
 20
3.404768999999995
 10
69.20153300000001
 20
3.015799999999996
 10
69.581602
 20
2.670768999999995
 10
70.002539
 20
2.375389999999997
  0
LWPOLYLINE
  5
2E34B
330
18
100
AcDbEntity
  8
1
100
AcDbPolyline
 90
       17
 70
     0
 43
0.0
 38
-2.203593999999998
 10
67.03224500000001
 20
7.241910999999996
 10
67.04405799999999
 20
6.881999999999996
 10
67.079451
 20
6.523019999999991
 10
67.13827500000002
 20
6.166456999999994
 10
67.22028800000001
 20
5.813788999999991
 10
67.32515000000001
 20
5.466477999999995
 10
67.452425
 20
5.125961999999995
 10
67.60158699999999
 20
4.793651999999994
 10
67.77201700000002
 20
4.470925999999995
 10
67.96301000000001
 20
4.159119999999995
 10
68.17377400000001
 20
3.859526999999996
 10
68.403435
 20
3.573387999999996
 10
68.651043
 20
3.301887999999995
 10
68.91557099999999
 20
3.046152999999995
 10
69.19592300000001
 20
2.807240999999997
 10
69.490937
 20
2.586143999999996
 10
69.79939200000001
 20
2.383776999999996
  0
LWPOLYLINE
  5
2E34C
330
18
100
AcDbEntity
  8
1
100
AcDbPolyline
 90
       17
 70
     0
 43
0.0
 38
-2.203593999999998
 10
71.95655399999998
 20
12.92988499999999
 10
72.16243400000002
 20
12.59991199999999
 10
72.39982900000002
 20
12.29053699999999
 10
72.66645100000002
 20
12.00474099999999
 10
72.959734
 20
11.74527499999999
 10
73.27685200000002
 20
11.51463799999999
 10
73.61475100000001
 20
11.31505199999999
 10
73.970178
 20
11.14843899999999
 10
74.33971000000003
 20
11.01640299999999
 10
74.719787
 20
10.92021499999999
 10
75.10674900000002
 20
10.86080299999999
 10
75.49687
 20
10.83873799999999
 10
75.88639300000001
 20
10.85423299999999
 10
76.27156600000002
 20
10.90713899999999
 10
76.648679
 20
10.99694599999999
 10
77.01410200000002
 20
11.12278899999999
 10
77.36431500000001
 20
11.28345599999999
  0
POLYLINE
  5
2E34D
330
18
100
AcDbEntity
  8
1
100
AcDb3dPolyline
 66
     1
 10
0.0
 20
0.0
 30
0.0
 70
    12
 75
     6
  0
VERTEX
  5
2E34E
330
2E34D
100
AcDbEntity
  8
1
100
AcDbVertex
100
AcDb3dPolylineVertex
 10
13.25651900000002
 20
-6.797709999999987
 30
-2.203593999999998
 70
    48
  0
VERTEX
  5
2E34F
330
2E34D
100
AcDbEntity
  8
1
100
AcDbVertex
100
AcDb3dPolylineVertex
 10
13.59390500000002
 20
-8.050602000000006
 30
-2.203593999999998
 70
    48
  0
VERTEX
  5
2E350
330
2E34D
100
AcDbEntity
  8
1
100
AcDbVertex
100
AcDb3dPolylineVertex
 10
13.88878000000002
 20
-9.310646000000009
 30
-2.203593999999998
 70
    48
  0
VERTEX
  5
2E351
330
2E34D
100
AcDbEntity
  8
1
100
AcDbVertex
100
AcDb3dPolylineVertex
 10
14.466373
 20
-12.37352600000001
 30
-2.203593999999998
 70
    48
  0
VERTEX
  5
2E352
330
2E34D
100
AcDbEntity
  8
1
100
AcDbVertex
100
AcDb3dPolylineVertex
 10
14.70069600000001
 20
-14.177953
 30
-2.203593999999998
 70
    48
  0
VERTEX
  5
2E353
330
2E34D
100
AcDbEntity
  8
1
100
AcDbVertex
100
AcDb3dPolylineVertex
 10
14.76007100000002
 20
-17.26746500000001
 30
-2.203593999999998
 70
    48
  0
VERTEX
  5
2E354
330
2E34D
100
AcDbEntity
  8
1
100
AcDbVertex
100
AcDb3dPolylineVertex
 10
14.69188599999998
 20
-18.552302
 30
-2.203593999999998
 70
    48
  0
VERTEX
  5
2E355
330
2E34D
100
AcDbEntity
  8
1
100
AcDbVertex
100
AcDb3dPolylineVertex
 10
14.29182200000002
 20
-20.28471899999999
 30
-2.203593999999998
 70
    48
  0
VERTEX
  5
2E356
330
2E34D
100
AcDbEntity
  8
1
100
AcDbVertex
100
AcDb3dPolylineVertex
 10
14.15723700000002
 20
-20.730847
 30
-2.203593999999998
 70
    48
  0
VERTEX
  5
2E357
330
2E34D
100
AcDbEntity
  8
1
100
AcDbVertex
100
AcDb3dPolylineVertex
 10
13.77359099999999
 20
-21.63536200000001
 30
-2.203593999999998
 70
    48
  0
VERTEX
  5
2E358
330
2E34D
100
AcDbEntity
  8
1
100
AcDbVertex
100
AcDb3dPolylineVertex
 10
13.55733599999998
 20
-22.028245
 30
-2.203593999999998
 70
    48
  0
VERTEX
  5
2E359
330
2E34D
100
AcDbEntity
  8
1
100
AcDbVertex
100
AcDb3dPolylineVertex
 10
13.25651900000002
 20
-22.408487
 30
-2.203593999999998
 70
    48
  0
VERTEX
  5
2E35A
330
2E34D
100
AcDbEntity
  8
1
100
AcDbVertex
100
AcDb3dPolylineVertex
 10
13.25651900000002
 20
-6.797709999999987
 30
-2.203593999999998
 70
    40
  0
VERTEX
  5
2E35B
330
2E34D
100
AcDbEntity
  8
1
100
AcDbVertex
100
AcDb3dPolylineVertex
 10
13.579312
 20
-8.053377000000006
 30
-2.203593999999998
 70
    40
  0
VERTEX
  5
2E35C
330
2E34D
100
AcDbEntity
  8
1
100
AcDbVertex
100
AcDb3dPolylineVertex
 10
13.871229
 20
-9.316156000000008
 30
-2.203593999999998
 70
    40
  0
VERTEX
  5
2E35D
330
2E34D
100
AcDbEntity
  8
1
100
AcDbVertex
100
AcDb3dPolylineVertex
 10
14.12973599999998
 20
-10.58839399999999
 30
-2.203593999999998
 70
    40
  0
VERTEX
  5
2E35E
330
2E34D
100
AcDbEntity
  8
1
100
AcDbVertex
100
AcDb3dPolylineVertex
 10
14.428668
 20
-12.379494
 30
-2.203593999999998
 70
    40
  0
VERTEX
  5
2E35F
330
2E34D
100
AcDbEntity
  8
1
100
AcDbVertex
100
AcDb3dPolylineVertex
 10
14.545806
 20
-13.27900000000001
 30
-2.203593999999998
 70
    40
  0
VERTEX
  5
2E360
330
2E34D
100
AcDbEntity
  8
1
100
AcDbVertex
100
AcDb3dPolylineVertex
 10
14.63779100000002
 20
-14.18067800000001
 30
-2.203593999999998
 70
    40
  0
VERTEX
  5
2E361
330
2E34D
100
AcDbEntity
  8
1
100
AcDbVertex
100
AcDb3dPolylineVertex
 10
14.701924
 20
-15.08418199999999
 30
-2.203593999999998
 70
    40
  0
VERTEX
  5
2E362
330
2E34D
100
AcDbEntity
  8
1
100
AcDbVertex
100
AcDb3dPolylineVertex
 10
14.73550400000002
 20
-15.98916400000001
 30
-2.203593999999998
 70
    40
  0
VERTEX
  5
2E363
330
2E34D
100
AcDbEntity
  8
1
100
AcDbVertex
100
AcDb3dPolylineVertex
 10
14.724356
 20
-17.26840400000001
 30
-2.203593999999998
 70
    40
  0
VERTEX
  5
2E364
330
2E34D
100
AcDbEntity
  8
1
100
AcDbVertex
100
AcDb3dPolylineVertex
 10
14.68659700000002
 20
-17.907332
 30
-2.203593999999998
 70
    40
  0
VERTEX
  5
2E365
330
2E34D
100
AcDbEntity
  8
1
100
AcDbVertex
100
AcDb3dPolylineVertex
 10
14.622585
 20
-18.54456100000001
 30
-2.203593999999998
 70
    40
  0
VERTEX
  5
2E366
330
2E34D
100
AcDbEntity
  8
1
100
AcDbVertex
100
AcDb3dPolylineVertex
 10
14.52871900000004
 20
-19.17915800000001
 30
-2.203593999999998
 70
    40
  0
VERTEX
  5
2E367
330
2E34D
100
AcDbEntity
  8
1
100
AcDbVertex
100
AcDb3dPolylineVertex
 10
14.401403
 20
-19.81019500000001
 30
-2.203593999999998
 70
    40
  0
VERTEX
  5
2E368
330
2E34D
100
AcDbEntity
  8
1
100
AcDbVertex
100
AcDb3dPolylineVertex
 10
14.28220000000002
 20
-20.27675300000002
 30
-2.203593999999998
 70
    40
  0
VERTEX
  5
2E369
330
2E34D
100
AcDbEntity
  8
1
100
AcDbVertex
100
AcDb3dPolylineVertex
 10
14.13860099999998
 20
-20.73338
 30
-2.203593999999998
 70
    40
  0
VERTEX
  5
2E36A
330
2E34D
100
AcDbEntity
  8
1
100
AcDbVertex
100
AcDb3dPolylineVertex
 10
13.96288200000002
 20
-21.189075
 30
-2.203593999999998
 70
    40
  0
VERTEX
  5
2E36B
330
2E34D
100
AcDbEntity
  8
1
100
AcDbVertex
100
AcDb3dPolylineVertex
 10
13.76246900000002
 20
-21.61907000000001
 30
-2.203593999999998
 70
    40
  0
VERTEX
  5
2E36C
330
2E34D
100
AcDbEntity
  8
1
100
AcDbVertex
100
AcDb3dPolylineVertex
 10
13.531282
 20
-22.02252200000001
 30
-2.203593999999998
 70
    40
  0
VERTEX
  5
2E36D
330
2E34D
100
AcDbEntity
  8
1
100
AcDbVertex
100
AcDb3dPolylineVertex
 10
13.25651900000002
 20
-22.408487
 30
-2.203593999999998
 70
    40
  0
SEQEND
  5
2E36E
330
2E34D
100
AcDbEntity
  8
1
  0
POLYLINE
  5
2E36F
330
18
100
AcDbEntity
  8
1
100
AcDb3dPolyline
 66
     1
 10
0.0
 20
0.0
 30
0.0
 70
    12
 75
     6
  0
VERTEX
  5
2E370
330
2E36F
100
AcDbEntity
  8
1
100
AcDbVertex
100
AcDb3dPolylineVertex
 10
9.467868000000036
 20
-6.797709999999987
 30
-2.203593999999998
 70
    48
  0
VERTEX
  5
2E371
330
2E36F
100
AcDbEntity
  8
1
100
AcDbVertex
100
AcDb3dPolylineVertex
 10
9.130484000000024
 20
-8.050593999999986
 30
-2.203593999999998
 70
    48
  0
VERTEX
  5
2E372
330
2E36F
100
AcDbEntity
  8
1
100
AcDbVertex
100
AcDb3dPolylineVertex
 10
8.835610000000002
 20
-9.310631000000006
 30
-2.203593999999998
 70
    48
  0
VERTEX
  5
2E373
330
2E36F
100
AcDbEntity
  8
1
100
AcDbVertex
100
AcDb3dPolylineVertex
 10
8.258017000000021
 20
-12.373503
 30
-2.203593999999998
 70
    48
  0
VERTEX
  5
2E374
330
2E36F
100
AcDbEntity
  8
1
100
AcDbVertex
100
AcDb3dPolylineVertex
 10
8.023693000000022
 20
-14.177929
 30
-2.203593999999998
 70
    48
  0
VERTEX
  5
2E375
330
2E36F
100
AcDbEntity
  8
1
100
AcDbVertex
100
AcDb3dPolylineVertex
 10
7.964314999999999
 20
-17.267441
 30
-2.203593999999998
 70
    48
  0
VERTEX
  5
2E376
330
2E36F
100
AcDbEntity
  8
1
100
AcDbVertex
100
AcDb3dPolylineVertex
 10
8.032498000000018
 20
-18.55227800000001
 30
-2.203593999999998
 70
    48
  0
VERTEX
  5
2E377
330
2E36F
100
AcDbEntity
  8
1
100
AcDbVertex
100
AcDb3dPolylineVertex
 10
8.432558
 20
-20.28469600000001
 30
-2.203593999999998
 70
    48
  0
VERTEX
  5
2E378
330
2E36F
100
AcDbEntity
  8
1
100
AcDbVertex
100
AcDb3dPolylineVertex
 10
8.567142000000004
 20
-20.730825
 30
-2.203593999999998
 70
    48
  0
VERTEX
  5
2E379
330
2E36F
100
AcDbEntity
  8
1
100
AcDbVertex
100
AcDb3dPolylineVertex
 10
8.950788000000002
 20
-21.635348
 30
-2.203593999999998
 70
    48
  0
VERTEX
  5
2E37A
330
2E36F
100
AcDbEntity
  8
1
100
AcDbVertex
100
AcDb3dPolylineVertex
 10
9.167046000000011
 20
-22.028239
 30
-2.203593999999998
 70
    48
  0
VERTEX
  5
2E37B
330
2E36F
100
AcDbEntity
  8
1
100
AcDbVertex
100
AcDb3dPolylineVertex
 10
9.467868000000036
 20
-22.408487
 30
-2.203593999999998
 70
    48
  0
VERTEX
  5
2E37C
330
2E36F
100
AcDbEntity
  8
1
100
AcDbVertex
100
AcDb3dPolylineVertex
 10
9.467868000000036
 20
-6.797709999999987
 30
-2.203593999999998
 70
    40
  0
VERTEX
  5
2E37D
330
2E36F
100
AcDbEntity
  8
1
100
AcDbVertex
100
AcDb3dPolylineVertex
 10
9.145077
 20
-8.053368999999987
 30
-2.203593999999998
 70
    40
  0
VERTEX
  5
2E37E
330
2E36F
100
AcDbEntity
  8
1
100
AcDbVertex
100
AcDb3dPolylineVertex
 10
8.853161
 20
-9.316140999999984
 30
-2.203593999999998
 70
    40
  0
VERTEX
  5
2E37F
330
2E36F
100
AcDbEntity
  8
1
100
AcDbVertex
100
AcDb3dPolylineVertex
 10
8.594656
 20
-10.588371
 30
-2.203593999999998
 70
    40
  0
VERTEX
  5
2E380
330
2E36F
100
AcDbEntity
  8
1
100
AcDbVertex
100
AcDb3dPolylineVertex
 10
8.295722000000026
 20
-12.37947100000001
 30
-2.203593999999998
 70
    40
  0
VERTEX
  5
2E381
330
2E36F
100
AcDbEntity
  8
1
100
AcDbVertex
100
AcDb3dPolylineVertex
 10
8.178584000000013
 20
-13.278976
 30
-2.203593999999998
 70
    40
  0
VERTEX
  5
2E382
330
2E36F
100
AcDbEntity
  8
1
100
AcDbVertex
100
AcDb3dPolylineVertex
 10
8.086598000000023
 20
-14.18065399999999
 30
-2.203593999999998
 70
    40
  0
VERTEX
  5
2E383
330
2E36F
100
AcDbEntity
  8
1
100
AcDbVertex
100
AcDb3dPolylineVertex
 10
8.022463999999999
 20
-15.084158
 30
-2.203593999999998
 70
    40
  0
VERTEX
  5
2E384
330
2E36F
100
AcDbEntity
  8
1
100
AcDbVertex
100
AcDb3dPolylineVertex
 10
7.988883000000001
 20
-15.98914100000001
 30
-2.203593999999998
 70
    40
  0
VERTEX
  5
2E385
330
2E36F
100
AcDbEntity
  8
1
100
AcDbVertex
100
AcDb3dPolylineVertex
 10
8.000030000000021
 20
-17.26837999999999
 30
-2.203593999999998
 70
    40
  0
VERTEX
  5
2E386
330
2E36F
100
AcDbEntity
  8
1
100
AcDbVertex
100
AcDb3dPolylineVertex
 10
8.037788000000018
 20
-17.90730899999999
 30
-2.203593999999998
 70
    40
  0
VERTEX
  5
2E387
330
2E36F
100
AcDbEntity
  8
1
100
AcDbVertex
100
AcDb3dPolylineVertex
 10
8.101798999999997
 20
-18.544537
 30
-2.203593999999998
 70
    40
  0
VERTEX
  5
2E388
330
2E36F
100
AcDbEntity
  8
1
100
AcDbVertex
100
AcDb3dPolylineVertex
 10
8.19566299999998
 20
-19.17913500000001
 30
-2.203593999999998
 70
    40
  0
VERTEX
  5
2E389
330
2E36F
100
AcDbEntity
  8
1
100
AcDbVertex
100
AcDb3dPolylineVertex
 10
8.322978000000018
 20
-19.81017200000001
 30
-2.203593999999998
 70
    40
  0
VERTEX
  5
2E38A
330
2E36F
100
AcDbEntity
  8
1
100
AcDbVertex
100
AcDb3dPolylineVertex
 10
8.442181000000005
 20
-20.276731
 30
-2.203593999999998
 70
    40
  0
VERTEX
  5
2E38B
330
2E36F
100
AcDbEntity
  8
1
100
AcDbVertex
100
AcDb3dPolylineVertex
 10
8.585778000000003
 20
-20.73335800000001
 30
-2.203593999999998
 70
    40
  0
VERTEX
  5
2E38C
330
2E36F
100
AcDbEntity
  8
1
100
AcDbVertex
100
AcDb3dPolylineVertex
 10
8.761496000000022
 20
-21.18905300000001
 30
-2.203593999999998
 70
    40
  0
VERTEX
  5
2E38D
330
2E36F
100
AcDbEntity
  8
1
100
AcDbVertex
100
AcDb3dPolylineVertex
 10
8.961910000000003
 20
-21.619056
 30
-2.203593999999998
 70
    40
  0
VERTEX
  5
2E38E
330
2E36F
100
AcDbEntity
  8
1
100
AcDbVertex
100
AcDb3dPolylineVertex
 10
9.193100999999996
 20
-22.02251499999999
 30
-2.203593999999998
 70
    40
  0
VERTEX
  5
2E38F
330
2E36F
100
AcDbEntity
  8
1
100
AcDbVertex
100
AcDb3dPolylineVertex
 10
9.467868000000036
 20
-22.408487
 30
-2.203593999999998
 70
    40
  0
SEQEND
  5
2E390
330
2E36F
100
AcDbEntity
  8
1
  0
LINE
  5
2E391
330
18
100
AcDbEntity
  8
1
100
AcDbLine
 10
9.900869
 20
25.097191
 30
-2.203593999999998
 11
12.82351800000002
 21
25.097191
 31
-2.203593999999998
  0
POLYLINE
  5
2E392
330
18
100
AcDbEntity
  8
1
100
AcDb3dPolyline
 66
     1
 10
0.0
 20
0.0
 30
0.0
 70
    12
 75
     6
  0
VERTEX
  5
2E393
330
2E392
100
AcDbEntity
  8
1
100
AcDbVertex
100
AcDb3dPolylineVertex
 10
13.25651900000002
 20
24.924609
 30
-2.203593999999998
 70
    48
  0
VERTEX
  5
2E394
330
2E392
100
AcDbEntity
  8
1
100
AcDbVertex
100
AcDb3dPolylineVertex
 10
13.406262
 20
24.73532899999999
 30
-2.203593999999998
 70
    48
  0
VERTEX
  5
2E395
330
2E392
100
AcDbEntity
  8
1
100
AcDbVertex
100
AcDb3dPolylineVertex
 10
13.53155100000002
 20
24.54605099999999
 30
-2.203593999999998
 70
    48
  0
VERTEX
  5
2E396
330
2E392
100
AcDbEntity
  8
1
100
AcDbVertex
100
AcDb3dPolylineVertex
 10
13.967685
 20
23.78496399999999
 30
-2.203593999999998
 70
    48
  0
VERTEX
  5
2E397
330
2E392
100
AcDbEntity
  8
1
100
AcDbVertex
100
AcDb3dPolylineVertex
 10
14.183391
 20
23.184616
 30
-2.203593999999998
 70
    48
  0
VERTEX
  5
2E398
330
2E392
100
AcDbEntity
  8
1
100
AcDbVertex
100
AcDb3dPolylineVertex
 10
14.66956000000002
 20
21.29962599999999
 30
-2.203593999999998
 70
    48
  0
VERTEX
  5
2E399
330
2E392
100
AcDbEntity
  8
1
100
AcDbVertex
100
AcDb3dPolylineVertex
 10
14.754879
 20
19.972673
 30
-2.203593999999998
 70
    48
  0
VERTEX
  5
2E39A
330
2E392
100
AcDbEntity
  8
1
100
AcDbVertex
100
AcDb3dPolylineVertex
 10
14.73119700000002
 20
18.13528399999999
 30
-2.203593999999998
 70
    48
  0
VERTEX
  5
2E39B
330
2E392
100
AcDbEntity
  8
1
100
AcDbVertex
100
AcDb3dPolylineVertex
 10
14.707733
 20
17.63110999999999
 30
-2.203593999999998
 70
    48
  0
VERTEX
  5
2E39C
330
2E392
100
AcDbEntity
  8
1
100
AcDbVertex
100
AcDb3dPolylineVertex
 10
14.66993499999998
 20
17.115851
 30
-2.203593999999998
 70
    48
  0
VERTEX
  5
2E39D
330
2E392
100
AcDbEntity
  8
1
100
AcDbVertex
100
AcDb3dPolylineVertex
 10
14.66993499999998
 20
17.115851
 30
-2.203593999999998
 70
    48
  0
VERTEX
  5
2E39E
330
2E392
100
AcDbEntity
  8
1
100
AcDbVertex
100
AcDb3dPolylineVertex
 10
14.474855
 20
14.456526
 30
-2.203593999999998
 70
    48
  0
VERTEX
  5
2E39F
330
2E392
100
AcDbEntity
  8
1
100
AcDbVertex
100
AcDb3dPolylineVertex
 10
13.946175
 20
11.87488499999999
 30
-2.203593999999998
 70
    48
  0
VERTEX
  5
2E3A0
330
2E392
100
AcDbEntity
  8
1
100
AcDbVertex
100
AcDb3dPolylineVertex
 10
13.25651900000002
 20
9.313832999999997
 30
-2.203593999999998
 70
    48
  0
VERTEX
  5
2E3A1
330
2E392
100
AcDbEntity
  8
1
100
AcDbVertex
100
AcDb3dPolylineVertex
 10
13.25651900000002
 20
24.924609
 30
-2.203593999999998
 70
    40
  0
VERTEX
  5
2E3A2
330
2E392
100
AcDbEntity
  8
1
100
AcDbVertex
100
AcDb3dPolylineVertex
 10
13.52848400000002
 20
24.541124
 30
-2.203593999999998
 70
    40
  0
VERTEX
  5
2E3A3
330
2E392
100
AcDbEntity
  8
1
100
AcDbVertex
100
AcDb3dPolylineVertex
 10
13.649546
 20
24.34014199999999
 30
-2.203593999999998
 70
    40
  0
VERTEX
  5
2E3A4
330
2E392
100
AcDbEntity
  8
1
100
AcDbVertex
100
AcDb3dPolylineVertex
 10
13.93520100000002
 20
23.77111399999999
 30
-2.203593999999998
 70
    40
  0
VERTEX
  5
2E3A5
330
2E392
100
AcDbEntity
  8
1
100
AcDbVertex
100
AcDb3dPolylineVertex
 10
14.162526
 20
23.17920999999998
 30
-2.203593999999998
 70
    40
  0
VERTEX
  5
2E3A6
330
2E392
100
AcDbEntity
  8
1
100
AcDbVertex
100
AcDb3dPolylineVertex
 10
14.34148
 20
22.57166799999998
 30
-2.203593999999998
 70
    40
  0
VERTEX
  5
2E3A7
330
2E392
100
AcDbEntity
  8
1
100
AcDbVertex
100
AcDb3dPolylineVertex
 10
14.48594
 20
21.93134799999999
 30
-2.203593999999998
 70
    40
  0
VERTEX
  5
2E3A8
330
2E392
100
AcDbEntity
  8
1
100
AcDbVertex
100
AcDb3dPolylineVertex
 10
14.59384
 20
21.28353799999999
 30
-2.203593999999998
 70
    40
  0
VERTEX
  5
2E3A9
330
2E392
100
AcDbEntity
  8
1
100
AcDbVertex
100
AcDb3dPolylineVertex
 10
14.66908000000002
 20
20.629901
 30
-2.203593999999998
 70
    40
  0
VERTEX
  5
2E3AA
330
2E392
100
AcDbEntity
  8
1
100
AcDbVertex
100
AcDb3dPolylineVertex
 10
14.71555999999998
 20
19.972097
 30
-2.203593999999998
 70
    40
  0
VERTEX
  5
2E3AB
330
2E392
100
AcDbEntity
  8
1
100
AcDbVertex
100
AcDb3dPolylineVertex
 10
14.73718000000004
 20
19.31178999999999
 30
-2.203593999999998
 70
    40
  0
VERTEX
  5
2E3AC
330
2E392
100
AcDbEntity
  8
1
100
AcDbVertex
100
AcDb3dPolylineVertex
 10
14.725682
 20
18.13818699999998
 30
-2.203593999999998
 70
    40
  0
VERTEX
  5
2E3AD
330
2E392
100
AcDbEntity
  8
1
100
AcDbVertex
100
AcDb3dPolylineVertex
 10
14.66993499999998
 20
17.115851
 30
-2.203593999999998
 70
    40
  0
VERTEX
  5
2E3AE
330
2E392
100
AcDbEntity
  8
1
100
AcDbVertex
100
AcDb3dPolylineVertex
 10
14.66993499999998
 20
17.115851
 30
-2.203593999999998
 70
    40
  0
VERTEX
  5
2E3AF
330
2E392
100
AcDbEntity
  8
1
100
AcDbVertex
100
AcDb3dPolylineVertex
 10
14.545394
 20
15.792398
 30
-2.203593999999998
 70
    40
  0
VERTEX
  5
2E3B0
330
2E392
100
AcDbEntity
  8
1
100
AcDbVertex
100
AcDb3dPolylineVertex
 10
14.37004799999999
 20
14.480306
 30
-2.203593999999998
 70
    40
  0
VERTEX
  5
2E3B1
330
2E392
100
AcDbEntity
  8
1
100
AcDbVertex
100
AcDb3dPolylineVertex
 10
14.14869300000002
 20
13.17799
 30
-2.203593999999998
 70
    40
  0
VERTEX
  5
2E3B2
330
2E392
100
AcDbEntity
  8
1
100
AcDbVertex
100
AcDb3dPolylineVertex
 10
13.88612299999998
 20
11.88386299999999
 30
-2.203593999999998
 70
    40
  0
VERTEX
  5
2E3B3
330
2E392
100
AcDbEntity
  8
1
100
AcDbVertex
100
AcDb3dPolylineVertex
 10
13.58713300000004
 20
10.596339
 30
-2.203593999999998
 70
    40
  0
VERTEX
  5
2E3B4
330
2E392
100
AcDbEntity
  8
1
100
AcDbVertex
100
AcDb3dPolylineVertex
 10
13.25651900000002
 20
9.313832999999997
 30
-2.203593999999998
 70
    40
  0
SEQEND
  5
2E3B5
330
2E392
100
AcDbEntity
  8
1
  0
POLYLINE
  5
2E3B6
330
18
100
AcDbEntity
  8
1
100
AcDb3dPolyline
 66
     1
 10
0.0
 20
0.0
 30
0.0
 70
    12
 75
     6
  0
VERTEX
  5
2E3B7
330
2E3B6
100
AcDbEntity
  8
1
100
AcDbVertex
100
AcDb3dPolylineVertex
 10
9.467868000000036
 20
24.924609
 30
-2.203593999999998
 70
    48
  0
VERTEX
  5
2E3B8
330
2E3B6
100
AcDbEntity
  8
1
100
AcDbVertex
100
AcDb3dPolylineVertex
 10
9.415533000000023
 20
24.85845600000001
 30
-2.203593999999998
 70
    48
  0
VERTEX
  5
2E3B9
330
2E3B6
100
AcDbEntity
  8
1
100
AcDbVertex
100
AcDb3dPolylineVertex
 10
9.365199000000004
 20
24.79077
 30
-2.203593999999998
 70
    48
  0
VERTEX
  5
2E3BA
330
2E3B6
100
AcDbEntity
  8
1
100
AcDbVertex
100
AcDb3dPolylineVertex
 10
8.943708
 20
24.19014499999999
 30
-2.203593999999998
 70
    48
  0
VERTEX
  5
2E3BB
330
2E3B6
100
AcDbEntity
  8
1
100
AcDbVertex
100
AcDb3dPolylineVertex
 10
8.682831000000021
 20
23.58424999999999
 30
-2.203593999999998
 70
    48
  0
VERTEX
  5
2E3BC
330
2E3B6
100
AcDbEntity
  8
1
100
AcDbVertex
100
AcDb3dPolylineVertex
 10
8.405927000000019
 20
22.67775599999998
 30
-2.203593999999998
 70
    48
  0
VERTEX
  5
2E3BD
330
2E3B6
100
AcDbEntity
  8
1
100
AcDbVertex
100
AcDb3dPolylineVertex
 10
8.337009999999978
 20
22.40382399999999
 30
-2.203593999999998
 70
    48
  0
VERTEX
  5
2E3BE
330
2E3B6
100
AcDbEntity
  8
1
100
AcDbVertex
100
AcDb3dPolylineVertex
 10
7.947040999999997
 20
20.54284
 30
-2.203593999999998
 70
    48
  0
VERTEX
  5
2E3BF
330
2E3B6
100
AcDbEntity
  8
1
100
AcDbVertex
100
AcDb3dPolylineVertex
 10
7.934705000000022
 20
18.961265
 30
-2.203593999999998
 70
    48
  0
VERTEX
  5
2E3C0
330
2E3B6
100
AcDbEntity
  8
1
100
AcDbVertex
100
AcDb3dPolylineVertex
 10
8.036967000000018
 20
17.369859
 30
-2.203593999999998
 70
    48
  0
VERTEX
  5
2E3C1
330
2E3B6
100
AcDbEntity
  8
1
100
AcDbVertex
100
AcDb3dPolylineVertex
 10
8.036967000000018
 20
17.369859
 30
-2.203593999999998
 70
    48
  0
VERTEX
  5
2E3C2
330
2E3B6
100
AcDbEntity
  8
1
100
AcDbVertex
100
AcDb3dPolylineVertex
 10
8.096096000000002
 20
16.449694
 30
-2.203593999999998
 70
    48
  0
VERTEX
  5
2E3C3
330
2E3B6
100
AcDbEntity
  8
1
100
AcDbVertex
100
AcDb3dPolylineVertex
 10
8.197742000000005
 20
15.55281499999999
 30
-2.203593999999998
 70
    48
  0
VERTEX
  5
2E3C4
330
2E3B6
100
AcDbEntity
  8
1
100
AcDbVertex
100
AcDb3dPolylineVertex
 10
8.334659000000002
 20
14.637889
 30
-2.203593999999998
 70
    48
  0
VERTEX
  5
2E3C5
330
2E3B6
100
AcDbEntity
  8
1
100
AcDbVertex
100
AcDb3dPolylineVertex
 10
8.334659000000002
 20
14.637889
 30
-2.203593999999998
 70
    48
  0
VERTEX
  5
2E3C6
330
2E3B6
100
AcDbEntity
  8
1
100
AcDbVertex
100
AcDb3dPolylineVertex
 10
8.605856000000002
 20
12.825669
 30
-2.203593999999998
 70
    48
  0
VERTEX
  5
2E3C7
330
2E3B6
100
AcDbEntity
  8
1
100
AcDbVertex
100
AcDb3dPolylineVertex
 10
8.995400000000001
 20
11.068351
 30
-2.203593999999998
 70
    48
  0
VERTEX
  5
2E3C8
330
2E3B6
100
AcDbEntity
  8
1
100
AcDbVertex
100
AcDb3dPolylineVertex
 10
9.467868000000036
 20
9.313832999999997
 30
-2.203593999999998
 70
    48
  0
VERTEX
  5
2E3C9
330
2E3B6
100
AcDbEntity
  8
1
100
AcDbVertex
100
AcDb3dPolylineVertex
 10
9.467868000000036
 20
24.924609
 30
-2.203593999999998
 70
    40
  0
VERTEX
  5
2E3CA
330
2E3B6
100
AcDbEntity
  8
1
100
AcDbVertex
100
AcDb3dPolylineVertex
 10
9.316765000000003
 20
24.72175299999999
 30
-2.203593999999998
 70
    40
  0
VERTEX
  5
2E3CB
330
2E3B6
100
AcDbEntity
  8
1
100
AcDbVertex
100
AcDb3dPolylineVertex
 10
9.139386
 20
24.45000299999998
 30
-2.203593999999998
 70
    40
  0
VERTEX
  5
2E3CC
330
2E3B6
100
AcDbEntity
  8
1
100
AcDbVertex
100
AcDb3dPolylineVertex
 10
8.979511999999997
 20
24.167342
 30
-2.203593999999998
 70
    40
  0
VERTEX
  5
2E3CD
330
2E3B6
100
AcDbEntity
  8
1
100
AcDbVertex
100
AcDb3dPolylineVertex
 10
8.707508000000018
 20
23.57516099999999
 30
-2.203593999999998
 70
    40
  0
VERTEX
  5
2E3CE
330
2E3B6
100
AcDbEntity
  8
1
100
AcDbVertex
100
AcDb3dPolylineVertex
 10
8.491217000000018
 20
22.95696599999999
 30
-2.203593999999998
 70
    40
  0
VERTEX
  5
2E3CF
330
2E3B6
100
AcDbEntity
  8
1
100
AcDbVertex
100
AcDb3dPolylineVertex
 10
8.340207000000019
 20
22.40009799999999
 30
-2.203593999999998
 70
    40
  0
VERTEX
  5
2E3D0
330
2E3B6
100
AcDbEntity
  8
1
100
AcDbVertex
100
AcDb3dPolylineVertex
 10
8.276834999999977
 20
22.11665899999999
 30
-2.203593999999998
 70
    40
  0
VERTEX
  5
2E3D1
330
2E3B6
100
AcDbEntity
  8
1
100
AcDbVertex
100
AcDb3dPolylineVertex
 10
8.137454000000019
 20
21.32909399999999
 30
-2.203593999999998
 70
    40
  0
VERTEX
  5
2E3D2
330
2E3B6
100
AcDbEntity
  8
1
100
AcDbVertex
100
AcDb3dPolylineVertex
 10
8.045347000000019
 20
20.540178
 30
-2.203593999999998
 70
    40
  0
VERTEX
  5
2E3D3
330
2E3B6
100
AcDbEntity
  8
1
100
AcDbVertex
100
AcDb3dPolylineVertex
 10
7.994880000000022
 20
19.749854
 30
-2.203593999999998
 70
    40
  0
VERTEX
  5
2E3D4
330
2E3B6
100
AcDbEntity
  8
1
100
AcDbVertex
100
AcDb3dPolylineVertex
 10
7.980417999999998
 20
18.958065
 30
-2.203593999999998
 70
    40
  0
VERTEX
  5
2E3D5
330
2E3B6
100
AcDbEntity
  8
1
100
AcDbVertex
100
AcDb3dPolylineVertex
 10
7.996324999999997
 20
18.164752
 30
-2.203593999999998
 70
    40
  0
VERTEX
  5
2E3D6
330
2E3B6
100
AcDbEntity
  8
1
100
AcDbVertex
100
AcDb3dPolylineVertex
 10
8.036967000000018
 20
17.369859
 30
-2.203593999999998
 70
    40
  0
VERTEX
  5
2E3D7
330
2E3B6
100
AcDbEntity
  8
1
100
AcDbVertex
100
AcDb3dPolylineVertex
 10
8.036967000000018
 20
17.369859
 30
-2.203593999999998
 70
    40
  0
VERTEX
  5
2E3D8
330
2E3B6
100
AcDbEntity
  8
1
100
AcDbVertex
100
AcDb3dPolylineVertex
 10
8.109999999999999
 20
16.455925
 30
-2.203593999999998
 70
    40
  0
VERTEX
  5
2E3D9
330
2E3B6
100
AcDbEntity
  8
1
100
AcDbVertex
100
AcDb3dPolylineVertex
 10
8.209768000000025
 20
15.54833
 30
-2.203593999999998
 70
    40
  0
VERTEX
  5
2E3DA
330
2E3B6
100
AcDbEntity
  8
1
100
AcDbVertex
100
AcDb3dPolylineVertex
 10
8.334659000000002
 20
14.637889
 30
-2.203593999999998
 70
    40
  0
VERTEX
  5
2E3DB
330
2E3B6
100
AcDbEntity
  8
1
100
AcDbVertex
100
AcDb3dPolylineVertex
 10
8.334659000000002
 20
14.637889
 30
-2.203593999999998
 70
    40
  0
VERTEX
  5
2E3DC
330
2E3B6
100
AcDbEntity
  8
1
100
AcDbVertex
100
AcDb3dPolylineVertex
 10
8.643993000000023
 20
12.84204
 30
-2.203593999999998
 70
    40
  0
VERTEX
  5
2E3DD
330
2E3B6
100
AcDbEntity
  8
1
100
AcDbVertex
100
AcDb3dPolylineVertex
 10
9.024353000000019
 20
11.071214
 30
-2.203593999999998
 70
    40
  0
VERTEX
  5
2E3DE
330
2E3B6
100
AcDbEntity
  8
1
100
AcDbVertex
100
AcDb3dPolylineVertex
 10
9.467868000000036
 20
9.313832999999997
 30
-2.203593999999998
 70
    40
  0
SEQEND
  5
2E3DF
330
2E3B6
100
AcDbEntity
  8
1
  0
POLYLINE
  5
2E3E0
330
18
100
AcDbEntity
  8
1
100
AcDb2dPolyline
 66
     1
 10
0.0
 20
0.0
 30
-2.203593999999998
 70
     4
 75
     5
  0
VERTEX
  5
2E3E1
330
2E3E0
100
AcDbEntity
  8
1
100
AcDbVertex
100
AcDb2dVertex
 10
12.82351800000002
 20
8.787727999999999
 30
-2.203593999999998
 70
    16
  0
VERTEX
  5
2E3E2
330
2E3E0
100
AcDbEntity
  8
1
100
AcDbVertex
100
AcDb2dVertex
 10
11.36219300000002
 20
8.787727999999999
 30
-2.203593999999998
 70
    16
  0
VERTEX
  5
2E3E3
330
2E3E0
100
AcDbEntity
  8
1
100
AcDbVertex
100
AcDb2dVertex
 10
9.900869
 20
8.787727999999999
 30
-2.203593999999998
 70
    16
  0
VERTEX
  5
2E3E4
330
2E3E0
100
AcDbEntity
  8
1
100
AcDbVertex
100
AcDb2dVertex
 10
12.82351800000002
 20
8.787727999999999
 30
-2.203593999999998
 70
     8
  0
VERTEX
  5
2E3E5
330
2E3E0
100
AcDbEntity
  8
1
100
AcDbVertex
100
AcDb2dVertex
 10
9.900869
 20
8.787727999999999
 30
-2.203593999999998
 70
     8
  0
SEQEND
  5
2E3E6
330
2E3E0
100
AcDbEntity
  8
1
  0
LINE
  5
2E3E7
330
18
100
AcDbEntity
  8
1
100
AcDbLine
 10
9.900869
 20
8.787727999999999
 30
-2.203593999999998
 11
12.82351800000002
 21
8.787727999999999
 31
-2.203593999999998
  0
POLYLINE
  5
2E3E8
330
18
100
AcDbEntity
  8
11
100
AcDb2dPolyline
 66
     1
 10
0.0
 20
0.0
 30
-2.203593999999998
 70
     4
 75
     6
  0
VERTEX
  5
2E3E9
330
2E3E8
100
AcDbEntity
  8
11
100
AcDbVertex
100
AcDb2dVertex
 10
-0.6811610000000031
 20
18.70697299999999
 30
-2.203593999999998
 70
    16
  0
VERTEX
  5
2E3EA
330
2E3E8
100
AcDbEntity
  8
11
100
AcDbVertex
100
AcDb2dVertex
 10
-0.6484669999999824
 20
18.68133
 30
-2.203593999999998
 70
    16
  0
VERTEX
  5
2E3EB
330
2E3E8
100
AcDbEntity
  8
11
100
AcDbVertex
100
AcDb2dVertex
 10
-0.6195809999999824
 20
18.660249
 30
-2.203593999999998
 70
    16
  0
VERTEX
  5
2E3EC
330
2E3E8
100
AcDbEntity
  8
11
100
AcDbVertex
100
AcDb2dVertex
 10
-0.3514459999999957
 20
18.48374599999999
 30
-2.203593999999998
 70
    16
  0
VERTEX
  5
2E3ED
330
2E3E8
100
AcDbEntity
  8
11
100
AcDbVertex
100
AcDb2dVertex
 10
-0.0764309999999995
 20
18.459153
 30
-2.203593999999998
 70
    16
  0
VERTEX
  5
2E3EE
330
2E3E8
100
AcDbEntity
  8
11
100
AcDbVertex
100
AcDb2dVertex
 10
0.5729609999999781
 20
18.322987
 30
-2.203593999999998
 70
    16
  0
VERTEX
  5
2E3EF
330
2E3E8
100
AcDbEntity
  8
11
100
AcDbVertex
100
AcDb2dVertex
 10
0.9642280000000198
 20
18.258468
 30
-2.203593999999998
 70
    16
  0
VERTEX
  5
2E3F0
330
2E3E8
100
AcDbEntity
  8
11
100
AcDbVertex
100
AcDb2dVertex
 10
1.362193000000004
 20
18.26264399999999
 30
-2.203593999999998
 70
    16
  0
VERTEX
  5
2E3F1
330
2E3E8
100
AcDbEntity
  8
11
100
AcDbVertex
100
AcDb2dVertex
 10
-0.6811610000000031
 20
18.70697299999999
 30
-2.203593999999998
 70
     8
  0
VERTEX
  5
2E3F2
330
2E3E8
100
AcDbEntity
  8
11
100
AcDbVertex
100
AcDb2dVertex
 10
-0.5852849999999991
 20
18.63767299999999
 30
-2.203593999999998
 70
     8
  0
VERTEX
  5
2E3F3
330
2E3E8
100
AcDbEntity
  8
11
100
AcDbVertex
100
AcDb2dVertex
 10
-0.3396850000000171
 20
18.520934
 30
-2.203593999999998
 70
     8
  0
VERTEX
  5
2E3F4
330
2E3E8
100
AcDbEntity
  8
11
100
AcDbVertex
100
AcDb2dVertex
 10
0.574695000000034
 20
18.330411
 30
-2.203593999999998
 70
     8
  0
VERTEX
  5
2E3F5
330
2E3E8
100
AcDbEntity
  8
11
100
AcDbVertex
100
AcDb2dVertex
 10
0.9663979999999835
 20
18.27943199999999
 30
-2.203593999999998
 70
     8
  0
VERTEX
  5
2E3F6
330
2E3E8
100
AcDbEntity
  8
11
100
AcDbVertex
100
AcDb2dVertex
 10
1.362193000000004
 20
18.26264399999999
 30
-2.203593999999998
 70
     8
  0
SEQEND
  5
2E3F7
330
2E3E8
100
AcDbEntity
  8
11
  0
POLYLINE
  5
2E3F8
330
18
100
AcDbEntity
  8
1
100
AcDb3dPolyline
 66
     1
 10
0.0
 20
0.0
 30
0.0
 70
    12
 75
     6
  0
VERTEX
  5
2E3F9
330
2E3F8
100
AcDbEntity
  8
1
100
AcDbVertex
100
AcDb3dPolylineVertex
 10
78.73174
 20
5.126540999999995
 30
-2.203593999999998
 70
    48
  0
VERTEX
  5
2E3FA
330
2E3F8
100
AcDbEntity
  8
1
100
AcDbVertex
100
AcDb3dPolylineVertex
 10
78.743369
 20
5.145103999999993
 30
-2.203593999999998
 70
    48
  0
VERTEX
  5
2E3FB
330
2E3F8
100
AcDbEntity
  8
1
100
AcDbVertex
100
AcDb3dPolylineVertex
 10
78.755167
 20
5.163559999999995
 30
-2.203593999999998
 70
    48
  0
VERTEX
  5
2E3FC
330
2E3F8
100
AcDbEntity
  8
1
100
AcDbVertex
100
AcDb3dPolylineVertex
 10
79.026583
 20
5.579780999999995
 30
-2.203593999999998
 70
    48
  0
VERTEX
  5
2E3FD
330
2E3F8
100
AcDbEntity
  8
1
100
AcDbVertex
100
AcDb3dPolylineVertex
 10
79.36351000000001
 20
5.927265999999991
 30
-2.203593999999998
 70
    48
  0
VERTEX
  5
2E3FE
330
2E3F8
100
AcDbEntity
  8
1
100
AcDbVertex
100
AcDb3dPolylineVertex
 10
79.760423
 20
6.203639999999995
 30
-2.203593999999998
 70
    48
  0
VERTEX
  5
2E3FF
330
2E3F8
100
AcDbEntity
  8
1
100
AcDbVertex
100
AcDb3dPolylineVertex
 10
78.73174
 20
5.126540999999995
 30
-2.203593999999998
 70
    40
  0
VERTEX
  5
2E400
330
2E3F8
100
AcDbEntity
  8
1
100
AcDbVertex
100
AcDb3dPolylineVertex
 10
78.767131
 20
5.181907999999995
 30
-2.203593999999998
 70
    40
  0
VERTEX
  5
2E401
330
2E3F8
100
AcDbEntity
  8
1
100
AcDbVertex
100
AcDb3dPolylineVertex
 10
79.05176
 20
5.562217999999995
 30
-2.203593999999998
 70
    40
  0
VERTEX
  5
2E402
330
2E3F8
100
AcDbEntity
  8
1
100
AcDbVertex
100
AcDb3dPolylineVertex
 10
79.38415299999999
 20
5.904329999999991
 30
-2.203593999999998
 70
    40
  0
VERTEX
  5
2E403
330
2E3F8
100
AcDbEntity
  8
1
100
AcDbVertex
100
AcDb3dPolylineVertex
 10
79.760423
 20
6.203639999999995
 30
-2.203593999999998
 70
    40
  0
SEQEND
  5
2E404
330
2E3F8
100
AcDbEntity
  8
1
  0
POLYLINE
  5
2E405
330
18
100
AcDbEntity
  8
1
100
AcDb3dPolyline
 66
     1
 10
0.0
 20
0.0
 30
0.0
 70
    12
 75
     6
  0
VERTEX
  5
2E406
330
2E405
100
AcDbEntity
  8
1
100
AcDbVertex
100
AcDb3dPolylineVertex
 10
86.32490500000001
 20
2.184355999999995
 30
-2.203593999999998
 70
    48
  0
VERTEX
  5
2E407
330
2E405
100
AcDbEntity
  8
1
100
AcDbVertex
100
AcDb3dPolylineVertex
 10
86.28691299999998
 20
1.938924999999995
 30
-2.203593999999998
 70
    48
  0
VERTEX
  5
2E408
330
2E405
100
AcDbEntity
  8
1
100
AcDbVertex
100
AcDb3dPolylineVertex
 10
86.22517399999997
 20
1.698301999999993
 30
-2.203593999999998
 70
    48
  0
VERTEX
  5
2E409
330
2E405
100
AcDbEntity
  8
1
100
AcDbVertex
100
AcDb3dPolylineVertex
 10
86.052581
 20
1.232156999999995
 30
-2.203593999999998
 70
    48
  0
VERTEX
  5
2E40A
330
2E405
100
AcDbEntity
  8
1
100
AcDbVertex
100
AcDb3dPolylineVertex
 10
85.94119
 20
1.006917999999992
 30
-2.203593999999998
 70
    48
  0
VERTEX
  5
2E40B
330
2E405
100
AcDbEntity
  8
1
100
AcDbVertex
100
AcDb3dPolylineVertex
 10
85.80781599999998
 20
0.7940199999999944
 30
-2.203593999999998
 70
    48
  0
VERTEX
  5
2E40C
330
2E405
100
AcDbEntity
  8
1
100
AcDbVertex
100
AcDb3dPolylineVertex
 10
86.32490500000001
 20
2.184355999999995
 30
-2.203593999999998
 70
    40
  0
VERTEX
  5
2E40D
330
2E405
100
AcDbEntity
  8
1
100
AcDbVertex
100
AcDb3dPolylineVertex
 10
86.217163
 20
1.701106999999993
 30
-2.203593999999998
 70
    40
  0
VERTEX
  5
2E40E
330
2E405
100
AcDbEntity
  8
1
100
AcDbVertex
100
AcDb3dPolylineVertex
 10
86.044476
 20
1.235323999999994
 30
-2.203593999999998
 70
    40
  0
VERTEX
  5
2E40F
330
2E405
100
AcDbEntity
  8
1
100
AcDbVertex
100
AcDb3dPolylineVertex
 10
85.80781599999998
 20
0.7940199999999944
 30
-2.203593999999998
 70
    40
  0
SEQEND
  5
2E410
330
2E405
100
AcDbEntity
  8
1
  0
POLYLINE
  5
2E411
330
18
100
AcDbEntity
  8
1
100
AcDb3dPolyline
 66
     1
 10
0.0
 20
0.0
 30
0.0
 70
    12
 75
     6
  0
VERTEX
  5
2E412
330
2E411
100
AcDbEntity
  8
1
100
AcDbVertex
100
AcDb3dPolylineVertex
 10
82.37860899999999
 20
6.899709999999995
 30
-2.203593999999998
 70
    48
  0
VERTEX
  5
2E413
330
2E411
100
AcDbEntity
  8
1
100
AcDbVertex
100
AcDb3dPolylineVertex
 10
82.30992200000001
 20
6.904811999999994
 30
-2.203593999999998
 70
    48
  0
VERTEX
  5
2E414
330
2E411
100
AcDbEntity
  8
1
100
AcDbVertex
100
AcDb3dPolylineVertex
 10
82.24113299999997
 20
6.908271999999991
 30
-2.203593999999998
 70
    48
  0
VERTEX
  5
2E415
330
2E411
100
AcDbEntity
  8
1
100
AcDbVertex
100
AcDb3dPolylineVertex
 10
81.535933
 20
6.926781999999993
 30
-2.203593999999998
 70
    48
  0
VERTEX
  5
2E416
330
2E411
100
AcDbEntity
  8
1
100
AcDbVertex
100
AcDb3dPolylineVertex
 10
80.89385300000001
 20
6.800869999999991
 30
-2.203593999999998
 70
    48
  0
VERTEX
  5
2E417
330
2E411
100
AcDbEntity
  8
1
100
AcDbVertex
100
AcDb3dPolylineVertex
 10
80.089687
 20
6.416714999999991
 30
-2.203593999999998
 70
    48
  0
VERTEX
  5
2E418
330
2E411
100
AcDbEntity
  8
1
100
AcDbVertex
100
AcDb3dPolylineVertex
 10
79.90603800000002
 20
6.309266999999993
 30
-2.203593999999998
 70
    48
  0
VERTEX
  5
2E419
330
2E411
100
AcDbEntity
  8
1
100
AcDbVertex
100
AcDb3dPolylineVertex
 10
79.70934399999999
 20
6.167445999999991
 30
-2.203593999999998
 70
    48
  0
VERTEX
  5
2E41A
330
2E411
100
AcDbEntity
  8
1
100
AcDbVertex
100
AcDb3dPolylineVertex
 10
82.37860899999999
 20
6.899709999999995
 30
-2.203593999999998
 70
    40
  0
VERTEX
  5
2E41B
330
2E411
100
AcDbEntity
  8
1
100
AcDbVertex
100
AcDb3dPolylineVertex
 10
81.85390500000002
 20
6.906481999999995
 30
-2.203593999999998
 70
    40
  0
VERTEX
  5
2E41C
330
2E411
100
AcDbEntity
  8
1
100
AcDbVertex
100
AcDb3dPolylineVertex
 10
81.536141
 20
6.878736999999991
 30
-2.203593999999998
 70
    40
  0
VERTEX
  5
2E41D
330
2E411
100
AcDbEntity
  8
1
100
AcDbVertex
100
AcDb3dPolylineVertex
 10
81.220592
 20
6.826460999999995
 30
-2.203593999999998
 70
    40
  0
VERTEX
  5
2E41E
330
2E411
100
AcDbEntity
  8
1
100
AcDbVertex
100
AcDb3dPolylineVertex
 10
80.90884399999998
 20
6.749275999999992
 30
-2.203593999999998
 70
    40
  0
VERTEX
  5
2E41F
330
2E411
100
AcDbEntity
  8
1
100
AcDbVertex
100
AcDb3dPolylineVertex
 10
80.602479
 20
6.646800999999991
 30
-2.203593999999998
 70
    40
  0
VERTEX
  5
2E420
330
2E411
100
AcDbEntity
  8
1
100
AcDbVertex
100
AcDb3dPolylineVertex
 10
80.30308199999998
 20
6.518655999999992
 30
-2.203593999999998
 70
    40
  0
VERTEX
  5
2E421
330
2E411
100
AcDbEntity
  8
1
100
AcDbVertex
100
AcDb3dPolylineVertex
 10
79.90327400000002
 20
6.298877999999993
 30
-2.203593999999998
 70
    40
  0
VERTEX
  5
2E422
330
2E411
100
AcDbEntity
  8
1
100
AcDbVertex
100
AcDb3dPolylineVertex
 10
79.70934399999999
 20
6.167445999999991
 30
-2.203593999999998
 70
    40
  0
SEQEND
  5
2E423
330
2E411
100
AcDbEntity
  8
1
  0
POLYLINE
  5
2E424
330
18
100
AcDbEntity
  8
11
100
AcDb2dPolyline
 66
     1
 10
0.0
 20
0.0
 30
-2.203593999999998
 70
     4
 75
     6
  0
VERTEX
  5
2E425
330
2E424
100
AcDbEntity
  8
11
100
AcDbVertex
100
AcDb2dVertex
 10
-0.6811610000000031
 20
-16.19085099999999
 30
-2.203593999999998
 70
    16
  0
VERTEX
  5
2E426
330
2E424
100
AcDbEntity
  8
11
100
AcDbVertex
100
AcDb2dVertex
 10
-0.6640960000000149
 20
-16.17746600000001
 30
-2.203593999999998
 70
    16
  0
VERTEX
  5
2E427
330
2E424
100
AcDbEntity
  8
11
100
AcDbVertex
100
AcDb2dVertex
 10
-0.6467770000000002
 20
-16.16441100000001
 30
-2.203593999999998
 70
    16
  0
VERTEX
  5
2E428
330
2E424
100
AcDbEntity
  8
11
100
AcDbVertex
100
AcDb2dVertex
 10
-0.4092529999999785
 20
-15.99382300000001
 30
-2.203593999999998
 70
    16
  0
VERTEX
  5
2E429
330
2E424
100
AcDbEntity
  8
11
100
AcDbVertex
100
AcDb2dVertex
 10
-0.1246809999999954
 20
-15.95252200000001
 30
-2.203593999999998
 70
    16
  0
VERTEX
  5
2E42A
330
2E424
100
AcDbEntity
  8
11
100
AcDbVertex
100
AcDb2dVertex
 10
0.5459869999999825
 20
-15.813356
 30
-2.203593999999998
 70
    16
  0
VERTEX
  5
2E42B
330
2E424
100
AcDbEntity
  8
11
100
AcDbVertex
100
AcDb2dVertex
 10
0.9488100000000228
 20
-15.74218400000001
 30
-2.203593999999998
 70
    16
  0
VERTEX
  5
2E42C
330
2E424
100
AcDbEntity
  8
11
100
AcDbVertex
100
AcDb2dVertex
 10
1.362193000000004
 20
-15.746521
 30
-2.203593999999998
 70
    16
  0
VERTEX
  5
2E42D
330
2E424
100
AcDbEntity
  8
11
100
AcDbVertex
100
AcDb2dVertex
 10
-0.6811610000000031
 20
-16.19085099999999
 30
-2.203593999999998
 70
     8
  0
VERTEX
  5
2E42E
330
2E424
100
AcDbEntity
  8
11
100
AcDbVertex
100
AcDb2dVertex
 10
-0.6291650000000148
 20
-16.15176199999998
 30
-2.203593999999998
 70
     8
  0
VERTEX
  5
2E42F
330
2E424
100
AcDbEntity
  8
11
100
AcDbVertex
100
AcDb2dVertex
 10
-0.3907519999999778
 20
-16.02786100000001
 30
-2.203593999999998
 70
     8
  0
VERTEX
  5
2E430
330
2E424
100
AcDbEntity
  8
11
100
AcDbVertex
100
AcDb2dVertex
 10
-0.1275429999999602
 20
-15.952674
 30
-2.203593999999998
 70
     8
  0
VERTEX
  5
2E431
330
2E424
100
AcDbEntity
  8
11
100
AcDbVertex
100
AcDb2dVertex
 10
0.5460780000000228
 20
-15.81989399999999
 30
-2.203593999999998
 70
     8
  0
VERTEX
  5
2E432
330
2E424
100
AcDbEntity
  8
11
100
AcDbVertex
100
AcDb2dVertex
 10
0.951902000000004
 20
-15.76502499999999
 30
-2.203593999999998
 70
     8
  0
VERTEX
  5
2E433
330
2E424
100
AcDbEntity
  8
11
100
AcDbVertex
100
AcDb2dVertex
 10
1.362193000000004
 20
-15.746521
 30
-2.203593999999998
 70
     8
  0
SEQEND
  5
2E434
330
2E424
100
AcDbEntity
  8
11
  0
POLYLINE
  5
2E435
330
18
100
AcDbEntity
  8
1
100
AcDb2dPolyline
 66
     1
 10
0.0
 20
0.0
 30
-2.203593999999998
 70
     4
 75
     5
  0
VERTEX
  5
2E436
330
2E435
100
AcDbEntity
  8
1
100
AcDbVertex
100
AcDb2dVertex
 10
12.82351800000002
 20
-22.58106899999999
 30
-2.203593999999998
 70
    16
  0
VERTEX
  5
2E437
330
2E435
100
AcDbEntity
  8
1
100
AcDbVertex
100
AcDb2dVertex
 10
11.36219300000002
 20
-22.58106899999999
 30
-2.203593999999998
 70
    16
  0
VERTEX
  5
2E438
330
2E435
100
AcDbEntity
  8
1
100
AcDbVertex
100
AcDb2dVertex
 10
9.900869
 20
-22.58106899999999
 30
-2.203593999999998
 70
    16
  0
VERTEX
  5
2E439
330
2E435
100
AcDbEntity
  8
1
100
AcDbVertex
100
AcDb2dVertex
 10
12.82351800000002
 20
-22.58106899999999
 30
-2.203593999999998
 70
     8
  0
VERTEX
  5
2E43A
330
2E435
100
AcDbEntity
  8
1
100
AcDbVertex
100
AcDb2dVertex
 10
9.900869
 20
-22.58106899999999
 30
-2.203593999999998
 70
     8
  0
SEQEND
  5
2E43B
330
2E435
100
AcDbEntity
  8
1
  0
LINE
  5
2E43C
330
18
100
AcDbEntity
  8
1
100
AcDbLine
 10
9.900869
 20
-6.271606000000008
 30
-2.203593999999998
 11
12.82351800000002
 21
-6.271606000000008
 31
-2.203593999999998
  0
POLYLINE
  5
2E43D
330
18
100
AcDbEntity
  8
1
100
AcDb3dPolyline
 66
     1
 10
0.0
 20
0.0
 30
0.0
 70
    12
 75
     6
  0
VERTEX
  5
2E43E
330
2E43D
100
AcDbEntity
  8
1
100
AcDbVertex
100
AcDb3dPolylineVertex
 10
67.03224500000001
 20
12.37017899999999
 30
-2.203593999999998
 70
    48
  0
VERTEX
  5
2E43F
330
2E43D
100
AcDbEntity
  8
1
100
AcDbVertex
100
AcDb3dPolylineVertex
 10
66.19165000000001
 20
12.26898299999999
 30
-2.203593999999998
 70
    48
  0
VERTEX
  5
2E440
330
2E43D
100
AcDbEntity
  8
1
100
AcDbVertex
100
AcDb3dPolylineVertex
 10
65.35418400000001
 20
12.14078899999999
 30
-2.203593999999998
 70
    48
  0
VERTEX
  5
2E441
330
2E43D
100
AcDbEntity
  8
1
100
AcDbVertex
100
AcDb3dPolylineVertex
 10
63.26913199999999
 20
11.67596599999999
 30
-2.203593999999998
 70
    48
  0
VERTEX
  5
2E442
330
2E43D
100
AcDbEntity
  8
1
100
AcDbVertex
100
AcDb3dPolylineVertex
 10
62.03032499999999
 20
11.26643099999999
 30
-2.203593999999998
 70
    48
  0
VERTEX
  5
2E443
330
2E43D
100
AcDbEntity
  8
1
100
AcDbVertex
100
AcDb3dPolylineVertex
 10
60.471052
 20
10.32785799999999
 30
-2.203593999999998
 70
    48
  0
VERTEX
  5
2E444
330
2E43D
100
AcDbEntity
  8
1
100
AcDbVertex
100
AcDb3dPolylineVertex
 10
60.08543
 20
10.04948999999999
 30
-2.203593999999998
 70
    48
  0
VERTEX
  5
2E445
330
2E43D
100
AcDbEntity
  8
1
100
AcDbVertex
100
AcDb3dPolylineVertex
 10
59.168902
 20
9.234510999999995
 30
-2.203593999999998
 70
    48
  0
VERTEX
  5
2E446
330
2E43D
100
AcDbEntity
  8
1
100
AcDbVertex
100
AcDb3dPolylineVertex
 10
58.75152599999999
 20
8.745188999999996
 30
-2.203593999999998
 70
    48
  0
VERTEX
  5
2E447
330
2E43D
100
AcDbEntity
  8
1
100
AcDbVertex
100
AcDb3dPolylineVertex
 10
57.876544
 20
7.402751999999996
 30
-2.203593999999998
 70
    48
  0
VERTEX
  5
2E448
330
2E43D
100
AcDbEntity
  8
1
100
AcDbVertex
100
AcDb3dPolylineVertex
 10
57.48187900000001
 20
6.653241999999995
 30
-2.203593999999998
 70
    48
  0
VERTEX
  5
2E449
330
2E43D
100
AcDbEntity
  8
1
100
AcDbVertex
100
AcDb3dPolylineVertex
 10
56.95649900000001
 20
4.640827999999995
 30
-2.203593999999998
 70
    48
  0
VERTEX
  5
2E44A
330
2E43D
100
AcDbEntity
  8
1
100
AcDbVertex
100
AcDb3dPolylineVertex
 10
57.095616
 20
3.599503999999996
 30
-2.203593999999998
 70
    48
  0
VERTEX
  5
2E44B
330
2E43D
100
AcDbEntity
  8
1
100
AcDbVertex
100
AcDb3dPolylineVertex
 10
57.29686399999999
 20
2.440545999999994
 30
-2.203593999999998
 70
    48
  0
VERTEX
  5
2E44C
330
2E43D
100
AcDbEntity
  8
1
100
AcDbVertex
100
AcDb3dPolylineVertex
 10
57.29686399999999
 20
2.440545999999994
 30
-2.203593999999998
 70
    48
  0
VERTEX
  5
2E44D
330
2E43D
100
AcDbEntity
  8
1
100
AcDbVertex
100
AcDb3dPolylineVertex
 10
57.371203
 20
2.012437999999999
 30
-2.203593999999998
 70
    48
  0
VERTEX
  5
2E44E
330
2E43D
100
AcDbEntity
  8
1
100
AcDbVertex
100
AcDb3dPolylineVertex
 10
57.483633
 20
1.656413999999996
 30
-2.203593999999998
 70
    48
  0
VERTEX
  5
2E44F
330
2E43D
100
AcDbEntity
  8
1
100
AcDbVertex
100
AcDb3dPolylineVertex
 10
57.620429
 20
1.258060999999995
 30
-2.203593999999998
 70
    48
  0
VERTEX
  5
2E450
330
2E43D
100
AcDbEntity
  8
1
100
AcDbVertex
100
AcDb3dPolylineVertex
 10
67.03224500000001
 20
12.37017899999999
 30
-2.203593999999998
 70
    40
  0
VERTEX
  5
2E451
330
2E43D
100
AcDbEntity
  8
1
100
AcDbVertex
100
AcDb3dPolylineVertex
 10
66.193017
 20
12.25891499999999
 30
-2.203593999999998
 70
    40
  0
VERTEX
  5
2E452
330
2E43D
100
AcDbEntity
  8
1
100
AcDbVertex
100
AcDb3dPolylineVertex
 10
65.35782000000001
 20
12.12323999999999
 30
-2.203593999999998
 70
    40
  0
VERTEX
  5
2E453
330
2E43D
100
AcDbEntity
  8
1
100
AcDbVertex
100
AcDb3dPolylineVertex
 10
64.52859899999999
 20
11.95673999999999
 30
-2.203593999999998
 70
    40
  0
VERTEX
  5
2E454
330
2E43D
100
AcDbEntity
  8
1
100
AcDbVertex
100
AcDb3dPolylineVertex
 10
63.90102500000001
 20
11.80498399999999
 30
-2.203593999999998
 70
    40
  0
VERTEX
  5
2E455
330
2E43D
100
AcDbEntity
  8
1
100
AcDbVertex
100
AcDb3dPolylineVertex
 10
63.27952000000001
 20
11.62793299999999
 30
-2.203593999999998
 70
    40
  0
VERTEX
  5
2E456
330
2E43D
100
AcDbEntity
  8
1
100
AcDbVertex
100
AcDb3dPolylineVertex
 10
62.66670999999998
 20
11.42175299999999
 30
-2.203593999999998
 70
    40
  0
VERTEX
  5
2E457
330
2E43D
100
AcDbEntity
  8
1
100
AcDbVertex
100
AcDb3dPolylineVertex
 10
62.06522000000001
 20
11.18260899999999
 30
-2.203593999999998
 70
    40
  0
VERTEX
  5
2E458
330
2E43D
100
AcDbEntity
  8
1
100
AcDbVertex
100
AcDb3dPolylineVertex
 10
61.477677
 20
10.90666699999999
 30
-2.203593999999998
 70
    40
  0
VERTEX
  5
2E459
330
2E43D
100
AcDbEntity
  8
1
100
AcDbVertex
100
AcDb3dPolylineVertex
 10
60.906707
 20
10.59009099999999
 30
-2.203593999999998
 70
    40
  0
VERTEX
  5
2E45A
330
2E43D
100
AcDbEntity
  8
1
100
AcDbVertex
100
AcDb3dPolylineVertex
 10
60.48573100000001
 20
10.32055799999999
 30
-2.203593999999998
 70
    40
  0
VERTEX
  5
2E45B
330
2E43D
100
AcDbEntity
  8
1
100
AcDbVertex
100
AcDb3dPolylineVertex
 10
60.08612199999999
 20
10.02873999999999
 30
-2.203593999999998
 70
    40
  0
VERTEX
  5
2E45C
330
2E43D
100
AcDbEntity
  8
1
100
AcDbVertex
100
AcDb3dPolylineVertex
 10
59.695887
 20
9.703106999999995
 30
-2.203593999999998
 70
    40
  0
VERTEX
  5
2E45D
330
2E43D
100
AcDbEntity
  8
1
100
AcDbVertex
100
AcDb3dPolylineVertex
 10
59.20279
 20
9.224941999999996
 30
-2.203593999999998
 70
    40
  0
VERTEX
  5
2E45E
330
2E43D
100
AcDbEntity
  8
1
100
AcDbVertex
100
AcDb3dPolylineVertex
 10
58.766877
 20
8.716993999999996
 30
-2.203593999999998
 70
    40
  0
VERTEX
  5
2E45F
330
2E43D
100
AcDbEntity
  8
1
100
AcDbVertex
100
AcDb3dPolylineVertex
 10
58.37225700000001
 20
8.163297999999997
 30
-2.203593999999998
 70
    40
  0
VERTEX
  5
2E460
330
2E43D
100
AcDbEntity
  8
1
100
AcDbVertex
100
AcDb3dPolylineVertex
 10
57.91245500000001
 20
7.400662999999995
 30
-2.203593999999998
 70
    40
  0
VERTEX
  5
2E461
330
2E43D
100
AcDbEntity
  8
1
100
AcDbVertex
100
AcDb3dPolylineVertex
 10
57.71199499999998
 20
7.011291999999996
 30
-2.203593999999998
 70
    40
  0
VERTEX
  5
2E462
330
2E43D
100
AcDbEntity
  8
1
100
AcDbVertex
100
AcDb3dPolylineVertex
 10
57.53339
 20
6.610782999999995
 30
-2.203593999999998
 70
    40
  0
VERTEX
  5
2E463
330
2E43D
100
AcDbEntity
  8
1
100
AcDbVertex
100
AcDb3dPolylineVertex
 10
57.37831200000001
 20
6.194810999999995
 30
-2.203593999999998
 70
    40
  0
VERTEX
  5
2E464
330
2E43D
100
AcDbEntity
  8
1
100
AcDbVertex
100
AcDb3dPolylineVertex
 10
57.24843299999999
 20
5.759050999999995
 30
-2.203593999999998
 70
    40
  0
VERTEX
  5
2E465
330
2E43D
100
AcDbEntity
  8
1
100
AcDbVertex
100
AcDb3dPolylineVertex
 10
57.136679
 20
5.205446999999995
 30
-2.203593999999998
 70
    40
  0
VERTEX
  5
2E466
330
2E43D
100
AcDbEntity
  8
1
100
AcDbVertex
100
AcDb3dPolylineVertex
 10
57.08651900000001
 20
4.659255999999995
 30
-2.203593999999998
 70
    40
  0
VERTEX
  5
2E467
330
2E43D
100
AcDbEntity
  8
1
100
AcDbVertex
100
AcDb3dPolylineVertex
 10
57.087705
 20
4.115073999999995
 30
-2.203593999999998
 70
    40
  0
VERTEX
  5
2E468
330
2E43D
100
AcDbEntity
  8
1
100
AcDbVertex
100
AcDb3dPolylineVertex
 10
57.12998999999999
 20
3.567497999999995
 30
-2.203593999999998
 70
    40
  0
VERTEX
  5
2E469
330
2E43D
100
AcDbEntity
  8
1
100
AcDbVertex
100
AcDb3dPolylineVertex
 10
57.29686399999999
 20
2.440545999999994
 30
-2.203593999999998
 70
    40
  0
VERTEX
  5
2E46A
330
2E43D
100
AcDbEntity
  8
1
100
AcDbVertex
100
AcDb3dPolylineVertex
 10
57.29686399999999
 20
2.440545999999994
 30
-2.203593999999998
 70
    40
  0
VERTEX
  5
2E46B
330
2E43D
100
AcDbEntity
  8
1
100
AcDbVertex
100
AcDb3dPolylineVertex
 10
57.38339200000001
 20
2.032227999999995
 30
-2.203593999999998
 70
    40
  0
VERTEX
  5
2E46C
330
2E43D
100
AcDbEntity
  8
1
100
AcDbVertex
100
AcDb3dPolylineVertex
 10
57.620429
 20
1.258060999999995
 30
-2.203593999999998
 70
    40
  0
SEQEND
  5
2E46D
330
2E43D
100
AcDbEntity
  8
1
  0
POLYLINE
  5
2E46E
330
18
100
AcDbEntity
  8
1
100
AcDb3dPolyline
 66
     1
 10
0.0
 20
0.0
 30
0.0
 70
    12
 75
     6
  0
VERTEX
  5
2E46F
330
2E46E
100
AcDbEntity
  8
1
100
AcDbVertex
100
AcDb3dPolylineVertex
 10
85.78876599999999
 20
4.811747999999993
 30
-2.203593999999998
 70
    48
  0
VERTEX
  5
2E470
330
2E46E
100
AcDbEntity
  8
1
100
AcDbVertex
100
AcDb3dPolylineVertex
 10
85.970311
 20
4.510124999999995
 30
-2.203593999999998
 70
    48
  0
VERTEX
  5
2E471
330
2E46E
100
AcDbEntity
  8
1
100
AcDbVertex
100
AcDb3dPolylineVertex
 10
86.11266399999998
 20
4.187996999999993
 30
-2.203593999999998
 70
    48
  0
VERTEX
  5
2E472
330
2E46E
100
AcDbEntity
  8
1
100
AcDbVertex
100
AcDb3dPolylineVertex
 10
86.373177
 20
3.298485999999996
 30
-2.203593999999998
 70
    48
  0
VERTEX
  5
2E473
330
2E46E
100
AcDbEntity
  8
1
100
AcDbVertex
100
AcDb3dPolylineVertex
 10
86.41535799999996
 20
2.707358999999993
 30
-2.203593999999998
 70
    48
  0
VERTEX
  5
2E474
330
2E46E
100
AcDbEntity
  8
1
100
AcDbVertex
100
AcDb3dPolylineVertex
 10
86.314886
 20
2.123021999999993
 30
-2.203593999999998
 70
    48
  0
VERTEX
  5
2E475
330
2E46E
100
AcDbEntity
  8
1
100
AcDbVertex
100
AcDb3dPolylineVertex
 10
85.78876599999999
 20
4.811747999999993
 30
-2.203593999999998
 70
    40
  0
VERTEX
  5
2E476
330
2E46E
100
AcDbEntity
  8
1
100
AcDbVertex
100
AcDb3dPolylineVertex
 10
85.957062
 20
4.503566999999994
 30
-2.203593999999998
 70
    40
  0
VERTEX
  5
2E477
330
2E46E
100
AcDbEntity
  8
1
100
AcDbVertex
100
AcDb3dPolylineVertex
 10
86.09811699999999
 20
4.183380999999993
 30
-2.203593999999998
 70
    40
  0
VERTEX
  5
2E478
330
2E46E
100
AcDbEntity
  8
1
100
AcDbVertex
100
AcDb3dPolylineVertex
 10
86.210819
 20
3.852851999999995
 30
-2.203593999999998
 70
    40
  0
VERTEX
  5
2E479
330
2E46E
100
AcDbEntity
  8
1
100
AcDbVertex
100
AcDb3dPolylineVertex
 10
86.281879
 20
3.572806999999993
 30
-2.203593999999998
 70
    40
  0
VERTEX
  5
2E47A
330
2E46E
100
AcDbEntity
  8
1
100
AcDbVertex
100
AcDb3dPolylineVertex
 10
86.332286
 20
3.287844999999995
 30
-2.203593999999998
 70
    40
  0
VERTEX
  5
2E47B
330
2E46E
100
AcDbEntity
  8
1
100
AcDbVertex
100
AcDb3dPolylineVertex
 10
86.36141399999997
 20
2.999175999999995
 30
-2.203593999999998
 70
    40
  0
VERTEX
  5
2E47C
330
2E46E
100
AcDbEntity
  8
1
100
AcDbVertex
100
AcDb3dPolylineVertex
 10
86.36864
 20
2.708008999999993
 30
-2.203593999999998
 70
    40
  0
VERTEX
  5
2E47D
330
2E46E
100
AcDbEntity
  8
1
100
AcDbVertex
100
AcDb3dPolylineVertex
 10
86.35333800000003
 20
2.415554999999995
 30
-2.203593999999998
 70
    40
  0
VERTEX
  5
2E47E
330
2E46E
100
AcDbEntity
  8
1
100
AcDbVertex
100
AcDb3dPolylineVertex
 10
86.314886
 20
2.123021999999993
 30
-2.203593999999998
 70
    40
  0
SEQEND
  5
2E47F
330
2E46E
100
AcDbEntity
  8
1
  0
POLYLINE
  5
2E480
330
18
100
AcDbEntity
  8
1
100
AcDb3dPolyline
 66
     1
 10
0.0
 20
0.0
 30
0.0
 70
    12
 75
     6
  0
VERTEX
  5
2E481
330
2E480
100
AcDbEntity
  8
1
100
AcDbVertex
100
AcDb3dPolylineVertex
 10
85.50849799999998
 20
0.3162349999999936
 30
-2.203593999999998
 70
    48
  0
VERTEX
  5
2E482
330
2E480
100
AcDbEntity
  8
1
100
AcDbVertex
100
AcDb3dPolylineVertex
 10
85.34241800000001
 20
0.0511289999999924
 30
-2.203593999999998
 70
    48
  0
VERTEX
  5
2E483
330
2E480
100
AcDbEntity
  8
1
100
AcDbVertex
100
AcDb3dPolylineVertex
 10
85.15079
 20
-0.1837050000000069
 30
-2.203593999999998
 70
    48
  0
VERTEX
  5
2E484
330
2E480
100
AcDbEntity
  8
1
100
AcDbVertex
100
AcDb3dPolylineVertex
 10
84.760483
 20
-0.5534839999999976
 30
-2.203593999999998
 70
    48
  0
VERTEX
  5
2E485
330
2E480
100
AcDbEntity
  8
1
100
AcDbVertex
100
AcDb3dPolylineVertex
 10
84.60179700000002
 20
-0.6798169999999965
 30
-2.203593999999998
 70
    48
  0
VERTEX
  5
2E486
330
2E480
100
AcDbEntity
  8
1
100
AcDbVertex
100
AcDb3dPolylineVertex
 10
84.06266200000002
 20
-1.041088999999993
 30
-2.203593999999998
 70
    48
  0
VERTEX
  5
2E487
330
2E480
100
AcDbEntity
  8
1
100
AcDbVertex
100
AcDb3dPolylineVertex
 10
83.665213
 20
-1.218095999999995
 30
-2.203593999999998
 70
    48
  0
VERTEX
  5
2E488
330
2E480
100
AcDbEntity
  8
1
100
AcDbVertex
100
AcDb3dPolylineVertex
 10
82.63320099999999
 20
-1.494378000000004
 30
-2.203593999999998
 70
    48
  0
VERTEX
  5
2E489
330
2E480
100
AcDbEntity
  8
1
100
AcDbVertex
100
AcDb3dPolylineVertex
 10
81.97681999999998
 20
-1.513187000000004
 30
-2.203593999999998
 70
    48
  0
VERTEX
  5
2E48A
330
2E480
100
AcDbEntity
  8
1
100
AcDbVertex
100
AcDb3dPolylineVertex
 10
81.04811600000003
 20
-1.327613999999995
 30
-2.203593999999998
 70
    48
  0
VERTEX
  5
2E48B
330
2E480
100
AcDbEntity
  8
1
100
AcDbVertex
100
AcDb3dPolylineVertex
 10
80.794089
 20
-1.250627000000004
 30
-2.203593999999998
 70
    48
  0
VERTEX
  5
2E48C
330
2E480
100
AcDbEntity
  8
1
100
AcDbVertex
100
AcDb3dPolylineVertex
 10
80.145186
 20
-0.9821180000000067
 30
-2.203593999999998
 70
    48
  0
VERTEX
  5
2E48D
330
2E480
100
AcDbEntity
  8
1
100
AcDbVertex
100
AcDb3dPolylineVertex
 10
79.833289
 20
-0.8010319999999975
 30
-2.203593999999998
 70
    48
  0
VERTEX
  5
2E48E
330
2E480
100
AcDbEntity
  8
1
100
AcDbVertex
100
AcDb3dPolylineVertex
 10
79.12387600000002
 20
-0.2561830000000071
 30
-2.203593999999998
 70
    48
  0
VERTEX
  5
2E48F
330
2E480
100
AcDbEntity
  8
1
100
AcDbVertex
100
AcDb3dPolylineVertex
 10
78.80303399999998
 20
0.0843639999999937
 30
-2.203593999999998
 70
    48
  0
VERTEX
  5
2E490
330
2E480
100
AcDbEntity
  8
1
100
AcDbVertex
100
AcDb3dPolylineVertex
 10
78.16415000000002
 20
1.069924999999994
 30
-2.203593999999998
 70
    48
  0
VERTEX
  5
2E491
330
2E480
100
AcDbEntity
  8
1
100
AcDbVertex
100
AcDb3dPolylineVertex
 10
77.95750700000002
 20
1.621528999999993
 30
-2.203593999999998
 70
    48
  0
VERTEX
  5
2E492
330
2E480
100
AcDbEntity
  8
1
100
AcDbVertex
100
AcDb3dPolylineVertex
 10
77.804197
 20
3.173623999999995
 30
-2.203593999999998
 70
    48
  0
VERTEX
  5
2E493
330
2E480
100
AcDbEntity
  8
1
100
AcDbVertex
100
AcDb3dPolylineVertex
 10
77.93709599999998
 20
3.858092999999995
 30
-2.203593999999998
 70
    48
  0
VERTEX
  5
2E494
330
2E480
100
AcDbEntity
  8
1
100
AcDbVertex
100
AcDb3dPolylineVertex
 10
78.432422
 20
4.648755999999995
 30
-2.203593999999998
 70
    48
  0
VERTEX
  5
2E495
330
2E480
100
AcDbEntity
  8
1
100
AcDbVertex
100
AcDb3dPolylineVertex
 10
85.50849799999998
 20
0.3162349999999936
 30
-2.203593999999998
 70
    40
  0
VERTEX
  5
2E496
330
2E480
100
AcDbEntity
  8
1
100
AcDbVertex
100
AcDb3dPolylineVertex
 10
85.33333799999999
 20
0.060641000000004
 30
-2.203593999999998
 70
    40
  0
VERTEX
  5
2E497
330
2E480
100
AcDbEntity
  8
1
100
AcDbVertex
100
AcDb3dPolylineVertex
 10
85.13776400000002
 20
-0.1782400000000077
 30
-2.203593999999998
 70
    40
  0
VERTEX
  5
2E498
330
2E480
100
AcDbEntity
  8
1
100
AcDbVertex
100
AcDb3dPolylineVertex
 10
84.91839199999999
 20
-0.4038800000000065
 30
-2.203593999999998
 70
    40
  0
VERTEX
  5
2E499
330
2E480
100
AcDbEntity
  8
1
100
AcDbVertex
100
AcDb3dPolylineVertex
 10
84.59616899999998
 20
-0.6767809999999967
 30
-2.203593999999998
 70
    40
  0
VERTEX
  5
2E49A
330
2E480
100
AcDbEntity
  8
1
100
AcDbVertex
100
AcDb3dPolylineVertex
 10
84.424214
 20
-0.7988139999999966
 30
-2.203593999999998
 70
    40
  0
VERTEX
  5
2E49B
330
2E480
100
AcDbEntity
  8
1
100
AcDbVertex
100
AcDb3dPolylineVertex
 10
84.05138599999999
 20
-1.019307000000005
 30
-2.203593999999998
 70
    40
  0
VERTEX
  5
2E49C
330
2E480
100
AcDbEntity
  8
1
100
AcDbVertex
100
AcDb3dPolylineVertex
 10
83.658768
 20
-1.196127999999994
 30
-2.203593999999998
 70
    40
  0
VERTEX
  5
2E49D
330
2E480
100
AcDbEntity
  8
1
100
AcDbVertex
100
AcDb3dPolylineVertex
 10
83.25049900000001
 20
-1.329119999999994
 30
-2.203593999999998
 70
    40
  0
VERTEX
  5
2E49E
330
2E480
100
AcDbEntity
  8
1
100
AcDbVertex
100
AcDb3dPolylineVertex
 10
82.93883800000001
 20
-1.399542000000004
 30
-2.203593999999998
 70
    40
  0
VERTEX
  5
2E49F
330
2E480
100
AcDbEntity
  8
1
100
AcDbVertex
100
AcDb3dPolylineVertex
 10
82.62213100000002
 20
-1.445533000000004
 30
-2.203593999999998
 70
    40
  0
VERTEX
  5
2E4A0
330
2E480
100
AcDbEntity
  8
1
100
AcDbVertex
100
AcDb3dPolylineVertex
 10
82.301845
 20
-1.467074000000005
 30
-2.203593999999998
 70
    40
  0
VERTEX
  5
2E4A1
330
2E480
100
AcDbEntity
  8
1
100
AcDbVertex
100
AcDb3dPolylineVertex
 10
81.97945
 20
-1.464143000000006
 30
-2.203593999999998
 70
    40
  0
VERTEX
  5
2E4A2
330
2E480
100
AcDbEntity
  8
1
100
AcDbVertex
100
AcDb3dPolylineVertex
 10
81.656413
 20
-1.436718000000004
 30
-2.203593999999998
 70
    40
  0
VERTEX
  5
2E4A3
330
2E480
100
AcDbEntity
  8
1
100
AcDbVertex
100
AcDb3dPolylineVertex
 10
81.334201
 20
-1.384779000000007
 30
-2.203593999999998
 70
    40
  0
VERTEX
  5
2E4A4
330
2E480
100
AcDbEntity
  8
1
100
AcDbVertex
100
AcDb3dPolylineVertex
 10
80.788655
 20
-1.238819000000004
 30
-2.203593999999998
 70
    40
  0
VERTEX
  5
2E4A5
330
2E480
100
AcDbEntity
  8
1
100
AcDbVertex
100
AcDb3dPolylineVertex
 10
80.51771499999999
 20
-1.136265999999997
 30
-2.203593999999998
 70
    40
  0
VERTEX
  5
2E4A6
330
2E480
100
AcDbEntity
  8
1
100
AcDbVertex
100
AcDb3dPolylineVertex
 10
80.16314599999999
 20
-0.9719670000000062
 30
-2.203593999999998
 70
    40
  0
VERTEX
  5
2E4A7
330
2E480
100
AcDbEntity
  8
1
100
AcDbVertex
100
AcDb3dPolylineVertex
 10
79.835494
 20
-0.7826820000000067
 30
-2.203593999999998
 70
    40
  0
VERTEX
  5
2E4A8
330
2E480
100
AcDbEntity
  8
1
100
AcDbVertex
100
AcDb3dPolylineVertex
 10
79.52125399999999
 20
-0.5613800000000069
 30
-2.203593999999998
 70
    40
  0
VERTEX
  5
2E4A9
330
2E480
100
AcDbEntity
  8
1
100
AcDbVertex
100
AcDb3dPolylineVertex
 10
79.14814599999998
 20
-0.242447999999996
 30
-2.203593999999998
 70
    40
  0
VERTEX
  5
2E4AA
330
2E480
100
AcDbEntity
  8
1
100
AcDbVertex
100
AcDb3dPolylineVertex
 10
78.818611
 20
0.1117629999999945
 30
-2.203593999999998
 70
    40
  0
VERTEX
  5
2E4AB
330
2E480
100
AcDbEntity
  8
1
100
AcDbVertex
100
AcDb3dPolylineVertex
 10
78.52519700000001
 20
0.5129639999999931
 30
-2.203593999999998
 70
    40
  0
VERTEX
  5
2E4AC
330
2E480
100
AcDbEntity
  8
1
100
AcDbVertex
100
AcDb3dPolylineVertex
 10
78.35746799999999
 20
0.7916450000000026
 30
-2.203593999999998
 70
    40
  0
VERTEX
  5
2E4AD
330
2E480
100
AcDbEntity
  8
1
100
AcDbVertex
100
AcDb3dPolylineVertex
 10
78.215043
 20
1.073317999999992
 30
-2.203593999999998
 70
    40
  0
VERTEX
  5
2E4AE
330
2E480
100
AcDbEntity
  8
1
100
AcDbVertex
100
AcDb3dPolylineVertex
 10
78.097488
 20
1.361863999999991
 30
-2.203593999999998
 70
    40
  0
VERTEX
  5
2E4AF
330
2E480
100
AcDbEntity
  8
1
100
AcDbVertex
100
AcDb3dPolylineVertex
 10
78.00437399999998
 20
1.661168999999993
 30
-2.203593999999998
 70
    40
  0
VERTEX
  5
2E4B0
330
2E480
100
AcDbEntity
  8
1
100
AcDbVertex
100
AcDb3dPolylineVertex
 10
77.93526800000002
 20
1.975115999999995
 30
-2.203593999999998
 70
    40
  0
VERTEX
  5
2E4B1
330
2E480
100
AcDbEntity
  8
1
100
AcDbVertex
100
AcDb3dPolylineVertex
 10
77.889741
 20
2.307588999999993
 30
-2.203593999999998
 70
    40
  0
VERTEX
  5
2E4B2
330
2E480
100
AcDbEntity
  8
1
100
AcDbVertex
100
AcDb3dPolylineVertex
 10
77.86583900000002
 20
2.726807999999995
 30
-2.203593999999998
 70
    40
  0
VERTEX
  5
2E4B3
330
2E480
100
AcDbEntity
  8
1
100
AcDbVertex
100
AcDb3dPolylineVertex
 10
77.88234399999997
 20
3.12375999999999
 30
-2.203593999999998
 70
    40
  0
VERTEX
  5
2E4B4
330
2E480
100
AcDbEntity
  8
1
100
AcDbVertex
100
AcDb3dPolylineVertex
 10
77.94325500000002
 20
3.506436999999996
 30
-2.203593999999998
 70
    40
  0
VERTEX
  5
2E4B5
330
2E480
100
AcDbEntity
  8
1
100
AcDbVertex
100
AcDb3dPolylineVertex
 10
78.05257199999998
 20
3.882832999999995
 30
-2.203593999999998
 70
    40
  0
VERTEX
  5
2E4B6
330
2E480
100
AcDbEntity
  8
1
100
AcDbVertex
100
AcDb3dPolylineVertex
 10
78.21429499999998
 20
4.260941999999995
 30
-2.203593999999998
 70
    40
  0
VERTEX
  5
2E4B7
330
2E480
100
AcDbEntity
  8
1
100
AcDbVertex
100
AcDb3dPolylineVertex
 10
78.432422
 20
4.648755999999995
 30
-2.203593999999998
 70
    40
  0
SEQEND
  5
2E4B8
330
2E480
100
AcDbEntity
  8
1
  0
POLYLINE
  5
2E4B9
330
18
100
AcDbEntity
  8
1
100
AcDb2dPolyline
 66
     1
 10
0.0
 20
0.0
 30
-2.203593999999998
 70
     4
 75
     6
  0
VERTEX
  5
2E4BA
330
2E4B9
100
AcDbEntity
  8
1
100
AcDbVertex
100
AcDb2dVertex
 10
70.01587499999999
 20
-6.732810000000005
 30
-2.203593999999998
 70
    16
  0
VERTEX
  5
2E4BB
330
2E4B9
100
AcDbEntity
  8
1
100
AcDbVertex
100
AcDb2dVertex
 10
72.462739
 20
-6.984615999999991
 30
-2.203593999999998
 70
    16
  0
VERTEX
  5
2E4BC
330
2E4B9
100
AcDbEntity
  8
1
100
AcDbVertex
100
AcDb2dVertex
 10
74.911153
 20
-7.220842000000004
 30
-2.203593999999998
 70
    16
  0
VERTEX
  5
2E4BD
330
2E4B9
100
AcDbEntity
  8
1
100
AcDbVertex
100
AcDb2dVertex
 10
80.15055600000001
 20
-7.697925999999991
 30
-2.203593999999998
 70
    16
  0
VERTEX
  5
2E4BE
330
2E4B9
100
AcDbEntity
  8
1
100
AcDbVertex
100
AcDb2dVertex
 10
82.94191600000003
 20
-7.934731000000008
 30
-2.203593999999998
 70
    16
  0
VERTEX
  5
2E4BF
330
2E4B9
100
AcDbEntity
  8
1
100
AcDbVertex
100
AcDb2dVertex
 10
85.73451
 20
-8.156460999999994
 30
-2.203593999999998
 70
    16
  0
VERTEX
  5
2E4C0
330
2E4B9
100
AcDbEntity
  8
1
100
AcDbVertex
100
AcDb2dVertex
 10
70.01587499999999
 20
-6.732810000000005
 30
-2.203593999999998
 70
     8
  0
VERTEX
  5
2E4C1
330
2E4B9
100
AcDbEntity
  8
1
100
AcDbVertex
100
AcDb2dVertex
 10
74.911564
 20
-7.216362000000003
 30
-2.203593999999998
 70
     8
  0
VERTEX
  5
2E4C2
330
2E4B9
100
AcDbEntity
  8
1
100
AcDbVertex
100
AcDb2dVertex
 10
80.15106600000001
 20
-7.692264000000005
 30
-2.203593999999998
 70
     8
  0
VERTEX
  5
2E4C3
330
2E4B9
100
AcDbEntity
  8
1
100
AcDbVertex
100
AcDb2dVertex
 10
85.73451
 20
-8.156460999999994
 30
-2.203593999999998
 70
     8
  0
SEQEND
  5
2E4C4
330
2E4B9
100
AcDbEntity
  8
1
  0
POLYLINE
  5
2E4C5
330
18
100
AcDbEntity
  8
1
100
AcDb3dPolyline
 66
     1
 10
0.0
 20
0.0
 30
0.0
 70
    12
 75
     6
  0
VERTEX
  5
2E4C6
330
2E4C5
100
AcDbEntity
  8
1
100
AcDbVertex
100
AcDb3dPolylineVertex
 10
57.620429
 20
1.258060999999995
 30
-2.203593999999998
 70
    48
  0
VERTEX
  5
2E4C7
330
2E4C5
100
AcDbEntity
  8
1
100
AcDbVertex
100
AcDb3dPolylineVertex
 10
57.912289
 20
0.4014390000000036
 30
-2.203593999999998
 70
    48
  0
VERTEX
  5
2E4C8
330
2E4C5
100
AcDbEntity
  8
1
100
AcDbVertex
100
AcDb3dPolylineVertex
 10
58.318246
 20
-0.3892849999999868
 30
-2.203593999999998
 70
    48
  0
VERTEX
  5
2E4C9
330
2E4C5
100
AcDbEntity
  8
1
100
AcDbVertex
100
AcDb3dPolylineVertex
 10
59.052549
 20
-1.455432000000006
 30
-2.203593999999998
 70
    48
  0
VERTEX
  5
2E4CA
330
2E4C5
100
AcDbEntity
  8
1
100
AcDbVertex
100
AcDb3dPolylineVertex
 10
59.27917500000001
 20
-1.745677000000004
 30
-2.203593999999998
 70
    48
  0
VERTEX
  5
2E4CB
330
2E4C5
100
AcDbEntity
  8
1
100
AcDbVertex
100
AcDb3dPolylineVertex
 10
60.14223399999998
 20
-2.729306000000008
 30
-2.203593999999998
 70
    48
  0
VERTEX
  5
2E4CC
330
2E4C5
100
AcDbEntity
  8
1
100
AcDbVertex
100
AcDb3dPolylineVertex
 10
60.83862600000001
 20
-3.344325999999997
 30
-2.203593999999998
 70
    48
  0
VERTEX
  5
2E4CD
330
2E4C5
100
AcDbEntity
  8
1
100
AcDbVertex
100
AcDb3dPolylineVertex
 10
61.594174
 20
-3.873936000000004
 30
-2.203593999999998
 70
    48
  0
VERTEX
  5
2E4CE
330
2E4C5
100
AcDbEntity
  8
1
100
AcDbVertex
100
AcDb3dPolylineVertex
 10
61.594174
 20
-3.873936000000004
 30
-2.203593999999998
 70
    48
  0
VERTEX
  5
2E4CF
330
2E4C5
100
AcDbEntity
  8
1
100
AcDbVertex
100
AcDb3dPolylineVertex
 10
62.65595400000001
 20
-4.618202000000006
 30
-2.203593999999998
 70
    48
  0
VERTEX
  5
2E4D0
330
2E4C5
100
AcDbEntity
  8
1
100
AcDbVertex
100
AcDb3dPolylineVertex
 10
63.82928600000001
 20
-5.199302000000006
 30
-2.203593999999998
 70
    48
  0
VERTEX
  5
2E4D1
330
2E4C5
100
AcDbEntity
  8
1
100
AcDbVertex
100
AcDb3dPolylineVertex
 10
65.058203
 20
-5.643760000000003
 30
-2.203593999999998
 70
    48
  0
VERTEX
  5
2E4D2
330
2E4C5
100
AcDbEntity
  8
1
100
AcDbVertex
100
AcDb3dPolylineVertex
 10
65.058203
 20
-5.643760000000003
 30
-2.203593999999998
 70
    48
  0
VERTEX
  5
2E4D3
330
2E4C5
100
AcDbEntity
  8
1
100
AcDbVertex
100
AcDb3dPolylineVertex
 10
65.53468300000002
 20
-5.816086000000008
 30
-2.203593999999998
 70
    48
  0
VERTEX
  5
2E4D4
330
2E4C5
100
AcDbEntity
  8
1
100
AcDbVertex
100
AcDb3dPolylineVertex
 10
66.005352
 20
-5.963087000000006
 30
-2.203593999999998
 70
    48
  0
VERTEX
  5
2E4D5
330
2E4C5
100
AcDbEntity
  8
1
100
AcDbVertex
100
AcDb3dPolylineVertex
 10
67.66320400000001
 20
-6.409804000000004
 30
-2.203593999999998
 70
    48
  0
VERTEX
  5
2E4D6
330
2E4C5
100
AcDbEntity
  8
1
100
AcDbVertex
100
AcDb3dPolylineVertex
 10
68.82667300000001
 20
-6.610449000000008
 30
-2.203593999999998
 70
    48
  0
VERTEX
  5
2E4D7
330
2E4C5
100
AcDbEntity
  8
1
100
AcDbVertex
100
AcDb3dPolylineVertex
 10
70.01587499999999
 20
-6.732810000000005
 30
-2.203593999999998
 70
    48
  0
VERTEX
  5
2E4D8
330
2E4C5
100
AcDbEntity
  8
1
100
AcDbVertex
100
AcDb3dPolylineVertex
 10
57.620429
 20
1.258060999999995
 30
-2.203593999999998
 70
    40
  0
VERTEX
  5
2E4D9
330
2E4C5
100
AcDbEntity
  8
1
100
AcDbVertex
100
AcDb3dPolylineVertex
 10
57.775854
 20
0.8351209999999973
 30
-2.203593999999998
 70
    40
  0
VERTEX
  5
2E4DA
330
2E4C5
100
AcDbEntity
  8
1
100
AcDbVertex
100
AcDb3dPolylineVertex
 10
57.950214
 20
0.4224399999999929
 30
-2.203593999999998
 70
    40
  0
VERTEX
  5
2E4DB
330
2E4C5
100
AcDbEntity
  8
1
100
AcDbVertex
100
AcDb3dPolylineVertex
 10
58.14343
 20
0.0192959999999936
 30
-2.203593999999998
 70
    40
  0
VERTEX
  5
2E4DC
330
2E4C5
100
AcDbEntity
  8
1
100
AcDbVertex
100
AcDb3dPolylineVertex
 10
58.35542
 20
-0.3750360000000068
 30
-2.203593999999998
 70
    40
  0
VERTEX
  5
2E4DD
330
2E4C5
100
AcDbEntity
  8
1
100
AcDbVertex
100
AcDb3dPolylineVertex
 10
58.83540299999999
 20
-1.140155000000007
 30
-2.203593999999998
 70
    40
  0
VERTEX
  5
2E4DE
330
2E4C5
100
AcDbEntity
  8
1
100
AcDbVertex
100
AcDb3dPolylineVertex
 10
59.286454
 20
-1.743175999999995
 30
-2.203593999999998
 70
    40
  0
VERTEX
  5
2E4DF
330
2E4C5
100
AcDbEntity
  8
1
100
AcDbVertex
100
AcDb3dPolylineVertex
 10
59.52918199999999
 20
-2.030610000000006
 30
-2.203593999999998
 70
    40
  0
VERTEX
  5
2E4E0
330
2E4C5
100
AcDbEntity
  8
1
100
AcDbVertex
100
AcDb3dPolylineVertex
 10
60.169118
 20
-2.701350000000004
 30
-2.203593999999998
 70
    40
  0
VERTEX
  5
2E4E1
330
2E4C5
100
AcDbEntity
  8
1
100
AcDbVertex
100
AcDb3dPolylineVertex
 10
60.85924100000001
 20
-3.315919999999995
 30
-2.203593999999998
 70
    40
  0
VERTEX
  5
2E4E2
330
2E4C5
100
AcDbEntity
  8
1
100
AcDbVertex
100
AcDb3dPolylineVertex
 10
61.594174
 20
-3.873936000000004
 30
-2.203593999999998
 70
    40
  0
VERTEX
  5
2E4E3
330
2E4C5
100
AcDbEntity
  8
1
100
AcDbVertex
100
AcDb3dPolylineVertex
 10
61.594174
 20
-3.873936000000004
 30
-2.203593999999998
 70
    40
  0
VERTEX
  5
2E4E4
330
2E4C5
100
AcDbEntity
  8
1
100
AcDbVertex
100
AcDb3dPolylineVertex
 10
62.134101
 20
-4.232593999999997
 30
-2.203593999999998
 70
    40
  0
VERTEX
  5
2E4E5
330
2E4C5
100
AcDbEntity
  8
1
100
AcDbVertex
100
AcDb3dPolylineVertex
 10
62.691065
 20
-4.564794999999994
 30
-2.203593999999998
 70
    40
  0
VERTEX
  5
2E4E6
330
2E4C5
100
AcDbEntity
  8
1
100
AcDbVertex
100
AcDb3dPolylineVertex
 10
63.26351200000001
 20
-4.871276000000004
 30
-2.203593999999998
 70
    40
  0
VERTEX
  5
2E4E7
330
2E4C5
100
AcDbEntity
  8
1
100
AcDbVertex
100
AcDb3dPolylineVertex
 10
63.849887
 20
-5.152772000000005
 30
-2.203593999999998
 70
    40
  0
VERTEX
  5
2E4E8
330
2E4C5
100
AcDbEntity
  8
1
100
AcDbVertex
100
AcDb3dPolylineVertex
 10
64.44863600000001
 20
-5.410021000000003
 30
-2.203593999999998
 70
    40
  0
VERTEX
  5
2E4E9
330
2E4C5
100
AcDbEntity
  8
1
100
AcDbVertex
100
AcDb3dPolylineVertex
 10
65.058203
 20
-5.643760000000003
 30
-2.203593999999998
 70
    40
  0
VERTEX
  5
2E4EA
330
2E4C5
100
AcDbEntity
  8
1
100
AcDbVertex
100
AcDb3dPolylineVertex
 10
65.058203
 20
-5.643760000000003
 30
-2.203593999999998
 70
    40
  0
VERTEX
  5
2E4EB
330
2E4C5
100
AcDbEntity
  8
1
100
AcDbVertex
100
AcDb3dPolylineVertex
 10
66.01139899999999
 20
-5.957858000000006
 30
-2.203593999999998
 70
    40
  0
VERTEX
  5
2E4EC
330
2E4C5
100
AcDbEntity
  8
1
100
AcDbVertex
100
AcDb3dPolylineVertex
 10
66.497156
 20
-6.095606000000008
 30
-2.203593999999998
 70
    40
  0
VERTEX
  5
2E4ED
330
2E4C5
100
AcDbEntity
  8
1
100
AcDbVertex
100
AcDb3dPolylineVertex
 10
67.663393
 20
-6.373258999999995
 30
-2.203593999999998
 70
    40
  0
VERTEX
  5
2E4EE
330
2E4C5
100
AcDbEntity
  8
1
100
AcDbVertex
100
AcDb3dPolylineVertex
 10
68.834202
 20
-6.583048000000006
 30
-2.203593999999998
 70
    40
  0
VERTEX
  5
2E4EF
330
2E4C5
100
AcDbEntity
  8
1
100
AcDbVertex
100
AcDb3dPolylineVertex
 10
70.01587499999999
 20
-6.732810000000005
 30
-2.203593999999998
 70
    40
  0
SEQEND
  5
2E4F0
330
2E4C5
100
AcDbEntity
  8
1
  0
POLYLINE
  5
2E4F1
330
18
100
AcDbEntity
  8
1
100
AcDb3dPolyline
 66
     1
 10
0.0
 20
0.0
 30
0.0
 70
    12
 75
     6
  0
VERTEX
  5
2E4F2
330
2E4F1
100
AcDbEntity
  8
1
100
AcDbVertex
100
AcDb3dPolylineVertex
 10
66.652345
 20
7.993367999999994
 30
-2.203593999999998
 70
    48
  0
VERTEX
  5
2E4F3
330
2E4F1
100
AcDbEntity
  8
1
100
AcDbVertex
100
AcDb3dPolylineVertex
 10
66.78451700000002
 20
7.920987999999996
 30
-2.203593999999998
 70
    48
  0
VERTEX
  5
2E4F4
330
2E4F1
100
AcDbEntity
  8
1
100
AcDbVertex
100
AcDb3dPolylineVertex
 10
66.86549699999999
 20
7.860374999999996
 30
-2.203593999999998
 70
    48
  0
VERTEX
  5
2E4F5
330
2E4F1
100
AcDbEntity
  8
1
100
AcDbVertex
100
AcDb3dPolylineVertex
 10
67.060124
 20
7.593803999999996
 30
-2.203593999999998
 70
    48
  0
VERTEX
  5
2E4F6
330
2E4F1
100
AcDbEntity
  8
1
100
AcDbVertex
100
AcDb3dPolylineVertex
 10
67.086484
 20
7.462554999999995
 30
-2.203593999999998
 70
    48
  0
VERTEX
  5
2E4F7
330
2E4F1
100
AcDbEntity
  8
1
100
AcDbVertex
100
AcDb3dPolylineVertex
 10
67.07189400000001
 20
7.188087999999996
 30
-2.203593999999998
 70
    48
  0
VERTEX
  5
2E4F8
330
2E4F1
100
AcDbEntity
  8
1
100
AcDbVertex
100
AcDb3dPolylineVertex
 10
67.03724600000001
 20
7.090375999999995
 30
-2.203593999999998
 70
    48
  0
VERTEX
  5
2E4F9
330
2E4F1
100
AcDbEntity
  8
1
100
AcDbVertex
100
AcDb3dPolylineVertex
 10
66.92076899999999
 20
6.851143999999996
 30
-2.203593999999998
 70
    48
  0
VERTEX
  5
2E4FA
330
2E4F1
100
AcDbEntity
  8
1
100
AcDbVertex
100
AcDb3dPolylineVertex
 10
66.84070500000001
 20
6.713884999999994
 30
-2.203593999999998
 70
    48
  0
VERTEX
  5
2E4FB
330
2E4F1
100
AcDbEntity
  8
1
100
AcDbVertex
100
AcDb3dPolylineVertex
 10
66.49204600000001
 20
6.239129999999994
 30
-2.203593999999998
 70
    48
  0
VERTEX
  5
2E4FC
330
2E4F1
100
AcDbEntity
  8
1
100
AcDbVertex
100
AcDb3dPolylineVertex
 10
66.12374700000001
 20
5.989242999999995
 30
-2.203593999999998
 70
    48
  0
VERTEX
  5
2E4FD
330
2E4F1
100
AcDbEntity
  8
1
100
AcDbVertex
100
AcDb3dPolylineVertex
 10
65.04450100000001
 20
5.269144999999995
 30
-2.203593999999998
 70
    48
  0
VERTEX
  5
2E4FE
330
2E4F1
100
AcDbEntity
  8
1
100
AcDbVertex
100
AcDb3dPolylineVertex
 10
64.23235600000001
 20
4.949080999999996
 30
-2.203593999999998
 70
    48
  0
VERTEX
  5
2E4FF
330
2E4F1
100
AcDbEntity
  8
1
100
AcDbVertex
100
AcDb3dPolylineVertex
 10
62.89421400000001
 20
4.746893999999993
 30
-2.203593999999998
 70
    48
  0
VERTEX
  5
2E500
330
2E4F1
100
AcDbEntity
  8
1
100
AcDbVertex
100
AcDb3dPolylineVertex
 10
62.491576
 20
4.778423999999994
 30
-2.203593999999998
 70
    48
  0
VERTEX
  5
2E501
330
2E4F1
100
AcDbEntity
  8
1
100
AcDbVertex
100
AcDb3dPolylineVertex
 10
61.666716
 20
5.253081999999995
 30
-2.203593999999998
 70
    48
  0
VERTEX
  5
2E502
330
2E4F1
100
AcDbEntity
  8
1
100
AcDbVertex
100
AcDb3dPolylineVertex
 10
61.564147
 20
5.416499999999995
 30
-2.203593999999998
 70
    48
  0
VERTEX
  5
2E503
330
2E4F1
100
AcDbEntity
  8
1
100
AcDbVertex
100
AcDb3dPolylineVertex
 10
61.505341
 20
6.176062999999996
 30
-2.203593999999998
 70
    48
  0
VERTEX
  5
2E504
330
2E4F1
100
AcDbEntity
  8
1
100
AcDbVertex
100
AcDb3dPolylineVertex
 10
61.528249
 20
6.310222999999995
 30
-2.203593999999998
 70
    48
  0
VERTEX
  5
2E505
330
2E4F1
100
AcDbEntity
  8
1
100
AcDbVertex
100
AcDb3dPolylineVertex
 10
61.76392800000001
 20
6.694563999999995
 30
-2.203593999999998
 70
    48
  0
VERTEX
  5
2E506
330
2E4F1
100
AcDbEntity
  8
1
100
AcDbVertex
100
AcDb3dPolylineVertex
 10
61.848611
 20
6.806382999999996
 30
-2.203593999999998
 70
    48
  0
VERTEX
  5
2E507
330
2E4F1
100
AcDbEntity
  8
1
100
AcDbVertex
100
AcDb3dPolylineVertex
 10
62.405255
 20
7.440615999999995
 30
-2.203593999999998
 70
    48
  0
VERTEX
  5
2E508
330
2E4F1
100
AcDbEntity
  8
1
100
AcDbVertex
100
AcDb3dPolylineVertex
 10
62.74363100000001
 20
7.604045999999994
 30
-2.203593999999998
 70
    48
  0
VERTEX
  5
2E509
330
2E4F1
100
AcDbEntity
  8
1
100
AcDbVertex
100
AcDb3dPolylineVertex
 10
63.64238
 20
8.052562999999995
 30
-2.203593999999998
 70
    48
  0
VERTEX
  5
2E50A
330
2E4F1
100
AcDbEntity
  8
1
100
AcDbVertex
100
AcDb3dPolylineVertex
 10
64.095701
 20
8.175080999999996
 30
-2.203593999999998
 70
    48
  0
VERTEX
  5
2E50B
330
2E4F1
100
AcDbEntity
  8
1
100
AcDbVertex
100
AcDb3dPolylineVertex
 10
65.33906400000001
 20
8.291874999999997
 30
-2.203593999999998
 70
    48
  0
VERTEX
  5
2E50C
330
2E4F1
100
AcDbEntity
  8
1
100
AcDbVertex
100
AcDb3dPolylineVertex
 10
66.009749
 20
8.345263999999996
 30
-2.203593999999998
 70
    48
  0
VERTEX
  5
2E50D
330
2E4F1
100
AcDbEntity
  8
1
100
AcDbVertex
100
AcDb3dPolylineVertex
 10
66.652345
 20
7.993367999999994
 30
-2.203593999999998
 70
    48
  0
VERTEX
  5
2E50E
330
2E4F1
100
AcDbEntity
  8
1
100
AcDbVertex
100
AcDb3dPolylineVertex
 10
66.652345
 20
7.993367999999994
 30
-2.203593999999998
 70
    40
  0
VERTEX
  5
2E50F
330
2E4F1
100
AcDbEntity
  8
1
100
AcDbVertex
100
AcDb3dPolylineVertex
 10
66.76974500000001
 20
7.922068999999996
 30
-2.203593999999998
 70
    40
  0
VERTEX
  5
2E510
330
2E4F1
100
AcDbEntity
  8
1
100
AcDbVertex
100
AcDb3dPolylineVertex
 10
66.86676999999999
 20
7.841565999999996
 30
-2.203593999999998
 70
    40
  0
VERTEX
  5
2E511
330
2E4F1
100
AcDbEntity
  8
1
100
AcDbVertex
100
AcDb3dPolylineVertex
 10
66.95717300000001
 20
7.734810999999995
 30
-2.203593999999998
 70
    40
  0
VERTEX
  5
2E512
330
2E4F1
100
AcDbEntity
  8
1
100
AcDbVertex
100
AcDb3dPolylineVertex
 10
67.036139
 20
7.595627999999996
 30
-2.203593999999998
 70
    40
  0
VERTEX
  5
2E513
330
2E4F1
100
AcDbEntity
  8
1
100
AcDbVertex
100
AcDb3dPolylineVertex
 10
67.073316
 20
7.454379999999995
 30
-2.203593999999998
 70
    40
  0
VERTEX
  5
2E514
330
2E4F1
100
AcDbEntity
  8
1
100
AcDbVertex
100
AcDb3dPolylineVertex
 10
67.07797600000001
 20
7.302494999999996
 30
-2.203593999999998
 70
    40
  0
VERTEX
  5
2E515
330
2E4F1
100
AcDbEntity
  8
1
100
AcDbVertex
100
AcDb3dPolylineVertex
 10
67.03253200000002
 20
7.091351999999995
 30
-2.203593999999998
 70
    40
  0
VERTEX
  5
2E516
330
2E4F1
100
AcDbEntity
  8
1
100
AcDbVertex
100
AcDb3dPolylineVertex
 10
66.91713400000001
 20
6.853125999999996
 30
-2.203593999999998
 70
    40
  0
VERTEX
  5
2E517
330
2E4F1
100
AcDbEntity
  8
1
100
AcDbVertex
100
AcDb3dPolylineVertex
 10
66.747078
 20
6.586395999999995
 30
-2.203593999999998
 70
    40
  0
VERTEX
  5
2E518
330
2E4F1
100
AcDbEntity
  8
1
100
AcDbVertex
100
AcDb3dPolylineVertex
 10
66.61068200000001
 20
6.420469999999991
 30
-2.203593999999998
 70
    40
  0
VERTEX
  5
2E519
330
2E4F1
100
AcDbEntity
  8
1
100
AcDbVertex
100
AcDb3dPolylineVertex
 10
66.45876100000001
 20
6.268320999999996
 30
-2.203593999999998
 70
    40
  0
VERTEX
  5
2E51A
330
2E4F1
100
AcDbEntity
  8
1
100
AcDbVertex
100
AcDb3dPolylineVertex
 10
66.12175999999999
 20
5.995551999999995
 30
-2.203593999999998
 70
    40
  0
VERTEX
  5
2E51B
330
2E4F1
100
AcDbEntity
  8
1
100
AcDbVertex
100
AcDb3dPolylineVertex
 10
65.76290100000001
 20
5.748477999999995
 30
-2.203593999999998
 70
    40
  0
VERTEX
  5
2E51C
330
2E4F1
100
AcDbEntity
  8
1
100
AcDbVertex
100
AcDb3dPolylineVertex
 10
65.396061
 20
5.522220999999995
 30
-2.203593999999998
 70
    40
  0
VERTEX
  5
2E51D
330
2E4F1
100
AcDbEntity
  8
1
100
AcDbVertex
100
AcDb3dPolylineVertex
 10
65.01463300000001
 20
5.323328999999993
 30
-2.203593999999998
 70
    40
  0
VERTEX
  5
2E51E
330
2E4F1
100
AcDbEntity
  8
1
100
AcDbVertex
100
AcDb3dPolylineVertex
 10
64.61965300000001
 20
5.152623999999994
 30
-2.203593999999998
 70
    40
  0
VERTEX
  5
2E51F
330
2E4F1
100
AcDbEntity
  8
1
100
AcDbVertex
100
AcDb3dPolylineVertex
 10
64.21215499999999
 20
5.010926999999996
 30
-2.203593999999998
 70
    40
  0
VERTEX
  5
2E520
330
2E4F1
100
AcDbEntity
  8
1
100
AcDbVertex
100
AcDb3dPolylineVertex
 10
63.793176
 20
4.899057999999993
 30
-2.203593999999998
 70
    40
  0
VERTEX
  5
2E521
330
2E4F1
100
AcDbEntity
  8
1
100
AcDbVertex
100
AcDb3dPolylineVertex
 10
63.36375100000001
 20
4.817838999999993
 30
-2.203593999999998
 70
    40
  0
VERTEX
  5
2E522
330
2E4F1
100
AcDbEntity
  8
1
100
AcDbVertex
100
AcDb3dPolylineVertex
 10
63.133811
 20
4.791609999999995
 30
-2.203593999999998
 70
    40
  0
VERTEX
  5
2E523
330
2E4F1
100
AcDbEntity
  8
1
100
AcDbVertex
100
AcDb3dPolylineVertex
 10
62.91054599999998
 20
4.786678999999995
 30
-2.203593999999998
 70
    40
  0
VERTEX
  5
2E524
330
2E4F1
100
AcDbEntity
  8
1
100
AcDbVertex
100
AcDb3dPolylineVertex
 10
62.689479
 20
4.807266999999995
 30
-2.203593999999998
 70
    40
  0
VERTEX
  5
2E525
330
2E4F1
100
AcDbEntity
  8
1
100
AcDbVertex
100
AcDb3dPolylineVertex
 10
62.46613599999999
 20
4.857591999999995
 30
-2.203593999999998
 70
    40
  0
VERTEX
  5
2E526
330
2E4F1
100
AcDbEntity
  8
1
100
AcDbVertex
100
AcDb3dPolylineVertex
 10
62.23604
 20
4.941875999999996
 30
-2.203593999999998
 70
    40
  0
VERTEX
  5
2E527
330
2E4F1
100
AcDbEntity
  8
1
100
AcDbVertex
100
AcDb3dPolylineVertex
 10
61.994716
 20
5.064336999999995
 30
-2.203593999999998
 70
    40
  0
VERTEX
  5
2E528
330
2E4F1
100
AcDbEntity
  8
1
100
AcDbVertex
100
AcDb3dPolylineVertex
 10
61.848776
 20
5.157995999999996
 30
-2.203593999999998
 70
    40
  0
VERTEX
  5
2E529
330
2E4F1
100
AcDbEntity
  8
1
100
AcDbVertex
100
AcDb3dPolylineVertex
 10
61.73604800000001
 20
5.255817999999996
 30
-2.203593999999998
 70
    40
  0
VERTEX
  5
2E52A
330
2E4F1
100
AcDbEntity
  8
1
100
AcDbVertex
100
AcDb3dPolylineVertex
 10
61.652174
 20
5.366187999999993
 30
-2.203593999999998
 70
    40
  0
VERTEX
  5
2E52B
330
2E4F1
100
AcDbEntity
  8
1
100
AcDbVertex
100
AcDb3dPolylineVertex
 10
61.592795
 20
5.497487999999995
 30
-2.203593999999998
 70
    40
  0
VERTEX
  5
2E52C
330
2E4F1
100
AcDbEntity
  8
1
100
AcDbVertex
100
AcDb3dPolylineVertex
 10
61.553553
 20
5.658102999999995
 30
-2.203593999999998
 70
    40
  0
VERTEX
  5
2E52D
330
2E4F1
100
AcDbEntity
  8
1
100
AcDbVertex
100
AcDb3dPolylineVertex
 10
61.521933
 20
6.001956999999996
 30
-2.203593999999998
 70
    40
  0
VERTEX
  5
2E52E
330
2E4F1
100
AcDbEntity
  8
1
100
AcDbVertex
100
AcDb3dPolylineVertex
 10
61.523204
 20
6.123622999999996
 30
-2.203593999999998
 70
    40
  0
VERTEX
  5
2E52F
330
2E4F1
100
AcDbEntity
  8
1
100
AcDbVertex
100
AcDb3dPolylineVertex
 10
61.55995700000001
 20
6.323501999999995
 30
-2.203593999999998
 70
    40
  0
VERTEX
  5
2E530
330
2E4F1
100
AcDbEntity
  8
1
100
AcDbVertex
100
AcDb3dPolylineVertex
 10
61.652216
 20
6.512385999999996
 30
-2.203593999999998
 70
    40
  0
VERTEX
  5
2E531
330
2E4F1
100
AcDbEntity
  8
1
100
AcDbVertex
100
AcDb3dPolylineVertex
 10
61.87118100000001
 20
6.826090999999996
 30
-2.203593999999998
 70
    40
  0
VERTEX
  5
2E532
330
2E4F1
100
AcDbEntity
  8
1
100
AcDbVertex
100
AcDb3dPolylineVertex
 10
62.205275
 20
7.195000999999995
 30
-2.203593999999998
 70
    40
  0
VERTEX
  5
2E533
330
2E4F1
100
AcDbEntity
  8
1
100
AcDbVertex
100
AcDb3dPolylineVertex
 10
62.39305699999999
 20
7.358667999999996
 30
-2.203593999999998
 70
    40
  0
VERTEX
  5
2E534
330
2E4F1
100
AcDbEntity
  8
1
100
AcDbVertex
100
AcDb3dPolylineVertex
 10
62.77212099999999
 20
7.610365999999997
 30
-2.203593999999998
 70
    40
  0
VERTEX
  5
2E535
330
2E4F1
100
AcDbEntity
  8
1
100
AcDbVertex
100
AcDb3dPolylineVertex
 10
63.184913
 20
7.824265999999996
 30
-2.203593999999998
 70
    40
  0
VERTEX
  5
2E536
330
2E4F1
100
AcDbEntity
  8
1
100
AcDbVertex
100
AcDb3dPolylineVertex
 10
63.643762
 20
8.018505999999995
 30
-2.203593999999998
 70
    40
  0
VERTEX
  5
2E537
330
2E4F1
100
AcDbEntity
  8
1
100
AcDbVertex
100
AcDb3dPolylineVertex
 10
64.116431
 20
8.149439999999994
 30
-2.203593999999998
 70
    40
  0
VERTEX
  5
2E538
330
2E4F1
100
AcDbEntity
  8
1
100
AcDbVertex
100
AcDb3dPolylineVertex
 10
64.61950300000001
 20
8.224283999999997
 30
-2.203593999999998
 70
    40
  0
VERTEX
  5
2E539
330
2E4F1
100
AcDbEntity
  8
1
100
AcDbVertex
100
AcDb3dPolylineVertex
 10
65.323542
 20
8.272656999999997
 30
-2.203593999999998
 70
    40
  0
VERTEX
  5
2E53A
330
2E4F1
100
AcDbEntity
  8
1
100
AcDbVertex
100
AcDb3dPolylineVertex
 10
65.66478599999999
 20
8.266133999999995
 30
-2.203593999999998
 70
    40
  0
VERTEX
  5
2E53B
330
2E4F1
100
AcDbEntity
  8
1
100
AcDbVertex
100
AcDb3dPolylineVertex
 10
65.999616
 20
8.224653999999995
 30
-2.203593999999998
 70
    40
  0
VERTEX
  5
2E53C
330
2E4F1
100
AcDbEntity
  8
1
100
AcDbVertex
100
AcDb3dPolylineVertex
 10
66.32861000000001
 20
8.137352999999997
 30
-2.203593999999998
 70
    40
  0
VERTEX
  5
2E53D
330
2E4F1
100
AcDbEntity
  8
1
100
AcDbVertex
100
AcDb3dPolylineVertex
 10
66.652345
 20
7.993367999999994
 30
-2.203593999999998
 70
    40
  0
SEQEND
  5
2E53E
330
2E4F1
100
AcDbEntity
  8
1
  0
TEXT
  5
2E53F
330
18
100
AcDbEntity
  8
16
100
AcDbText
 10
5.362193000000003
 20
-19.023518
 30
-2.203593999999998
 40
3.0
  1
C5-PTFNR-17090-16W
 50
90.0
 41
0.7653426037735845
  7
SANDVIK_STYLE
 72
     5
 11
5.362193000000003
 21
21.53963999999998
 31
-2.203593999999998
100
AcDbText
  0
DIMENSION
  5
2E540
330
18
100
AcDbEntity
  8
20
100
AcDbDimension
  2
*D23
 10
110.862193
 20
18.13306099999998
 30
-2.203593999999998
 11
110.862193
 21
9.69556099999999
 31
-2.203593999999998
 70
   160
  1
17
 71
     5
 42
16.87499999999999
  3
SANDVIK_STYLE
100
AcDbAlignedDimension
 13
96.987193
 23
1.258060999999994
 33
-2.203593999999998
 14
91.362193
 24
18.13306099999999
 34
-2.203593999999998
 50
90.0
100
AcDbRotatedDimension
  0
DIMENSION
  5
2E541
330
18
100
AcDbEntity
  8
12
100
AcDbDimension
  2
*D24
 10
-37.137807
 20
26.25806100000001
 30
-2.203593999999998
 11
-37.137807
 21
1.258061
 31
-2.203593999999998
 70
   160
  1
D=50
 71
     5
 42
50.0
  3
SANDVIK_STYLE
100
AcDbAlignedDimension
 13
1.362193000000004
 23
-23.74193900000001
 33
-2.203593999999998
 14
1.362193000000004
 24
26.258061
 34
-2.203593999999998
 50
90.0
100
AcDbRotatedDimension
  0
DIMENSION
  5
2E542
330
18
100
AcDbEntity
  8
12
100
AcDbDimension
  2
*D25
 10
44.120429
 20
13.75806099999998
 30
-2.203593999999998
 11
44.120429
 21
1.110692999999997
 31
-2.203593999999998
 70
   160
  1
%%c25.0
 71
     5
 42
25.0
  3
SANDVIK_STYLE
100
AcDbAlignedDimension
 13
24.21155800000001
 23
-11.241939
 33
-2.203593999999998
 14
24.21155800000001
 24
13.75806099999999
 34
-2.203593999999998
 50
90.0
100
AcDbRotatedDimension
  0
DIMENSION
  5
2E543
330
18
100
AcDbEntity
  8
20
100
AcDbDimension
  2
*D26
 10
91.362193
 20
36.63306099999998
 30
-2.203593999999998
 11
46.36219300000001
 21
36.63306099999998
 31
-2.203593999999998
 70
   160
  1
90.0
 71
     5
 42
90.0
 53
89.99999800000002
  3
SANDVIK_STYLE
100
AcDbAlignedDimension
 13
1.362193000000004
 23
26.258061
 33
-2.203593999999998
 14
91.362193
 24
18.13306099999999
 34
-2.203593999999998
100
AcDbRotatedDimension
  0
DIMENSION
  5
2E544
330
18
100
AcDbEntity
  8
12
100
AcDbDimension
  2
*D27
 10
91.362193
 20
26.633061
 30
-2.203593999999998
 11
57.786876
 21
26.633061
 31
-2.203593999999998
 70
   160
  1
67.2
 71
     5
 42
67.15063499999999
 53
89.99999800000002
  3
SANDVIK_STYLE
100
AcDbAlignedDimension
 13
24.21155800000001
 23
13.75806099999999
 33
-2.203593999999998
 14
91.362193
 24
18.13306099999999
 34
-2.203593999999998
100
AcDbRotatedDimension
  0
DIMENSION
  5
2E545
330
18
100
AcDbEntity
  8
20
100
AcDbDimension
  2
*D28
 10
91.06545699999999
 20
1.133060999999994
 30
-2.203593999999998
 11
109.7929797273615
 21
-17.79700197521532
 31
0.0
 70
    34
  1
91%%d0'
 71
     5
 42
1.588250554101834
 52
201.75
 53
314.5
  3
SANDVIK_STYLE
100
AcDb2LineAngularDimension
 13
96.987193
 23
1.258060999999994
 33
-2.203593999999998
 14
91.067639
 24
1.258060999999994
 34
-2.203593999999998
 15
91.067639
 25
1.258060999999994
 35
-2.203593999999998
 16
104.1554187596169
 26
-22.03236259659798
 36
0.0
  0
LINE
  5
2E546
330
18
100
AcDbEntity
  8
80
100
AcDbLine
 10
1.362193000000004
 20
1.258060999999998
 30
-2.203593999999998
 11
-31.19700407013728
 21
1.258061
 31
-2.203593999999998
  0
LINE
  5
2E547
330
18
100
AcDbEntity
  8
81
100
AcDbLine
 10
1.362193000000004
 20
1.258060999999998
 30
-2.203593999999998
 11
95.31868097768013
 21
1.258060999999994
 31
-2.203593999999998
  0
INSERT
  5
2E548
330
18
100
AcDbEntity
  8
5
100
AcDbBlockReference
  2
_nullpunkt
 10
1.362192999999999
 20
1.258061
 30
-2.203593999999998
  0
TEXT
  5
2E549
330
18
100
AcDbEntity
  8
5
100
AcDbText
 10
-1.137807
 20
1.258061
 30
-2.203593999999998
 40
0.1
  1
ISOORIENTED
100
AcDbText
  0
ENDSEC
  0
SECTION
  2
OBJECTS
  0
DICTIONARY
  5
C
330
0
100
AcDbDictionary
281
     1
  3
ACAD_2007HEADERVARS_RT
350
2E63E
  3
ACAD_CIP_PREVIOUS_PRODUCT_INFO
350
2E604
  3
ACAD_COLOR
350
387
  3
ACAD_DETAILVIEWSTYLE
350
2E601
  3
ACAD_GROUP
350
D
  3
ACAD_LAYOUT
350
301
  3
ACAD_MATERIAL
350
386
  3
ACAD_MLEADERSTYLE
350
43C
  3
ACAD_MLINESTYLE
350
E
  3
ACAD_PLOTSETTINGS
350
302
  3
ACAD_PLOTSTYLENAME
350
2FF
  3
ACAD_SCALELIST
350
41A
  3
ACAD_SECTIONVIEWSTYLE
350
2E5FF
  3
ACAD_TABLESTYLE
350
388
  3
ACAD_VISUALSTYLE
350
3F2
  3
ACDB_RECOMPOSE_DATA
350
2E63C
  3
AcDbVariableDictionary
350
357
  3
DWGPROPS
350
2E63D
  0
DICTIONARY
  5
2E607
330
F
100
AcDbDictionary
280
     1
281
     1
  3
ADSK_XREC_LAYER_RECONCILED
360
2E608
  0
DICTIONARY
  5
2E609
330
23
100
AcDbDictionary
280
     1
281
     1
  3
ADSK_XREC_LAYER_RECONCILED
360
2E60A
  0
DICTIONARY
  5
2E60B
330
2E2DF
100
AcDbDictionary
280
     1
281
     1
  3
ADSK_XREC_LAYER_RECONCILED
360
2E60C
  0
DICTIONARY
  5
2E60D
330
2E2E1
100
AcDbDictionary
280
     1
281
     1
  3
ADSK_XREC_LAYER_RECONCILED
360
2E60E
  0
DICTIONARY
  5
2E60F
330
2E2E2
100
AcDbDictionary
280
     1
281
     1
  3
ADSK_XREC_LAYER_RECONCILED
360
2E610
  0
DICTIONARY
  5
2E611
330
2E2E3
100
AcDbDictionary
280
     1
281
     1
  3
ADSK_XREC_LAYER_RECONCILED
360
2E612
  0
DICTIONARY
  5
2E613
330
2E2E4
100
AcDbDictionary
280
     1
281
     1
  3
ADSK_XREC_LAYER_RECONCILED
360
2E614
  0
DICTIONARY
  5
2E615
330
2E2E5
100
AcDbDictionary
280
     1
281
     1
  3
ADSK_XREC_LAYER_RECONCILED
360
2E616
  0
DICTIONARY
  5
2E617
330
2E2E6
100
AcDbDictionary
280
     1
281
     1
  3
ADSK_XREC_LAYER_RECONCILED
360
2E618
  0
DICTIONARY
  5
2E619
330
2E2E7
100
AcDbDictionary
280
     1
281
     1
  3
ADSK_XREC_LAYER_RECONCILED
360
2E61A
  0
DICTIONARY
  5
2E61B
330
2E2E8
100
AcDbDictionary
280
     1
281
     1
  3
ADSK_XREC_LAYER_RECONCILED
360
2E61C
  0
DICTIONARY
  5
2E61D
330
2E2E9
100
AcDbDictionary
280
     1
281
     1
  3
ADSK_XREC_LAYER_RECONCILED
360
2E61E
  0
DICTIONARY
  5
2E61F
330
2E2EA
100
AcDbDictionary
280
     1
281
     1
  3
ADSK_XREC_LAYER_RECONCILED
360
2E620
  0
DICTIONARY
  5
2E621
330
2E2EB
100
AcDbDictionary
280
     1
281
     1
  3
ADSK_XREC_LAYER_RECONCILED
360
2E622
  0
DICTIONARY
  5
2E623
330
2E2EC
100
AcDbDictionary
280
     1
281
     1
  3
ADSK_XREC_LAYER_RECONCILED
360
2E624
  0
DICTIONARY
  5
2E625
330
2E2ED
100
AcDbDictionary
280
     1
281
     1
  3
ADSK_XREC_LAYER_RECONCILED
360
2E626
  0
DICTIONARY
  5
2E627
330
2E2EE
100
AcDbDictionary
280
     1
281
     1
  3
ADSK_XREC_LAYER_RECONCILED
360
2E628
  0
DICTIONARY
  5
2E629
330
2E2EF
100
AcDbDictionary
280
     1
281
     1
  3
ADSK_XREC_LAYER_RECONCILED
360
2E62A
  0
DICTIONARY
  5
2E62B
330
2E2F0
100
AcDbDictionary
280
     1
281
     1
  3
ADSK_XREC_LAYER_RECONCILED
360
2E62C
  0
DICTIONARY
  5
2E62D
330
2E2F1
100
AcDbDictionary
280
     1
281
     1
  3
ADSK_XREC_LAYER_RECONCILED
360
2E62E
  0
DICTIONARY
  5
2E62F
330
2E2F2
100
AcDbDictionary
280
     1
281
     1
  3
ADSK_XREC_LAYER_RECONCILED
360
2E630
  0
DICTIONARY
  5
2E631
330
2E2F3
100
AcDbDictionary
280
     1
281
     1
  3
ADSK_XREC_LAYER_RECONCILED
360
2E632
  0
DICTIONARY
  5
2E633
330
2E2F4
100
AcDbDictionary
280
     1
281
     1
  3
ADSK_XREC_LAYER_RECONCILED
360
2E634
  0
DICTIONARY
  5
2E635
330
2E2F5
100
AcDbDictionary
280
     1
281
     1
  3
ADSK_XREC_LAYER_RECONCILED
360
2E636
  0
DICTIONARY
  5
2E2B8
330
2E2B7
100
AcDbDictionary
280
     1
281
     1
  3
ACAD_SORTENTS
360
2E2B9
  0
DICTIONARY
  5
2E63E
102
{ACAD_REACTORS
330
C
102
}
330
C
100
AcDbDictionary
281
     1
  3
DIMJOGANG
350
2E63F
  0
XRECORD
  5
2E604
102
{ACAD_REACTORS
330
C
102
}
330
C
100
AcDbXrecord
280
     1
300
AMECH_PP
300
2013
300
PDSU_F_S
  0
DICTIONARY
  5
387
102
{ACAD_REACTORS
330
C
102
}
330
C
100
AcDbDictionary
281
     1
  0
DICTIONARY
  5
2E601
102
{ACAD_REACTORS
330
C
102
}
330
C
100
AcDbDictionary
281
     1
  3
Metric50
350
2E602
  0
DICTIONARY
  5
D
102
{ACAD_REACTORS
330
C
102
}
330
C
100
AcDbDictionary
281
     1
  0
DICTIONARY
  5
301
102
{ACAD_REACTORS
330
C
102
}
330
C
100
AcDbDictionary
281
     1
  3
Layout1
350
33B
  3
Model
350
303
  0
DICTIONARY
  5
386
102
{ACAD_REACTORS
330
C
102
}
330
C
100
AcDbDictionary
281
     1
  3
ByBlock
350
3F0
  3
ByLayer
350
3EF
  3
Global
350
3F1
  0
DICTIONARY
  5
43C
102
{ACAD_REACTORS
330
C
102
}
330
C
100
AcDbDictionary
281
     1
  3
Standard
350
43D
  0
DICTIONARY
  5
E
102
{ACAD_REACTORS
330
C
102
}
330
C
100
AcDbDictionary
281
     1
  3
STANDARD
350
1B
  0
DICTIONARY
  5
302
102
{ACAD_REACTORS
330
C
102
}
330
C
100
AcDbDictionary
281
     1
  0
ACDBDICTIONARYWDFLT
  5
2FF
102
{ACAD_REACTORS
330
C
102
}
330
C
100
AcDbDictionary
281
     1
  3
Normal
350
300
100
AcDbDictionaryWithDefault
340
300
  0
DICTIONARY
  5
41A
102
{ACAD_REACTORS
330
C
102
}
330
C
100
AcDbDictionary
281
     1
  3
A0
350
41B
  3
A1
350
41C
  3
A2
350
41D
  3
A3
350
41E
  3
A4
350
41F
  3
A5
350
420
  3
A6
350
421
  3
A7
350
422
  3
A8
350
423
  3
A9
350
424
  3
B0
350
425
  3
B1
350
426
  3
B2
350
427
  3
B3
350
428
  3
B4
350
429
  3
B5
350
42A
  3
B6
350
42B
  3
B7
350
42C
  3
B8
350
42D
  3
B9
350
42E
  3
C0
350
42F
  3
C1
350
430
  3
C2
350
431
  3
C3
350
432
  3
C4
350
433
  3
C5
350
434
  3
C6
350
435
  3
C7
350
436
  3
C8
350
437
  3
C9
350
438
  3
D0
350
439
  3
D1
350
43A
  3
D2
350
43B
  0
DICTIONARY
  5
2E5FF
102
{ACAD_REACTORS
330
C
102
}
330
C
100
AcDbDictionary
281
     1
  3
Metric50
350
2E600
  0
DICTIONARY
  5
388
102
{ACAD_REACTORS
330
C
102
}
330
C
100
AcDbDictionary
281
     1
  3
Standard
350
389
  0
DICTIONARY
  5
3F2
102
{ACAD_REACTORS
330
C
102
}
330
C
100
AcDbDictionary
281
     1
  3
2dWireframe
350
3F8
  3
3D Hidden
350
3FA
  3
3dWireframe
350
3F9
  3
Basic
350
3F7
  3
Brighten
350
3FE
  3
ColorChange
350
402
  3
Conceptual
350
3FB
  3
Dim
350
3FD
  3
EdgeColorOff
350
44E
  3
Facepattern
350
401
  3
Flat
350
3F3
  3
FlatWithEdges
350
3F4
  3
Gouraud
350
3F5
  3
GouraudWithEdges
350
3F6
  3
Hidden
350
2E5F9
  3
JitterOff
350
44C
  3
Linepattern
350
400
  3
OverhangOff
350
44D
  3
Realistic
350
3FC
  3
Shaded
350
2E5FE
  3
Shaded with edges
350
2E5FD
  3
Shades of Gray
350
2E5FA
  3
Sketchy
350
2E5FB
  3
Thicken
350
3FF
  3
Wireframe
350
2E5F8
  3
X-Ray
350
2E5FC
  0
XRECORD
  5
2E63C
102
{ACAD_REACTORS
330
C
102
}
330
C
100
AcDbXrecord
280
     1
 90
        1
330
389
  0
DICTIONARY
  5
357
102
{ACAD_REACTORS
330
C
102
}
330
C
100
AcDbDictionary
281
     1
  3
CANNOSCALE
350
449
  3
CMLEADERSTYLE
350
447
  3
CTABLESTYLE
350
38E
  3
CVIEWDETAILSTYLE
350
2E637
  3
CVIEWSECTIONSTYLE
350
2E638
  3
DIMASSOC
350
359
  3
HIDETEXT
350
358
  3
INDEXCTL
350
728
  3
LAYEREVAL
350
458
  3
LAYERNOTIFY
350
459
  3
LIGHTINGUNITS
350
44A
  3
MSLTSCALE
350
448
  3
SORTENTS
350
727
  3
XCLIPFRAME
350
2E639
  0
XRECORD
  5
2E63D
102
{ACAD_REACTORS
330
C
102
}
330
C
100
AcDbXrecord
280
     1
  1
DWGPROPS COOKIE
  2

  3

  4

  6

  7

  8
Micke
  9

300
=
301
=
302
=
303
=
304
=
305
=
306
=
307
=
308
=
309
=
 40
0.0014883333333333
 41
2455883.64348684
 42
2456817.856398854
  1

 90
        0
  0
XRECORD
  5
2E608
102
{ACAD_REACTORS
330
2E607
102
}
330
2E607
100
AcDbXrecord
280
     1
290
     1
  0
XRECORD
  5
2E60A
102
{ACAD_REACTORS
330
2E609
102
}
330
2E609
100
AcDbXrecord
280
     1
290
     1
  0
XRECORD
  5
2E60C
102
{ACAD_REACTORS
330
2E60B
102
}
330
2E60B
100
AcDbXrecord
280
     1
290
     1
  0
XRECORD
  5
2E60E
102
{ACAD_REACTORS
330
2E60D
102
}
330
2E60D
100
AcDbXrecord
280
     1
290
     1
  0
XRECORD
  5
2E610
102
{ACAD_REACTORS
330
2E60F
102
}
330
2E60F
100
AcDbXrecord
280
     1
290
     1
  0
XRECORD
  5
2E612
102
{ACAD_REACTORS
330
2E611
102
}
330
2E611
100
AcDbXrecord
280
     1
290
     1
  0
XRECORD
  5
2E614
102
{ACAD_REACTORS
330
2E613
102
}
330
2E613
100
AcDbXrecord
280
     1
290
     1
  0
XRECORD
  5
2E616
102
{ACAD_REACTORS
330
2E615
102
}
330
2E615
100
AcDbXrecord
280
     1
290
     1
  0
XRECORD
  5
2E618
102
{ACAD_REACTORS
330
2E617
102
}
330
2E617
100
AcDbXrecord
280
     1
290
     1
  0
XRECORD
  5
2E61A
102
{ACAD_REACTORS
330
2E619
102
}
330
2E619
100
AcDbXrecord
280
     1
290
     1
  0
XRECORD
  5
2E61C
102
{ACAD_REACTORS
330
2E61B
102
}
330
2E61B
100
AcDbXrecord
280
     1
290
     1
  0
XRECORD
  5
2E61E
102
{ACAD_REACTORS
330
2E61D
102
}
330
2E61D
100
AcDbXrecord
280
     1
290
     1
  0
XRECORD
  5
2E620
102
{ACAD_REACTORS
330
2E61F
102
}
330
2E61F
100
AcDbXrecord
280
     1
290
     1
  0
XRECORD
  5
2E622
102
{ACAD_REACTORS
330
2E621
102
}
330
2E621
100
AcDbXrecord
280
     1
290
     1
  0
XRECORD
  5
2E624
102
{ACAD_REACTORS
330
2E623
102
}
330
2E623
100
AcDbXrecord
280
     1
290
     1
  0
XRECORD
  5
2E626
102
{ACAD_REACTORS
330
2E625
102
}
330
2E625
100
AcDbXrecord
280
     1
290
     1
  0
XRECORD
  5
2E628
102
{ACAD_REACTORS
330
2E627
102
}
330
2E627
100
AcDbXrecord
280
     1
290
     1
  0
XRECORD
  5
2E62A
102
{ACAD_REACTORS
330
2E629
102
}
330
2E629
100
AcDbXrecord
280
     1
290
     1
  0
XRECORD
  5
2E62C
102
{ACAD_REACTORS
330
2E62B
102
}
330
2E62B
100
AcDbXrecord
280
     1
290
     1
  0
XRECORD
  5
2E62E
102
{ACAD_REACTORS
330
2E62D
102
}
330
2E62D
100
AcDbXrecord
280
     1
290
     1
  0
XRECORD
  5
2E630
102
{ACAD_REACTORS
330
2E62F
102
}
330
2E62F
100
AcDbXrecord
280
     1
290
     1
  0
XRECORD
  5
2E632
102
{ACAD_REACTORS
330
2E631
102
}
330
2E631
100
AcDbXrecord
280
     1
290
     1
  0
XRECORD
  5
2E634
102
{ACAD_REACTORS
330
2E633
102
}
330
2E633
100
AcDbXrecord
280
     1
290
     1
  0
XRECORD
  5
2E636
102
{ACAD_REACTORS
330
2E635
102
}
330
2E635
100
AcDbXrecord
280
     1
290
     1
  0
SORTENTSTABLE
  5
2E2B9
102
{ACAD_REACTORS
330
2E2B8
102
}
330
2E2B8
100
AcDbSortentsTable
330
2E2B7
  0
XRECORD
  5
2E63F
102
{ACAD_REACTORS
330
2E63E
102
}
330
2E63E
100
AcDbXrecord
280
     1
 40
1.570796326794896
  0
ACDBDETAILVIEWSTYLE
  5
2E602
102
{ACAD_REACTORS
330
2E601
102
}
330
2E601
100
AcDbModelDocViewStyle
 70
     0
  3
Metric50
290
     0
100
AcDbDetailViewStyle
 70
     0
 71
     0
 90
        3
 71
     1
340
10
 40
5.0
340
0
 40
5.0
300

 40
0.0
280
     1
 71
     2
340
14
 90
       25
 71
     3
340
10
 40
5.0
 90
        0
 40
15.0
 90
        1
300
%<\AcVar ViewDetailId>% (%<\AcVar ViewScale \f "%sn">%)
 71
     4
340
14
 90
       25
340
14
 90
       25
280
     0
  0
LAYOUT
  5
33B
102
{ACAD_XDICTIONARY
360
2E642
102
}
102
{ACAD_REACTORS
330
301
102
}
330
301
100
AcDbPlotSettings
  1

  2
Lexmark Optra PS2
  4

  6

 40
0.0
 41
0.0
 42
0.0
 43
0.0
 44
0.0
 45
0.0
 46
0.0
 47
0.0
 48
0.0
 49
0.0
140
0.0
141
0.0
142
1.0
143
1.0
 70
   688
 72
     0
 73
     0
 74
     5
  7
monochrome.ctb
 75
    16
147
1.0
148
0.0
149
0.0
100
AcDbLayout
  1
Layout1
 70
     1
 71
     1
 10
0.0
 20
0.0
 11
12.0
 21
9.0
 12
0.0
 22
0.0
 32
0.0
 14
0.0
 24
0.0
 34
0.0
 15
0.0
 25
0.0
 35
0.0
146
0.0
 13
0.0
 23
0.0
 33
0.0
 16
1.0
 26
0.0
 36
0.0
 17
0.0
 27
1.0
 37
0.0
 76
     0
330
338
  0
LAYOUT
  5
303
102
{ACAD_XDICTIONARY
360
2E640
102
}
102
{ACAD_REACTORS
330
301
102
}
330
301
100
AcDbPlotSettings
  1

  2
Default Windows System Printer.pc3
  4
A4
  6

 40
6.805083274841307
 41
5.535083293914794
 42
6.974411010742187
 43
7.14373779296875
 44
209.9733276367186
 45
296.9259948730469
 46
67.83299579489725
 47
0.0
 48
0.0
 49
0.0
140
0.0
141
0.0
142
1.0
143
0.3604333568168785
 70
  3764
 72
     1
 73
     1
 74
     1
  7
monochrome.ctb
 75
     0
147
2.774437995504559
148
-82.35087775247029
149
-53.69369632994493
100
AcDbLayout
  1
Model
 70
     1
 71
     0
 10
0.0
 20
0.0
 11
12.0
 21
9.0
 12
0.0
 22
0.0
 32
0.0
 14
0.0
 24
0.0
 34
0.0
 15
0.0
 25
0.0
 35
0.0
146
0.0
 13
0.0
 23
0.0
 33
0.0
 16
1.0
 26
0.0
 36
0.0
 17
0.0
 27
1.0
 37
0.0
 76
     0
330
18
331
3ED
1001
ACAD_PSEXT
1000
Default Windows System Printer.pc3
1000
Lexmark Optra Rx
1000
Lexmark Rx
1000
Erstellt von Lexmark Benutzerdefinierte Installation,Nov 13,2005,10:03
1070
     0
  0
MATERIAL
  5
3F0
102
{ACAD_XDICTIONARY
360
2E5CA
102
}
102
{ACAD_REACTORS
330
386
102
}
330
386
100
AcDbMaterial
  1
ByBlock
 73
     1
 78
     1
172
     1
176
     1
270
     1
274
     1
  0
MATERIAL
  5
3EF
102
{ACAD_XDICTIONARY
360
2E5C8
102
}
102
{ACAD_REACTORS
330
386
102
}
330
386
100
AcDbMaterial
  1
ByLayer
 73
     1
 78
     1
172
     1
176
     1
270
     1
274
     1
  0
MATERIAL
  5
3F1
102
{ACAD_XDICTIONARY
360
2E5CC
102
}
102
{ACAD_REACTORS
330
386
102
}
330
386
100
AcDbMaterial
  1
Global
 73
     1
 78
     1
172
     1
176
     1
270
     1
274
     1
  0
MLEADERSTYLE
  5
43D
102
{ACAD_REACTORS
330
43C
102
}
330
43C
100
AcDbMLeaderStyle
170
     2
171
     1
172
     0
 90
        2
 40
0.0
 41
0.0
173
     1
 91
-1056964608
340
12
 92
       -2
290
     1
 42
2.0
291
     1
 43
0.36
  3
Standard
 44
4.0
300

342
10
174
     1
178
     6
175
     1
176
     0
 93
-1056964608
 45
4.0
292
     0
297
     0
 46
4.0
 94
-1056964608
 47
1.0
 49
1.0
140
1.0
293
     1
141
0.0
294
     1
177
     0
142
1.0
295
     0
296
     0
143
0.125
1001
ACAD_MLEADERVER
1070
     2
  0
MLINESTYLE
  5
1B
102
{ACAD_REACTORS
330
E
102
}
330
E
100
AcDbMlineStyle
  2
STANDARD
 70
     0
  3

 62
     0
 51
90.0
 52
90.0
 71
     2
 49
0.5
 62
   256
  6
BYLAYER
 49
-0.5
 62
   256
  6
BYLAYER
  0
ACDBPLACEHOLDER
  5
300
102
{ACAD_REACTORS
330
2FF
102
}
330
2FF
  0
SCALE
  5
41B
102
{ACAD_REACTORS
330
41A
102
}
330
41A
100
AcDbScale
 70
     0
300
1:1
140
1.0
141
1.0
290
     1
  0
SCALE
  5
41C
102
{ACAD_REACTORS
330
41A
102
}
330
41A
100
AcDbScale
 70
     0
300
1:2
140
1.0
141
2.0
290
     0
  0
SCALE
  5
41D
102
{ACAD_REACTORS
330
41A
102
}
330
41A
100
AcDbScale
 70
     0
300
1:4
140
1.0
141
4.0
290
     0
  0
SCALE
  5
41E
102
{ACAD_REACTORS
330
41A
102
}
330
41A
100
AcDbScale
 70
     0
300
1:5
140
1.0
141
5.0
290
     0
  0
SCALE
  5
41F
102
{ACAD_REACTORS
330
41A
102
}
330
41A
100
AcDbScale
 70
     0
300
1:8
140
1.0
141
8.0
290
     0
  0
SCALE
  5
420
102
{ACAD_REACTORS
330
41A
102
}
330
41A
100
AcDbScale
 70
     0
300
1:10
140
1.0
141
10.0
290
     0
  0
SCALE
  5
421
102
{ACAD_REACTORS
330
41A
102
}
330
41A
100
AcDbScale
 70
     0
300
1:16
140
1.0
141
16.0
290
     0
  0
SCALE
  5
422
102
{ACAD_REACTORS
330
41A
102
}
330
41A
100
AcDbScale
 70
     0
300
1:20
140
1.0
141
20.0
290
     0
  0
SCALE
  5
423
102
{ACAD_REACTORS
330
41A
102
}
330
41A
100
AcDbScale
 70
     0
300
1:30
140
1.0
141
30.0
290
     0
  0
SCALE
  5
424
102
{ACAD_REACTORS
330
41A
102
}
330
41A
100
AcDbScale
 70
     0
300
1:40
140
1.0
141
40.0
290
     0
  0
SCALE
  5
425
102
{ACAD_REACTORS
330
41A
102
}
330
41A
100
AcDbScale
 70
     0
300
1:50
140
1.0
141
50.0
290
     0
  0
SCALE
  5
426
102
{ACAD_REACTORS
330
41A
102
}
330
41A
100
AcDbScale
 70
     0
300
1:100
140
1.0
141
100.0
290
     0
  0
SCALE
  5
427
102
{ACAD_REACTORS
330
41A
102
}
330
41A
100
AcDbScale
 70
     0
300
2:1
140
2.0
141
1.0
290
     0
  0
SCALE
  5
428
102
{ACAD_REACTORS
330
41A
102
}
330
41A
100
AcDbScale
 70
     0
300
4:1
140
4.0
141
1.0
290
     0
  0
SCALE
  5
429
102
{ACAD_REACTORS
330
41A
102
}
330
41A
100
AcDbScale
 70
     0
300
8:1
140
8.0
141
1.0
290
     0
  0
SCALE
  5
42A
102
{ACAD_REACTORS
330
41A
102
}
330
41A
100
AcDbScale
 70
     0
300
10:1
140
10.0
141
1.0
290
     0
  0
SCALE
  5
42B
102
{ACAD_REACTORS
330
41A
102
}
330
41A
100
AcDbScale
 70
     0
300
100:1
140
100.0
141
1.0
290
     0
  0
SCALE
  5
42C
102
{ACAD_REACTORS
330
41A
102
}
330
41A
100
AcDbScale
 70
     0
300
1/128" = 1'-0"
140
0.0078125
141
12.0
290
     0
  0
SCALE
  5
42D
102
{ACAD_REACTORS
330
41A
102
}
330
41A
100
AcDbScale
 70
     0
300
1/64" = 1'-0"
140
0.015625
141
12.0
290
     0
  0
SCALE
  5
42E
102
{ACAD_REACTORS
330
41A
102
}
330
41A
100
AcDbScale
 70
     0
300
1/32" = 1'-0"
140
0.03125
141
12.0
290
     0
  0
SCALE
  5
42F
102
{ACAD_REACTORS
330
41A
102
}
330
41A
100
AcDbScale
 70
     0
300
1/16" = 1'-0"
140
0.0625
141
12.0
290
     0
  0
SCALE
  5
430
102
{ACAD_REACTORS
330
41A
102
}
330
41A
100
AcDbScale
 70
     0
300
3/32" = 1'-0"
140
0.09375
141
12.0
290
     0
  0
SCALE
  5
431
102
{ACAD_REACTORS
330
41A
102
}
330
41A
100
AcDbScale
 70
     0
300
1/8" = 1'-0"
140
0.125
141
12.0
290
     0
  0
SCALE
  5
432
102
{ACAD_REACTORS
330
41A
102
}
330
41A
100
AcDbScale
 70
     0
300
3/16" = 1'-0"
140
0.1875
141
12.0
290
     0
  0
SCALE
  5
433
102
{ACAD_REACTORS
330
41A
102
}
330
41A
100
AcDbScale
 70
     0
300
1/4" = 1'-0"
140
0.25
141
12.0
290
     0
  0
SCALE
  5
434
102
{ACAD_REACTORS
330
41A
102
}
330
41A
100
AcDbScale
 70
     0
300
3/8" = 1'-0"
140
0.375
141
12.0
290
     0
  0
SCALE
  5
435
102
{ACAD_REACTORS
330
41A
102
}
330
41A
100
AcDbScale
 70
     0
300
1/2" = 1'-0"
140
0.5
141
12.0
290
     0
  0
SCALE
  5
436
102
{ACAD_REACTORS
330
41A
102
}
330
41A
100
AcDbScale
 70
     0
300
3/4" = 1'-0"
140
0.75
141
12.0
290
     0
  0
SCALE
  5
437
102
{ACAD_REACTORS
330
41A
102
}
330
41A
100
AcDbScale
 70
     0
300
1" = 1'-0"
140
1.0
141
12.0
290
     0
  0
SCALE
  5
438
102
{ACAD_REACTORS
330
41A
102
}
330
41A
100
AcDbScale
 70
     0
300
1-1/2" = 1'-0"
140
1.5
141
12.0
290
     0
  0
SCALE
  5
439
102
{ACAD_REACTORS
330
41A
102
}
330
41A
100
AcDbScale
 70
     0
300
3" = 1'-0"
140
3.0
141
12.0
290
     0
  0
SCALE
  5
43A
102
{ACAD_REACTORS
330
41A
102
}
330
41A
100
AcDbScale
 70
     0
300
6" = 1'-0"
140
6.0
141
12.0
290
     0
  0
SCALE
  5
43B
102
{ACAD_REACTORS
330
41A
102
}
330
41A
100
AcDbScale
 70
     0
300
1'-0" = 1'-0"
140
12.0
141
12.0
290
     0
  0
ACDBSECTIONVIEWSTYLE
  5
2E600
102
{ACAD_REACTORS
330
2E5FF
102
}
330
2E5FF
100
AcDbModelDocViewStyle
 70
     0
  3
Metric50
290
     0
100
AcDbSectionViewStyle
 70
     0
 71
     0
 90
      102
 71
     1
340
10
 40
5.0
340
0
340
0
 40
5.0
300
I, O, Q, S, X, Z
 40
10.0
 90
        0
 40
2.5
 90
        0
 71
     2
340
14
 90
       25
340
14
 90
       50
 40
5.0
 40
2.5
 40
5.0
 71
     3
340
10
 40
5.0
 90
        0
 40
15.0
 90
        1
300
%<\AcVar ViewSectionStartId>%-%<\AcVar ViewSectionEndId>% (%<\AcVar ViewScale \f "%sn">%)
 71
     4
300
ANSI31
 40
1.0
 90
        0
290
     0
290
     0
 90
        6
 40
0.0
 40
1.570796326794896
 40
0.2617993877991494
 40
1.308996938995747
 40
-0.2617993877991494
 40
1.832595714594046
  0
TABLESTYLE
  5
389
102
{ACAD_XDICTIONARY
360
444
102
}
102
{ACAD_REACTORS
330
388
102
}
330
388
100
AcDbTableStyle
  3
Standard
 70
     0
 71
     0
 40
1.5
 41
1.5
280
     0
281
     0
  7
STANDARD
140
4.5
170
     2
 62
     0
 63
     7
283
     0
274
    -2
284
     1
 64
     0
275
    -2
285
     1
 65
     0
276
    -2
286
     1
 66
     0
277
    -2
287
     1
 67
     0
278
    -2
288
     1
 68
     0
279
    -2
289
     1
 69
     0
  7
STANDARD
140
6.0
170
     5
 62
     0
 63
     7
283
     0
274
    -2
284
     1
 64
     0
275
    -2
285
     1
 65
     0
276
    -2
286
     1
 66
     0
277
    -2
287
     1
 67
     0
278
    -2
288
     1
 68
     0
279
    -2
289
     1
 69
     0
  7
STANDARD
140
4.5
170
     5
 62
     0
 63
     7
283
     0
274
    -2
284
     1
 64
     0
275
    -2
285
     1
 65
     0
276
    -2
286
     1
 66
     0
277
    -2
287
     1
 67
     0
278
    -2
288
     1
 68
     0
279
    -2
289
     1
 69
     0
  0
VISUALSTYLE
  5
3F8
102
{ACAD_XDICTIONARY
360
2E64F
102
}
102
{ACAD_REACTORS
330
3F2
102
}
330
3F2
100
AcDbVisualStyle
  2

 70
     4
 71
     0
 72
     2
 73
     0
 90
        0
 40
-0.6
 41
-30.0
 62
     5
 63
     7
 74
     1
 91
        4
 64
     7
 65
   257
 75
     1
175
     1
 42
1.0
 92
        0
 66
   257
 43
1.0
 76
     1
 77
     6
 78
     2
 67
     7
 79
     5
170
     0
171
     0
290
     0
174
     0
 93
        1
 44
0.0
173
     0
291
     0
 45
0.0
1001
ACAD
1000
AcDbSavedByObjectVersion
1070
     0
  0
VISUALSTYLE
  5
3FA
102
{ACAD_XDICTIONARY
360
2E653
102
}
102
{ACAD_REACTORS
330
3F2
102
}
330
3F2
100
AcDbVisualStyle
  2

 70
     6
 71
     1
 72
     2
 73
     2
 90
        0
 40
-0.6
 41
-30.0
 62
     5
 63
     7
 74
     2
 91
        2
 64
     7
 65
   257
 75
     2
175
     1
 42
40.0
 92
        0
 66
   257
 43
1.0
 76
     1
 77
     6
 78
     2
 67
     7
 79
     3
170
     0
171
     0
290
     0
174
     0
 93
        1
 44
0.0
173
     0
291
     0
 45
0.0
1001
ACAD
1000
AcDbSavedByObjectVersion
1070
     0
  0
VISUALSTYLE
  5
3F9
102
{ACAD_XDICTIONARY
360
2E651
102
}
102
{ACAD_REACTORS
330
3F2
102
}
330
3F2
100
AcDbVisualStyle
  2

 70
     5
 71
     0
 72
     2
 73
     0
 90
        0
 40
-0.6
 41
-30.0
 62
     5
 63
     7
 74
     1
 91
        4
 64
     7
 65
   257
 75
     1
175
     1
 42
1.0
 92
        0
 66
   257
 43
1.0
 76
     1
 77
     6
 78
     2
 67
     7
 79
     5
170
     0
171
     0
290
     0
174
     0
 93
        1
 44
0.0
173
     0
291
     0
 45
0.0
1001
ACAD
1000
AcDbSavedByObjectVersion
1070
     0
  0
VISUALSTYLE
  5
3F7
102
{ACAD_XDICTIONARY
360
2E64D
102
}
102
{ACAD_REACTORS
330
3F2
102
}
330
3F2
100
AcDbVisualStyle
  2

 70
     7
 71
     1
 72
     0
 73
     1
 90
        0
 40
-0.6
 41
-30.0
 62
     5
 63
     7
 74
     0
 91
        4
 64
     7
 65
   257
 75
     1
175
     1
 42
1.0
 92
        8
 66
     7
 43
1.0
 76
     1
 77
     6
 78
     2
 67
     7
 79
     5
170
     0
171
     0
290
     0
174
     0
 93
        1
 44
0.0
173
     0
291
     1
 45
0.0
1001
ACAD
1000
AcDbSavedByObjectVersion
1070
     0
  0
VISUALSTYLE
  5
3FE
102
{ACAD_XDICTIONARY
360
2E65B
102
}
102
{ACAD_REACTORS
330
3F2
102
}
330
3F2
100
AcDbVisualStyle
  2

 70
    12
 71
     2
 72
     2
 73
     0
 90
        0
 40
-0.6
 41
-30.0
 62
     5
 63
     7
 74
     1
 91
        4
 64
     7
 65
   257
 75
     1
175
     1
 42
1.0
 92
        8
 66
     7
 43
1.0
 76
     1
 77
     6
 78
     2
 67
     7
 79
     5
170
     0
171
     0
290
     0
174
     0
 93
        1
 44
50.0
173
     0
291
     1
 45
0.0
1001
ACAD
1000
AcDbSavedByObjectVersion
1070
     0
  0
VISUALSTYLE
  5
402
102
{ACAD_XDICTIONARY
360
2E663
102
}
102
{ACAD_REACTORS
330
3F2
102
}
330
3F2
100
AcDbVisualStyle
  2

 70
    16
 71
     2
 72
     2
 73
     3
 90
        0
 40
-0.6
 41
-30.0
 62
     5
 63
     8
 74
     1
 91
        4
 64
     7
 65
   257
 75
     1
175
     1
 42
1.0
 92
        8
 66
     8
 43
1.0
 76
     1
 77
     6
 78
     2
 67
     7
 79
     5
170
     0
171
     0
290
     0
174
     0
 93
        1
 44
0.0
173
     0
291
     1
 45
0.0
1001
ACAD
1000
AcDbSavedByObjectVersion
1070
     0
  0
VISUALSTYLE
  5
3FB
102
{ACAD_XDICTIONARY
360
2E655
102
}
102
{ACAD_REACTORS
330
3F2
102
}
330
3F2
100
AcDbVisualStyle
  2

 70
     9
 71
     3
 72
     2
 73
     0
 90
        0
 40
-0.6
 41
-30.0
 62
     5
 63
     7
 74
     2
 91
        2
 64
     7
 65
   257
 75
     1
175
     1
 42
40.0
 92
        8
 66
     7
 43
1.0
 76
     1
 77
     6
 78
     2
 67
     7
 79
     3
170
     0
171
     0
290
     0
174
     0
 93
        1
 44
0.0
173
     0
291
     0
 45
0.0
1001
ACAD
1000
AcDbSavedByObjectVersion
1070
     0
  0
VISUALSTYLE
  5
3FD
102
{ACAD_XDICTIONARY
360
2E659
102
}
102
{ACAD_REACTORS
330
3F2
102
}
330
3F2
100
AcDbVisualStyle
  2

 70
    11
 71
     2
 72
     2
 73
     0
 90
        0
 40
-0.6
 41
-30.0
 62
     5
 63
     7
 74
     1
 91
        4
 64
     7
 65
   257
 75
     1
175
     1
 42
1.0
 92
        8
 66
     7
 43
1.0
 76
     1
 77
     6
 78
     2
 67
     7
 79
     5
170
     0
171
     0
290
     0
174
     0
 93
        1
 44
-50.0
173
     0
291
     1
 45
0.0
1001
ACAD
1000
AcDbSavedByObjectVersion
1070
     0
  0
VISUALSTYLE
  5
44E
102
{ACAD_XDICTIONARY
360
2E669
102
}
102
{ACAD_REACTORS
330
3F2
102
}
330
3F2
100
AcDbVisualStyle
  2

 70
    22
 71
     2
 72
     2
 73
     0
 90
        0
 40
-0.6
 41
-30.0
 62
     5
 63
     7
 74
     1
 91
        4
 64
     7
 65
   257
 75
     1
175
     1
 42
1.0
 92
        8
 66
     7
 43
1.0
 76
     1
 77
     6
 78
     2
 67
     7
 79
     5
170
     0
171
     0
290
     0
174
     0
 93
        1
 44
0.0
173
     0
291
     1
 45
0.0
1001
ACAD
1000
AcDbSavedByObjectVersion
1070
     0
  0
VISUALSTYLE
  5
401
102
{ACAD_XDICTIONARY
360
2E661
102
}
102
{ACAD_REACTORS
330
3F2
102
}
330
3F2
100
AcDbVisualStyle
  2

 70
    15
 71
     2
 72
     2
 73
     0
 90
        0
 40
-0.6
 41
-30.0
 62
     5
 63
     7
 74
     1
 91
        4
 64
     7
 65
   257
 75
     1
175
     1
 42
1.0
 92
        8
 66
     7
 43
1.0
 76
     1
 77
     6
 78
     2
 67
     7
 79
     5
170
     0
171
     0
290
     0
174
     0
 93
        1
 44
0.0
173
     0
291
     1
 45
0.0
1001
ACAD
1000
AcDbSavedByObjectVersion
1070
     0
  0
VISUALSTYLE
  5
3F3
102
{ACAD_XDICTIONARY
360
2E645
102
}
102
{ACAD_REACTORS
330
3F2
102
}
330
3F2
100
AcDbVisualStyle
  2

 70
     0
 71
     2
 72
     1
 73
     1
 90
        2
 40
-0.6
 41
30.0
 62
     5
 63
     7
 74
     0
 91
        4
 64
     7
 65
   257
 75
     1
175
     1
 42
1.0
 92
        8
 66
     7
 43
1.0
 76
     1
 77
     6
 78
     2
 67
     7
 79
     5
170
     0
171
     0
290
     0
174
     0
 93
       13
 44
0.0
173
     0
291
     1
 45
0.0
1001
ACAD
1000
AcDbSavedByObjectVersion
1070
     0
  0
VISUALSTYLE
  5
3F4
102
{ACAD_XDICTIONARY
360
2E647
102
}
102
{ACAD_REACTORS
330
3F2
102
}
330
3F2
100
AcDbVisualStyle
  2

 70
     1
 71
     2
 72
     1
 73
     1
 90
        2
 40
-0.6
 41
30.0
 62
     5
 63
     7
 74
     1
 91
        4
 64
     7
 65
   257
 75
     1
175
     1
 42
1.0
 92
        0
 66
   257
 43
1.0
 76
     1
 77
     6
 78
     2
 67
     7
 79
     5
170
     0
171
     0
290
     0
174
     0
 93
       13
 44
0.0
173
     0
291
     1
 45
0.0
1001
ACAD
1000
AcDbSavedByObjectVersion
1070
     0
  0
VISUALSTYLE
  5
3F5
102
{ACAD_XDICTIONARY
360
2E649
102
}
102
{ACAD_REACTORS
330
3F2
102
}
330
3F2
100
AcDbVisualStyle
  2

 70
     2
 71
     2
 72
     2
 73
     1
 90
        2
 40
-0.6
 41
30.0
 62
     5
 63
     7
 74
     0
 91
        4
 64
     7
 65
   257
 75
     1
175
     1
 42
1.0
 92
        0
 66
     7
 43
1.0
 76
     1
 77
     6
 78
     2
 67
     7
 79
     5
170
     0
171
     0
290
     0
174
     0
 93
       13
 44
0.0
173
     0
291
     1
 45
0.0
1001
ACAD
1000
AcDbSavedByObjectVersion
1070
     0
  0
VISUALSTYLE
  5
3F6
102
{ACAD_XDICTIONARY
360
2E64B
102
}
102
{ACAD_REACTORS
330
3F2
102
}
330
3F2
100
AcDbVisualStyle
  2

 70
     3
 71
     2
 72
     2
 73
     1
 90
        2
 40
-0.6
 41
30.0
 62
     5
 63
     7
 74
     1
 91
        4
 64
     7
 65
   257
 75
     1
175
     1
 42
1.0
 92
        0
 66
   257
 43
1.0
 76
     1
 77
     6
 78
     2
 67
     7
 79
     5
170
     0
171
     0
290
     0
174
     0
 93
       13
 44
0.0
173
     0
291
     1
 45
0.0
1001
ACAD
1000
AcDbSavedByObjectVersion
1070
     0
  0
VISUALSTYLE
  5
2E5F9
102
{ACAD_XDICTIONARY
360
2E66E
102
}
102
{ACAD_REACTORS
330
3F2
102
}
330
3F2
100
AcDbVisualStyle
  2
Hidden
 70
     6
 71
     1
 72
     2
 73
     2
 90
        0
 40
-0.6
 41
-30.0
 62
     5
 63
     7
 74
     2
 91
        2
 64
     7
 65
   257
 75
     2
175
     1
 42
40.0
 92
        0
 66
   257
 43
1.0
 76
     1
 77
     6
 78
     2
 67
     7
 79
     3
170
     0
171
     0
290
     0
174
     0
 93
        1
 44
0.0
173
     0
291
     0
 45
0.0
1001
ACAD
1000
AcDbSavedByObjectVersion
1070
     0
  0
VISUALSTYLE
  5
44C
102
{ACAD_XDICTIONARY
360
2E665
102
}
102
{ACAD_REACTORS
330
3F2
102
}
330
3F2
100
AcDbVisualStyle
  2

 70
    20
 71
     2
 72
     2
 73
     0
 90
        0
 40
-0.6
 41
-30.0
 62
     5
 63
     7
 74
     1
 91
        4
 64
     7
 65
   257
 75
     1
175
     1
 42
1.0
 92
       10
 66
     7
 43
1.0
 76
     1
 77
     6
 78
     2
 67
     7
 79
     5
170
     0
171
     0
290
     0
174
     0
 93
        1
 44
0.0
173
     0
291
     1
 45
0.0
1001
ACAD
1000
AcDbSavedByObjectVersion
1070
     0
  0
VISUALSTYLE
  5
400
102
{ACAD_XDICTIONARY
360
2E65F
102
}
102
{ACAD_REACTORS
330
3F2
102
}
330
3F2
100
AcDbVisualStyle
  2

 70
    14
 71
     2
 72
     2
 73
     0
 90
        0
 40
-0.6
 41
-30.0
 62
     5
 63
     7
 74
     1
 91
        4
 64
     7
 65
   257
 75
     7
175
     7
 42
1.0
 92
        8
 66
     7
 43
1.0
 76
     1
 77
     6
 78
     2
 67
     7
 79
     5
170
     0
171
     0
290
     0
174
     0
 93
        1
 44
0.0
173
     0
291
     1
 45
0.0
1001
ACAD
1000
AcDbSavedByObjectVersion
1070
     0
  0
VISUALSTYLE
  5
44D
102
{ACAD_XDICTIONARY
360
2E667
102
}
102
{ACAD_REACTORS
330
3F2
102
}
330
3F2
100
AcDbVisualStyle
  2

 70
    21
 71
     2
 72
     2
 73
     0
 90
        0
 40
-0.6
 41
-30.0
 62
     5
 63
     7
 74
     1
 91
        4
 64
     7
 65
   257
 75
     1
175
     1
 42
1.0
 92
        9
 66
     7
 43
1.0
 76
     1
 77
     6
 78
     2
 67
     7
 79
     5
170
     0
171
     0
290
     0
174
     0
 93
        1
 44
0.0
173
     0
291
     1
 45
0.0
1001
ACAD
1000
AcDbSavedByObjectVersion
1070
     0
  0
VISUALSTYLE
  5
3FC
102
{ACAD_XDICTIONARY
360
2E657
102
}
102
{ACAD_REACTORS
330
3F2
102
}
330
3F2
100
AcDbVisualStyle
  2

 70
     8
 71
     2
 72
     2
 73
     0
 90
        0
 40
-0.6
 41
-30.0
 62
     5
 63
     7
 74
     1
 91
        0
 64
     7
 65
   257
 75
     1
175
     1
 42
1.0
 92
        8
 66
     8
 43
1.0
 76
     1
 77
     6
 78
     2
 67
     7
 79
     5
170
     0
171
     0
290
     0
174
     0
 93
       13
 44
0.0
173
     0
291
     0
 45
0.0
1001
ACAD
1000
AcDbSavedByObjectVersion
1070
     0
  0
VISUALSTYLE
  5
2E5FE
102
{ACAD_XDICTIONARY
360
2E678
102
}
102
{ACAD_REACTORS
330
3F2
102
}
330
3F2
100
AcDbVisualStyle
  2
Shaded
 70
    27
 71
     2
 72
     2
 73
     1
 90
        2
 40
-0.6
 41
30.0
 62
     5
 63
     7
 74
     0
 91
        4
 64
     7
 65
   257
 75
     1
175
     1
 42
1.0
 92
        8
 66
   257
 43
1.0
 76
     1
 77
     6
 78
     2
 67
     8
 79
     3
170
     0
171
     0
290
     0
174
     0
 93
        5
 44
0.0
173
     0
291
     0
 45
0.0
1001
ACAD
1000
AcDbSavedByObjectVersion
1070
     0
  0
VISUALSTYLE
  5
2E5FD
102
{ACAD_XDICTIONARY
360
2E676
102
}
102
{ACAD_REACTORS
330
3F2
102
}
330
3F2
100
AcDbVisualStyle
  2
Shaded with edges
 70
    26
 71
     2
 72
     2
 73
     1
 90
        2
 40
-0.6
 41
30.0
 62
     5
 63
     7
 74
     1
 91
       10
 64
     7
 65
   257
 75
     2
175
     1
 42
1.0
 92
        8
 66
   257
 43
1.0
 76
     1
 77
     6
 78
     2
 67
     7
 79
     3
170
     0
171
     0
290
     0
174
     0
 93
        5
 44
0.0
173
     0
291
     0
 45
0.0
1001
ACAD
1000
AcDbSavedByObjectVersion
1070
     0
  0
VISUALSTYLE
  5
2E5FA
102
{ACAD_XDICTIONARY
360
2E670
102
}
102
{ACAD_REACTORS
330
3F2
102
}
330
3F2
100
AcDbVisualStyle
  2
Shades of Gray
 70
    23
 71
     2
 72
     2
 73
     3
 90
        0
 40
-0.6
 41
-30.0
 62
     5
 63
     7
 74
     2
 91
        2
 64
     7
 65
     7
 75
     1
175
     1
 42
40.0
 92
        8
 66
     7
 43
1.0
 76
     1
 77
     6
 78
     2
 67
     7
 79
     3
170
     0
171
     0
290
     0
174
     0
 93
        1
 44
0.0
173
     0
291
     0
 45
0.0
1001
ACAD
1000
AcDbSavedByObjectVersion
1070
     0
  0
VISUALSTYLE
  5
2E5FB
102
{ACAD_XDICTIONARY
360
2E672
102
}
102
{ACAD_REACTORS
330
3F2
102
}
330
3F2
100
AcDbVisualStyle
  2
Sketchy
 70
    24
 71
     1
 72
     2
 73
     2
 90
        0
 40
-0.6
 41
-30.0
 62
     5
 63
     7
 74
     2
 91
        2
 64
     7
 65
     7
 75
     1
175
     1
 42
40.0
 92
       11
 66
     7
 43
1.0
 76
     1
 77
     6
 78
     2
 67
     7
 79
     6
170
     0
171
     0
290
     0
174
     0
 93
        1
 44
0.0
173
     0
291
     0
 45
0.0
1001
ACAD
1000
AcDbSavedByObjectVersion
1070
     0
  0
VISUALSTYLE
  5
3FF
102
{ACAD_XDICTIONARY
360
2E65D
102
}
102
{ACAD_REACTORS
330
3F2
102
}
330
3F2
100
AcDbVisualStyle
  2

 70
    13
 71
     2
 72
     2
 73
     0
 90
        0
 40
-0.6
 41
-30.0
 62
     5
 63
     7
 74
     1
 91
        4
 64
     7
 65
   257
 75
     1
175
     1
 42
1.0
 92
       12
 66
     7
 43
1.0
 76
     1
 77
     6
 78
     2
 67
     7
 79
     5
170
     0
171
     0
290
     0
174
     0
 93
        1
 44
0.0
173
     0
291
     1
 45
0.0
1001
ACAD
1000
AcDbSavedByObjectVersion
1070
     0
  0
VISUALSTYLE
  5
2E5F8
102
{ACAD_XDICTIONARY
360
2E66C
102
}
102
{ACAD_REACTORS
330
3F2
102
}
330
3F2
100
AcDbVisualStyle
  2
Wireframe
 70
     5
 71
     0
 72
     2
 73
     0
 90
        0
 40
-0.6
 41
-30.0
 62
     5
 63
     7
 74
     1
 91
        4
 64
     7
 65
   257
 75
     1
175
     1
 42
1.0
 92
        0
 66
   257
 43
1.0
 76
     1
 77
     6
 78
     2
 67
     7
 79
     3
170
     0
171
     0
290
     0
174
     0
 93
        1
 44
0.0
173
     0
291
     0
 45
0.0
1001
ACAD
1000
AcDbSavedByObjectVersion
1070
     0
  0
VISUALSTYLE
  5
2E5FC
102
{ACAD_XDICTIONARY
360
2E674
102
}
102
{ACAD_REACTORS
330
3F2
102
}
330
3F2
100
AcDbVisualStyle
  2
X-Ray
 70
    25
 71
     2
 72
     2
 73
     1
 90
        1
 40
0.5
 41
-30.0
 62
     5
 63
     7
 74
     1
 91
        0
 64
     7
 65
   257
 75
     1
175
     1
 42
1.0
 92
        8
 66
     7
 43
1.0
 76
     1
 77
     6
 78
     2
 67
     7
 79
     3
170
     0
171
     0
290
     0
174
     0
 93
       13
 44
0.0
173
     0
291
     0
 45
0.0
1001
ACAD
1000
AcDbSavedByObjectVersion
1070
     0
  0
DICTIONARYVAR
  5
449
102
{ACAD_REACTORS
330
357
102
}
330
357
100
DictionaryVariables
280
     0
  1
1:1
  0
DICTIONARYVAR
  5
447
102
{ACAD_REACTORS
330
357
102
}
330
357
100
DictionaryVariables
280
     0
  1
STANDARD
  0
DICTIONARYVAR
  5
38E
102
{ACAD_REACTORS
330
357
102
}
330
357
100
DictionaryVariables
280
     0
  1
STANDARD
  0
DICTIONARYVAR
  5
2E637
102
{ACAD_REACTORS
330
357
102
}
330
357
100
DictionaryVariables
280
     0
  1
Metric50
  0
DICTIONARYVAR
  5
2E638
102
{ACAD_REACTORS
330
357
102
}
330
357
100
DictionaryVariables
280
     0
  1
Metric50
  0
DICTIONARYVAR
  5
359
102
{ACAD_REACTORS
330
357
102
}
330
357
100
DictionaryVariables
280
     0
  1
2
  0
DICTIONARYVAR
  5
358
102
{ACAD_REACTORS
330
357
102
}
330
357
100
DictionaryVariables
280
     0
  1
1
  0
DICTIONARYVAR
  5
728
102
{ACAD_REACTORS
330
357
102
}
330
357
100
DictionaryVariables
280
     0
  1
0
  0
DICTIONARYVAR
  5
458
102
{ACAD_REACTORS
330
357
102
}
330
357
100
DictionaryVariables
280
     0
  1
1
  0
DICTIONARYVAR
  5
459
102
{ACAD_REACTORS
330
357
102
}
330
357
100
DictionaryVariables
280
     0
  1
15
  0
DICTIONARYVAR
  5
44A
102
{ACAD_REACTORS
330
357
102
}
330
357
100
DictionaryVariables
280
     0
  1
0
  0
DICTIONARYVAR
  5
448
102
{ACAD_REACTORS
330
357
102
}
330
357
100
DictionaryVariables
280
     0
  1
0
  0
DICTIONARYVAR
  5
727
102
{ACAD_REACTORS
330
357
102
}
330
357
100
DictionaryVariables
280
     0
  1
127
  0
DICTIONARYVAR
  5
2E639
102
{ACAD_REACTORS
330
357
102
}
330
357
100
DictionaryVariables
280
     0
  1
2
  0
DICTIONARY
  5
2E642
330
33B
100
AcDbDictionary
280
     1
281
     1
  3
ACAD_XREC_ROUNDTRIP
360
2E643
  0
DICTIONARY
  5
2E640
330
303
100
AcDbDictionary
280
     1
281
     1
  3
ACAD_XREC_ROUNDTRIP
360
2E641
  0
DICTIONARY
  5
2E5CA
330
3F0
100
AcDbDictionary
280
     1
281
     1
  3
ACAD_XREC_ROUNDTRIP
360
2E5CB
  0
DICTIONARY
  5
2E5C8
330
3EF
100
AcDbDictionary
280
     1
281
     1
  3
ACAD_XREC_ROUNDTRIP
360
2E5C9
  0
DICTIONARY
  5
2E5CC
330
3F1
100
AcDbDictionary
280
     1
281
     1
  3
ACAD_XREC_ROUNDTRIP
360
2E5CD
  0
DICTIONARY
  5
444
330
389
100
AcDbDictionary
280
     1
281
     1
  3
ACAD_ROUNDTRIP_2008_TABLESTYLE_CELLSTYLEMAP
360
2E63B
  3
ACAD_XREC_ROUNDTRIP
360
2E644
  0
DICTIONARY
  5
2E64F
330
3F8
100
AcDbDictionary
280
     1
281
     1
  3
ACAD_XREC_ROUNDTRIP
360
2E650
  0
DICTIONARY
  5
2E653
330
3FA
100
AcDbDictionary
280
     1
281
     1
  3
ACAD_XREC_ROUNDTRIP
360
2E654
  0
DICTIONARY
  5
2E651
330
3F9
100
AcDbDictionary
280
     1
281
     1
  3
ACAD_XREC_ROUNDTRIP
360
2E652
  0
DICTIONARY
  5
2E64D
330
3F7
100
AcDbDictionary
280
     1
281
     1
  3
ACAD_XREC_ROUNDTRIP
360
2E64E
  0
DICTIONARY
  5
2E65B
330
3FE
100
AcDbDictionary
280
     1
281
     1
  3
ACAD_XREC_ROUNDTRIP
360
2E65C
  0
DICTIONARY
  5
2E663
330
402
100
AcDbDictionary
280
     1
281
     1
  3
ACAD_XREC_ROUNDTRIP
360
2E664
  0
DICTIONARY
  5
2E655
330
3FB
100
AcDbDictionary
280
     1
281
     1
  3
ACAD_XREC_ROUNDTRIP
360
2E656
  0
DICTIONARY
  5
2E659
330
3FD
100
AcDbDictionary
280
     1
281
     1
  3
ACAD_XREC_ROUNDTRIP
360
2E65A
  0
DICTIONARY
  5
2E669
330
44E
100
AcDbDictionary
280
     1
281
     1
  3
ACAD_XREC_ROUNDTRIP
360
2E66A
  0
DICTIONARY
  5
2E661
330
401
100
AcDbDictionary
280
     1
281
     1
  3
ACAD_XREC_ROUNDTRIP
360
2E662
  0
DICTIONARY
  5
2E645
330
3F3
100
AcDbDictionary
280
     1
281
     1
  3
ACAD_XREC_ROUNDTRIP
360
2E646
  0
DICTIONARY
  5
2E647
330
3F4
100
AcDbDictionary
280
     1
281
     1
  3
ACAD_XREC_ROUNDTRIP
360
2E648
  0
DICTIONARY
  5
2E649
330
3F5
100
AcDbDictionary
280
     1
281
     1
  3
ACAD_XREC_ROUNDTRIP
360
2E64A
  0
DICTIONARY
  5
2E64B
330
3F6
100
AcDbDictionary
280
     1
281
     1
  3
ACAD_XREC_ROUNDTRIP
360
2E64C
  0
DICTIONARY
  5
2E66E
330
2E5F9
100
AcDbDictionary
280
     1
281
     1
  3
ACAD_XREC_ROUNDTRIP
360
2E66F
  0
DICTIONARY
  5
2E665
330
44C
100
AcDbDictionary
280
     1
281
     1
  3
ACAD_XREC_ROUNDTRIP
360
2E666
  0
DICTIONARY
  5
2E65F
330
400
100
AcDbDictionary
280
     1
281
     1
  3
ACAD_XREC_ROUNDTRIP
360
2E660
  0
DICTIONARY
  5
2E667
330
44D
100
AcDbDictionary
280
     1
281
     1
  3
ACAD_XREC_ROUNDTRIP
360
2E668
  0
DICTIONARY
  5
2E657
330
3FC
100
AcDbDictionary
280
     1
281
     1
  3
ACAD_XREC_ROUNDTRIP
360
2E658
  0
DICTIONARY
  5
2E678
330
2E5FE
100
AcDbDictionary
280
     1
281
     1
  3
ACAD_XREC_ROUNDTRIP
360
2E679
  0
DICTIONARY
  5
2E676
330
2E5FD
100
AcDbDictionary
280
     1
281
     1
  3
ACAD_XREC_ROUNDTRIP
360
2E677
  0
DICTIONARY
  5
2E670
330
2E5FA
100
AcDbDictionary
280
     1
281
     1
  3
ACAD_XREC_ROUNDTRIP
360
2E671
  0
DICTIONARY
  5
2E672
330
2E5FB
100
AcDbDictionary
280
     1
281
     1
  3
ACAD_XREC_ROUNDTRIP
360
2E673
  0
DICTIONARY
  5
2E65D
330
3FF
100
AcDbDictionary
280
     1
281
     1
  3
ACAD_XREC_ROUNDTRIP
360
2E65E
  0
DICTIONARY
  5
2E66C
330
2E5F8
100
AcDbDictionary
280
     1
281
     1
  3
ACAD_XREC_ROUNDTRIP
360
2E66D
  0
DICTIONARY
  5
2E674
330
2E5FC
100
AcDbDictionary
280
     1
281
     1
  3
ACAD_XREC_ROUNDTRIP
360
2E675
  0
XRECORD
  5
2E643
102
{ACAD_REACTORS
330
2E642
102
}
330
2E642
100
AcDbXrecord
280
     1
102
SHADEPLOT
 70
     0
102
SHADEPLOTRESLEVEL
 70
     2
102
SHADEPLOTCUSTOMDPI
 70
   300
  0
XRECORD
  5
2E641
102
{ACAD_REACTORS
330
2E640
102
}
330
2E640
100
AcDbXrecord
280
     1
102
SHADEPLOT
 70
     1
102
SHADEPLOTRESLEVEL
 70
     2
102
SHADEPLOTCUSTOMDPI
 70
   300
  0
XRECORD
  5
2E5CB
102
{ACAD_REACTORS
330
2E5CA
102
}
330
2E5CA
100
AcDbXrecord
280
     1
102
MATERIAL
148
0.0
149
0.0
149
0.0
 93
        0
 94
      127
282
     0
 72
     1
 77
     1
171
     1
175
     1
179
     1
273
     0
  0
XRECORD
  5
2E5C9
102
{ACAD_REACTORS
330
2E5C8
102
}
330
2E5C8
100
AcDbXrecord
280
     1
102
MATERIAL
148
0.0
149
0.0
149
0.0
 93
        0
 94
      127
282
     0
 72
     1
 77
     1
171
     1
175
     1
179
     1
273
     0
  0
XRECORD
  5
2E5CD
102
{ACAD_REACTORS
330
2E5CC
102
}
330
2E5CC
100
AcDbXrecord
280
     1
102
MATERIAL
148
0.0
149
0.0
149
0.0
 93
        0
 94
      127
282
     0
 72
     1
 77
     1
171
     1
175
     1
179
     1
273
     0
  0
CELLSTYLEMAP
  5
2E63B
102
{ACAD_REACTORS
330
444
102
}
330
444
100
AcDbCellStyleMap
 90
        3
300
CELLSTYLE
  1
TABLEFORMAT_BEGIN
 90
        5
170
     1
 91
        0
 92
    32768
 62
   257
 93
        1
300
CONTENTFORMAT
  1
CONTENTFORMAT_BEGIN
 90
        0
 91
        0
 92
        4
 93
        0
300

 40
0.0
140
1.0
 94
        5
 62
     0
340
10
144
6.0
309
CONTENTFORMAT_END
171
     1
301
MARGIN
  1
CELLMARGIN_BEGIN
 40
1.5
 40
1.5
 40
1.5
 40
1.5
 40
0.18
 40
0.18
309
CELLMARGIN_END
 94
        6
 95
        1
302
GRIDFORMAT
  1
GRIDFORMAT_BEGIN
 90
        0
 91
        1
 62
     0
 92
       -2
340
0
 93
        0
 40
0.045
309
GRIDFORMAT_END
 95
        2
302
GRIDFORMAT
  1
GRIDFORMAT_BEGIN
 90
        0
 91
        1
 62
     0
 92
       -2
340
0
 93
        0
 40
0.045
309
GRIDFORMAT_END
 95
        4
302
GRIDFORMAT
  1
GRIDFORMAT_BEGIN
 90
        0
 91
        1
 62
     0
 92
       -2
340
0
 93
        0
 40
0.045
309
GRIDFORMAT_END
 95
        8
302
GRIDFORMAT
  1
GRIDFORMAT_BEGIN
 90
        0
 91
        1
 62
     0
 92
       -2
340
0
 93
        0
 40
0.045
309
GRIDFORMAT_END
 95
       16
302
GRIDFORMAT
  1
GRIDFORMAT_BEGIN
 90
        0
 91
        1
 62
     0
 92
       -2
340
0
 93
        0
 40
0.045
309
GRIDFORMAT_END
 95
       32
302
GRIDFORMAT
  1
GRIDFORMAT_BEGIN
 90
        0
 91
        1
 62
     0
 92
       -2
340
0
 93
        0
 40
0.045
309
GRIDFORMAT_END
309
TABLEFORMAT_END
  1
CELLSTYLE_BEGIN
 90
        1
 91
        1
300
_TITLE
309
CELLSTYLE_END
300
CELLSTYLE
  1
TABLEFORMAT_BEGIN
 90
        5
170
     1
 91
        0
 92
        0
 62
   257
 93
        1
300
CONTENTFORMAT
  1
CONTENTFORMAT_BEGIN
 90
        0
 91
        0
 92
        4
 93
        0
300

 40
0.0
140
1.0
 94
        5
 62
     0
340
10
144
4.5
309
CONTENTFORMAT_END
171
     1
301
MARGIN
  1
CELLMARGIN_BEGIN
 40
1.5
 40
1.5
 40
1.5
 40
1.5
 40
0.18
 40
0.18
309
CELLMARGIN_END
 94
        6
 95
        1
302
GRIDFORMAT
  1
GRIDFORMAT_BEGIN
 90
        0
 91
        1
 62
     0
 92
       -2
340
0
 93
        0
 40
0.045
309
GRIDFORMAT_END
 95
        2
302
GRIDFORMAT
  1
GRIDFORMAT_BEGIN
 90
        0
 91
        1
 62
     0
 92
       -2
340
0
 93
        0
 40
0.045
309
GRIDFORMAT_END
 95
        4
302
GRIDFORMAT
  1
GRIDFORMAT_BEGIN
 90
        0
 91
        1
 62
     0
 92
       -2
340
0
 93
        0
 40
0.045
309
GRIDFORMAT_END
 95
        8
302
GRIDFORMAT
  1
GRIDFORMAT_BEGIN
 90
        0
 91
        1
 62
     0
 92
       -2
340
0
 93
        0
 40
0.045
309
GRIDFORMAT_END
 95
       16
302
GRIDFORMAT
  1
GRIDFORMAT_BEGIN
 90
        0
 91
        1
 62
     0
 92
       -2
340
0
 93
        0
 40
0.045
309
GRIDFORMAT_END
 95
       32
302
GRIDFORMAT
  1
GRIDFORMAT_BEGIN
 90
        0
 91
        1
 62
     0
 92
       -2
340
0
 93
        0
 40
0.045
309
GRIDFORMAT_END
309
TABLEFORMAT_END
  1
CELLSTYLE_BEGIN
 90
        2
 91
        1
300
_HEADER
309
CELLSTYLE_END
300
CELLSTYLE
  1
TABLEFORMAT_BEGIN
 90
        5
170
     1
 91
        0
 92
        0
 62
   257
 93
        1
300
CONTENTFORMAT
  1
CONTENTFORMAT_BEGIN
 90
        0
 91
        0
 92
        4
 93
        0
300

 40
0.0
140
1.0
 94
        2
 62
     0
340
10
144
4.5
309
CONTENTFORMAT_END
171
     1
301
MARGIN
  1
CELLMARGIN_BEGIN
 40
1.5
 40
1.5
 40
1.5
 40
1.5
 40
0.18
 40
0.18
309
CELLMARGIN_END
 94
        6
 95
        1
302
GRIDFORMAT
  1
GRIDFORMAT_BEGIN
 90
        0
 91
        1
 62
     0
 92
       -2
340
0
 93
        0
 40
0.045
309
GRIDFORMAT_END
 95
        2
302
GRIDFORMAT
  1
GRIDFORMAT_BEGIN
 90
        0
 91
        1
 62
     0
 92
       -2
340
0
 93
        0
 40
0.045
309
GRIDFORMAT_END
 95
        4
302
GRIDFORMAT
  1
GRIDFORMAT_BEGIN
 90
        0
 91
        1
 62
     0
 92
       -2
340
0
 93
        0
 40
0.045
309
GRIDFORMAT_END
 95
        8
302
GRIDFORMAT
  1
GRIDFORMAT_BEGIN
 90
        0
 91
        1
 62
     0
 92
       -2
340
0
 93
        0
 40
0.045
309
GRIDFORMAT_END
 95
       16
302
GRIDFORMAT
  1
GRIDFORMAT_BEGIN
 90
        0
 91
        1
 62
     0
 92
       -2
340
0
 93
        0
 40
0.045
309
GRIDFORMAT_END
 95
       32
302
GRIDFORMAT
  1
GRIDFORMAT_BEGIN
 90
        0
 91
        1
 62
     0
 92
       -2
340
0
 93
        0
 40
0.045
309
GRIDFORMAT_END
309
TABLEFORMAT_END
  1
CELLSTYLE_BEGIN
 90
        3
 91
        2
300
_DATA
309
CELLSTYLE_END
  0
XRECORD
  5
2E644
102
{ACAD_REACTORS
330
444
102
}
330
444
100
AcDbXrecord
280
     1
102
ACAD_ROUNDTRIP_PRE2007_TABLESTYLE
 90
        4
 91
        0
  1

 92
        4
 93
        0
  2

 94
        4
 95
        0
  3

  0
XRECORD
  5
2E650
102
{ACAD_REACTORS
330
2E64F
102
}
330
2E64F
100
AcDbXrecord
280
     1
102
RTVSPost2010Prop28
280
     1
102
RTVSPost2010PropOp28
 70
     1
102
RTVSPost2010Prop29
280
     1
102
RTVSPost2010PropOp29
 70
     1
102
RTVSPost2010Prop30
280
     0
102
RTVSPost2010PropOp30
 70
     1
102
RTVSPost2010Prop31
280
     0
102
RTVSPost2010PropOp31
 70
     1
102
RTVSPost2010Prop32
280
     0
102
RTVSPost2010PropOp32
 70
     1
102
RTVSPost2010Prop33
280
     0
102
RTVSPost2010PropOp33
 70
     1
102
RTVSPost2010Prop34
280
     0
102
RTVSPost2010PropOp34
 70
     1
102
RTVSPost2010Prop35
280
     0
102
RTVSPost2010PropOp35
 70
     1
102
RTVSPost2010Prop36
280
     0
102
RTVSPost2010PropOp36
 70
     1
102
RTVSPost2010Prop37
 90
       50
102
RTVSPost2010PropOp37
 70
     1
102
RTVSPost2010Prop38
140
0.0
102
RTVSPost2010PropOp38
 70
     1
102
RTVSPost2010Prop39
140
1.0
102
RTVSPost2010PropOp39
 70
     1
102
RTVSPost2010Prop40
 90
        0
102
RTVSPost2010PropOp40
 70
     1
102
RTVSPost2010Prop41ColorIndex
 90
       18
102
RTVSPost2010Prop41ColorRGB
 90
        0
102
RTVSPost2010PropOp41
 70
     1
102
RTVSPost2010Prop42
 90
       50
102
RTVSPost2010PropOp42
 70
     1
102
RTVSPost2010Prop43
 90
        3
102
RTVSPost2010PropOp43
 70
     1
102
RTVSPost2010Prop44ColorIndex
 90
        5
102
RTVSPost2010Prop44ColorRGB
 90
      255
102
RTVSPost2010PropOp44
 70
     1
102
RTVSPost2010Prop45
280
     0
102
RTVSPost2010PropOp45
 70
     1
102
RTVSPost2010Prop46
 90
       50
102
RTVSPost2010PropOp46
 70
     1
102
RTVSPost2010Prop47
 90
       50
102
RTVSPost2010PropOp47
 70
     1
102
RTVSPost2010Prop48
 90
       50
102
RTVSPost2010PropOp48
 70
     1
102
RTVSPost2010Prop49
280
     0
102
RTVSPost2010PropOp49
 70
     1
102
RTVSPost2010Prop50
 90
       50
102
RTVSPost2010PropOp50
 70
     1
102
RTVSPost2010Prop51ColorIndex
 90
      256
102
RTVSPost2010Prop51ColorRGB
 90
-16777216
102
RTVSPost2010PropOp51
 70
     0
102
RTVSPost2010Prop52
140
1.0
102
RTVSPost2010PropOp52
 70
     0
102
RTVSPost2010Prop53
 90
        2
102
RTVSPost2010PropOp53
 70
     1
102
RTVSPost2010Prop54
  1
strokes_ogs.tif
102
RTVSPost2010PropOp54
 70
     1
102
RTVSPost2010Prop55
280
     0
102
RTVSPost2010PropOp55
 70
     1
102
RTVSPost2010Prop56
140
1.0
102
RTVSPost2010PropOp56
 70
     1
102
RTVSPost2010Prop57
140
1.0
102
RTVSPost2010PropOp57
 70
     1
102
RTVSPropertyOp0
 70
     1
102
RTVSPropertyOp1
 70
     1
102
RTVSPropertyOp2
 70
     1
102
RTVSPropertyOp3
 70
     1
102
RTVSPropertyOp4
 70
     1
102
RTVSPropertyOp5
 70
     1
102
RTVSPropertyOp6
 70
     1
102
RTVSPropertyOp7
 70
     1
102
RTVSPropertyOp8
 70
     1
102
RTVSPropertyOp9
 70
     1
102
RTVSPropertyOp10
 70
     1
102
RTVSPropertyOp11
 70
     1
102
RTVSPropertyOp12
 70
     1
102
RTVSPropertyOp13
 70
     1
102
RTVSPropertyOp14
 70
     1
102
RTVSPropertyOp15
 70
     1
102
RTVSPropertyOp16
 70
     1
102
RTVSPropertyOp17
 70
     1
102
RTVSPropertyOp18
 70
     1
102
RTVSPropertyOp19
 70
     1
102
RTVSPropertyOp20
 70
     1
102
RTVSPropertyOp21
 70
     1
102
RTVSPropertyOp22
 70
     1
102
RTVSPropertyOp23
 70
     1
102
RTVSPropertyOp24
 70
     1
102
RTVSPropertyOp25
 70
     1
102
RTVSPropertyOp26
 70
     1
102
RTVSPropertyOp27
 70
     1
102
RTVSPropertyOp28
 70
     1
102
RTVSPropertyOp29
 70
     1
102
RTVSPropertyOp30
 70
     1
102
RTVSPropertyOp31
 70
     1
102
RTVSPropertyOp32
 70
     1
102
RTVSPropertyOp33
 70
     1
102
RTVSPropertyOp34
 70
     1
102
RTVSPropertyOp35
 70
     1
102
RTVSPropertyOp36
 70
     1
102
RTVSPropertyOp37
 70
     1
102
RTVSPropertyOp38
 70
     1
102
RTVSPropertyOp39
 70
     1
102
RTVSPropertyOp40
 70
     1
102
RTVSPropertyOp41
 70
     1
102
RTVSPropertyOp42
 70
     1
102
RTVSPropertyOp43
 70
     1
102
RTVSPropertyOp44
 70
     1
102
RTVSPropertyOp45
 70
     1
102
RTVSPropertyOp46
 70
     1
102
RTVSPropertyOp47
 70
     1
102
RTVSPropertyOp48
 70
     1
102
RTVSPropertyOp49
 70
     1
102
RTVSPropertyOp50
 70
     1
102
RTVSPropertyOp51
 70
     0
102
RTVSPropertyOp52
 70
     0
102
RTVSPropertyOp53
 70
     1
102
RTVSPropertyOp54
 70
     1
102
RTVSPropertyOp55
 70
     1
102
RTVSPropertyOp56
 70
     1
102
RTVSPropertyOp57
 70
     1
102
RTVSPropertyOp58
 70
     1
102
RTVSPropertyOp59
 70
     1
102
RTVSPropertyOp60
 70
     1
102
RTVSPropertyOp61
 70
     1
102
RTVSPropertyOp62
 70
     1
  0
XRECORD
  5
2E654
102
{ACAD_REACTORS
330
2E653
102
}
330
2E653
100
AcDbXrecord
280
     1
102
RTVSPost2010Prop28
280
     0
102
RTVSPost2010PropOp28
 70
     1
102
RTVSPost2010Prop29
280
     1
102
RTVSPost2010PropOp29
 70
     1
102
RTVSPost2010Prop30
280
     1
102
RTVSPost2010PropOp30
 70
     1
102
RTVSPost2010Prop31
280
     0
102
RTVSPost2010PropOp31
 70
     1
102
RTVSPost2010Prop32
280
     0
102
RTVSPost2010PropOp32
 70
     1
102
RTVSPost2010Prop33
280
     0
102
RTVSPost2010PropOp33
 70
     1
102
RTVSPost2010Prop34
280
     0
102
RTVSPost2010PropOp34
 70
     1
102
RTVSPost2010Prop35
280
     0
102
RTVSPost2010PropOp35
 70
     1
102
RTVSPost2010Prop36
280
     0
102
RTVSPost2010PropOp36
 70
     1
102
RTVSPost2010Prop37
 90
       50
102
RTVSPost2010PropOp37
 70
     1
102
RTVSPost2010Prop38
140
0.0
102
RTVSPost2010PropOp38
 70
     1
102
RTVSPost2010Prop39
140
1.0
102
RTVSPost2010PropOp39
 70
     1
102
RTVSPost2010Prop40
 90
        0
102
RTVSPost2010PropOp40
 70
     1
102
RTVSPost2010Prop41ColorIndex
 90
       18
102
RTVSPost2010Prop41ColorRGB
 90
        0
102
RTVSPost2010PropOp41
 70
     1
102
RTVSPost2010Prop42
 90
       50
102
RTVSPost2010PropOp42
 70
     1
102
RTVSPost2010Prop43
 90
        3
102
RTVSPost2010PropOp43
 70
     1
102
RTVSPost2010Prop44ColorIndex
 90
        5
102
RTVSPost2010Prop44ColorRGB
 90
      255
102
RTVSPost2010PropOp44
 70
     1
102
RTVSPost2010Prop45
280
     0
102
RTVSPost2010PropOp45
 70
     1
102
RTVSPost2010Prop46
 90
       50
102
RTVSPost2010PropOp46
 70
     1
102
RTVSPost2010Prop47
 90
       50
102
RTVSPost2010PropOp47
 70
     1
102
RTVSPost2010Prop48
 90
       50
102
RTVSPost2010PropOp48
 70
     1
102
RTVSPost2010Prop49
280
     0
102
RTVSPost2010PropOp49
 70
     1
102
RTVSPost2010Prop50
 90
       50
102
RTVSPost2010PropOp50
 70
     1
102
RTVSPost2010Prop51ColorIndex
 90
      256
102
RTVSPost2010Prop51ColorRGB
 90
-16777216
102
RTVSPost2010PropOp51
 70
     0
102
RTVSPost2010Prop52
140
1.0
102
RTVSPost2010PropOp52
 70
     0
102
RTVSPost2010Prop53
 90
        2
102
RTVSPost2010PropOp53
 70
     1
102
RTVSPost2010Prop54
  1
strokes_ogs.tif
102
RTVSPost2010PropOp54
 70
     1
102
RTVSPost2010Prop55
280
     0
102
RTVSPost2010PropOp55
 70
     1
102
RTVSPost2010Prop56
140
1.0
102
RTVSPost2010PropOp56
 70
     1
102
RTVSPost2010Prop57
140
1.0
102
RTVSPost2010PropOp57
 70
     1
102
RTVSPropertyOp0
 70
     1
102
RTVSPropertyOp1
 70
     1
102
RTVSPropertyOp2
 70
     1
102
RTVSPropertyOp3
 70
     1
102
RTVSPropertyOp4
 70
     1
102
RTVSPropertyOp5
 70
     1
102
RTVSPropertyOp6
 70
     1
102
RTVSPropertyOp7
 70
     1
102
RTVSPropertyOp8
 70
     1
102
RTVSPropertyOp9
 70
     1
102
RTVSPropertyOp10
 70
     1
102
RTVSPropertyOp11
 70
     1
102
RTVSPropertyOp12
 70
     1
102
RTVSPropertyOp13
 70
     1
102
RTVSPropertyOp14
 70
     1
102
RTVSPropertyOp15
 70
     1
102
RTVSPropertyOp16
 70
     1
102
RTVSPropertyOp17
 70
     1
102
RTVSPropertyOp18
 70
     1
102
RTVSPropertyOp19
 70
     1
102
RTVSPropertyOp20
 70
     1
102
RTVSPropertyOp21
 70
     1
102
RTVSPropertyOp22
 70
     1
102
RTVSPropertyOp23
 70
     1
102
RTVSPropertyOp24
 70
     1
102
RTVSPropertyOp25
 70
     1
102
RTVSPropertyOp26
 70
     1
102
RTVSPropertyOp27
 70
     1
102
RTVSPropertyOp28
 70
     1
102
RTVSPropertyOp29
 70
     1
102
RTVSPropertyOp30
 70
     1
102
RTVSPropertyOp31
 70
     1
102
RTVSPropertyOp32
 70
     1
102
RTVSPropertyOp33
 70
     1
102
RTVSPropertyOp34
 70
     1
102
RTVSPropertyOp35
 70
     1
102
RTVSPropertyOp36
 70
     1
102
RTVSPropertyOp37
 70
     1
102
RTVSPropertyOp38
 70
     1
102
RTVSPropertyOp39
 70
     1
102
RTVSPropertyOp40
 70
     1
102
RTVSPropertyOp41
 70
     1
102
RTVSPropertyOp42
 70
     1
102
RTVSPropertyOp43
 70
     1
102
RTVSPropertyOp44
 70
     1
102
RTVSPropertyOp45
 70
     1
102
RTVSPropertyOp46
 70
     1
102
RTVSPropertyOp47
 70
     1
102
RTVSPropertyOp48
 70
     1
102
RTVSPropertyOp49
 70
     1
102
RTVSPropertyOp50
 70
     1
102
RTVSPropertyOp51
 70
     0
102
RTVSPropertyOp52
 70
     0
102
RTVSPropertyOp53
 70
     1
102
RTVSPropertyOp54
 70
     1
102
RTVSPropertyOp55
 70
     1
102
RTVSPropertyOp56
 70
     1
102
RTVSPropertyOp57
 70
     1
102
RTVSPropertyOp58
 70
     1
102
RTVSPropertyOp59
 70
     1
102
RTVSPropertyOp60
 70
     1
102
RTVSPropertyOp61
 70
     1
102
RTVSPropertyOp62
 70
     1
  0
XRECORD
  5
2E652
102
{ACAD_REACTORS
330
2E651
102
}
330
2E651
100
AcDbXrecord
280
     1
102
RTVSPost2010Prop28
280
     0
102
RTVSPost2010PropOp28
 70
     1
102
RTVSPost2010Prop29
280
     1
102
RTVSPost2010PropOp29
 70
     1
102
RTVSPost2010Prop30
280
     1
102
RTVSPost2010PropOp30
 70
     1
102
RTVSPost2010Prop31
280
     0
102
RTVSPost2010PropOp31
 70
     1
102
RTVSPost2010Prop32
280
     0
102
RTVSPost2010PropOp32
 70
     1
102
RTVSPost2010Prop33
280
     0
102
RTVSPost2010PropOp33
 70
     1
102
RTVSPost2010Prop34
280
     0
102
RTVSPost2010PropOp34
 70
     1
102
RTVSPost2010Prop35
280
     0
102
RTVSPost2010PropOp35
 70
     1
102
RTVSPost2010Prop36
280
     0
102
RTVSPost2010PropOp36
 70
     1
102
RTVSPost2010Prop37
 90
       50
102
RTVSPost2010PropOp37
 70
     1
102
RTVSPost2010Prop38
140
0.0
102
RTVSPost2010PropOp38
 70
     1
102
RTVSPost2010Prop39
140
1.0
102
RTVSPost2010PropOp39
 70
     1
102
RTVSPost2010Prop40
 90
        0
102
RTVSPost2010PropOp40
 70
     1
102
RTVSPost2010Prop41ColorIndex
 90
       18
102
RTVSPost2010Prop41ColorRGB
 90
        0
102
RTVSPost2010PropOp41
 70
     1
102
RTVSPost2010Prop42
 90
       50
102
RTVSPost2010PropOp42
 70
     1
102
RTVSPost2010Prop43
 90
        3
102
RTVSPost2010PropOp43
 70
     1
102
RTVSPost2010Prop44ColorIndex
 90
        5
102
RTVSPost2010Prop44ColorRGB
 90
      255
102
RTVSPost2010PropOp44
 70
     1
102
RTVSPost2010Prop45
280
     0
102
RTVSPost2010PropOp45
 70
     1
102
RTVSPost2010Prop46
 90
       50
102
RTVSPost2010PropOp46
 70
     1
102
RTVSPost2010Prop47
 90
       50
102
RTVSPost2010PropOp47
 70
     1
102
RTVSPost2010Prop48
 90
       50
102
RTVSPost2010PropOp48
 70
     1
102
RTVSPost2010Prop49
280
     0
102
RTVSPost2010PropOp49
 70
     1
102
RTVSPost2010Prop50
 90
       50
102
RTVSPost2010PropOp50
 70
     1
102
RTVSPost2010Prop51ColorIndex
 90
      256
102
RTVSPost2010Prop51ColorRGB
 90
-16777216
102
RTVSPost2010PropOp51
 70
     0
102
RTVSPost2010Prop52
140
1.0
102
RTVSPost2010PropOp52
 70
     0
102
RTVSPost2010Prop53
 90
        2
102
RTVSPost2010PropOp53
 70
     1
102
RTVSPost2010Prop54
  1
strokes_ogs.tif
102
RTVSPost2010PropOp54
 70
     1
102
RTVSPost2010Prop55
280
     0
102
RTVSPost2010PropOp55
 70
     1
102
RTVSPost2010Prop56
140
1.0
102
RTVSPost2010PropOp56
 70
     1
102
RTVSPost2010Prop57
140
1.0
102
RTVSPost2010PropOp57
 70
     1
102
RTVSPropertyOp0
 70
     1
102
RTVSPropertyOp1
 70
     1
102
RTVSPropertyOp2
 70
     1
102
RTVSPropertyOp3
 70
     1
102
RTVSPropertyOp4
 70
     1
102
RTVSPropertyOp5
 70
     1
102
RTVSPropertyOp6
 70
     1
102
RTVSPropertyOp7
 70
     1
102
RTVSPropertyOp8
 70
     1
102
RTVSPropertyOp9
 70
     1
102
RTVSPropertyOp10
 70
     1
102
RTVSPropertyOp11
 70
     1
102
RTVSPropertyOp12
 70
     1
102
RTVSPropertyOp13
 70
     1
102
RTVSPropertyOp14
 70
     1
102
RTVSPropertyOp15
 70
     1
102
RTVSPropertyOp16
 70
     1
102
RTVSPropertyOp17
 70
     1
102
RTVSPropertyOp18
 70
     1
102
RTVSPropertyOp19
 70
     1
102
RTVSPropertyOp20
 70
     1
102
RTVSPropertyOp21
 70
     1
102
RTVSPropertyOp22
 70
     1
102
RTVSPropertyOp23
 70
     1
102
RTVSPropertyOp24
 70
     1
102
RTVSPropertyOp25
 70
     1
102
RTVSPropertyOp26
 70
     1
102
RTVSPropertyOp27
 70
     1
102
RTVSPropertyOp28
 70
     1
102
RTVSPropertyOp29
 70
     1
102
RTVSPropertyOp30
 70
     1
102
RTVSPropertyOp31
 70
     1
102
RTVSPropertyOp32
 70
     1
102
RTVSPropertyOp33
 70
     1
102
RTVSPropertyOp34
 70
     1
102
RTVSPropertyOp35
 70
     1
102
RTVSPropertyOp36
 70
     1
102
RTVSPropertyOp37
 70
     1
102
RTVSPropertyOp38
 70
     1
102
RTVSPropertyOp39
 70
     1
102
RTVSPropertyOp40
 70
     1
102
RTVSPropertyOp41
 70
     1
102
RTVSPropertyOp42
 70
     1
102
RTVSPropertyOp43
 70
     1
102
RTVSPropertyOp44
 70
     1
102
RTVSPropertyOp45
 70
     1
102
RTVSPropertyOp46
 70
     1
102
RTVSPropertyOp47
 70
     1
102
RTVSPropertyOp48
 70
     1
102
RTVSPropertyOp49
 70
     1
102
RTVSPropertyOp50
 70
     1
102
RTVSPropertyOp51
 70
     0
102
RTVSPropertyOp52
 70
     0
102
RTVSPropertyOp53
 70
     1
102
RTVSPropertyOp54
 70
     1
102
RTVSPropertyOp55
 70
     1
102
RTVSPropertyOp56
 70
     1
102
RTVSPropertyOp57
 70
     1
102
RTVSPropertyOp58
 70
     1
102
RTVSPropertyOp59
 70
     1
102
RTVSPropertyOp60
 70
     1
102
RTVSPropertyOp61
 70
     1
102
RTVSPropertyOp62
 70
     1
  0
XRECORD
  5
2E64E
102
{ACAD_REACTORS
330
2E64D
102
}
330
2E64D
100
AcDbXrecord
280
     1
102
RTVSPost2010Prop28
280
     0
102
RTVSPost2010PropOp28
 70
     1
102
RTVSPost2010Prop29
280
     1
102
RTVSPost2010PropOp29
 70
     1
102
RTVSPost2010Prop30
280
     1
102
RTVSPost2010PropOp30
 70
     1
102
RTVSPost2010Prop31
280
     0
102
RTVSPost2010PropOp31
 70
     1
102
RTVSPost2010Prop32
280
     0
102
RTVSPost2010PropOp32
 70
     1
102
RTVSPost2010Prop33
280
     0
102
RTVSPost2010PropOp33
 70
     1
102
RTVSPost2010Prop34
280
     0
102
RTVSPost2010PropOp34
 70
     1
102
RTVSPost2010Prop35
280
     0
102
RTVSPost2010PropOp35
 70
     1
102
RTVSPost2010Prop36
280
     0
102
RTVSPost2010PropOp36
 70
     1
102
RTVSPost2010Prop37
 90
       50
102
RTVSPost2010PropOp37
 70
     1
102
RTVSPost2010Prop38
140
0.0
102
RTVSPost2010PropOp38
 70
     1
102
RTVSPost2010Prop39
140
1.0
102
RTVSPost2010PropOp39
 70
     1
102
RTVSPost2010Prop40
 90
        0
102
RTVSPost2010PropOp40
 70
     1
102
RTVSPost2010Prop41ColorIndex
 90
       18
102
RTVSPost2010Prop41ColorRGB
 90
        0
102
RTVSPost2010PropOp41
 70
     1
102
RTVSPost2010Prop42
 90
       50
102
RTVSPost2010PropOp42
 70
     1
102
RTVSPost2010Prop43
 90
        3
102
RTVSPost2010PropOp43
 70
     1
102
RTVSPost2010Prop44ColorIndex
 90
        5
102
RTVSPost2010Prop44ColorRGB
 90
      255
102
RTVSPost2010PropOp44
 70
     1
102
RTVSPost2010Prop45
280
     0
102
RTVSPost2010PropOp45
 70
     1
102
RTVSPost2010Prop46
 90
       50
102
RTVSPost2010PropOp46
 70
     1
102
RTVSPost2010Prop47
 90
       50
102
RTVSPost2010PropOp47
 70
     1
102
RTVSPost2010Prop48
 90
       50
102
RTVSPost2010PropOp48
 70
     1
102
RTVSPost2010Prop49
280
     0
102
RTVSPost2010PropOp49
 70
     1
102
RTVSPost2010Prop50
 90
       50
102
RTVSPost2010PropOp50
 70
     1
102
RTVSPost2010Prop51ColorIndex
 90
      256
102
RTVSPost2010Prop51ColorRGB
 90
-16777216
102
RTVSPost2010PropOp51
 70
     0
102
RTVSPost2010Prop52
140
1.0
102
RTVSPost2010PropOp52
 70
     0
102
RTVSPost2010Prop53
 90
        2
102
RTVSPost2010PropOp53
 70
     1
102
RTVSPost2010Prop54
  1
strokes_ogs.tif
102
RTVSPost2010PropOp54
 70
     1
102
RTVSPost2010Prop55
280
     0
102
RTVSPost2010PropOp55
 70
     1
102
RTVSPost2010Prop56
140
1.0
102
RTVSPost2010PropOp56
 70
     1
102
RTVSPost2010Prop57
140
1.0
102
RTVSPost2010PropOp57
 70
     1
102
RTVSPropertyOp0
 70
     1
102
RTVSPropertyOp1
 70
     1
102
RTVSPropertyOp2
 70
     1
102
RTVSPropertyOp3
 70
     1
102
RTVSPropertyOp4
 70
     1
102
RTVSPropertyOp5
 70
     1
102
RTVSPropertyOp6
 70
     1
102
RTVSPropertyOp7
 70
     1
102
RTVSPropertyOp8
 70
     1
102
RTVSPropertyOp9
 70
     1
102
RTVSPropertyOp10
 70
     1
102
RTVSPropertyOp11
 70
     1
102
RTVSPropertyOp12
 70
     1
102
RTVSPropertyOp13
 70
     1
102
RTVSPropertyOp14
 70
     1
102
RTVSPropertyOp15
 70
     1
102
RTVSPropertyOp16
 70
     1
102
RTVSPropertyOp17
 70
     1
102
RTVSPropertyOp18
 70
     1
102
RTVSPropertyOp19
 70
     1
102
RTVSPropertyOp20
 70
     1
102
RTVSPropertyOp21
 70
     1
102
RTVSPropertyOp22
 70
     1
102
RTVSPropertyOp23
 70
     1
102
RTVSPropertyOp24
 70
     1
102
RTVSPropertyOp25
 70
     1
102
RTVSPropertyOp26
 70
     1
102
RTVSPropertyOp27
 70
     1
102
RTVSPropertyOp28
 70
     1
102
RTVSPropertyOp29
 70
     1
102
RTVSPropertyOp30
 70
     1
102
RTVSPropertyOp31
 70
     1
102
RTVSPropertyOp32
 70
     1
102
RTVSPropertyOp33
 70
     1
102
RTVSPropertyOp34
 70
     1
102
RTVSPropertyOp35
 70
     1
102
RTVSPropertyOp36
 70
     1
102
RTVSPropertyOp37
 70
     1
102
RTVSPropertyOp38
 70
     1
102
RTVSPropertyOp39
 70
     1
102
RTVSPropertyOp40
 70
     1
102
RTVSPropertyOp41
 70
     1
102
RTVSPropertyOp42
 70
     1
102
RTVSPropertyOp43
 70
     1
102
RTVSPropertyOp44
 70
     1
102
RTVSPropertyOp45
 70
     1
102
RTVSPropertyOp46
 70
     1
102
RTVSPropertyOp47
 70
     1
102
RTVSPropertyOp48
 70
     1
102
RTVSPropertyOp49
 70
     1
102
RTVSPropertyOp50
 70
     1
102
RTVSPropertyOp51
 70
     0
102
RTVSPropertyOp52
 70
     0
102
RTVSPropertyOp53
 70
     1
102
RTVSPropertyOp54
 70
     1
102
RTVSPropertyOp55
 70
     1
102
RTVSPropertyOp56
 70
     1
102
RTVSPropertyOp57
 70
     1
102
RTVSPropertyOp58
 70
     1
102
RTVSPropertyOp59
 70
     1
102
RTVSPropertyOp60
 70
     1
102
RTVSPropertyOp61
 70
     1
102
RTVSPropertyOp62
 70
     1
  0
XRECORD
  5
2E65C
102
{ACAD_REACTORS
330
2E65B
102
}
330
2E65B
100
AcDbXrecord
280
     1
102
RTVSPost2010Prop28
280
     0
102
RTVSPost2010PropOp28
 70
     1
102
RTVSPost2010Prop29
280
     1
102
RTVSPost2010PropOp29
 70
     1
102
RTVSPost2010Prop30
280
     1
102
RTVSPost2010PropOp30
 70
     1
102
RTVSPost2010Prop31
280
     0
102
RTVSPost2010PropOp31
 70
     1
102
RTVSPost2010Prop32
280
     0
102
RTVSPost2010PropOp32
 70
     1
102
RTVSPost2010Prop33
280
     0
102
RTVSPost2010PropOp33
 70
     1
102
RTVSPost2010Prop34
280
     0
102
RTVSPost2010PropOp34
 70
     1
102
RTVSPost2010Prop35
280
     0
102
RTVSPost2010PropOp35
 70
     1
102
RTVSPost2010Prop36
280
     0
102
RTVSPost2010PropOp36
 70
     1
102
RTVSPost2010Prop37
 90
       50
102
RTVSPost2010PropOp37
 70
     1
102
RTVSPost2010Prop38
140
0.0
102
RTVSPost2010PropOp38
 70
     1
102
RTVSPost2010Prop39
140
1.0
102
RTVSPost2010PropOp39
 70
     1
102
RTVSPost2010Prop40
 90
        0
102
RTVSPost2010PropOp40
 70
     1
102
RTVSPost2010Prop41ColorIndex
 90
       18
102
RTVSPost2010Prop41ColorRGB
 90
        0
102
RTVSPost2010PropOp41
 70
     1
102
RTVSPost2010Prop42
 90
       50
102
RTVSPost2010PropOp42
 70
     1
102
RTVSPost2010Prop43
 90
        3
102
RTVSPost2010PropOp43
 70
     1
102
RTVSPost2010Prop44ColorIndex
 90
        5
102
RTVSPost2010Prop44ColorRGB
 90
      255
102
RTVSPost2010PropOp44
 70
     1
102
RTVSPost2010Prop45
280
     0
102
RTVSPost2010PropOp45
 70
     1
102
RTVSPost2010Prop46
 90
       50
102
RTVSPost2010PropOp46
 70
     1
102
RTVSPost2010Prop47
 90
       50
102
RTVSPost2010PropOp47
 70
     1
102
RTVSPost2010Prop48
 90
       50
102
RTVSPost2010PropOp48
 70
     1
102
RTVSPost2010Prop49
280
     0
102
RTVSPost2010PropOp49
 70
     1
102
RTVSPost2010Prop50
 90
       50
102
RTVSPost2010PropOp50
 70
     1
102
RTVSPost2010Prop51ColorIndex
 90
      256
102
RTVSPost2010Prop51ColorRGB
 90
-16777216
102
RTVSPost2010PropOp51
 70
     0
102
RTVSPost2010Prop52
140
1.0
102
RTVSPost2010PropOp52
 70
     0
102
RTVSPost2010Prop53
 90
        2
102
RTVSPost2010PropOp53
 70
     1
102
RTVSPost2010Prop54
  1
strokes_ogs.tif
102
RTVSPost2010PropOp54
 70
     1
102
RTVSPost2010Prop55
280
     0
102
RTVSPost2010PropOp55
 70
     1
102
RTVSPost2010Prop56
140
1.0
102
RTVSPost2010PropOp56
 70
     1
102
RTVSPost2010Prop57
140
1.0
102
RTVSPost2010PropOp57
 70
     1
102
RTVSPropertyOp0
 70
     1
102
RTVSPropertyOp1
 70
     1
102
RTVSPropertyOp2
 70
     1
102
RTVSPropertyOp3
 70
     1
102
RTVSPropertyOp4
 70
     1
102
RTVSPropertyOp5
 70
     1
102
RTVSPropertyOp6
 70
     1
102
RTVSPropertyOp7
 70
     1
102
RTVSPropertyOp8
 70
     1
102
RTVSPropertyOp9
 70
     1
102
RTVSPropertyOp10
 70
     1
102
RTVSPropertyOp11
 70
     1
102
RTVSPropertyOp12
 70
     1
102
RTVSPropertyOp13
 70
     1
102
RTVSPropertyOp14
 70
     1
102
RTVSPropertyOp15
 70
     1
102
RTVSPropertyOp16
 70
     1
102
RTVSPropertyOp17
 70
     1
102
RTVSPropertyOp18
 70
     1
102
RTVSPropertyOp19
 70
     1
102
RTVSPropertyOp20
 70
     1
102
RTVSPropertyOp21
 70
     1
102
RTVSPropertyOp22
 70
     1
102
RTVSPropertyOp23
 70
     1
102
RTVSPropertyOp24
 70
     1
102
RTVSPropertyOp25
 70
     1
102
RTVSPropertyOp26
 70
     1
102
RTVSPropertyOp27
 70
     1
102
RTVSPropertyOp28
 70
     1
102
RTVSPropertyOp29
 70
     1
102
RTVSPropertyOp30
 70
     1
102
RTVSPropertyOp31
 70
     1
102
RTVSPropertyOp32
 70
     1
102
RTVSPropertyOp33
 70
     1
102
RTVSPropertyOp34
 70
     1
102
RTVSPropertyOp35
 70
     1
102
RTVSPropertyOp36
 70
     1
102
RTVSPropertyOp37
 70
     1
102
RTVSPropertyOp38
 70
     1
102
RTVSPropertyOp39
 70
     1
102
RTVSPropertyOp40
 70
     1
102
RTVSPropertyOp41
 70
     1
102
RTVSPropertyOp42
 70
     1
102
RTVSPropertyOp43
 70
     1
102
RTVSPropertyOp44
 70
     1
102
RTVSPropertyOp45
 70
     1
102
RTVSPropertyOp46
 70
     1
102
RTVSPropertyOp47
 70
     1
102
RTVSPropertyOp48
 70
     1
102
RTVSPropertyOp49
 70
     1
102
RTVSPropertyOp50
 70
     1
102
RTVSPropertyOp51
 70
     0
102
RTVSPropertyOp52
 70
     0
102
RTVSPropertyOp53
 70
     1
102
RTVSPropertyOp54
 70
     1
102
RTVSPropertyOp55
 70
     1
102
RTVSPropertyOp56
 70
     1
102
RTVSPropertyOp57
 70
     1
102
RTVSPropertyOp58
 70
     1
102
RTVSPropertyOp59
 70
     1
102
RTVSPropertyOp60
 70
     1
102
RTVSPropertyOp61
 70
     1
102
RTVSPropertyOp62
 70
     1
  0
XRECORD
  5
2E664
102
{ACAD_REACTORS
330
2E663
102
}
330
2E663
100
AcDbXrecord
280
     1
102
RTVSPost2010Prop28
280
     0
102
RTVSPost2010PropOp28
 70
     1
102
RTVSPost2010Prop29
280
     1
102
RTVSPost2010PropOp29
 70
     1
102
RTVSPost2010Prop30
280
     1
102
RTVSPost2010PropOp30
 70
     1
102
RTVSPost2010Prop31
280
     0
102
RTVSPost2010PropOp31
 70
     1
102
RTVSPost2010Prop32
280
     0
102
RTVSPost2010PropOp32
 70
     1
102
RTVSPost2010Prop33
280
     0
102
RTVSPost2010PropOp33
 70
     1
102
RTVSPost2010Prop34
280
     0
102
RTVSPost2010PropOp34
 70
     1
102
RTVSPost2010Prop35
280
     0
102
RTVSPost2010PropOp35
 70
     1
102
RTVSPost2010Prop36
280
     0
102
RTVSPost2010PropOp36
 70
     1
102
RTVSPost2010Prop37
 90
       50
102
RTVSPost2010PropOp37
 70
     1
102
RTVSPost2010Prop38
140
0.0
102
RTVSPost2010PropOp38
 70
     1
102
RTVSPost2010Prop39
140
1.0
102
RTVSPost2010PropOp39
 70
     1
102
RTVSPost2010Prop40
 90
        0
102
RTVSPost2010PropOp40
 70
     1
102
RTVSPost2010Prop41ColorIndex
 90
       18
102
RTVSPost2010Prop41ColorRGB
 90
        0
102
RTVSPost2010PropOp41
 70
     1
102
RTVSPost2010Prop42
 90
       50
102
RTVSPost2010PropOp42
 70
     1
102
RTVSPost2010Prop43
 90
        3
102
RTVSPost2010PropOp43
 70
     1
102
RTVSPost2010Prop44ColorIndex
 90
        5
102
RTVSPost2010Prop44ColorRGB
 90
      255
102
RTVSPost2010PropOp44
 70
     1
102
RTVSPost2010Prop45
280
     0
102
RTVSPost2010PropOp45
 70
     1
102
RTVSPost2010Prop46
 90
       50
102
RTVSPost2010PropOp46
 70
     1
102
RTVSPost2010Prop47
 90
       50
102
RTVSPost2010PropOp47
 70
     1
102
RTVSPost2010Prop48
 90
       50
102
RTVSPost2010PropOp48
 70
     1
102
RTVSPost2010Prop49
280
     0
102
RTVSPost2010PropOp49
 70
     1
102
RTVSPost2010Prop50
 90
       50
102
RTVSPost2010PropOp50
 70
     1
102
RTVSPost2010Prop51ColorIndex
 90
      256
102
RTVSPost2010Prop51ColorRGB
 90
-16777216
102
RTVSPost2010PropOp51
 70
     0
102
RTVSPost2010Prop52
140
1.0
102
RTVSPost2010PropOp52
 70
     0
102
RTVSPost2010Prop53
 90
        2
102
RTVSPost2010PropOp53
 70
     1
102
RTVSPost2010Prop54
  1
strokes_ogs.tif
102
RTVSPost2010PropOp54
 70
     1
102
RTVSPost2010Prop55
280
     0
102
RTVSPost2010PropOp55
 70
     1
102
RTVSPost2010Prop56
140
1.0
102
RTVSPost2010PropOp56
 70
     1
102
RTVSPost2010Prop57
140
1.0
102
RTVSPost2010PropOp57
 70
     1
102
RTVSPropertyOp0
 70
     1
102
RTVSPropertyOp1
 70
     1
102
RTVSPropertyOp2
 70
     1
102
RTVSPropertyOp3
 70
     1
102
RTVSPropertyOp4
 70
     1
102
RTVSPropertyOp5
 70
     1
102
RTVSPropertyOp6
 70
     1
102
RTVSPropertyOp7
 70
     1
102
RTVSPropertyOp8
 70
     1
102
RTVSPropertyOp9
 70
     1
102
RTVSPropertyOp10
 70
     1
102
RTVSPropertyOp11
 70
     1
102
RTVSPropertyOp12
 70
     1
102
RTVSPropertyOp13
 70
     1
102
RTVSPropertyOp14
 70
     1
102
RTVSPropertyOp15
 70
     1
102
RTVSPropertyOp16
 70
     1
102
RTVSPropertyOp17
 70
     1
102
RTVSPropertyOp18
 70
     1
102
RTVSPropertyOp19
 70
     1
102
RTVSPropertyOp20
 70
     1
102
RTVSPropertyOp21
 70
     1
102
RTVSPropertyOp22
 70
     1
102
RTVSPropertyOp23
 70
     1
102
RTVSPropertyOp24
 70
     1
102
RTVSPropertyOp25
 70
     1
102
RTVSPropertyOp26
 70
     1
102
RTVSPropertyOp27
 70
     1
102
RTVSPropertyOp28
 70
     1
102
RTVSPropertyOp29
 70
     1
102
RTVSPropertyOp30
 70
     1
102
RTVSPropertyOp31
 70
     1
102
RTVSPropertyOp32
 70
     1
102
RTVSPropertyOp33
 70
     1
102
RTVSPropertyOp34
 70
     1
102
RTVSPropertyOp35
 70
     1
102
RTVSPropertyOp36
 70
     1
102
RTVSPropertyOp37
 70
     1
102
RTVSPropertyOp38
 70
     1
102
RTVSPropertyOp39
 70
     1
102
RTVSPropertyOp40
 70
     1
102
RTVSPropertyOp41
 70
     1
102
RTVSPropertyOp42
 70
     1
102
RTVSPropertyOp43
 70
     1
102
RTVSPropertyOp44
 70
     1
102
RTVSPropertyOp45
 70
     1
102
RTVSPropertyOp46
 70
     1
102
RTVSPropertyOp47
 70
     1
102
RTVSPropertyOp48
 70
     1
102
RTVSPropertyOp49
 70
     1
102
RTVSPropertyOp50
 70
     1
102
RTVSPropertyOp51
 70
     0
102
RTVSPropertyOp52
 70
     0
102
RTVSPropertyOp53
 70
     1
102
RTVSPropertyOp54
 70
     1
102
RTVSPropertyOp55
 70
     1
102
RTVSPropertyOp56
 70
     1
102
RTVSPropertyOp57
 70
     1
102
RTVSPropertyOp58
 70
     1
102
RTVSPropertyOp59
 70
     1
102
RTVSPropertyOp60
 70
     1
102
RTVSPropertyOp61
 70
     1
102
RTVSPropertyOp62
 70
     1
  0
XRECORD
  5
2E656
102
{ACAD_REACTORS
330
2E655
102
}
330
2E655
100
AcDbXrecord
280
     1
102
RTVSPost2010Prop28
280
     0
102
RTVSPost2010PropOp28
 70
     1
102
RTVSPost2010Prop29
280
     1
102
RTVSPost2010PropOp29
 70
     1
102
RTVSPost2010Prop30
280
     1
102
RTVSPost2010PropOp30
 70
     1
102
RTVSPost2010Prop31
280
     0
102
RTVSPost2010PropOp31
 70
     1
102
RTVSPost2010Prop32
280
     0
102
RTVSPost2010PropOp32
 70
     1
102
RTVSPost2010Prop33
280
     0
102
RTVSPost2010PropOp33
 70
     1
102
RTVSPost2010Prop34
280
     0
102
RTVSPost2010PropOp34
 70
     1
102
RTVSPost2010Prop35
280
     0
102
RTVSPost2010PropOp35
 70
     1
102
RTVSPost2010Prop36
280
     0
102
RTVSPost2010PropOp36
 70
     1
102
RTVSPost2010Prop37
 90
       50
102
RTVSPost2010PropOp37
 70
     1
102
RTVSPost2010Prop38
140
0.0
102
RTVSPost2010PropOp38
 70
     1
102
RTVSPost2010Prop39
140
1.0
102
RTVSPost2010PropOp39
 70
     1
102
RTVSPost2010Prop40
 90
        0
102
RTVSPost2010PropOp40
 70
     1
102
RTVSPost2010Prop41ColorIndex
 90
       18
102
RTVSPost2010Prop41ColorRGB
 90
        0
102
RTVSPost2010PropOp41
 70
     1
102
RTVSPost2010Prop42
 90
       50
102
RTVSPost2010PropOp42
 70
     1
102
RTVSPost2010Prop43
 90
        3
102
RTVSPost2010PropOp43
 70
     1
102
RTVSPost2010Prop44ColorIndex
 90
        5
102
RTVSPost2010Prop44ColorRGB
 90
      255
102
RTVSPost2010PropOp44
 70
     1
102
RTVSPost2010Prop45
280
     0
102
RTVSPost2010PropOp45
 70
     1
102
RTVSPost2010Prop46
 90
       50
102
RTVSPost2010PropOp46
 70
     1
102
RTVSPost2010Prop47
 90
       50
102
RTVSPost2010PropOp47
 70
     1
102
RTVSPost2010Prop48
 90
       50
102
RTVSPost2010PropOp48
 70
     1
102
RTVSPost2010Prop49
280
     0
102
RTVSPost2010PropOp49
 70
     1
102
RTVSPost2010Prop50
 90
       50
102
RTVSPost2010PropOp50
 70
     1
102
RTVSPost2010Prop51ColorIndex
 90
      256
102
RTVSPost2010Prop51ColorRGB
 90
-16777216
102
RTVSPost2010PropOp51
 70
     0
102
RTVSPost2010Prop52
140
1.0
102
RTVSPost2010PropOp52
 70
     0
102
RTVSPost2010Prop53
 90
        2
102
RTVSPost2010PropOp53
 70
     1
102
RTVSPost2010Prop54
  1
strokes_ogs.tif
102
RTVSPost2010PropOp54
 70
     1
102
RTVSPost2010Prop55
280
     0
102
RTVSPost2010PropOp55
 70
     1
102
RTVSPost2010Prop56
140
1.0
102
RTVSPost2010PropOp56
 70
     1
102
RTVSPost2010Prop57
140
1.0
102
RTVSPost2010PropOp57
 70
     1
102
RTVSPropertyOp0
 70
     1
102
RTVSPropertyOp1
 70
     1
102
RTVSPropertyOp2
 70
     1
102
RTVSPropertyOp3
 70
     1
102
RTVSPropertyOp4
 70
     1
102
RTVSPropertyOp5
 70
     1
102
RTVSPropertyOp6
 70
     1
102
RTVSPropertyOp7
 70
     1
102
RTVSPropertyOp8
 70
     1
102
RTVSPropertyOp9
 70
     1
102
RTVSPropertyOp10
 70
     1
102
RTVSPropertyOp11
 70
     1
102
RTVSPropertyOp12
 70
     1
102
RTVSPropertyOp13
 70
     1
102
RTVSPropertyOp14
 70
     1
102
RTVSPropertyOp15
 70
     1
102
RTVSPropertyOp16
 70
     1
102
RTVSPropertyOp17
 70
     1
102
RTVSPropertyOp18
 70
     1
102
RTVSPropertyOp19
 70
     1
102
RTVSPropertyOp20
 70
     1
102
RTVSPropertyOp21
 70
     1
102
RTVSPropertyOp22
 70
     1
102
RTVSPropertyOp23
 70
     1
102
RTVSPropertyOp24
 70
     1
102
RTVSPropertyOp25
 70
     1
102
RTVSPropertyOp26
 70
     1
102
RTVSPropertyOp27
 70
     1
102
RTVSPropertyOp28
 70
     1
102
RTVSPropertyOp29
 70
     1
102
RTVSPropertyOp30
 70
     1
102
RTVSPropertyOp31
 70
     1
102
RTVSPropertyOp32
 70
     1
102
RTVSPropertyOp33
 70
     1
102
RTVSPropertyOp34
 70
     1
102
RTVSPropertyOp35
 70
     1
102
RTVSPropertyOp36
 70
     1
102
RTVSPropertyOp37
 70
     1
102
RTVSPropertyOp38
 70
     1
102
RTVSPropertyOp39
 70
     1
102
RTVSPropertyOp40
 70
     1
102
RTVSPropertyOp41
 70
     1
102
RTVSPropertyOp42
 70
     1
102
RTVSPropertyOp43
 70
     1
102
RTVSPropertyOp44
 70
     1
102
RTVSPropertyOp45
 70
     1
102
RTVSPropertyOp46
 70
     1
102
RTVSPropertyOp47
 70
     1
102
RTVSPropertyOp48
 70
     1
102
RTVSPropertyOp49
 70
     1
102
RTVSPropertyOp50
 70
     1
102
RTVSPropertyOp51
 70
     0
102
RTVSPropertyOp52
 70
     0
102
RTVSPropertyOp53
 70
     1
102
RTVSPropertyOp54
 70
     1
102
RTVSPropertyOp55
 70
     1
102
RTVSPropertyOp56
 70
     1
102
RTVSPropertyOp57
 70
     1
102
RTVSPropertyOp58
 70
     1
102
RTVSPropertyOp59
 70
     1
102
RTVSPropertyOp60
 70
     1
102
RTVSPropertyOp61
 70
     1
102
RTVSPropertyOp62
 70
     1
  0
XRECORD
  5
2E65A
102
{ACAD_REACTORS
330
2E659
102
}
330
2E659
100
AcDbXrecord
280
     1
102
RTVSPost2010Prop28
280
     0
102
RTVSPost2010PropOp28
 70
     1
102
RTVSPost2010Prop29
280
     1
102
RTVSPost2010PropOp29
 70
     1
102
RTVSPost2010Prop30
280
     1
102
RTVSPost2010PropOp30
 70
     1
102
RTVSPost2010Prop31
280
     0
102
RTVSPost2010PropOp31
 70
     1
102
RTVSPost2010Prop32
280
     0
102
RTVSPost2010PropOp32
 70
     1
102
RTVSPost2010Prop33
280
     0
102
RTVSPost2010PropOp33
 70
     1
102
RTVSPost2010Prop34
280
     0
102
RTVSPost2010PropOp34
 70
     1
102
RTVSPost2010Prop35
280
     0
102
RTVSPost2010PropOp35
 70
     1
102
RTVSPost2010Prop36
280
     0
102
RTVSPost2010PropOp36
 70
     1
102
RTVSPost2010Prop37
 90
       50
102
RTVSPost2010PropOp37
 70
     1
102
RTVSPost2010Prop38
140
0.0
102
RTVSPost2010PropOp38
 70
     1
102
RTVSPost2010Prop39
140
1.0
102
RTVSPost2010PropOp39
 70
     1
102
RTVSPost2010Prop40
 90
        0
102
RTVSPost2010PropOp40
 70
     1
102
RTVSPost2010Prop41ColorIndex
 90
       18
102
RTVSPost2010Prop41ColorRGB
 90
        0
102
RTVSPost2010PropOp41
 70
     1
102
RTVSPost2010Prop42
 90
       50
102
RTVSPost2010PropOp42
 70
     1
102
RTVSPost2010Prop43
 90
        3
102
RTVSPost2010PropOp43
 70
     1
102
RTVSPost2010Prop44ColorIndex
 90
        5
102
RTVSPost2010Prop44ColorRGB
 90
      255
102
RTVSPost2010PropOp44
 70
     1
102
RTVSPost2010Prop45
280
     0
102
RTVSPost2010PropOp45
 70
     1
102
RTVSPost2010Prop46
 90
       50
102
RTVSPost2010PropOp46
 70
     1
102
RTVSPost2010Prop47
 90
       50
102
RTVSPost2010PropOp47
 70
     1
102
RTVSPost2010Prop48
 90
       50
102
RTVSPost2010PropOp48
 70
     1
102
RTVSPost2010Prop49
280
     0
102
RTVSPost2010PropOp49
 70
     1
102
RTVSPost2010Prop50
 90
       50
102
RTVSPost2010PropOp50
 70
     1
102
RTVSPost2010Prop51ColorIndex
 90
      256
102
RTVSPost2010Prop51ColorRGB
 90
-16777216
102
RTVSPost2010PropOp51
 70
     0
102
RTVSPost2010Prop52
140
1.0
102
RTVSPost2010PropOp52
 70
     0
102
RTVSPost2010Prop53
 90
        2
102
RTVSPost2010PropOp53
 70
     1
102
RTVSPost2010Prop54
  1
strokes_ogs.tif
102
RTVSPost2010PropOp54
 70
     1
102
RTVSPost2010Prop55
280
     0
102
RTVSPost2010PropOp55
 70
     1
102
RTVSPost2010Prop56
140
1.0
102
RTVSPost2010PropOp56
 70
     1
102
RTVSPost2010Prop57
140
1.0
102
RTVSPost2010PropOp57
 70
     1
102
RTVSPropertyOp0
 70
     1
102
RTVSPropertyOp1
 70
     1
102
RTVSPropertyOp2
 70
     1
102
RTVSPropertyOp3
 70
     1
102
RTVSPropertyOp4
 70
     1
102
RTVSPropertyOp5
 70
     1
102
RTVSPropertyOp6
 70
     1
102
RTVSPropertyOp7
 70
     1
102
RTVSPropertyOp8
 70
     1
102
RTVSPropertyOp9
 70
     1
102
RTVSPropertyOp10
 70
     1
102
RTVSPropertyOp11
 70
     1
102
RTVSPropertyOp12
 70
     1
102
RTVSPropertyOp13
 70
     1
102
RTVSPropertyOp14
 70
     1
102
RTVSPropertyOp15
 70
     1
102
RTVSPropertyOp16
 70
     1
102
RTVSPropertyOp17
 70
     1
102
RTVSPropertyOp18
 70
     1
102
RTVSPropertyOp19
 70
     1
102
RTVSPropertyOp20
 70
     1
102
RTVSPropertyOp21
 70
     1
102
RTVSPropertyOp22
 70
     1
102
RTVSPropertyOp23
 70
     1
102
RTVSPropertyOp24
 70
     1
102
RTVSPropertyOp25
 70
     1
102
RTVSPropertyOp26
 70
     1
102
RTVSPropertyOp27
 70
     1
102
RTVSPropertyOp28
 70
     1
102
RTVSPropertyOp29
 70
     1
102
RTVSPropertyOp30
 70
     1
102
RTVSPropertyOp31
 70
     1
102
RTVSPropertyOp32
 70
     1
102
RTVSPropertyOp33
 70
     1
102
RTVSPropertyOp34
 70
     1
102
RTVSPropertyOp35
 70
     1
102
RTVSPropertyOp36
 70
     1
102
RTVSPropertyOp37
 70
     1
102
RTVSPropertyOp38
 70
     1
102
RTVSPropertyOp39
 70
     1
102
RTVSPropertyOp40
 70
     1
102
RTVSPropertyOp41
 70
     1
102
RTVSPropertyOp42
 70
     1
102
RTVSPropertyOp43
 70
     1
102
RTVSPropertyOp44
 70
     1
102
RTVSPropertyOp45
 70
     1
102
RTVSPropertyOp46
 70
     1
102
RTVSPropertyOp47
 70
     1
102
RTVSPropertyOp48
 70
     1
102
RTVSPropertyOp49
 70
     1
102
RTVSPropertyOp50
 70
     1
102
RTVSPropertyOp51
 70
     0
102
RTVSPropertyOp52
 70
     0
102
RTVSPropertyOp53
 70
     1
102
RTVSPropertyOp54
 70
     1
102
RTVSPropertyOp55
 70
     1
102
RTVSPropertyOp56
 70
     1
102
RTVSPropertyOp57
 70
     1
102
RTVSPropertyOp58
 70
     1
102
RTVSPropertyOp59
 70
     1
102
RTVSPropertyOp60
 70
     1
102
RTVSPropertyOp61
 70
     1
102
RTVSPropertyOp62
 70
     1
  0
XRECORD
  5
2E66A
102
{ACAD_REACTORS
330
2E669
102
}
330
2E669
100
AcDbXrecord
280
     1
102
RTVSPost2010Prop28
280
     0
102
RTVSPost2010PropOp28
 70
     1
102
RTVSPost2010Prop29
280
     1
102
RTVSPost2010PropOp29
 70
     1
102
RTVSPost2010Prop30
280
     1
102
RTVSPost2010PropOp30
 70
     1
102
RTVSPost2010Prop31
280
     0
102
RTVSPost2010PropOp31
 70
     1
102
RTVSPost2010Prop32
280
     0
102
RTVSPost2010PropOp32
 70
     1
102
RTVSPost2010Prop33
280
     0
102
RTVSPost2010PropOp33
 70
     1
102
RTVSPost2010Prop34
280
     0
102
RTVSPost2010PropOp34
 70
     1
102
RTVSPost2010Prop35
280
     0
102
RTVSPost2010PropOp35
 70
     1
102
RTVSPost2010Prop36
280
     0
102
RTVSPost2010PropOp36
 70
     1
102
RTVSPost2010Prop37
 90
       50
102
RTVSPost2010PropOp37
 70
     1
102
RTVSPost2010Prop38
140
0.0
102
RTVSPost2010PropOp38
 70
     1
102
RTVSPost2010Prop39
140
1.0
102
RTVSPost2010PropOp39
 70
     1
102
RTVSPost2010Prop40
 90
        0
102
RTVSPost2010PropOp40
 70
     1
102
RTVSPost2010Prop41ColorIndex
 90
       18
102
RTVSPost2010Prop41ColorRGB
 90
        0
102
RTVSPost2010PropOp41
 70
     1
102
RTVSPost2010Prop42
 90
       50
102
RTVSPost2010PropOp42
 70
     1
102
RTVSPost2010Prop43
 90
        3
102
RTVSPost2010PropOp43
 70
     1
102
RTVSPost2010Prop44ColorIndex
 90
        5
102
RTVSPost2010Prop44ColorRGB
 90
      255
102
RTVSPost2010PropOp44
 70
     1
102
RTVSPost2010Prop45
280
     0
102
RTVSPost2010PropOp45
 70
     1
102
RTVSPost2010Prop46
 90
       50
102
RTVSPost2010PropOp46
 70
     1
102
RTVSPost2010Prop47
 90
       50
102
RTVSPost2010PropOp47
 70
     1
102
RTVSPost2010Prop48
 90
       50
102
RTVSPost2010PropOp48
 70
     1
102
RTVSPost2010Prop49
280
     0
102
RTVSPost2010PropOp49
 70
     1
102
RTVSPost2010Prop50
 90
       50
102
RTVSPost2010PropOp50
 70
     1
102
RTVSPost2010Prop51ColorIndex
 90
      256
102
RTVSPost2010Prop51ColorRGB
 90
-16777216
102
RTVSPost2010PropOp51
 70
     0
102
RTVSPost2010Prop52
140
1.0
102
RTVSPost2010PropOp52
 70
     0
102
RTVSPost2010Prop53
 90
        2
102
RTVSPost2010PropOp53
 70
     1
102
RTVSPost2010Prop54
  1
strokes_ogs.tif
102
RTVSPost2010PropOp54
 70
     1
102
RTVSPost2010Prop55
280
     0
102
RTVSPost2010PropOp55
 70
     1
102
RTVSPost2010Prop56
140
1.0
102
RTVSPost2010PropOp56
 70
     1
102
RTVSPost2010Prop57
140
1.0
102
RTVSPost2010PropOp57
 70
     1
102
RTVSPropertyOp0
 70
     0
102
RTVSPropertyOp1
 70
     0
102
RTVSPropertyOp2
 70
     0
102
RTVSPropertyOp3
 70
     0
102
RTVSPropertyOp4
 70
     0
102
RTVSPropertyOp5
 70
     0
102
RTVSPropertyOp6
 70
     0
102
RTVSPropertyOp7
 70
     0
102
RTVSPropertyOp8
 70
     0
102
RTVSPropertyOp9
 70
     0
102
RTVSPropertyOp10
 70
     0
102
RTVSPropertyOp11
 70
     0
102
RTVSPropertyOp12
 70
     0
102
RTVSPropertyOp13
 70
     0
102
RTVSPropertyOp14
 70
     2
102
RTVSPropertyOp15
 70
     0
102
RTVSPropertyOp16
 70
     0
102
RTVSPropertyOp17
 70
     0
102
RTVSPropertyOp18
 70
     0
102
RTVSPropertyOp19
 70
     0
102
RTVSPropertyOp20
 70
     0
102
RTVSPropertyOp21
 70
     0
102
RTVSPropertyOp22
 70
     0
102
RTVSPropertyOp23
 70
     0
102
RTVSPropertyOp24
 70
     0
102
RTVSPropertyOp25
 70
     0
102
RTVSPropertyOp26
 70
     0
102
RTVSPropertyOp27
 70
     0
102
RTVSPropertyOp28
 70
     1
102
RTVSPropertyOp29
 70
     1
102
RTVSPropertyOp30
 70
     1
102
RTVSPropertyOp31
 70
     1
102
RTVSPropertyOp32
 70
     1
102
RTVSPropertyOp33
 70
     1
102
RTVSPropertyOp34
 70
     1
102
RTVSPropertyOp35
 70
     1
102
RTVSPropertyOp36
 70
     1
102
RTVSPropertyOp37
 70
     1
102
RTVSPropertyOp38
 70
     1
102
RTVSPropertyOp39
 70
     1
102
RTVSPropertyOp40
 70
     1
102
RTVSPropertyOp41
 70
     1
102
RTVSPropertyOp42
 70
     1
102
RTVSPropertyOp43
 70
     1
102
RTVSPropertyOp44
 70
     1
102
RTVSPropertyOp45
 70
     1
102
RTVSPropertyOp46
 70
     1
102
RTVSPropertyOp47
 70
     1
102
RTVSPropertyOp48
 70
     1
102
RTVSPropertyOp49
 70
     1
102
RTVSPropertyOp50
 70
     1
102
RTVSPropertyOp51
 70
     0
102
RTVSPropertyOp52
 70
     0
102
RTVSPropertyOp53
 70
     1
102
RTVSPropertyOp54
 70
     1
102
RTVSPropertyOp55
 70
     1
102
RTVSPropertyOp56
 70
     1
102
RTVSPropertyOp57
 70
     1
102
RTVSPropertyOp58
 70
     1
102
RTVSPropertyOp59
 70
     1
102
RTVSPropertyOp60
 70
     1
102
RTVSPropertyOp61
 70
     1
102
RTVSPropertyOp62
 70
     1
  0
XRECORD
  5
2E662
102
{ACAD_REACTORS
330
2E661
102
}
330
2E661
100
AcDbXrecord
280
     1
102
RTVSPost2010Prop28
280
     0
102
RTVSPost2010PropOp28
 70
     1
102
RTVSPost2010Prop29
280
     1
102
RTVSPost2010PropOp29
 70
     1
102
RTVSPost2010Prop30
280
     1
102
RTVSPost2010PropOp30
 70
     1
102
RTVSPost2010Prop31
280
     0
102
RTVSPost2010PropOp31
 70
     1
102
RTVSPost2010Prop32
280
     0
102
RTVSPost2010PropOp32
 70
     1
102
RTVSPost2010Prop33
280
     0
102
RTVSPost2010PropOp33
 70
     1
102
RTVSPost2010Prop34
280
     0
102
RTVSPost2010PropOp34
 70
     1
102
RTVSPost2010Prop35
280
     0
102
RTVSPost2010PropOp35
 70
     1
102
RTVSPost2010Prop36
280
     0
102
RTVSPost2010PropOp36
 70
     1
102
RTVSPost2010Prop37
 90
       50
102
RTVSPost2010PropOp37
 70
     1
102
RTVSPost2010Prop38
140
0.0
102
RTVSPost2010PropOp38
 70
     1
102
RTVSPost2010Prop39
140
1.0
102
RTVSPost2010PropOp39
 70
     1
102
RTVSPost2010Prop40
 90
        0
102
RTVSPost2010PropOp40
 70
     1
102
RTVSPost2010Prop41ColorIndex
 90
       18
102
RTVSPost2010Prop41ColorRGB
 90
        0
102
RTVSPost2010PropOp41
 70
     1
102
RTVSPost2010Prop42
 90
       50
102
RTVSPost2010PropOp42
 70
     1
102
RTVSPost2010Prop43
 90
        3
102
RTVSPost2010PropOp43
 70
     1
102
RTVSPost2010Prop44ColorIndex
 90
        5
102
RTVSPost2010Prop44ColorRGB
 90
      255
102
RTVSPost2010PropOp44
 70
     1
102
RTVSPost2010Prop45
280
     0
102
RTVSPost2010PropOp45
 70
     1
102
RTVSPost2010Prop46
 90
       50
102
RTVSPost2010PropOp46
 70
     1
102
RTVSPost2010Prop47
 90
       50
102
RTVSPost2010PropOp47
 70
     1
102
RTVSPost2010Prop48
 90
       50
102
RTVSPost2010PropOp48
 70
     1
102
RTVSPost2010Prop49
280
     0
102
RTVSPost2010PropOp49
 70
     1
102
RTVSPost2010Prop50
 90
       50
102
RTVSPost2010PropOp50
 70
     1
102
RTVSPost2010Prop51ColorIndex
 90
      256
102
RTVSPost2010Prop51ColorRGB
 90
-16777216
102
RTVSPost2010PropOp51
 70
     0
102
RTVSPost2010Prop52
140
1.0
102
RTVSPost2010PropOp52
 70
     0
102
RTVSPost2010Prop53
 90
        2
102
RTVSPost2010PropOp53
 70
     1
102
RTVSPost2010Prop54
  1
strokes_ogs.tif
102
RTVSPost2010PropOp54
 70
     1
102
RTVSPost2010Prop55
280
     0
102
RTVSPost2010PropOp55
 70
     1
102
RTVSPost2010Prop56
140
1.0
102
RTVSPost2010PropOp56
 70
     1
102
RTVSPost2010Prop57
140
1.0
102
RTVSPost2010PropOp57
 70
     1
102
RTVSPropertyOp0
 70
     1
102
RTVSPropertyOp1
 70
     1
102
RTVSPropertyOp2
 70
     1
102
RTVSPropertyOp3
 70
     1
102
RTVSPropertyOp4
 70
     1
102
RTVSPropertyOp5
 70
     1
102
RTVSPropertyOp6
 70
     1
102
RTVSPropertyOp7
 70
     1
102
RTVSPropertyOp8
 70
     1
102
RTVSPropertyOp9
 70
     1
102
RTVSPropertyOp10
 70
     1
102
RTVSPropertyOp11
 70
     1
102
RTVSPropertyOp12
 70
     1
102
RTVSPropertyOp13
 70
     1
102
RTVSPropertyOp14
 70
     1
102
RTVSPropertyOp15
 70
     1
102
RTVSPropertyOp16
 70
     1
102
RTVSPropertyOp17
 70
     1
102
RTVSPropertyOp18
 70
     1
102
RTVSPropertyOp19
 70
     1
102
RTVSPropertyOp20
 70
     1
102
RTVSPropertyOp21
 70
     1
102
RTVSPropertyOp22
 70
     1
102
RTVSPropertyOp23
 70
     1
102
RTVSPropertyOp24
 70
     1
102
RTVSPropertyOp25
 70
     1
102
RTVSPropertyOp26
 70
     1
102
RTVSPropertyOp27
 70
     1
102
RTVSPropertyOp28
 70
     1
102
RTVSPropertyOp29
 70
     1
102
RTVSPropertyOp30
 70
     1
102
RTVSPropertyOp31
 70
     1
102
RTVSPropertyOp32
 70
     1
102
RTVSPropertyOp33
 70
     1
102
RTVSPropertyOp34
 70
     1
102
RTVSPropertyOp35
 70
     1
102
RTVSPropertyOp36
 70
     1
102
RTVSPropertyOp37
 70
     1
102
RTVSPropertyOp38
 70
     1
102
RTVSPropertyOp39
 70
     1
102
RTVSPropertyOp40
 70
     1
102
RTVSPropertyOp41
 70
     1
102
RTVSPropertyOp42
 70
     1
102
RTVSPropertyOp43
 70
     1
102
RTVSPropertyOp44
 70
     1
102
RTVSPropertyOp45
 70
     1
102
RTVSPropertyOp46
 70
     1
102
RTVSPropertyOp47
 70
     1
102
RTVSPropertyOp48
 70
     1
102
RTVSPropertyOp49
 70
     1
102
RTVSPropertyOp50
 70
     1
102
RTVSPropertyOp51
 70
     0
102
RTVSPropertyOp52
 70
     0
102
RTVSPropertyOp53
 70
     1
102
RTVSPropertyOp54
 70
     1
102
RTVSPropertyOp55
 70
     1
102
RTVSPropertyOp56
 70
     1
102
RTVSPropertyOp57
 70
     1
102
RTVSPropertyOp58
 70
     1
102
RTVSPropertyOp59
 70
     1
102
RTVSPropertyOp60
 70
     1
102
RTVSPropertyOp61
 70
     1
102
RTVSPropertyOp62
 70
     1
  0
XRECORD
  5
2E646
102
{ACAD_REACTORS
330
2E645
102
}
330
2E645
100
AcDbXrecord
280
     1
102
RTVSPost2010Prop28
280
     0
102
RTVSPost2010PropOp28
 70
     1
102
RTVSPost2010Prop29
280
     1
102
RTVSPost2010PropOp29
 70
     1
102
RTVSPost2010Prop30
280
     1
102
RTVSPost2010PropOp30
 70
     1
102
RTVSPost2010Prop31
280
     0
102
RTVSPost2010PropOp31
 70
     1
102
RTVSPost2010Prop32
280
     0
102
RTVSPost2010PropOp32
 70
     1
102
RTVSPost2010Prop33
280
     0
102
RTVSPost2010PropOp33
 70
     1
102
RTVSPost2010Prop34
280
     0
102
RTVSPost2010PropOp34
 70
     1
102
RTVSPost2010Prop35
280
     0
102
RTVSPost2010PropOp35
 70
     1
102
RTVSPost2010Prop36
280
     0
102
RTVSPost2010PropOp36
 70
     1
102
RTVSPost2010Prop37
 90
       50
102
RTVSPost2010PropOp37
 70
     1
102
RTVSPost2010Prop38
140
0.0
102
RTVSPost2010PropOp38
 70
     1
102
RTVSPost2010Prop39
140
1.0
102
RTVSPost2010PropOp39
 70
     1
102
RTVSPost2010Prop40
 90
        0
102
RTVSPost2010PropOp40
 70
     1
102
RTVSPost2010Prop41ColorIndex
 90
       18
102
RTVSPost2010Prop41ColorRGB
 90
        0
102
RTVSPost2010PropOp41
 70
     1
102
RTVSPost2010Prop42
 90
       50
102
RTVSPost2010PropOp42
 70
     1
102
RTVSPost2010Prop43
 90
        3
102
RTVSPost2010PropOp43
 70
     1
102
RTVSPost2010Prop44ColorIndex
 90
        5
102
RTVSPost2010Prop44ColorRGB
 90
      255
102
RTVSPost2010PropOp44
 70
     1
102
RTVSPost2010Prop45
280
     0
102
RTVSPost2010PropOp45
 70
     1
102
RTVSPost2010Prop46
 90
       50
102
RTVSPost2010PropOp46
 70
     1
102
RTVSPost2010Prop47
 90
       50
102
RTVSPost2010PropOp47
 70
     1
102
RTVSPost2010Prop48
 90
       50
102
RTVSPost2010PropOp48
 70
     1
102
RTVSPost2010Prop49
280
     0
102
RTVSPost2010PropOp49
 70
     1
102
RTVSPost2010Prop50
 90
       50
102
RTVSPost2010PropOp50
 70
     1
102
RTVSPost2010Prop51ColorIndex
 90
      256
102
RTVSPost2010Prop51ColorRGB
 90
-16777216
102
RTVSPost2010PropOp51
 70
     0
102
RTVSPost2010Prop52
140
1.0
102
RTVSPost2010PropOp52
 70
     0
102
RTVSPost2010Prop53
 90
        2
102
RTVSPost2010PropOp53
 70
     1
102
RTVSPost2010Prop54
  1
strokes_ogs.tif
102
RTVSPost2010PropOp54
 70
     1
102
RTVSPost2010Prop55
280
     0
102
RTVSPost2010PropOp55
 70
     1
102
RTVSPost2010Prop56
140
1.0
102
RTVSPost2010PropOp56
 70
     1
102
RTVSPost2010Prop57
140
1.0
102
RTVSPost2010PropOp57
 70
     1
102
RTVSPropertyOp0
 70
     1
102
RTVSPropertyOp1
 70
     1
102
RTVSPropertyOp2
 70
     1
102
RTVSPropertyOp3
 70
     1
102
RTVSPropertyOp4
 70
     1
102
RTVSPropertyOp5
 70
     1
102
RTVSPropertyOp6
 70
     1
102
RTVSPropertyOp7
 70
     1
102
RTVSPropertyOp8
 70
     1
102
RTVSPropertyOp9
 70
     1
102
RTVSPropertyOp10
 70
     1
102
RTVSPropertyOp11
 70
     1
102
RTVSPropertyOp12
 70
     1
102
RTVSPropertyOp13
 70
     1
102
RTVSPropertyOp14
 70
     1
102
RTVSPropertyOp15
 70
     1
102
RTVSPropertyOp16
 70
     1
102
RTVSPropertyOp17
 70
     1
102
RTVSPropertyOp18
 70
     1
102
RTVSPropertyOp19
 70
     1
102
RTVSPropertyOp20
 70
     1
102
RTVSPropertyOp21
 70
     1
102
RTVSPropertyOp22
 70
     1
102
RTVSPropertyOp23
 70
     1
102
RTVSPropertyOp24
 70
     1
102
RTVSPropertyOp25
 70
     1
102
RTVSPropertyOp26
 70
     1
102
RTVSPropertyOp27
 70
     1
102
RTVSPropertyOp28
 70
     1
102
RTVSPropertyOp29
 70
     1
102
RTVSPropertyOp30
 70
     1
102
RTVSPropertyOp31
 70
     1
102
RTVSPropertyOp32
 70
     1
102
RTVSPropertyOp33
 70
     1
102
RTVSPropertyOp34
 70
     1
102
RTVSPropertyOp35
 70
     1
102
RTVSPropertyOp36
 70
     1
102
RTVSPropertyOp37
 70
     1
102
RTVSPropertyOp38
 70
     1
102
RTVSPropertyOp39
 70
     1
102
RTVSPropertyOp40
 70
     1
102
RTVSPropertyOp41
 70
     1
102
RTVSPropertyOp42
 70
     1
102
RTVSPropertyOp43
 70
     1
102
RTVSPropertyOp44
 70
     1
102
RTVSPropertyOp45
 70
     1
102
RTVSPropertyOp46
 70
     1
102
RTVSPropertyOp47
 70
     1
102
RTVSPropertyOp48
 70
     1
102
RTVSPropertyOp49
 70
     1
102
RTVSPropertyOp50
 70
     1
102
RTVSPropertyOp51
 70
     0
102
RTVSPropertyOp52
 70
     0
102
RTVSPropertyOp53
 70
     1
102
RTVSPropertyOp54
 70
     1
102
RTVSPropertyOp55
 70
     1
102
RTVSPropertyOp56
 70
     1
102
RTVSPropertyOp57
 70
     1
102
RTVSPropertyOp58
 70
     1
102
RTVSPropertyOp59
 70
     1
102
RTVSPropertyOp60
 70
     1
102
RTVSPropertyOp61
 70
     1
102
RTVSPropertyOp62
 70
     1
  0
XRECORD
  5
2E648
102
{ACAD_REACTORS
330
2E647
102
}
330
2E647
100
AcDbXrecord
280
     1
102
RTVSPost2010Prop28
280
     0
102
RTVSPost2010PropOp28
 70
     1
102
RTVSPost2010Prop29
280
     1
102
RTVSPost2010PropOp29
 70
     1
102
RTVSPost2010Prop30
280
     1
102
RTVSPost2010PropOp30
 70
     1
102
RTVSPost2010Prop31
280
     0
102
RTVSPost2010PropOp31
 70
     1
102
RTVSPost2010Prop32
280
     0
102
RTVSPost2010PropOp32
 70
     1
102
RTVSPost2010Prop33
280
     0
102
RTVSPost2010PropOp33
 70
     1
102
RTVSPost2010Prop34
280
     0
102
RTVSPost2010PropOp34
 70
     1
102
RTVSPost2010Prop35
280
     0
102
RTVSPost2010PropOp35
 70
     1
102
RTVSPost2010Prop36
280
     0
102
RTVSPost2010PropOp36
 70
     1
102
RTVSPost2010Prop37
 90
       50
102
RTVSPost2010PropOp37
 70
     1
102
RTVSPost2010Prop38
140
0.0
102
RTVSPost2010PropOp38
 70
     1
102
RTVSPost2010Prop39
140
1.0
102
RTVSPost2010PropOp39
 70
     1
102
RTVSPost2010Prop40
 90
        0
102
RTVSPost2010PropOp40
 70
     1
102
RTVSPost2010Prop41ColorIndex
 90
       18
102
RTVSPost2010Prop41ColorRGB
 90
        0
102
RTVSPost2010PropOp41
 70
     1
102
RTVSPost2010Prop42
 90
       50
102
RTVSPost2010PropOp42
 70
     1
102
RTVSPost2010Prop43
 90
        3
102
RTVSPost2010PropOp43
 70
     1
102
RTVSPost2010Prop44ColorIndex
 90
        5
102
RTVSPost2010Prop44ColorRGB
 90
      255
102
RTVSPost2010PropOp44
 70
     1
102
RTVSPost2010Prop45
280
     0
102
RTVSPost2010PropOp45
 70
     1
102
RTVSPost2010Prop46
 90
       50
102
RTVSPost2010PropOp46
 70
     1
102
RTVSPost2010Prop47
 90
       50
102
RTVSPost2010PropOp47
 70
     1
102
RTVSPost2010Prop48
 90
       50
102
RTVSPost2010PropOp48
 70
     1
102
RTVSPost2010Prop49
280
     0
102
RTVSPost2010PropOp49
 70
     1
102
RTVSPost2010Prop50
 90
       50
102
RTVSPost2010PropOp50
 70
     1
102
RTVSPost2010Prop51ColorIndex
 90
      256
102
RTVSPost2010Prop51ColorRGB
 90
-16777216
102
RTVSPost2010PropOp51
 70
     0
102
RTVSPost2010Prop52
140
1.0
102
RTVSPost2010PropOp52
 70
     0
102
RTVSPost2010Prop53
 90
        2
102
RTVSPost2010PropOp53
 70
     1
102
RTVSPost2010Prop54
  1
strokes_ogs.tif
102
RTVSPost2010PropOp54
 70
     1
102
RTVSPost2010Prop55
280
     0
102
RTVSPost2010PropOp55
 70
     1
102
RTVSPost2010Prop56
140
1.0
102
RTVSPost2010PropOp56
 70
     1
102
RTVSPost2010Prop57
140
1.0
102
RTVSPost2010PropOp57
 70
     1
102
RTVSPropertyOp0
 70
     1
102
RTVSPropertyOp1
 70
     1
102
RTVSPropertyOp2
 70
     1
102
RTVSPropertyOp3
 70
     1
102
RTVSPropertyOp4
 70
     1
102
RTVSPropertyOp5
 70
     1
102
RTVSPropertyOp6
 70
     1
102
RTVSPropertyOp7
 70
     1
102
RTVSPropertyOp8
 70
     1
102
RTVSPropertyOp9
 70
     1
102
RTVSPropertyOp10
 70
     1
102
RTVSPropertyOp11
 70
     1
102
RTVSPropertyOp12
 70
     1
102
RTVSPropertyOp13
 70
     1
102
RTVSPropertyOp14
 70
     1
102
RTVSPropertyOp15
 70
     1
102
RTVSPropertyOp16
 70
     1
102
RTVSPropertyOp17
 70
     1
102
RTVSPropertyOp18
 70
     1
102
RTVSPropertyOp19
 70
     1
102
RTVSPropertyOp20
 70
     1
102
RTVSPropertyOp21
 70
     1
102
RTVSPropertyOp22
 70
     1
102
RTVSPropertyOp23
 70
     1
102
RTVSPropertyOp24
 70
     1
102
RTVSPropertyOp25
 70
     1
102
RTVSPropertyOp26
 70
     1
102
RTVSPropertyOp27
 70
     1
102
RTVSPropertyOp28
 70
     1
102
RTVSPropertyOp29
 70
     1
102
RTVSPropertyOp30
 70
     1
102
RTVSPropertyOp31
 70
     1
102
RTVSPropertyOp32
 70
     1
102
RTVSPropertyOp33
 70
     1
102
RTVSPropertyOp34
 70
     1
102
RTVSPropertyOp35
 70
     1
102
RTVSPropertyOp36
 70
     1
102
RTVSPropertyOp37
 70
     1
102
RTVSPropertyOp38
 70
     1
102
RTVSPropertyOp39
 70
     1
102
RTVSPropertyOp40
 70
     1
102
RTVSPropertyOp41
 70
     1
102
RTVSPropertyOp42
 70
     1
102
RTVSPropertyOp43
 70
     1
102
RTVSPropertyOp44
 70
     1
102
RTVSPropertyOp45
 70
     1
102
RTVSPropertyOp46
 70
     1
102
RTVSPropertyOp47
 70
     1
102
RTVSPropertyOp48
 70
     1
102
RTVSPropertyOp49
 70
     1
102
RTVSPropertyOp50
 70
     1
102
RTVSPropertyOp51
 70
     0
102
RTVSPropertyOp52
 70
     0
102
RTVSPropertyOp53
 70
     1
102
RTVSPropertyOp54
 70
     1
102
RTVSPropertyOp55
 70
     1
102
RTVSPropertyOp56
 70
     1
102
RTVSPropertyOp57
 70
     1
102
RTVSPropertyOp58
 70
     1
102
RTVSPropertyOp59
 70
     1
102
RTVSPropertyOp60
 70
     1
102
RTVSPropertyOp61
 70
     1
102
RTVSPropertyOp62
 70
     1
  0
XRECORD
  5
2E64A
102
{ACAD_REACTORS
330
2E649
102
}
330
2E649
100
AcDbXrecord
280
     1
102
RTVSPost2010Prop28
280
     0
102
RTVSPost2010PropOp28
 70
     1
102
RTVSPost2010Prop29
280
     1
102
RTVSPost2010PropOp29
 70
     1
102
RTVSPost2010Prop30
280
     1
102
RTVSPost2010PropOp30
 70
     1
102
RTVSPost2010Prop31
280
     0
102
RTVSPost2010PropOp31
 70
     1
102
RTVSPost2010Prop32
280
     0
102
RTVSPost2010PropOp32
 70
     1
102
RTVSPost2010Prop33
280
     0
102
RTVSPost2010PropOp33
 70
     1
102
RTVSPost2010Prop34
280
     0
102
RTVSPost2010PropOp34
 70
     1
102
RTVSPost2010Prop35
280
     0
102
RTVSPost2010PropOp35
 70
     1
102
RTVSPost2010Prop36
280
     0
102
RTVSPost2010PropOp36
 70
     1
102
RTVSPost2010Prop37
 90
       50
102
RTVSPost2010PropOp37
 70
     1
102
RTVSPost2010Prop38
140
0.0
102
RTVSPost2010PropOp38
 70
     1
102
RTVSPost2010Prop39
140
1.0
102
RTVSPost2010PropOp39
 70
     1
102
RTVSPost2010Prop40
 90
        0
102
RTVSPost2010PropOp40
 70
     1
102
RTVSPost2010Prop41ColorIndex
 90
       18
102
RTVSPost2010Prop41ColorRGB
 90
        0
102
RTVSPost2010PropOp41
 70
     1
102
RTVSPost2010Prop42
 90
       50
102
RTVSPost2010PropOp42
 70
     1
102
RTVSPost2010Prop43
 90
        3
102
RTVSPost2010PropOp43
 70
     1
102
RTVSPost2010Prop44ColorIndex
 90
        5
102
RTVSPost2010Prop44ColorRGB
 90
      255
102
RTVSPost2010PropOp44
 70
     1
102
RTVSPost2010Prop45
280
     0
102
RTVSPost2010PropOp45
 70
     1
102
RTVSPost2010Prop46
 90
       50
102
RTVSPost2010PropOp46
 70
     1
102
RTVSPost2010Prop47
 90
       50
102
RTVSPost2010PropOp47
 70
     1
102
RTVSPost2010Prop48
 90
       50
102
RTVSPost2010PropOp48
 70
     1
102
RTVSPost2010Prop49
280
     0
102
RTVSPost2010PropOp49
 70
     1
102
RTVSPost2010Prop50
 90
       50
102
RTVSPost2010PropOp50
 70
     1
102
RTVSPost2010Prop51ColorIndex
 90
      256
102
RTVSPost2010Prop51ColorRGB
 90
-16777216
102
RTVSPost2010PropOp51
 70
     0
102
RTVSPost2010Prop52
140
1.0
102
RTVSPost2010PropOp52
 70
     0
102
RTVSPost2010Prop53
 90
        2
102
RTVSPost2010PropOp53
 70
     1
102
RTVSPost2010Prop54
  1
strokes_ogs.tif
102
RTVSPost2010PropOp54
 70
     1
102
RTVSPost2010Prop55
280
     0
102
RTVSPost2010PropOp55
 70
     1
102
RTVSPost2010Prop56
140
1.0
102
RTVSPost2010PropOp56
 70
     1
102
RTVSPost2010Prop57
140
1.0
102
RTVSPost2010PropOp57
 70
     1
102
RTVSPropertyOp0
 70
     1
102
RTVSPropertyOp1
 70
     1
102
RTVSPropertyOp2
 70
     1
102
RTVSPropertyOp3
 70
     1
102
RTVSPropertyOp4
 70
     1
102
RTVSPropertyOp5
 70
     1
102
RTVSPropertyOp6
 70
     1
102
RTVSPropertyOp7
 70
     1
102
RTVSPropertyOp8
 70
     1
102
RTVSPropertyOp9
 70
     1
102
RTVSPropertyOp10
 70
     1
102
RTVSPropertyOp11
 70
     1
102
RTVSPropertyOp12
 70
     1
102
RTVSPropertyOp13
 70
     1
102
RTVSPropertyOp14
 70
     1
102
RTVSPropertyOp15
 70
     1
102
RTVSPropertyOp16
 70
     1
102
RTVSPropertyOp17
 70
     1
102
RTVSPropertyOp18
 70
     1
102
RTVSPropertyOp19
 70
     1
102
RTVSPropertyOp20
 70
     1
102
RTVSPropertyOp21
 70
     1
102
RTVSPropertyOp22
 70
     1
102
RTVSPropertyOp23
 70
     1
102
RTVSPropertyOp24
 70
     1
102
RTVSPropertyOp25
 70
     1
102
RTVSPropertyOp26
 70
     1
102
RTVSPropertyOp27
 70
     1
102
RTVSPropertyOp28
 70
     1
102
RTVSPropertyOp29
 70
     1
102
RTVSPropertyOp30
 70
     1
102
RTVSPropertyOp31
 70
     1
102
RTVSPropertyOp32
 70
     1
102
RTVSPropertyOp33
 70
     1
102
RTVSPropertyOp34
 70
     1
102
RTVSPropertyOp35
 70
     1
102
RTVSPropertyOp36
 70
     1
102
RTVSPropertyOp37
 70
     1
102
RTVSPropertyOp38
 70
     1
102
RTVSPropertyOp39
 70
     1
102
RTVSPropertyOp40
 70
     1
102
RTVSPropertyOp41
 70
     1
102
RTVSPropertyOp42
 70
     1
102
RTVSPropertyOp43
 70
     1
102
RTVSPropertyOp44
 70
     1
102
RTVSPropertyOp45
 70
     1
102
RTVSPropertyOp46
 70
     1
102
RTVSPropertyOp47
 70
     1
102
RTVSPropertyOp48
 70
     1
102
RTVSPropertyOp49
 70
     1
102
RTVSPropertyOp50
 70
     1
102
RTVSPropertyOp51
 70
     0
102
RTVSPropertyOp52
 70
     0
102
RTVSPropertyOp53
 70
     1
102
RTVSPropertyOp54
 70
     1
102
RTVSPropertyOp55
 70
     1
102
RTVSPropertyOp56
 70
     1
102
RTVSPropertyOp57
 70
     1
102
RTVSPropertyOp58
 70
     1
102
RTVSPropertyOp59
 70
     1
102
RTVSPropertyOp60
 70
     1
102
RTVSPropertyOp61
 70
     1
102
RTVSPropertyOp62
 70
     1
  0
XRECORD
  5
2E64C
102
{ACAD_REACTORS
330
2E64B
102
}
330
2E64B
100
AcDbXrecord
280
     1
102
RTVSPost2010Prop28
280
     0
102
RTVSPost2010PropOp28
 70
     1
102
RTVSPost2010Prop29
280
     1
102
RTVSPost2010PropOp29
 70
     1
102
RTVSPost2010Prop30
280
     1
102
RTVSPost2010PropOp30
 70
     1
102
RTVSPost2010Prop31
280
     0
102
RTVSPost2010PropOp31
 70
     1
102
RTVSPost2010Prop32
280
     0
102
RTVSPost2010PropOp32
 70
     1
102
RTVSPost2010Prop33
280
     0
102
RTVSPost2010PropOp33
 70
     1
102
RTVSPost2010Prop34
280
     0
102
RTVSPost2010PropOp34
 70
     1
102
RTVSPost2010Prop35
280
     0
102
RTVSPost2010PropOp35
 70
     1
102
RTVSPost2010Prop36
280
     0
102
RTVSPost2010PropOp36
 70
     1
102
RTVSPost2010Prop37
 90
       50
102
RTVSPost2010PropOp37
 70
     1
102
RTVSPost2010Prop38
140
0.0
102
RTVSPost2010PropOp38
 70
     1
102
RTVSPost2010Prop39
140
1.0
102
RTVSPost2010PropOp39
 70
     1
102
RTVSPost2010Prop40
 90
        0
102
RTVSPost2010PropOp40
 70
     1
102
RTVSPost2010Prop41ColorIndex
 90
       18
102
RTVSPost2010Prop41ColorRGB
 90
        0
102
RTVSPost2010PropOp41
 70
     1
102
RTVSPost2010Prop42
 90
       50
102
RTVSPost2010PropOp42
 70
     1
102
RTVSPost2010Prop43
 90
        3
102
RTVSPost2010PropOp43
 70
     1
102
RTVSPost2010Prop44ColorIndex
 90
        5
102
RTVSPost2010Prop44ColorRGB
 90
      255
102
RTVSPost2010PropOp44
 70
     1
102
RTVSPost2010Prop45
280
     0
102
RTVSPost2010PropOp45
 70
     1
102
RTVSPost2010Prop46
 90
       50
102
RTVSPost2010PropOp46
 70
     1
102
RTVSPost2010Prop47
 90
       50
102
RTVSPost2010PropOp47
 70
     1
102
RTVSPost2010Prop48
 90
       50
102
RTVSPost2010PropOp48
 70
     1
102
RTVSPost2010Prop49
280
     0
102
RTVSPost2010PropOp49
 70
     1
102
RTVSPost2010Prop50
 90
       50
102
RTVSPost2010PropOp50
 70
     1
102
RTVSPost2010Prop51ColorIndex
 90
      256
102
RTVSPost2010Prop51ColorRGB
 90
-16777216
102
RTVSPost2010PropOp51
 70
     0
102
RTVSPost2010Prop52
140
1.0
102
RTVSPost2010PropOp52
 70
     0
102
RTVSPost2010Prop53
 90
        2
102
RTVSPost2010PropOp53
 70
     1
102
RTVSPost2010Prop54
  1
strokes_ogs.tif
102
RTVSPost2010PropOp54
 70
     1
102
RTVSPost2010Prop55
280
     0
102
RTVSPost2010PropOp55
 70
     1
102
RTVSPost2010Prop56
140
1.0
102
RTVSPost2010PropOp56
 70
     1
102
RTVSPost2010Prop57
140
1.0
102
RTVSPost2010PropOp57
 70
     1
102
RTVSPropertyOp0
 70
     1
102
RTVSPropertyOp1
 70
     1
102
RTVSPropertyOp2
 70
     1
102
RTVSPropertyOp3
 70
     1
102
RTVSPropertyOp4
 70
     1
102
RTVSPropertyOp5
 70
     1
102
RTVSPropertyOp6
 70
     1
102
RTVSPropertyOp7
 70
     1
102
RTVSPropertyOp8
 70
     1
102
RTVSPropertyOp9
 70
     1
102
RTVSPropertyOp10
 70
     1
102
RTVSPropertyOp11
 70
     1
102
RTVSPropertyOp12
 70
     1
102
RTVSPropertyOp13
 70
     1
102
RTVSPropertyOp14
 70
     1
102
RTVSPropertyOp15
 70
     1
102
RTVSPropertyOp16
 70
     1
102
RTVSPropertyOp17
 70
     1
102
RTVSPropertyOp18
 70
     1
102
RTVSPropertyOp19
 70
     1
102
RTVSPropertyOp20
 70
     1
102
RTVSPropertyOp21
 70
     1
102
RTVSPropertyOp22
 70
     1
102
RTVSPropertyOp23
 70
     1
102
RTVSPropertyOp24
 70
     1
102
RTVSPropertyOp25
 70
     1
102
RTVSPropertyOp26
 70
     1
102
RTVSPropertyOp27
 70
     1
102
RTVSPropertyOp28
 70
     1
102
RTVSPropertyOp29
 70
     1
102
RTVSPropertyOp30
 70
     1
102
RTVSPropertyOp31
 70
     1
102
RTVSPropertyOp32
 70
     1
102
RTVSPropertyOp33
 70
     1
102
RTVSPropertyOp34
 70
     1
102
RTVSPropertyOp35
 70
     1
102
RTVSPropertyOp36
 70
     1
102
RTVSPropertyOp37
 70
     1
102
RTVSPropertyOp38
 70
     1
102
RTVSPropertyOp39
 70
     1
102
RTVSPropertyOp40
 70
     1
102
RTVSPropertyOp41
 70
     1
102
RTVSPropertyOp42
 70
     1
102
RTVSPropertyOp43
 70
     1
102
RTVSPropertyOp44
 70
     1
102
RTVSPropertyOp45
 70
     1
102
RTVSPropertyOp46
 70
     1
102
RTVSPropertyOp47
 70
     1
102
RTVSPropertyOp48
 70
     1
102
RTVSPropertyOp49
 70
     1
102
RTVSPropertyOp50
 70
     1
102
RTVSPropertyOp51
 70
     0
102
RTVSPropertyOp52
 70
     0
102
RTVSPropertyOp53
 70
     1
102
RTVSPropertyOp54
 70
     1
102
RTVSPropertyOp55
 70
     1
102
RTVSPropertyOp56
 70
     1
102
RTVSPropertyOp57
 70
     1
102
RTVSPropertyOp58
 70
     1
102
RTVSPropertyOp59
 70
     1
102
RTVSPropertyOp60
 70
     1
102
RTVSPropertyOp61
 70
     1
102
RTVSPropertyOp62
 70
     1
  0
XRECORD
  5
2E66F
102
{ACAD_REACTORS
330
2E66E
102
}
330
2E66E
100
AcDbXrecord
280
     1
102
RTVSPost2010Prop28
280
     0
102
RTVSPost2010PropOp28
 70
     1
102
RTVSPost2010Prop29
280
     1
102
RTVSPost2010PropOp29
 70
     1
102
RTVSPost2010Prop30
280
     1
102
RTVSPost2010PropOp30
 70
     1
102
RTVSPost2010Prop31
280
     0
102
RTVSPost2010PropOp31
 70
     1
102
RTVSPost2010Prop32
280
     0
102
RTVSPost2010PropOp32
 70
     1
102
RTVSPost2010Prop33
280
     0
102
RTVSPost2010PropOp33
 70
     1
102
RTVSPost2010Prop34
280
     0
102
RTVSPost2010PropOp34
 70
     1
102
RTVSPost2010Prop35
280
     0
102
RTVSPost2010PropOp35
 70
     1
102
RTVSPost2010Prop36
280
     0
102
RTVSPost2010PropOp36
 70
     1
102
RTVSPost2010Prop37
 90
       50
102
RTVSPost2010PropOp37
 70
     1
102
RTVSPost2010Prop38
140
0.0
102
RTVSPost2010PropOp38
 70
     1
102
RTVSPost2010Prop39
140
1.0
102
RTVSPost2010PropOp39
 70
     1
102
RTVSPost2010Prop40
 90
        0
102
RTVSPost2010PropOp40
 70
     1
102
RTVSPost2010Prop41ColorIndex
 90
       18
102
RTVSPost2010Prop41ColorRGB
 90
        0
102
RTVSPost2010PropOp41
 70
     1
102
RTVSPost2010Prop42
 90
       50
102
RTVSPost2010PropOp42
 70
     1
102
RTVSPost2010Prop43
 90
        3
102
RTVSPost2010PropOp43
 70
     1
102
RTVSPost2010Prop44ColorIndex
 90
        5
102
RTVSPost2010Prop44ColorRGB
 90
      255
102
RTVSPost2010PropOp44
 70
     1
102
RTVSPost2010Prop45
280
     0
102
RTVSPost2010PropOp45
 70
     1
102
RTVSPost2010Prop46
 90
       50
102
RTVSPost2010PropOp46
 70
     1
102
RTVSPost2010Prop47
 90
       50
102
RTVSPost2010PropOp47
 70
     1
102
RTVSPost2010Prop48
 90
       50
102
RTVSPost2010PropOp48
 70
     1
102
RTVSPost2010Prop49
280
     0
102
RTVSPost2010PropOp49
 70
     1
102
RTVSPost2010Prop50
 90
       50
102
RTVSPost2010PropOp50
 70
     1
102
RTVSPost2010Prop51ColorIndex
 90
      256
102
RTVSPost2010Prop51ColorRGB
 90
-16777216
102
RTVSPost2010PropOp51
 70
     0
102
RTVSPost2010Prop52
140
1.0
102
RTVSPost2010PropOp52
 70
     0
102
RTVSPost2010Prop53
 90
        2
102
RTVSPost2010PropOp53
 70
     1
102
RTVSPost2010Prop54
  1
strokes_ogs.tif
102
RTVSPost2010PropOp54
 70
     1
102
RTVSPost2010Prop55
280
     0
102
RTVSPost2010PropOp55
 70
     1
102
RTVSPost2010Prop56
140
1.0
102
RTVSPost2010PropOp56
 70
     1
102
RTVSPost2010Prop57
140
1.0
102
RTVSPost2010PropOp57
 70
     1
102
RTVSPropertyOp0
 70
     1
102
RTVSPropertyOp1
 70
     1
102
RTVSPropertyOp2
 70
     1
102
RTVSPropertyOp3
 70
     1
102
RTVSPropertyOp4
 70
     1
102
RTVSPropertyOp5
 70
     1
102
RTVSPropertyOp6
 70
     1
102
RTVSPropertyOp7
 70
     1
102
RTVSPropertyOp8
 70
     1
102
RTVSPropertyOp9
 70
     1
102
RTVSPropertyOp10
 70
     1
102
RTVSPropertyOp11
 70
     1
102
RTVSPropertyOp12
 70
     1
102
RTVSPropertyOp13
 70
     1
102
RTVSPropertyOp14
 70
     1
102
RTVSPropertyOp15
 70
     1
102
RTVSPropertyOp16
 70
     1
102
RTVSPropertyOp17
 70
     1
102
RTVSPropertyOp18
 70
     1
102
RTVSPropertyOp19
 70
     1
102
RTVSPropertyOp20
 70
     1
102
RTVSPropertyOp21
 70
     1
102
RTVSPropertyOp22
 70
     1
102
RTVSPropertyOp23
 70
     1
102
RTVSPropertyOp24
 70
     1
102
RTVSPropertyOp25
 70
     1
102
RTVSPropertyOp26
 70
     1
102
RTVSPropertyOp27
 70
     1
102
RTVSPropertyOp28
 70
     1
102
RTVSPropertyOp29
 70
     1
102
RTVSPropertyOp30
 70
     1
102
RTVSPropertyOp31
 70
     1
102
RTVSPropertyOp32
 70
     1
102
RTVSPropertyOp33
 70
     1
102
RTVSPropertyOp34
 70
     1
102
RTVSPropertyOp35
 70
     1
102
RTVSPropertyOp36
 70
     1
102
RTVSPropertyOp37
 70
     1
102
RTVSPropertyOp38
 70
     1
102
RTVSPropertyOp39
 70
     1
102
RTVSPropertyOp40
 70
     1
102
RTVSPropertyOp41
 70
     1
102
RTVSPropertyOp42
 70
     1
102
RTVSPropertyOp43
 70
     1
102
RTVSPropertyOp44
 70
     1
102
RTVSPropertyOp45
 70
     1
102
RTVSPropertyOp46
 70
     1
102
RTVSPropertyOp47
 70
     1
102
RTVSPropertyOp48
 70
     1
102
RTVSPropertyOp49
 70
     1
102
RTVSPropertyOp50
 70
     1
102
RTVSPropertyOp51
 70
     0
102
RTVSPropertyOp52
 70
     0
102
RTVSPropertyOp53
 70
     1
102
RTVSPropertyOp54
 70
     1
102
RTVSPropertyOp55
 70
     1
102
RTVSPropertyOp56
 70
     1
102
RTVSPropertyOp57
 70
     1
102
RTVSPropertyOp58
 70
     1
102
RTVSPropertyOp59
 70
     1
102
RTVSPropertyOp60
 70
     1
102
RTVSPropertyOp61
 70
     1
102
RTVSPropertyOp62
 70
     1
  0
XRECORD
  5
2E666
102
{ACAD_REACTORS
330
2E665
102
}
330
2E665
100
AcDbXrecord
280
     1
102
RTVSPost2010Prop28
280
     0
102
RTVSPost2010PropOp28
 70
     1
102
RTVSPost2010Prop29
280
     1
102
RTVSPost2010PropOp29
 70
     1
102
RTVSPost2010Prop30
280
     1
102
RTVSPost2010PropOp30
 70
     1
102
RTVSPost2010Prop31
280
     0
102
RTVSPost2010PropOp31
 70
     1
102
RTVSPost2010Prop32
280
     0
102
RTVSPost2010PropOp32
 70
     1
102
RTVSPost2010Prop33
280
     0
102
RTVSPost2010PropOp33
 70
     1
102
RTVSPost2010Prop34
280
     0
102
RTVSPost2010PropOp34
 70
     1
102
RTVSPost2010Prop35
280
     0
102
RTVSPost2010PropOp35
 70
     1
102
RTVSPost2010Prop36
280
     0
102
RTVSPost2010PropOp36
 70
     1
102
RTVSPost2010Prop37
 90
       50
102
RTVSPost2010PropOp37
 70
     1
102
RTVSPost2010Prop38
140
0.0
102
RTVSPost2010PropOp38
 70
     1
102
RTVSPost2010Prop39
140
1.0
102
RTVSPost2010PropOp39
 70
     1
102
RTVSPost2010Prop40
 90
        0
102
RTVSPost2010PropOp40
 70
     1
102
RTVSPost2010Prop41ColorIndex
 90
       18
102
RTVSPost2010Prop41ColorRGB
 90
        0
102
RTVSPost2010PropOp41
 70
     1
102
RTVSPost2010Prop42
 90
       50
102
RTVSPost2010PropOp42
 70
     1
102
RTVSPost2010Prop43
 90
        3
102
RTVSPost2010PropOp43
 70
     1
102
RTVSPost2010Prop44ColorIndex
 90
        5
102
RTVSPost2010Prop44ColorRGB
 90
      255
102
RTVSPost2010PropOp44
 70
     1
102
RTVSPost2010Prop45
280
     0
102
RTVSPost2010PropOp45
 70
     1
102
RTVSPost2010Prop46
 90
       50
102
RTVSPost2010PropOp46
 70
     1
102
RTVSPost2010Prop47
 90
       50
102
RTVSPost2010PropOp47
 70
     1
102
RTVSPost2010Prop48
 90
       50
102
RTVSPost2010PropOp48
 70
     1
102
RTVSPost2010Prop49
280
     0
102
RTVSPost2010PropOp49
 70
     1
102
RTVSPost2010Prop50
 90
       50
102
RTVSPost2010PropOp50
 70
     1
102
RTVSPost2010Prop51ColorIndex
 90
      256
102
RTVSPost2010Prop51ColorRGB
 90
-16777216
102
RTVSPost2010PropOp51
 70
     0
102
RTVSPost2010Prop52
140
1.0
102
RTVSPost2010PropOp52
 70
     0
102
RTVSPost2010Prop53
 90
        2
102
RTVSPost2010PropOp53
 70
     1
102
RTVSPost2010Prop54
  1
strokes_ogs.tif
102
RTVSPost2010PropOp54
 70
     1
102
RTVSPost2010Prop55
280
     0
102
RTVSPost2010PropOp55
 70
     1
102
RTVSPost2010Prop56
140
1.0
102
RTVSPost2010PropOp56
 70
     1
102
RTVSPost2010Prop57
140
1.0
102
RTVSPost2010PropOp57
 70
     1
102
RTVSPropertyOp0
 70
     0
102
RTVSPropertyOp1
 70
     0
102
RTVSPropertyOp2
 70
     0
102
RTVSPropertyOp3
 70
     0
102
RTVSPropertyOp4
 70
     0
102
RTVSPropertyOp5
 70
     0
102
RTVSPropertyOp6
 70
     0
102
RTVSPropertyOp7
 70
     0
102
RTVSPropertyOp8
 70
     0
102
RTVSPropertyOp9
 70
     0
102
RTVSPropertyOp10
 70
     0
102
RTVSPropertyOp11
 70
     0
102
RTVSPropertyOp12
 70
     0
102
RTVSPropertyOp13
 70
     0
102
RTVSPropertyOp14
 70
     2
102
RTVSPropertyOp15
 70
     0
102
RTVSPropertyOp16
 70
     0
102
RTVSPropertyOp17
 70
     0
102
RTVSPropertyOp18
 70
     0
102
RTVSPropertyOp19
 70
     0
102
RTVSPropertyOp20
 70
     0
102
RTVSPropertyOp21
 70
     0
102
RTVSPropertyOp22
 70
     0
102
RTVSPropertyOp23
 70
     0
102
RTVSPropertyOp24
 70
     0
102
RTVSPropertyOp25
 70
     0
102
RTVSPropertyOp26
 70
     0
102
RTVSPropertyOp27
 70
     0
102
RTVSPropertyOp28
 70
     1
102
RTVSPropertyOp29
 70
     1
102
RTVSPropertyOp30
 70
     1
102
RTVSPropertyOp31
 70
     1
102
RTVSPropertyOp32
 70
     1
102
RTVSPropertyOp33
 70
     1
102
RTVSPropertyOp34
 70
     1
102
RTVSPropertyOp35
 70
     1
102
RTVSPropertyOp36
 70
     1
102
RTVSPropertyOp37
 70
     1
102
RTVSPropertyOp38
 70
     1
102
RTVSPropertyOp39
 70
     1
102
RTVSPropertyOp40
 70
     1
102
RTVSPropertyOp41
 70
     1
102
RTVSPropertyOp42
 70
     1
102
RTVSPropertyOp43
 70
     1
102
RTVSPropertyOp44
 70
     1
102
RTVSPropertyOp45
 70
     1
102
RTVSPropertyOp46
 70
     1
102
RTVSPropertyOp47
 70
     1
102
RTVSPropertyOp48
 70
     1
102
RTVSPropertyOp49
 70
     1
102
RTVSPropertyOp50
 70
     1
102
RTVSPropertyOp51
 70
     0
102
RTVSPropertyOp52
 70
     0
102
RTVSPropertyOp53
 70
     1
102
RTVSPropertyOp54
 70
     1
102
RTVSPropertyOp55
 70
     1
102
RTVSPropertyOp56
 70
     1
102
RTVSPropertyOp57
 70
     1
102
RTVSPropertyOp58
 70
     1
102
RTVSPropertyOp59
 70
     1
102
RTVSPropertyOp60
 70
     1
102
RTVSPropertyOp61
 70
     1
102
RTVSPropertyOp62
 70
     1
  0
XRECORD
  5
2E660
102
{ACAD_REACTORS
330
2E65F
102
}
330
2E65F
100
AcDbXrecord
280
     1
102
RTVSPost2010Prop28
280
     0
102
RTVSPost2010PropOp28
 70
     1
102
RTVSPost2010Prop29
280
     1
102
RTVSPost2010PropOp29
 70
     1
102
RTVSPost2010Prop30
280
     1
102
RTVSPost2010PropOp30
 70
     1
102
RTVSPost2010Prop31
280
     0
102
RTVSPost2010PropOp31
 70
     1
102
RTVSPost2010Prop32
280
     0
102
RTVSPost2010PropOp32
 70
     1
102
RTVSPost2010Prop33
280
     0
102
RTVSPost2010PropOp33
 70
     1
102
RTVSPost2010Prop34
280
     0
102
RTVSPost2010PropOp34
 70
     1
102
RTVSPost2010Prop35
280
     0
102
RTVSPost2010PropOp35
 70
     1
102
RTVSPost2010Prop36
280
     0
102
RTVSPost2010PropOp36
 70
     1
102
RTVSPost2010Prop37
 90
       50
102
RTVSPost2010PropOp37
 70
     1
102
RTVSPost2010Prop38
140
0.0
102
RTVSPost2010PropOp38
 70
     1
102
RTVSPost2010Prop39
140
1.0
102
RTVSPost2010PropOp39
 70
     1
102
RTVSPost2010Prop40
 90
        0
102
RTVSPost2010PropOp40
 70
     1
102
RTVSPost2010Prop41ColorIndex
 90
       18
102
RTVSPost2010Prop41ColorRGB
 90
        0
102
RTVSPost2010PropOp41
 70
     1
102
RTVSPost2010Prop42
 90
       50
102
RTVSPost2010PropOp42
 70
     1
102
RTVSPost2010Prop43
 90
        3
102
RTVSPost2010PropOp43
 70
     1
102
RTVSPost2010Prop44ColorIndex
 90
        5
102
RTVSPost2010Prop44ColorRGB
 90
      255
102
RTVSPost2010PropOp44
 70
     1
102
RTVSPost2010Prop45
280
     0
102
RTVSPost2010PropOp45
 70
     1
102
RTVSPost2010Prop46
 90
       50
102
RTVSPost2010PropOp46
 70
     1
102
RTVSPost2010Prop47
 90
       50
102
RTVSPost2010PropOp47
 70
     1
102
RTVSPost2010Prop48
 90
       50
102
RTVSPost2010PropOp48
 70
     1
102
RTVSPost2010Prop49
280
     0
102
RTVSPost2010PropOp49
 70
     1
102
RTVSPost2010Prop50
 90
       50
102
RTVSPost2010PropOp50
 70
     1
102
RTVSPost2010Prop51ColorIndex
 90
      256
102
RTVSPost2010Prop51ColorRGB
 90
-16777216
102
RTVSPost2010PropOp51
 70
     0
102
RTVSPost2010Prop52
140
1.0
102
RTVSPost2010PropOp52
 70
     0
102
RTVSPost2010Prop53
 90
        2
102
RTVSPost2010PropOp53
 70
     1
102
RTVSPost2010Prop54
  1
strokes_ogs.tif
102
RTVSPost2010PropOp54
 70
     1
102
RTVSPost2010Prop55
280
     0
102
RTVSPost2010PropOp55
 70
     1
102
RTVSPost2010Prop56
140
1.0
102
RTVSPost2010PropOp56
 70
     1
102
RTVSPost2010Prop57
140
1.0
102
RTVSPost2010PropOp57
 70
     1
102
RTVSPropertyOp0
 70
     1
102
RTVSPropertyOp1
 70
     1
102
RTVSPropertyOp2
 70
     1
102
RTVSPropertyOp3
 70
     1
102
RTVSPropertyOp4
 70
     1
102
RTVSPropertyOp5
 70
     1
102
RTVSPropertyOp6
 70
     1
102
RTVSPropertyOp7
 70
     1
102
RTVSPropertyOp8
 70
     1
102
RTVSPropertyOp9
 70
     1
102
RTVSPropertyOp10
 70
     1
102
RTVSPropertyOp11
 70
     1
102
RTVSPropertyOp12
 70
     1
102
RTVSPropertyOp13
 70
     1
102
RTVSPropertyOp14
 70
     1
102
RTVSPropertyOp15
 70
     1
102
RTVSPropertyOp16
 70
     1
102
RTVSPropertyOp17
 70
     1
102
RTVSPropertyOp18
 70
     1
102
RTVSPropertyOp19
 70
     1
102
RTVSPropertyOp20
 70
     1
102
RTVSPropertyOp21
 70
     1
102
RTVSPropertyOp22
 70
     1
102
RTVSPropertyOp23
 70
     1
102
RTVSPropertyOp24
 70
     1
102
RTVSPropertyOp25
 70
     1
102
RTVSPropertyOp26
 70
     1
102
RTVSPropertyOp27
 70
     1
102
RTVSPropertyOp28
 70
     1
102
RTVSPropertyOp29
 70
     1
102
RTVSPropertyOp30
 70
     1
102
RTVSPropertyOp31
 70
     1
102
RTVSPropertyOp32
 70
     1
102
RTVSPropertyOp33
 70
     1
102
RTVSPropertyOp34
 70
     1
102
RTVSPropertyOp35
 70
     1
102
RTVSPropertyOp36
 70
     1
102
RTVSPropertyOp37
 70
     1
102
RTVSPropertyOp38
 70
     1
102
RTVSPropertyOp39
 70
     1
102
RTVSPropertyOp40
 70
     1
102
RTVSPropertyOp41
 70
     1
102
RTVSPropertyOp42
 70
     1
102
RTVSPropertyOp43
 70
     1
102
RTVSPropertyOp44
 70
     1
102
RTVSPropertyOp45
 70
     1
102
RTVSPropertyOp46
 70
     1
102
RTVSPropertyOp47
 70
     1
102
RTVSPropertyOp48
 70
     1
102
RTVSPropertyOp49
 70
     1
102
RTVSPropertyOp50
 70
     1
102
RTVSPropertyOp51
 70
     0
102
RTVSPropertyOp52
 70
     0
102
RTVSPropertyOp53
 70
     1
102
RTVSPropertyOp54
 70
     1
102
RTVSPropertyOp55
 70
     1
102
RTVSPropertyOp56
 70
     1
102
RTVSPropertyOp57
 70
     1
102
RTVSPropertyOp58
 70
     1
102
RTVSPropertyOp59
 70
     1
102
RTVSPropertyOp60
 70
     1
102
RTVSPropertyOp61
 70
     1
102
RTVSPropertyOp62
 70
     1
  0
XRECORD
  5
2E668
102
{ACAD_REACTORS
330
2E667
102
}
330
2E667
100
AcDbXrecord
280
     1
102
RTVSPost2010Prop28
280
     0
102
RTVSPost2010PropOp28
 70
     1
102
RTVSPost2010Prop29
280
     1
102
RTVSPost2010PropOp29
 70
     1
102
RTVSPost2010Prop30
280
     1
102
RTVSPost2010PropOp30
 70
     1
102
RTVSPost2010Prop31
280
     0
102
RTVSPost2010PropOp31
 70
     1
102
RTVSPost2010Prop32
280
     0
102
RTVSPost2010PropOp32
 70
     1
102
RTVSPost2010Prop33
280
     0
102
RTVSPost2010PropOp33
 70
     1
102
RTVSPost2010Prop34
280
     0
102
RTVSPost2010PropOp34
 70
     1
102
RTVSPost2010Prop35
280
     0
102
RTVSPost2010PropOp35
 70
     1
102
RTVSPost2010Prop36
280
     0
102
RTVSPost2010PropOp36
 70
     1
102
RTVSPost2010Prop37
 90
       50
102
RTVSPost2010PropOp37
 70
     1
102
RTVSPost2010Prop38
140
0.0
102
RTVSPost2010PropOp38
 70
     1
102
RTVSPost2010Prop39
140
1.0
102
RTVSPost2010PropOp39
 70
     1
102
RTVSPost2010Prop40
 90
        0
102
RTVSPost2010PropOp40
 70
     1
102
RTVSPost2010Prop41ColorIndex
 90
       18
102
RTVSPost2010Prop41ColorRGB
 90
        0
102
RTVSPost2010PropOp41
 70
     1
102
RTVSPost2010Prop42
 90
       50
102
RTVSPost2010PropOp42
 70
     1
102
RTVSPost2010Prop43
 90
        3
102
RTVSPost2010PropOp43
 70
     1
102
RTVSPost2010Prop44ColorIndex
 90
        5
102
RTVSPost2010Prop44ColorRGB
 90
      255
102
RTVSPost2010PropOp44
 70
     1
102
RTVSPost2010Prop45
280
     0
102
RTVSPost2010PropOp45
 70
     1
102
RTVSPost2010Prop46
 90
       50
102
RTVSPost2010PropOp46
 70
     1
102
RTVSPost2010Prop47
 90
       50
102
RTVSPost2010PropOp47
 70
     1
102
RTVSPost2010Prop48
 90
       50
102
RTVSPost2010PropOp48
 70
     1
102
RTVSPost2010Prop49
280
     0
102
RTVSPost2010PropOp49
 70
     1
102
RTVSPost2010Prop50
 90
       50
102
RTVSPost2010PropOp50
 70
     1
102
RTVSPost2010Prop51ColorIndex
 90
      256
102
RTVSPost2010Prop51ColorRGB
 90
-16777216
102
RTVSPost2010PropOp51
 70
     0
102
RTVSPost2010Prop52
140
1.0
102
RTVSPost2010PropOp52
 70
     0
102
RTVSPost2010Prop53
 90
        2
102
RTVSPost2010PropOp53
 70
     1
102
RTVSPost2010Prop54
  1
strokes_ogs.tif
102
RTVSPost2010PropOp54
 70
     1
102
RTVSPost2010Prop55
280
     0
102
RTVSPost2010PropOp55
 70
     1
102
RTVSPost2010Prop56
140
1.0
102
RTVSPost2010PropOp56
 70
     1
102
RTVSPost2010Prop57
140
1.0
102
RTVSPost2010PropOp57
 70
     1
102
RTVSPropertyOp0
 70
     0
102
RTVSPropertyOp1
 70
     0
102
RTVSPropertyOp2
 70
     0
102
RTVSPropertyOp3
 70
     0
102
RTVSPropertyOp4
 70
     0
102
RTVSPropertyOp5
 70
     0
102
RTVSPropertyOp6
 70
     0
102
RTVSPropertyOp7
 70
     0
102
RTVSPropertyOp8
 70
     0
102
RTVSPropertyOp9
 70
     0
102
RTVSPropertyOp10
 70
     0
102
RTVSPropertyOp11
 70
     0
102
RTVSPropertyOp12
 70
     0
102
RTVSPropertyOp13
 70
     0
102
RTVSPropertyOp14
 70
     2
102
RTVSPropertyOp15
 70
     0
102
RTVSPropertyOp16
 70
     0
102
RTVSPropertyOp17
 70
     0
102
RTVSPropertyOp18
 70
     0
102
RTVSPropertyOp19
 70
     0
102
RTVSPropertyOp20
 70
     0
102
RTVSPropertyOp21
 70
     0
102
RTVSPropertyOp22
 70
     0
102
RTVSPropertyOp23
 70
     0
102
RTVSPropertyOp24
 70
     0
102
RTVSPropertyOp25
 70
     0
102
RTVSPropertyOp26
 70
     0
102
RTVSPropertyOp27
 70
     0
102
RTVSPropertyOp28
 70
     1
102
RTVSPropertyOp29
 70
     1
102
RTVSPropertyOp30
 70
     1
102
RTVSPropertyOp31
 70
     1
102
RTVSPropertyOp32
 70
     1
102
RTVSPropertyOp33
 70
     1
102
RTVSPropertyOp34
 70
     1
102
RTVSPropertyOp35
 70
     1
102
RTVSPropertyOp36
 70
     1
102
RTVSPropertyOp37
 70
     1
102
RTVSPropertyOp38
 70
     1
102
RTVSPropertyOp39
 70
     1
102
RTVSPropertyOp40
 70
     1
102
RTVSPropertyOp41
 70
     1
102
RTVSPropertyOp42
 70
     1
102
RTVSPropertyOp43
 70
     1
102
RTVSPropertyOp44
 70
     1
102
RTVSPropertyOp45
 70
     1
102
RTVSPropertyOp46
 70
     1
102
RTVSPropertyOp47
 70
     1
102
RTVSPropertyOp48
 70
     1
102
RTVSPropertyOp49
 70
     1
102
RTVSPropertyOp50
 70
     1
102
RTVSPropertyOp51
 70
     0
102
RTVSPropertyOp52
 70
     0
102
RTVSPropertyOp53
 70
     1
102
RTVSPropertyOp54
 70
     1
102
RTVSPropertyOp55
 70
     1
102
RTVSPropertyOp56
 70
     1
102
RTVSPropertyOp57
 70
     1
102
RTVSPropertyOp58
 70
     1
102
RTVSPropertyOp59
 70
     1
102
RTVSPropertyOp60
 70
     1
102
RTVSPropertyOp61
 70
     1
102
RTVSPropertyOp62
 70
     1
  0
XRECORD
  5
2E658
102
{ACAD_REACTORS
330
2E657
102
}
330
2E657
100
AcDbXrecord
280
     1
102
RTVSPost2010Prop28
280
     0
102
RTVSPost2010PropOp28
 70
     1
102
RTVSPost2010Prop29
280
     1
102
RTVSPost2010PropOp29
 70
     1
102
RTVSPost2010Prop30
280
     1
102
RTVSPost2010PropOp30
 70
     1
102
RTVSPost2010Prop31
280
     0
102
RTVSPost2010PropOp31
 70
     1
102
RTVSPost2010Prop32
280
     0
102
RTVSPost2010PropOp32
 70
     1
102
RTVSPost2010Prop33
280
     0
102
RTVSPost2010PropOp33
 70
     1
102
RTVSPost2010Prop34
280
     0
102
RTVSPost2010PropOp34
 70
     1
102
RTVSPost2010Prop35
280
     0
102
RTVSPost2010PropOp35
 70
     1
102
RTVSPost2010Prop36
280
     0
102
RTVSPost2010PropOp36
 70
     1
102
RTVSPost2010Prop37
 90
       50
102
RTVSPost2010PropOp37
 70
     1
102
RTVSPost2010Prop38
140
0.0
102
RTVSPost2010PropOp38
 70
     1
102
RTVSPost2010Prop39
140
1.0
102
RTVSPost2010PropOp39
 70
     1
102
RTVSPost2010Prop40
 90
        0
102
RTVSPost2010PropOp40
 70
     1
102
RTVSPost2010Prop41ColorIndex
 90
       18
102
RTVSPost2010Prop41ColorRGB
 90
        0
102
RTVSPost2010PropOp41
 70
     1
102
RTVSPost2010Prop42
 90
       50
102
RTVSPost2010PropOp42
 70
     1
102
RTVSPost2010Prop43
 90
        3
102
RTVSPost2010PropOp43
 70
     1
102
RTVSPost2010Prop44ColorIndex
 90
        5
102
RTVSPost2010Prop44ColorRGB
 90
      255
102
RTVSPost2010PropOp44
 70
     1
102
RTVSPost2010Prop45
280
     0
102
RTVSPost2010PropOp45
 70
     1
102
RTVSPost2010Prop46
 90
       50
102
RTVSPost2010PropOp46
 70
     1
102
RTVSPost2010Prop47
 90
       50
102
RTVSPost2010PropOp47
 70
     1
102
RTVSPost2010Prop48
 90
       50
102
RTVSPost2010PropOp48
 70
     1
102
RTVSPost2010Prop49
280
     0
102
RTVSPost2010PropOp49
 70
     1
102
RTVSPost2010Prop50
 90
       50
102
RTVSPost2010PropOp50
 70
     1
102
RTVSPost2010Prop51ColorIndex
 90
      256
102
RTVSPost2010Prop51ColorRGB
 90
-16777216
102
RTVSPost2010PropOp51
 70
     0
102
RTVSPost2010Prop52
140
1.0
102
RTVSPost2010PropOp52
 70
     0
102
RTVSPost2010Prop53
 90
        2
102
RTVSPost2010PropOp53
 70
     1
102
RTVSPost2010Prop54
  1
strokes_ogs.tif
102
RTVSPost2010PropOp54
 70
     1
102
RTVSPost2010Prop55
280
     0
102
RTVSPost2010PropOp55
 70
     1
102
RTVSPost2010Prop56
140
1.0
102
RTVSPost2010PropOp56
 70
     1
102
RTVSPost2010Prop57
140
1.0
102
RTVSPost2010PropOp57
 70
     1
102
RTVSPropertyOp0
 70
     1
102
RTVSPropertyOp1
 70
     1
102
RTVSPropertyOp2
 70
     1
102
RTVSPropertyOp3
 70
     1
102
RTVSPropertyOp4
 70
     1
102
RTVSPropertyOp5
 70
     1
102
RTVSPropertyOp6
 70
     1
102
RTVSPropertyOp7
 70
     1
102
RTVSPropertyOp8
 70
     1
102
RTVSPropertyOp9
 70
     1
102
RTVSPropertyOp10
 70
     1
102
RTVSPropertyOp11
 70
     1
102
RTVSPropertyOp12
 70
     1
102
RTVSPropertyOp13
 70
     1
102
RTVSPropertyOp14
 70
     1
102
RTVSPropertyOp15
 70
     1
102
RTVSPropertyOp16
 70
     1
102
RTVSPropertyOp17
 70
     1
102
RTVSPropertyOp18
 70
     1
102
RTVSPropertyOp19
 70
     1
102
RTVSPropertyOp20
 70
     1
102
RTVSPropertyOp21
 70
     1
102
RTVSPropertyOp22
 70
     1
102
RTVSPropertyOp23
 70
     1
102
RTVSPropertyOp24
 70
     1
102
RTVSPropertyOp25
 70
     1
102
RTVSPropertyOp26
 70
     1
102
RTVSPropertyOp27
 70
     1
102
RTVSPropertyOp28
 70
     1
102
RTVSPropertyOp29
 70
     1
102
RTVSPropertyOp30
 70
     1
102
RTVSPropertyOp31
 70
     1
102
RTVSPropertyOp32
 70
     1
102
RTVSPropertyOp33
 70
     1
102
RTVSPropertyOp34
 70
     1
102
RTVSPropertyOp35
 70
     1
102
RTVSPropertyOp36
 70
     1
102
RTVSPropertyOp37
 70
     1
102
RTVSPropertyOp38
 70
     1
102
RTVSPropertyOp39
 70
     1
102
RTVSPropertyOp40
 70
     1
102
RTVSPropertyOp41
 70
     1
102
RTVSPropertyOp42
 70
     1
102
RTVSPropertyOp43
 70
     1
102
RTVSPropertyOp44
 70
     1
102
RTVSPropertyOp45
 70
     1
102
RTVSPropertyOp46
 70
     1
102
RTVSPropertyOp47
 70
     1
102
RTVSPropertyOp48
 70
     1
102
RTVSPropertyOp49
 70
     1
102
RTVSPropertyOp50
 70
     1
102
RTVSPropertyOp51
 70
     0
102
RTVSPropertyOp52
 70
     0
102
RTVSPropertyOp53
 70
     1
102
RTVSPropertyOp54
 70
     1
102
RTVSPropertyOp55
 70
     1
102
RTVSPropertyOp56
 70
     1
102
RTVSPropertyOp57
 70
     1
102
RTVSPropertyOp58
 70
     1
102
RTVSPropertyOp59
 70
     1
102
RTVSPropertyOp60
 70
     1
102
RTVSPropertyOp61
 70
     1
102
RTVSPropertyOp62
 70
     1
  0
XRECORD
  5
2E679
102
{ACAD_REACTORS
330
2E678
102
}
330
2E678
100
AcDbXrecord
280
     1
102
RTVSPost2010Prop28
280
     0
102
RTVSPost2010PropOp28
 70
     1
102
RTVSPost2010Prop29
280
     1
102
RTVSPost2010PropOp29
 70
     1
102
RTVSPost2010Prop30
280
     1
102
RTVSPost2010PropOp30
 70
     1
102
RTVSPost2010Prop31
280
     0
102
RTVSPost2010PropOp31
 70
     1
102
RTVSPost2010Prop32
280
     0
102
RTVSPost2010PropOp32
 70
     1
102
RTVSPost2010Prop33
280
     0
102
RTVSPost2010PropOp33
 70
     1
102
RTVSPost2010Prop34
280
     0
102
RTVSPost2010PropOp34
 70
     1
102
RTVSPost2010Prop35
280
     0
102
RTVSPost2010PropOp35
 70
     1
102
RTVSPost2010Prop36
280
     0
102
RTVSPost2010PropOp36
 70
     1
102
RTVSPost2010Prop37
 90
       50
102
RTVSPost2010PropOp37
 70
     1
102
RTVSPost2010Prop38
140
0.0
102
RTVSPost2010PropOp38
 70
     1
102
RTVSPost2010Prop39
140
1.0
102
RTVSPost2010PropOp39
 70
     1
102
RTVSPost2010Prop40
 90
        0
102
RTVSPost2010PropOp40
 70
     1
102
RTVSPost2010Prop41ColorIndex
 90
       18
102
RTVSPost2010Prop41ColorRGB
 90
        0
102
RTVSPost2010PropOp41
 70
     1
102
RTVSPost2010Prop42
 90
       50
102
RTVSPost2010PropOp42
 70
     1
102
RTVSPost2010Prop43
 90
        3
102
RTVSPost2010PropOp43
 70
     1
102
RTVSPost2010Prop44ColorIndex
 90
        5
102
RTVSPost2010Prop44ColorRGB
 90
      255
102
RTVSPost2010PropOp44
 70
     1
102
RTVSPost2010Prop45
280
     0
102
RTVSPost2010PropOp45
 70
     1
102
RTVSPost2010Prop46
 90
       50
102
RTVSPost2010PropOp46
 70
     1
102
RTVSPost2010Prop47
 90
       50
102
RTVSPost2010PropOp47
 70
     1
102
RTVSPost2010Prop48
 90
       50
102
RTVSPost2010PropOp48
 70
     1
102
RTVSPost2010Prop49
280
     0
102
RTVSPost2010PropOp49
 70
     1
102
RTVSPost2010Prop50
 90
       50
102
RTVSPost2010PropOp50
 70
     1
102
RTVSPost2010Prop51ColorIndex
 90
      256
102
RTVSPost2010Prop51ColorRGB
 90
-16777216
102
RTVSPost2010PropOp51
 70
     0
102
RTVSPost2010Prop52
140
1.0
102
RTVSPost2010PropOp52
 70
     0
102
RTVSPost2010Prop53
 90
        2
102
RTVSPost2010PropOp53
 70
     1
102
RTVSPost2010Prop54
  1
strokes_ogs.tif
102
RTVSPost2010PropOp54
 70
     1
102
RTVSPost2010Prop55
280
     0
102
RTVSPost2010PropOp55
 70
     1
102
RTVSPost2010Prop56
140
1.0
102
RTVSPost2010PropOp56
 70
     1
102
RTVSPost2010Prop57
140
1.0
102
RTVSPost2010PropOp57
 70
     1
102
RTVSPropertyOp0
 70
     1
102
RTVSPropertyOp1
 70
     1
102
RTVSPropertyOp2
 70
     1
102
RTVSPropertyOp3
 70
     1
102
RTVSPropertyOp4
 70
     1
102
RTVSPropertyOp5
 70
     1
102
RTVSPropertyOp6
 70
     1
102
RTVSPropertyOp7
 70
     1
102
RTVSPropertyOp8
 70
     1
102
RTVSPropertyOp9
 70
     1
102
RTVSPropertyOp10
 70
     1
102
RTVSPropertyOp11
 70
     1
102
RTVSPropertyOp12
 70
     1
102
RTVSPropertyOp13
 70
     1
102
RTVSPropertyOp14
 70
     1
102
RTVSPropertyOp15
 70
     1
102
RTVSPropertyOp16
 70
     1
102
RTVSPropertyOp17
 70
     1
102
RTVSPropertyOp18
 70
     1
102
RTVSPropertyOp19
 70
     1
102
RTVSPropertyOp20
 70
     1
102
RTVSPropertyOp21
 70
     1
102
RTVSPropertyOp22
 70
     1
102
RTVSPropertyOp23
 70
     1
102
RTVSPropertyOp24
 70
     1
102
RTVSPropertyOp25
 70
     1
102
RTVSPropertyOp26
 70
     1
102
RTVSPropertyOp27
 70
     1
102
RTVSPropertyOp28
 70
     1
102
RTVSPropertyOp29
 70
     1
102
RTVSPropertyOp30
 70
     1
102
RTVSPropertyOp31
 70
     1
102
RTVSPropertyOp32
 70
     1
102
RTVSPropertyOp33
 70
     1
102
RTVSPropertyOp34
 70
     1
102
RTVSPropertyOp35
 70
     1
102
RTVSPropertyOp36
 70
     1
102
RTVSPropertyOp37
 70
     1
102
RTVSPropertyOp38
 70
     1
102
RTVSPropertyOp39
 70
     1
102
RTVSPropertyOp40
 70
     1
102
RTVSPropertyOp41
 70
     1
102
RTVSPropertyOp42
 70
     1
102
RTVSPropertyOp43
 70
     1
102
RTVSPropertyOp44
 70
     1
102
RTVSPropertyOp45
 70
     1
102
RTVSPropertyOp46
 70
     1
102
RTVSPropertyOp47
 70
     1
102
RTVSPropertyOp48
 70
     1
102
RTVSPropertyOp49
 70
     1
102
RTVSPropertyOp50
 70
     1
102
RTVSPropertyOp51
 70
     0
102
RTVSPropertyOp52
 70
     0
102
RTVSPropertyOp53
 70
     1
102
RTVSPropertyOp54
 70
     1
102
RTVSPropertyOp55
 70
     1
102
RTVSPropertyOp56
 70
     1
102
RTVSPropertyOp57
 70
     1
102
RTVSPropertyOp58
 70
     1
102
RTVSPropertyOp59
 70
     1
102
RTVSPropertyOp60
 70
     1
102
RTVSPropertyOp61
 70
     1
102
RTVSPropertyOp62
 70
     1
  0
XRECORD
  5
2E677
102
{ACAD_REACTORS
330
2E676
102
}
330
2E676
100
AcDbXrecord
280
     1
102
RTVSPost2010Prop28
280
     0
102
RTVSPost2010PropOp28
 70
     1
102
RTVSPost2010Prop29
280
     1
102
RTVSPost2010PropOp29
 70
     1
102
RTVSPost2010Prop30
280
     1
102
RTVSPost2010PropOp30
 70
     1
102
RTVSPost2010Prop31
280
     0
102
RTVSPost2010PropOp31
 70
     1
102
RTVSPost2010Prop32
280
     0
102
RTVSPost2010PropOp32
 70
     1
102
RTVSPost2010Prop33
280
     0
102
RTVSPost2010PropOp33
 70
     1
102
RTVSPost2010Prop34
280
     0
102
RTVSPost2010PropOp34
 70
     1
102
RTVSPost2010Prop35
280
     0
102
RTVSPost2010PropOp35
 70
     1
102
RTVSPost2010Prop36
280
     0
102
RTVSPost2010PropOp36
 70
     1
102
RTVSPost2010Prop37
 90
       50
102
RTVSPost2010PropOp37
 70
     1
102
RTVSPost2010Prop38
140
0.0
102
RTVSPost2010PropOp38
 70
     1
102
RTVSPost2010Prop39
140
1.0
102
RTVSPost2010PropOp39
 70
     1
102
RTVSPost2010Prop40
 90
        0
102
RTVSPost2010PropOp40
 70
     1
102
RTVSPost2010Prop41ColorIndex
 90
       18
102
RTVSPost2010Prop41ColorRGB
 90
        0
102
RTVSPost2010PropOp41
 70
     1
102
RTVSPost2010Prop42
 90
       50
102
RTVSPost2010PropOp42
 70
     1
102
RTVSPost2010Prop43
 90
        3
102
RTVSPost2010PropOp43
 70
     1
102
RTVSPost2010Prop44ColorIndex
 90
        5
102
RTVSPost2010Prop44ColorRGB
 90
      255
102
RTVSPost2010PropOp44
 70
     1
102
RTVSPost2010Prop45
280
     0
102
RTVSPost2010PropOp45
 70
     1
102
RTVSPost2010Prop46
 90
       50
102
RTVSPost2010PropOp46
 70
     1
102
RTVSPost2010Prop47
 90
       50
102
RTVSPost2010PropOp47
 70
     1
102
RTVSPost2010Prop48
 90
       50
102
RTVSPost2010PropOp48
 70
     1
102
RTVSPost2010Prop49
280
     0
102
RTVSPost2010PropOp49
 70
     1
102
RTVSPost2010Prop50
 90
       50
102
RTVSPost2010PropOp50
 70
     1
102
RTVSPost2010Prop51ColorIndex
 90
      256
102
RTVSPost2010Prop51ColorRGB
 90
-16777216
102
RTVSPost2010PropOp51
 70
     0
102
RTVSPost2010Prop52
140
1.0
102
RTVSPost2010PropOp52
 70
     0
102
RTVSPost2010Prop53
 90
        2
102
RTVSPost2010PropOp53
 70
     1
102
RTVSPost2010Prop54
  1
strokes_ogs.tif
102
RTVSPost2010PropOp54
 70
     1
102
RTVSPost2010Prop55
280
     0
102
RTVSPost2010PropOp55
 70
     1
102
RTVSPost2010Prop56
140
1.0
102
RTVSPost2010PropOp56
 70
     1
102
RTVSPost2010Prop57
140
1.0
102
RTVSPost2010PropOp57
 70
     1
102
RTVSPropertyOp0
 70
     1
102
RTVSPropertyOp1
 70
     1
102
RTVSPropertyOp2
 70
     1
102
RTVSPropertyOp3
 70
     1
102
RTVSPropertyOp4
 70
     1
102
RTVSPropertyOp5
 70
     1
102
RTVSPropertyOp6
 70
     1
102
RTVSPropertyOp7
 70
     1
102
RTVSPropertyOp8
 70
     1
102
RTVSPropertyOp9
 70
     1
102
RTVSPropertyOp10
 70
     1
102
RTVSPropertyOp11
 70
     1
102
RTVSPropertyOp12
 70
     1
102
RTVSPropertyOp13
 70
     1
102
RTVSPropertyOp14
 70
     1
102
RTVSPropertyOp15
 70
     1
102
RTVSPropertyOp16
 70
     1
102
RTVSPropertyOp17
 70
     1
102
RTVSPropertyOp18
 70
     1
102
RTVSPropertyOp19
 70
     1
102
RTVSPropertyOp20
 70
     1
102
RTVSPropertyOp21
 70
     1
102
RTVSPropertyOp22
 70
     1
102
RTVSPropertyOp23
 70
     1
102
RTVSPropertyOp24
 70
     1
102
RTVSPropertyOp25
 70
     1
102
RTVSPropertyOp26
 70
     1
102
RTVSPropertyOp27
 70
     1
102
RTVSPropertyOp28
 70
     1
102
RTVSPropertyOp29
 70
     1
102
RTVSPropertyOp30
 70
     1
102
RTVSPropertyOp31
 70
     1
102
RTVSPropertyOp32
 70
     1
102
RTVSPropertyOp33
 70
     1
102
RTVSPropertyOp34
 70
     1
102
RTVSPropertyOp35
 70
     1
102
RTVSPropertyOp36
 70
     1
102
RTVSPropertyOp37
 70
     1
102
RTVSPropertyOp38
 70
     1
102
RTVSPropertyOp39
 70
     1
102
RTVSPropertyOp40
 70
     1
102
RTVSPropertyOp41
 70
     1
102
RTVSPropertyOp42
 70
     1
102
RTVSPropertyOp43
 70
     1
102
RTVSPropertyOp44
 70
     1
102
RTVSPropertyOp45
 70
     1
102
RTVSPropertyOp46
 70
     1
102
RTVSPropertyOp47
 70
     1
102
RTVSPropertyOp48
 70
     1
102
RTVSPropertyOp49
 70
     1
102
RTVSPropertyOp50
 70
     1
102
RTVSPropertyOp51
 70
     0
102
RTVSPropertyOp52
 70
     0
102
RTVSPropertyOp53
 70
     1
102
RTVSPropertyOp54
 70
     1
102
RTVSPropertyOp55
 70
     1
102
RTVSPropertyOp56
 70
     1
102
RTVSPropertyOp57
 70
     1
102
RTVSPropertyOp58
 70
     1
102
RTVSPropertyOp59
 70
     1
102
RTVSPropertyOp60
 70
     1
102
RTVSPropertyOp61
 70
     1
102
RTVSPropertyOp62
 70
     1
  0
XRECORD
  5
2E671
102
{ACAD_REACTORS
330
2E670
102
}
330
2E670
100
AcDbXrecord
280
     1
102
RTVSPost2010Prop28
280
     0
102
RTVSPost2010PropOp28
 70
     1
102
RTVSPost2010Prop29
280
     1
102
RTVSPost2010PropOp29
 70
     1
102
RTVSPost2010Prop30
280
     1
102
RTVSPost2010PropOp30
 70
     1
102
RTVSPost2010Prop31
280
     0
102
RTVSPost2010PropOp31
 70
     1
102
RTVSPost2010Prop32
280
     0
102
RTVSPost2010PropOp32
 70
     1
102
RTVSPost2010Prop33
280
     0
102
RTVSPost2010PropOp33
 70
     1
102
RTVSPost2010Prop34
280
     0
102
RTVSPost2010PropOp34
 70
     1
102
RTVSPost2010Prop35
280
     0
102
RTVSPost2010PropOp35
 70
     1
102
RTVSPost2010Prop36
280
     0
102
RTVSPost2010PropOp36
 70
     1
102
RTVSPost2010Prop37
 90
       50
102
RTVSPost2010PropOp37
 70
     1
102
RTVSPost2010Prop38
140
0.0
102
RTVSPost2010PropOp38
 70
     1
102
RTVSPost2010Prop39
140
1.0
102
RTVSPost2010PropOp39
 70
     1
102
RTVSPost2010Prop40
 90
        0
102
RTVSPost2010PropOp40
 70
     1
102
RTVSPost2010Prop41ColorIndex
 90
       18
102
RTVSPost2010Prop41ColorRGB
 90
        0
102
RTVSPost2010PropOp41
 70
     1
102
RTVSPost2010Prop42
 90
       50
102
RTVSPost2010PropOp42
 70
     1
102
RTVSPost2010Prop43
 90
        3
102
RTVSPost2010PropOp43
 70
     1
102
RTVSPost2010Prop44ColorIndex
 90
        5
102
RTVSPost2010Prop44ColorRGB
 90
      255
102
RTVSPost2010PropOp44
 70
     1
102
RTVSPost2010Prop45
280
     0
102
RTVSPost2010PropOp45
 70
     1
102
RTVSPost2010Prop46
 90
       50
102
RTVSPost2010PropOp46
 70
     1
102
RTVSPost2010Prop47
 90
       50
102
RTVSPost2010PropOp47
 70
     1
102
RTVSPost2010Prop48
 90
       50
102
RTVSPost2010PropOp48
 70
     1
102
RTVSPost2010Prop49
280
     0
102
RTVSPost2010PropOp49
 70
     1
102
RTVSPost2010Prop50
 90
       50
102
RTVSPost2010PropOp50
 70
     1
102
RTVSPost2010Prop51ColorIndex
 90
      256
102
RTVSPost2010Prop51ColorRGB
 90
-16777216
102
RTVSPost2010PropOp51
 70
     0
102
RTVSPost2010Prop52
140
1.0
102
RTVSPost2010PropOp52
 70
     0
102
RTVSPost2010Prop53
 90
        2
102
RTVSPost2010PropOp53
 70
     1
102
RTVSPost2010Prop54
  1
strokes_ogs.tif
102
RTVSPost2010PropOp54
 70
     1
102
RTVSPost2010Prop55
280
     0
102
RTVSPost2010PropOp55
 70
     1
102
RTVSPost2010Prop56
140
1.0
102
RTVSPost2010PropOp56
 70
     1
102
RTVSPost2010Prop57
140
1.0
102
RTVSPost2010PropOp57
 70
     1
102
RTVSPropertyOp0
 70
     1
102
RTVSPropertyOp1
 70
     1
102
RTVSPropertyOp2
 70
     1
102
RTVSPropertyOp3
 70
     1
102
RTVSPropertyOp4
 70
     1
102
RTVSPropertyOp5
 70
     1
102
RTVSPropertyOp6
 70
     1
102
RTVSPropertyOp7
 70
     1
102
RTVSPropertyOp8
 70
     1
102
RTVSPropertyOp9
 70
     1
102
RTVSPropertyOp10
 70
     1
102
RTVSPropertyOp11
 70
     1
102
RTVSPropertyOp12
 70
     1
102
RTVSPropertyOp13
 70
     1
102
RTVSPropertyOp14
 70
     1
102
RTVSPropertyOp15
 70
     1
102
RTVSPropertyOp16
 70
     1
102
RTVSPropertyOp17
 70
     1
102
RTVSPropertyOp18
 70
     1
102
RTVSPropertyOp19
 70
     1
102
RTVSPropertyOp20
 70
     1
102
RTVSPropertyOp21
 70
     1
102
RTVSPropertyOp22
 70
     1
102
RTVSPropertyOp23
 70
     1
102
RTVSPropertyOp24
 70
     1
102
RTVSPropertyOp25
 70
     1
102
RTVSPropertyOp26
 70
     1
102
RTVSPropertyOp27
 70
     1
102
RTVSPropertyOp28
 70
     1
102
RTVSPropertyOp29
 70
     1
102
RTVSPropertyOp30
 70
     1
102
RTVSPropertyOp31
 70
     1
102
RTVSPropertyOp32
 70
     1
102
RTVSPropertyOp33
 70
     1
102
RTVSPropertyOp34
 70
     1
102
RTVSPropertyOp35
 70
     1
102
RTVSPropertyOp36
 70
     1
102
RTVSPropertyOp37
 70
     1
102
RTVSPropertyOp38
 70
     1
102
RTVSPropertyOp39
 70
     1
102
RTVSPropertyOp40
 70
     1
102
RTVSPropertyOp41
 70
     1
102
RTVSPropertyOp42
 70
     1
102
RTVSPropertyOp43
 70
     1
102
RTVSPropertyOp44
 70
     1
102
RTVSPropertyOp45
 70
     1
102
RTVSPropertyOp46
 70
     1
102
RTVSPropertyOp47
 70
     1
102
RTVSPropertyOp48
 70
     1
102
RTVSPropertyOp49
 70
     1
102
RTVSPropertyOp50
 70
     1
102
RTVSPropertyOp51
 70
     0
102
RTVSPropertyOp52
 70
     0
102
RTVSPropertyOp53
 70
     1
102
RTVSPropertyOp54
 70
     1
102
RTVSPropertyOp55
 70
     1
102
RTVSPropertyOp56
 70
     1
102
RTVSPropertyOp57
 70
     1
102
RTVSPropertyOp58
 70
     1
102
RTVSPropertyOp59
 70
     1
102
RTVSPropertyOp60
 70
     1
102
RTVSPropertyOp61
 70
     1
102
RTVSPropertyOp62
 70
     1
  0
XRECORD
  5
2E673
102
{ACAD_REACTORS
330
2E672
102
}
330
2E672
100
AcDbXrecord
280
     1
102
RTVSPost2010Prop28
280
     0
102
RTVSPost2010PropOp28
 70
     1
102
RTVSPost2010Prop29
280
     1
102
RTVSPost2010PropOp29
 70
     1
102
RTVSPost2010Prop30
280
     1
102
RTVSPost2010PropOp30
 70
     1
102
RTVSPost2010Prop31
280
     0
102
RTVSPost2010PropOp31
 70
     1
102
RTVSPost2010Prop32
280
     0
102
RTVSPost2010PropOp32
 70
     1
102
RTVSPost2010Prop33
280
     0
102
RTVSPost2010PropOp33
 70
     1
102
RTVSPost2010Prop34
280
     0
102
RTVSPost2010PropOp34
 70
     1
102
RTVSPost2010Prop35
280
     0
102
RTVSPost2010PropOp35
 70
     1
102
RTVSPost2010Prop36
280
     0
102
RTVSPost2010PropOp36
 70
     1
102
RTVSPost2010Prop37
 90
       50
102
RTVSPost2010PropOp37
 70
     1
102
RTVSPost2010Prop38
140
0.0
102
RTVSPost2010PropOp38
 70
     1
102
RTVSPost2010Prop39
140
1.0
102
RTVSPost2010PropOp39
 70
     1
102
RTVSPost2010Prop40
 90
        0
102
RTVSPost2010PropOp40
 70
     1
102
RTVSPost2010Prop41ColorIndex
 90
       18
102
RTVSPost2010Prop41ColorRGB
 90
        0
102
RTVSPost2010PropOp41
 70
     1
102
RTVSPost2010Prop42
 90
       50
102
RTVSPost2010PropOp42
 70
     1
102
RTVSPost2010Prop43
 90
        3
102
RTVSPost2010PropOp43
 70
     1
102
RTVSPost2010Prop44ColorIndex
 90
        5
102
RTVSPost2010Prop44ColorRGB
 90
      255
102
RTVSPost2010PropOp44
 70
     1
102
RTVSPost2010Prop45
280
     0
102
RTVSPost2010PropOp45
 70
     1
102
RTVSPost2010Prop46
 90
       50
102
RTVSPost2010PropOp46
 70
     1
102
RTVSPost2010Prop47
 90
       50
102
RTVSPost2010PropOp47
 70
     1
102
RTVSPost2010Prop48
 90
       50
102
RTVSPost2010PropOp48
 70
     1
102
RTVSPost2010Prop49
280
     0
102
RTVSPost2010PropOp49
 70
     1
102
RTVSPost2010Prop50
 90
       50
102
RTVSPost2010PropOp50
 70
     1
102
RTVSPost2010Prop51ColorIndex
 90
      256
102
RTVSPost2010Prop51ColorRGB
 90
-16777216
102
RTVSPost2010PropOp51
 70
     0
102
RTVSPost2010Prop52
140
1.0
102
RTVSPost2010PropOp52
 70
     0
102
RTVSPost2010Prop53
 90
        2
102
RTVSPost2010PropOp53
 70
     1
102
RTVSPost2010Prop54
  1
strokes_ogs.tif
102
RTVSPost2010PropOp54
 70
     1
102
RTVSPost2010Prop55
280
     0
102
RTVSPost2010PropOp55
 70
     1
102
RTVSPost2010Prop56
140
1.0
102
RTVSPost2010PropOp56
 70
     1
102
RTVSPost2010Prop57
140
1.0
102
RTVSPost2010PropOp57
 70
     1
102
RTVSPropertyOp0
 70
     1
102
RTVSPropertyOp1
 70
     1
102
RTVSPropertyOp2
 70
     1
102
RTVSPropertyOp3
 70
     1
102
RTVSPropertyOp4
 70
     1
102
RTVSPropertyOp5
 70
     1
102
RTVSPropertyOp6
 70
     1
102
RTVSPropertyOp7
 70
     1
102
RTVSPropertyOp8
 70
     1
102
RTVSPropertyOp9
 70
     1
102
RTVSPropertyOp10
 70
     1
102
RTVSPropertyOp11
 70
     1
102
RTVSPropertyOp12
 70
     1
102
RTVSPropertyOp13
 70
     1
102
RTVSPropertyOp14
 70
     1
102
RTVSPropertyOp15
 70
     1
102
RTVSPropertyOp16
 70
     1
102
RTVSPropertyOp17
 70
     1
102
RTVSPropertyOp18
 70
     1
102
RTVSPropertyOp19
 70
     1
102
RTVSPropertyOp20
 70
     1
102
RTVSPropertyOp21
 70
     1
102
RTVSPropertyOp22
 70
     1
102
RTVSPropertyOp23
 70
     1
102
RTVSPropertyOp24
 70
     1
102
RTVSPropertyOp25
 70
     1
102
RTVSPropertyOp26
 70
     1
102
RTVSPropertyOp27
 70
     1
102
RTVSPropertyOp28
 70
     1
102
RTVSPropertyOp29
 70
     1
102
RTVSPropertyOp30
 70
     1
102
RTVSPropertyOp31
 70
     1
102
RTVSPropertyOp32
 70
     1
102
RTVSPropertyOp33
 70
     1
102
RTVSPropertyOp34
 70
     1
102
RTVSPropertyOp35
 70
     1
102
RTVSPropertyOp36
 70
     1
102
RTVSPropertyOp37
 70
     1
102
RTVSPropertyOp38
 70
     1
102
RTVSPropertyOp39
 70
     1
102
RTVSPropertyOp40
 70
     1
102
RTVSPropertyOp41
 70
     1
102
RTVSPropertyOp42
 70
     1
102
RTVSPropertyOp43
 70
     1
102
RTVSPropertyOp44
 70
     1
102
RTVSPropertyOp45
 70
     1
102
RTVSPropertyOp46
 70
     1
102
RTVSPropertyOp47
 70
     1
102
RTVSPropertyOp48
 70
     1
102
RTVSPropertyOp49
 70
     1
102
RTVSPropertyOp50
 70
     1
102
RTVSPropertyOp51
 70
     0
102
RTVSPropertyOp52
 70
     0
102
RTVSPropertyOp53
 70
     1
102
RTVSPropertyOp54
 70
     1
102
RTVSPropertyOp55
 70
     1
102
RTVSPropertyOp56
 70
     1
102
RTVSPropertyOp57
 70
     1
102
RTVSPropertyOp58
 70
     1
102
RTVSPropertyOp59
 70
     1
102
RTVSPropertyOp60
 70
     1
102
RTVSPropertyOp61
 70
     1
102
RTVSPropertyOp62
 70
     1
  0
XRECORD
  5
2E65E
102
{ACAD_REACTORS
330
2E65D
102
}
330
2E65D
100
AcDbXrecord
280
     1
102
RTVSPost2010Prop28
280
     0
102
RTVSPost2010PropOp28
 70
     1
102
RTVSPost2010Prop29
280
     1
102
RTVSPost2010PropOp29
 70
     1
102
RTVSPost2010Prop30
280
     1
102
RTVSPost2010PropOp30
 70
     1
102
RTVSPost2010Prop31
280
     0
102
RTVSPost2010PropOp31
 70
     1
102
RTVSPost2010Prop32
280
     0
102
RTVSPost2010PropOp32
 70
     1
102
RTVSPost2010Prop33
280
     0
102
RTVSPost2010PropOp33
 70
     1
102
RTVSPost2010Prop34
280
     0
102
RTVSPost2010PropOp34
 70
     1
102
RTVSPost2010Prop35
280
     0
102
RTVSPost2010PropOp35
 70
     1
102
RTVSPost2010Prop36
280
     0
102
RTVSPost2010PropOp36
 70
     1
102
RTVSPost2010Prop37
 90
       50
102
RTVSPost2010PropOp37
 70
     1
102
RTVSPost2010Prop38
140
0.0
102
RTVSPost2010PropOp38
 70
     1
102
RTVSPost2010Prop39
140
1.0
102
RTVSPost2010PropOp39
 70
     1
102
RTVSPost2010Prop40
 90
        0
102
RTVSPost2010PropOp40
 70
     1
102
RTVSPost2010Prop41ColorIndex
 90
       18
102
RTVSPost2010Prop41ColorRGB
 90
        0
102
RTVSPost2010PropOp41
 70
     1
102
RTVSPost2010Prop42
 90
       50
102
RTVSPost2010PropOp42
 70
     1
102
RTVSPost2010Prop43
 90
        3
102
RTVSPost2010PropOp43
 70
     1
102
RTVSPost2010Prop44ColorIndex
 90
        5
102
RTVSPost2010Prop44ColorRGB
 90
      255
102
RTVSPost2010PropOp44
 70
     1
102
RTVSPost2010Prop45
280
     0
102
RTVSPost2010PropOp45
 70
     1
102
RTVSPost2010Prop46
 90
       50
102
RTVSPost2010PropOp46
 70
     1
102
RTVSPost2010Prop47
 90
       50
102
RTVSPost2010PropOp47
 70
     1
102
RTVSPost2010Prop48
 90
       50
102
RTVSPost2010PropOp48
 70
     1
102
RTVSPost2010Prop49
280
     0
102
RTVSPost2010PropOp49
 70
     1
102
RTVSPost2010Prop50
 90
       50
102
RTVSPost2010PropOp50
 70
     1
102
RTVSPost2010Prop51ColorIndex
 90
      256
102
RTVSPost2010Prop51ColorRGB
 90
-16777216
102
RTVSPost2010PropOp51
 70
     0
102
RTVSPost2010Prop52
140
1.0
102
RTVSPost2010PropOp52
 70
     0
102
RTVSPost2010Prop53
 90
        2
102
RTVSPost2010PropOp53
 70
     1
102
RTVSPost2010Prop54
  1
strokes_ogs.tif
102
RTVSPost2010PropOp54
 70
     1
102
RTVSPost2010Prop55
280
     0
102
RTVSPost2010PropOp55
 70
     1
102
RTVSPost2010Prop56
140
1.0
102
RTVSPost2010PropOp56
 70
     1
102
RTVSPost2010Prop57
140
1.0
102
RTVSPost2010PropOp57
 70
     1
102
RTVSPropertyOp0
 70
     1
102
RTVSPropertyOp1
 70
     1
102
RTVSPropertyOp2
 70
     1
102
RTVSPropertyOp3
 70
     1
102
RTVSPropertyOp4
 70
     1
102
RTVSPropertyOp5
 70
     1
102
RTVSPropertyOp6
 70
     1
102
RTVSPropertyOp7
 70
     1
102
RTVSPropertyOp8
 70
     1
102
RTVSPropertyOp9
 70
     1
102
RTVSPropertyOp10
 70
     1
102
RTVSPropertyOp11
 70
     1
102
RTVSPropertyOp12
 70
     1
102
RTVSPropertyOp13
 70
     1
102
RTVSPropertyOp14
 70
     1
102
RTVSPropertyOp15
 70
     1
102
RTVSPropertyOp16
 70
     1
102
RTVSPropertyOp17
 70
     1
102
RTVSPropertyOp18
 70
     1
102
RTVSPropertyOp19
 70
     1
102
RTVSPropertyOp20
 70
     1
102
RTVSPropertyOp21
 70
     1
102
RTVSPropertyOp22
 70
     1
102
RTVSPropertyOp23
 70
     1
102
RTVSPropertyOp24
 70
     1
102
RTVSPropertyOp25
 70
     1
102
RTVSPropertyOp26
 70
     1
102
RTVSPropertyOp27
 70
     1
102
RTVSPropertyOp28
 70
     1
102
RTVSPropertyOp29
 70
     1
102
RTVSPropertyOp30
 70
     1
102
RTVSPropertyOp31
 70
     1
102
RTVSPropertyOp32
 70
     1
102
RTVSPropertyOp33
 70
     1
102
RTVSPropertyOp34
 70
     1
102
RTVSPropertyOp35
 70
     1
102
RTVSPropertyOp36
 70
     1
102
RTVSPropertyOp37
 70
     1
102
RTVSPropertyOp38
 70
     1
102
RTVSPropertyOp39
 70
     1
102
RTVSPropertyOp40
 70
     1
102
RTVSPropertyOp41
 70
     1
102
RTVSPropertyOp42
 70
     1
102
RTVSPropertyOp43
 70
     1
102
RTVSPropertyOp44
 70
     1
102
RTVSPropertyOp45
 70
     1
102
RTVSPropertyOp46
 70
     1
102
RTVSPropertyOp47
 70
     1
102
RTVSPropertyOp48
 70
     1
102
RTVSPropertyOp49
 70
     1
102
RTVSPropertyOp50
 70
     1
102
RTVSPropertyOp51
 70
     0
102
RTVSPropertyOp52
 70
     0
102
RTVSPropertyOp53
 70
     1
102
RTVSPropertyOp54
 70
     1
102
RTVSPropertyOp55
 70
     1
102
RTVSPropertyOp56
 70
     1
102
RTVSPropertyOp57
 70
     1
102
RTVSPropertyOp58
 70
     1
102
RTVSPropertyOp59
 70
     1
102
RTVSPropertyOp60
 70
     1
102
RTVSPropertyOp61
 70
     1
102
RTVSPropertyOp62
 70
     1
  0
XRECORD
  5
2E66D
102
{ACAD_REACTORS
330
2E66C
102
}
330
2E66C
100
AcDbXrecord
280
     1
102
RTVSPost2010Prop28
280
     0
102
RTVSPost2010PropOp28
 70
     1
102
RTVSPost2010Prop29
280
     1
102
RTVSPost2010PropOp29
 70
     1
102
RTVSPost2010Prop30
280
     1
102
RTVSPost2010PropOp30
 70
     1
102
RTVSPost2010Prop31
280
     0
102
RTVSPost2010PropOp31
 70
     1
102
RTVSPost2010Prop32
280
     0
102
RTVSPost2010PropOp32
 70
     1
102
RTVSPost2010Prop33
280
     0
102
RTVSPost2010PropOp33
 70
     1
102
RTVSPost2010Prop34
280
     0
102
RTVSPost2010PropOp34
 70
     1
102
RTVSPost2010Prop35
280
     0
102
RTVSPost2010PropOp35
 70
     1
102
RTVSPost2010Prop36
280
     0
102
RTVSPost2010PropOp36
 70
     1
102
RTVSPost2010Prop37
 90
       50
102
RTVSPost2010PropOp37
 70
     1
102
RTVSPost2010Prop38
140
0.0
102
RTVSPost2010PropOp38
 70
     1
102
RTVSPost2010Prop39
140
1.0
102
RTVSPost2010PropOp39
 70
     1
102
RTVSPost2010Prop40
 90
        0
102
RTVSPost2010PropOp40
 70
     1
102
RTVSPost2010Prop41ColorIndex
 90
       18
102
RTVSPost2010Prop41ColorRGB
 90
        0
102
RTVSPost2010PropOp41
 70
     1
102
RTVSPost2010Prop42
 90
       50
102
RTVSPost2010PropOp42
 70
     1
102
RTVSPost2010Prop43
 90
        3
102
RTVSPost2010PropOp43
 70
     1
102
RTVSPost2010Prop44ColorIndex
 90
        5
102
RTVSPost2010Prop44ColorRGB
 90
      255
102
RTVSPost2010PropOp44
 70
     1
102
RTVSPost2010Prop45
280
     0
102
RTVSPost2010PropOp45
 70
     1
102
RTVSPost2010Prop46
 90
       50
102
RTVSPost2010PropOp46
 70
     1
102
RTVSPost2010Prop47
 90
       50
102
RTVSPost2010PropOp47
 70
     1
102
RTVSPost2010Prop48
 90
       50
102
RTVSPost2010PropOp48
 70
     1
102
RTVSPost2010Prop49
280
     0
102
RTVSPost2010PropOp49
 70
     1
102
RTVSPost2010Prop50
 90
       50
102
RTVSPost2010PropOp50
 70
     1
102
RTVSPost2010Prop51ColorIndex
 90
      256
102
RTVSPost2010Prop51ColorRGB
 90
-16777216
102
RTVSPost2010PropOp51
 70
     0
102
RTVSPost2010Prop52
140
1.0
102
RTVSPost2010PropOp52
 70
     0
102
RTVSPost2010Prop53
 90
        2
102
RTVSPost2010PropOp53
 70
     1
102
RTVSPost2010Prop54
  1
strokes_ogs.tif
102
RTVSPost2010PropOp54
 70
     1
102
RTVSPost2010Prop55
280
     0
102
RTVSPost2010PropOp55
 70
     1
102
RTVSPost2010Prop56
140
1.0
102
RTVSPost2010PropOp56
 70
     1
102
RTVSPost2010Prop57
140
1.0
102
RTVSPost2010PropOp57
 70
     1
102
RTVSPropertyOp0
 70
     1
102
RTVSPropertyOp1
 70
     1
102
RTVSPropertyOp2
 70
     1
102
RTVSPropertyOp3
 70
     1
102
RTVSPropertyOp4
 70
     1
102
RTVSPropertyOp5
 70
     1
102
RTVSPropertyOp6
 70
     1
102
RTVSPropertyOp7
 70
     1
102
RTVSPropertyOp8
 70
     1
102
RTVSPropertyOp9
 70
     1
102
RTVSPropertyOp10
 70
     1
102
RTVSPropertyOp11
 70
     1
102
RTVSPropertyOp12
 70
     1
102
RTVSPropertyOp13
 70
     1
102
RTVSPropertyOp14
 70
     1
102
RTVSPropertyOp15
 70
     1
102
RTVSPropertyOp16
 70
     1
102
RTVSPropertyOp17
 70
     1
102
RTVSPropertyOp18
 70
     1
102
RTVSPropertyOp19
 70
     1
102
RTVSPropertyOp20
 70
     1
102
RTVSPropertyOp21
 70
     1
102
RTVSPropertyOp22
 70
     1
102
RTVSPropertyOp23
 70
     1
102
RTVSPropertyOp24
 70
     1
102
RTVSPropertyOp25
 70
     1
102
RTVSPropertyOp26
 70
     1
102
RTVSPropertyOp27
 70
     1
102
RTVSPropertyOp28
 70
     1
102
RTVSPropertyOp29
 70
     1
102
RTVSPropertyOp30
 70
     1
102
RTVSPropertyOp31
 70
     1
102
RTVSPropertyOp32
 70
     1
102
RTVSPropertyOp33
 70
     1
102
RTVSPropertyOp34
 70
     1
102
RTVSPropertyOp35
 70
     1
102
RTVSPropertyOp36
 70
     1
102
RTVSPropertyOp37
 70
     1
102
RTVSPropertyOp38
 70
     1
102
RTVSPropertyOp39
 70
     1
102
RTVSPropertyOp40
 70
     1
102
RTVSPropertyOp41
 70
     1
102
RTVSPropertyOp42
 70
     1
102
RTVSPropertyOp43
 70
     1
102
RTVSPropertyOp44
 70
     1
102
RTVSPropertyOp45
 70
     1
102
RTVSPropertyOp46
 70
     1
102
RTVSPropertyOp47
 70
     1
102
RTVSPropertyOp48
 70
     1
102
RTVSPropertyOp49
 70
     1
102
RTVSPropertyOp50
 70
     1
102
RTVSPropertyOp51
 70
     0
102
RTVSPropertyOp52
 70
     0
102
RTVSPropertyOp53
 70
     1
102
RTVSPropertyOp54
 70
     1
102
RTVSPropertyOp55
 70
     1
102
RTVSPropertyOp56
 70
     1
102
RTVSPropertyOp57
 70
     1
102
RTVSPropertyOp58
 70
     1
102
RTVSPropertyOp59
 70
     1
102
RTVSPropertyOp60
 70
     1
102
RTVSPropertyOp61
 70
     1
102
RTVSPropertyOp62
 70
     1
  0
XRECORD
  5
2E675
102
{ACAD_REACTORS
330
2E674
102
}
330
2E674
100
AcDbXrecord
280
     1
102
RTVSPost2010Prop28
280
     0
102
RTVSPost2010PropOp28
 70
     1
102
RTVSPost2010Prop29
280
     1
102
RTVSPost2010PropOp29
 70
     1
102
RTVSPost2010Prop30
280
     1
102
RTVSPost2010PropOp30
 70
     1
102
RTVSPost2010Prop31
280
     0
102
RTVSPost2010PropOp31
 70
     1
102
RTVSPost2010Prop32
280
     0
102
RTVSPost2010PropOp32
 70
     1
102
RTVSPost2010Prop33
280
     0
102
RTVSPost2010PropOp33
 70
     1
102
RTVSPost2010Prop34
280
     0
102
RTVSPost2010PropOp34
 70
     1
102
RTVSPost2010Prop35
280
     0
102
RTVSPost2010PropOp35
 70
     1
102
RTVSPost2010Prop36
280
     0
102
RTVSPost2010PropOp36
 70
     1
102
RTVSPost2010Prop37
 90
       50
102
RTVSPost2010PropOp37
 70
     1
102
RTVSPost2010Prop38
140
0.0
102
RTVSPost2010PropOp38
 70
     1
102
RTVSPost2010Prop39
140
1.0
102
RTVSPost2010PropOp39
 70
     1
102
RTVSPost2010Prop40
 90
        0
102
RTVSPost2010PropOp40
 70
     1
102
RTVSPost2010Prop41ColorIndex
 90
       18
102
RTVSPost2010Prop41ColorRGB
 90
        0
102
RTVSPost2010PropOp41
 70
     1
102
RTVSPost2010Prop42
 90
       50
102
RTVSPost2010PropOp42
 70
     1
102
RTVSPost2010Prop43
 90
        3
102
RTVSPost2010PropOp43
 70
     1
102
RTVSPost2010Prop44ColorIndex
 90
        5
102
RTVSPost2010Prop44ColorRGB
 90
      255
102
RTVSPost2010PropOp44
 70
     1
102
RTVSPost2010Prop45
280
     0
102
RTVSPost2010PropOp45
 70
     1
102
RTVSPost2010Prop46
 90
       50
102
RTVSPost2010PropOp46
 70
     1
102
RTVSPost2010Prop47
 90
       50
102
RTVSPost2010PropOp47
 70
     1
102
RTVSPost2010Prop48
 90
       50
102
RTVSPost2010PropOp48
 70
     1
102
RTVSPost2010Prop49
280
     0
102
RTVSPost2010PropOp49
 70
     1
102
RTVSPost2010Prop50
 90
       50
102
RTVSPost2010PropOp50
 70
     1
102
RTVSPost2010Prop51ColorIndex
 90
      256
102
RTVSPost2010Prop51ColorRGB
 90
-16777216
102
RTVSPost2010PropOp51
 70
     0
102
RTVSPost2010Prop52
140
1.0
102
RTVSPost2010PropOp52
 70
     0
102
RTVSPost2010Prop53
 90
        2
102
RTVSPost2010PropOp53
 70
     1
102
RTVSPost2010Prop54
  1
strokes_ogs.tif
102
RTVSPost2010PropOp54
 70
     1
102
RTVSPost2010Prop55
280
     0
102
RTVSPost2010PropOp55
 70
     1
102
RTVSPost2010Prop56
140
1.0
102
RTVSPost2010PropOp56
 70
     1
102
RTVSPost2010Prop57
140
1.0
102
RTVSPost2010PropOp57
 70
     1
102
RTVSPropertyOp0
 70
     1
102
RTVSPropertyOp1
 70
     1
102
RTVSPropertyOp2
 70
     1
102
RTVSPropertyOp3
 70
     1
102
RTVSPropertyOp4
 70
     1
102
RTVSPropertyOp5
 70
     1
102
RTVSPropertyOp6
 70
     1
102
RTVSPropertyOp7
 70
     1
102
RTVSPropertyOp8
 70
     1
102
RTVSPropertyOp9
 70
     1
102
RTVSPropertyOp10
 70
     1
102
RTVSPropertyOp11
 70
     1
102
RTVSPropertyOp12
 70
     1
102
RTVSPropertyOp13
 70
     1
102
RTVSPropertyOp14
 70
     1
102
RTVSPropertyOp15
 70
     1
102
RTVSPropertyOp16
 70
     1
102
RTVSPropertyOp17
 70
     1
102
RTVSPropertyOp18
 70
     1
102
RTVSPropertyOp19
 70
     1
102
RTVSPropertyOp20
 70
     1
102
RTVSPropertyOp21
 70
     1
102
RTVSPropertyOp22
 70
     1
102
RTVSPropertyOp23
 70
     1
102
RTVSPropertyOp24
 70
     1
102
RTVSPropertyOp25
 70
     1
102
RTVSPropertyOp26
 70
     1
102
RTVSPropertyOp27
 70
     1
102
RTVSPropertyOp28
 70
     1
102
RTVSPropertyOp29
 70
     1
102
RTVSPropertyOp30
 70
     1
102
RTVSPropertyOp31
 70
     1
102
RTVSPropertyOp32
 70
     1
102
RTVSPropertyOp33
 70
     1
102
RTVSPropertyOp34
 70
     1
102
RTVSPropertyOp35
 70
     1
102
RTVSPropertyOp36
 70
     1
102
RTVSPropertyOp37
 70
     1
102
RTVSPropertyOp38
 70
     1
102
RTVSPropertyOp39
 70
     1
102
RTVSPropertyOp40
 70
     1
102
RTVSPropertyOp41
 70
     1
102
RTVSPropertyOp42
 70
     1
102
RTVSPropertyOp43
 70
     1
102
RTVSPropertyOp44
 70
     1
102
RTVSPropertyOp45
 70
     1
102
RTVSPropertyOp46
 70
     1
102
RTVSPropertyOp47
 70
     1
102
RTVSPropertyOp48
 70
     1
102
RTVSPropertyOp49
 70
     1
102
RTVSPropertyOp50
 70
     1
102
RTVSPropertyOp51
 70
     0
102
RTVSPropertyOp52
 70
     0
102
RTVSPropertyOp53
 70
     1
102
RTVSPropertyOp54
 70
     1
102
RTVSPropertyOp55
 70
     1
102
RTVSPropertyOp56
 70
     1
102
RTVSPropertyOp57
 70
     1
102
RTVSPropertyOp58
 70
     1
102
RTVSPropertyOp59
 70
     1
102
RTVSPropertyOp60
 70
     1
102
RTVSPropertyOp61
 70
     1
102
RTVSPropertyOp62
 70
     1
  0
ENDSEC
  0
EOF
