  0
SECTION
  2
HEADER
  9
$ACADVER
  1
AC1015
  9
$ACADMAINTVER
 70
    20
  9
$DWGCODEPAGE
  3
ANSI_1252
  9
$INSBASE
 10
0.0
 20
0.0
 30
0.0
  9
$EXTMIN
 10
-42.65232673875561
 20
-55.0595081423636
 30
-0.0004360841336268
  9
$EXTMAX
 10
167.6137859851746
 20
28.10470654175697
 30
1.947189946025234
  9
$LIMMIN
 10
-170.0
 20
-170.0
  9
$LIMMAX
 10
519.0
 20
260.0
  9
$ORTHOMODE
 70
     0
  9
$REGENMODE
 70
     1
  9
$FILLMODE
 70
     1
  9
$QTEXTMODE
 70
     0
  9
$MIRRTEXT
 70
     0
  9
$LTSCALE
 40
1.0
  9
$ATTMODE
 70
     1
  9
$TEXTSIZE
 40
3.5
  9
$TRACEWID
 40
1.0
  9
$TEXTSTYLE
  7
SIMPLEX
  9
$CLAYER
  8
1
  9
$CELTYPE
  6
BYLAYER
  9
$CECOLOR
 62
   256
  9
$CELTSCALE
 40
1.0
  9
$DISPSILH
 70
     0
  9
$DIMSCALE
 40
1.0
  9
$DIMASZ
 40
2.5
  9
$DIMEXO
 40
0.0
  9
$DIMDLI
 40
3.75
  9
$DIMRND
 40
0.0
  9
$DIMDLE
 40
0.0
  9
$DIMEXE
 40
1.25
  9
$DIMTP
 40
0.0
  9
$DIMTM
 40
0.0
  9
$DIMTXT
 40
3.5
  9
$DIMCEN
 40
0.0
  9
$DIMTSZ
 40
0.0
  9
$DIMTOL
 70
     0
  9
$DIMLIM
 70
     0
  9
$DIMTIH
 70
     0
  9
$DIMTOH
 70
     0
  9
$DIMSE1
 70
     0
  9
$DIMSE2
 70
     0
  9
$DIMTAD
 70
     1
  9
$DIMZIN
 70
     8
  9
$DIMBLK
  1

  9
$DIMASO
 70
     1
  9
$DIMSHO
 70
     1
  9
$DIMPOST
  1

  9
$DIMAPOST
  1

  9
$DIMALT
 70
     0
  9
$DIMALTD
 70
     3
  9
$DIMALTF
 40
0.039370078
  9
$DIMLFAC
 40
1.0
  9
$DIMTOFL
 70
     0
  9
$DIMTVP
 40
0.0
  9
$DIMTIX
 70
     0
  9
$DIMSOXD
 70
     0
  9
$DIMSAH
 70
     0
  9
$DIMBLK1
  1

  9
$DIMBLK2
  1

  9
$DIMSTYLE
  2
SANDVIK_STYLE
  9
$DIMCLRD
 70
     0
  9
$DIMCLRE
 70
     0
  9
$DIMCLRT
 70
     0
  9
$DIMTFAC
 40
1.0
  9
$DIMGAP
 40
0.625
  9
$DIMJUST
 70
     0
  9
$DIMSD1
 70
     0
  9
$DIMSD2
 70
     0
  9
$DIMTOLJ
 70
     0
  9
$DIMTZIN
 70
     8
  9
$DIMALTZ
 70
     0
  9
$DIMALTTZ
 70
     0
  9
$DIMUPT
 70
     0
  9
$DIMDEC
 70
     2
  9
$DIMTDEC
 70
     2
  9
$DIMALTU
 70
     2
  9
$DIMALTTD
 70
     3
  9
$DIMTXSTY
  7
SIMPLEX
  9
$DIMAUNIT
 70
     0
  9
$DIMADEC
 70
     2
  9
$DIMALTRND
 40
0.0
  9
$DIMAZIN
 70
     2
  9
$DIMDSEP
 70
    46
  9
$DIMATFIT
 70
     3
  9
$DIMFRAC
 70
     0
  9
$DIMLDRBLK
  1

  9
$DIMLUNIT
 70
     2
  9
$DIMLWD
 70
    -2
  9
$DIMLWE
 70
    -2
  9
$DIMTMOVE
 70
     0
  9
$LUNITS
 70
     2
  9
$LUPREC
 70
     4
  9
$SKETCHINC
 40
1.0
  9
$FILLETRAD
 40
0.0
  9
$AUNITS
 70
     0
  9
$AUPREC
 70
     0
  9
$MENU
  1
c:\tdm21\cad\caduti13\tdm13
  9
$ELEVATION
 40
0.0
  9
$PELEVATION
 40
0.0
  9
$THICKNESS
 40
0.0
  9
$LIMCHECK
 70
     0
  9
$CHAMFERA
 40
0.0
  9
$CHAMFERB
 40
0.0
  9
$CHAMFERC
 40
0.0
  9
$CHAMFERD
 40
0.0
  9
$SKPOLY
 70
     0
  9
$TDCREATE
 40
2455883.643486840
  9
$TDUCREATE
 40
2455883.560153508
  9
$TDUPDATE
 40
2456817.856352373
  9
$TDUUPDATE
 40
2456817.773019039
  9
$TDINDWG
 40
0.0014661227
  9
$TDUSRTIMER
 40
0.0014660764
  9
$USRTIMER
 70
     1
  9
$ANGBASE
 50
0.0
  9
$ANGDIR
 70
     0
  9
$PDMODE
 70
     1
  9
$PDSIZE
 40
0.0
  9
$PLINEWID
 40
0.0
  9
$SPLFRAME
 70
     0
  9
$SPLINETYPE
 70
     6
  9
$SPLINESEGS
 70
     8
  9
$HANDSEED
  5
2D49A
  9
$SURFTAB1
 70
     6
  9
$SURFTAB2
 70
     6
  9
$SURFTYPE
 70
     6
  9
$SURFU
 70
     6
  9
$SURFV
 70
     6
  9
$UCSBASE
  2

  9
$UCSNAME
  2

  9
$UCSORG
 10
0.0
 20
0.0
 30
0.0
  9
$UCSXDIR
 10
1.0
 20
0.0
 30
0.0
  9
$UCSYDIR
 10
0.0
 20
1.0
 30
0.0
  9
$UCSORTHOREF
  2

  9
$UCSORTHOVIEW
 70
     0
  9
$UCSORGTOP
 10
0.0
 20
0.0
 30
0.0
  9
$UCSORGBOTTOM
 10
0.0
 20
0.0
 30
0.0
  9
$UCSORGLEFT
 10
0.0
 20
0.0
 30
0.0
  9
$UCSORGRIGHT
 10
0.0
 20
0.0
 30
0.0
  9
$UCSORGFRONT
 10
0.0
 20
0.0
 30
0.0
  9
$UCSORGBACK
 10
0.0
 20
0.0
 30
0.0
  9
$PUCSBASE
  2

  9
$PUCSNAME
  2

  9
$PUCSORG
 10
0.0
 20
0.0
 30
0.0
  9
$PUCSXDIR
 10
1.0
 20
0.0
 30
0.0
  9
$PUCSYDIR
 10
0.0
 20
1.0
 30
0.0
  9
$PUCSORTHOREF
  2

  9
$PUCSORTHOVIEW
 70
     0
  9
$PUCSORGTOP
 10
0.0
 20
0.0
 30
0.0
  9
$PUCSORGBOTTOM
 10
0.0
 20
0.0
 30
0.0
  9
$PUCSORGLEFT
 10
0.0
 20
0.0
 30
0.0
  9
$PUCSORGRIGHT
 10
0.0
 20
0.0
 30
0.0
  9
$PUCSORGFRONT
 10
0.0
 20
0.0
 30
0.0
  9
$PUCSORGBACK
 10
0.0
 20
0.0
 30
0.0
  9
$USERI1
 70
     0
  9
$USERI2
 70
     0
  9
$USERI3
 70
     0
  9
$USERI4
 70
     0
  9
$USERI5
 70
     0
  9
$USERR1
 40
0.0
  9
$USERR2
 40
0.0
  9
$USERR3
 40
0.0
  9
$USERR4
 40
0.0
  9
$USERR5
 40
0.0
  9
$WORLDVIEW
 70
     1
  9
$SHADEDGE
 70
     3
  9
$SHADEDIF
 70
    70
  9
$TILEMODE
 70
     1
  9
$MAXACTVP
 70
    64
  9
$PINSBASE
 10
0.0
 20
0.0
 30
0.0
  9
$PLIMCHECK
 70
     0
  9
$PEXTMIN
 10
0.0
 20
0.0
 30
0.0
  9
$PEXTMAX
 10
0.0
 20
0.0
 30
0.0
  9
$PLIMMIN
 10
0.0
 20
0.0
  9
$PLIMMAX
 10
12.0
 20
9.0
  9
$UNITMODE
 70
     0
  9
$VISRETAIN
 70
     0
  9
$PLINEGEN
 70
     0
  9
$PSLTSCALE
 70
     1
  9
$TREEDEPTH
 70
  3020
  9
$CMLSTYLE
  2
STANDARD
  9
$CMLJUST
 70
     0
  9
$CMLSCALE
 40
20.0
  9
$PROXYGRAPHICS
 70
     1
  9
$MEASUREMENT
 70
     1
  9
$CELWEIGHT
370
    -1
  9
$ENDCAPS
280
     0
  9
$JOINSTYLE
280
     0
  9
$LWDISPLAY
290
     0
  9
$INSUNITS
 70
     4
  9
$HYPERLINKBASE
  1

  9
$STYLESHEET
  1
MONOCHROME.CTB
  9
$XEDIT
290
     1
  9
$CEPSNTYPE
380
     0
  9
$PSTYLEMODE
290
     1
  9
$FINGERPRINTGUID
  2
{2541ECFD-A15C-4867-AF57-EDFAAE528261}
  9
$VERSIONGUID
  2
{A37DCA3E-DDFB-4020-BF9F-0E8CB03243A4}
  9
$EXTNAMES
290
     1
  9
$PSVPSCALE
 40
0.0
  9
$OLESTARTUP
290
     0
  0
ENDSEC
  0
SECTION
  2
CLASSES
  0
CLASS
  1
ACDBDICTIONARYWDFLT
  2
AcDbDictionaryWithDefault
  3
ObjectDBX Classes
 90
        0
280
     0
281
     0
  0
CLASS
  1
ACDBPLACEHOLDER
  2
AcDbPlaceHolder
  3
ObjectDBX Classes
 90
        0
280
     0
281
     0
  0
CLASS
  1
LAYOUT
  2
AcDbLayout
  3
ObjectDBX Classes
 90
        0
280
     0
281
     0
  0
CLASS
  1
DICTIONARYVAR
  2
AcDbDictionaryVar
  3
ObjectDBX Classes
 90
        0
280
     0
281
     0
  0
CLASS
  1
TABLESTYLE
  2
AcDbTableStyle
  3
ObjectDBX Classes
 90
     4095
280
     0
281
     0
  0
CLASS
  1
MATERIAL
  2
AcDbMaterial
  3
ObjectDBX Classes
 90
     1153
280
     0
281
     0
  0
CLASS
  1
VISUALSTYLE
  2
AcDbVisualStyle
  3
ObjectDBX Classes
 90
     4095
280
     0
281
     0
  0
CLASS
  1
SCALE
  2
AcDbScale
  3
ObjectDBX Classes
 90
     1153
280
     0
281
     0
  0
CLASS
  1
MLEADERSTYLE
  2
AcDbMLeaderStyle
  3
ACDB_MLEADERSTYLE_CLASS
 90
     4095
280
     0
281
     0
  0
CLASS
  1
CELLSTYLEMAP
  2
AcDbCellStyleMap
  3
ObjectDBX Classes
 90
     1152
280
     0
281
     0
  0
CLASS
  1
SORTENTSTABLE
  2
AcDbSortentsTable
  3
ObjectDBX Classes
 90
        0
280
     0
281
     0
  0
CLASS
  1
ACDBSECTIONVIEWSTYLE
  2
AcDbSectionViewStyle
  3
ObjectDBX Classes
 90
     1025
280
     0
281
     0
  0
CLASS
  1
ACDBDETAILVIEWSTYLE
  2
AcDbDetailViewStyle
  3
ObjectDBX Classes
 90
     1025
280
     0
281
     0
  0
CLASS
  1
EXACXREFPANELOBJECT
  2
ExAcXREFPanelObject
  3
EXAC_ESW
 90
     1025
280
     0
281
     0
  0
CLASS
  1
NPOCOLLECTION
  2
AcDbImpNonPersistentObjectsCollection
  3
ObjectDBX Classes
 90
     1153
280
     0
281
     0
  0
ENDSEC
  0
SECTION
  2
TABLES
  0
TABLE
  2
VPORT
  5
8
330
0
100
AcDbSymbolTable
 70
     1
  0
VPORT
  5
3ED
330
8
100
AcDbSymbolTableRecord
100
AcDbViewportTableRecord
  2
*Active
 70
     0
 10
0.0
 20
0.0
 11
1.0
 21
1.0
 12
62.48072962320954
 22
-13.47740080030331
 13
0.0
 23
0.0
 14
5.0
 24
5.0
 15
5.0
 25
5.0
 16
0.0
 26
0.0
 36
1.0
 17
0.0
 27
0.0
 37
0.0
 40
106.5414451161781
 41
2.2
 42
50.0
 43
0.0
 44
0.0
 50
0.0
 51
0.0
 71
     0
 72
  2000
 73
     1
 74
     1
 75
     0
 76
     0
 77
     0
 78
     0
281
     0
 65
     1
110
0.0
120
0.0
130
0.0
111
1.0
121
0.0
131
0.0
112
0.0
122
1.0
132
0.0
 79
     0
146
0.0
1001
ACAD_NAV_VCDISPLAY
1070
     3
  0
ENDTAB
  0
TABLE
  2
LTYPE
  5
5
330
0
100
AcDbSymbolTable
 70
    28
  0
LTYPE
  5
12
330
5
100
AcDbSymbolTableRecord
100
AcDbLinetypeTableRecord
  2
BYBLOCK
 70
     0
  3

 72
    65
 73
     0
 40
0.0
  0
LTYPE
  5
13
330
5
100
AcDbSymbolTableRecord
100
AcDbLinetypeTableRecord
  2
BYLAYER
 70
     0
  3

 72
    65
 73
     0
 40
0.0
  0
LTYPE
  5
14
330
5
100
AcDbSymbolTableRecord
100
AcDbLinetypeTableRecord
  2
CONTINUOUS
 70
     0
  3
Solid line
 72
    65
 73
     0
 40
0.0
  0
LTYPE
  5
2D0C0
330
5
100
AcDbSymbolTableRecord
100
AcDbLinetypeTableRecord
  2
BORDER
 70
     0
  3
__ __ . __ __ . __ __ . __ __ . __ __ . __ __ .
 72
    65
 73
     6
 40
44.45
 49
12.7
 74
     0
 49
-6.349999999999997
 74
     0
 49
12.7
 74
     0
 49
-6.349999999999997
 74
     0
 49
0.0
 74
     0
 49
-6.349999999999997
 74
     0
  0
LTYPE
  5
2D0C1
330
5
100
AcDbSymbolTableRecord
100
AcDbLinetypeTableRecord
  2
BORDER2
 70
     0
  3
__.__.__.__.__.__.__.__.__.__.__.__.__.__.__.__
 72
    65
 73
     6
 40
22.225
 49
6.349999999999997
 74
     0
 49
-3.174999999999998
 74
     0
 49
6.349999999999997
 74
     0
 49
-3.174999999999998
 74
     0
 49
0.0
 74
     0
 49
-3.174999999999998
 74
     0
  0
LTYPE
  5
2D0C2
330
5
100
AcDbSymbolTableRecord
100
AcDbLinetypeTableRecord
  2
BORDERX2
 70
     0
  3
____  ____  .  ____  ____  .  ____  ____  .  __
 72
    65
 73
     6
 40
88.9
 49
25.4
 74
     0
 49
-12.7
 74
     0
 49
25.4
 74
     0
 49
-12.7
 74
     0
 49
0.0
 74
     0
 49
-12.7
 74
     0
  0
LTYPE
  5
2D0C3
330
5
100
AcDbSymbolTableRecord
100
AcDbLinetypeTableRecord
  2
CENTER
 70
     0
  3
____ _ ____ _ ____ _ ____ _ ____ _ ____ _ ____ 
 72
    65
 73
     4
 40
50.8
 49
31.75
 74
     0
 49
-6.349999999999997
 74
     0
 49
6.349999999999997
 74
     0
 49
-6.349999999999997
 74
     0
  0
LTYPE
  5
2D0C4
330
5
100
AcDbSymbolTableRecord
100
AcDbLinetypeTableRecord
  2
CENTER2
 70
     0
  3
___ _ ___ _ ___ _ ___ _ ___ _ ___ _ ___ _ ___ _
 72
    65
 73
     4
 40
28.57499999999999
 49
19.05
 74
     0
 49
-3.174999999999998
 74
     0
 49
3.174999999999998
 74
     0
 49
-3.174999999999998
 74
     0
  0
LTYPE
  5
2D0C5
330
5
100
AcDbSymbolTableRecord
100
AcDbLinetypeTableRecord
  2
CENTERX2
 70
     0
  3
________  __  ________  __  ________  __  _____
 72
    65
 73
     4
 40
101.6
 49
63.5
 74
     0
 49
-12.7
 74
     0
 49
12.7
 74
     0
 49
-12.7
 74
     0
  0
LTYPE
  5
2D0C6
330
5
100
AcDbSymbolTableRecord
100
AcDbLinetypeTableRecord
  2
CENTRE
 70
     0
  3
____ _ ____ _ ____ _ ____ _ ____ _ ____ _ ____ 
 72
    65
 73
     4
 40
50.8
 49
31.75
 74
     0
 49
-6.349999999999997
 74
     0
 49
6.349999999999997
 74
     0
 49
-6.349999999999997
 74
     0
  0
LTYPE
  5
2D0C7
330
5
100
AcDbSymbolTableRecord
100
AcDbLinetypeTableRecord
  2
CENTRE2
 70
     0
  3
___ _ ___ _ ___ _ ___ _ ___ _ ___ _ ___ _ ___ _
 72
    65
 73
     4
 40
28.57499999999999
 49
19.05
 74
     0
 49
-3.174999999999998
 74
     0
 49
3.174999999999998
 74
     0
 49
-3.174999999999998
 74
     0
  0
LTYPE
  5
2D0C8
330
5
100
AcDbSymbolTableRecord
100
AcDbLinetypeTableRecord
  2
CENTREX2
 70
     0
  3
________  __  ________  __  ________  __  _____
 72
    65
 73
     4
 40
101.6
 49
63.5
 74
     0
 49
-12.7
 74
     0
 49
12.7
 74
     0
 49
-12.7
 74
     0
  0
LTYPE
  5
2D0C9
330
5
100
AcDbSymbolTableRecord
100
AcDbLinetypeTableRecord
  2
DASHDOT
 70
     0
  3
__ . __ . __ . __ . __ . __ . __ . __ . __ . __
 72
    65
 73
     4
 40
25.4
 49
12.7
 74
     0
 49
-6.349999999999997
 74
     0
 49
0.0
 74
     0
 49
-6.349999999999997
 74
     0
  0
LTYPE
  5
2D0CA
330
5
100
AcDbSymbolTableRecord
100
AcDbLinetypeTableRecord
  2
DASHDOT2
 70
     0
  3
_._._._._._._._._._._._._._._._._._._._._._._._
 72
    65
 73
     4
 40
12.7
 49
6.349999999999997
 74
     0
 49
-3.174999999999998
 74
     0
 49
0.0
 74
     0
 49
-3.174999999999998
 74
     0
  0
LTYPE
  5
2D0CB
330
5
100
AcDbSymbolTableRecord
100
AcDbLinetypeTableRecord
  2
DASHDOTX2
 70
     0
  3
____  .  ____  .  ____  .  ____  .  ____  .  __
 72
    65
 73
     4
 40
50.8
 49
25.4
 74
     0
 49
-12.7
 74
     0
 49
0.0
 74
     0
 49
-12.7
 74
     0
  0
LTYPE
  5
2D0CC
330
5
100
AcDbSymbolTableRecord
100
AcDbLinetypeTableRecord
  2
DASHED
 70
     0
  3
__ __ __ __ __ __ __ __ __ __ __ __ __ __ __ __
 72
    65
 73
     2
 40
19.05
 49
12.7
 74
     0
 49
-6.349999999999997
 74
     0
  0
LTYPE
  5
2D0CD
330
5
100
AcDbSymbolTableRecord
100
AcDbLinetypeTableRecord
  2
DASHED2
 70
     0
  3
_ _ _ _ _ _ _ _ _ _ _ _ _ _ _ _ _ _ _ _ _ _ _ _
 72
    65
 73
     2
 40
9.525
 49
6.349999999999997
 74
     0
 49
-3.174999999999998
 74
     0
  0
LTYPE
  5
2D0CE
330
5
100
AcDbSymbolTableRecord
100
AcDbLinetypeTableRecord
  2
DASHEDX2
 70
     0
  3
____  ____  ____  ____  ____  ____  ____  ____ 
 72
    65
 73
     2
 40
38.1
 49
25.4
 74
     0
 49
-12.7
 74
     0
  0
LTYPE
  5
2D0CF
330
5
100
AcDbSymbolTableRecord
100
AcDbLinetypeTableRecord
  2
DIVIDE
 70
     0
  3
____ . . ____ . . ____ . . ____ . . ____ . . __
 72
    65
 73
     6
 40
31.75
 49
12.7
 74
     0
 49
-6.349999999999997
 74
     0
 49
0.0
 74
     0
 49
-6.349999999999997
 74
     0
 49
0.0
 74
     0
 49
-6.349999999999997
 74
     0
  0
LTYPE
  5
2D0D0
330
5
100
AcDbSymbolTableRecord
100
AcDbLinetypeTableRecord
  2
DIVIDE2
 70
     0
  3
__..__..__..__..__..__..__..__..__..__..__..__.
 72
    65
 73
     6
 40
15.875
 49
6.349999999999997
 74
     0
 49
-3.174999999999998
 74
     0
 49
0.0
 74
     0
 49
-3.174999999999998
 74
     0
 49
0.0
 74
     0
 49
-3.174999999999998
 74
     0
  0
LTYPE
  5
2D0D1
330
5
100
AcDbSymbolTableRecord
100
AcDbLinetypeTableRecord
  2
DIVIDEX2
 70
     0
  3
________  .  .  ________  .  .  ________  .  . 
 72
    65
 73
     6
 40
63.5
 49
25.4
 74
     0
 49
-12.7
 74
     0
 49
0.0
 74
     0
 49
-12.7
 74
     0
 49
0.0
 74
     0
 49
-12.7
 74
     0
  0
LTYPE
  5
2D0D2
330
5
100
AcDbSymbolTableRecord
100
AcDbLinetypeTableRecord
  2
DOT
 70
     0
  3
. . . . . . . . . . . . . . . . . . . . . . . .
 72
    65
 73
     2
 40
6.349999999999997
 49
0.0
 74
     0
 49
-6.349999999999997
 74
     0
  0
LTYPE
  5
2D0D3
330
5
100
AcDbSymbolTableRecord
100
AcDbLinetypeTableRecord
  2
DOT2
 70
     0
  3
...............................................
 72
    65
 73
     2
 40
3.174999999999998
 49
0.0
 74
     0
 49
-3.174999999999998
 74
     0
  0
LTYPE
  5
2D0D4
330
5
100
AcDbSymbolTableRecord
100
AcDbLinetypeTableRecord
  2
DOTX2
 70
     0
  3
.  .  .  .  .  .  .  .  .  .  .  .  .  .  .  . 
 72
    65
 73
     2
 40
12.7
 49
0.0
 74
     0
 49
-12.7
 74
     0
  0
LTYPE
  5
2D0D5
330
5
100
AcDbSymbolTableRecord
100
AcDbLinetypeTableRecord
  2
HIDDEN
 70
     0
  3
__ __ __ __ __ __ __ __ __ __ __ __ __ __ __ __
 72
    65
 73
     2
 40
9.525
 49
6.349999999999997
 74
     0
 49
-3.174999999999998
 74
     0
  0
LTYPE
  5
2D0D6
330
5
100
AcDbSymbolTableRecord
100
AcDbLinetypeTableRecord
  2
HIDDEN2
 70
     0
  3
_ _ _ _ _ _ _ _ _ _ _ _ _ _ _ _ _ _ _ _ _ _ _ _
 72
    65
 73
     2
 40
4.7625
 49
3.174999999999998
 74
     0
 49
-1.587499999999999
 74
     0
  0
LTYPE
  5
2D0D7
330
5
100
AcDbSymbolTableRecord
100
AcDbLinetypeTableRecord
  2
HIDDENX2
 70
     0
  3
____ ____ ____ ____ ____ ____ ____ ____ ____ __
 72
    65
 73
     2
 40
19.05
 49
12.7
 74
     0
 49
-6.349999999999997
 74
     0
  0
LTYPE
  5
2D0D8
330
5
100
AcDbSymbolTableRecord
100
AcDbLinetypeTableRecord
  2
PHANTOM
 70
     0
  3
______  __  __  ______  __  __  ______  __  __ 
 72
    65
 73
     6
 40
63.5
 49
31.75
 74
     0
 49
-6.349999999999997
 74
     0
 49
6.349999999999997
 74
     0
 49
-6.349999999999997
 74
     0
 49
6.349999999999997
 74
     0
 49
-6.349999999999997
 74
     0
  0
LTYPE
  5
2D0D9
330
5
100
AcDbSymbolTableRecord
100
AcDbLinetypeTableRecord
  2
PHANTOM2
 70
     0
  3
___ _ _ ___ _ _ ___ _ _ ___ _ _ ___ _ _ ___ _ _
 72
    65
 73
     6
 40
31.75
 49
15.875
 74
     0
 49
-3.174999999999998
 74
     0
 49
3.174999999999998
 74
     0
 49
-3.174999999999998
 74
     0
 49
3.174999999999998
 74
     0
 49
-3.174999999999998
 74
     0
  0
LTYPE
  5
2D0DA
330
5
100
AcDbSymbolTableRecord
100
AcDbLinetypeTableRecord
  2
PHANTOMX2
 70
     0
  3
____________    ____    ____    ____________   
 72
    65
 73
     6
 40
127.0
 49
63.5
 74
     0
 49
-12.7
 74
     0
 49
12.7
 74
     0
 49
-12.7
 74
     0
 49
12.7
 74
     0
 49
-12.7
 74
     0
  0
ENDTAB
  0
TABLE
  2
LAYER
  5
2
330
0
100
AcDbSymbolTable
 70
    25
  0
LAYER
  5
F
102
{ACAD_XDICTIONARY
360
2D427
102
}
330
2
100
AcDbSymbolTableRecord
100
AcDbLayerTableRecord
  2
0
 70
     0
 62
     7
  6
CONTINUOUS
370
    -3
390
300
  0
LAYER
  5
23
102
{ACAD_XDICTIONARY
360
2D429
102
}
330
2
100
AcDbSymbolTableRecord
100
AcDbLayerTableRecord
  2
1
 70
     0
 62
     4
  6
CONTINUOUS
370
    -3
390
300
  0
LAYER
  5
2D0DB
102
{ACAD_XDICTIONARY
360
2D42B
102
}
330
2
100
AcDbSymbolTableRecord
100
AcDbLayerTableRecord
  2
2
 70
     0
 62
     7
  6
CONTINUOUS
370
    -3
390
300
  0
LAYER
  5
2D0DC
330
2
100
AcDbSymbolTableRecord
100
AcDbLayerTableRecord
  2
DEFPOINTS
 70
     0
 62
     7
  6
CONTINUOUS
290
     0
370
    -3
390
300
  0
LAYER
  5
2D0DD
102
{ACAD_XDICTIONARY
360
2D42D
102
}
330
2
100
AcDbSymbolTableRecord
100
AcDbLayerTableRecord
  2
IGES_FRZ
 70
     0
 62
     7
  6
CONTINUOUS
370
    -3
390
300
  0
LAYER
  5
2D0DE
102
{ACAD_XDICTIONARY
360
2D42F
102
}
330
2
100
AcDbSymbolTableRecord
100
AcDbLayerTableRecord
  2
95
 70
     0
 62
     7
  6
CONTINUOUS
370
    -3
390
300
  0
LAYER
  5
2D0DF
102
{ACAD_XDICTIONARY
360
2D431
102
}
330
2
100
AcDbSymbolTableRecord
100
AcDbLayerTableRecord
  2
95_TOP
 70
     0
 62
     7
  6
CONTINUOUS
370
    -3
390
300
  0
LAYER
  5
2D0E0
102
{ACAD_XDICTIONARY
360
2D433
102
}
330
2
100
AcDbSymbolTableRecord
100
AcDbLayerTableRecord
  2
90
 70
     0
 62
     7
  6
CONTINUOUS
370
    -3
390
300
  0
LAYER
  5
2D0E1
102
{ACAD_XDICTIONARY
360
2D435
102
}
330
2
100
AcDbSymbolTableRecord
100
AcDbLayerTableRecord
  2
90_TOP
 70
     0
 62
     7
  6
CONTINUOUS
370
    -3
390
300
  0
LAYER
  5
2D0E2
102
{ACAD_XDICTIONARY
360
2D437
102
}
330
2
100
AcDbSymbolTableRecord
100
AcDbLayerTableRecord
  2
91
 70
     0
 62
     7
  6
CONTINUOUS
370
    -3
390
300
  0
LAYER
  5
2D0E3
102
{ACAD_XDICTIONARY
360
2D439
102
}
330
2
100
AcDbSymbolTableRecord
100
AcDbLayerTableRecord
  2
91_TOP
 70
     0
 62
     7
  6
CONTINUOUS
370
    -3
390
300
  0
LAYER
  5
2D0E4
102
{ACAD_XDICTIONARY
360
2D43B
102
}
330
2
100
AcDbSymbolTableRecord
100
AcDbLayerTableRecord
  2
IGES
 70
     0
 62
     7
  6
CONTINUOUS
370
    -3
390
300
  0
LAYER
  5
2D0E5
102
{ACAD_XDICTIONARY
360
2D43D
102
}
330
2
100
AcDbSymbolTableRecord
100
AcDbLayerTableRecord
  2
11
 70
     0
 62
     4
  6
CONTINUOUS
370
    -3
390
300
  0
LAYER
  5
2D0E6
102
{ACAD_XDICTIONARY
360
2D43F
102
}
330
2
100
AcDbSymbolTableRecord
100
AcDbLayerTableRecord
  2
20
 70
     0
 62
     7
  6
CONTINUOUS
370
    -3
390
300
  0
LAYER
  5
2D0E7
102
{ACAD_XDICTIONARY
360
2D441
102
}
330
2
100
AcDbSymbolTableRecord
100
AcDbLayerTableRecord
  2
12
 70
     0
 62
     7
  6
CONTINUOUS
370
    -3
390
300
  0
LAYER
  5
2D0E8
102
{ACAD_XDICTIONARY
360
2D443
102
}
330
2
100
AcDbSymbolTableRecord
100
AcDbLayerTableRecord
  2
3
 70
     0
 62
     1
  6
HIDDEN
370
    -3
390
300
  0
LAYER
  5
2D0E9
102
{ACAD_XDICTIONARY
360
2D445
102
}
330
2
100
AcDbSymbolTableRecord
100
AcDbLayerTableRecord
  2
13
 70
     0
 62
     1
  6
HIDDEN
370
    -3
390
300
  0
LAYER
  5
2D0EA
102
{ACAD_XDICTIONARY
360
2D447
102
}
330
2
100
AcDbSymbolTableRecord
100
AcDbLayerTableRecord
  2
4
 70
     0
 62
     2
  6
CENTER
370
    -3
390
300
  0
LAYER
  5
2D0EB
102
{ACAD_XDICTIONARY
360
2D449
102
}
330
2
100
AcDbSymbolTableRecord
100
AcDbLayerTableRecord
  2
14
 70
     0
 62
     2
  6
CENTER
370
    -3
390
300
  0
LAYER
  5
2D0EC
102
{ACAD_XDICTIONARY
360
2D44B
102
}
330
2
100
AcDbSymbolTableRecord
100
AcDbLayerTableRecord
  2
5
 70
     0
 62
    -7
  6
CONTINUOUS
370
    -3
390
300
  0
LAYER
  5
2D0ED
102
{ACAD_XDICTIONARY
360
2D44D
102
}
330
2
100
AcDbSymbolTableRecord
100
AcDbLayerTableRecord
  2
6
 70
     0
 62
     5
  6
CONTINUOUS
370
    -3
390
300
  0
LAYER
  5
2D0EE
102
{ACAD_XDICTIONARY
360
2D44F
102
}
330
2
100
AcDbSymbolTableRecord
100
AcDbLayerTableRecord
  2
16
 70
     0
 62
     5
  6
CONTINUOUS
370
    -3
390
300
  0
LAYER
  5
2D0EF
102
{ACAD_XDICTIONARY
360
2D451
102
}
330
2
100
AcDbSymbolTableRecord
100
AcDbLayerTableRecord
  2
80
 70
     0
 62
     2
  6
CENTER
370
    -3
390
300
  0
LAYER
  5
2D0F0
102
{ACAD_XDICTIONARY
360
2D453
102
}
330
2
100
AcDbSymbolTableRecord
100
AcDbLayerTableRecord
  2
81
 70
     0
 62
     2
  6
CENTER
370
    -3
390
300
  0
LAYER
  5
2D0F1
102
{ACAD_XDICTIONARY
360
2D455
102
}
330
2
100
AcDbSymbolTableRecord
100
AcDbLayerTableRecord
  2
82
 70
     0
 62
     2
  6
CENTER
370
    -3
390
300
  0
ENDTAB
  0
TABLE
  2
STYLE
  5
3
330
0
100
AcDbSymbolTable
 70
     5
  0
STYLE
  5
10
330
3
100
AcDbSymbolTableRecord
100
AcDbTextStyleTableRecord
  2
STANDARD
 70
     0
 40
0.0
 41
1.0
 50
0.0
 71
     0
 42
5.0
  3
txt
  4

  0
STYLE
  5
1E
330
3
100
AcDbSymbolTableRecord
100
AcDbTextStyleTableRecord
  2
SIMPLEX
 70
     0
 40
0.0
 41
1.0
 50
0.0
 71
     0
 42
3.5
  3
simplex
  4

  0
STYLE
  5
2D0F2
330
3
100
AcDbSymbolTableRecord
100
AcDbTextStyleTableRecord
  2
Annotative
 70
     0
 40
0.0
 41
1.0
 50
0.0
 71
     0
 42
0.2
  3
txt
  4

1001
AcadAnnotative
1000
AnnotativeData
1002
{
1070
     1
1070
     1
1002
}
  0
STYLE
  5
2D0F3
330
3
100
AcDbSymbolTableRecord
100
AcDbTextStyleTableRecord
  2
TDM_STYLE
 70
     0
 40
0.0
 41
1.0
 50
0.0
 71
     0
 42
0.2
  3
txt
  4

  0
STYLE
  5
2D0F4
330
3
100
AcDbSymbolTableRecord
100
AcDbTextStyleTableRecord
  2
SANDVIK_STYLE
 70
     0
 40
4.57
 41
1.0
 50
15.0
 71
     0
 42
4.57
  3
simplex.shx
  4

  0
ENDTAB
  0
TABLE
  2
VIEW
  5
6
330
0
100
AcDbSymbolTable
 70
     0
  0
ENDTAB
  0
TABLE
  2
UCS
  5
7
330
0
100
AcDbSymbolTable
 70
     0
  0
ENDTAB
  0
TABLE
  2
APPID
  5
9
330
0
100
AcDbSymbolTable
 70
    11
  0
APPID
  5
11
330
9
100
AcDbSymbolTableRecord
100
AcDbRegAppTableRecord
  2
ACAD
 70
     0
  0
APPID
  5
3A6
330
9
100
AcDbSymbolTableRecord
100
AcDbRegAppTableRecord
  2
ACAD_PSEXT
 70
     0
  0
APPID
  5
3A8
330
9
100
AcDbSymbolTableRecord
100
AcDbRegAppTableRecord
  2
ACAD_EXEMPT_FROM_CAD_STANDARDS
 70
     0
  0
APPID
  5
43E
330
9
100
AcDbSymbolTableRecord
100
AcDbRegAppTableRecord
  2
ACAD_MLEADERVER
 70
     0
  0
APPID
  5
454
330
9
100
AcDbSymbolTableRecord
100
AcDbRegAppTableRecord
  2
ACAD_DSTYLE_DIMJAG
 70
     0
  0
APPID
  5
455
330
9
100
AcDbSymbolTableRecord
100
AcDbRegAppTableRecord
  2
ACAD_DSTYLE_DIMBREAK
 70
     0
  0
APPID
  5
456
330
9
100
AcDbSymbolTableRecord
100
AcDbRegAppTableRecord
  2
ACAD_DSTYLE_DIMTALN
 70
     0
  0
APPID
  5
58A
330
9
100
AcDbSymbolTableRecord
100
AcDbRegAppTableRecord
  2
AcadAnnotative
 70
     0
  0
APPID
  5
58B
330
9
100
AcDbSymbolTableRecord
100
AcDbRegAppTableRecord
  2
ACADIGES
 70
     0
  0
APPID
  5
58C
330
9
100
AcDbSymbolTableRecord
100
AcDbRegAppTableRecord
  2
ACAD_DSTYLE_DIMJOGGED_JOGANGLE_SYMBOL
 70
     0
  0
APPID
  5
2D45A
330
9
100
AcDbSymbolTableRecord
100
AcDbRegAppTableRecord
  2
ACAD_NAV_VCDISPLAY
 70
     0
  0
ENDTAB
  0
TABLE
  2
DIMSTYLE
  5
A
330
0
100
AcDbSymbolTable
 70
     5
100
AcDbDimStyleTable
 71
     1
340
457
  0
DIMSTYLE
105
457
102
{ACAD_REACTORS
330
2D365
330
2D364
330
2D363
330
2D362
330
2D361
330
2D360
102
}
330
A
100
AcDbSymbolTableRecord
100
AcDbDimStyleTableRecord
  2
SANDVIK_STYLE
 70
     0
 41
2.5
 42
0.0
 43
3.75
 44
1.25
 73
     0
 74
     0
 77
     1
 78
     8
 79
     2
140
3.5
141
0.0
143
0.039370078
147
0.625
171
     3
179
     2
271
     2
272
     2
274
     3
283
     0
284
     8
340
1E
1001
ACAD_DSTYLE_DIMBREAK
1070
   391
1040
3.75
1001
ACAD_DSTYLE_DIMJAG
1070
   388
1040
1.5
1001
ACAD_DSTYLE_DIMTALN
1070
   392
1070
     0
  0
DIMSTYLE
105
2D0F5
330
A
100
AcDbSymbolTableRecord
100
AcDbDimStyleTableRecord
  2
ISO-25
 70
     0
 41
2.5
 42
0.625
 43
3.75
 44
1.25
 73
     0
 74
     0
 77
     1
 78
     8
140
2.5
141
2.5
143
0.03937007874016
147
0.625
171
     3
172
     1
271
     2
272
     2
274
     3
278
    44
283
     0
284
     8
340
10
1001
ACAD_DSTYLE_DIMJOGGED_JOGANGLE_SYMBOL
1070
   384
1040
1.570796326794896
  0
DIMSTYLE
105
2D0F6
330
A
100
AcDbSymbolTableRecord
100
AcDbDimStyleTableRecord
  2
STANDARD
 70
     0
 41
3.0
 42
2.5
 43
10.0
 44
2.5
 46
1.25
 73
     0
 74
     0
140
3.0
141
-3.0
143
0.039
145
1.5
146
0.75
147
1.5
271
     2
272
     2
279
     2
340
2D0F3
  0
DIMSTYLE
105
2D0F7
330
A
100
AcDbSymbolTableRecord
100
AcDbDimStyleTableRecord
  2
Annotative
 70
     0
340
10
1001
AcadAnnotative
1000
AnnotativeData
1002
{
1070
     1
1070
     1
1002
}
  0
DIMSTYLE
105
2D0F8
330
A
100
AcDbSymbolTableRecord
100
AcDbDimStyleTableRecord
  2
SANDVIK_DIM
 70
     0
 41
3.0
 42
2.5
 43
10.0
 44
2.5
 46
1.25
 73
     0
 74
     0
140
3.0
141
-3.0
143
0.039
145
1.5
146
0.75
147
1.5
176
   256
177
   256
178
   256
271
     2
272
     2
279
     2
340
2D0F3
  0
ENDTAB
  0
TABLE
  2
BLOCK_RECORD
  5
1
330
0
100
AcDbSymbolTable
 70
    31
  0
BLOCK_RECORD
  5
18
330
1
100
AcDbSymbolTableRecord
100
AcDbBlockTableRecord
  2
*MODEL_SPACE
340
303
  0
BLOCK_RECORD
  5
338
330
1
100
AcDbSymbolTableRecord
100
AcDbBlockTableRecord
  2
*Paper_Space
340
33B
  0
BLOCK_RECORD
  5
2CF6E
330
1
100
AcDbSymbolTableRecord
100
AcDbBlockTableRecord
  2
$MODEL_SPACE
340
0
  0
BLOCK_RECORD
  5
2CF71
330
1
100
AcDbSymbolTableRecord
100
AcDbBlockTableRecord
  2
$PAPER_SPACE
340
0
  0
BLOCK_RECORD
  5
2CF74
330
1
100
AcDbSymbolTableRecord
100
AcDbBlockTableRecord
  2
IGES_214_02
340
0
102
{BLKREFS
331
2CF7C
331
2CF7E
331
2CF86
331
2CF88
331
2CF90
331
2CF92
331
2CF9A
331
2CF9C
331
2CFA4
331
2CFA6
331
2CFAE
331
2CFB0
102
}
  0
BLOCK_RECORD
  5
2CF79
330
1
100
AcDbSymbolTableRecord
100
AcDbBlockTableRecord
  2
*U3
340
0
  0
BLOCK_RECORD
  5
2CF83
330
1
100
AcDbSymbolTableRecord
100
AcDbBlockTableRecord
  2
*U4
340
0
  0
BLOCK_RECORD
  5
2CF8D
330
1
100
AcDbSymbolTableRecord
100
AcDbBlockTableRecord
  2
*U5
340
0
  0
BLOCK_RECORD
  5
2CF97
330
1
100
AcDbSymbolTableRecord
100
AcDbBlockTableRecord
  2
*U6
340
0
  0
BLOCK_RECORD
  5
2CFA1
330
1
100
AcDbSymbolTableRecord
100
AcDbBlockTableRecord
  2
*U7
340
0
  0
BLOCK_RECORD
  5
2CFAB
330
1
100
AcDbSymbolTableRecord
100
AcDbBlockTableRecord
  2
*U8
340
0
  0
BLOCK_RECORD
  5
2CFB5
330
1
100
AcDbSymbolTableRecord
100
AcDbBlockTableRecord
  2
DVIEWBLOCK
340
0
  0
BLOCK_RECORD
  5
2CFCB
330
1
100
AcDbSymbolTableRecord
100
AcDbBlockTableRecord
  2
*D10
340
0
  0
BLOCK_RECORD
  5
2CFD7
330
1
100
AcDbSymbolTableRecord
100
AcDbBlockTableRecord
  2
*D11
340
0
  0
BLOCK_RECORD
  5
2CFE3
330
1
100
AcDbSymbolTableRecord
100
AcDbBlockTableRecord
  2
*D12
340
0
  0
BLOCK_RECORD
  5
2CFEF
330
1
100
AcDbSymbolTableRecord
100
AcDbBlockTableRecord
  2
*D13
340
0
  0
BLOCK_RECORD
  5
2CFFB
330
1
100
AcDbSymbolTableRecord
100
AcDbBlockTableRecord
  2
*D14
340
0
  0
BLOCK_RECORD
  5
2D007
330
1
100
AcDbSymbolTableRecord
100
AcDbBlockTableRecord
  2
*D15
340
0
  0
BLOCK_RECORD
  5
2D016
330
1
100
AcDbSymbolTableRecord
100
AcDbBlockTableRecord
  2
*D16
340
0
  0
BLOCK_RECORD
  5
2D022
330
1
100
AcDbSymbolTableRecord
100
AcDbBlockTableRecord
  2
*D17
340
0
  0
BLOCK_RECORD
  5
2D02E
330
1
100
AcDbSymbolTableRecord
100
AcDbBlockTableRecord
  2
*D18
340
0
  0
BLOCK_RECORD
  5
2D03A
330
1
100
AcDbSymbolTableRecord
100
AcDbBlockTableRecord
  2
*U19
340
0
102
{BLKREFS
331
2D033
102
}
  0
BLOCK_RECORD
  5
2D03F
330
1
100
AcDbSymbolTableRecord
100
AcDbBlockTableRecord
  2
*D20
340
0
  0
BLOCK_RECORD
  5
2D04B
330
1
100
AcDbSymbolTableRecord
100
AcDbBlockTableRecord
  2
*D21
340
0
  0
BLOCK_RECORD
  5
2D057
330
1
100
AcDbSymbolTableRecord
100
AcDbBlockTableRecord
  2
*D22
340
0
  0
BLOCK_RECORD
  5
2D066
330
1
100
AcDbSymbolTableRecord
100
AcDbBlockTableRecord
  2
*D23
340
0
  0
BLOCK_RECORD
  5
2D072
330
1
100
AcDbSymbolTableRecord
100
AcDbBlockTableRecord
  2
*D24
340
0
  0
BLOCK_RECORD
  5
2D07E
330
1
100
AcDbSymbolTableRecord
100
AcDbBlockTableRecord
  2
*D25
340
0
  0
BLOCK_RECORD
  5
2D08A
330
1
100
AcDbSymbolTableRecord
100
AcDbBlockTableRecord
  2
*D26
340
0
  0
BLOCK_RECORD
  5
2D097
330
1
100
AcDbSymbolTableRecord
100
AcDbBlockTableRecord
  2
*D27
340
0
  0
BLOCK_RECORD
  5
2D0A4
330
1
100
AcDbSymbolTableRecord
100
AcDbBlockTableRecord
  2
*D28
340
0
  0
BLOCK_RECORD
  5
2D0B3
102
{ACAD_XDICTIONARY
360
2D0B4
102
}
330
1
100
AcDbSymbolTableRecord
100
AcDbBlockTableRecord
  2
_Zeropoint.dwg
340
0
102
{BLKREFS
331
2D0BE
102
}
  0
BLOCK_RECORD
  5
2D0BC
330
1
100
AcDbSymbolTableRecord
100
AcDbBlockTableRecord
  2
_nullpunkt
340
0
102
{BLKREFS
331
2D368
102
}
1001
ACAD
1000
DesignCenter Data
1002
{
1070
     1
1070
     4
1002
}
  0
ENDTAB
  0
ENDSEC
  0
SECTION
  2
BLOCKS
  0
BLOCK
  5
32
330
18
100
AcDbEntity
  8
0
100
AcDbBlockBegin
  2
*MODEL_SPACE
 70
     0
 10
0.0
 20
0.0
 30
0.0
  3
*MODEL_SPACE
  1

  0
ENDBLK
  5
33
330
18
100
AcDbEntity
  8
0
100
AcDbBlockEnd
  0
BLOCK
  5
339
330
338
100
AcDbEntity
 67
     1
  8
0
100
AcDbBlockBegin
  2
*Paper_Space
 70
     0
 10
0.0
 20
0.0
 30
0.0
  3
*Paper_Space
  1

  0
ENDBLK
  5
33A
330
338
100
AcDbEntity
 67
     1
  8
0
100
AcDbBlockEnd
  0
BLOCK
  5
2CF6F
330
2CF6E
100
AcDbEntity
  8
0
100
AcDbBlockBegin
  2
$MODEL_SPACE
 70
     0
 10
0.0
 20
0.0
 30
0.0
  3
$MODEL_SPACE
  1

  0
ENDBLK
  5
2CF70
330
2CF6E
100
AcDbEntity
  8
0
100
AcDbBlockEnd
  0
BLOCK
  5
2CF72
330
2CF71
100
AcDbEntity
  8
0
100
AcDbBlockBegin
  2
$PAPER_SPACE
 70
     0
 10
0.0
 20
0.0
 30
0.0
  3
$PAPER_SPACE
  1

  0
ENDBLK
  5
2CF73
330
2CF71
100
AcDbEntity
  8
0
100
AcDbBlockEnd
  0
BLOCK
  5
2CF75
330
2CF74
100
AcDbEntity
  8
0
100
AcDbBlockBegin
  2
IGES_214_02
 70
     0
 10
0.0
 20
0.0
 30
0.0
  3
IGES_214_02
  1

  0
LWPOLYLINE
  5
2CF76
330
2CF74
100
AcDbEntity
  8
0
100
AcDbPolyline
 90
        3
 70
     1
 43
0.0
 10
-1.0
 20
0.5
 10
0.0
 20
0.0
 10
-1.0
 20
-0.5
  0
LINE
  5
2CF77
330
2CF74
100
AcDbEntity
  8
0
100
AcDbLine
 10
0.0
 20
0.0
 30
0.0
 11
-1.0
 21
0.0
 31
0.0
  0
ENDBLK
  5
2CF78
330
2CF74
100
AcDbEntity
  8
0
100
AcDbBlockEnd
  0
BLOCK
  5
2CF7A
330
2CF79
100
AcDbEntity
  8
0
100
AcDbBlockBegin
  2
*U3
 70
     1
 10
0.0
 20
0.0
 30
0.0
  3
*U3
  1
*IGES
  0
TEXT
  5
2CF7B
330
2CF79
100
AcDbEntity
  8
20
100
AcDbText
 10
-34.725054
 20
-25.852884
 30
0.0
 40
3.0
  1
27
 41
0.737925794117647
  7
SANDVIK_STYLE
 72
     5
 11
-31.140843
 21
-25.852884
 31
0.0
100
AcDbText
  0
INSERT
  5
2CF7C
330
2CF79
100
AcDbEntity
  8
20
100
AcDbBlockReference
  2
IGES_214_02
 10
-19.49544799999999
 20
-27.352884
 30
0.0
 41
3.0
 42
0.7899149999999999
 43
3.0
  0
LINE
  5
2CF7D
330
2CF79
100
AcDbEntity
  8
20
100
AcDbLine
 10
-22.495448
 20
-27.352884
 30
0.0
 11
-32.93294799999999
 21
-27.352884
 31
0.0
  0
INSERT
  5
2CF7E
330
2CF79
100
AcDbEntity
  8
20
100
AcDbBlockReference
  2
IGES_214_02
 10
-46.37044799999999
 20
-27.352884
 30
0.0
 41
3.0
 42
0.7899149999999999
 43
3.0
 50
180.0
  0
LINE
  5
2CF7F
330
2CF79
100
AcDbEntity
  8
20
100
AcDbLine
 10
-43.370448
 20
-27.352884
 30
0.0
 11
-32.93294799999999
 21
-27.352884
 31
0.0
  0
LINE
  5
2CF80
330
2CF79
100
AcDbEntity
  8
20
100
AcDbLine
 10
-19.49544799999999
 20
-15.311218
 30
0.0
 11
-19.49544799999999
 21
-30.35288400000001
 31
0.0
  0
LINE
  5
2CF81
330
2CF79
100
AcDbEntity
  8
20
100
AcDbLine
 10
-46.37044799999999
 20
-6.352883999999997
 30
0.0
 11
-46.37044799999999
 21
-30.35288400000001
 31
0.0
  0
ENDBLK
  5
2CF82
330
2CF79
100
AcDbEntity
  8
0
100
AcDbBlockEnd
  0
BLOCK
  5
2CF84
330
2CF83
100
AcDbEntity
  8
0
100
AcDbBlockBegin
  2
*U4
 70
     1
 10
0.0
 20
0.0
 30
0.0
  3
*U4
  1
*IGES
  0
TEXT
  5
2CF85
330
2CF83
100
AcDbEntity
  8
12
100
AcDbText
 10
-23.687554
 20
172.1471159999999
 30
0.0
 40
3.0
  1
D=50
 41
0.7245614444444454
  7
SANDVIK_STYLE
 72
     5
 11
-15.30334299999999
 21
172.1471159999999
 31
0.0
100
AcDbText
  0
INSERT
  5
2CF86
330
2CF83
100
AcDbEntity
  8
12
100
AcDbBlockReference
  2
IGES_214_02
 10
5.504551999999997
 20
170.6471159999999
 30
0.0
 41
3.0
 42
0.7899149999999999
 43
3.0
  0
LINE
  5
2CF87
330
2CF83
100
AcDbEntity
  8
12
100
AcDbLine
 10
2.504551999999999
 20
170.6471159999999
 30
0.0
 11
-19.49544799999999
 21
170.6471159999999
 31
0.0
  0
INSERT
  5
2CF88
330
2CF83
100
AcDbEntity
  8
12
100
AcDbBlockReference
  2
IGES_214_02
 10
-44.49544799999999
 20
170.6471159999999
 30
0.0
 41
3.0
 42
0.7899149999999999
 43
3.0
 50
180.0
  0
LINE
  5
2CF89
330
2CF83
100
AcDbEntity
  8
12
100
AcDbLine
 10
-41.495448
 20
170.6471159999999
 30
0.0
 11
-19.49544799999999
 21
170.6471159999999
 31
0.0
  0
LINE
  5
2CF8A
330
2CF83
100
AcDbEntity
  8
12
100
AcDbLine
 10
5.504551999999997
 20
136.6471159999999
 30
0.0
 11
5.504551999999997
 21
173.6471159999999
 31
0.0
  0
LINE
  5
2CF8B
330
2CF83
100
AcDbEntity
  8
12
100
AcDbLine
 10
-44.49544799999999
 20
136.6471159999999
 30
0.0
 11
-44.49544799999999
 21
173.6471159999999
 31
0.0
  0
ENDBLK
  5
2CF8C
330
2CF83
100
AcDbEntity
  8
0
100
AcDbBlockEnd
  0
BLOCK
  5
2CF8E
330
2CF8D
100
AcDbEntity
  8
0
100
AcDbBlockBegin
  2
*U5
 70
     1
 10
0.0
 20
0.0
 30
0.0
  3
*U5
  1
*IGES
  0
TEXT
  5
2CF8F
330
2CF8D
100
AcDbEntity
  8
12
100
AcDbText
 10
-24.641501
 20
51.580055
 30
0.0
 40
3.0
  1
%%c40.0
 41
0.8662333855421691
  7
SANDVIK_STYLE
 72
     5
 11
-14.370448
 21
51.580055
 31
0.0
100
AcDbText
  0
INSERT
  5
2CF90
330
2CF8D
100
AcDbEntity
  8
12
100
AcDbBlockReference
  2
IGES_214_02
 10
0.504552
 20
50.080055
 30
0.0
 41
3.0
 42
0.7899149999999999
 43
3.0
  0
LINE
  5
2CF91
330
2CF8D
100
AcDbEntity
  8
12
100
AcDbLine
 10
-2.495448
 20
50.080055
 30
0.0
 11
-19.49544799999999
 21
50.080055
 31
0.0
  0
INSERT
  5
2CF92
330
2CF8D
100
AcDbEntity
  8
12
100
AcDbBlockReference
  2
IGES_214_02
 10
-39.49544799999999
 20
50.080055
 30
0.0
 41
3.0
 42
0.7899149999999999
 43
3.0
 50
180.0
  0
LINE
  5
2CF93
330
2CF8D
100
AcDbEntity
  8
12
100
AcDbLine
 10
-36.49544799999999
 20
50.080055
 30
0.0
 11
-19.49544799999999
 21
50.080055
 31
0.0
  0
LINE
  5
2CF94
330
2CF8D
100
AcDbEntity
  8
12
100
AcDbLine
 10
0.504552
 20
112.8073699999999
 30
0.0
 11
0.504552
 21
47.080055
 31
0.0
  0
LINE
  5
2CF95
330
2CF8D
100
AcDbEntity
  8
12
100
AcDbLine
 10
-39.49544799999999
 20
112.8073699999999
 30
0.0
 11
-39.49544799999999
 21
47.080055
 31
0.0
  0
ENDBLK
  5
2CF96
330
2CF8D
100
AcDbEntity
  8
0
100
AcDbBlockEnd
  0
BLOCK
  5
2CF98
330
2CF97
100
AcDbEntity
  8
0
100
AcDbBlockBegin
  2
*U6
 70
     1
 10
0.0
 20
0.0
 30
0.0
  3
*U6
  1
*IGES
  0
TEXT
  5
2CF99
330
2CF97
100
AcDbEntity
  8
20
100
AcDbText
 10
-66.37044799999999
 20
60.722116
 30
0.0
 40
3.0
  1
140.0
 50
90.0
 41
0.7743749999999996
  7
SANDVIK_STYLE
 72
     5
 11
-66.37044799999999
 21
69.57211599999999
 31
0.0
100
AcDbText
  0
INSERT
  5
2CF9A
330
2CF97
100
AcDbEntity
  8
20
100
AcDbBlockReference
  2
IGES_214_02
 10
-64.87044799999999
 20
135.1471159999999
 30
0.0
 41
3.0
 42
0.7899149999999999
 43
3.0
 50
90.0
  0
LINE
  5
2CF9B
330
2CF97
100
AcDbEntity
  8
20
100
AcDbLine
 10
-64.87044799999999
 20
132.1471159999999
 30
0.0
 11
-64.87044799999999
 21
65.147116
 31
0.0
  0
INSERT
  5
2CF9C
330
2CF97
100
AcDbEntity
  8
20
100
AcDbBlockReference
  2
IGES_214_02
 10
-64.87044799999999
 20
-4.852883999999998
 30
0.0
 41
3.0
 42
0.7899149999999999
 43
3.0
 50
270.0
  0
LINE
  5
2CF9D
330
2CF97
100
AcDbEntity
  8
20
100
AcDbLine
 10
-64.87044799999999
 20
-1.852883999999999
 30
0.0
 11
-64.87044799999999
 21
65.147116
 31
0.0
  0
LINE
  5
2CF9E
330
2CF97
100
AcDbEntity
  8
20
100
AcDbLine
 10
-45.99544799999999
 20
135.1471159999999
 30
0.0
 11
-67.870448
 21
135.1471159999999
 31
0.0
  0
LINE
  5
2CF9F
330
2CF97
100
AcDbEntity
  8
20
100
AcDbLine
 10
-47.87044799999999
 20
-4.852883999999998
 30
0.0
 11
-67.870448
 21
-4.852883999999998
 31
0.0
  0
ENDBLK
  5
2CFA0
330
2CF97
100
AcDbEntity
  8
0
100
AcDbBlockEnd
  0
BLOCK
  5
2CFA2
330
2CFA1
100
AcDbEntity
  8
0
100
AcDbBlockBegin
  2
*U7
 70
     1
 10
0.0
 20
0.0
 30
0.0
  3
*U7
  1
*IGES
  0
TEXT
  5
2CFA3
330
2CFA1
100
AcDbEntity
  8
12
100
AcDbText
 10
-56.37044799999999
 20
50.83513700000001
 30
0.0
 40
3.0
  1
119.2
 50
90.0
 41
0.7169668026315775
  7
SANDVIK_STYLE
 72
     5
 11
-56.37044799999999
 21
58.619348
 31
0.0
100
AcDbText
  0
INSERT
  5
2CFA4
330
2CFA1
100
AcDbEntity
  8
12
100
AcDbBlockReference
  2
IGES_214_02
 10
-54.87044799999999
 20
114.3073699999999
 30
0.0
 41
3.0
 42
0.7899149999999999
 43
3.0
 50
90.0
  0
LINE
  5
2CFA5
330
2CFA1
100
AcDbEntity
  8
12
100
AcDbLine
 10
-54.87044799999999
 20
111.3073699999999
 30
0.0
 11
-54.87044799999999
 21
54.72724300000001
 31
0.0
  0
INSERT
  5
2CFA6
330
2CFA1
100
AcDbEntity
  8
12
100
AcDbBlockReference
  2
IGES_214_02
 10
-54.87044799999999
 20
-4.852883999999998
 30
0.0
 41
3.0
 42
0.7899149999999999
 43
3.0
 50
270.0
  0
LINE
  5
2CFA7
330
2CFA1
100
AcDbEntity
  8
12
100
AcDbLine
 10
-54.87044799999999
 20
-1.852883999999999
 30
0.0
 11
-54.87044799999999
 21
54.72724300000001
 31
0.0
  0
LINE
  5
2CFA8
330
2CFA1
100
AcDbEntity
  8
12
100
AcDbLine
 10
-40.99544799999999
 20
114.3073699999999
 30
0.0
 11
-57.870448
 21
114.3073699999999
 31
0.0
  0
LINE
  5
2CFA9
330
2CFA1
100
AcDbEntity
  8
12
100
AcDbLine
 10
-47.87044799999999
 20
-4.852883999999998
 30
0.0
 11
-57.870448
 21
-4.852883999999998
 31
0.0
  0
ENDBLK
  5
2CFAA
330
2CFA1
100
AcDbEntity
  8
0
100
AcDbBlockEnd
  0
BLOCK
  5
2CFAC
330
2CFAB
100
AcDbEntity
  8
0
100
AcDbBlockBegin
  2
*U8
 70
     1
 10
0.0
 20
0.0
 30
0.0
  3
*U8
  1
*IGES
  0
TEXT
  5
2CFAD
330
2CFAB
100
AcDbEntity
  8
20
100
AcDbText
 10
-4.213060999999997
 20
-24.96928299999999
 30
0.0
 40
3.0
  1
91%%d0'
 50
45.50000006866215
 41
0.8423444748790734
  7
SANDVIK_STYLE
 72
     5
 11
1.353634
 21
-19.304573
 31
0.0
100
AcDbText
  0
INSERT
  5
2CFAE
330
2CFAB
100
AcDbEntity
  8
20
100
AcDbBlockReference
  2
IGES_214_02
 10
-19.49544799999999
 20
-31.212519
 30
0.0
 41
3.0
 42
0.7899149999999999
 43
3.0
 50
183.2034179999999
  0
ARC
  5
2CFAF
330
2CFAB
100
AcDbEntity
  8
20
100
AcDbCircle
 10
-19.49544799999999
 20
-4.383779999999998
 30
0.0
 40
26.82874
100
AcDbArc
 50
276.406836
 51
135.4999999999998
  0
INSERT
  5
2CFB0
330
2CFAB
100
AcDbEntity
  8
20
100
AcDbBlockReference
  2
IGES_214_02
 10
7.329204999999997
 20
-3.915554
 30
0.0
 41
3.0
 42
0.7899149999999999
 43
3.0
 50
87.79658299999999
  0
ARC
  5
2CFB1
330
2CFAB
100
AcDbEntity
  8
20
100
AcDbCircle
 10
-19.49544799999999
 20
-4.383779999999998
 30
0.0
 40
26.82874
100
AcDbArc
 50
135.4999999999998
 51
354.593164
  0
LINE
  5
2CFB2
330
2CFAB
100
AcDbEntity
  8
20
100
AcDbLine
 10
-19.49544799999999
 20
-15.311218
 30
0.0
 11
-19.49544799999999
 21
-34.212519
 31
0.0
  0
LINE
  5
2CFB3
330
2CFAB
100
AcDbEntity
  8
20
100
AcDbLine
 10
-17.870677
 20
-4.355419
 30
0.0
 11
10.32874799999999
 21
-3.863195999999998
 31
0.0
  0
ENDBLK
  5
2CFB4
330
2CFAB
100
AcDbEntity
  8
0
100
AcDbBlockEnd
  0
BLOCK
  5
2CFB6
330
2CFB5
100
AcDbEntity
  8
0
100
AcDbBlockBegin
  2
DVIEWBLOCK
 70
     0
 10
0.0
 20
0.0
 30
0.0
  3
DVIEWBLOCK
  1

  0
3DFACE
  5
2CFB7
330
2CFB5
100
AcDbEntity
  8
IGES
100
AcDbFace
 10
0.1
 20
0.1
 30
0.0
 11
0.9
 21
0.1
 31
0.0
 12
0.9
 22
0.9
 32
0.0
 13
0.1
 23
0.9
 33
0.0
  0
3DFACE
  5
2CFB8
330
2CFB5
100
AcDbEntity
  8
IGES
100
AcDbFace
 10
0.1
 20
0.1
 30
0.0
 11
0.1
 21
0.1
 31
0.595
 12
0.2
 22
0.1
 32
0.4
 13
0.2
 23
0.1
 33
0.0
 70
    10
  0
3DFACE
  5
2CFB9
330
2CFB5
100
AcDbEntity
  8
IGES
100
AcDbFace
 10
0.2
 20
0.1
 30
0.4
 11
0.1
 21
0.1
 31
0.595
 12
0.9
 22
0.1
 32
0.595
 13
0.4
 23
0.1
 33
0.4
 70
     5
  0
3DFACE
  5
2CFBA
330
2CFB5
100
AcDbEntity
  8
IGES
100
AcDbFace
 10
0.4
 20
0.1
 30
0.0
 11
0.4
 21
0.1
 31
0.4
 12
0.9
 22
0.1
 32
0.595
 13
0.9
 23
0.1
 33
0.0
 70
    14
  0
3DFACE
  5
2CFBB
330
2CFB5
100
AcDbEntity
  8
IGES
100
AcDbFace
 10
0.2
 20
0.1
 30
0.005
 11
0.2
 21
0.1
 31
0.4
 12
0.34
 22
0.24
 32
0.4
 13
0.34
 23
0.24
 33
0.005
 70
     1
  0
3DFACE
  5
2CFBC
330
2CFB5
100
AcDbEntity
  8
IGES
100
AcDbFace
 10
0.9
 20
0.1
 30
0.0
 11
0.9
 21
0.1
 31
0.595
 12
0.9
 22
0.5
 32
0.9949999999999999
 13
0.9
 23
0.3
 33
0.4
 70
    12
  0
3DFACE
  5
2CFBD
330
2CFB5
100
AcDbEntity
  8
IGES
100
AcDbFace
 10
0.9
 20
0.3
 30
0.4
 11
0.9
 21
0.5
 31
0.9949999999999999
 12
0.9
 22
0.9
 32
0.595
 13
0.9
 23
0.7
 33
0.4
 70
     5
  0
3DFACE
  5
2CFBE
330
2CFB5
100
AcDbEntity
  8
IGES
100
AcDbFace
 10
0.9
 20
0.7
 30
0.4
 11
0.9
 21
0.9
 31
0.595
 12
0.9
 22
0.9
 32
0.0
 13
0.9
 23
0.7
 33
0.2
 70
     7
  0
3DFACE
  5
2CFBF
330
2CFB5
100
AcDbEntity
  8
IGES
100
AcDbFace
 10
0.9
 20
0.7
 30
0.2
 11
0.9
 21
0.9
 31
0.0
 12
0.9
 22
0.1
 32
0.0
 13
0.9
 23
0.3
 33
0.2
 70
     7
  0
3DFACE
  5
2CFC0
330
2CFB5
100
AcDbEntity
  8
IGES
100
AcDbFace
 10
0.9
 20
0.3
 30
0.2
 11
0.9
 21
0.3
 31
0.2
 12
0.9
 22
0.1
 32
0.0
 13
0.9
 23
0.3
 33
0.4
 70
     7
  0
3DFACE
  5
2CFC1
330
2CFB5
100
AcDbEntity
  8
IGES
100
AcDbFace
 10
0.9
 20
0.9
 30
0.0
 11
0.9
 21
0.9
 31
0.595
 12
0.1
 22
0.9
 32
0.595
 13
0.1
 23
0.9
 33
0.0
 70
    12
  0
3DFACE
  5
2CFC2
330
2CFB5
100
AcDbEntity
  8
IGES
100
AcDbFace
 10
0.1
 20
0.9
 30
0.0
 11
0.1
 21
0.9
 31
0.595
 12
0.1
 22
0.5
 32
0.9949999999999999
 13
0.1
 23
0.5
 33
0.0
 70
    12
  0
3DFACE
  5
2CFC3
330
2CFB5
100
AcDbEntity
  8
IGES
100
AcDbFace
 10
0.1
 20
0.5
 30
0.0
 11
0.1
 21
0.5
 31
0.9949999999999999
 12
0.1
 22
0.1
 32
0.595
 13
0.1
 23
0.1
 33
0.0
 70
    13
  0
3DFACE
  5
2CFC4
330
2CFB5
100
AcDbEntity
  8
IGES
100
AcDbFace
 10
0.2
 20
0.6
 30
0.9
 11
0.2
 21
0.6
 31
1.0
 12
0.3
 22
0.6
 32
1.0
 13
0.3
 23
0.6
 33
0.9
 70
     4
  0
3DFACE
  5
2CFC5
330
2CFB5
100
AcDbEntity
  8
IGES
100
AcDbFace
 10
0.3
 20
0.6
 30
0.9
 11
0.3
 21
0.6
 31
1.0
 12
0.3
 22
0.7
 32
1.0
 13
0.3
 23
0.7
 33
0.8
 70
     4
  0
3DFACE
  5
2CFC6
330
2CFB5
100
AcDbEntity
  8
IGES
100
AcDbFace
 10
0.3
 20
0.7
 30
0.8
 11
0.3
 21
0.7
 31
1.0
 12
0.2
 22
0.7
 32
1.0
 13
0.2
 23
0.7
 33
0.8
 70
     4
  0
3DFACE
  5
2CFC7
330
2CFB5
100
AcDbEntity
  8
IGES
100
AcDbFace
 10
0.2
 20
0.7
 30
0.8
 11
0.2
 21
0.7
 31
1.0
 12
0.2
 22
0.6
 32
1.0
 13
0.2
 23
0.6
 33
0.9
 70
     4
  0
3DFACE
  5
2CFC8
330
2CFB5
100
AcDbEntity
  8
IGES
100
AcDbFace
 10
0.0
 20
0.0
 30
0.5
 11
1.0
 21
0.0
 31
0.5
 12
1.0
 22
0.5
 32
1.0
 13
0.0
 23
0.5
 33
1.0
  0
3DFACE
  5
2CFC9
330
2CFB5
100
AcDbEntity
  8
IGES
100
AcDbFace
 10
0.0
 20
0.5
 30
1.0
 11
1.0
 21
0.5
 31
1.0
 12
1.0
 22
1.0
 32
0.5
 13
0.0
 23
1.0
 33
0.5
 70
     1
  0
ENDBLK
  5
2CFCA
330
2CFB5
100
AcDbEntity
  8
0
100
AcDbBlockEnd
  0
BLOCK
  5
2CFCC
330
2CFCB
100
AcDbEntity
  8
0
100
AcDbBlockBegin
  2
*D10
 70
     1
 10
0.0
 20
0.0
 30
0.0
  3
*D10
  1

  0
LINE
  5
2CFCD
330
2CFCB
100
AcDbEntity
  8
0
100
AcDbLine
 10
-19.49544799999999
 20
-16.311218
 30
0.0
 11
-19.49544799999999
 21
-29.852884
 31
0.0
  0
LINE
  5
2CFCE
330
2CFCB
100
AcDbEntity
  8
0
100
AcDbLine
 10
-46.37044799999999
 20
-7.352883999999997
 30
0.0
 11
-46.37044799999999
 21
-29.852884
 31
0.0
  0
LINE
  5
2CFCF
330
2CFCB
100
AcDbEntity
  8
0
100
AcDbLine
 10
-22.495448
 20
-27.352884
 30
0.0
 11
-43.370448
 21
-27.352884
 31
0.0
  0
SOLID
  5
2CFD0
330
2CFCB
100
AcDbEntity
  8
0
100
AcDbTrace
 10
-22.495448
 20
-26.85288400000001
 30
0.0
 11
-22.495448
 21
-27.85288400000001
 31
0.0
 12
-19.49544799999999
 22
-27.352884
 32
0.0
 13
-19.49544799999999
 23
-27.352884
 33
0.0
  0
SOLID
  5
2CFD1
330
2CFCB
100
AcDbEntity
  8
0
100
AcDbTrace
 10
-43.370448
 20
-26.85288400000001
 30
0.0
 11
-43.370448
 21
-27.85288400000001
 31
0.0
 12
-46.37044799999999
 22
-27.352884
 32
0.0
 13
-46.37044799999999
 23
-27.352884
 33
0.0
  0
TEXT
  5
2CFD2
330
2CFCB
100
AcDbEntity
  8
0
100
AcDbText
 10
-35.36151942857142
 20
-25.852884
 30
0.0
 40
3.0
  1
27
  7
SANDVIK_STYLE
 72
     1
 11
-32.93294799999999
 21
-24.352884
 31
0.0
100
AcDbText
 73
     2
  0
POINT
  5
2CFD3
330
2CFCB
100
AcDbEntity
  8
DEFPOINTS
100
AcDbPoint
 10
-19.49544799999999
 20
-13.81121799999999
 30
0.0
  0
POINT
  5
2CFD4
330
2CFCB
100
AcDbEntity
  8
DEFPOINTS
100
AcDbPoint
 10
-46.37044799999999
 20
-4.852883999999998
 30
0.0
  0
POINT
  5
2CFD5
330
2CFCB
100
AcDbEntity
  8
DEFPOINTS
100
AcDbPoint
 10
-46.37044799999999
 20
-27.352884
 30
0.0
  0
ENDBLK
  5
2CFD6
330
2CFCB
100
AcDbEntity
  8
0
100
AcDbBlockEnd
  0
BLOCK
  5
2CFD8
330
2CFD7
100
AcDbEntity
  8
0
100
AcDbBlockBegin
  2
*D11
 70
     1
 10
0.0
 20
0.0
 30
0.0
  3
*D11
  1

  0
LINE
  5
2CFD9
330
2CFD7
100
AcDbEntity
  8
0
100
AcDbLine
 10
5.504551999999997
 20
137.6471159999999
 30
0.0
 11
5.504551999999997
 21
173.1471159999999
 31
0.0
  0
LINE
  5
2CFDA
330
2CFD7
100
AcDbEntity
  8
0
100
AcDbLine
 10
-44.49544799999999
 20
137.6471159999999
 30
0.0
 11
-44.49544799999999
 21
173.1471159999999
 31
0.0
  0
LINE
  5
2CFDB
330
2CFD7
100
AcDbEntity
  8
0
100
AcDbLine
 10
2.504551999999999
 20
170.6471159999999
 30
0.0
 11
-41.495448
 21
170.6471159999999
 31
0.0
  0
SOLID
  5
2CFDC
330
2CFD7
100
AcDbEntity
  8
0
100
AcDbTrace
 10
2.504551999999999
 20
171.1471159999999
 30
0.0
 11
2.504551999999999
 21
170.1471159999999
 31
0.0
 12
5.504551999999997
 22
170.6471159999999
 32
0.0
 13
5.504551999999997
 23
170.6471159999999
 33
0.0
  0
SOLID
  5
2CFDD
330
2CFD7
100
AcDbEntity
  8
0
100
AcDbTrace
 10
-41.495448
 20
171.1471159999999
 30
0.0
 11
-41.495448
 21
170.1471159999999
 31
0.0
 12
-44.49544799999999
 22
170.6471159999999
 32
0.0
 13
-44.49544799999999
 23
170.6471159999999
 33
0.0
  0
TEXT
  5
2CFDE
330
2CFD7
100
AcDbEntity
  8
0
100
AcDbText
 10
-25.28116228571427
 20
172.1471159999999
 30
0.0
 40
3.0
  1
D=50
  7
SANDVIK_STYLE
 72
     1
 11
-19.49544799999999
 21
173.6471159999999
 31
0.0
100
AcDbText
 73
     2
  0
POINT
  5
2CFDF
330
2CFD7
100
AcDbEntity
  8
DEFPOINTS
100
AcDbPoint
 10
5.504551999999997
 20
135.1471159999999
 30
0.0
  0
POINT
  5
2CFE0
330
2CFD7
100
AcDbEntity
  8
DEFPOINTS
100
AcDbPoint
 10
-44.49544799999999
 20
135.1471159999999
 30
0.0
  0
POINT
  5
2CFE1
330
2CFD7
100
AcDbEntity
  8
DEFPOINTS
100
AcDbPoint
 10
-44.49544799999999
 20
170.6471159999999
 30
0.0
  0
ENDBLK
  5
2CFE2
330
2CFD7
100
AcDbEntity
  8
0
100
AcDbBlockEnd
  0
BLOCK
  5
2CFE4
330
2CFE3
100
AcDbEntity
  8
0
100
AcDbBlockBegin
  2
*D12
 70
     1
 10
0.0
 20
0.0
 30
0.0
  3
*D12
  1

  0
LINE
  5
2CFE5
330
2CFE3
100
AcDbEntity
  8
0
100
AcDbLine
 10
0.504552
 20
111.8073699999999
 30
0.0
 11
0.504552
 21
47.580055
 31
0.0
  0
LINE
  5
2CFE6
330
2CFE3
100
AcDbEntity
  8
0
100
AcDbLine
 10
-39.49544799999999
 20
111.8073699999999
 30
0.0
 11
-39.49544799999999
 21
47.580055
 31
0.0
  0
LINE
  5
2CFE7
330
2CFE3
100
AcDbEntity
  8
0
100
AcDbLine
 10
-2.495448
 20
50.080055
 30
0.0
 11
-36.49544799999999
 21
50.080055
 31
0.0
  0
SOLID
  5
2CFE8
330
2CFE3
100
AcDbEntity
  8
0
100
AcDbTrace
 10
-2.495448
 20
50.580055
 30
0.0
 11
-2.495448
 21
49.580055
 31
0.0
 12
0.504552
 22
50.080055
 32
0.0
 13
0.504552
 23
50.080055
 33
0.0
  0
SOLID
  5
2CFE9
330
2CFE3
100
AcDbEntity
  8
0
100
AcDbTrace
 10
-36.49544799999999
 20
50.580055
 30
0.0
 11
-36.49544799999999
 21
49.580055
 31
0.0
 12
-39.49544799999999
 22
50.080055
 32
0.0
 13
-39.49544799999999
 23
50.080055
 33
0.0
  0
TEXT
  5
2CFEA
330
2CFE3
100
AcDbEntity
  8
0
100
AcDbText
 10
-25.43454642857142
 20
51.580055
 30
0.0
 40
3.0
  1
%%c40.0
  7
SANDVIK_STYLE
 72
     1
 11
-19.50597499999999
 21
53.080055
 31
0.0
100
AcDbText
 73
     2
  0
POINT
  5
2CFEB
330
2CFE3
100
AcDbEntity
  8
DEFPOINTS
100
AcDbPoint
 10
0.504552
 20
114.3073699999999
 30
0.0
  0
POINT
  5
2CFEC
330
2CFE3
100
AcDbEntity
  8
DEFPOINTS
100
AcDbPoint
 10
-39.49544799999999
 20
114.3073699999999
 30
0.0
  0
POINT
  5
2CFED
330
2CFE3
100
AcDbEntity
  8
DEFPOINTS
100
AcDbPoint
 10
-39.49544799999999
 20
50.080055
 30
0.0
  0
ENDBLK
  5
2CFEE
330
2CFE3
100
AcDbEntity
  8
0
100
AcDbBlockEnd
  0
BLOCK
  5
2CFF0
330
2CFEF
100
AcDbEntity
  8
0
100
AcDbBlockBegin
  2
*D13
 70
     1
 10
0.0
 20
0.0
 30
0.0
  3
*D13
  1

  0
LINE
  5
2CFF1
330
2CFEF
100
AcDbEntity
  8
0
100
AcDbLine
 10
-46.99544799999999
 20
135.1471159999999
 30
0.0
 11
-67.37044799999999
 21
135.1471159999999
 31
0.0
  0
LINE
  5
2CFF2
330
2CFEF
100
AcDbEntity
  8
0
100
AcDbLine
 10
-48.87044799999999
 20
-4.852883999999998
 30
0.0
 11
-67.37044799999999
 21
-4.852883999999998
 31
0.0
  0
LINE
  5
2CFF3
330
2CFEF
100
AcDbEntity
  8
0
100
AcDbLine
 10
-64.87044799999999
 20
132.1471159999999
 30
0.0
 11
-64.87044799999999
 21
-1.852883999999999
 31
0.0
  0
SOLID
  5
2CFF4
330
2CFEF
100
AcDbEntity
  8
0
100
AcDbTrace
 10
-65.370448
 20
132.1471159999999
 30
0.0
 11
-64.37044799999999
 21
132.1471159999999
 31
0.0
 12
-64.87044799999999
 22
135.1471159999999
 32
0.0
 13
-64.87044799999999
 23
135.1471159999999
 33
0.0
  0
SOLID
  5
2CFF5
330
2CFEF
100
AcDbEntity
  8
0
100
AcDbTrace
 10
-65.370448
 20
-1.852883999999999
 30
0.0
 11
-64.37044799999999
 21
-1.852883999999999
 31
0.0
 12
-64.87044799999999
 22
-4.852883999999998
 32
0.0
 13
-64.87044799999999
 23
-4.852883999999998
 33
0.0
  0
TEXT
  5
2CFF6
330
2CFEF
100
AcDbEntity
  8
0
100
AcDbText
 10
-66.3704481994662
 20
59.43283023335441
 30
0.0
 40
3.0
  1
140.0
 50
89.99999800000002
  7
SANDVIK_STYLE
 72
     1
 11
-67.870448
 21
65.147116
 31
0.0
100
AcDbText
 73
     2
  0
POINT
  5
2CFF7
330
2CFEF
100
AcDbEntity
  8
DEFPOINTS
100
AcDbPoint
 10
-44.49544799999999
 20
135.1471159999999
 30
0.0
  0
POINT
  5
2CFF8
330
2CFEF
100
AcDbEntity
  8
DEFPOINTS
100
AcDbPoint
 10
-46.37044799999999
 20
-4.852883999999998
 30
0.0
  0
POINT
  5
2CFF9
330
2CFEF
100
AcDbEntity
  8
DEFPOINTS
100
AcDbPoint
 10
-64.87044799999999
 20
-4.852883999999998
 30
0.0
  0
ENDBLK
  5
2CFFA
330
2CFEF
100
AcDbEntity
  8
0
100
AcDbBlockEnd
  0
BLOCK
  5
2CFFC
330
2CFFB
100
AcDbEntity
  8
0
100
AcDbBlockBegin
  2
*D14
 70
     1
 10
0.0
 20
0.0
 30
0.0
  3
*D14
  1

  0
LINE
  5
2CFFD
330
2CFFB
100
AcDbEntity
  8
0
100
AcDbLine
 10
-41.99544799999999
 20
114.3073699999999
 30
0.0
 11
-57.37044799999999
 21
114.3073699999999
 31
0.0
  0
LINE
  5
2CFFE
330
2CFFB
100
AcDbEntity
  8
0
100
AcDbLine
 10
-48.87044799999999
 20
-4.852883999999998
 30
0.0
 11
-57.37044799999999
 21
-4.852883999999998
 31
0.0
  0
LINE
  5
2CFFF
330
2CFFB
100
AcDbEntity
  8
0
100
AcDbLine
 10
-54.87044799999999
 20
111.3073699999999
 30
0.0
 11
-54.87044799999999
 21
-1.852883999999999
 31
0.0
  0
SOLID
  5
2D000
330
2CFFB
100
AcDbEntity
  8
0
100
AcDbTrace
 10
-55.370448
 20
111.3073699999999
 30
0.0
 11
-54.37044799999998
 21
111.3073699999999
 31
0.0
 12
-54.87044799999999
 22
114.3073699999999
 32
0.0
 13
-54.87044799999999
 23
114.3073699999999
 33
0.0
  0
SOLID
  5
2D001
330
2CFFB
100
AcDbEntity
  8
0
100
AcDbTrace
 10
-55.370448
 20
-1.852883999999999
 30
0.0
 11
-54.37044799999998
 21
-1.852883999999999
 31
0.0
 12
-54.87044799999999
 22
-4.852883999999998
 32
0.0
 13
-54.87044799999999
 23
-4.852883999999998
 33
0.0
  0
TEXT
  5
2D002
330
2CFFB
100
AcDbEntity
  8
0
100
AcDbText
 10
-56.37044818949288
 20
49.2986715190687
 30
0.0
 40
3.0
  1
119.2
 50
89.99999800000002
  7
SANDVIK_STYLE
 72
     1
 11
-57.870448
 21
54.72724300000001
 31
0.0
100
AcDbText
 73
     2
  0
POINT
  5
2D003
330
2CFFB
100
AcDbEntity
  8
DEFPOINTS
100
AcDbPoint
 10
-39.49544799999999
 20
114.3073699999999
 30
0.0
  0
POINT
  5
2D004
330
2CFFB
100
AcDbEntity
  8
DEFPOINTS
100
AcDbPoint
 10
-46.37044799999999
 20
-4.852883999999998
 30
0.0
  0
POINT
  5
2D005
330
2CFFB
100
AcDbEntity
  8
DEFPOINTS
100
AcDbPoint
 10
-54.87044799999999
 20
-4.852883999999998
 30
0.0
  0
ENDBLK
  5
2D006
330
2CFFB
100
AcDbEntity
  8
0
100
AcDbBlockEnd
  0
BLOCK
  5
2D008
330
2D007
100
AcDbEntity
  8
0
100
AcDbBlockBegin
  2
*D15
 70
     1
 10
0.0
 20
0.0
 30
0.0
  3
*D15
  1

  0
LINE
  5
2D009
330
2D007
100
AcDbEntity
  8
0
100
AcDbLine
 10
-19.49544799999999
 20
-16.311218
 30
0.0
 11
-19.49544799999999
 21
-33.71150200000001
 31
0.0
  0
LINE
  5
2D00A
330
2D007
100
AcDbEntity
  8
0
100
AcDbLine
 10
-16.870829
 20
-4.337968
 30
0.0
 11
9.827807999999999
 21
-3.871959999999998
 31
0.0
  0
ARC
  5
2D00B
330
2D007
100
AcDbEntity
  8
0
100
AcDbCircle
 10
-19.49544799999999
 20
-4.383779999999998
 30
0.0
 40
26.827722
100
AcDbArc
 50
276.410422
 51
303.981334
  0
ARC
  5
2D00C
330
2D007
100
AcDbEntity
  8
0
100
AcDbCircle
 10
-19.49544799999999
 20
-4.383779999999998
 30
0.0
 40
26.827722
100
AcDbArc
 50
327.0186269999999
 51
354.58954
  0
SOLID
  5
2D00D
330
2D007
100
AcDbEntity
  8
0
100
AcDbTrace
 10
-16.472185
 20
-31.54298300000001
 30
0.0
 11
-16.52809699999999
 21
-30.54454699999999
 31
0.0
 12
-19.49544799999999
 22
-31.21150200000001
 32
0.0
 13
-19.49544799999999
 23
-31.21150200000001
 33
0.0
  0
SOLID
  5
2D00E
330
2D007
100
AcDbEntity
  8
0
100
AcDbTrace
 10
6.713121000000001
 20
-6.894128
 30
0.0
 11
7.712379999999997
 21
-6.932607
 31
0.0
 12
7.328187999999999
 22
-3.915588999999998
 32
0.0
 13
7.328187999999999
 23
-3.915588999999998
 33
0.0
  0
TEXT
  5
2D00F
330
2D007
100
AcDbEntity
  8
0
100
AcDbText
 10
-2.594979935003896
 20
-27.60141526060738
 30
0.0
 40
3.0
  1
91%%d0'
 50
45.499999
  7
SANDVIK_STYLE
 72
     1
 11
-0.360569
 21
-23.187585
 31
0.0
100
AcDbText
 73
     2
  0
POINT
  5
2D010
330
2D007
100
AcDbEntity
  8
DEFPOINTS
100
AcDbPoint
 10
7.328204999999997
 20
-3.916554
 30
0.0
  0
POINT
  5
2D011
330
2D007
100
AcDbEntity
  8
DEFPOINTS
100
AcDbPoint
 10
-19.49544799999999
 20
-4.383779999999998
 30
-1.947129
  0
POINT
  5
2D012
330
2D007
100
AcDbEntity
  8
DEFPOINTS
100
AcDbPoint
 10
-19.37044799999999
 20
-4.381598
 30
-1.947129
  0
POINT
  5
2D013
330
2D007
100
AcDbEntity
  8
DEFPOINTS
100
AcDbPoint
 10
-19.49544799999999
 20
-4.383779999999998
 30
-1.947129
  0
POINT
  5
2D014
330
2D007
100
AcDbEntity
  8
DEFPOINTS
100
AcDbPoint
 10
-19.49544799999999
 20
-13.81121799999999
 30
-1.947129
  0
ENDBLK
  5
2D015
330
2D007
100
AcDbEntity
  8
0
100
AcDbBlockEnd
  0
BLOCK
  5
2D017
330
2D016
100
AcDbEntity
  8
0
100
AcDbBlockBegin
  2
*D16
 70
     1
 10
0.0
 20
0.0
 30
0.0
  3
*D16
  1

  0
LINE
  5
2D018
330
2D016
100
AcDbEntity
  8
20
100
AcDbLine
 10
-19.49544799999999
 20
-16.31121799999999
 30
0.0
 11
-19.49544799999999
 21
-29.852884
 31
0.0
  0
LINE
  5
2D019
330
2D016
100
AcDbEntity
  8
20
100
AcDbLine
 10
-46.37044799999999
 20
-7.352883999999997
 30
0.0
 11
-46.37044799999999
 21
-29.852884
 31
0.0
  0
LINE
  5
2D01A
330
2D016
100
AcDbEntity
  8
20
100
AcDbLine
 10
-22.495448
 20
-27.352884
 30
0.0
 11
-43.370448
 21
-27.352884
 31
0.0
  0
TEXT
  5
2D01B
330
2D016
100
AcDbEntity
  8
1
100
AcDbText
 10
-35.36151942857142
 20
-25.852884
 30
0.0
 40
3.0
  1
27
  7
TDM_STYLE
100
AcDbText
  0
SOLID
  5
2D01C
330
2D016
100
AcDbEntity
  8
20
100
AcDbTrace
 10
-22.495448
 20
-26.85288400000001
 30
0.0
 11
-22.495448
 21
-27.85288400000001
 31
0.0
 12
-19.49544799999999
 22
-27.352884
 32
0.0
 13
-19.49544799999999
 23
-27.352884
 33
0.0
  0
SOLID
  5
2D01D
330
2D016
100
AcDbEntity
  8
20
100
AcDbTrace
 10
-43.370448
 20
-26.85288400000001
 30
0.0
 11
-43.370448
 21
-27.85288400000001
 31
0.0
 12
-46.37044799999999
 22
-27.352884
 32
0.0
 13
-46.37044799999999
 23
-27.352884
 33
0.0
  0
POINT
  5
2D01E
330
2D016
100
AcDbEntity
  8
DEFPOINTS
 62
     0
100
AcDbPoint
 10
-19.49544799999999
 20
-13.81121799999999
 30
0.0
  0
POINT
  5
2D01F
330
2D016
100
AcDbEntity
  8
DEFPOINTS
 62
     0
100
AcDbPoint
 10
-46.37044799999999
 20
-4.852883999999998
 30
0.0
  0
POINT
  5
2D020
330
2D016
100
AcDbEntity
  8
DEFPOINTS
 62
     0
100
AcDbPoint
 10
-46.37044799999999
 20
-27.352884
 30
0.0
  0
ENDBLK
  5
2D021
330
2D016
100
AcDbEntity
  8
0
100
AcDbBlockEnd
  0
BLOCK
  5
2D023
330
2D022
100
AcDbEntity
  8
0
100
AcDbBlockBegin
  2
*D17
 70
     1
 10
0.0
 20
0.0
 30
0.0
  3
*D17
  1

  0
LINE
  5
2D024
330
2D022
100
AcDbEntity
  8
12
100
AcDbLine
 10
5.504551999999997
 20
137.6471159999999
 30
0.0
 11
5.504552000000001
 21
173.1471159999999
 31
0.0
  0
LINE
  5
2D025
330
2D022
100
AcDbEntity
  8
12
100
AcDbLine
 10
-44.49544799999999
 20
137.6471159999999
 30
0.0
 11
-44.49544799999999
 21
173.1471159999999
 31
0.0
  0
LINE
  5
2D026
330
2D022
100
AcDbEntity
  8
12
100
AcDbLine
 10
2.504551999999999
 20
170.6471159999999
 30
0.0
 11
-41.495448
 21
170.6471159999999
 31
0.0
  0
TEXT
  5
2D027
330
2D022
100
AcDbEntity
  8
1
100
AcDbText
 10
-25.28116228571429
 20
172.1471159999999
 30
0.0
 40
3.0
  1
D=50
  7
TDM_STYLE
100
AcDbText
  0
SOLID
  5
2D028
330
2D022
100
AcDbEntity
  8
12
100
AcDbTrace
 10
2.504551999999999
 20
171.1471159999999
 30
0.0
 11
2.504551999999999
 21
170.1471159999999
 31
0.0
 12
5.504552000000001
 22
170.6471159999999
 32
0.0
 13
5.504552000000001
 23
170.6471159999999
 33
0.0
  0
SOLID
  5
2D029
330
2D022
100
AcDbEntity
  8
12
100
AcDbTrace
 10
-41.495448
 20
171.1471159999999
 30
0.0
 11
-41.495448
 21
170.1471159999999
 31
0.0
 12
-44.49544799999999
 22
170.6471159999999
 32
0.0
 13
-44.49544799999999
 23
170.6471159999999
 33
0.0
  0
POINT
  5
2D02A
330
2D022
100
AcDbEntity
  8
DEFPOINTS
 62
     0
100
AcDbPoint
 10
5.504551999999997
 20
135.1471159999999
 30
0.0
  0
POINT
  5
2D02B
330
2D022
100
AcDbEntity
  8
DEFPOINTS
 62
     0
100
AcDbPoint
 10
-44.49544799999999
 20
135.1471159999999
 30
0.0
  0
POINT
  5
2D02C
330
2D022
100
AcDbEntity
  8
DEFPOINTS
 62
     0
100
AcDbPoint
 10
-44.49544799999999
 20
170.6471159999999
 30
0.0
  0
ENDBLK
  5
2D02D
330
2D022
100
AcDbEntity
  8
0
100
AcDbBlockEnd
  0
BLOCK
  5
2D02F
330
2D02E
100
AcDbEntity
  8
0
100
AcDbBlockBegin
  2
*D18
 70
     1
 10
0.0
 20
0.0
 30
0.0
  3
*D18
  1

  0
LINE
  5
2D030
330
2D02E
100
AcDbEntity
  8
12
100
AcDbLine
 10
0.5045519999999999
 20
111.8073699999999
 30
0.0
 11
0.5045519999999959
 21
47.580055
 31
0.0
  0
LINE
  5
2D031
330
2D02E
100
AcDbEntity
  8
12
100
AcDbLine
 10
-39.49544799999999
 20
111.8073699999999
 30
0.0
 11
-39.495448
 21
47.580055
 31
0.0
  0
LINE
  5
2D032
330
2D02E
100
AcDbEntity
  8
12
100
AcDbLine
 10
-2.495448000000001
 20
50.080055
 30
0.0
 11
-36.49544800000001
 21
50.080055
 31
0.0
  0
INSERT
  5
2D033
330
2D02E
100
AcDbEntity
  8
1
100
AcDbBlockReference
  2
*U19
 10
0.0
 20
0.0
 30
0.0
  0
SOLID
  5
2D034
330
2D02E
100
AcDbEntity
  8
12
100
AcDbTrace
 10
-2.495448000000001
 20
50.580055
 30
0.0
 11
-2.495448000000001
 21
49.580055
 31
0.0
 12
0.5045519999999961
 22
50.080055
 32
0.0
 13
0.5045519999999961
 23
50.080055
 33
0.0
  0
SOLID
  5
2D035
330
2D02E
100
AcDbEntity
  8
12
100
AcDbTrace
 10
-36.49544800000001
 20
50.580055
 30
0.0
 11
-36.49544800000001
 21
49.580055
 31
0.0
 12
-39.495448
 22
50.080055
 32
0.0
 13
-39.495448
 23
50.080055
 33
0.0
  0
POINT
  5
2D036
330
2D02E
100
AcDbEntity
  8
DEFPOINTS
 62
     0
100
AcDbPoint
 10
0.504552
 20
114.3073699999999
 30
0.0
  0
POINT
  5
2D037
330
2D02E
100
AcDbEntity
  8
DEFPOINTS
 62
     0
100
AcDbPoint
 10
-39.49544799999999
 20
114.3073699999999
 30
0.0
  0
POINT
  5
2D038
330
2D02E
100
AcDbEntity
  8
DEFPOINTS
 62
     0
100
AcDbPoint
 10
-39.495448
 20
50.080055
 30
0.0
  0
ENDBLK
  5
2D039
330
2D02E
100
AcDbEntity
  8
0
100
AcDbBlockEnd
  0
BLOCK
  5
2D03B
330
2D03A
100
AcDbEntity
  8
0
100
AcDbBlockBegin
  2
*U19
 70
     1
 10
0.0
 20
0.0
 30
0.0
  3
*U19
  1

  0
TEXT
  5
2D03C
330
2D03A
100
AcDbEntity
  8
1
100
AcDbText
 10
-25.43454642857143
 20
51.580055
 30
0.0
 40
3.0
  1
\U+2205
  7
TDM_STYLE
100
AcDbText
  0
TEXT
  5
2D03D
330
2D03A
100
AcDbEntity
  8
1
100
AcDbText
 10
-22.72026071428571
 20
51.580055
 30
0.0
 40
3.0
  1
40.0
  7
TDM_STYLE
100
AcDbText
  0
ENDBLK
  5
2D03E
330
2D03A
100
AcDbEntity
  8
0
100
AcDbBlockEnd
  0
BLOCK
  5
2D040
330
2D03F
100
AcDbEntity
  8
0
100
AcDbBlockBegin
  2
*D20
 70
     1
 10
0.0
 20
0.0
 30
0.0
  3
*D20
  1

  0
LINE
  5
2D041
330
2D03F
100
AcDbEntity
  8
20
100
AcDbLine
 10
-46.99544799999999
 20
135.1471159999999
 30
0.0
 11
-67.37044799999996
 21
135.147116
 31
0.0
  0
LINE
  5
2D042
330
2D03F
100
AcDbEntity
  8
20
100
AcDbLine
 10
-48.87044799999999
 20
-4.852883999999998
 30
0.0
 11
-67.37044799999999
 21
-4.852883999999993
 31
0.0
  0
LINE
  5
2D043
330
2D03F
100
AcDbEntity
  8
20
100
AcDbLine
 10
-64.87044799999996
 20
132.1471159999999
 30
0.0
 11
-64.87044799999999
 21
-1.852883999999994
 31
0.0
  0
TEXT
  5
2D044
330
2D03F
100
AcDbEntity
  8
1
100
AcDbText
 10
-66.3704481994662
 20
59.43283023335441
 30
0.0
 40
3.0
  1
140.0
 50
89.99999800000002
  7
TDM_STYLE
100
AcDbText
  0
SOLID
  5
2D045
330
2D03F
100
AcDbEntity
  8
20
100
AcDbTrace
 10
-65.37044799999995
 20
132.1471159999999
 30
0.0
 11
-64.37044799999997
 21
132.1471159999999
 31
0.0
 12
-64.87044799999996
 22
135.147116
 32
0.0
 13
-64.87044799999996
 23
135.147116
 33
0.0
  0
SOLID
  5
2D046
330
2D03F
100
AcDbEntity
  8
20
100
AcDbTrace
 10
-65.370448
 20
-1.852883999999994
 30
0.0
 11
-64.37044799999999
 21
-1.852883999999995
 31
0.0
 12
-64.87044799999999
 22
-4.852883999999995
 32
0.0
 13
-64.87044799999999
 23
-4.852883999999995
 33
0.0
  0
POINT
  5
2D047
330
2D03F
100
AcDbEntity
  8
DEFPOINTS
 62
     0
100
AcDbPoint
 10
-44.49544799999999
 20
135.1471159999999
 30
0.0
  0
POINT
  5
2D048
330
2D03F
100
AcDbEntity
  8
DEFPOINTS
 62
     0
100
AcDbPoint
 10
-46.37044799999999
 20
-4.852883999999998
 30
0.0
  0
POINT
  5
2D049
330
2D03F
100
AcDbEntity
  8
DEFPOINTS
 62
     0
100
AcDbPoint
 10
-64.87044799999999
 20
-4.852883999999995
 30
0.0
  0
ENDBLK
  5
2D04A
330
2D03F
100
AcDbEntity
  8
0
100
AcDbBlockEnd
  0
BLOCK
  5
2D04C
330
2D04B
100
AcDbEntity
  8
0
100
AcDbBlockBegin
  2
*D21
 70
     1
 10
0.0
 20
0.0
 30
0.0
  3
*D21
  1

  0
LINE
  5
2D04D
330
2D04B
100
AcDbEntity
  8
12
100
AcDbLine
 10
-41.99544799999999
 20
114.3073699999999
 30
0.0
 11
-57.37044799999996
 21
114.3073699999999
 31
0.0
  0
LINE
  5
2D04E
330
2D04B
100
AcDbEntity
  8
12
100
AcDbLine
 10
-48.87044799999999
 20
-4.852883999999998
 30
0.0
 11
-57.37044799999999
 21
-4.852883999999995
 31
0.0
  0
LINE
  5
2D04F
330
2D04B
100
AcDbEntity
  8
12
100
AcDbLine
 10
-54.87044799999997
 20
111.3073699999999
 30
0.0
 11
-54.87044799999999
 21
-1.852883999999995
 31
0.0
  0
TEXT
  5
2D050
330
2D04B
100
AcDbEntity
  8
1
100
AcDbText
 10
-56.37044818949289
 20
49.29867151906869
 30
0.0
 40
3.0
  1
119.2
 50
89.99999800000002
  7
TDM_STYLE
100
AcDbText
  0
SOLID
  5
2D051
330
2D04B
100
AcDbEntity
  8
12
100
AcDbTrace
 10
-55.37044799999997
 20
111.3073699999999
 30
0.0
 11
-54.37044799999998
 21
111.3073699999999
 31
0.0
 12
-54.87044799999996
 22
114.3073699999999
 32
0.0
 13
-54.87044799999996
 23
114.3073699999999
 33
0.0
  0
SOLID
  5
2D052
330
2D04B
100
AcDbEntity
  8
12
100
AcDbTrace
 10
-55.370448
 20
-1.852883999999995
 30
0.0
 11
-54.37044799999998
 21
-1.852883999999995
 31
0.0
 12
-54.87044799999999
 22
-4.852883999999995
 32
0.0
 13
-54.87044799999999
 23
-4.852883999999995
 33
0.0
  0
POINT
  5
2D053
330
2D04B
100
AcDbEntity
  8
DEFPOINTS
 62
     0
100
AcDbPoint
 10
-39.49544799999999
 20
114.3073699999999
 30
0.0
  0
POINT
  5
2D054
330
2D04B
100
AcDbEntity
  8
DEFPOINTS
 62
     0
100
AcDbPoint
 10
-46.37044799999999
 20
-4.852883999999998
 30
0.0
  0
POINT
  5
2D055
330
2D04B
100
AcDbEntity
  8
DEFPOINTS
 62
     0
100
AcDbPoint
 10
-54.87044799999999
 20
-4.852883999999995
 30
0.0
  0
ENDBLK
  5
2D056
330
2D04B
100
AcDbEntity
  8
0
100
AcDbBlockEnd
  0
BLOCK
  5
2D058
330
2D057
100
AcDbEntity
  8
0
100
AcDbBlockBegin
  2
*D22
 70
     1
 10
0.0
 20
0.0
 30
0.0
  3
*D22
  1

  0
LINE
  5
2D059
330
2D057
100
AcDbEntity
  8
20
100
AcDbLine
 10
-19.49544799999999
 20
-16.31121799999999
 30
0.0
 11
-19.495448
 21
-33.71150186376407
 31
0.0
  0
LINE
  5
2D05A
330
2D057
100
AcDbEntity
  8
20
100
AcDbLine
 10
-16.87082880289581
 20
-4.337964647295319
 30
0.0
 11
9.827806631198663
 21
-3.871913267157486
 31
0.0
  0
ARC
  5
2D05B
330
2D057
100
AcDbEntity
  8
20
100
AcDbCircle
 10
-19.49544799999999
 20
-4.383779999999998
 30
0.0
 40
26.82772186376408
100
AcDbArc
 50
276.410422185402
 51
302.1065756170198
  0
ARC
  5
2D05C
330
2D057
100
AcDbEntity
  8
20
100
AcDbCircle
 10
-19.49544799999999
 20
-4.383779999999998
 30
0.0
 40
26.82772186376408
100
AcDbArc
 50
328.8934794956582
 51
354.5896313739458
  0
SOLID
  5
2D05D
330
2D057
100
AcDbEntity
  8
20
100
AcDbTrace
 10
-16.47218479402494
 20
-31.54298276426573
 30
0.0
 11
-16.52809710769874
 21
-30.54454708121967
 31
0.0
 12
-19.49544800000001
 22
-31.21150186376407
 32
0.0
 13
-19.49544800000001
 23
-31.21150186376407
 33
0.0
  0
SOLID
  5
2D05E
330
2D057
100
AcDbEntity
  8
20
100
AcDbTrace
 10
6.71312443010804
 20
-6.894086111144287
 30
0.0
 11
7.712383886955564
 21
-6.932563869665179
 31
0.0
 12
7.328187434094486
 22
-3.915546619862162
 32
0.0
 13
7.328187434094486
 23
-3.915546619862162
 33
0.0
  0
TEXT
  5
2D05F
330
2D057
100
AcDbEntity
  8
20
100
AcDbText
 10
-6.360549999999999
 20
-28.4976
 30
0.0
 40
3.0
  1
91%%d0'
  7
TDM_STYLE
100
AcDbText
  0
POINT
  5
2D060
330
2D057
100
AcDbEntity
  8
DEFPOINTS
 62
     0
100
AcDbPoint
 10
-5.946640662318787
 20
-27.53883301496588
 30
0.0
  0
POINT
  5
2D061
330
2D057
100
AcDbEntity
  8
DEFPOINTS
 62
     0
100
AcDbPoint
 10
-19.49544799999999
 20
-4.383779999999998
 30
-1.947129
  0
POINT
  5
2D062
330
2D057
100
AcDbEntity
  8
DEFPOINTS
 62
     0
100
AcDbPoint
 10
-19.37044799999999
 20
-4.381598
 30
-1.947129
  0
POINT
  5
2D063
330
2D057
100
AcDbEntity
  8
DEFPOINTS
 62
     0
100
AcDbPoint
 10
-19.49544799999999
 20
-4.383779999999998
 30
-1.947129
  0
POINT
  5
2D064
330
2D057
100
AcDbEntity
  8
DEFPOINTS
 62
     0
100
AcDbPoint
 10
-19.49544799999999
 20
-13.81121799999999
 30
-1.947129
  0
ENDBLK
  5
2D065
330
2D057
100
AcDbEntity
  8
0
100
AcDbBlockEnd
  0
BLOCK
  5
2D067
330
2D066
100
AcDbEntity
  8
0
100
AcDbBlockBegin
  2
*D23
 70
     1
 10
0.0
 20
0.0
 30
0.0
  3
*D23
  1

  0
LINE
  5
2D3D7
330
2D066
100
AcDbEntity
  8
20
 62
     0
370
    -2
100
AcDbLine
 10
148.9583339999999
 20
-0.0000000000000071
 30
0.0
 11
160.7499999999999
 21
-0.0000000000000104
 31
0.0
  0
LINE
  5
2D3D8
330
2D066
100
AcDbEntity
  8
20
 62
     0
370
    -2
100
AcDbLine
 10
139.9999999999999
 20
-26.87500000000001
 30
0.0
 11
160.7499999999999
 21
-26.87500000000002
 31
0.0
  0
LINE
  5
2D3D9
330
2D066
100
AcDbEntity
  8
20
 62
     0
370
    -2
100
AcDbLine
 10
159.4999999999999
 20
-2.500000000000009
 30
0.0
 11
159.4999999999999
 21
-24.37500000000002
 31
0.0
  0
SOLID
  5
2D3DA
330
2D066
100
AcDbEntity
  8
20
 62
     0
100
AcDbTrace
 10
159.0833333333332
 20
-2.500000000000009
 30
0.0
 11
159.9166666666666
 21
-2.500000000000009
 31
0.0
 12
159.4999999999999
 22
-0.0000000000000101
 32
0.0
 13
159.4999999999999
 23
-0.0000000000000101
 33
0.0
  0
SOLID
  5
2D3DB
330
2D066
100
AcDbEntity
  8
20
 62
     0
100
AcDbTrace
 10
159.0833333333332
 20
-24.37500000000002
 30
0.0
 11
159.9166666666666
 21
-24.37500000000002
 31
0.0
 12
159.4999999999999
 22
-26.87500000000002
 32
0.0
 13
159.4999999999999
 23
-26.87500000000002
 33
0.0
  0
MTEXT
  5
2D3DC
330
2D066
100
AcDbEntity
  8
20
 62
     0
100
AcDbMText
 10
157.1249999999999
 20
-13.43750000000001
 30
0.0
 40
3.5
 41
0.0
 71
     5
 72
     1
  1
27
  7
SIMPLEX
 11
0.0000000000000001
 21
1.0
 31
0.0
 73
     1
 44
1.0
1001
ACAD
1000
MTEXTBEGIN
1070
    73
1070
     1
1070
    44
1040
1.0
1070
    74
1070
     0
1000
MTEXTEND
  0
POINT
  5
2D3DD
330
2D066
100
AcDbEntity
  8
DEFPOINTS
 62
     0
100
AcDbPoint
 10
148.9583339999999
 20
-0.0000000000000071
 30
0.0
  0
POINT
  5
2D3DE
330
2D066
100
AcDbEntity
  8
DEFPOINTS
 62
     0
100
AcDbPoint
 10
139.9999999999999
 20
-26.87500000000001
 30
0.0
  0
POINT
  5
2D3DF
330
2D066
100
AcDbEntity
  8
DEFPOINTS
 62
     0
100
AcDbPoint
 10
159.4999999999999
 20
-26.87500000000002
 30
0.0
  0
ENDBLK
  5
2D071
330
2D066
100
AcDbEntity
  8
0
100
AcDbBlockEnd
  0
BLOCK
  5
2D073
330
2D072
100
AcDbEntity
  8
0
100
AcDbBlockBegin
  2
*D24
 70
     1
 10
0.0
 20
0.0
 30
0.0
  3
*D24
  1

  0
LINE
  5
2D3CE
330
2D072
100
AcDbEntity
  8
12
 62
     0
370
    -2
100
AcDbLine
 10
0.0
 20
24.99999999999999
 30
0.0
 11
-39.75000000000004
 21
25.0
 31
0.0
  0
LINE
  5
2D3CF
330
2D072
100
AcDbEntity
  8
12
 62
     0
370
    -2
100
AcDbLine
 10
0.0
 20
-25.0
 30
0.0
 11
-39.75000000000004
 21
-24.99999999999999
 31
0.0
  0
LINE
  5
2D3D0
330
2D072
100
AcDbEntity
  8
12
 62
     0
370
    -2
100
AcDbLine
 10
-38.50000000000004
 20
22.5
 30
0.0
 11
-38.50000000000004
 21
-22.49999999999999
 31
0.0
  0
SOLID
  5
2D3D1
330
2D072
100
AcDbEntity
  8
12
 62
     0
100
AcDbTrace
 10
-38.91666666666669
 20
22.5
 30
0.0
 11
-38.08333333333337
 21
22.5
 31
0.0
 12
-38.50000000000004
 22
25.0
 32
0.0
 13
-38.50000000000004
 23
25.0
 33
0.0
  0
SOLID
  5
2D3D2
330
2D072
100
AcDbEntity
  8
12
 62
     0
100
AcDbTrace
 10
-38.91666666666671
 20
-22.49999999999999
 30
0.0
 11
-38.08333333333339
 21
-22.49999999999999
 31
0.0
 12
-38.50000000000004
 22
-24.99999999999999
 32
0.0
 13
-38.50000000000004
 23
-24.99999999999999
 33
0.0
  0
MTEXT
  5
2D3D3
330
2D072
100
AcDbEntity
  8
12
 62
     0
100
AcDbMText
 10
-40.87500000000003
 20
0.0000000000000003
 30
0.0
 40
3.5
 41
0.0
 71
     5
 72
     1
  1
D=50
  7
SIMPLEX
 11
0.0000000000000001
 21
1.0
 31
0.0
 73
     1
 44
1.0
1001
ACAD
1000
MTEXTBEGIN
1070
    73
1070
     1
1070
    44
1040
1.0
1070
    74
1070
     0
1000
MTEXTEND
  0
POINT
  5
2D3D4
330
2D072
100
AcDbEntity
  8
DEFPOINTS
 62
     0
100
AcDbPoint
 10
0.0
 20
24.99999999999999
 30
0.0
  0
POINT
  5
2D3D5
330
2D072
100
AcDbEntity
  8
DEFPOINTS
 62
     0
100
AcDbPoint
 10
0.0
 20
-25.0
 30
0.0
  0
POINT
  5
2D3D6
330
2D072
100
AcDbEntity
  8
DEFPOINTS
 62
     0
100
AcDbPoint
 10
-38.50000000000004
 20
-24.99999999999999
 30
0.0
  0
ENDBLK
  5
2D07D
330
2D072
100
AcDbEntity
  8
0
100
AcDbBlockEnd
  0
BLOCK
  5
2D07F
330
2D07E
100
AcDbEntity
  8
0
100
AcDbBlockBegin
  2
*D25
 70
     1
 10
0.0
 20
0.0
 30
0.0
  3
*D25
  1

  0
LINE
  5
2D3C5
330
2D07E
100
AcDbEntity
  8
12
 62
     0
370
    -2
100
AcDbLine
 10
20.83974599999999
 20
19.99999999999999
 30
0.0
 11
83.31706099999989
 21
19.99999999999997
 31
0.0
  0
LINE
  5
2D3C6
330
2D07E
100
AcDbEntity
  8
12
 62
     0
370
    -2
100
AcDbLine
 10
20.83974599999999
 20
-19.99999999999999
 30
0.0
 11
83.31706099999989
 21
-20.00000000000001
 31
0.0
  0
LINE
  5
2D3C7
330
2D07E
100
AcDbEntity
  8
12
 62
     0
370
    -2
100
AcDbLine
 10
82.06706099999989
 20
17.49999999999997
 30
0.0
 11
82.06706099999989
 21
-17.50000000000001
 31
0.0
  0
SOLID
  5
2D3C8
330
2D07E
100
AcDbEntity
  8
12
 62
     0
100
AcDbTrace
 10
81.65039433333324
 20
17.49999999999997
 30
0.0
 11
82.48372766666657
 21
17.49999999999997
 31
0.0
 12
82.06706099999989
 22
19.99999999999997
 32
0.0
 13
82.06706099999989
 23
19.99999999999997
 33
0.0
  0
SOLID
  5
2D3C9
330
2D07E
100
AcDbEntity
  8
12
 62
     0
100
AcDbTrace
 10
81.65039433333324
 20
-17.50000000000001
 30
0.0
 11
82.48372766666657
 21
-17.50000000000001
 31
0.0
 12
82.06706099999989
 22
-20.00000000000001
 32
0.0
 13
82.06706099999989
 23
-20.00000000000001
 33
0.0
  0
MTEXT
  5
2D3CA
330
2D07E
100
AcDbEntity
  8
12
 62
     0
100
AcDbMText
 10
79.69206099999991
 20
-0.0105269999999994
 30
0.0
 40
3.5
 41
0.0
 71
     5
 72
     1
  1
%%c40.0
  7
SIMPLEX
 11
0.0000000000000001
 21
1.0
 31
0.0
 73
     1
 44
1.0
1001
ACAD
1000
MTEXTBEGIN
1070
    73
1070
     1
1070
    44
1040
1.0
1070
    74
1070
     0
1000
MTEXTEND
  0
POINT
  5
2D3CB
330
2D07E
100
AcDbEntity
  8
DEFPOINTS
 62
     0
100
AcDbPoint
 10
20.83974599999999
 20
19.99999999999999
 30
0.0
  0
POINT
  5
2D3CC
330
2D07E
100
AcDbEntity
  8
DEFPOINTS
 62
     0
100
AcDbPoint
 10
20.83974599999999
 20
-19.99999999999999
 30
0.0
  0
POINT
  5
2D3CD
330
2D07E
100
AcDbEntity
  8
DEFPOINTS
 62
     0
100
AcDbPoint
 10
82.06706099999989
 20
-20.00000000000001
 30
0.0
  0
ENDBLK
  5
2D089
330
2D07E
100
AcDbEntity
  8
0
100
AcDbBlockEnd
  0
BLOCK
  5
2D08B
330
2D08A
100
AcDbEntity
  8
0
100
AcDbBlockBegin
  2
*D26
 70
     1
 10
0.0
 20
0.0
 30
0.0
  3
*D26
  1

  0
LINE
  5
2D3BB
330
2D08A
100
AcDbEntity
  8
20
 62
     0
370
    -2
100
AcDbLine
 10
0.0
 20
-25.0
 30
0.0
 11
-0.0000000000000015
 21
-49.62500000000002
 31
0.0
  0
LINE
  5
2D3BC
330
2D08A
100
AcDbEntity
  8
20
 62
     0
370
    -2
100
AcDbLine
 10
139.9999999999999
 20
-26.87500000000001
 30
0.0
 11
139.9999999999999
 21
-49.62500000000002
 31
0.0
  0
LINE
  5
2D3BD
330
2D08A
100
AcDbEntity
  8
20
 62
     0
370
    -2
100
AcDbLine
 10
2.499999999999997
 20
-48.37500000000002
 30
0.0
 11
67.6249999999999
 21
-48.37500000000002
 31
0.0
  0
LINE
  5
2D3BE
330
2D08A
100
AcDbEntity
  8
20
 62
     0
370
    -2
100
AcDbLine
 10
137.4999999999999
 20
-48.37500000000002
 30
0.0
 11
72.3749999999999
 21
-48.37500000000002
 31
0.0
  0
SOLID
  5
2D3BF
330
2D08A
100
AcDbEntity
  8
20
 62
     0
100
AcDbTrace
 10
2.499999999999997
 20
-47.95833333333336
 30
0.0
 11
2.499999999999997
 21
-48.79166666666669
 31
0.0
 12
-0.0000000000000014
 22
-48.37500000000002
 32
0.0
 13
-0.0000000000000014
 23
-48.37500000000002
 33
0.0
  0
SOLID
  5
2D3C0
330
2D08A
100
AcDbEntity
  8
20
 62
     0
100
AcDbTrace
 10
137.4999999999999
 20
-47.95833333333336
 30
0.0
 11
137.4999999999999
 21
-48.79166666666669
 31
0.0
 12
139.9999999999999
 22
-48.37500000000002
 32
0.0
 13
139.9999999999999
 23
-48.37500000000002
 33
0.0
  0
MTEXT
  5
2D3C1
330
2D08A
100
AcDbEntity
  8
20
 62
     0
100
AcDbMText
 10
69.9999999999999
 20
-48.37500000000002
 30
0.0
 40
3.5
 41
0.0
 71
     5
 72
     1
  1
140.0
  7
SIMPLEX
 11
0.0000000349065848
 21
0.9999999999999994
 31
0.0
 73
     1
 44
1.0
1001
ACAD
1000
MTEXTBEGIN
1070
    73
1070
     1
1070
    44
1040
1.0
1070
    74
1070
     0
1000
MTEXTEND
  0
POINT
  5
2D3C2
330
2D08A
100
AcDbEntity
  8
DEFPOINTS
 62
     0
100
AcDbPoint
 10
0.0
 20
-25.0
 30
0.0
  0
POINT
  5
2D3C3
330
2D08A
100
AcDbEntity
  8
DEFPOINTS
 62
     0
100
AcDbPoint
 10
139.9999999999999
 20
-26.87500000000001
 30
0.0
  0
POINT
  5
2D3C4
330
2D08A
100
AcDbEntity
  8
DEFPOINTS
 62
     0
100
AcDbPoint
 10
139.9999999999999
 20
-48.37500000000002
 30
0.0
  0
ENDBLK
  5
2D096
330
2D08A
100
AcDbEntity
  8
0
100
AcDbBlockEnd
  0
BLOCK
  5
2D098
330
2D097
100
AcDbEntity
  8
0
100
AcDbBlockBegin
  2
*D27
 70
     1
 10
0.0
 20
0.0
 30
0.0
  3
*D27
  1

  0
LINE
  5
2D3B1
330
2D097
100
AcDbEntity
  8
12
 62
     0
370
    -2
100
AcDbLine
 10
20.83974599999999
 20
-19.99999999999999
 30
0.0
 11
20.83974599999999
 21
-39.62500000000002
 31
0.0
  0
LINE
  5
2D3B2
330
2D097
100
AcDbEntity
  8
12
 62
     0
370
    -2
100
AcDbLine
 10
139.9999999999999
 20
-26.87500000000001
 30
0.0
 11
139.9999999999999
 21
-39.62500000000002
 31
0.0
  0
LINE
  5
2D3B3
330
2D097
100
AcDbEntity
  8
12
 62
     0
370
    -2
100
AcDbLine
 10
23.33974599999999
 20
-38.37500000000002
 30
0.0
 11
78.04487299999988
 21
-38.37500000000002
 31
0.0
  0
LINE
  5
2D3B4
330
2D097
100
AcDbEntity
  8
12
 62
     0
370
    -2
100
AcDbLine
 10
137.4999999999999
 20
-38.37500000000002
 30
0.0
 11
82.79487299999988
 21
-38.37500000000002
 31
0.0
  0
SOLID
  5
2D3B5
330
2D097
100
AcDbEntity
  8
12
 62
     0
100
AcDbTrace
 10
23.33974599999999
 20
-37.95833333333336
 30
0.0
 11
23.33974599999999
 21
-38.79166666666669
 31
0.0
 12
20.83974599999999
 22
-38.37500000000002
 32
0.0
 13
20.83974599999999
 23
-38.37500000000002
 33
0.0
  0
SOLID
  5
2D3B6
330
2D097
100
AcDbEntity
  8
12
 62
     0
100
AcDbTrace
 10
137.4999999999999
 20
-37.95833333333336
 30
0.0
 11
137.4999999999999
 21
-38.79166666666669
 31
0.0
 12
139.9999999999999
 22
-38.37500000000002
 32
0.0
 13
139.9999999999999
 23
-38.37500000000002
 33
0.0
  0
MTEXT
  5
2D3B7
330
2D097
100
AcDbEntity
  8
12
 62
     0
100
AcDbMText
 10
80.41987299999988
 20
-38.37500000000002
 30
0.0
 40
3.5
 41
0.0
 71
     5
 72
     1
  1
119.2
  7
SIMPLEX
 11
0.0000000349065848
 21
0.9999999999999994
 31
0.0
 73
     1
 44
1.0
1001
ACAD
1000
MTEXTBEGIN
1070
    73
1070
     1
1070
    44
1040
1.0
1070
    74
1070
     0
1000
MTEXTEND
  0
POINT
  5
2D3B8
330
2D097
100
AcDbEntity
  8
DEFPOINTS
 62
     0
100
AcDbPoint
 10
20.83974599999999
 20
-19.99999999999999
 30
0.0
  0
POINT
  5
2D3B9
330
2D097
100
AcDbEntity
  8
DEFPOINTS
 62
     0
100
AcDbPoint
 10
139.9999999999999
 20
-26.87500000000001
 30
0.0
  0
POINT
  5
2D3BA
330
2D097
100
AcDbEntity
  8
DEFPOINTS
 62
     0
100
AcDbPoint
 10
139.9999999999999
 20
-38.37500000000002
 30
0.0
  0
ENDBLK
  5
2D0A3
330
2D097
100
AcDbEntity
  8
0
100
AcDbBlockEnd
  0
BLOCK
  5
2D0A5
330
2D0A4
100
AcDbEntity
  8
0
100
AcDbBlockBegin
  2
*D28
 70
     1
 10
0.0
 20
0.0
 30
0.0
  3
*D28
  1

  0
LINE
  5
2D3A5
330
2D0A4
100
AcDbEntity
  8
20
 62
     0
370
    -2
100
AcDbLine
 10
148.9583339999999
 20
0.0
 30
0.0
 11
167.6086178637639
 21
0.0
 31
0.0
  0
LINE
  5
2D3A6
330
2D0A4
100
AcDbEntity
  8
20
 62
     0
370
    -2
100
AcDbLine
 10
139.5287139999999
 20
0.1249999999999858
 30
0.0
 11
139.0408459435112
 21
28.07344503264657
 31
0.0
  0
ARC
  5
2D3A7
330
2D0A4
100
AcDbEntity
  8
20
 62
     0
370
    -2
100
AcDbCircle
 10
139.5308959999999
 20
0.0
 30
0.0
 40
26.82772186376404
100
AcDbArc
 50
5.341166429780838
 51
39.70598801378222
  0
ARC
  5
2D3A8
330
2D0A4
100
AcDbEntity
  8
20
 62
     0
370
    -2
100
AcDbCircle
 10
139.5308959999999
 20
0.0
 30
0.0
 40
26.82772186376404
100
AcDbArc
 50
51.29406583086082
 51
85.65888712956414
  0
SOLID
  5
2D3A9
330
2D0A4
100
AcDbEntity
  8
20
 62
     0
100
AcDbTrace
 10
166.6583480138975
 20
2.516698819527661
 30
0.0
 11
165.8259197399894
 21
2.477870823920865
 31
0.0
 12
166.3586178637639
 22
-0.0000000000000142
 32
0.0
 13
166.3586178637639
 23
-0.0000000000000142
 33
0.0
  0
SOLID
  5
2D3AA
330
2D0A4
100
AcDbEntity
  8
20
 62
     0
100
AcDbTrace
 10
141.5494533736781
 20
26.33426557616186
 30
0.0
 11
141.573746800369
 21
27.16724473188189
 31
0.0
 12
139.0626626198634
 22
26.82363543409446
 32
0.0
 13
139.0626626198634
 23
26.82363543409446
 33
0.0
  0
MTEXT
  5
2D3AB
330
2D0A4
100
AcDbEntity
  8
20
 62
     0
100
AcDbMText
 10
158.3346858508498
 20
19.13489345788361
 30
0.0
 40
3.5
 41
0.0
 71
     5
 72
     1
  1
91%%d0'
  7
SIMPLEX
 11
0.7009092767484196
 21
0.7132504369210072
 31
0.0
 73
     1
 44
1.0
1001
ACAD
1000
MTEXTBEGIN
1070
    73
1070
     1
1070
    44
1040
1.0
1070
    74
1070
     0
1000
MTEXTEND
  0
POINT
  5
2D3AC
330
2D0A4
100
AcDbEntity
  8
DEFPOINTS
 62
     0
100
AcDbPoint
 10
162.685949014966
 20
13.54880733768078
 30
0.0
  0
POINT
  5
2D3AD
330
2D0A4
100
AcDbEntity
  8
DEFPOINTS
 62
     0
100
AcDbPoint
 10
139.5308959999999
 20
0.0
 30
-1.947129
  0
POINT
  5
2D3AE
330
2D0A4
100
AcDbEntity
  8
DEFPOINTS
 62
     0
100
AcDbPoint
 10
139.5287139999999
 20
0.1249999999999858
 30
-1.947129
  0
POINT
  5
2D3AF
330
2D0A4
100
AcDbEntity
  8
DEFPOINTS
 62
     0
100
AcDbPoint
 10
139.5308959999999
 20
0.0
 30
-1.947129
  0
POINT
  5
2D3B0
330
2D0A4
100
AcDbEntity
  8
DEFPOINTS
 62
     0
100
AcDbPoint
 10
148.9583339999999
 20
0.0
 30
-1.947129
  0
ENDBLK
  5
2D0B2
330
2D0A4
100
AcDbEntity
  8
0
100
AcDbBlockEnd
  0
BLOCK
  5
2D0B6
330
2D0B3
100
AcDbEntity
  8
0
100
AcDbBlockBegin
  2
_Zeropoint.dwg
 70
     0
 10
0.0
 20
0.0
 30
0.0
  3
_Zeropoint.dwg
  1

  0
HATCH
  5
2D0B7
330
2D0B3
100
AcDbEntity
  8
2
100
AcDbHatch
 10
0.0
 20
0.0
 30
0.0
210
0.0
220
0.0
230
1.0
  2
_USER
 70
     0
 71
     1
 91
        2
 92
        7
 72
     1
 73
     1
 93
        3
 10
-2.5
 20
0.0
 42
0.4142135623730951
 10
0.0
 20
-2.5
 42
0.0
 10
0.0
 20
0.0
 42
0.0
 97
        3
330
2D0B8
330
2D0BA
330
2D0B9
 92
        7
 72
     1
 73
     1
 93
        3
 10
0.0
 20
2.5
 42
0.0
 10
0.0
 20
0.0
 42
0.0
 10
2.5
 20
0.0
 42
0.4142135623730951
 97
        3
330
2D0B9
330
2D0B8
330
2D0BA
 75
     0
 76
     0
 52
45.0
 41
0.5
 77
     0
 78
     1
 53
45.0
 43
0.0
 44
0.0
 45
-0.3535533905932737
 46
0.3535533905932738
 79
     0
 47
0.0807540860238484
 98
        2
 10
-1.081351813010084
 20
-0.6749528531090621
 10
1.100054950607727
 20
1.263145885468702
  0
LINE
  5
2D0B8
102
{ACAD_REACTORS
330
2D0B7
102
}
330
2D0B3
100
AcDbEntity
  8
2
100
AcDbLine
 10
5.0
 20
0.0
 30
0.0
 11
-5.0
 21
0.0
 31
0.0
  0
LINE
  5
2D0B9
102
{ACAD_REACTORS
330
2D0B7
102
}
330
2D0B3
100
AcDbEntity
  8
2
100
AcDbLine
 10
0.0
 20
5.0
 30
0.0
 11
0.0
 21
-5.0
 31
0.0
  0
CIRCLE
  5
2D0BA
102
{ACAD_REACTORS
330
2D0B7
102
}
330
2D0B3
100
AcDbEntity
  8
2
100
AcDbCircle
 10
0.0
 20
0.0
 30
0.0
 40
2.5
  0
ENDBLK
  5
2D0BB
330
2D0B3
100
AcDbEntity
  8
0
100
AcDbBlockEnd
  0
BLOCK
  5
2D0BD
330
2D0BC
100
AcDbEntity
  8
0
100
AcDbBlockBegin
  2
_nullpunkt
 70
     0
 10
0.0
 20
0.0
 30
0.0
  3
_nullpunkt
  1

  0
INSERT
  5
2D0BE
330
2D0BC
100
AcDbEntity
  8
0
100
AcDbBlockReference
  2
_Zeropoint.dwg
 10
0.0
 20
0.0
 30
0.0
  0
ENDBLK
  5
2D0BF
330
2D0BC
100
AcDbEntity
  8
0
100
AcDbBlockEnd
  0
ENDSEC
  0
SECTION
  2
ENTITIES
  0
POINT
  5
2D0F9
330
18
100
AcDbEntity
  8
81
100
AcDbPoint
 10
139.9999999999999
 20
-26.87500000000001
 30
0.0
 50
90.0
  0
POINT
  5
2D0FA
330
18
100
AcDbEntity
  8
80
100
AcDbPoint
 10
0.0
 20
0.0
 30
0.0
 50
90.0
  0
LINE
  5
2D0FB
330
18
100
AcDbEntity
  8
1
100
AcDbLine
 10
139.1423109999999
 20
-8.342709000000008
 30
0.0
 11
129.9398199999999
 21
6.604081999999992
 31
0.0
  0
LINE
  5
2D0FC
330
18
100
AcDbEntity
  8
1
100
AcDbLine
 10
129.9398199999999
 20
6.604081999999992
 30
0.0
 11
117.8234949999999
 21
13.59944599999998
 31
0.0
  0
LINE
  5
2D0FD
330
18
100
AcDbEntity
  8
1
100
AcDbLine
 10
126.4131709999999
 20
-19.64229300000001
 30
0.0
 11
139.4596819999999
 21
-26.52490900000002
 31
0.0
  0
LINE
  5
2D0FE
330
18
100
AcDbEntity
  8
1
100
AcDbLine
 10
134.5989449999999
 20
-0.9633220000000191
 30
0.0
 11
118.4340399999999
 21
-10.87566800000001
 31
0.0
  0
LINE
  5
2D0FF
330
18
100
AcDbEntity
  8
1
100
AcDbLine
 10
19.49999999999998
 20
-25.0
 30
0.0
 11
20.83974599999999
 21
-19.99999999999999
 31
0.0
  0
LINE
  5
2D100
330
18
100
AcDbEntity
  8
1
100
AcDbLine
 10
20.83974599999999
 20
-19.99999999999999
 30
0.0
 11
122.1265799999999
 21
-20.00000000000001
 31
0.0
  0
LINE
  5
2D101
330
18
100
AcDbEntity
  8
1
100
AcDbLine
 10
19.49999999999998
 20
24.99999999999999
 30
0.0
 11
20.83974599999999
 21
19.99999999999999
 31
0.0
  0
LINE
  5
2D102
330
18
100
AcDbEntity
  8
1
100
AcDbLine
 10
20.83974599999999
 20
19.99999999999999
 30
0.0
 11
106.7374099999999
 21
19.99999999999998
 31
0.0
  0
LINE
  5
2D103
330
18
100
AcDbEntity
  8
1
100
AcDbLine
 10
19.49999999999998
 20
24.99999999999999
 30
0.0
 11
19.49999999999998
 21
-25.0
 31
0.0
  0
LINE
  5
2D104
330
18
100
AcDbEntity
  8
1
100
AcDbLine
 10
23.90905399999988
 20
-19.99999999999999
 30
0.0
 11
122.1265799999999
 21
-20.00000000000001
 31
0.0
  0
LINE
  5
2D105
330
18
100
AcDbEntity
  8
1
100
AcDbLine
 10
23.90905399999988
 20
19.99999999999999
 30
0.0
 11
106.7374099999999
 21
19.99999999999998
 31
0.0
  0
LINE
  5
2D106
330
18
100
AcDbEntity
  8
1
100
AcDbLine
 10
19.49999999999998
 20
-25.0
 30
0.0
 11
20.045351
 21
-22.964724
 31
0.0
  0
LINE
  5
2D107
330
18
100
AcDbEntity
  8
1
100
AcDbLine
 10
19.49999999999998
 20
24.99999999999999
 30
0.0
 11
20.045351
 21
22.96472399999999
 31
0.0
  0
LINE
  5
2D108
330
18
100
AcDbEntity
  8
1
100
AcDbLine
 10
116.7076349999999
 20
-14.50834800000002
 30
0.0
 11
116.7076349999999
 21
-20.00000000000001
 31
0.0
  0
LINE
  5
2D109
330
18
100
AcDbEntity
  8
1
100
AcDbLine
 10
115.6634579999999
 20
-15.766093
 30
0.0
 11
115.6634579999999
 21
-20.00000000000001
 31
0.0
  0
LINE
  5
2D10A
330
18
100
AcDbEntity
  8
1
100
AcDbLine
 10
17.4379449999999
 20
0.0
 30
0.0
 11
15.9999999999999
 21
0.0
 31
0.0
  0
LINE
  5
2D10B
330
18
100
AcDbEntity
  8
1
100
AcDbLine
 10
0.0
 20
5.997256999999991
 30
0.0
 11
0.0
 21
-5.997257999999997
 31
0.0
  0
LINE
  5
2D10C
330
18
100
AcDbEntity
  8
1
100
AcDbLine
 10
8.538675999999995
 20
-7.529667000000021
 30
0.0
 11
8.538675999999995
 21
-23.83913000000001
 31
0.0
  0
LINE
  5
2D10D
330
18
100
AcDbEntity
  8
1
100
AcDbLine
 10
11.46132499999999
 20
-7.529667000000021
 30
0.0
 11
11.46132499999999
 21
-23.83913000000001
 31
0.0
  0
LINE
  5
2D10E
330
18
100
AcDbEntity
  8
1
100
AcDbLine
 10
8.105662999999893
 20
-8.055849000000009
 30
0.0
 11
8.10567499999999
 21
-23.66654900000001
 31
0.0
  0
LINE
  5
2D10F
330
18
100
AcDbEntity
  8
1
100
AcDbLine
 10
11.89433799999989
 20
-8.055849000000009
 30
0.0
 11
11.89432599999991
 21
-23.66654900000001
 31
0.0
  0
LINE
  5
2D110
330
18
100
AcDbEntity
  8
1
100
AcDbLine
 10
8.538675999999995
 20
23.83912999999999
 30
0.0
 11
8.538675999999995
 21
7.529666999999999
 31
0.0
  0
LINE
  5
2D111
330
18
100
AcDbEntity
  8
1
100
AcDbLine
 10
11.46132499999999
 20
23.83912999999999
 30
0.0
 11
11.46132499999999
 21
7.529666999999999
 31
0.0
  0
LINE
  5
2D112
330
18
100
AcDbEntity
  8
1
100
AcDbLine
 10
8.105662999999893
 20
23.66650199999999
 30
0.0
 11
8.10567499999999
 21
8.055771000000001
 31
0.0
  0
LINE
  5
2D113
330
18
100
AcDbEntity
  8
1
100
AcDbLine
 10
11.89433799999989
 20
23.66650199999999
 30
0.0
 11
11.89432599999991
 21
8.055771000000001
 31
0.0
  0
LINE
  5
2D114
330
18
100
AcDbEntity
  8
11
100
AcDbLine
 10
-30.0
 20
15.92141199999999
 30
0.0
 11
-30.0
 21
-15.92141200000001
 31
0.0
  0
LINE
  5
2D115
330
18
100
AcDbEntity
  8
11
100
AcDbLine
 10
-2.043353999999879
 20
-17.44891199999999
 30
0.0
 11
-28.5
 21
-16.78743799999999
 31
0.0
  0
LINE
  5
2D116
330
18
100
AcDbEntity
  8
11
100
AcDbLine
 10
-2.043353999999879
 20
17.44891099999999
 30
0.0
 11
-28.5
 21
16.78743699999999
 31
0.0
  0
LINE
  5
2D117
330
18
100
AcDbEntity
  8
1
100
AcDbLine
 10
19.49999999999998
 20
-25.0
 30
0.0
 11
0.0
 21
-25.0
 31
0.0
  0
LINE
  5
2D118
330
18
100
AcDbEntity
  8
1
100
AcDbLine
 10
19.49999999999998
 20
24.99999999999999
 30
0.0
 11
0.0
 21
24.99999999999999
 31
0.0
  0
LINE
  5
2D119
330
18
100
AcDbEntity
  8
11
100
AcDbLine
 10
-2.043353999999879
 20
17.44891099999999
 30
0.0
 11
-2.043353999999879
 21
-17.44891199999999
 31
0.0
  0
LINE
  5
2D11A
330
18
100
AcDbEntity
  8
11
100
AcDbLine
 10
-28.5
 20
16.78743699999999
 30
0.0
 11
-28.5
 21
-16.78743799999999
 31
0.0
  0
LINE
  5
2D11B
330
18
100
AcDbEntity
  8
11
100
AcDbLine
 10
-28.5
 20
16.78743699999999
 30
0.0
 11
-30.0
 21
15.92141199999999
 31
0.0
  0
LINE
  5
2D11C
330
18
100
AcDbEntity
  8
11
100
AcDbLine
 10
-28.5
 20
-16.78743799999999
 30
0.0
 11
-30.0
 21
-15.92141200000001
 31
0.0
  0
LINE
  5
2D11D
330
18
100
AcDbEntity
  8
1
100
AcDbLine
 10
139.9998769999999
 20
-26.06585100000002
 30
0.0
 11
139.7643619999999
 21
-12.57319500000002
 31
0.0
  0
LINE
  5
2D11E
330
18
100
AcDbEntity
  8
1
100
AcDbLine
 10
138.5684579999999
 20
-11.94230300000002
 30
0.0
 11
126.8494519999999
 21
-19.12841600000002
 31
0.0
  0
LINE
  5
2D11F
330
18
100
AcDbEntity
  8
1
100
AcDbLine
 10
126.8730129999999
 20
-20.47819200000003
 30
0.0
 11
138.8275339999999
 21
-26.78473400000002
 31
0.0
  0
LINE
  5
2D120
330
18
100
AcDbEntity
  8
1
100
AcDbLine
 10
135.8315479999999
 20
-1.799176000000004
 30
0.0
 11
138.9629509999999
 21
-6.876550000000007
 31
0.0
  0
LINE
  5
2D121
330
18
100
AcDbEntity
  8
1
100
AcDbLine
 10
139.5642209999999
 20
-7.943601000000017
 30
0.0
 11
135.5424969999999
 21
-1.427243000000018
 31
0.0
  0
LINE
  5
2D122
330
18
100
AcDbEntity
  8
1
100
AcDbLine
 10
135.3103409999999
 20
-1.041168000000004
 30
0.0
 11
135.3386539999999
 21
-1.091414000000007
 31
0.0
  0
LINE
  5
2D123
330
18
100
AcDbEntity
  8
1
100
AcDbLine
 10
123.7937189999999
 20
-17.61409800000002
 30
0.0
 11
119.7719959999999
 21
-11.09774000000002
 31
0.0
  0
LINE
  5
2D124
330
18
100
AcDbEntity
  8
1
100
AcDbLine
 10
119.5398399999999
 20
-10.71166500000002
 30
0.0
 11
119.5681529999999
 21
-10.76191000000002
 31
0.0
  0
LINE
  5
2D125
330
18
100
AcDbEntity
  8
1
100
AcDbLine
 10
126.4595769999999
 20
-18.97682800000002
 30
0.0
 11
131.3160929999999
 21
-15.99880500000002
 31
0.0
  0
LINE
  5
2D126
330
18
100
AcDbEntity
  8
1
100
AcDbLine
 10
126.8494519999999
 20
-19.12841600000002
 30
0.0
 11
131.4936129999999
 21
-16.28061000000001
 31
0.0
  0
LINE
  5
2D127
330
18
100
AcDbEntity
  8
1
100
AcDbLine
 10
135.3386539999999
 20
-1.091414000000007
 30
0.0
 11
119.5681529999999
 21
-10.76191000000002
 31
0.0
  0
LINE
  5
2D128
330
18
100
AcDbEntity
  8
1
100
AcDbLine
 10
135.5424969999999
 20
-1.427243000000018
 30
0.0
 11
119.7719959999999
 21
-11.09774000000002
 31
0.0
  0
LINE
  5
2D129
330
18
100
AcDbEntity
  8
1
100
AcDbLine
 10
139.5642209999999
 20
-7.943601000000017
 30
0.0
 11
138.9629509999999
 21
-6.876550000000007
 31
0.0
  0
LINE
  5
2D12A
330
18
100
AcDbEntity
  8
1
100
AcDbLine
 10
139.5642209999999
 20
-7.943601000000017
 30
0.0
 11
139.5824469999999
 21
-10.92986400000001
 31
0.0
  0
LINE
  5
2D12B
330
18
100
AcDbEntity
  8
1
100
AcDbLine
 10
139.5476109999999
 20
-11.34188500000002
 30
0.0
 11
139.3336869999999
 21
-11.36663600000002
 31
0.0
  0
LINE
  5
2D12C
330
18
100
AcDbEntity
  8
1
100
AcDbLine
 10
139.2601119999999
 20
-11.23606600000002
 30
0.0
 11
138.9479879999999
 21
-10.12974400000001
 31
0.0
  0
LINE
  5
2D12D
330
18
100
AcDbEntity
  8
1
100
AcDbLine
 10
138.9724819999999
 20
-8.223789000000017
 30
0.0
 11
138.9456709999999
 21
-9.170547000000018
 31
0.0
  0
LINE
  5
2D12E
330
18
100
AcDbEntity
  8
1
100
AcDbLine
 10
138.9739239999999
 20
-8.042146000000007
 30
0.0
 11
138.9629509999999
 21
-6.876550000000007
 31
0.0
  0
LINE
  5
2D12F
330
18
100
AcDbEntity
  8
1
100
AcDbLine
 10
134.1442989999999
 20
-8.871959000000018
 30
0.0
 11
134.4436649999999
 21
-9.357019000000008
 31
0.0
  0
LINE
  5
2D130
330
18
100
AcDbEntity
  8
1
100
AcDbLine
 10
127.0688849999999
 20
-13.21061400000002
 30
0.0
 11
127.3682509999999
 21
-13.69567400000002
 31
0.0
  0
LINE
  5
2D131
330
18
100
AcDbEntity
  8
1
100
AcDbLine
 10
139.5824469999999
 20
-10.92986400000001
 30
0.0
 11
134.7259309999999
 21
-13.90788700000001
 31
0.0
  0
LINE
  5
2D132
330
18
100
AcDbEntity
  8
1
100
AcDbLine
 10
139.5476109999999
 20
-11.34188500000002
 30
0.0
 11
134.9034509999999
 21
-14.18969100000001
 31
0.0
  0
LINE
  5
2D133
330
18
100
AcDbEntity
  8
1
100
AcDbLine
 10
134.4250809999999
 20
-13.42042300000002
 30
0.0
 11
134.7259309999999
 21
-13.90788700000001
 31
0.0
  0
LINE
  5
2D134
330
18
100
AcDbEntity
  8
1
100
AcDbLine
 10
131.0152429999999
 20
-15.51134100000002
 30
0.0
 11
131.3160929999999
 21
-15.99880500000002
 31
0.0
  0
LINE
  5
2D135
330
18
100
AcDbEntity
  8
1
100
AcDbLine
 10
131.4711379999998
 20
-16.22122700000002
 30
0.0
 11
134.8809759999999
 21
-14.13030900000002
 31
0.0
  0
LINE
  5
2D136
330
18
100
AcDbEntity
  8
1
100
AcDbLine
 10
123.7937189999999
 20
-17.61409800000002
 30
0.0
 11
126.4595769999999
 21
-18.97682800000002
 31
0.0
  0
LINE
  5
2D137
330
18
100
AcDbEntity
  8
1
100
AcDbLine
 10
139.5287139999999
 20
0.1249999999999929
 30
0.0
 11
139.5304589999999
 21
0.0249999999999808
 31
0.0
  0
LINE
  5
2D138
330
18
100
AcDbEntity
  8
1
100
AcDbLine
 10
139.9999999999999
 20
-26.87500000000001
 30
0.0
 11
139.9999999999999
 21
-26.975
 31
0.0
  0
LINE
  5
2D139
330
18
100
AcDbEntity
  8
1
100
AcDbLine
 10
0.0
 20
-25.0
 30
0.0
 11
0.0
 21
24.99999999999999
 31
0.0
  0
LINE
  5
2D13A
330
18
100
AcDbEntity
  8
1
100
AcDbLine
 10
106.7373999999999
 20
20.00000599999999
 30
0.0
 11
114.6489669999999
 21
15.43225999999998
 31
0.0
  0
LINE
  5
2D13B
330
18
100
AcDbEntity
  8
1
100
AcDbLine
 10
117.8234949999999
 20
13.59944599999998
 30
0.0
 11
114.6489669999999
 21
15.43225999999998
 31
0.0
  0
ARC
  5
2D13C
330
18
100
AcDbEntity
  8
1
100
AcDbCircle
 10
-23.90905399999988
 20
-24.0
 30
0.0
 40
4.0
210
0.0
220
0.0
230
-1.0
100
AcDbArc
 50
14.99999999999998
 51
90.0
  0
ARC
  5
2D13D
330
18
100
AcDbEntity
  8
1
100
AcDbCircle
 10
-23.90905399999988
 20
23.99999999999999
 30
0.0
 40
4.0
210
0.0
220
0.0
230
-1.0
100
AcDbArc
 50
270.0
 51
345.0
  0
CIRCLE
  5
2D13E
330
18
100
AcDbEntity
  8
1
100
AcDbCircle
 10
-89.55956099999989
 20
0.0
 30
0.0
 40
3.007499999999998
210
0.0
220
0.0
230
-1.0
  0
LWPOLYLINE
  5
2D13F
330
18
100
AcDbEntity
  8
1
100
AcDbPolyline
 90
        9
 70
     0
 43
0.0
 10
-126.8730129999999
 20
-20.47819200000003
 10
-126.7073569999999
 20
-20.36042200000003
 10
-126.5790869999999
 20
-20.20368600000002
 10
-126.4969439999999
 20
-20.01866500000002
 10
-126.4665239999999
 20
-19.81796900000002
 10
-126.4899019999999
 20
-19.61527400000001
 10
-126.5654849999999
 20
-19.42439300000001
 10
-126.6881199999999
 20
-19.25833500000001
 10
-126.8494519999999
 20
-19.12841600000002
210
0.0
220
0.0
230
-1.0
  0
LINE
  5
2D140
330
18
100
AcDbEntity
  8
1
100
AcDbLine
 10
135.5424969999999
 20
-1.427243000000018
 30
0.0
 11
135.3386539999999
 21
-1.091414000000007
 31
0.0
210
0.0
220
0.0
230
-1.0
  0
LINE
  5
2D141
330
18
100
AcDbEntity
  8
1
100
AcDbLine
 10
119.7719959999999
 20
-11.09774000000002
 30
0.0
 11
119.5681529999999
 21
-10.76191000000002
 31
0.0
210
0.0
220
0.0
230
-1.0
  0
LWPOLYLINE
  5
2D142
330
18
100
AcDbEntity
  8
1
100
AcDbPolyline
 90
        9
 70
     0
 43
0.0
 10
-139.9998769999999
 20
-26.06585100000002
 10
-139.9764989999999
 20
-26.268546
 10
-139.9009169999999
 20
-26.45942700000001
 10
-139.7782809999999
 20
-26.62548500000002
 10
-139.6169499999999
 20
-26.75540400000002
 10
-139.4279159999999
 20
-26.84032900000002
 10
-139.2240639999999
 20
-26.87447400000001
 10
-139.0192849999999
 20
-26.85551200000001
 10
-138.8275339999999
 20
-26.78473400000002
210
0.0
220
0.0
230
-1.0
  0
LWPOLYLINE
  5
2D143
330
18
100
AcDbEntity
  8
1
100
AcDbPolyline
 90
       32
 70
     1
 43
0.0
 10
-135.1144799999999
 20
-17.62573400000001
 10
-135.4846079999999
 20
-17.64793100000001
 10
-135.8417669999999
 20
-17.74112800000002
 10
-136.1722309999999
 20
-17.90174200000002
 10
-136.4632999999999
 20
-18.12360100000001
 10
-136.7037889999999
 20
-18.39818000000002
 10
-136.8844559999999
 20
-18.71492600000002
 10
-136.9983579999999
 20
-19.06166700000001
 10
-137.0411169999999
 20
-19.42507800000002
 10
-137.0110919999999
 20
-19.79119400000002
 10
-136.9094339999999
 20
-20.14594400000001
 10
-136.7400519999999
 20
-20.47569600000002
 10
-136.5094539999999
 20
-20.76777700000002
 10
-136.2265029999999
 20
-21.01096400000002
 10
-135.9020709999999
 20
-21.19591000000002
 10
-135.5486259999999
 20
-21.31550900000002
 10
-135.1797519999999
 20
-21.36516300000002
 10
-134.8096239999999
 20
-21.34296600000001
 10
-134.4524649999999
 20
-21.24976900000001
 10
-134.1220009999999
 20
-21.08915500000002
 10
-133.8309319999999
 20
-20.86729600000001
 10
-133.5904429999999
 20
-20.59271700000002
 10
-133.4097759999999
 20
-20.27597100000002
 10
-133.2958739999999
 20
-19.92923000000002
 10
-133.2531149999999
 20
-19.56581900000002
 10
-133.2831399999999
 20
-19.19970300000002
 10
-133.3847979999999
 20
-18.84495300000002
 10
-133.5541799999999
 20
-18.51520100000002
 10
-133.7847779999999
 20
-18.22312000000001
 10
-134.0677289999999
 20
-17.97993300000001
 10
-134.3921609999999
 20
-17.794987
 10
-134.7456059999999
 20
-17.67538800000002
210
0.0
220
0.0
230
-1.0
  0
LWPOLYLINE
  5
2D144
330
18
100
AcDbEntity
  8
1
100
AcDbPolyline
 90
        9
 70
     0
 43
0.0
 10
-138.5684579999999
 20
-11.94230300000002
 10
-138.7574909999999
 20
-11.85737700000002
 10
-138.9613439999999
 20
-11.82323200000002
 10
-139.1661229999999
 20
-11.84219500000001
 10
-139.3578739999999
 20
-11.91297300000002
 10
-139.5235289999999
 20
-12.03074200000002
 10
-139.6517989999999
 20
-12.18747800000002
 10
-139.7339429999999
 20
-12.37249900000001
 10
-139.7643619999999
 20
-12.57319500000002
210
0.0
220
0.0
230
-1.0
  0
LWPOLYLINE
  5
2D145
330
18
100
AcDbEntity
  8
1
100
AcDbPolyline
 90
        3
 70
     0
 43
0.0
 10
-135.3103409999999
 20
-1.041168000000004
 10
-135.7163589999999
 20
-1.622532000000004
 10
-135.8315479999999
 20
-1.799176000000004
210
0.0
220
0.0
230
-1.0
  0
LWPOLYLINE
  5
2D146
330
18
100
AcDbEntity
  8
1
100
AcDbPolyline
 90
       12
 70
     0
 43
0.0
 10
-122.1265799999999
 20
-20.00000000000001
 10
-122.6057809999999
 20
-19.69160600000001
 10
-123.1231109999999
 20
-19.45272800000002
 10
-123.6680679999999
 20
-19.28821600000002
 10
-124.2295889999999
 20
-19.20140900000002
 10
-124.7962759999999
 20
-19.194069
 10
-125.0779599999999
 20
-19.22031000000002
 10
-125.3566259999999
 20
-19.26634600000002
 10
-125.6308579999999
 20
-19.33194400000001
 10
-125.8992619999999
 20
-19.41677200000001
 10
-126.1604759999999
 20
-19.52039700000002
 10
-126.4131709999999
 20
-19.64229300000001
210
0.0
220
0.0
230
-1.0
  0
LWPOLYLINE
  5
2D147
330
18
100
AcDbEntity
  8
1
100
AcDbPolyline
 90
       10
 70
     0
 43
0.0
 10
-116.7076349999999
 20
-14.50834800000002
 10
-116.7405549999999
 20
-14.00338300000002
 10
-116.8387669999999
 20
-13.50545100000001
 10
-117.0006469999999
 20
-13.02279300000001
 10
-117.2235139999999
 20
-12.56339900000002
 10
-117.5036809999999
 20
-12.13487400000001
 10
-117.8365089999999
 20
-11.74431000000002
 10
-118.2164899999999
 20
-11.39817200000002
 10
-118.6373329999999
 20
-11.10219000000002
 10
-118.6373329999999
 20
-11.10219000000002
210
0.0
220
0.0
230
-1.0
  0
LWPOLYLINE
  5
2D148
330
18
100
AcDbEntity
  8
1
100
AcDbPolyline
 90
       17
 70
     0
 43
0.0
 10
-115.6634579999999
 20
-15.766093
 10
-115.6752859999999
 20
-15.40307400000002
 10
-115.7107209999999
 20
-15.04108400000002
 10
-115.7696179999999
 20
-14.68162000000001
 10
-115.8517309999999
 20
-14.32617200000002
 10
-115.9567199999999
 20
-13.97621300000001
 10
-116.0841509999999
 20
-13.63319200000002
 10
-116.2334959999999
 20
-13.29853000000002
 10
-116.4041359999999
 20
-12.97361300000001
 10
-116.5953639999999
 20
-12.65978800000002
 10
-116.8063879999999
 20
-12.35835300000002
 10
-117.0363339999999
 20
-12.07055900000002
 10
-117.2842489999999
 20
-11.79759700000002
 10
-117.5491069999999
 20
-11.54059800000002
 10
-117.8298099999999
 20
-11.30062700000001
 10
-118.1251949999999
 20
-11.07867700000001
 10
-118.4340399999999
 20
-10.87566800000001
210
0.0
220
0.0
230
-1.0
  0
POLYLINE
  5
2D149
330
18
100
AcDbEntity
  8
11
100
AcDb2dPolyline
 66
     1
 10
0.0
 20
0.0
 30
0.0
 70
     4
 75
     6
  0
VERTEX
  5
2D14A
330
2D149
100
AcDbEntity
  8
11
100
AcDbVertex
100
AcDb2dVertex
 10
-2.043353999999879
 20
17.44891099999999
 30
0.0
 70
    16
  0
VERTEX
  5
2D14B
330
2D149
100
AcDbEntity
  8
11
100
AcDbVertex
100
AcDb2dVertex
 10
-2.026289000000105
 20
17.43552699999999
 30
0.0
 70
    16
  0
VERTEX
  5
2D14C
330
2D149
100
AcDbEntity
  8
11
100
AcDbVertex
100
AcDb2dVertex
 10
-2.008970000000116
 20
17.42247199999999
 30
0.0
 70
    16
  0
VERTEX
  5
2D14D
330
2D149
100
AcDbEntity
  8
11
100
AcDbVertex
100
AcDb2dVertex
 10
-1.77144600000011
 20
17.25188399999999
 30
0.0
 70
    16
  0
VERTEX
  5
2D14E
330
2D149
100
AcDbEntity
  8
11
100
AcDbVertex
100
AcDb2dVertex
 10
-1.486874
 20
17.21058299999999
 30
0.0
 70
    16
  0
VERTEX
  5
2D14F
330
2D149
100
AcDbEntity
  8
11
100
AcDbVertex
100
AcDb2dVertex
 10
-0.8162060000001075
 20
17.07141699999999
 30
0.0
 70
    16
  0
VERTEX
  5
2D150
330
2D149
100
AcDbEntity
  8
11
100
AcDbVertex
100
AcDb2dVertex
 10
-0.4133830000000958
 20
17.00024499999999
 30
0.0
 70
    16
  0
VERTEX
  5
2D151
330
2D149
100
AcDbEntity
  8
11
100
AcDbVertex
100
AcDb2dVertex
 10
0.0
 20
17.00458199999999
 30
0.0
 70
    16
  0
VERTEX
  5
2D152
330
2D149
100
AcDbEntity
  8
11
100
AcDbVertex
100
AcDb2dVertex
 10
-2.043353999999879
 20
17.44891099999999
 30
0.0
 70
     8
  0
VERTEX
  5
2D153
330
2D149
100
AcDbEntity
  8
11
100
AcDbVertex
100
AcDb2dVertex
 10
-1.991358000000104
 20
17.40982299999999
 30
0.0
 70
     8
  0
VERTEX
  5
2D154
330
2D149
100
AcDbEntity
  8
11
100
AcDbVertex
100
AcDb2dVertex
 10
-1.752945000000122
 20
17.28592199999999
 30
0.0
 70
     8
  0
VERTEX
  5
2D155
330
2D149
100
AcDbEntity
  8
11
100
AcDbVertex
100
AcDb2dVertex
 10
-1.489735999999878
 20
17.21073499999999
 30
0.0
 70
     8
  0
VERTEX
  5
2D156
330
2D149
100
AcDbEntity
  8
11
100
AcDbVertex
100
AcDb2dVertex
 10
-0.8161150000001098
 20
17.07795399999999
 30
0.0
 70
     8
  0
VERTEX
  5
2D157
330
2D149
100
AcDbEntity
  8
11
100
AcDbVertex
100
AcDb2dVertex
 10
-0.4102910000001148
 20
17.02308599999999
 30
0.0
 70
     8
  0
VERTEX
  5
2D158
330
2D149
100
AcDbEntity
  8
11
100
AcDbVertex
100
AcDb2dVertex
 10
0.0
 20
17.00458199999999
 30
0.0
 70
     8
  0
SEQEND
  5
2D159
330
2D149
100
AcDbEntity
  8
11
  0
POLYLINE
  5
2D15A
330
18
100
AcDbEntity
  8
1
100
AcDb3dPolyline
 66
     1
 10
0.0
 20
0.0
 30
0.0
 70
    12
 75
     6
  0
VERTEX
  5
2D15B
330
2D15A
100
AcDbEntity
  8
1
100
AcDbVertex
100
AcDb3dPolylineVertex
 10
11.89432599999991
 20
8.055771000000001
 30
0.0
 70
    48
  0
VERTEX
  5
2D15C
330
2D15A
100
AcDbEntity
  8
1
100
AcDbVertex
100
AcDb3dPolylineVertex
 10
12.23171199999989
 20
9.308662999999992
 30
0.0
 70
    48
  0
VERTEX
  5
2D15D
330
2D15A
100
AcDbEntity
  8
1
100
AcDbVertex
100
AcDb3dPolylineVertex
 10
12.52658699999989
 20
10.56870699999999
 30
0.0
 70
    48
  0
VERTEX
  5
2D15E
330
2D15A
100
AcDbEntity
  8
1
100
AcDbVertex
100
AcDb3dPolylineVertex
 10
13.10417999999988
 20
13.63158699999999
 30
0.0
 70
    48
  0
VERTEX
  5
2D15F
330
2D15A
100
AcDbEntity
  8
1
100
AcDbVertex
100
AcDb3dPolylineVertex
 10
13.3385030000001
 20
15.43601399999999
 30
0.0
 70
    48
  0
VERTEX
  5
2D160
330
2D15A
100
AcDbEntity
  8
1
100
AcDbVertex
100
AcDb3dPolylineVertex
 10
13.39787799999999
 20
18.52552599999999
 30
0.0
 70
    48
  0
VERTEX
  5
2D161
330
2D15A
100
AcDbEntity
  8
1
100
AcDbVertex
100
AcDb3dPolylineVertex
 10
13.32969299999989
 20
19.81036299999999
 30
0.0
 70
    48
  0
VERTEX
  5
2D162
330
2D15A
100
AcDbEntity
  8
1
100
AcDbVertex
100
AcDb3dPolylineVertex
 10
12.92962899999989
 20
21.54277899999999
 30
0.0
 70
    48
  0
VERTEX
  5
2D163
330
2D15A
100
AcDbEntity
  8
1
100
AcDbVertex
100
AcDb3dPolylineVertex
 10
12.7950439999999
 20
21.98890799999999
 30
0.0
 70
    48
  0
VERTEX
  5
2D164
330
2D15A
100
AcDbEntity
  8
1
100
AcDbVertex
100
AcDb3dPolylineVertex
 10
12.4113979999999
 20
22.89342299999999
 30
0.0
 70
    48
  0
VERTEX
  5
2D165
330
2D15A
100
AcDbEntity
  8
1
100
AcDbVertex
100
AcDb3dPolylineVertex
 10
12.1951429999999
 20
23.28630599999999
 30
0.0
 70
    48
  0
VERTEX
  5
2D166
330
2D15A
100
AcDbEntity
  8
1
100
AcDbVertex
100
AcDb3dPolylineVertex
 10
11.89432599999991
 20
23.66654799999999
 30
0.0
 70
    48
  0
VERTEX
  5
2D167
330
2D15A
100
AcDbEntity
  8
1
100
AcDbVertex
100
AcDb3dPolylineVertex
 10
11.89432599999991
 20
8.055771000000001
 30
0.0
 70
    40
  0
VERTEX
  5
2D168
330
2D15A
100
AcDbEntity
  8
1
100
AcDbVertex
100
AcDb3dPolylineVertex
 10
12.2171189999999
 20
9.311437999999991
 30
0.0
 70
    40
  0
VERTEX
  5
2D169
330
2D15A
100
AcDbEntity
  8
1
100
AcDbVertex
100
AcDb3dPolylineVertex
 10
12.50903599999989
 20
10.57421699999999
 30
0.0
 70
    40
  0
VERTEX
  5
2D16A
330
2D15A
100
AcDbEntity
  8
1
100
AcDbVertex
100
AcDb3dPolylineVertex
 10
12.7675430000001
 20
11.84645499999999
 30
0.0
 70
    40
  0
VERTEX
  5
2D16B
330
2D15A
100
AcDbEntity
  8
1
100
AcDbVertex
100
AcDb3dPolylineVertex
 10
13.06647499999999
 20
13.63755499999999
 30
0.0
 70
    40
  0
VERTEX
  5
2D16C
330
2D15A
100
AcDbEntity
  8
1
100
AcDbVertex
100
AcDb3dPolylineVertex
 10
13.18361299999989
 20
14.53705999999999
 30
0.0
 70
    40
  0
VERTEX
  5
2D16D
330
2D15A
100
AcDbEntity
  8
1
100
AcDbVertex
100
AcDb3dPolylineVertex
 10
13.2755979999999
 20
15.43873899999999
 30
0.0
 70
    40
  0
VERTEX
  5
2D16E
330
2D15A
100
AcDbEntity
  8
1
100
AcDbVertex
100
AcDb3dPolylineVertex
 10
13.33973099999989
 20
16.34224299999999
 30
0.0
 70
    40
  0
VERTEX
  5
2D16F
330
2D15A
100
AcDbEntity
  8
1
100
AcDbVertex
100
AcDb3dPolylineVertex
 10
13.37331099999989
 20
17.24722499999999
 30
0.0
 70
    40
  0
VERTEX
  5
2D170
330
2D15A
100
AcDbEntity
  8
1
100
AcDbVertex
100
AcDb3dPolylineVertex
 10
13.36216299999989
 20
18.52646499999998
 30
0.0
 70
    40
  0
VERTEX
  5
2D171
330
2D15A
100
AcDbEntity
  8
1
100
AcDbVertex
100
AcDb3dPolylineVertex
 10
13.32440399999988
 20
19.16539299999999
 30
0.0
 70
    40
  0
VERTEX
  5
2D172
330
2D15A
100
AcDbEntity
  8
1
100
AcDbVertex
100
AcDb3dPolylineVertex
 10
13.26039199999989
 20
19.80262199999999
 30
0.0
 70
    40
  0
VERTEX
  5
2D173
330
2D15A
100
AcDbEntity
  8
1
100
AcDbVertex
100
AcDb3dPolylineVertex
 10
13.16652699999999
 20
20.43721899999999
 30
0.0
 70
    40
  0
VERTEX
  5
2D174
330
2D15A
100
AcDbEntity
  8
1
100
AcDbVertex
100
AcDb3dPolylineVertex
 10
13.0392099999999
 20
21.06825599999999
 30
0.0
 70
    40
  0
VERTEX
  5
2D175
330
2D15A
100
AcDbEntity
  8
1
100
AcDbVertex
100
AcDb3dPolylineVertex
 10
12.92000699999988
 20
21.53481399999999
 30
0.0
 70
    40
  0
VERTEX
  5
2D176
330
2D15A
100
AcDbEntity
  8
1
100
AcDbVertex
100
AcDb3dPolylineVertex
 10
12.77640799999989
 20
21.99144099999999
 30
0.0
 70
    40
  0
VERTEX
  5
2D177
330
2D15A
100
AcDbEntity
  8
1
100
AcDbVertex
100
AcDb3dPolylineVertex
 10
12.60068899999989
 20
22.44713599999999
 30
0.0
 70
    40
  0
VERTEX
  5
2D178
330
2D15A
100
AcDbEntity
  8
1
100
AcDbVertex
100
AcDb3dPolylineVertex
 10
12.4002769999999
 20
22.87713099999999
 30
0.0
 70
    40
  0
VERTEX
  5
2D179
330
2D15A
100
AcDbEntity
  8
1
100
AcDbVertex
100
AcDb3dPolylineVertex
 10
12.1690889999999
 20
23.28058299999999
 30
0.0
 70
    40
  0
VERTEX
  5
2D17A
330
2D15A
100
AcDbEntity
  8
1
100
AcDbVertex
100
AcDb3dPolylineVertex
 10
11.89432599999991
 20
23.66654799999999
 30
0.0
 70
    40
  0
SEQEND
  5
2D17B
330
2D15A
100
AcDbEntity
  8
1
  0
LINE
  5
2D17C
330
18
100
AcDbEntity
  8
1
100
AcDbLine
 10
8.538675999999995
 20
7.529666999999999
 30
0.0
 11
11.46132499999999
 21
7.529666999999999
 31
0.0
  0
POLYLINE
  5
2D17D
330
18
100
AcDbEntity
  8
1
100
AcDb2dPolyline
 66
     1
 10
0.0
 20
0.0
 30
0.0
 70
     4
 75
     5
  0
VERTEX
  5
2D17E
330
2D17D
100
AcDbEntity
  8
1
100
AcDbVertex
100
AcDb2dVertex
 10
11.46132499999999
 20
23.83912999999999
 30
0.0
 70
    16
  0
VERTEX
  5
2D17F
330
2D17D
100
AcDbEntity
  8
1
100
AcDbVertex
100
AcDb2dVertex
 10
9.999999999999984
 20
23.83912999999999
 30
0.0
 70
    16
  0
VERTEX
  5
2D180
330
2D17D
100
AcDbEntity
  8
1
100
AcDbVertex
100
AcDb2dVertex
 10
8.538675999999995
 20
23.83912999999999
 30
0.0
 70
    16
  0
VERTEX
  5
2D181
330
2D17D
100
AcDbEntity
  8
1
100
AcDbVertex
100
AcDb2dVertex
 10
11.46132499999999
 20
23.83912999999999
 30
0.0
 70
     8
  0
VERTEX
  5
2D182
330
2D17D
100
AcDbEntity
  8
1
100
AcDbVertex
100
AcDb2dVertex
 10
8.538675999999995
 20
23.83912999999999
 30
0.0
 70
     8
  0
SEQEND
  5
2D183
330
2D17D
100
AcDbEntity
  8
1
  0
POLYLINE
  5
2D184
330
18
100
AcDbEntity
  8
1
100
AcDb3dPolyline
 66
     1
 10
0.0
 20
0.0
 30
0.0
 70
    12
 75
     6
  0
VERTEX
  5
2D185
330
2D184
100
AcDbEntity
  8
1
100
AcDbVertex
100
AcDb3dPolylineVertex
 10
131.0152429999999
 20
-15.51134100000002
 30
0.0
 70
    48
  0
VERTEX
  5
2D186
330
2D184
100
AcDbEntity
  8
1
100
AcDbVertex
100
AcDb3dPolylineVertex
 10
130.8849199999999
 20
-15.52033600000002
 30
0.0
 70
    48
  0
VERTEX
  5
2D187
330
2D184
100
AcDbEntity
  8
1
100
AcDbVertex
100
AcDb3dPolylineVertex
 10
130.7543199999999
 20
-15.52335500000002
 30
0.0
 70
    48
  0
VERTEX
  5
2D188
330
2D184
100
AcDbEntity
  8
1
100
AcDbVertex
100
AcDb3dPolylineVertex
 10
129.9874749999999
 20
-15.50540500000002
 30
0.0
 70
    48
  0
VERTEX
  5
2D189
330
2D184
100
AcDbEntity
  8
1
100
AcDbVertex
100
AcDb3dPolylineVertex
 10
129.3527879999999
 20
-15.34418300000001
 30
0.0
 70
    48
  0
VERTEX
  5
2D18A
330
2D184
100
AcDbEntity
  8
1
100
AcDbVertex
100
AcDb3dPolylineVertex
 10
128.6241109999999
 20
-14.94522500000001
 30
0.0
 70
    48
  0
VERTEX
  5
2D18B
330
2D184
100
AcDbEntity
  8
1
100
AcDbVertex
100
AcDb3dPolylineVertex
 10
128.4901329999999
 20
-14.86043400000002
 30
0.0
 70
    48
  0
VERTEX
  5
2D18C
330
2D184
100
AcDbEntity
  8
1
100
AcDbVertex
100
AcDb3dPolylineVertex
 10
128.3459539999999
 20
-14.75441800000001
 30
0.0
 70
    48
  0
VERTEX
  5
2D18D
330
2D184
100
AcDbEntity
  8
1
100
AcDbVertex
100
AcDb3dPolylineVertex
 10
131.0152429999999
 20
-15.51134100000002
 30
0.0
 70
    40
  0
VERTEX
  5
2D18E
330
2D184
100
AcDbEntity
  8
1
100
AcDbVertex
100
AcDb3dPolylineVertex
 10
130.6238619999999
 20
-15.52030100000002
 30
0.0
 70
    40
  0
VERTEX
  5
2D18F
330
2D184
100
AcDbEntity
  8
1
100
AcDbVertex
100
AcDb3dPolylineVertex
 10
130.3060809999999
 20
-15.50062700000001
 30
0.0
 70
    40
  0
VERTEX
  5
2D190
330
2D184
100
AcDbEntity
  8
1
100
AcDbVertex
100
AcDb3dPolylineVertex
 10
129.9902079999998
 20
-15.45637100000002
 30
0.0
 70
    40
  0
VERTEX
  5
2D191
330
2D184
100
AcDbEntity
  8
1
100
AcDbVertex
100
AcDb3dPolylineVertex
 10
129.6778679999999
 20
-15.38733800000001
 30
0.0
 70
    40
  0
VERTEX
  5
2D192
330
2D184
100
AcDbEntity
  8
1
100
AcDbVertex
100
AcDb3dPolylineVertex
 10
129.3706849999999
 20
-15.29333500000002
 30
0.0
 70
    40
  0
VERTEX
  5
2D193
330
2D184
100
AcDbEntity
  8
1
100
AcDbVertex
100
AcDb3dPolylineVertex
 10
129.0702839999999
 20
-15.17416700000002
 30
0.0
 70
    40
  0
VERTEX
  5
2D194
330
2D184
100
AcDbEntity
  8
1
100
AcDbVertex
100
AcDb3dPolylineVertex
 10
128.7782899999999
 20
-15.02963900000002
 30
0.0
 70
    40
  0
VERTEX
  5
2D195
330
2D184
100
AcDbEntity
  8
1
100
AcDbVertex
100
AcDb3dPolylineVertex
 10
128.4878589999999
 20
-14.85413100000001
 30
0.0
 70
    40
  0
VERTEX
  5
2D196
330
2D184
100
AcDbEntity
  8
1
100
AcDbVertex
100
AcDb3dPolylineVertex
 10
128.3459539999999
 20
-14.75441800000001
 30
0.0
 70
    40
  0
SEQEND
  5
2D197
330
2D184
100
AcDbEntity
  8
1
  0
POLYLINE
  5
2D198
330
18
100
AcDbEntity
  8
1
100
AcDb3dPolyline
 66
     1
 10
0.0
 20
0.0
 30
0.0
 70
    12
 75
     6
  0
VERTEX
  5
2D199
330
2D198
100
AcDbEntity
  8
1
100
AcDbVertex
100
AcDb3dPolylineVertex
 10
115.6634579999999
 20
-19.13076300000001
 30
0.0
 70
    48
  0
VERTEX
  5
2D19A
330
2D198
100
AcDbEntity
  8
1
100
AcDbVertex
100
AcDb3dPolylineVertex
 10
115.6205189999999
 20
-19.12828900000002
 30
0.0
 70
    48
  0
VERTEX
  5
2D19B
330
2D198
100
AcDbEntity
  8
1
100
AcDbVertex
100
AcDb3dPolylineVertex
 10
115.5775829999999
 20
-19.12578200000001
 30
0.0
 70
    48
  0
VERTEX
  5
2D19C
330
2D198
100
AcDbEntity
  8
1
100
AcDbVertex
100
AcDb3dPolylineVertex
 10
113.0851729999999
 20
-18.97835700000001
 30
0.0
 70
    48
  0
VERTEX
  5
2D19D
330
2D198
100
AcDbEntity
  8
1
100
AcDbVertex
100
AcDb3dPolylineVertex
 10
110.6371159999999
 20
-18.73724100000002
 30
0.0
 70
    48
  0
VERTEX
  5
2D19E
330
2D198
100
AcDbEntity
  8
1
100
AcDbVertex
100
AcDb3dPolylineVertex
 10
107.3658329999999
 20
-18.01936800000001
 30
0.0
 70
    48
  0
VERTEX
  5
2D19F
330
2D198
100
AcDbEntity
  8
1
100
AcDbVertex
100
AcDb3dPolylineVertex
 10
106.5253619999999
 20
-17.79685700000001
 30
0.0
 70
    48
  0
VERTEX
  5
2D1A0
330
2D198
100
AcDbEntity
  8
1
100
AcDbVertex
100
AcDb3dPolylineVertex
 10
104.5488759999999
 20
-17.15056300000002
 30
0.0
 70
    48
  0
VERTEX
  5
2D1A1
330
2D198
100
AcDbEntity
  8
1
100
AcDbVertex
100
AcDb3dPolylineVertex
 10
103.4810069999999
 20
-16.70923000000002
 30
0.0
 70
    48
  0
VERTEX
  5
2D1A2
330
2D198
100
AcDbEntity
  8
1
100
AcDbVertex
100
AcDb3dPolylineVertex
 10
101.0668559999999
 20
-15.41605200000001
 30
0.0
 70
    48
  0
VERTEX
  5
2D1A3
330
2D198
100
AcDbEntity
  8
1
100
AcDbVertex
100
AcDb3dPolylineVertex
 10
99.8238869999999
 20
-14.57745400000002
 30
0.0
 70
    48
  0
VERTEX
  5
2D1A4
330
2D198
100
AcDbEntity
  8
1
100
AcDbVertex
100
AcDb3dPolylineVertex
 10
98.02583399999987
 20
-12.62782600000002
 30
0.0
 70
    48
  0
VERTEX
  5
2D1A5
330
2D198
100
AcDbEntity
  8
1
100
AcDbVertex
100
AcDb3dPolylineVertex
 10
97.45762399999987
 20
-11.83547200000001
 30
0.0
 70
    48
  0
VERTEX
  5
2D1A6
330
2D198
100
AcDbEntity
  8
1
100
AcDbVertex
100
AcDb3dPolylineVertex
 10
96.40075899999986
 20
-10.070169
 30
0.0
 70
    48
  0
VERTEX
  5
2D1A7
330
2D198
100
AcDbEntity
  8
1
100
AcDbVertex
100
AcDb3dPolylineVertex
 10
96.00138699999993
 20
-9.197964000000013
 30
0.0
 70
    48
  0
VERTEX
  5
2D1A8
330
2D198
100
AcDbEntity
  8
1
100
AcDbVertex
100
AcDb3dPolylineVertex
 10
95.69653399999992
 20
-8.111332000000018
 30
0.0
 70
    48
  0
VERTEX
  5
2D1A9
330
2D198
100
AcDbEntity
  8
1
100
AcDbVertex
100
AcDb3dPolylineVertex
 10
95.69653399999992
 20
-8.111332000000018
 30
0.0
 70
    48
  0
VERTEX
  5
2D1AA
330
2D198
100
AcDbEntity
  8
1
100
AcDbVertex
100
AcDb3dPolylineVertex
 10
95.4122149999999
 20
-7.097889000000008
 30
0.0
 70
    48
  0
VERTEX
  5
2D1AB
330
2D198
100
AcDbEntity
  8
1
100
AcDbVertex
100
AcDb3dPolylineVertex
 10
95.29022499999992
 20
-6.218916000000017
 30
0.0
 70
    48
  0
VERTEX
  5
2D1AC
330
2D198
100
AcDbEntity
  8
1
100
AcDbVertex
100
AcDb3dPolylineVertex
 10
95.2093849999999
 20
-5.251889000000009
 30
0.0
 70
    48
  0
VERTEX
  5
2D1AD
330
2D198
100
AcDbEntity
  8
1
100
AcDbVertex
100
AcDb3dPolylineVertex
 10
95.2093849999999
 20
-5.251889000000009
 30
0.0
 70
    48
  0
VERTEX
  5
2D1AE
330
2D198
100
AcDbEntity
  8
1
100
AcDbVertex
100
AcDb3dPolylineVertex
 10
95.1271479999999
 20
-4.268147000000007
 30
0.0
 70
    48
  0
VERTEX
  5
2D1AF
330
2D198
100
AcDbEntity
  8
1
100
AcDbVertex
100
AcDb3dPolylineVertex
 10
95.09851899999992
 20
-3.321286000000017
 30
0.0
 70
    48
  0
VERTEX
  5
2D1B0
330
2D198
100
AcDbEntity
  8
1
100
AcDbVertex
100
AcDb3dPolylineVertex
 10
95.26252099999991
 20
-1.495030999999995
 30
0.0
 70
    48
  0
VERTEX
  5
2D1B1
330
2D198
100
AcDbEntity
  8
1
100
AcDbVertex
100
AcDb3dPolylineVertex
 10
95.3950429999999
 20
-0.7672600000000182
 30
0.0
 70
    48
  0
VERTEX
  5
2D1B2
330
2D198
100
AcDbEntity
  8
1
100
AcDbVertex
100
AcDb3dPolylineVertex
 10
95.5670609999999
 20
0.0
 30
0.0
 70
    48
  0
VERTEX
  5
2D1B3
330
2D198
100
AcDbEntity
  8
1
100
AcDbVertex
100
AcDb3dPolylineVertex
 10
115.6634579999999
 20
-19.13076300000001
 30
0.0
 70
    40
  0
VERTEX
  5
2D1B4
330
2D198
100
AcDbEntity
  8
1
100
AcDbVertex
100
AcDb3dPolylineVertex
 10
114.3102129999999
 20
-19.04189700000002
 30
0.0
 70
    40
  0
VERTEX
  5
2D1B5
330
2D198
100
AcDbEntity
  8
1
100
AcDbVertex
100
AcDb3dPolylineVertex
 10
113.0871229999999
 20
-18.93921300000002
 30
0.0
 70
    40
  0
VERTEX
  5
2D1B6
330
2D198
100
AcDbEntity
  8
1
100
AcDbVertex
100
AcDb3dPolylineVertex
 10
111.8664849999999
 20
-18.80989000000001
 30
0.0
 70
    40
  0
VERTEX
  5
2D1B7
330
2D198
100
AcDbEntity
  8
1
100
AcDbVertex
100
AcDb3dPolylineVertex
 10
110.6494059999999
 20
-18.64862800000001
 30
0.0
 70
    40
  0
VERTEX
  5
2D1B8
330
2D198
100
AcDbEntity
  8
1
100
AcDbVertex
100
AcDb3dPolylineVertex
 10
109.4369959999999
 20
-18.45012700000001
 30
0.0
 70
    40
  0
VERTEX
  5
2D1B9
330
2D198
100
AcDbEntity
  8
1
100
AcDbVertex
100
AcDb3dPolylineVertex
 10
108.2303609999999
 20
-18.20908600000002
 30
0.0
 70
    40
  0
VERTEX
  5
2D1BA
330
2D198
100
AcDbEntity
  8
1
100
AcDbVertex
100
AcDb3dPolylineVertex
 10
107.3726909999999
 20
-18.00762500000002
 30
0.0
 70
    40
  0
VERTEX
  5
2D1BB
330
2D198
100
AcDbEntity
  8
1
100
AcDbVertex
100
AcDb3dPolylineVertex
 10
106.5240899999999
 20
-17.77943400000001
 30
0.0
 70
    40
  0
VERTEX
  5
2D1BC
330
2D198
100
AcDbEntity
  8
1
100
AcDbVertex
100
AcDb3dPolylineVertex
 10
105.6775889999999
 20
-17.51964300000001
 30
0.0
 70
    40
  0
VERTEX
  5
2D1BD
330
2D198
100
AcDbEntity
  8
1
100
AcDbVertex
100
AcDb3dPolylineVertex
 10
104.5677109999999
 20
-17.12474700000002
 30
0.0
 70
    40
  0
VERTEX
  5
2D1BE
330
2D198
100
AcDbEntity
  8
1
100
AcDbVertex
100
AcDb3dPolylineVertex
 10
103.4897149999999
 20
-16.67128900000001
 30
0.0
 70
    40
  0
VERTEX
  5
2D1BF
330
2D198
100
AcDbEntity
  8
1
100
AcDbVertex
100
AcDb3dPolylineVertex
 10
102.4349209999999
 20
-16.14887700000003
 30
0.0
 70
    40
  0
VERTEX
  5
2D1C0
330
2D198
100
AcDbEntity
  8
1
100
AcDbVertex
100
AcDb3dPolylineVertex
 10
101.7614699999999
 20
-15.77258100000001
 30
0.0
 70
    40
  0
VERTEX
  5
2D1C1
330
2D198
100
AcDbEntity
  8
1
100
AcDbVertex
100
AcDb3dPolylineVertex
 10
101.1098109999999
 20
-15.37224000000002
 30
0.0
 70
    40
  0
VERTEX
  5
2D1C2
330
2D198
100
AcDbEntity
  8
1
100
AcDbVertex
100
AcDb3dPolylineVertex
 10
100.4808849999999
 20
-14.94144000000002
 30
0.0
 70
    40
  0
VERTEX
  5
2D1C3
330
2D198
100
AcDbEntity
  8
1
100
AcDbVertex
100
AcDb3dPolylineVertex
 10
99.8756359999999
 20
-14.47376300000002
 30
0.0
 70
    40
  0
VERTEX
  5
2D1C4
330
2D198
100
AcDbEntity
  8
1
100
AcDbVertex
100
AcDb3dPolylineVertex
 10
99.29500399999993
 20
-13.96279600000002
 30
0.0
 70
    40
  0
VERTEX
  5
2D1C5
330
2D198
100
AcDbEntity
  8
1
100
AcDbVertex
100
AcDb3dPolylineVertex
 10
98.73993199999993
 20
-13.40212200000002
 30
0.0
 70
    40
  0
VERTEX
  5
2D1C6
330
2D198
100
AcDbEntity
  8
1
100
AcDbVertex
100
AcDb3dPolylineVertex
 10
98.07077899999987
 20
-12.61954100000002
 30
0.0
 70
    40
  0
VERTEX
  5
2D1C7
330
2D198
100
AcDbEntity
  8
1
100
AcDbVertex
100
AcDb3dPolylineVertex
 10
97.47677599999988
 20
-11.81132600000002
 30
0.0
 70
    40
  0
VERTEX
  5
2D1C8
330
2D198
100
AcDbEntity
  8
1
100
AcDbVertex
100
AcDb3dPolylineVertex
 10
96.93581499999993
 20
-10.96388300000001
 30
0.0
 70
    40
  0
VERTEX
  5
2D1C9
330
2D198
100
AcDbEntity
  8
1
100
AcDbVertex
100
AcDb3dPolylineVertex
 10
96.93581499999993
 20
-10.96388300000001
 30
0.0
 70
    40
  0
VERTEX
  5
2D1CA
330
2D198
100
AcDbEntity
  8
1
100
AcDbVertex
100
AcDb3dPolylineVertex
 10
96.6794029999999
 20
-10.51772600000002
 30
0.0
 70
    40
  0
VERTEX
  5
2D1CB
330
2D198
100
AcDbEntity
  8
1
100
AcDbVertex
100
AcDb3dPolylineVertex
 10
96.4444619999999
 20
-10.0686
 30
0.0
 70
    40
  0
VERTEX
  5
2D1CC
330
2D198
100
AcDbEntity
  8
1
100
AcDbVertex
100
AcDb3dPolylineVertex
 10
96.22984899999993
 20
-9.609952000000015
 30
0.0
 70
    40
  0
VERTEX
  5
2D1CD
330
2D198
100
AcDbEntity
  8
1
100
AcDbVertex
100
AcDb3dPolylineVertex
 10
96.03441799999991
 20
-9.135227000000018
 30
0.0
 70
    40
  0
VERTEX
  5
2D1CE
330
2D198
100
AcDbEntity
  8
1
100
AcDbVertex
100
AcDb3dPolylineVertex
 10
95.85702799999992
 20
-8.637872000000019
 30
0.0
 70
    40
  0
VERTEX
  5
2D1CF
330
2D198
100
AcDbEntity
  8
1
100
AcDbVertex
100
AcDb3dPolylineVertex
 10
95.69653399999992
 20
-8.111332000000018
 30
0.0
 70
    40
  0
VERTEX
  5
2D1D0
330
2D198
100
AcDbEntity
  8
1
100
AcDbVertex
100
AcDb3dPolylineVertex
 10
95.69653399999992
 20
-8.111332000000018
 30
0.0
 70
    40
  0
VERTEX
  5
2D1D1
330
2D198
100
AcDbEntity
  8
1
100
AcDbVertex
100
AcDb3dPolylineVertex
 10
95.46183699999986
 20
-7.134471000000019
 30
0.0
 70
    40
  0
VERTEX
  5
2D1D2
330
2D198
100
AcDbEntity
  8
1
100
AcDbVertex
100
AcDb3dPolylineVertex
 10
95.3084299999999
 20
-6.197806000000017
 30
0.0
 70
    40
  0
VERTEX
  5
2D1D3
330
2D198
100
AcDbEntity
  8
1
100
AcDbVertex
100
AcDb3dPolylineVertex
 10
95.2093849999999
 20
-5.251889000000009
 30
0.0
 70
    40
  0
VERTEX
  5
2D1D4
330
2D198
100
AcDbEntity
  8
1
100
AcDbVertex
100
AcDb3dPolylineVertex
 10
95.2093849999999
 20
-5.251889000000009
 30
0.0
 70
    40
  0
VERTEX
  5
2D1D5
330
2D198
100
AcDbEntity
  8
1
100
AcDbVertex
100
AcDb3dPolylineVertex
 10
95.1474849999999
 20
-4.27636200000002
 30
0.0
 70
    40
  0
VERTEX
  5
2D1D6
330
2D198
100
AcDbEntity
  8
1
100
AcDbVertex
100
AcDb3dPolylineVertex
 10
95.13613099999986
 20
-3.300947000000018
 30
0.0
 70
    40
  0
VERTEX
  5
2D1D7
330
2D198
100
AcDbEntity
  8
1
100
AcDbVertex
100
AcDb3dPolylineVertex
 10
95.19012799999988
 20
-2.301171000000016
 30
0.0
 70
    40
  0
VERTEX
  5
2D1D8
330
2D198
100
AcDbEntity
  8
1
100
AcDbVertex
100
AcDb3dPolylineVertex
 10
95.28179899999987
 20
-1.516788999999999
 30
0.0
 70
    40
  0
VERTEX
  5
2D1D9
330
2D198
100
AcDbEntity
  8
1
100
AcDbVertex
100
AcDb3dPolylineVertex
 10
95.40897199999987
 20
-0.7584620000000193
 30
0.0
 70
    40
  0
VERTEX
  5
2D1DA
330
2D198
100
AcDbEntity
  8
1
100
AcDbVertex
100
AcDb3dPolylineVertex
 10
95.5670609999999
 20
0.0
 30
0.0
 70
    40
  0
SEQEND
  5
2D1DB
330
2D198
100
AcDbEntity
  8
1
  0
POLYLINE
  5
2D1DC
330
18
100
AcDbEntity
  8
1
100
AcDb3dPolyline
 66
     1
 10
0.0
 20
0.0
 30
0.0
 70
    12
 75
     6
  0
VERTEX
  5
2D1DD
330
2D1DC
100
AcDbEntity
  8
1
100
AcDbVertex
100
AcDb3dPolylineVertex
 10
8.10567499999999
 20
8.055771000000001
 30
0.0
 70
    48
  0
VERTEX
  5
2D1DE
330
2D1DC
100
AcDbEntity
  8
1
100
AcDbVertex
100
AcDb3dPolylineVertex
 10
7.768290999999891
 20
9.308654999999991
 30
0.0
 70
    48
  0
VERTEX
  5
2D1DF
330
2D1DC
100
AcDbEntity
  8
1
100
AcDbVertex
100
AcDb3dPolylineVertex
 10
7.473416999999897
 20
10.56869199999999
 30
0.0
 70
    48
  0
VERTEX
  5
2D1E0
330
2D1DC
100
AcDbEntity
  8
1
100
AcDbVertex
100
AcDb3dPolylineVertex
 10
6.895825000000002
 20
13.63156399999999
 30
0.0
 70
    48
  0
VERTEX
  5
2D1E1
330
2D1DC
100
AcDbEntity
  8
1
100
AcDbVertex
100
AcDb3dPolylineVertex
 10
6.661499999999986
 20
15.43598999999999
 30
0.0
 70
    48
  0
VERTEX
  5
2D1E2
330
2D1DC
100
AcDbEntity
  8
1
100
AcDbVertex
100
AcDb3dPolylineVertex
 10
6.602121999999893
 20
18.52550199999999
 30
0.0
 70
    48
  0
VERTEX
  5
2D1E3
330
2D1DC
100
AcDbEntity
  8
1
100
AcDbVertex
100
AcDb3dPolylineVertex
 10
6.670304999999982
 20
19.81033899999999
 30
0.0
 70
    48
  0
VERTEX
  5
2D1E4
330
2D1DC
100
AcDbEntity
  8
1
100
AcDbVertex
100
AcDb3dPolylineVertex
 10
7.070365000000093
 20
21.54275699999999
 30
0.0
 70
    48
  0
VERTEX
  5
2D1E5
330
2D1DC
100
AcDbEntity
  8
1
100
AcDbVertex
100
AcDb3dPolylineVertex
 10
7.204948999999897
 20
21.98888599999999
 30
0.0
 70
    48
  0
VERTEX
  5
2D1E6
330
2D1DC
100
AcDbEntity
  8
1
100
AcDbVertex
100
AcDb3dPolylineVertex
 10
7.588594999999897
 20
22.89340899999999
 30
0.0
 70
    48
  0
VERTEX
  5
2D1E7
330
2D1DC
100
AcDbEntity
  8
1
100
AcDbVertex
100
AcDb3dPolylineVertex
 10
7.804852999999994
 20
23.28629999999999
 30
0.0
 70
    48
  0
VERTEX
  5
2D1E8
330
2D1DC
100
AcDbEntity
  8
1
100
AcDbVertex
100
AcDb3dPolylineVertex
 10
8.10567499999999
 20
23.66654799999999
 30
0.0
 70
    48
  0
VERTEX
  5
2D1E9
330
2D1DC
100
AcDbEntity
  8
1
100
AcDbVertex
100
AcDb3dPolylineVertex
 10
8.10567499999999
 20
8.055771000000001
 30
0.0
 70
    40
  0
VERTEX
  5
2D1EA
330
2D1DC
100
AcDbEntity
  8
1
100
AcDbVertex
100
AcDb3dPolylineVertex
 10
7.782883999999993
 20
9.31142999999999
 30
0.0
 70
    40
  0
VERTEX
  5
2D1EB
330
2D1DC
100
AcDbEntity
  8
1
100
AcDbVertex
100
AcDb3dPolylineVertex
 10
7.490967999999893
 20
10.57420199999999
 30
0.0
 70
    40
  0
VERTEX
  5
2D1EC
330
2D1DC
100
AcDbEntity
  8
1
100
AcDbVertex
100
AcDb3dPolylineVertex
 10
7.232462999999896
 20
11.84643099999999
 30
0.0
 70
    40
  0
VERTEX
  5
2D1ED
330
2D1DC
100
AcDbEntity
  8
1
100
AcDbVertex
100
AcDb3dPolylineVertex
 10
6.933528999999878
 20
13.63753199999999
 30
0.0
 70
    40
  0
VERTEX
  5
2D1EE
330
2D1DC
100
AcDbEntity
  8
1
100
AcDbVertex
100
AcDb3dPolylineVertex
 10
6.816390999999896
 20
14.53703699999999
 30
0.0
 70
    40
  0
VERTEX
  5
2D1EF
330
2D1DC
100
AcDbEntity
  8
1
100
AcDbVertex
100
AcDb3dPolylineVertex
 10
6.724404999999874
 20
15.43871499999999
 30
0.0
 70
    40
  0
VERTEX
  5
2D1F0
330
2D1DC
100
AcDbEntity
  8
1
100
AcDbVertex
100
AcDb3dPolylineVertex
 10
6.660270999999991
 20
16.34221899999999
 30
0.0
 70
    40
  0
VERTEX
  5
2D1F1
330
2D1DC
100
AcDbEntity
  8
1
100
AcDbVertex
100
AcDb3dPolylineVertex
 10
6.626689999999883
 20
17.24720099999999
 30
0.0
 70
    40
  0
VERTEX
  5
2D1F2
330
2D1DC
100
AcDbEntity
  8
1
100
AcDbVertex
100
AcDb3dPolylineVertex
 10
6.63783699999999
 20
18.52644099999999
 30
0.0
 70
    40
  0
VERTEX
  5
2D1F3
330
2D1DC
100
AcDbEntity
  8
1
100
AcDbVertex
100
AcDb3dPolylineVertex
 10
6.675594999999987
 20
19.16536999999999
 30
0.0
 70
    40
  0
VERTEX
  5
2D1F4
330
2D1DC
100
AcDbEntity
  8
1
100
AcDbVertex
100
AcDb3dPolylineVertex
 10
6.739605999999895
 20
19.80259799999999
 30
0.0
 70
    40
  0
VERTEX
  5
2D1F5
330
2D1DC
100
AcDbEntity
  8
1
100
AcDbVertex
100
AcDb3dPolylineVertex
 10
6.833469999999891
 20
20.43719599999999
 30
0.0
 70
    40
  0
VERTEX
  5
2D1F6
330
2D1DC
100
AcDbEntity
  8
1
100
AcDbVertex
100
AcDb3dPolylineVertex
 10
6.960785999999981
 20
21.06823299999999
 30
0.0
 70
    40
  0
VERTEX
  5
2D1F7
330
2D1DC
100
AcDbEntity
  8
1
100
AcDbVertex
100
AcDb3dPolylineVertex
 10
7.079987999999985
 20
21.53479199999999
 30
0.0
 70
    40
  0
VERTEX
  5
2D1F8
330
2D1DC
100
AcDbEntity
  8
1
100
AcDbVertex
100
AcDb3dPolylineVertex
 10
7.223584999999888
 20
21.99141899999999
 30
0.0
 70
    40
  0
VERTEX
  5
2D1F9
330
2D1DC
100
AcDbEntity
  8
1
100
AcDbVertex
100
AcDb3dPolylineVertex
 10
7.399303000000102
 20
22.44711399999999
 30
0.0
 70
    40
  0
VERTEX
  5
2D1FA
330
2D1DC
100
AcDbEntity
  8
1
100
AcDbVertex
100
AcDb3dPolylineVertex
 10
7.599716999999897
 20
22.87711699999999
 30
0.0
 70
    40
  0
VERTEX
  5
2D1FB
330
2D1DC
100
AcDbEntity
  8
1
100
AcDbVertex
100
AcDb3dPolylineVertex
 10
7.830907999999894
 20
23.28057599999999
 30
0.0
 70
    40
  0
VERTEX
  5
2D1FC
330
2D1DC
100
AcDbEntity
  8
1
100
AcDbVertex
100
AcDb3dPolylineVertex
 10
8.10567499999999
 20
23.66654799999999
 30
0.0
 70
    40
  0
SEQEND
  5
2D1FD
330
2D1DC
100
AcDbEntity
  8
1
  0
LINE
  5
2D1FE
330
18
100
AcDbEntity
  8
1
100
AcDbLine
 10
8.538675999999995
 20
-23.83913000000001
 30
0.0
 11
11.46132499999999
 21
-23.83913000000001
 31
0.0
  0
POLYLINE
  5
2D1FF
330
18
100
AcDbEntity
  8
1
100
AcDb3dPolyline
 66
     1
 10
0.0
 20
0.0
 30
0.0
 70
    12
 75
     6
  0
VERTEX
  5
2D200
330
2D1FF
100
AcDbEntity
  8
1
100
AcDbVertex
100
AcDb3dPolylineVertex
 10
11.89432599999991
 20
-23.66654900000001
 30
0.0
 70
    48
  0
VERTEX
  5
2D201
330
2D1FF
100
AcDbEntity
  8
1
100
AcDbVertex
100
AcDb3dPolylineVertex
 10
12.04406899999989
 20
-23.47726800000001
 30
0.0
 70
    48
  0
VERTEX
  5
2D202
330
2D1FF
100
AcDbEntity
  8
1
100
AcDbVertex
100
AcDb3dPolylineVertex
 10
12.16935799999989
 20
-23.28799000000001
 30
0.0
 70
    48
  0
VERTEX
  5
2D203
330
2D1FF
100
AcDbEntity
  8
1
100
AcDbVertex
100
AcDb3dPolylineVertex
 10
12.605492
 20
-22.52690300000001
 30
0.0
 70
    48
  0
VERTEX
  5
2D204
330
2D1FF
100
AcDbEntity
  8
1
100
AcDbVertex
100
AcDb3dPolylineVertex
 10
12.82119799999999
 20
-21.92655499999999
 30
0.0
 70
    48
  0
VERTEX
  5
2D205
330
2D1FF
100
AcDbEntity
  8
1
100
AcDbVertex
100
AcDb3dPolylineVertex
 10
13.3073669999999
 20
-20.04156500000002
 30
0.0
 70
    48
  0
VERTEX
  5
2D206
330
2D1FF
100
AcDbEntity
  8
1
100
AcDbVertex
100
AcDb3dPolylineVertex
 10
13.39268699999999
 20
-18.71461200000001
 30
0.0
 70
    48
  0
VERTEX
  5
2D207
330
2D1FF
100
AcDbEntity
  8
1
100
AcDbVertex
100
AcDb3dPolylineVertex
 10
13.36900399999989
 20
-16.877223
 30
0.0
 70
    48
  0
VERTEX
  5
2D208
330
2D1FF
100
AcDbEntity
  8
1
100
AcDbVertex
100
AcDb3dPolylineVertex
 10
13.34554
 20
-16.37304900000001
 30
0.0
 70
    48
  0
VERTEX
  5
2D209
330
2D1FF
100
AcDbEntity
  8
1
100
AcDbVertex
100
AcDb3dPolylineVertex
 10
13.3077419999999
 20
-15.85779000000001
 30
0.0
 70
    48
  0
VERTEX
  5
2D20A
330
2D1FF
100
AcDbEntity
  8
1
100
AcDbVertex
100
AcDb3dPolylineVertex
 10
13.3077419999999
 20
-15.85779000000001
 30
0.0
 70
    48
  0
VERTEX
  5
2D20B
330
2D1FF
100
AcDbEntity
  8
1
100
AcDbVertex
100
AcDb3dPolylineVertex
 10
13.11266199999998
 20
-13.19846500000002
 30
0.0
 70
    48
  0
VERTEX
  5
2D20C
330
2D1FF
100
AcDbEntity
  8
1
100
AcDbVertex
100
AcDb3dPolylineVertex
 10
12.58398199999989
 20
-10.616825
 30
0.0
 70
    48
  0
VERTEX
  5
2D20D
330
2D1FF
100
AcDbEntity
  8
1
100
AcDbVertex
100
AcDb3dPolylineVertex
 10
11.89432599999991
 20
-8.055772000000017
 30
0.0
 70
    48
  0
VERTEX
  5
2D20E
330
2D1FF
100
AcDbEntity
  8
1
100
AcDbVertex
100
AcDb3dPolylineVertex
 10
11.89432599999991
 20
-23.66654900000001
 30
0.0
 70
    40
  0
VERTEX
  5
2D20F
330
2D1FF
100
AcDbEntity
  8
1
100
AcDbVertex
100
AcDb3dPolylineVertex
 10
12.1662909999999
 20
-23.28306300000001
 30
0.0
 70
    40
  0
VERTEX
  5
2D210
330
2D1FF
100
AcDbEntity
  8
1
100
AcDbVertex
100
AcDb3dPolylineVertex
 10
12.28735299999999
 20
-23.08208099999999
 30
0.0
 70
    40
  0
VERTEX
  5
2D211
330
2D1FF
100
AcDbEntity
  8
1
100
AcDbVertex
100
AcDb3dPolylineVertex
 10
12.57300799999989
 20
-22.51305300000001
 30
0.0
 70
    40
  0
VERTEX
  5
2D212
330
2D1FF
100
AcDbEntity
  8
1
100
AcDbVertex
100
AcDb3dPolylineVertex
 10
12.80033299999989
 20
-21.92114899999999
 30
0.0
 70
    40
  0
VERTEX
  5
2D213
330
2D1FF
100
AcDbEntity
  8
1
100
AcDbVertex
100
AcDb3dPolylineVertex
 10
12.9792869999999
 20
-21.31360700000001
 30
0.0
 70
    40
  0
VERTEX
  5
2D214
330
2D1FF
100
AcDbEntity
  8
1
100
AcDbVertex
100
AcDb3dPolylineVertex
 10
13.12374699999999
 20
-20.673287
 30
0.0
 70
    40
  0
VERTEX
  5
2D215
330
2D1FF
100
AcDbEntity
  8
1
100
AcDbVertex
100
AcDb3dPolylineVertex
 10
13.23164699999999
 20
-20.02547700000001
 30
0.0
 70
    40
  0
VERTEX
  5
2D216
330
2D1FF
100
AcDbEntity
  8
1
100
AcDbVertex
100
AcDb3dPolylineVertex
 10
13.3068870000001
 20
-19.37184000000002
 30
0.0
 70
    40
  0
VERTEX
  5
2D217
330
2D1FF
100
AcDbEntity
  8
1
100
AcDbVertex
100
AcDb3dPolylineVertex
 10
13.35336699999989
 20
-18.71403700000002
 30
0.0
 70
    40
  0
VERTEX
  5
2D218
330
2D1FF
100
AcDbEntity
  8
1
100
AcDbVertex
100
AcDb3dPolylineVertex
 10
13.37498699999989
 20
-18.05372900000002
 30
0.0
 70
    40
  0
VERTEX
  5
2D219
330
2D1FF
100
AcDbEntity
  8
1
100
AcDbVertex
100
AcDb3dPolylineVertex
 10
13.3634889999999
 20
-16.88012600000001
 30
0.0
 70
    40
  0
VERTEX
  5
2D21A
330
2D1FF
100
AcDbEntity
  8
1
100
AcDbVertex
100
AcDb3dPolylineVertex
 10
13.3077419999999
 20
-15.85779000000001
 30
0.0
 70
    40
  0
VERTEX
  5
2D21B
330
2D1FF
100
AcDbEntity
  8
1
100
AcDbVertex
100
AcDb3dPolylineVertex
 10
13.3077419999999
 20
-15.85779000000001
 30
0.0
 70
    40
  0
VERTEX
  5
2D21C
330
2D1FF
100
AcDbEntity
  8
1
100
AcDbVertex
100
AcDb3dPolylineVertex
 10
13.18320099999999
 20
-14.534337
 30
0.0
 70
    40
  0
VERTEX
  5
2D21D
330
2D1FF
100
AcDbEntity
  8
1
100
AcDbVertex
100
AcDb3dPolylineVertex
 10
13.00785499999989
 20
-13.222245
 30
0.0
 70
    40
  0
VERTEX
  5
2D21E
330
2D1FF
100
AcDbEntity
  8
1
100
AcDbVertex
100
AcDb3dPolylineVertex
 10
12.7865000000001
 20
-11.919929
 30
0.0
 70
    40
  0
VERTEX
  5
2D21F
330
2D1FF
100
AcDbEntity
  8
1
100
AcDbVertex
100
AcDb3dPolylineVertex
 10
12.52392999999989
 20
-10.62580200000001
 30
0.0
 70
    40
  0
VERTEX
  5
2D220
330
2D1FF
100
AcDbEntity
  8
1
100
AcDbVertex
100
AcDb3dPolylineVertex
 10
12.22493999999989
 20
-9.338278000000007
 30
0.0
 70
    40
  0
VERTEX
  5
2D221
330
2D1FF
100
AcDbEntity
  8
1
100
AcDbVertex
100
AcDb3dPolylineVertex
 10
11.89432599999991
 20
-8.055772000000017
 30
0.0
 70
    40
  0
SEQEND
  5
2D222
330
2D1FF
100
AcDbEntity
  8
1
  0
POLYLINE
  5
2D223
330
18
100
AcDbEntity
  8
1
100
AcDb3dPolyline
 66
     1
 10
0.0
 20
0.0
 30
0.0
 70
    12
 75
     6
  0
VERTEX
  5
2D224
330
2D223
100
AcDbEntity
  8
1
100
AcDbVertex
100
AcDb3dPolylineVertex
 10
8.10567499999999
 20
-23.66654900000001
 30
0.0
 70
    48
  0
VERTEX
  5
2D225
330
2D223
100
AcDbEntity
  8
1
100
AcDbVertex
100
AcDb3dPolylineVertex
 10
8.053339999999892
 20
-23.60039500000002
 30
0.0
 70
    48
  0
VERTEX
  5
2D226
330
2D223
100
AcDbEntity
  8
1
100
AcDbVertex
100
AcDb3dPolylineVertex
 10
8.003005999999883
 20
-23.53270900000001
 30
0.0
 70
    48
  0
VERTEX
  5
2D227
330
2D223
100
AcDbEntity
  8
1
100
AcDbVertex
100
AcDb3dPolylineVertex
 10
7.581514999999896
 20
-22.93208500000001
 30
0.0
 70
    48
  0
VERTEX
  5
2D228
330
2D223
100
AcDbEntity
  8
1
100
AcDbVertex
100
AcDb3dPolylineVertex
 10
7.320637999999887
 20
-22.32618900000001
 30
0.0
 70
    48
  0
VERTEX
  5
2D229
330
2D223
100
AcDbEntity
  8
1
100
AcDbVertex
100
AcDb3dPolylineVertex
 10
7.043733999999886
 20
-21.41969500000001
 30
0.0
 70
    48
  0
VERTEX
  5
2D22A
330
2D223
100
AcDbEntity
  8
1
100
AcDbVertex
100
AcDb3dPolylineVertex
 10
6.974816999999887
 20
-21.14576300000001
 30
0.0
 70
    48
  0
VERTEX
  5
2D22B
330
2D223
100
AcDbEntity
  8
1
100
AcDbVertex
100
AcDb3dPolylineVertex
 10
6.584847999999992
 20
-19.284779
 30
0.0
 70
    48
  0
VERTEX
  5
2D22C
330
2D223
100
AcDbEntity
  8
1
100
AcDbVertex
100
AcDb3dPolylineVertex
 10
6.572511999999901
 20
-17.70320400000002
 30
0.0
 70
    48
  0
VERTEX
  5
2D22D
330
2D223
100
AcDbEntity
  8
1
100
AcDbVertex
100
AcDb3dPolylineVertex
 10
6.674773999999985
 20
-16.11179800000002
 30
0.0
 70
    48
  0
VERTEX
  5
2D22E
330
2D223
100
AcDbEntity
  8
1
100
AcDbVertex
100
AcDb3dPolylineVertex
 10
6.674773999999985
 20
-16.11179800000002
 30
0.0
 70
    48
  0
VERTEX
  5
2D22F
330
2D223
100
AcDbEntity
  8
1
100
AcDbVertex
100
AcDb3dPolylineVertex
 10
6.733902999999997
 20
-15.19163300000001
 30
0.0
 70
    48
  0
VERTEX
  5
2D230
330
2D223
100
AcDbEntity
  8
1
100
AcDbVertex
100
AcDb3dPolylineVertex
 10
6.835548999999986
 20
-14.29475400000001
 30
0.0
 70
    48
  0
VERTEX
  5
2D231
330
2D223
100
AcDbEntity
  8
1
100
AcDbVertex
100
AcDb3dPolylineVertex
 10
6.972466999999991
 20
-13.37982800000001
 30
0.0
 70
    48
  0
VERTEX
  5
2D232
330
2D223
100
AcDbEntity
  8
1
100
AcDbVertex
100
AcDb3dPolylineVertex
 10
6.972466999999991
 20
-13.37982800000001
 30
0.0
 70
    48
  0
VERTEX
  5
2D233
330
2D223
100
AcDbEntity
  8
1
100
AcDbVertex
100
AcDb3dPolylineVertex
 10
7.243662999999897
 20
-11.567608
 30
0.0
 70
    48
  0
VERTEX
  5
2D234
330
2D223
100
AcDbEntity
  8
1
100
AcDbVertex
100
AcDb3dPolylineVertex
 10
7.633207999999996
 20
-9.810290000000009
 30
0.0
 70
    48
  0
VERTEX
  5
2D235
330
2D223
100
AcDbEntity
  8
1
100
AcDbVertex
100
AcDb3dPolylineVertex
 10
8.10567499999999
 20
-8.055772000000017
 30
0.0
 70
    48
  0
VERTEX
  5
2D236
330
2D223
100
AcDbEntity
  8
1
100
AcDbVertex
100
AcDb3dPolylineVertex
 10
8.10567499999999
 20
-23.66654900000001
 30
0.0
 70
    40
  0
VERTEX
  5
2D237
330
2D223
100
AcDbEntity
  8
1
100
AcDbVertex
100
AcDb3dPolylineVertex
 10
7.954571999999997
 20
-23.463692
 30
0.0
 70
    40
  0
VERTEX
  5
2D238
330
2D223
100
AcDbEntity
  8
1
100
AcDbVertex
100
AcDb3dPolylineVertex
 10
7.777192999999897
 20
-23.19194200000001
 30
0.0
 70
    40
  0
VERTEX
  5
2D239
330
2D223
100
AcDbEntity
  8
1
100
AcDbVertex
100
AcDb3dPolylineVertex
 10
7.617318999999895
 20
-22.90928099999999
 30
0.0
 70
    40
  0
VERTEX
  5
2D23A
330
2D223
100
AcDbEntity
  8
1
100
AcDbVertex
100
AcDb3dPolylineVertex
 10
7.345314999999899
 20
-22.31710000000001
 30
0.0
 70
    40
  0
VERTEX
  5
2D23B
330
2D223
100
AcDbEntity
  8
1
100
AcDbVertex
100
AcDb3dPolylineVertex
 10
7.129023999999899
 20
-21.69890500000001
 30
0.0
 70
    40
  0
VERTEX
  5
2D23C
330
2D223
100
AcDbEntity
  8
1
100
AcDbVertex
100
AcDb3dPolylineVertex
 10
6.978013999999888
 20
-21.14203799999999
 30
0.0
 70
    40
  0
VERTEX
  5
2D23D
330
2D223
100
AcDbEntity
  8
1
100
AcDbVertex
100
AcDb3dPolylineVertex
 10
6.914641999999987
 20
-20.85859799999999
 30
0.0
 70
    40
  0
VERTEX
  5
2D23E
330
2D223
100
AcDbEntity
  8
1
100
AcDbVertex
100
AcDb3dPolylineVertex
 10
6.775260999999886
 20
-20.07103300000002
 30
0.0
 70
    40
  0
VERTEX
  5
2D23F
330
2D223
100
AcDbEntity
  8
1
100
AcDbVertex
100
AcDb3dPolylineVertex
 10
6.683153999999888
 20
-19.28211700000002
 30
0.0
 70
    40
  0
VERTEX
  5
2D240
330
2D223
100
AcDbEntity
  8
1
100
AcDbVertex
100
AcDb3dPolylineVertex
 10
6.632686999999887
 20
-18.49179299999999
 30
0.0
 70
    40
  0
VERTEX
  5
2D241
330
2D223
100
AcDbEntity
  8
1
100
AcDbVertex
100
AcDb3dPolylineVertex
 10
6.61822499999991
 20
-17.70000400000002
 30
0.0
 70
    40
  0
VERTEX
  5
2D242
330
2D223
100
AcDbEntity
  8
1
100
AcDbVertex
100
AcDb3dPolylineVertex
 10
6.634131999999878
 20
-16.90669100000001
 30
0.0
 70
    40
  0
VERTEX
  5
2D243
330
2D223
100
AcDbEntity
  8
1
100
AcDbVertex
100
AcDb3dPolylineVertex
 10
6.674773999999985
 20
-16.11179800000002
 30
0.0
 70
    40
  0
VERTEX
  5
2D244
330
2D223
100
AcDbEntity
  8
1
100
AcDbVertex
100
AcDb3dPolylineVertex
 10
6.674773999999985
 20
-16.11179800000002
 30
0.0
 70
    40
  0
VERTEX
  5
2D245
330
2D223
100
AcDbEntity
  8
1
100
AcDbVertex
100
AcDb3dPolylineVertex
 10
6.747806999999878
 20
-15.19786400000001
 30
0.0
 70
    40
  0
VERTEX
  5
2D246
330
2D223
100
AcDbEntity
  8
1
100
AcDbVertex
100
AcDb3dPolylineVertex
 10
6.847574999999892
 20
-14.29026900000001
 30
0.0
 70
    40
  0
VERTEX
  5
2D247
330
2D223
100
AcDbEntity
  8
1
100
AcDbVertex
100
AcDb3dPolylineVertex
 10
6.972466999999991
 20
-13.37982800000001
 30
0.0
 70
    40
  0
VERTEX
  5
2D248
330
2D223
100
AcDbEntity
  8
1
100
AcDbVertex
100
AcDb3dPolylineVertex
 10
6.972466999999991
 20
-13.37982800000001
 30
0.0
 70
    40
  0
VERTEX
  5
2D249
330
2D223
100
AcDbEntity
  8
1
100
AcDbVertex
100
AcDb3dPolylineVertex
 10
7.281800000000102
 20
-11.58397900000001
 30
0.0
 70
    40
  0
VERTEX
  5
2D24A
330
2D223
100
AcDbEntity
  8
1
100
AcDbVertex
100
AcDb3dPolylineVertex
 10
7.662160999999897
 20
-9.813153000000003
 30
0.0
 70
    40
  0
VERTEX
  5
2D24B
330
2D223
100
AcDbEntity
  8
1
100
AcDbVertex
100
AcDb3dPolylineVertex
 10
8.10567499999999
 20
-8.055772000000017
 30
0.0
 70
    40
  0
SEQEND
  5
2D24C
330
2D223
100
AcDbEntity
  8
1
  0
POLYLINE
  5
2D24D
330
18
100
AcDbEntity
  8
1
100
AcDb2dPolyline
 66
     1
 10
0.0
 20
0.0
 30
0.0
 70
     4
 75
     5
  0
VERTEX
  5
2D24E
330
2D24D
100
AcDbEntity
  8
1
100
AcDbVertex
100
AcDb2dVertex
 10
11.46132499999999
 20
-7.529667000000021
 30
0.0
 70
    16
  0
VERTEX
  5
2D24F
330
2D24D
100
AcDbEntity
  8
1
100
AcDbVertex
100
AcDb2dVertex
 10
9.999999999999984
 20
-7.529667000000021
 30
0.0
 70
    16
  0
VERTEX
  5
2D250
330
2D24D
100
AcDbEntity
  8
1
100
AcDbVertex
100
AcDb2dVertex
 10
8.538675999999995
 20
-7.529667000000021
 30
0.0
 70
    16
  0
VERTEX
  5
2D251
330
2D24D
100
AcDbEntity
  8
1
100
AcDbVertex
100
AcDb2dVertex
 10
11.46132499999999
 20
-7.529667000000021
 30
0.0
 70
     8
  0
VERTEX
  5
2D252
330
2D24D
100
AcDbEntity
  8
1
100
AcDbVertex
100
AcDb2dVertex
 10
8.538675999999995
 20
-7.529667000000021
 30
0.0
 70
     8
  0
SEQEND
  5
2D253
330
2D24D
100
AcDbEntity
  8
1
  0
LINE
  5
2D254
330
18
100
AcDbEntity
  8
1
100
AcDbLine
 10
8.538675999999995
 20
-7.529667000000021
 30
0.0
 11
11.46132499999999
 21
-7.529667000000021
 31
0.0
  0
POLYLINE
  5
2D255
330
18
100
AcDbEntity
  8
11
100
AcDb2dPolyline
 66
     1
 10
0.0
 20
0.0
 30
0.0
 70
     4
 75
     6
  0
VERTEX
  5
2D256
330
2D255
100
AcDbEntity
  8
11
100
AcDbVertex
100
AcDb2dVertex
 10
-2.043353999999879
 20
-17.44891199999999
 30
0.0
 70
    16
  0
VERTEX
  5
2D257
330
2D255
100
AcDbEntity
  8
11
100
AcDbVertex
100
AcDb2dVertex
 10
-2.010660000000115
 20
-17.42327000000001
 30
0.0
 70
    16
  0
VERTEX
  5
2D258
330
2D255
100
AcDbEntity
  8
11
100
AcDbVertex
100
AcDb2dVertex
 10
-1.981774
 20
-17.40218800000001
 30
0.0
 70
    16
  0
VERTEX
  5
2D259
330
2D255
100
AcDbEntity
  8
11
100
AcDbVertex
100
AcDb2dVertex
 10
-1.713639000000114
 20
-17.225685
 30
0.0
 70
    16
  0
VERTEX
  5
2D25A
330
2D255
100
AcDbEntity
  8
11
100
AcDbVertex
100
AcDb2dVertex
 10
-1.438624000000004
 20
-17.20109200000001
 30
0.0
 70
    16
  0
VERTEX
  5
2D25B
330
2D255
100
AcDbEntity
  8
11
100
AcDbVertex
100
AcDb2dVertex
 10
-0.7892320000001121
 20
-17.06492599999999
 30
0.0
 70
    16
  0
VERTEX
  5
2D25C
330
2D255
100
AcDbEntity
  8
11
100
AcDbVertex
100
AcDb2dVertex
 10
-0.3979650000001129
 20
-17.00040700000001
 30
0.0
 70
    16
  0
VERTEX
  5
2D25D
330
2D255
100
AcDbEntity
  8
11
100
AcDbVertex
100
AcDb2dVertex
 10
0.0
 20
-17.00458300000001
 30
0.0
 70
    16
  0
VERTEX
  5
2D25E
330
2D255
100
AcDbEntity
  8
11
100
AcDbVertex
100
AcDb2dVertex
 10
-2.043353999999879
 20
-17.44891199999999
 30
0.0
 70
     8
  0
VERTEX
  5
2D25F
330
2D255
100
AcDbEntity
  8
11
100
AcDbVertex
100
AcDb2dVertex
 10
-1.947478000000103
 20
-17.37961200000001
 30
0.0
 70
     8
  0
VERTEX
  5
2D260
330
2D255
100
AcDbEntity
  8
11
100
AcDbVertex
100
AcDb2dVertex
 10
-1.701878000000107
 20
-17.26287300000002
 30
0.0
 70
     8
  0
VERTEX
  5
2D261
330
2D255
100
AcDbEntity
  8
11
100
AcDbVertex
100
AcDb2dVertex
 10
-0.7874979999999994
 20
-17.07234999999999
 30
0.0
 70
     8
  0
VERTEX
  5
2D262
330
2D255
100
AcDbEntity
  8
11
100
AcDbVertex
100
AcDb2dVertex
 10
-0.3957949999998789
 20
-17.02137099999999
 30
0.0
 70
     8
  0
VERTEX
  5
2D263
330
2D255
100
AcDbEntity
  8
11
100
AcDbVertex
100
AcDb2dVertex
 10
0.0
 20
-17.00458300000001
 30
0.0
 70
     8
  0
SEQEND
  5
2D264
330
2D255
100
AcDbEntity
  8
11
  0
POLYLINE
  5
2D265
330
18
100
AcDbEntity
  8
1
100
AcDb3dPolyline
 66
     1
 10
0.0
 20
0.0
 30
0.0
 70
    12
 75
     6
  0
VERTEX
  5
2D266
330
2D265
100
AcDbEntity
  8
1
100
AcDbVertex
100
AcDb3dPolylineVertex
 10
134.4250809999999
 20
-13.42042300000002
 30
0.0
 70
    48
  0
VERTEX
  5
2D267
330
2D265
100
AcDbEntity
  8
1
100
AcDbVertex
100
AcDb3dPolylineVertex
 10
134.6069799999999
 20
-13.11581500000002
 30
0.0
 70
    48
  0
VERTEX
  5
2D268
330
2D265
100
AcDbEntity
  8
1
100
AcDbVertex
100
AcDb3dPolylineVertex
 10
134.7492089999999
 20
-12.79065700000002
 30
0.0
 70
    48
  0
VERTEX
  5
2D269
330
2D265
100
AcDbEntity
  8
1
100
AcDbVertex
100
AcDb3dPolylineVertex
 10
135.0096809999999
 20
-11.89188300000002
 30
0.0
 70
    48
  0
VERTEX
  5
2D26A
330
2D265
100
AcDbEntity
  8
1
100
AcDbVertex
100
AcDb3dPolylineVertex
 10
135.0512089999999
 20
-11.29466400000002
 30
0.0
 70
    48
  0
VERTEX
  5
2D26B
330
2D265
100
AcDbEntity
  8
1
100
AcDbVertex
100
AcDb3dPolylineVertex
 10
134.9508779999999
 20
-10.70426800000001
 30
0.0
 70
    48
  0
VERTEX
  5
2D26C
330
2D265
100
AcDbEntity
  8
1
100
AcDbVertex
100
AcDb3dPolylineVertex
 10
134.4250809999999
 20
-13.42042300000002
 30
0.0
 70
    40
  0
VERTEX
  5
2D26D
330
2D265
100
AcDbEntity
  8
1
100
AcDbVertex
100
AcDb3dPolylineVertex
 10
134.5935859999999
 20
-13.109249
 30
0.0
 70
    40
  0
VERTEX
  5
2D26E
330
2D265
100
AcDbEntity
  8
1
100
AcDbVertex
100
AcDb3dPolylineVertex
 10
134.7346249999999
 20
-12.78607900000002
 30
0.0
 70
    40
  0
VERTEX
  5
2D26F
330
2D265
100
AcDbEntity
  8
1
100
AcDbVertex
100
AcDb3dPolylineVertex
 10
134.8471749999999
 20
-12.45261800000001
 30
0.0
 70
    40
  0
VERTEX
  5
2D270
330
2D265
100
AcDbEntity
  8
1
100
AcDbVertex
100
AcDb3dPolylineVertex
 10
134.9182499999999
 20
-12.16941100000002
 30
0.0
 70
    40
  0
VERTEX
  5
2D271
330
2D265
100
AcDbEntity
  8
1
100
AcDbVertex
100
AcDb3dPolylineVertex
 10
134.9685819999999
 20
-11.88132600000001
 30
0.0
 70
    40
  0
VERTEX
  5
2D272
330
2D265
100
AcDbEntity
  8
1
100
AcDbVertex
100
AcDb3dPolylineVertex
 10
134.9975899999999
 20
-11.58956600000002
 30
0.0
 70
    40
  0
VERTEX
  5
2D273
330
2D265
100
AcDbEntity
  8
1
100
AcDbVertex
100
AcDb3dPolylineVertex
 10
135.0046959999999
 20
-11.29533400000002
 30
0.0
 70
    40
  0
VERTEX
  5
2D274
330
2D265
100
AcDbEntity
  8
1
100
AcDbVertex
100
AcDb3dPolylineVertex
 10
134.9893179999999
 20
-10.99983400000001
 30
0.0
 70
    40
  0
VERTEX
  5
2D275
330
2D265
100
AcDbEntity
  8
1
100
AcDbVertex
100
AcDb3dPolylineVertex
 10
134.9508779999999
 20
-10.70426800000001
 30
0.0
 70
    40
  0
SEQEND
  5
2D276
330
2D265
100
AcDbEntity
  8
1
  0
POLYLINE
  5
2D277
330
18
100
AcDbEntity
  8
1
100
AcDb3dPolyline
 66
     1
 10
0.0
 20
0.0
 30
0.0
 70
    12
 75
     6
  0
VERTEX
  5
2D278
330
2D277
100
AcDbEntity
  8
1
100
AcDbVertex
100
AcDb3dPolylineVertex
 10
134.1442989999999
 20
-8.871959000000018
 30
0.0
 70
    48
  0
VERTEX
  5
2D279
330
2D277
100
AcDbEntity
  8
1
100
AcDbVertex
100
AcDb3dPolylineVertex
 10
133.9766849999999
 20
-8.600375000000017
 30
0.0
 70
    48
  0
VERTEX
  5
2D27A
330
2D277
100
AcDbEntity
  8
1
100
AcDbVertex
100
AcDb3dPolylineVertex
 10
133.7827409999999
 20
-8.359341000000018
 30
0.0
 70
    48
  0
VERTEX
  5
2D27B
330
2D277
100
AcDbEntity
  8
1
100
AcDbVertex
100
AcDb3dPolylineVertex
 10
133.3901859999999
 20
-7.982739000000008
 30
0.0
 70
    48
  0
VERTEX
  5
2D27C
330
2D277
100
AcDbEntity
  8
1
100
AcDbVertex
100
AcDb3dPolylineVertex
 10
133.2322819999999
 20
-7.855094000000008
 30
0.0
 70
    48
  0
VERTEX
  5
2D27D
330
2D277
100
AcDbEntity
  8
1
100
AcDbVertex
100
AcDb3dPolylineVertex
 10
132.6958989999999
 20
-7.489383000000017
 30
0.0
 70
    48
  0
VERTEX
  5
2D27E
330
2D277
100
AcDbEntity
  8
1
100
AcDbVertex
100
AcDb3dPolylineVertex
 10
132.2999879999999
 20
-7.308622000000017
 30
0.0
 70
    48
  0
VERTEX
  5
2D27F
330
2D277
100
AcDbEntity
  8
1
100
AcDbVertex
100
AcDb3dPolylineVertex
 10
131.2704439999999
 20
-7.023585000000017
 30
0.0
 70
    48
  0
VERTEX
  5
2D280
330
2D277
100
AcDbEntity
  8
1
100
AcDbVertex
100
AcDb3dPolylineVertex
 10
130.6141319999999
 20
-6.999933000000016
 30
0.0
 70
    48
  0
VERTEX
  5
2D281
330
2D277
100
AcDbEntity
  8
1
100
AcDbVertex
100
AcDb3dPolylineVertex
 10
129.6843369999999
 20
-7.181946000000017
 30
0.0
 70
    48
  0
VERTEX
  5
2D282
330
2D277
100
AcDbEntity
  8
1
100
AcDbVertex
100
AcDb3dPolylineVertex
 10
129.4305029999999
 20
-7.258153000000017
 30
0.0
 70
    48
  0
VERTEX
  5
2D283
330
2D277
100
AcDbEntity
  8
1
100
AcDbVertex
100
AcDb3dPolylineVertex
 10
128.7800739999999
 20
-7.526380000000019
 30
0.0
 70
    48
  0
VERTEX
  5
2D284
330
2D277
100
AcDbEntity
  8
1
100
AcDbVertex
100
AcDb3dPolylineVertex
 10
128.4685269999999
 20
-7.707618000000008
 30
0.0
 70
    48
  0
VERTEX
  5
2D285
330
2D277
100
AcDbEntity
  8
1
100
AcDbVertex
100
AcDb3dPolylineVertex
 10
127.7590339999999
 20
-8.254665000000017
 30
0.0
 70
    48
  0
VERTEX
  5
2D286
330
2D277
100
AcDbEntity
  8
1
100
AcDbVertex
100
AcDb3dPolylineVertex
 10
127.4393189999999
 20
-8.596399000000008
 30
0.0
 70
    48
  0
VERTEX
  5
2D287
330
2D277
100
AcDbEntity
  8
1
100
AcDbVertex
100
AcDb3dPolylineVertex
 10
126.8017649999999
 20
-9.586290000000019
 30
0.0
 70
    48
  0
VERTEX
  5
2D288
330
2D277
100
AcDbEntity
  8
1
100
AcDbVertex
100
AcDb3dPolylineVertex
 10
126.5964379999999
 20
-10.14025500000002
 30
0.0
 70
    48
  0
VERTEX
  5
2D289
330
2D277
100
AcDbEntity
  8
1
100
AcDbVertex
100
AcDb3dPolylineVertex
 10
126.4384889999999
 20
-11.70645000000002
 30
0.0
 70
    48
  0
VERTEX
  5
2D28A
330
2D277
100
AcDbEntity
  8
1
100
AcDbVertex
100
AcDb3dPolylineVertex
 10
126.5721039999999
 20
-12.40568500000002
 30
0.0
 70
    48
  0
VERTEX
  5
2D28B
330
2D277
100
AcDbEntity
  8
1
100
AcDbVertex
100
AcDb3dPolylineVertex
 10
127.0688849999999
 20
-13.21061400000002
 30
0.0
 70
    48
  0
VERTEX
  5
2D28C
330
2D277
100
AcDbEntity
  8
1
100
AcDbVertex
100
AcDb3dPolylineVertex
 10
134.1442989999999
 20
-8.871959000000018
 30
0.0
 70
    40
  0
VERTEX
  5
2D28D
330
2D277
100
AcDbEntity
  8
1
100
AcDbVertex
100
AcDb3dPolylineVertex
 10
133.9673419999999
 20
-8.609984000000018
 30
0.0
 70
    40
  0
VERTEX
  5
2D28E
330
2D277
100
AcDbEntity
  8
1
100
AcDbVertex
100
AcDb3dPolylineVertex
 10
133.7694339999999
 20
-8.364929000000021
 30
0.0
 70
    40
  0
VERTEX
  5
2D28F
330
2D277
100
AcDbEntity
  8
1
100
AcDbVertex
100
AcDb3dPolylineVertex
 10
133.5471769999999
 20
-8.133350000000017
 30
0.0
 70
    40
  0
VERTEX
  5
2D290
330
2D277
100
AcDbEntity
  8
1
100
AcDbVertex
100
AcDb3dPolylineVertex
 10
133.2266759999999
 20
-7.858067000000017
 30
0.0
 70
    40
  0
VERTEX
  5
2D291
330
2D277
100
AcDbEntity
  8
1
100
AcDbVertex
100
AcDb3dPolylineVertex
 10
133.0555719999999
 20
-7.734611000000022
 30
0.0
 70
    40
  0
VERTEX
  5
2D292
330
2D277
100
AcDbEntity
  8
1
100
AcDbVertex
100
AcDb3dPolylineVertex
 10
132.6844959999999
 20
-7.510935000000021
 30
0.0
 70
    40
  0
VERTEX
  5
2D293
330
2D277
100
AcDbEntity
  8
1
100
AcDbVertex
100
AcDb3dPolylineVertex
 10
132.2933199999999
 20
-7.330617000000021
 30
0.0
 70
    40
  0
VERTEX
  5
2D294
330
2D277
100
AcDbEntity
  8
1
100
AcDbVertex
100
AcDb3dPolylineVertex
 10
131.8861029999999
 20
-7.194035000000019
 30
0.0
 70
    40
  0
VERTEX
  5
2D295
330
2D277
100
AcDbEntity
  8
1
100
AcDbVertex
100
AcDb3dPolylineVertex
 10
131.5751339999999
 20
-7.121056000000018
 30
0.0
 70
    40
  0
VERTEX
  5
2D296
330
2D277
100
AcDbEntity
  8
1
100
AcDbVertex
100
AcDb3dPolylineVertex
 10
131.2588819999999
 20
-7.072621000000019
 30
0.0
 70
    40
  0
VERTEX
  5
2D297
330
2D277
100
AcDbEntity
  8
1
100
AcDbVertex
100
AcDb3dPolylineVertex
 10
130.9388369999999
 20
-7.048806000000016
 30
0.0
 70
    40
  0
VERTEX
  5
2D298
330
2D277
100
AcDbEntity
  8
1
100
AcDbVertex
100
AcDb3dPolylineVertex
 10
130.6164899999999
 20
-7.049689000000017
 30
0.0
 70
    40
  0
VERTEX
  5
2D299
330
2D277
100
AcDbEntity
  8
1
100
AcDbVertex
100
AcDb3dPolylineVertex
 10
130.2933349999999
 20
-7.075347000000017
 30
0.0
 70
    40
  0
VERTEX
  5
2D29A
330
2D277
100
AcDbEntity
  8
1
100
AcDbVertex
100
AcDb3dPolylineVertex
 10
129.9708609999999
 20
-7.125857000000006
 30
0.0
 70
    40
  0
VERTEX
  5
2D29B
330
2D277
100
AcDbEntity
  8
1
100
AcDbVertex
100
AcDb3dPolylineVertex
 10
129.4248789999999
 20
-7.270153000000018
 30
0.0
 70
    40
  0
VERTEX
  5
2D29C
330
2D277
100
AcDbEntity
  8
1
100
AcDbVertex
100
AcDb3dPolylineVertex
 10
129.1535989999999
 20
-7.372344000000013
 30
0.0
 70
    40
  0
VERTEX
  5
2D29D
330
2D277
100
AcDbEntity
  8
1
100
AcDbVertex
100
AcDb3dPolylineVertex
 10
128.7984189999999
 20
-7.536639000000017
 30
0.0
 70
    40
  0
VERTEX
  5
2D29E
330
2D277
100
AcDbEntity
  8
1
100
AcDbVertex
100
AcDb3dPolylineVertex
 10
128.4706709999999
 20
-7.726217000000017
 30
0.0
 70
    40
  0
VERTEX
  5
2D29F
330
2D277
100
AcDbEntity
  8
1
100
AcDbVertex
100
AcDb3dPolylineVertex
 10
128.1564689999999
 20
-7.948227000000017
 30
0.0
 70
    40
  0
VERTEX
  5
2D2A0
330
2D277
100
AcDbEntity
  8
1
100
AcDbVertex
100
AcDb3dPolylineVertex
 10
127.7836459999999
 20
-8.268392000000019
 30
0.0
 70
    40
  0
VERTEX
  5
2D2A1
330
2D277
100
AcDbEntity
  8
1
100
AcDbVertex
100
AcDb3dPolylineVertex
 10
127.4548699999999
 20
-8.623858000000016
 30
0.0
 70
    40
  0
VERTEX
  5
2D2A2
330
2D277
100
AcDbEntity
  8
1
100
AcDbVertex
100
AcDb3dPolylineVertex
 10
127.1623729999999
 20
-9.026397000000017
 30
0.0
 70
    40
  0
VERTEX
  5
2D2A3
330
2D277
100
AcDbEntity
  8
1
100
AcDbVertex
100
AcDb3dPolylineVertex
 10
126.9949199999999
 20
-9.306492000000018
 30
0.0
 70
    40
  0
VERTEX
  5
2D2A4
330
2D277
100
AcDbEntity
  8
1
100
AcDbVertex
100
AcDb3dPolylineVertex
 10
126.8528129999999
 20
-9.589458000000018
 30
0.0
 70
    40
  0
VERTEX
  5
2D2A5
330
2D277
100
AcDbEntity
  8
1
100
AcDbVertex
100
AcDb3dPolylineVertex
 10
126.7355179999999
 20
-9.879151000000018
 30
0.0
 70
    40
  0
VERTEX
  5
2D2A6
330
2D277
100
AcDbEntity
  8
1
100
AcDbVertex
100
AcDb3dPolylineVertex
 10
126.6425009999999
 20
-10.17943000000003
 30
0.0
 70
    40
  0
VERTEX
  5
2D2A7
330
2D277
100
AcDbEntity
  8
1
100
AcDbVertex
100
AcDb3dPolylineVertex
 10
126.5732269999999
 20
-10.49415400000002
 30
0.0
 70
    40
  0
VERTEX
  5
2D2A8
330
2D277
100
AcDbEntity
  8
1
100
AcDbVertex
100
AcDb3dPolylineVertex
 10
126.5271619999999
 20
-10.82717900000002
 30
0.0
 70
    40
  0
VERTEX
  5
2D2A9
330
2D277
100
AcDbEntity
  8
1
100
AcDbVertex
100
AcDb3dPolylineVertex
 10
126.5020019999999
 20
-11.25313400000001
 30
0.0
 70
    40
  0
VERTEX
  5
2D2AA
330
2D277
100
AcDbEntity
  8
1
100
AcDbVertex
100
AcDb3dPolylineVertex
 10
126.5178029999999
 20
-11.65702000000001
 30
0.0
 70
    40
  0
VERTEX
  5
2D2AB
330
2D277
100
AcDbEntity
  8
1
100
AcDbVertex
100
AcDb3dPolylineVertex
 10
126.5784779999999
 20
-12.04677500000002
 30
0.0
 70
    40
  0
VERTEX
  5
2D2AC
330
2D277
100
AcDbEntity
  8
1
100
AcDbVertex
100
AcDb3dPolylineVertex
 10
126.6879419999999
 20
-12.43033400000002
 30
0.0
 70
    40
  0
VERTEX
  5
2D2AD
330
2D277
100
AcDbEntity
  8
1
100
AcDbVertex
100
AcDb3dPolylineVertex
 10
126.8501059999999
 20
-12.81563500000003
 30
0.0
 70
    40
  0
VERTEX
  5
2D2AE
330
2D277
100
AcDbEntity
  8
1
100
AcDbVertex
100
AcDb3dPolylineVertex
 10
127.0688849999999
 20
-13.21061400000002
 30
0.0
 70
    40
  0
SEQEND
  5
2D2AF
330
2D277
100
AcDbEntity
  8
1
  0
POLYLINE
  5
2D2B0
330
18
100
AcDbEntity
  8
1
100
AcDb2dPolyline
 66
     1
 10
0.0
 20
0.0
 30
0.0
 70
     4
 75
     6
  0
VERTEX
  5
2D2B1
330
2D2B0
100
AcDbEntity
  8
1
100
AcDbVertex
100
AcDb2dVertex
 10
127.3682509999999
 20
-13.69567400000002
 30
0.0
 70
    16
  0
VERTEX
  5
2D2B2
330
2D2B0
100
AcDbEntity
  8
1
100
AcDbVertex
100
AcDb2dVertex
 10
127.3799089999999
 20
-13.71456300000002
 30
0.0
 70
    16
  0
VERTEX
  5
2D2B3
330
2D2B0
100
AcDbEntity
  8
1
100
AcDbVertex
100
AcDb2dVertex
 10
127.3917369999999
 20
-13.73334600000002
 30
0.0
 70
    16
  0
VERTEX
  5
2D2B4
330
2D2B0
100
AcDbEntity
  8
1
100
AcDbVertex
100
AcDb2dVertex
 10
127.6627349999999
 20
-14.15521500000002
 30
0.0
 70
    16
  0
VERTEX
  5
2D2B5
330
2D2B0
100
AcDbEntity
  8
1
100
AcDbVertex
100
AcDb2dVertex
 10
127.9992879999999
 20
-14.50881100000002
 30
0.0
 70
    16
  0
VERTEX
  5
2D2B6
330
2D2B0
100
AcDbEntity
  8
1
100
AcDbVertex
100
AcDb2dVertex
 10
128.3970359999999
 20
-14.791337
 30
0.0
 70
    16
  0
VERTEX
  5
2D2B7
330
2D2B0
100
AcDbEntity
  8
1
100
AcDbVertex
100
AcDb2dVertex
 10
127.3682509999999
 20
-13.69567400000002
 30
0.0
 70
     8
  0
VERTEX
  5
2D2B8
330
2D2B0
100
AcDbEntity
  8
1
100
AcDbVertex
100
AcDb2dVertex
 10
127.4037339999999
 20
-13.75202100000002
 30
0.0
 70
     8
  0
VERTEX
  5
2D2B9
330
2D2B0
100
AcDbEntity
  8
1
100
AcDbVertex
100
AcDb2dVertex
 10
127.6879799999999
 20
-14.137887
 30
0.0
 70
     8
  0
VERTEX
  5
2D2BA
330
2D2B0
100
AcDbEntity
  8
1
100
AcDbVertex
100
AcDb2dVertex
 10
128.0202919999999
 20
-14.48591600000002
 30
0.0
 70
     8
  0
VERTEX
  5
2D2BB
330
2D2B0
100
AcDbEntity
  8
1
100
AcDbVertex
100
AcDb2dVertex
 10
128.3970359999999
 20
-14.791337
 30
0.0
 70
     8
  0
SEQEND
  5
2D2BC
330
2D2B0
100
AcDbEntity
  8
1
  0
POLYLINE
  5
2D2BD
330
18
100
AcDbEntity
  8
1
100
AcDb3dPolyline
 66
     1
 10
0.0
 20
0.0
 30
0.0
 70
    12
 75
     6
  0
VERTEX
  5
2D2BE
330
2D2BD
100
AcDbEntity
  8
1
100
AcDbVertex
100
AcDb3dPolylineVertex
 10
134.9609039999999
 20
-10.76636200000001
 30
0.0
 70
    48
  0
VERTEX
  5
2D2BF
330
2D2BD
100
AcDbEntity
  8
1
100
AcDbVertex
100
AcDb3dPolylineVertex
 10
134.9228779999999
 20
-10.51786600000002
 30
0.0
 70
    48
  0
VERTEX
  5
2D2C0
330
2D2BD
100
AcDbEntity
  8
1
100
AcDbVertex
100
AcDb3dPolylineVertex
 10
134.8611119999999
 20
-10.27411800000001
 30
0.0
 70
    48
  0
VERTEX
  5
2D2C1
330
2D2BD
100
AcDbEntity
  8
1
100
AcDbVertex
100
AcDb3dPolylineVertex
 10
134.6884779999999
 20
-9.801674000000009
 30
0.0
 70
    48
  0
VERTEX
  5
2D2C2
330
2D2BD
100
AcDbEntity
  8
1
100
AcDbVertex
100
AcDb3dPolylineVertex
 10
134.5771119999999
 20
-9.573240000000019
 30
0.0
 70
    48
  0
VERTEX
  5
2D2C3
330
2D2BD
100
AcDbEntity
  8
1
100
AcDbVertex
100
AcDb3dPolylineVertex
 10
134.4436649999999
 20
-9.357019000000008
 30
0.0
 70
    48
  0
VERTEX
  5
2D2C4
330
2D2BD
100
AcDbEntity
  8
1
100
AcDbVertex
100
AcDb3dPolylineVertex
 10
134.9609039999999
 20
-10.76636200000001
 30
0.0
 70
    40
  0
VERTEX
  5
2D2C5
330
2D2BD
100
AcDbEntity
  8
1
100
AcDbVertex
100
AcDb3dPolylineVertex
 10
134.8530919999999
 20
-10.27688900000002
 30
0.0
 70
    40
  0
VERTEX
  5
2D2C6
330
2D2BD
100
AcDbEntity
  8
1
100
AcDbVertex
100
AcDb3dPolylineVertex
 10
134.6803719999999
 20
-9.804799000000015
 30
0.0
 70
    40
  0
VERTEX
  5
2D2C7
330
2D2BD
100
AcDbEntity
  8
1
100
AcDbVertex
100
AcDb3dPolylineVertex
 10
134.4436649999999
 20
-9.357019000000008
 30
0.0
 70
    40
  0
SEQEND
  5
2D2C8
330
2D2BD
100
AcDbEntity
  8
1
  0
POLYLINE
  5
2D2C9
330
18
100
AcDbEntity
  8
1
100
AcDb3dPolyline
 66
     1
 10
0.0
 20
0.0
 30
0.0
 70
    12
 75
     6
  0
VERTEX
  5
2D2CA
330
2D2C9
100
AcDbEntity
  8
1
100
AcDbVertex
100
AcDb3dPolylineVertex
 10
95.5670609999999
 20
0.0
 30
0.0
 70
    48
  0
VERTEX
  5
2D2CB
330
2D2C9
100
AcDbEntity
  8
1
100
AcDbVertex
100
AcDb3dPolylineVertex
 10
95.65752199999993
 20
0.4056539999999951
 30
0.0
 70
    48
  0
VERTEX
  5
2D2CC
330
2D2C9
100
AcDbEntity
  8
1
100
AcDbVertex
100
AcDb3dPolylineVertex
 10
95.7590199999999
 20
0.7942769999999939
 30
0.0
 70
    48
  0
VERTEX
  5
2D2CD
330
2D2C9
100
AcDbEntity
  8
1
100
AcDbVertex
100
AcDb3dPolylineVertex
 10
96.3217539999999
 20
2.696212000000001
 30
0.0
 70
    48
  0
VERTEX
  5
2D2CE
330
2D2C9
100
AcDbEntity
  8
1
100
AcDbVertex
100
AcDb3dPolylineVertex
 10
96.95196499999987
 20
4.115614999999991
 30
0.0
 70
    48
  0
VERTEX
  5
2D2CF
330
2D2C9
100
AcDbEntity
  8
1
100
AcDbVertex
100
AcDb3dPolylineVertex
 10
98.03319299999992
 20
5.89438299999998
 30
0.0
 70
    48
  0
VERTEX
  5
2D2D0
330
2D2C9
100
AcDbEntity
  8
1
100
AcDbVertex
100
AcDb3dPolylineVertex
 10
98.30559699999993
 20
6.307549999999981
 30
0.0
 70
    48
  0
VERTEX
  5
2D2D1
330
2D2C9
100
AcDbEntity
  8
1
100
AcDbVertex
100
AcDb3dPolylineVertex
 10
99.3699149999999
 20
7.772645999999982
 30
0.0
 70
    48
  0
VERTEX
  5
2D2D2
330
2D2C9
100
AcDbEntity
  8
1
100
AcDbVertex
100
AcDb3dPolylineVertex
 10
100.2503619999999
 20
8.735985999999991
 30
0.0
 70
    48
  0
VERTEX
  5
2D2D3
330
2D2C9
100
AcDbEntity
  8
1
100
AcDbVertex
100
AcDb3dPolylineVertex
 10
102.5507959999999
 20
10.80358899999998
 30
0.0
 70
    48
  0
VERTEX
  5
2D2D4
330
2D2C9
100
AcDbEntity
  8
1
100
AcDbVertex
100
AcDb3dPolylineVertex
 10
104.0561589999999
 20
11.81097499999998
 30
0.0
 70
    48
  0
VERTEX
  5
2D2D5
330
2D2C9
100
AcDbEntity
  8
1
100
AcDbVertex
100
AcDb3dPolylineVertex
 10
106.2697739999999
 20
12.94025099999998
 30
0.0
 70
    48
  0
VERTEX
  5
2D2D6
330
2D2C9
100
AcDbEntity
  8
1
100
AcDbVertex
100
AcDb3dPolylineVertex
 10
106.8679229999999
 20
13.21378899999998
 30
0.0
 70
    48
  0
VERTEX
  5
2D2D7
330
2D2C9
100
AcDbEntity
  8
1
100
AcDbVertex
100
AcDb3dPolylineVertex
 10
109.4488349999999
 20
14.27678999999998
 30
0.0
 70
    48
  0
VERTEX
  5
2D2D8
330
2D2C9
100
AcDbEntity
  8
1
100
AcDbVertex
100
AcDb3dPolylineVertex
 10
111.4424089999999
 20
14.83322899999998
 30
0.0
 70
    48
  0
VERTEX
  5
2D2D9
330
2D2C9
100
AcDbEntity
  8
1
100
AcDbVertex
100
AcDb3dPolylineVertex
 10
113.8829079999999
 20
15.30247999999998
 30
0.0
 70
    48
  0
VERTEX
  5
2D2DA
330
2D2C9
100
AcDbEntity
  8
1
100
AcDbVertex
100
AcDb3dPolylineVertex
 10
114.2628949999999
 20
15.36805299999998
 30
0.0
 70
    48
  0
VERTEX
  5
2D2DB
330
2D2C9
100
AcDbEntity
  8
1
100
AcDbVertex
100
AcDb3dPolylineVertex
 10
114.6489669999999
 20
15.43225999999998
 30
0.0
 70
    48
  0
VERTEX
  5
2D2DC
330
2D2C9
100
AcDbEntity
  8
1
100
AcDbVertex
100
AcDb3dPolylineVertex
 10
95.5670609999999
 20
0.0
 30
0.0
 70
    40
  0
VERTEX
  5
2D2DD
330
2D2C9
100
AcDbEntity
  8
1
100
AcDbVertex
100
AcDb3dPolylineVertex
 10
95.76412099999986
 20
0.7959999999999816
 30
0.0
 70
    40
  0
VERTEX
  5
2D2DE
330
2D2C9
100
AcDbEntity
  8
1
100
AcDbVertex
100
AcDb3dPolylineVertex
 10
95.87635399999992
 20
1.190843999999994
 30
0.0
 70
    40
  0
VERTEX
  5
2D2DF
330
2D2C9
100
AcDbEntity
  8
1
100
AcDbVertex
100
AcDb3dPolylineVertex
 10
96.11446599999993
 20
1.93641699999998
 30
0.0
 70
    40
  0
VERTEX
  5
2D2E0
330
2D2C9
100
AcDbEntity
  8
1
100
AcDbVertex
100
AcDb3dPolylineVertex
 10
96.3834469999999
 20
2.66797799999998
 30
0.0
 70
    40
  0
VERTEX
  5
2D2E1
330
2D2C9
100
AcDbEntity
  8
1
100
AcDbVertex
100
AcDb3dPolylineVertex
 10
96.6833639999999
 20
3.385841999999993
 30
0.0
 70
    40
  0
VERTEX
  5
2D2E2
330
2D2C9
100
AcDbEntity
  8
1
100
AcDbVertex
100
AcDb3dPolylineVertex
 10
97.0142839999999
 20
4.090325999999981
 30
0.0
 70
    40
  0
VERTEX
  5
2D2E3
330
2D2C9
100
AcDbEntity
  8
1
100
AcDbVertex
100
AcDb3dPolylineVertex
 10
97.37627499999993
 20
4.78174399999998
 30
0.0
 70
    40
  0
VERTEX
  5
2D2E4
330
2D2C9
100
AcDbEntity
  8
1
100
AcDbVertex
100
AcDb3dPolylineVertex
 10
97.76940299999992
 20
5.460412000000001
 30
0.0
 70
    40
  0
VERTEX
  5
2D2E5
330
2D2C9
100
AcDbEntity
  8
1
100
AcDbVertex
100
AcDb3dPolylineVertex
 10
98.31319499999992
 20
6.305483999999981
 30
0.0
 70
    40
  0
VERTEX
  5
2D2E6
330
2D2C9
100
AcDbEntity
  8
1
100
AcDbVertex
100
AcDb3dPolylineVertex
 10
98.60256699999993
 20
6.716346999999991
 30
0.0
 70
    40
  0
VERTEX
  5
2D2E7
330
2D2C9
100
AcDbEntity
  8
1
100
AcDbVertex
100
AcDb3dPolylineVertex
 10
98.9955359999999
 20
7.236737999999981
 30
0.0
 70
    40
  0
VERTEX
  5
2D2E8
330
2D2C9
100
AcDbEntity
  8
1
100
AcDbVertex
100
AcDb3dPolylineVertex
 10
99.40657499999986
 20
7.741561999999982
 30
0.0
 70
    40
  0
VERTEX
  5
2D2E9
330
2D2C9
100
AcDbEntity
  8
1
100
AcDbVertex
100
AcDb3dPolylineVertex
 10
99.83490399999993
 20
8.230747999999982
 30
0.0
 70
    40
  0
VERTEX
  5
2D2EA
330
2D2C9
100
AcDbEntity
  8
1
100
AcDbVertex
100
AcDb3dPolylineVertex
 10
100.2797429999999
 20
8.70422199999998
 30
0.0
 70
    40
  0
VERTEX
  5
2D2EB
330
2D2C9
100
AcDbEntity
  8
1
100
AcDbVertex
100
AcDb3dPolylineVertex
 10
100.7403129999999
 20
9.161909999999981
 30
0.0
 70
    40
  0
VERTEX
  5
2D2EC
330
2D2C9
100
AcDbEntity
  8
1
100
AcDbVertex
100
AcDb3dPolylineVertex
 10
101.2158339999999
 20
9.603740999999985
 30
0.0
 70
    40
  0
VERTEX
  5
2D2ED
330
2D2C9
100
AcDbEntity
  8
1
100
AcDbVertex
100
AcDb3dPolylineVertex
 10
101.8972179999999
 20
10.18765999999998
 30
0.0
 70
    40
  0
VERTEX
  5
2D2EE
330
2D2C9
100
AcDbEntity
  8
1
100
AcDbVertex
100
AcDb3dPolylineVertex
 10
102.6052169999999
 20
10.73970099999998
 30
0.0
 70
    40
  0
VERTEX
  5
2D2EF
330
2D2C9
100
AcDbEntity
  8
1
100
AcDbVertex
100
AcDb3dPolylineVertex
 10
103.3380469999999
 20
11.26006499999998
 30
0.0
 70
    40
  0
VERTEX
  5
2D2F0
330
2D2C9
100
AcDbEntity
  8
1
100
AcDbVertex
100
AcDb3dPolylineVertex
 10
104.0939229999999
 20
11.74895099999998
 30
0.0
 70
    40
  0
VERTEX
  5
2D2F1
330
2D2C9
100
AcDbEntity
  8
1
100
AcDbVertex
100
AcDb3dPolylineVertex
 10
104.8710599999999
 20
12.20655899999998
 30
0.0
 70
    40
  0
VERTEX
  5
2D2F2
330
2D2C9
100
AcDbEntity
  8
1
100
AcDbVertex
100
AcDb3dPolylineVertex
 10
105.6676729999999
 20
12.63308899999998
 30
0.0
 70
    40
  0
VERTEX
  5
2D2F3
330
2D2C9
100
AcDbEntity
  8
1
100
AcDbVertex
100
AcDb3dPolylineVertex
 10
106.8766669999999
 20
13.20815199999998
 30
0.0
 70
    40
  0
VERTEX
  5
2D2F4
330
2D2C9
100
AcDbEntity
  8
1
100
AcDbVertex
100
AcDb3dPolylineVertex
 10
107.4960759999999
 20
13.47250699999998
 30
0.0
 70
    40
  0
VERTEX
  5
2D2F5
330
2D2C9
100
AcDbEntity
  8
1
100
AcDbVertex
100
AcDb3dPolylineVertex
 10
108.4759589999999
 20
13.85439699999998
 30
0.0
 70
    40
  0
VERTEX
  5
2D2F6
330
2D2C9
100
AcDbEntity
  8
1
100
AcDbVertex
100
AcDb3dPolylineVertex
 10
109.4632569999999
 20
14.19739099999998
 30
0.0
 70
    40
  0
VERTEX
  5
2D2F7
330
2D2C9
100
AcDbEntity
  8
1
100
AcDbVertex
100
AcDb3dPolylineVertex
 10
110.4585849999999
 20
14.50390099999998
 30
0.0
 70
    40
  0
VERTEX
  5
2D2F8
330
2D2C9
100
AcDbEntity
  8
1
100
AcDbVertex
100
AcDb3dPolylineVertex
 10
111.4625549999999
 20
14.77633799999998
 30
0.0
 70
    40
  0
VERTEX
  5
2D2F9
330
2D2C9
100
AcDbEntity
  8
1
100
AcDbVertex
100
AcDb3dPolylineVertex
 10
112.4757799999999
 20
15.01711299999998
 30
0.0
 70
    40
  0
VERTEX
  5
2D2FA
330
2D2C9
100
AcDbEntity
  8
1
100
AcDbVertex
100
AcDb3dPolylineVertex
 10
113.4988729999999
 20
15.22863899999998
 30
0.0
 70
    40
  0
VERTEX
  5
2D2FB
330
2D2C9
100
AcDbEntity
  8
1
100
AcDbVertex
100
AcDb3dPolylineVertex
 10
114.6489669999999
 20
15.43225999999998
 30
0.0
 70
    40
  0
VERTEX
  5
2D2FC
330
2D2C9
100
AcDbEntity
  8
1
100
AcDbVertex
100
AcDb3dPolylineVertex
 10
114.6489669999999
 20
15.43225999999998
 30
0.0
 70
    40
  0
SEQEND
  5
2D2FD
330
2D2C9
100
AcDbEntity
  8
1
  0
POLYLINE
  5
2D2FE
330
18
100
AcDbEntity
  8
1
100
AcDb3dPolyline
 66
     1
 10
0.0
 20
0.0
 30
0.0
 70
    12
 75
     6
  0
VERTEX
  5
2D2FF
330
2D2FE
100
AcDbEntity
  8
1
100
AcDbVertex
100
AcDb3dPolylineVertex
 10
113.9416679999998
 20
-13.70497300000002
 30
0.0
 70
    48
  0
VERTEX
  5
2D300
330
2D2FE
100
AcDbEntity
  8
1
100
AcDbVertex
100
AcDb3dPolylineVertex
 10
114.0721629999999
 20
-13.69831300000002
 30
0.0
 70
    48
  0
VERTEX
  5
2D301
330
2D2FE
100
AcDbEntity
  8
1
100
AcDbVertex
100
AcDb3dPolylineVertex
 10
114.1546069999999
 20
-13.70292500000001
 30
0.0
 70
    48
  0
VERTEX
  5
2D302
330
2D2FE
100
AcDbEntity
  8
1
100
AcDbVertex
100
AcDb3dPolylineVertex
 10
114.5982609999999
 20
-13.65823700000001
 30
0.0
 70
    48
  0
VERTEX
  5
2D303
330
2D2FE
100
AcDbEntity
  8
1
100
AcDbVertex
100
AcDb3dPolylineVertex
 10
114.7523909999999
 20
-13.63134700000002
 30
0.0
 70
    48
  0
VERTEX
  5
2D304
330
2D2FE
100
AcDbEntity
  8
1
100
AcDbVertex
100
AcDb3dPolylineVertex
 10
114.9866659999999
 20
-13.18898600000003
 30
0.0
 70
    48
  0
VERTEX
  5
2D305
330
2D2FE
100
AcDbEntity
  8
1
100
AcDbVertex
100
AcDb3dPolylineVertex
 10
115.0020379999999
 20
-13.04265500000002
 30
0.0
 70
    48
  0
VERTEX
  5
2D306
330
2D2FE
100
AcDbEntity
  8
1
100
AcDbVertex
100
AcDb3dPolylineVertex
 10
114.7940349999999
 20
-12.55823600000002
 30
0.0
 70
    48
  0
VERTEX
  5
2D307
330
2D2FE
100
AcDbEntity
  8
1
100
AcDbVertex
100
AcDb3dPolylineVertex
 10
114.6050009999999
 20
-12.25327400000001
 30
0.0
 70
    48
  0
VERTEX
  5
2D308
330
2D2FE
100
AcDbEntity
  8
1
100
AcDbVertex
100
AcDb3dPolylineVertex
 10
114.1522139999999
 20
-11.65010100000001
 30
0.0
 70
    48
  0
VERTEX
  5
2D309
330
2D2FE
100
AcDbEntity
  8
1
100
AcDbVertex
100
AcDb3dPolylineVertex
 10
113.8586399999999
 20
-11.41072400000001
 30
0.0
 70
    48
  0
VERTEX
  5
2D30A
330
2D2FE
100
AcDbEntity
  8
1
100
AcDbVertex
100
AcDb3dPolylineVertex
 10
113.3387699999999
 20
-11.01509700000002
 30
0.0
 70
    48
  0
VERTEX
  5
2D30B
330
2D2FE
100
AcDbEntity
  8
1
100
AcDbVertex
100
AcDb3dPolylineVertex
 10
113.1319329999999
 20
-10.83285600000001
 30
0.0
 70
    48
  0
VERTEX
  5
2D30C
330
2D2FE
100
AcDbEntity
  8
1
100
AcDbVertex
100
AcDb3dPolylineVertex
 10
112.4242269999999
 20
-10.24559500000001
 30
0.0
 70
    48
  0
VERTEX
  5
2D30D
330
2D2FE
100
AcDbEntity
  8
1
100
AcDbVertex
100
AcDb3dPolylineVertex
 10
111.9121439999999
 20
-9.855323000000019
 30
0.0
 70
    48
  0
VERTEX
  5
2D30E
330
2D2FE
100
AcDbEntity
  8
1
100
AcDbVertex
100
AcDb3dPolylineVertex
 10
110.3160559999999
 20
-8.756202000000019
 30
0.0
 70
    48
  0
VERTEX
  5
2D30F
330
2D2FE
100
AcDbEntity
  8
1
100
AcDbVertex
100
AcDb3dPolylineVertex
 10
109.1670079999999
 20
-8.143954000000018
 30
0.0
 70
    48
  0
VERTEX
  5
2D310
330
2D2FE
100
AcDbEntity
  8
1
100
AcDbVertex
100
AcDb3dPolylineVertex
 10
107.5162469999999
 20
-7.442794000000008
 30
0.0
 70
    48
  0
VERTEX
  5
2D311
330
2D2FE
100
AcDbEntity
  8
1
100
AcDbVertex
100
AcDb3dPolylineVertex
 10
107.0719119999999
 20
-7.274030000000021
 30
0.0
 70
    48
  0
VERTEX
  5
2D312
330
2D2FE
100
AcDbEntity
  8
1
100
AcDbVertex
100
AcDb3dPolylineVertex
 10
106.2573009999999
 20
-7.168366000000019
 30
0.0
 70
    48
  0
VERTEX
  5
2D313
330
2D2FE
100
AcDbEntity
  8
1
100
AcDbVertex
100
AcDb3dPolylineVertex
 10
105.9760289999999
 20
-7.171034000000019
 30
0.0
 70
    48
  0
VERTEX
  5
2D314
330
2D2FE
100
AcDbEntity
  8
1
100
AcDbVertex
100
AcDb3dPolylineVertex
 10
105.3975209999999
 20
-7.248930000000019
 30
0.0
 70
    48
  0
VERTEX
  5
2D315
330
2D2FE
100
AcDbEntity
  8
1
100
AcDbVertex
100
AcDb3dPolylineVertex
 10
105.1373729999999
 20
-7.210521000000017
 30
0.0
 70
    48
  0
VERTEX
  5
2D316
330
2D2FE
100
AcDbEntity
  8
1
100
AcDbVertex
100
AcDb3dPolylineVertex
 10
104.6513489999999
 20
-7.714846000000019
 30
0.0
 70
    48
  0
VERTEX
  5
2D317
330
2D2FE
100
AcDbEntity
  8
1
100
AcDbVertex
100
AcDb3dPolylineVertex
 10
104.6006149999999
 20
-7.878160000000018
 30
0.0
 70
    48
  0
VERTEX
  5
2D318
330
2D2FE
100
AcDbEntity
  8
1
100
AcDbVertex
100
AcDb3dPolylineVertex
 10
104.4880849999999
 20
-8.311123000000019
 30
0.0
 70
    48
  0
VERTEX
  5
2D319
330
2D2FE
100
AcDbEntity
  8
1
100
AcDbVertex
100
AcDb3dPolylineVertex
 10
104.4967579999999
 20
-8.441171000000018
 30
0.0
 70
    48
  0
VERTEX
  5
2D31A
330
2D2FE
100
AcDbEntity
  8
1
100
AcDbVertex
100
AcDb3dPolylineVertex
 10
104.7367249999999
 20
-9.186478000000015
 30
0.0
 70
    48
  0
VERTEX
  5
2D31B
330
2D2FE
100
AcDbEntity
  8
1
100
AcDbVertex
100
AcDb3dPolylineVertex
 10
104.8354009999999
 20
-9.374297000000019
 30
0.0
 70
    48
  0
VERTEX
  5
2D31C
330
2D2FE
100
AcDbEntity
  8
1
100
AcDbVertex
100
AcDb3dPolylineVertex
 10
105.2593439999999
 20
-9.995829000000018
 30
0.0
 70
    48
  0
VERTEX
  5
2D31D
330
2D2FE
100
AcDbEntity
  8
1
100
AcDbVertex
100
AcDb3dPolylineVertex
 10
105.4840919999999
 20
-10.29045600000001
 30
0.0
 70
    48
  0
VERTEX
  5
2D31E
330
2D2FE
100
AcDbEntity
  8
1
100
AcDbVertex
100
AcDb3dPolylineVertex
 10
106.0766979999999
 20
-10.93836900000001
 30
0.0
 70
    48
  0
VERTEX
  5
2D31F
330
2D2FE
100
AcDbEntity
  8
1
100
AcDbVertex
100
AcDb3dPolylineVertex
 10
106.4026789999999
 20
-11.224643
 30
0.0
 70
    48
  0
VERTEX
  5
2D320
330
2D2FE
100
AcDbEntity
  8
1
100
AcDbVertex
100
AcDb3dPolylineVertex
 10
107.3111819999999
 20
-11.84082100000002
 30
0.0
 70
    48
  0
VERTEX
  5
2D321
330
2D2FE
100
AcDbEntity
  8
1
100
AcDbVertex
100
AcDb3dPolylineVertex
 10
107.8622009999999
 20
-12.08728900000001
 30
0.0
 70
    48
  0
VERTEX
  5
2D322
330
2D2FE
100
AcDbEntity
  8
1
100
AcDbVertex
100
AcDb3dPolylineVertex
 10
110.0383899999999
 20
-13.00600500000002
 30
0.0
 70
    48
  0
VERTEX
  5
2D323
330
2D2FE
100
AcDbEntity
  8
1
100
AcDbVertex
100
AcDb3dPolylineVertex
 10
111.6154499999999
 20
-13.66303900000002
 30
0.0
 70
    48
  0
VERTEX
  5
2D324
330
2D2FE
100
AcDbEntity
  8
1
100
AcDbVertex
100
AcDb3dPolylineVertex
 10
113.5679649999999
 20
-13.71682400000002
 30
0.0
 70
    48
  0
VERTEX
  5
2D325
330
2D2FE
100
AcDbEntity
  8
1
100
AcDbVertex
100
AcDb3dPolylineVertex
 10
113.7440259999999
 20
-13.71505900000002
 30
0.0
 70
    48
  0
VERTEX
  5
2D326
330
2D2FE
100
AcDbEntity
  8
1
100
AcDbVertex
100
AcDb3dPolylineVertex
 10
113.9416679999998
 20
-13.70497300000002
 30
0.0
 70
    48
  0
VERTEX
  5
2D327
330
2D2FE
100
AcDbEntity
  8
1
100
AcDbVertex
100
AcDb3dPolylineVertex
 10
113.9416679999998
 20
-13.70497300000002
 30
0.0
 70
    40
  0
VERTEX
  5
2D328
330
2D2FE
100
AcDbEntity
  8
1
100
AcDbVertex
100
AcDb3dPolylineVertex
 10
114.3184879999999
 20
-13.68641800000002
 30
0.0
 70
    40
  0
VERTEX
  5
2D329
330
2D2FE
100
AcDbEntity
  8
1
100
AcDbVertex
100
AcDb3dPolylineVertex
 10
114.5602459999999
 20
-13.65032400000001
 30
0.0
 70
    40
  0
VERTEX
  5
2D32A
330
2D2FE
100
AcDbEntity
  8
1
100
AcDbVertex
100
AcDb3dPolylineVertex
 10
114.6569629999999
 20
-13.61695400000002
 30
0.0
 70
    40
  0
VERTEX
  5
2D32B
330
2D2FE
100
AcDbEntity
  8
1
100
AcDbVertex
100
AcDb3dPolylineVertex
 10
114.7414379999999
 20
-13.56502600000002
 30
0.0
 70
    40
  0
VERTEX
  5
2D32C
330
2D2FE
100
AcDbEntity
  8
1
100
AcDbVertex
100
AcDb3dPolylineVertex
 10
114.8165709999999
 20
-13.48828100000001
 30
0.0
 70
    40
  0
VERTEX
  5
2D32D
330
2D2FE
100
AcDbEntity
  8
1
100
AcDbVertex
100
AcDb3dPolylineVertex
 10
114.8852599999999
 20
-13.38046200000001
 30
0.0
 70
    40
  0
VERTEX
  5
2D32E
330
2D2FE
100
AcDbEntity
  8
1
100
AcDbVertex
100
AcDb3dPolylineVertex
 10
114.9582039999999
 20
-13.20218900000002
 30
0.0
 70
    40
  0
VERTEX
  5
2D32F
330
2D2FE
100
AcDbEntity
  8
1
100
AcDbVertex
100
AcDb3dPolylineVertex
 10
114.9750849999999
 20
-13.04294300000001
 30
0.0
 70
    40
  0
VERTEX
  5
2D330
330
2D2FE
100
AcDbEntity
  8
1
100
AcDbVertex
100
AcDb3dPolylineVertex
 10
114.9371989999999
 20
-12.89165200000001
 30
0.0
 70
    40
  0
VERTEX
  5
2D331
330
2D2FE
100
AcDbEntity
  8
1
100
AcDbVertex
100
AcDb3dPolylineVertex
 10
114.7792399999999
 20
-12.56703200000002
 30
0.0
 70
    40
  0
VERTEX
  5
2D332
330
2D2FE
100
AcDbEntity
  8
1
100
AcDbVertex
100
AcDb3dPolylineVertex
 10
114.5936729999999
 20
-12.25724700000002
 30
0.0
 70
    40
  0
VERTEX
  5
2D333
330
2D2FE
100
AcDbEntity
  8
1
100
AcDbVertex
100
AcDb3dPolylineVertex
 10
114.3834679999999
 20
-11.95816300000001
 30
0.0
 70
    40
  0
VERTEX
  5
2D334
330
2D2FE
100
AcDbEntity
  8
1
100
AcDbVertex
100
AcDb3dPolylineVertex
 10
114.1334899999999
 20
-11.67084700000002
 30
0.0
 70
    40
  0
VERTEX
  5
2D335
330
2D2FE
100
AcDbEntity
  8
1
100
AcDbVertex
100
AcDb3dPolylineVertex
 10
113.8542639999999
 20
-11.41642400000002
 30
0.0
 70
    40
  0
VERTEX
  5
2D336
330
2D2FE
100
AcDbEntity
  8
1
100
AcDbVertex
100
AcDb3dPolylineVertex
 10
112.4186379999999
 20
-10.252713
 30
0.0
 70
    40
  0
VERTEX
  5
2D337
330
2D2FE
100
AcDbEntity
  8
1
100
AcDbVertex
100
AcDb3dPolylineVertex
 10
111.3824279999999
 20
-9.490541000000018
 30
0.0
 70
    40
  0
VERTEX
  5
2D338
330
2D2FE
100
AcDbEntity
  8
1
100
AcDbVertex
100
AcDb3dPolylineVertex
 10
110.8425119999999
 20
-9.133461000000018
 30
0.0
 70
    40
  0
VERTEX
  5
2D339
330
2D2FE
100
AcDbEntity
  8
1
100
AcDbVertex
100
AcDb3dPolylineVertex
 10
110.2897749999999
 20
-8.796219000000011
 30
0.0
 70
    40
  0
VERTEX
  5
2D33A
330
2D2FE
100
AcDbEntity
  8
1
100
AcDbVertex
100
AcDb3dPolylineVertex
 10
109.7251749999999
 20
-8.478305000000018
 30
0.0
 70
    40
  0
VERTEX
  5
2D33B
330
2D2FE
100
AcDbEntity
  8
1
100
AcDbVertex
100
AcDb3dPolylineVertex
 10
109.1496699999999
 20
-8.179209000000017
 30
0.0
 70
    40
  0
VERTEX
  5
2D33C
330
2D2FE
100
AcDbEntity
  8
1
100
AcDbVertex
100
AcDb3dPolylineVertex
 10
107.9697769999999
 20
-7.635431000000008
 30
0.0
 70
    40
  0
VERTEX
  5
2D33D
330
2D2FE
100
AcDbEntity
  8
1
100
AcDbVertex
100
AcDb3dPolylineVertex
 10
107.5165369999999
 20
-7.453668000000008
 30
0.0
 70
    40
  0
VERTEX
  5
2D33E
330
2D2FE
100
AcDbEntity
  8
1
100
AcDbVertex
100
AcDb3dPolylineVertex
 10
107.0527749999999
 20
-7.305315000000017
 30
0.0
 70
    40
  0
VERTEX
  5
2D33F
330
2D2FE
100
AcDbEntity
  8
1
100
AcDbVertex
100
AcDb3dPolylineVertex
 10
106.5618409999999
 20
-7.207868000000008
 30
0.0
 70
    40
  0
VERTEX
  5
2D340
330
2D2FE
100
AcDbEntity
  8
1
100
AcDbVertex
100
AcDb3dPolylineVertex
 10
106.2637719999999
 20
-7.182222000000018
 30
0.0
 70
    40
  0
VERTEX
  5
2D341
330
2D2FE
100
AcDbEntity
  8
1
100
AcDbVertex
100
AcDb3dPolylineVertex
 10
105.9735029999999
 20
-7.183483000000016
 30
0.0
 70
    40
  0
VERTEX
  5
2D342
330
2D2FE
100
AcDbEntity
  8
1
100
AcDbVertex
100
AcDb3dPolylineVertex
 10
105.4048999999999
 20
-7.237799000000016
 30
0.0
 70
    40
  0
VERTEX
  5
2D343
330
2D2FE
100
AcDbEntity
  8
1
100
AcDbVertex
100
AcDb3dPolylineVertex
 10
105.1365429999999
 20
-7.300884000000017
 30
0.0
 70
    40
  0
VERTEX
  5
2D344
330
2D2FE
100
AcDbEntity
  8
1
100
AcDbVertex
100
AcDb3dPolylineVertex
 10
105.0039409999999
 20
-7.373014000000019
 30
0.0
 70
    40
  0
VERTEX
  5
2D345
330
2D2FE
100
AcDbEntity
  8
1
100
AcDbVertex
100
AcDb3dPolylineVertex
 10
104.8712159999999
 20
-7.486699000000008
 30
0.0
 70
    40
  0
VERTEX
  5
2D346
330
2D2FE
100
AcDbEntity
  8
1
100
AcDbVertex
100
AcDb3dPolylineVertex
 10
104.7010819999999
 20
-7.698283000000017
 30
0.0
 70
    40
  0
VERTEX
  5
2D347
330
2D2FE
100
AcDbEntity
  8
1
100
AcDbVertex
100
AcDb3dPolylineVertex
 10
104.6038319999998
 20
-7.896932000000018
 30
0.0
 70
    40
  0
VERTEX
  5
2D348
330
2D2FE
100
AcDbEntity
  8
1
100
AcDbVertex
100
AcDb3dPolylineVertex
 10
104.5395949999999
 20
-8.112935000000017
 30
0.0
 70
    40
  0
VERTEX
  5
2D349
330
2D2FE
100
AcDbEntity
  8
1
100
AcDbVertex
100
AcDb3dPolylineVertex
 10
104.5087959999999
 20
-8.296056000000008
 30
0.0
 70
    40
  0
VERTEX
  5
2D34A
330
2D2FE
100
AcDbEntity
  8
1
100
AcDbVertex
100
AcDb3dPolylineVertex
 10
104.5220189999999
 20
-8.479631000000008
 30
0.0
 70
    40
  0
VERTEX
  5
2D34B
330
2D2FE
100
AcDbEntity
  8
1
100
AcDbVertex
100
AcDb3dPolylineVertex
 10
104.6561039999999
 20
-8.925756000000017
 30
0.0
 70
    40
  0
VERTEX
  5
2D34C
330
2D2FE
100
AcDbEntity
  8
1
100
AcDbVertex
100
AcDb3dPolylineVertex
 10
104.7242949999999
 20
-9.104832000000008
 30
0.0
 70
    40
  0
VERTEX
  5
2D34D
330
2D2FE
100
AcDbEntity
  8
1
100
AcDbVertex
100
AcDb3dPolylineVertex
 10
104.8640239999999
 20
-9.395747000000008
 30
0.0
 70
    40
  0
VERTEX
  5
2D34E
330
2D2FE
100
AcDbEntity
  8
1
100
AcDbVertex
100
AcDb3dPolylineVertex
 10
105.0375399999999
 20
-9.670648000000019
 30
0.0
 70
    40
  0
VERTEX
  5
2D34F
330
2D2FE
100
AcDbEntity
  8
1
100
AcDbVertex
100
AcDb3dPolylineVertex
 10
105.4984779999999
 20
-10.29044400000001
 30
0.0
 70
    40
  0
VERTEX
  5
2D350
330
2D2FE
100
AcDbEntity
  8
1
100
AcDbVertex
100
AcDb3dPolylineVertex
 10
105.7570269999999
 20
-10.58886300000001
 30
0.0
 70
    40
  0
VERTEX
  5
2D351
330
2D2FE
100
AcDbEntity
  8
1
100
AcDbVertex
100
AcDb3dPolylineVertex
 10
106.0807539999999
 20
-10.91870200000002
 30
0.0
 70
    40
  0
VERTEX
  5
2D352
330
2D2FE
100
AcDbEntity
  8
1
100
AcDbVertex
100
AcDb3dPolylineVertex
 10
106.4204029999999
 20
-11.21485000000001
 30
0.0
 70
    40
  0
VERTEX
  5
2D353
330
2D2FE
100
AcDbEntity
  8
1
100
AcDbVertex
100
AcDb3dPolylineVertex
 10
106.7876879999999
 20
-11.48576900000001
 30
0.0
 70
    40
  0
VERTEX
  5
2D354
330
2D2FE
100
AcDbEntity
  8
1
100
AcDbVertex
100
AcDb3dPolylineVertex
 10
107.3203859999999
 20
-11.80857800000002
 30
0.0
 70
    40
  0
VERTEX
  5
2D355
330
2D2FE
100
AcDbEntity
  8
1
100
AcDbVertex
100
AcDb3dPolylineVertex
 10
107.8716109999999
 20
-12.08270700000001
 30
0.0
 70
    40
  0
VERTEX
  5
2D356
330
2D2FE
100
AcDbEntity
  8
1
100
AcDbVertex
100
AcDb3dPolylineVertex
 10
108.4415379999999
 20
-12.33186600000002
 30
0.0
 70
    40
  0
VERTEX
  5
2D357
330
2D2FE
100
AcDbEntity
  8
1
100
AcDbVertex
100
AcDb3dPolylineVertex
 10
110.0391989999999
 20
-12.97839500000002
 30
0.0
 70
    40
  0
VERTEX
  5
2D358
330
2D2FE
100
AcDbEntity
  8
1
100
AcDbVertex
100
AcDb3dPolylineVertex
 10
110.8469689999999
 20
-13.25630500000002
 30
0.0
 70
    40
  0
VERTEX
  5
2D359
330
2D2FE
100
AcDbEntity
  8
1
100
AcDbVertex
100
AcDb3dPolylineVertex
 10
111.6681049999999
 20
-13.48207100000002
 30
0.0
 70
    40
  0
VERTEX
  5
2D35A
330
2D2FE
100
AcDbEntity
  8
1
100
AcDbVertex
100
AcDb3dPolylineVertex
 10
112.5081609999999
 20
-13.63926100000002
 30
0.0
 70
    40
  0
VERTEX
  5
2D35B
330
2D2FE
100
AcDbEntity
  8
1
100
AcDbVertex
100
AcDb3dPolylineVertex
 10
112.9370199999999
 20
-13.68700600000002
 30
0.0
 70
    40
  0
VERTEX
  5
2D35C
330
2D2FE
100
AcDbEntity
  8
1
100
AcDbVertex
100
AcDb3dPolylineVertex
 10
113.5630719999999
 20
-13.71439900000001
 30
0.0
 70
    40
  0
VERTEX
  5
2D35D
330
2D2FE
100
AcDbEntity
  8
1
100
AcDbVertex
100
AcDb3dPolylineVertex
 10
113.9416679999998
 20
-13.70497300000002
 30
0.0
 70
    40
  0
SEQEND
  5
2D35E
330
2D2FE
100
AcDbEntity
  8
1
  0
TEXT
  5
2D35F
330
18
100
AcDbEntity
  8
16
100
AcDbText
 10
4.0
 20
-20.28157900000001
 30
0.0
 40
3.0
  1
C5-PTFNL-27140-16W
 50
90.0
 41
0.7736842125340599
  7
SANDVIK_STYLE
 72
     5
 11
4.0
 21
20.28157899999999
 31
0.0
100
AcDbText
  0
DIMENSION
  5
2D360
330
18
100
AcDbEntity
  8
20
100
AcDbDimension
  2
*D23
 10
159.4999999999999
 20
-26.87500000000002
 30
0.0
 11
159.4999999999999
 21
-13.43750000000001
 31
0.0
 70
   160
  1
27
 71
     5
 42
26.875
  3
SANDVIK_STYLE
100
AcDbAlignedDimension
 13
148.9583339999999
 23
-0.0000000000000071
 33
0.0
 14
139.9999999999999
 24
-26.87500000000001
 34
0.0
 50
90.0
100
AcDbRotatedDimension
  0
DIMENSION
  5
2D361
330
18
100
AcDbEntity
  8
12
100
AcDbDimension
  2
*D24
 10
-38.50000000000004
 20
-24.99999999999999
 30
0.0
 11
-38.50000000000004
 21
0.0
 31
0.0
 70
   160
  1
D=50
 71
     5
 42
50.0
  3
SANDVIK_STYLE
100
AcDbAlignedDimension
 13
0.0
 23
24.99999999999999
 33
0.0
 14
0.0
 24
-25.0
 34
0.0
 50
90.0
100
AcDbRotatedDimension
  0
DIMENSION
  5
2D362
330
18
100
AcDbEntity
  8
12
100
AcDbDimension
  2
*D25
 10
82.06706099999989
 20
-20.00000000000001
 30
0.0
 11
82.06706099999989
 21
-0.0105269999999997
 31
0.0
 70
   160
  1
%%c40.0
 71
     5
 42
39.99999999999998
  3
SANDVIK_STYLE
100
AcDbAlignedDimension
 13
20.83974599999999
 23
19.99999999999999
 33
0.0
 14
20.83974599999999
 24
-19.99999999999999
 34
0.0
 50
90.0
100
AcDbRotatedDimension
  0
DIMENSION
  5
2D363
330
18
100
AcDbEntity
  8
20
100
AcDbDimension
  2
*D26
 10
139.9999999999999
 20
-48.37500000000002
 30
0.0
 11
69.9999999999999
 21
-48.37500000000002
 31
0.0
 70
   160
  1
140.0
 71
     5
 42
139.9999999999999
 53
89.99999800000002
  3
SANDVIK_STYLE
100
AcDbAlignedDimension
 13
0.0
 23
-25.0
 33
0.0
 14
139.9999999999999
 24
-26.87500000000001
 34
0.0
100
AcDbRotatedDimension
  0
DIMENSION
  5
2D364
330
18
100
AcDbEntity
  8
12
100
AcDbDimension
  2
*D27
 10
139.9999999999999
 20
-38.37500000000002
 30
0.0
 11
80.41987299999988
 21
-38.37500000000002
 31
0.0
 70
   160
  1
119.2
 71
     5
 42
119.1602539999999
 53
89.99999800000002
  3
SANDVIK_STYLE
100
AcDbAlignedDimension
 13
20.83974599999999
 23
-19.99999999999999
 33
0.0
 14
139.9999999999999
 24
-26.87500000000001
 34
0.0
100
AcDbRotatedDimension
  0
DIMENSION
  5
2D365
330
18
100
AcDbEntity
  8
20
100
AcDbDimension
  2
*D28
 10
148.9583339999999
 20
-0.0000000000000071
 30
0.0
 11
158.3346858508498
 21
19.13489345788361
 31
1.947129
 70
    34
  1
91%%d0'
 71
     5
 42
1.588250554101755
 52
291.75
 53
45.499999
  3
SANDVIK_STYLE
100
AcDb2LineAngularDimension
 13
139.5287139999999
 23
0.1249999999999929
 33
0.0
 14
139.5308959999999
 24
-0.0000000000000071
 34
0.0
 15
139.5308959999999
 25
-0.0000000000000071
 35
0.0
 16
162.685949014966
 26
13.54880733768078
 36
1.947129
  0
LINE
  5
2D366
330
18
100
AcDbEntity
  8
80
100
AcDbLine
 10
0.0
 20
0.0
 30
0.0
 11
-32.55744469758278
 21
0.0
 31
0.0
  0
LINE
  5
2D367
330
18
100
AcDbEntity
  8
81
100
AcDbLine
 10
0.0
 20
0.0
 30
0.0
 11
144.1553553141244
 21
-0.0000000000000071
 31
0.0
  0
INSERT
  5
2D368
330
18
100
AcDbEntity
  8
5
100
AcDbBlockReference
  2
_nullpunkt
 10
0.0
 20
0.0
 30
0.0
  0
TEXT
  5
2D369
330
18
100
AcDbEntity
  8
5
100
AcDbText
 10
0.0
 20
0.0
 30
0.0
 40
0.1
  1
ISOORIENTED
100
AcDbText
  0
ENDSEC
  0
SECTION
  2
OBJECTS
  0
DICTIONARY
  5
C
330
0
100
AcDbDictionary
281
     1
  3
ACAD_2007HEADERVARS_RT
350
2D45E
  3
ACAD_CIP_PREVIOUS_PRODUCT_INFO
350
2D424
  3
ACAD_COLOR
350
387
  3
ACAD_DETAILVIEWSTYLE
350
2D421
  3
ACAD_GROUP
350
D
  3
ACAD_LAYOUT
350
301
  3
ACAD_MATERIAL
350
386
  3
ACAD_MLEADERSTYLE
350
43C
  3
ACAD_MLINESTYLE
350
E
  3
ACAD_PLOTSETTINGS
350
302
  3
ACAD_PLOTSTYLENAME
350
2FF
  3
ACAD_SCALELIST
350
41A
  3
ACAD_SECTIONVIEWSTYLE
350
2D41F
  3
ACAD_TABLESTYLE
350
388
  3
ACAD_VISUALSTYLE
350
3F2
  3
ACDB_RECOMPOSE_DATA
350
2D45C
  3
AcDbVariableDictionary
350
357
  3
DWGPROPS
350
2D45D
  0
DICTIONARY
  5
2D427
330
F
100
AcDbDictionary
280
     1
281
     1
  3
ADSK_XREC_LAYER_RECONCILED
360
2D428
  0
DICTIONARY
  5
2D429
330
23
100
AcDbDictionary
280
     1
281
     1
  3
ADSK_XREC_LAYER_RECONCILED
360
2D42A
  0
DICTIONARY
  5
2D42B
330
2D0DB
100
AcDbDictionary
280
     1
281
     1
  3
ADSK_XREC_LAYER_RECONCILED
360
2D42C
  0
DICTIONARY
  5
2D42D
330
2D0DD
100
AcDbDictionary
280
     1
281
     1
  3
ADSK_XREC_LAYER_RECONCILED
360
2D42E
  0
DICTIONARY
  5
2D42F
330
2D0DE
100
AcDbDictionary
280
     1
281
     1
  3
ADSK_XREC_LAYER_RECONCILED
360
2D430
  0
DICTIONARY
  5
2D431
330
2D0DF
100
AcDbDictionary
280
     1
281
     1
  3
ADSK_XREC_LAYER_RECONCILED
360
2D432
  0
DICTIONARY
  5
2D433
330
2D0E0
100
AcDbDictionary
280
     1
281
     1
  3
ADSK_XREC_LAYER_RECONCILED
360
2D434
  0
DICTIONARY
  5
2D435
330
2D0E1
100
AcDbDictionary
280
     1
281
     1
  3
ADSK_XREC_LAYER_RECONCILED
360
2D436
  0
DICTIONARY
  5
2D437
330
2D0E2
100
AcDbDictionary
280
     1
281
     1
  3
ADSK_XREC_LAYER_RECONCILED
360
2D438
  0
DICTIONARY
  5
2D439
330
2D0E3
100
AcDbDictionary
280
     1
281
     1
  3
ADSK_XREC_LAYER_RECONCILED
360
2D43A
  0
DICTIONARY
  5
2D43B
330
2D0E4
100
AcDbDictionary
280
     1
281
     1
  3
ADSK_XREC_LAYER_RECONCILED
360
2D43C
  0
DICTIONARY
  5
2D43D
330
2D0E5
100
AcDbDictionary
280
     1
281
     1
  3
ADSK_XREC_LAYER_RECONCILED
360
2D43E
  0
DICTIONARY
  5
2D43F
330
2D0E6
100
AcDbDictionary
280
     1
281
     1
  3
ADSK_XREC_LAYER_RECONCILED
360
2D440
  0
DICTIONARY
  5
2D441
330
2D0E7
100
AcDbDictionary
280
     1
281
     1
  3
ADSK_XREC_LAYER_RECONCILED
360
2D442
  0
DICTIONARY
  5
2D443
330
2D0E8
100
AcDbDictionary
280
     1
281
     1
  3
ADSK_XREC_LAYER_RECONCILED
360
2D444
  0
DICTIONARY
  5
2D445
330
2D0E9
100
AcDbDictionary
280
     1
281
     1
  3
ADSK_XREC_LAYER_RECONCILED
360
2D446
  0
DICTIONARY
  5
2D447
330
2D0EA
100
AcDbDictionary
280
     1
281
     1
  3
ADSK_XREC_LAYER_RECONCILED
360
2D448
  0
DICTIONARY
  5
2D449
330
2D0EB
100
AcDbDictionary
280
     1
281
     1
  3
ADSK_XREC_LAYER_RECONCILED
360
2D44A
  0
DICTIONARY
  5
2D44B
330
2D0EC
100
AcDbDictionary
280
     1
281
     1
  3
ADSK_XREC_LAYER_RECONCILED
360
2D44C
  0
DICTIONARY
  5
2D44D
330
2D0ED
100
AcDbDictionary
280
     1
281
     1
  3
ADSK_XREC_LAYER_RECONCILED
360
2D44E
  0
DICTIONARY
  5
2D44F
330
2D0EE
100
AcDbDictionary
280
     1
281
     1
  3
ADSK_XREC_LAYER_RECONCILED
360
2D450
  0
DICTIONARY
  5
2D451
330
2D0EF
100
AcDbDictionary
280
     1
281
     1
  3
ADSK_XREC_LAYER_RECONCILED
360
2D452
  0
DICTIONARY
  5
2D453
330
2D0F0
100
AcDbDictionary
280
     1
281
     1
  3
ADSK_XREC_LAYER_RECONCILED
360
2D454
  0
DICTIONARY
  5
2D455
330
2D0F1
100
AcDbDictionary
280
     1
281
     1
  3
ADSK_XREC_LAYER_RECONCILED
360
2D456
  0
DICTIONARY
  5
2D0B4
330
2D0B3
100
AcDbDictionary
280
     1
281
     1
  3
ACAD_SORTENTS
360
2D0B5
  0
DICTIONARY
  5
2D45E
102
{ACAD_REACTORS
330
C
102
}
330
C
100
AcDbDictionary
281
     1
  3
DIMJOGANG
350
2D45F
  0
XRECORD
  5
2D424
102
{ACAD_REACTORS
330
C
102
}
330
C
100
AcDbXrecord
280
     1
300
AMECH_PP
300
2013
300
PDSU_F_S
  0
DICTIONARY
  5
387
102
{ACAD_REACTORS
330
C
102
}
330
C
100
AcDbDictionary
281
     1
  0
DICTIONARY
  5
2D421
102
{ACAD_REACTORS
330
C
102
}
330
C
100
AcDbDictionary
281
     1
  3
Metric50
350
2D422
  0
DICTIONARY
  5
D
102
{ACAD_REACTORS
330
C
102
}
330
C
100
AcDbDictionary
281
     1
  0
DICTIONARY
  5
301
102
{ACAD_REACTORS
330
C
102
}
330
C
100
AcDbDictionary
281
     1
  3
Layout1
350
33B
  3
Model
350
303
  0
DICTIONARY
  5
386
102
{ACAD_REACTORS
330
C
102
}
330
C
100
AcDbDictionary
281
     1
  3
ByBlock
350
3F0
  3
ByLayer
350
3EF
  3
Global
350
3F1
  0
DICTIONARY
  5
43C
102
{ACAD_REACTORS
330
C
102
}
330
C
100
AcDbDictionary
281
     1
  3
Standard
350
43D
  0
DICTIONARY
  5
E
102
{ACAD_REACTORS
330
C
102
}
330
C
100
AcDbDictionary
281
     1
  3
STANDARD
350
1B
  0
DICTIONARY
  5
302
102
{ACAD_REACTORS
330
C
102
}
330
C
100
AcDbDictionary
281
     1
  0
ACDBDICTIONARYWDFLT
  5
2FF
102
{ACAD_REACTORS
330
C
102
}
330
C
100
AcDbDictionary
281
     1
  3
Normal
350
300
100
AcDbDictionaryWithDefault
340
300
  0
DICTIONARY
  5
41A
102
{ACAD_REACTORS
330
C
102
}
330
C
100
AcDbDictionary
281
     1
  3
A0
350
41B
  3
A1
350
41C
  3
A2
350
41D
  3
A3
350
41E
  3
A4
350
41F
  3
A5
350
420
  3
A6
350
421
  3
A7
350
422
  3
A8
350
423
  3
A9
350
424
  3
B0
350
425
  3
B1
350
426
  3
B2
350
427
  3
B3
350
428
  3
B4
350
429
  3
B5
350
42A
  3
B6
350
42B
  3
B7
350
42C
  3
B8
350
42D
  3
B9
350
42E
  3
C0
350
42F
  3
C1
350
430
  3
C2
350
431
  3
C3
350
432
  3
C4
350
433
  3
C5
350
434
  3
C6
350
435
  3
C7
350
436
  3
C8
350
437
  3
C9
350
438
  3
D0
350
439
  3
D1
350
43A
  3
D2
350
43B
  0
DICTIONARY
  5
2D41F
102
{ACAD_REACTORS
330
C
102
}
330
C
100
AcDbDictionary
281
     1
  3
Metric50
350
2D420
  0
DICTIONARY
  5
388
102
{ACAD_REACTORS
330
C
102
}
330
C
100
AcDbDictionary
281
     1
  3
Standard
350
389
  0
DICTIONARY
  5
3F2
102
{ACAD_REACTORS
330
C
102
}
330
C
100
AcDbDictionary
281
     1
  3
2dWireframe
350
3F8
  3
3D Hidden
350
3FA
  3
3dWireframe
350
3F9
  3
Basic
350
3F7
  3
Brighten
350
3FE
  3
ColorChange
350
402
  3
Conceptual
350
3FB
  3
Dim
350
3FD
  3
EdgeColorOff
350
44E
  3
Facepattern
350
401
  3
Flat
350
3F3
  3
FlatWithEdges
350
3F4
  3
Gouraud
350
3F5
  3
GouraudWithEdges
350
3F6
  3
Hidden
350
2D419
  3
JitterOff
350
44C
  3
Linepattern
350
400
  3
OverhangOff
350
44D
  3
Realistic
350
3FC
  3
Shaded
350
2D41E
  3
Shaded with edges
350
2D41D
  3
Shades of Gray
350
2D41A
  3
Sketchy
350
2D41B
  3
Thicken
350
3FF
  3
Wireframe
350
2D418
  3
X-Ray
350
2D41C
  0
XRECORD
  5
2D45C
102
{ACAD_REACTORS
330
C
102
}
330
C
100
AcDbXrecord
280
     1
 90
        1
330
389
  0
DICTIONARY
  5
357
102
{ACAD_REACTORS
330
C
102
}
330
C
100
AcDbDictionary
281
     1
  3
CANNOSCALE
350
449
  3
CMLEADERSTYLE
350
447
  3
CTABLESTYLE
350
38E
  3
CVIEWDETAILSTYLE
350
2D457
  3
CVIEWSECTIONSTYLE
350
2D458
  3
DIMASSOC
350
359
  3
HIDETEXT
350
358
  3
INDEXCTL
350
728
  3
LAYEREVAL
350
458
  3
LAYERNOTIFY
350
459
  3
LIGHTINGUNITS
350
44A
  3
MSLTSCALE
350
448
  3
SORTENTS
350
727
  3
XCLIPFRAME
350
2D459
  0
XRECORD
  5
2D45D
102
{ACAD_REACTORS
330
C
102
}
330
C
100
AcDbXrecord
280
     1
  1
DWGPROPS COOKIE
  2

  3

  4

  6

  7

  8
Micke
  9

300
=
301
=
302
=
303
=
304
=
305
=
306
=
307
=
308
=
309
=
 40
0.0014649652777778
 41
2455883.64348684
 42
2456817.856352373
  1

 90
        0
  0
XRECORD
  5
2D428
102
{ACAD_REACTORS
330
2D427
102
}
330
2D427
100
AcDbXrecord
280
     1
290
     1
  0
XRECORD
  5
2D42A
102
{ACAD_REACTORS
330
2D429
102
}
330
2D429
100
AcDbXrecord
280
     1
290
     1
  0
XRECORD
  5
2D42C
102
{ACAD_REACTORS
330
2D42B
102
}
330
2D42B
100
AcDbXrecord
280
     1
290
     1
  0
XRECORD
  5
2D42E
102
{ACAD_REACTORS
330
2D42D
102
}
330
2D42D
100
AcDbXrecord
280
     1
290
     1
  0
XRECORD
  5
2D430
102
{ACAD_REACTORS
330
2D42F
102
}
330
2D42F
100
AcDbXrecord
280
     1
290
     1
  0
XRECORD
  5
2D432
102
{ACAD_REACTORS
330
2D431
102
}
330
2D431
100
AcDbXrecord
280
     1
290
     1
  0
XRECORD
  5
2D434
102
{ACAD_REACTORS
330
2D433
102
}
330
2D433
100
AcDbXrecord
280
     1
290
     1
  0
XRECORD
  5
2D436
102
{ACAD_REACTORS
330
2D435
102
}
330
2D435
100
AcDbXrecord
280
     1
290
     1
  0
XRECORD
  5
2D438
102
{ACAD_REACTORS
330
2D437
102
}
330
2D437
100
AcDbXrecord
280
     1
290
     1
  0
XRECORD
  5
2D43A
102
{ACAD_REACTORS
330
2D439
102
}
330
2D439
100
AcDbXrecord
280
     1
290
     1
  0
XRECORD
  5
2D43C
102
{ACAD_REACTORS
330
2D43B
102
}
330
2D43B
100
AcDbXrecord
280
     1
290
     1
  0
XRECORD
  5
2D43E
102
{ACAD_REACTORS
330
2D43D
102
}
330
2D43D
100
AcDbXrecord
280
     1
290
     1
  0
XRECORD
  5
2D440
102
{ACAD_REACTORS
330
2D43F
102
}
330
2D43F
100
AcDbXrecord
280
     1
290
     1
  0
XRECORD
  5
2D442
102
{ACAD_REACTORS
330
2D441
102
}
330
2D441
100
AcDbXrecord
280
     1
290
     1
  0
XRECORD
  5
2D444
102
{ACAD_REACTORS
330
2D443
102
}
330
2D443
100
AcDbXrecord
280
     1
290
     1
  0
XRECORD
  5
2D446
102
{ACAD_REACTORS
330
2D445
102
}
330
2D445
100
AcDbXrecord
280
     1
290
     1
  0
XRECORD
  5
2D448
102
{ACAD_REACTORS
330
2D447
102
}
330
2D447
100
AcDbXrecord
280
     1
290
     1
  0
XRECORD
  5
2D44A
102
{ACAD_REACTORS
330
2D449
102
}
330
2D449
100
AcDbXrecord
280
     1
290
     1
  0
XRECORD
  5
2D44C
102
{ACAD_REACTORS
330
2D44B
102
}
330
2D44B
100
AcDbXrecord
280
     1
290
     1
  0
XRECORD
  5
2D44E
102
{ACAD_REACTORS
330
2D44D
102
}
330
2D44D
100
AcDbXrecord
280
     1
290
     1
  0
XRECORD
  5
2D450
102
{ACAD_REACTORS
330
2D44F
102
}
330
2D44F
100
AcDbXrecord
280
     1
290
     1
  0
XRECORD
  5
2D452
102
{ACAD_REACTORS
330
2D451
102
}
330
2D451
100
AcDbXrecord
280
     1
290
     1
  0
XRECORD
  5
2D454
102
{ACAD_REACTORS
330
2D453
102
}
330
2D453
100
AcDbXrecord
280
     1
290
     1
  0
XRECORD
  5
2D456
102
{ACAD_REACTORS
330
2D455
102
}
330
2D455
100
AcDbXrecord
280
     1
290
     1
  0
SORTENTSTABLE
  5
2D0B5
102
{ACAD_REACTORS
330
2D0B4
102
}
330
2D0B4
100
AcDbSortentsTable
330
2D0B3
  0
XRECORD
  5
2D45F
102
{ACAD_REACTORS
330
2D45E
102
}
330
2D45E
100
AcDbXrecord
280
     1
 40
1.570796326794896
  0
ACDBDETAILVIEWSTYLE
  5
2D422
102
{ACAD_REACTORS
330
2D421
102
}
330
2D421
100
AcDbModelDocViewStyle
 70
     0
  3
Metric50
290
     0
100
AcDbDetailViewStyle
 70
     0
 71
     0
 90
        3
 71
     1
340
10
 40
5.0
340
0
 40
5.0
300

 40
0.0
280
     1
 71
     2
340
14
 90
       25
 71
     3
340
10
 40
5.0
 90
        0
 40
15.0
 90
        1
300
%<\AcVar ViewDetailId>% (%<\AcVar ViewScale \f "%sn">%)
 71
     4
340
14
 90
       25
340
14
 90
       25
280
     0
  0
LAYOUT
  5
33B
102
{ACAD_XDICTIONARY
360
2D462
102
}
102
{ACAD_REACTORS
330
301
102
}
330
301
100
AcDbPlotSettings
  1

  2
Lexmark Optra PS2
  4

  6

 40
0.0
 41
0.0
 42
0.0
 43
0.0
 44
0.0
 45
0.0
 46
0.0
 47
0.0
 48
0.0
 49
0.0
140
0.0
141
0.0
142
1.0
143
1.0
 70
   688
 72
     0
 73
     0
 74
     5
  7
monochrome.ctb
 75
    16
147
1.0
148
0.0
149
0.0
100
AcDbLayout
  1
Layout1
 70
     1
 71
     1
 10
0.0
 20
0.0
 11
12.0
 21
9.0
 12
0.0
 22
0.0
 32
0.0
 14
0.0
 24
0.0
 34
0.0
 15
0.0
 25
0.0
 35
0.0
146
0.0
 13
0.0
 23
0.0
 33
0.0
 16
1.0
 26
0.0
 36
0.0
 17
0.0
 27
1.0
 37
0.0
 76
     0
330
338
  0
LAYOUT
  5
303
102
{ACAD_XDICTIONARY
360
2D460
102
}
102
{ACAD_REACTORS
330
301
102
}
330
301
100
AcDbPlotSettings
  1

  2
Default Windows System Printer.pc3
  4
A4
  6

 40
6.805083274841307
 41
5.535083293914794
 42
6.974411010742187
 43
7.14373779296875
 44
209.9733276367186
 45
296.9259948730469
 46
67.83299579489725
 47
0.0
 48
0.0
 49
0.0
140
0.0
141
0.0
142
1.0
143
0.3604333568168785
 70
  3764
 72
     1
 73
     1
 74
     1
  7
monochrome.ctb
 75
     0
147
2.774437995504559
148
-82.35087775247029
149
-53.69369632994493
100
AcDbLayout
  1
Model
 70
     1
 71
     0
 10
0.0
 20
0.0
 11
12.0
 21
9.0
 12
0.0
 22
0.0
 32
0.0
 14
0.0
 24
0.0
 34
0.0
 15
0.0
 25
0.0
 35
0.0
146
0.0
 13
0.0
 23
0.0
 33
0.0
 16
1.0
 26
0.0
 36
0.0
 17
0.0
 27
1.0
 37
0.0
 76
     0
330
18
331
3ED
1001
ACAD_PSEXT
1000
Default Windows System Printer.pc3
1000
Lexmark Optra Rx
1000
Lexmark Rx
1000
Erstellt von Lexmark Benutzerdefinierte Installation,Nov 13,2005,10:03
1070
     0
  0
MATERIAL
  5
3F0
102
{ACAD_XDICTIONARY
360
2D3EA
102
}
102
{ACAD_REACTORS
330
386
102
}
330
386
100
AcDbMaterial
  1
ByBlock
 73
     1
 78
     1
172
     1
176
     1
270
     1
274
     1
  0
MATERIAL
  5
3EF
102
{ACAD_XDICTIONARY
360
2D3E8
102
}
102
{ACAD_REACTORS
330
386
102
}
330
386
100
AcDbMaterial
  1
ByLayer
 73
     1
 78
     1
172
     1
176
     1
270
     1
274
     1
  0
MATERIAL
  5
3F1
102
{ACAD_XDICTIONARY
360
2D3EC
102
}
102
{ACAD_REACTORS
330
386
102
}
330
386
100
AcDbMaterial
  1
Global
 73
     1
 78
     1
172
     1
176
     1
270
     1
274
     1
  0
MLEADERSTYLE
  5
43D
102
{ACAD_REACTORS
330
43C
102
}
330
43C
100
AcDbMLeaderStyle
170
     2
171
     1
172
     0
 90
        2
 40
0.0
 41
0.0
173
     1
 91
-1056964608
340
12
 92
       -2
290
     1
 42
2.0
291
     1
 43
0.36
  3
Standard
 44
4.0
300

342
10
174
     1
178
     6
175
     1
176
     0
 93
-1056964608
 45
4.0
292
     0
297
     0
 46
4.0
 94
-1056964608
 47
1.0
 49
1.0
140
1.0
293
     1
141
0.0
294
     1
177
     0
142
1.0
295
     0
296
     0
143
0.125
1001
ACAD_MLEADERVER
1070
     2
  0
MLINESTYLE
  5
1B
102
{ACAD_REACTORS
330
E
102
}
330
E
100
AcDbMlineStyle
  2
STANDARD
 70
     0
  3

 62
     0
 51
90.0
 52
90.0
 71
     2
 49
0.5
 62
   256
  6
BYLAYER
 49
-0.5
 62
   256
  6
BYLAYER
  0
ACDBPLACEHOLDER
  5
300
102
{ACAD_REACTORS
330
2FF
102
}
330
2FF
  0
SCALE
  5
41B
102
{ACAD_REACTORS
330
41A
102
}
330
41A
100
AcDbScale
 70
     0
300
1:1
140
1.0
141
1.0
290
     1
  0
SCALE
  5
41C
102
{ACAD_REACTORS
330
41A
102
}
330
41A
100
AcDbScale
 70
     0
300
1:2
140
1.0
141
2.0
290
     0
  0
SCALE
  5
41D
102
{ACAD_REACTORS
330
41A
102
}
330
41A
100
AcDbScale
 70
     0
300
1:4
140
1.0
141
4.0
290
     0
  0
SCALE
  5
41E
102
{ACAD_REACTORS
330
41A
102
}
330
41A
100
AcDbScale
 70
     0
300
1:5
140
1.0
141
5.0
290
     0
  0
SCALE
  5
41F
102
{ACAD_REACTORS
330
41A
102
}
330
41A
100
AcDbScale
 70
     0
300
1:8
140
1.0
141
8.0
290
     0
  0
SCALE
  5
420
102
{ACAD_REACTORS
330
41A
102
}
330
41A
100
AcDbScale
 70
     0
300
1:10
140
1.0
141
10.0
290
     0
  0
SCALE
  5
421
102
{ACAD_REACTORS
330
41A
102
}
330
41A
100
AcDbScale
 70
     0
300
1:16
140
1.0
141
16.0
290
     0
  0
SCALE
  5
422
102
{ACAD_REACTORS
330
41A
102
}
330
41A
100
AcDbScale
 70
     0
300
1:20
140
1.0
141
20.0
290
     0
  0
SCALE
  5
423
102
{ACAD_REACTORS
330
41A
102
}
330
41A
100
AcDbScale
 70
     0
300
1:30
140
1.0
141
30.0
290
     0
  0
SCALE
  5
424
102
{ACAD_REACTORS
330
41A
102
}
330
41A
100
AcDbScale
 70
     0
300
1:40
140
1.0
141
40.0
290
     0
  0
SCALE
  5
425
102
{ACAD_REACTORS
330
41A
102
}
330
41A
100
AcDbScale
 70
     0
300
1:50
140
1.0
141
50.0
290
     0
  0
SCALE
  5
426
102
{ACAD_REACTORS
330
41A
102
}
330
41A
100
AcDbScale
 70
     0
300
1:100
140
1.0
141
100.0
290
     0
  0
SCALE
  5
427
102
{ACAD_REACTORS
330
41A
102
}
330
41A
100
AcDbScale
 70
     0
300
2:1
140
2.0
141
1.0
290
     0
  0
SCALE
  5
428
102
{ACAD_REACTORS
330
41A
102
}
330
41A
100
AcDbScale
 70
     0
300
4:1
140
4.0
141
1.0
290
     0
  0
SCALE
  5
429
102
{ACAD_REACTORS
330
41A
102
}
330
41A
100
AcDbScale
 70
     0
300
8:1
140
8.0
141
1.0
290
     0
  0
SCALE
  5
42A
102
{ACAD_REACTORS
330
41A
102
}
330
41A
100
AcDbScale
 70
     0
300
10:1
140
10.0
141
1.0
290
     0
  0
SCALE
  5
42B
102
{ACAD_REACTORS
330
41A
102
}
330
41A
100
AcDbScale
 70
     0
300
100:1
140
100.0
141
1.0
290
     0
  0
SCALE
  5
42C
102
{ACAD_REACTORS
330
41A
102
}
330
41A
100
AcDbScale
 70
     0
300
1/128" = 1'-0"
140
0.0078125
141
12.0
290
     0
  0
SCALE
  5
42D
102
{ACAD_REACTORS
330
41A
102
}
330
41A
100
AcDbScale
 70
     0
300
1/64" = 1'-0"
140
0.015625
141
12.0
290
     0
  0
SCALE
  5
42E
102
{ACAD_REACTORS
330
41A
102
}
330
41A
100
AcDbScale
 70
     0
300
1/32" = 1'-0"
140
0.03125
141
12.0
290
     0
  0
SCALE
  5
42F
102
{ACAD_REACTORS
330
41A
102
}
330
41A
100
AcDbScale
 70
     0
300
1/16" = 1'-0"
140
0.0625
141
12.0
290
     0
  0
SCALE
  5
430
102
{ACAD_REACTORS
330
41A
102
}
330
41A
100
AcDbScale
 70
     0
300
3/32" = 1'-0"
140
0.09375
141
12.0
290
     0
  0
SCALE
  5
431
102
{ACAD_REACTORS
330
41A
102
}
330
41A
100
AcDbScale
 70
     0
300
1/8" = 1'-0"
140
0.125
141
12.0
290
     0
  0
SCALE
  5
432
102
{ACAD_REACTORS
330
41A
102
}
330
41A
100
AcDbScale
 70
     0
300
3/16" = 1'-0"
140
0.1875
141
12.0
290
     0
  0
SCALE
  5
433
102
{ACAD_REACTORS
330
41A
102
}
330
41A
100
AcDbScale
 70
     0
300
1/4" = 1'-0"
140
0.25
141
12.0
290
     0
  0
SCALE
  5
434
102
{ACAD_REACTORS
330
41A
102
}
330
41A
100
AcDbScale
 70
     0
300
3/8" = 1'-0"
140
0.375
141
12.0
290
     0
  0
SCALE
  5
435
102
{ACAD_REACTORS
330
41A
102
}
330
41A
100
AcDbScale
 70
     0
300
1/2" = 1'-0"
140
0.5
141
12.0
290
     0
  0
SCALE
  5
436
102
{ACAD_REACTORS
330
41A
102
}
330
41A
100
AcDbScale
 70
     0
300
3/4" = 1'-0"
140
0.75
141
12.0
290
     0
  0
SCALE
  5
437
102
{ACAD_REACTORS
330
41A
102
}
330
41A
100
AcDbScale
 70
     0
300
1" = 1'-0"
140
1.0
141
12.0
290
     0
  0
SCALE
  5
438
102
{ACAD_REACTORS
330
41A
102
}
330
41A
100
AcDbScale
 70
     0
300
1-1/2" = 1'-0"
140
1.5
141
12.0
290
     0
  0
SCALE
  5
439
102
{ACAD_REACTORS
330
41A
102
}
330
41A
100
AcDbScale
 70
     0
300
3" = 1'-0"
140
3.0
141
12.0
290
     0
  0
SCALE
  5
43A
102
{ACAD_REACTORS
330
41A
102
}
330
41A
100
AcDbScale
 70
     0
300
6" = 1'-0"
140
6.0
141
12.0
290
     0
  0
SCALE
  5
43B
102
{ACAD_REACTORS
330
41A
102
}
330
41A
100
AcDbScale
 70
     0
300
1'-0" = 1'-0"
140
12.0
141
12.0
290
     0
  0
ACDBSECTIONVIEWSTYLE
  5
2D420
102
{ACAD_REACTORS
330
2D41F
102
}
330
2D41F
100
AcDbModelDocViewStyle
 70
     0
  3
Metric50
290
     0
100
AcDbSectionViewStyle
 70
     0
 71
     0
 90
      102
 71
     1
340
10
 40
5.0
340
0
340
0
 40
5.0
300
I, O, Q, S, X, Z
 40
10.0
 90
        0
 40
2.5
 90
        0
 71
     2
340
14
 90
       25
340
14
 90
       50
 40
5.0
 40
2.5
 40
5.0
 71
     3
340
10
 40
5.0
 90
        0
 40
15.0
 90
        1
300
%<\AcVar ViewSectionStartId>%-%<\AcVar ViewSectionEndId>% (%<\AcVar ViewScale \f "%sn">%)
 71
     4
300
ANSI31
 40
1.0
 90
        0
290
     0
290
     0
 90
        6
 40
0.0
 40
1.570796326794896
 40
0.2617993877991494
 40
1.308996938995747
 40
-0.2617993877991494
 40
1.832595714594046
  0
TABLESTYLE
  5
389
102
{ACAD_XDICTIONARY
360
444
102
}
102
{ACAD_REACTORS
330
388
102
}
330
388
100
AcDbTableStyle
  3
Standard
 70
     0
 71
     0
 40
1.5
 41
1.5
280
     0
281
     0
  7
STANDARD
140
4.5
170
     2
 62
     0
 63
     7
283
     0
274
    -2
284
     1
 64
     0
275
    -2
285
     1
 65
     0
276
    -2
286
     1
 66
     0
277
    -2
287
     1
 67
     0
278
    -2
288
     1
 68
     0
279
    -2
289
     1
 69
     0
  7
STANDARD
140
6.0
170
     5
 62
     0
 63
     7
283
     0
274
    -2
284
     1
 64
     0
275
    -2
285
     1
 65
     0
276
    -2
286
     1
 66
     0
277
    -2
287
     1
 67
     0
278
    -2
288
     1
 68
     0
279
    -2
289
     1
 69
     0
  7
STANDARD
140
4.5
170
     5
 62
     0
 63
     7
283
     0
274
    -2
284
     1
 64
     0
275
    -2
285
     1
 65
     0
276
    -2
286
     1
 66
     0
277
    -2
287
     1
 67
     0
278
    -2
288
     1
 68
     0
279
    -2
289
     1
 69
     0
  0
VISUALSTYLE
  5
3F8
102
{ACAD_XDICTIONARY
360
2D46F
102
}
102
{ACAD_REACTORS
330
3F2
102
}
330
3F2
100
AcDbVisualStyle
  2

 70
     4
 71
     0
 72
     2
 73
     0
 90
        0
 40
-0.6
 41
-30.0
 62
     5
 63
     7
 74
     1
 91
        4
 64
     7
 65
   257
 75
     1
175
     1
 42
1.0
 92
        0
 66
   257
 43
1.0
 76
     1
 77
     6
 78
     2
 67
     7
 79
     5
170
     0
171
     0
290
     0
174
     0
 93
        1
 44
0.0
173
     0
291
     0
 45
0.0
1001
ACAD
1000
AcDbSavedByObjectVersion
1070
     0
  0
VISUALSTYLE
  5
3FA
102
{ACAD_XDICTIONARY
360
2D473
102
}
102
{ACAD_REACTORS
330
3F2
102
}
330
3F2
100
AcDbVisualStyle
  2

 70
     6
 71
     1
 72
     2
 73
     2
 90
        0
 40
-0.6
 41
-30.0
 62
     5
 63
     7
 74
     2
 91
        2
 64
     7
 65
   257
 75
     2
175
     1
 42
40.0
 92
        0
 66
   257
 43
1.0
 76
     1
 77
     6
 78
     2
 67
     7
 79
     3
170
     0
171
     0
290
     0
174
     0
 93
        1
 44
0.0
173
     0
291
     0
 45
0.0
1001
ACAD
1000
AcDbSavedByObjectVersion
1070
     0
  0
VISUALSTYLE
  5
3F9
102
{ACAD_XDICTIONARY
360
2D471
102
}
102
{ACAD_REACTORS
330
3F2
102
}
330
3F2
100
AcDbVisualStyle
  2

 70
     5
 71
     0
 72
     2
 73
     0
 90
        0
 40
-0.6
 41
-30.0
 62
     5
 63
     7
 74
     1
 91
        4
 64
     7
 65
   257
 75
     1
175
     1
 42
1.0
 92
        0
 66
   257
 43
1.0
 76
     1
 77
     6
 78
     2
 67
     7
 79
     5
170
     0
171
     0
290
     0
174
     0
 93
        1
 44
0.0
173
     0
291
     0
 45
0.0
1001
ACAD
1000
AcDbSavedByObjectVersion
1070
     0
  0
VISUALSTYLE
  5
3F7
102
{ACAD_XDICTIONARY
360
2D46D
102
}
102
{ACAD_REACTORS
330
3F2
102
}
330
3F2
100
AcDbVisualStyle
  2

 70
     7
 71
     1
 72
     0
 73
     1
 90
        0
 40
-0.6
 41
-30.0
 62
     5
 63
     7
 74
     0
 91
        4
 64
     7
 65
   257
 75
     1
175
     1
 42
1.0
 92
        8
 66
     7
 43
1.0
 76
     1
 77
     6
 78
     2
 67
     7
 79
     5
170
     0
171
     0
290
     0
174
     0
 93
        1
 44
0.0
173
     0
291
     1
 45
0.0
1001
ACAD
1000
AcDbSavedByObjectVersion
1070
     0
  0
VISUALSTYLE
  5
3FE
102
{ACAD_XDICTIONARY
360
2D47B
102
}
102
{ACAD_REACTORS
330
3F2
102
}
330
3F2
100
AcDbVisualStyle
  2

 70
    12
 71
     2
 72
     2
 73
     0
 90
        0
 40
-0.6
 41
-30.0
 62
     5
 63
     7
 74
     1
 91
        4
 64
     7
 65
   257
 75
     1
175
     1
 42
1.0
 92
        8
 66
     7
 43
1.0
 76
     1
 77
     6
 78
     2
 67
     7
 79
     5
170
     0
171
     0
290
     0
174
     0
 93
        1
 44
50.0
173
     0
291
     1
 45
0.0
1001
ACAD
1000
AcDbSavedByObjectVersion
1070
     0
  0
VISUALSTYLE
  5
402
102
{ACAD_XDICTIONARY
360
2D483
102
}
102
{ACAD_REACTORS
330
3F2
102
}
330
3F2
100
AcDbVisualStyle
  2

 70
    16
 71
     2
 72
     2
 73
     3
 90
        0
 40
-0.6
 41
-30.0
 62
     5
 63
     8
 74
     1
 91
        4
 64
     7
 65
   257
 75
     1
175
     1
 42
1.0
 92
        8
 66
     8
 43
1.0
 76
     1
 77
     6
 78
     2
 67
     7
 79
     5
170
     0
171
     0
290
     0
174
     0
 93
        1
 44
0.0
173
     0
291
     1
 45
0.0
1001
ACAD
1000
AcDbSavedByObjectVersion
1070
     0
  0
VISUALSTYLE
  5
3FB
102
{ACAD_XDICTIONARY
360
2D475
102
}
102
{ACAD_REACTORS
330
3F2
102
}
330
3F2
100
AcDbVisualStyle
  2

 70
     9
 71
     3
 72
     2
 73
     0
 90
        0
 40
-0.6
 41
-30.0
 62
     5
 63
     7
 74
     2
 91
        2
 64
     7
 65
   257
 75
     1
175
     1
 42
40.0
 92
        8
 66
     7
 43
1.0
 76
     1
 77
     6
 78
     2
 67
     7
 79
     3
170
     0
171
     0
290
     0
174
     0
 93
        1
 44
0.0
173
     0
291
     0
 45
0.0
1001
ACAD
1000
AcDbSavedByObjectVersion
1070
     0
  0
VISUALSTYLE
  5
3FD
102
{ACAD_XDICTIONARY
360
2D479
102
}
102
{ACAD_REACTORS
330
3F2
102
}
330
3F2
100
AcDbVisualStyle
  2

 70
    11
 71
     2
 72
     2
 73
     0
 90
        0
 40
-0.6
 41
-30.0
 62
     5
 63
     7
 74
     1
 91
        4
 64
     7
 65
   257
 75
     1
175
     1
 42
1.0
 92
        8
 66
     7
 43
1.0
 76
     1
 77
     6
 78
     2
 67
     7
 79
     5
170
     0
171
     0
290
     0
174
     0
 93
        1
 44
-50.0
173
     0
291
     1
 45
0.0
1001
ACAD
1000
AcDbSavedByObjectVersion
1070
     0
  0
VISUALSTYLE
  5
44E
102
{ACAD_XDICTIONARY
360
2D489
102
}
102
{ACAD_REACTORS
330
3F2
102
}
330
3F2
100
AcDbVisualStyle
  2

 70
    22
 71
     2
 72
     2
 73
     0
 90
        0
 40
-0.6
 41
-30.0
 62
     5
 63
     7
 74
     1
 91
        4
 64
     7
 65
   257
 75
     1
175
     1
 42
1.0
 92
        8
 66
     7
 43
1.0
 76
     1
 77
     6
 78
     2
 67
     7
 79
     5
170
     0
171
     0
290
     0
174
     0
 93
        1
 44
0.0
173
     0
291
     1
 45
0.0
1001
ACAD
1000
AcDbSavedByObjectVersion
1070
     0
  0
VISUALSTYLE
  5
401
102
{ACAD_XDICTIONARY
360
2D481
102
}
102
{ACAD_REACTORS
330
3F2
102
}
330
3F2
100
AcDbVisualStyle
  2

 70
    15
 71
     2
 72
     2
 73
     0
 90
        0
 40
-0.6
 41
-30.0
 62
     5
 63
     7
 74
     1
 91
        4
 64
     7
 65
   257
 75
     1
175
     1
 42
1.0
 92
        8
 66
     7
 43
1.0
 76
     1
 77
     6
 78
     2
 67
     7
 79
     5
170
     0
171
     0
290
     0
174
     0
 93
        1
 44
0.0
173
     0
291
     1
 45
0.0
1001
ACAD
1000
AcDbSavedByObjectVersion
1070
     0
  0
VISUALSTYLE
  5
3F3
102
{ACAD_XDICTIONARY
360
2D465
102
}
102
{ACAD_REACTORS
330
3F2
102
}
330
3F2
100
AcDbVisualStyle
  2

 70
     0
 71
     2
 72
     1
 73
     1
 90
        2
 40
-0.6
 41
30.0
 62
     5
 63
     7
 74
     0
 91
        4
 64
     7
 65
   257
 75
     1
175
     1
 42
1.0
 92
        8
 66
     7
 43
1.0
 76
     1
 77
     6
 78
     2
 67
     7
 79
     5
170
     0
171
     0
290
     0
174
     0
 93
       13
 44
0.0
173
     0
291
     1
 45
0.0
1001
ACAD
1000
AcDbSavedByObjectVersion
1070
     0
  0
VISUALSTYLE
  5
3F4
102
{ACAD_XDICTIONARY
360
2D467
102
}
102
{ACAD_REACTORS
330
3F2
102
}
330
3F2
100
AcDbVisualStyle
  2

 70
     1
 71
     2
 72
     1
 73
     1
 90
        2
 40
-0.6
 41
30.0
 62
     5
 63
     7
 74
     1
 91
        4
 64
     7
 65
   257
 75
     1
175
     1
 42
1.0
 92
        0
 66
   257
 43
1.0
 76
     1
 77
     6
 78
     2
 67
     7
 79
     5
170
     0
171
     0
290
     0
174
     0
 93
       13
 44
0.0
173
     0
291
     1
 45
0.0
1001
ACAD
1000
AcDbSavedByObjectVersion
1070
     0
  0
VISUALSTYLE
  5
3F5
102
{ACAD_XDICTIONARY
360
2D469
102
}
102
{ACAD_REACTORS
330
3F2
102
}
330
3F2
100
AcDbVisualStyle
  2

 70
     2
 71
     2
 72
     2
 73
     1
 90
        2
 40
-0.6
 41
30.0
 62
     5
 63
     7
 74
     0
 91
        4
 64
     7
 65
   257
 75
     1
175
     1
 42
1.0
 92
        0
 66
     7
 43
1.0
 76
     1
 77
     6
 78
     2
 67
     7
 79
     5
170
     0
171
     0
290
     0
174
     0
 93
       13
 44
0.0
173
     0
291
     1
 45
0.0
1001
ACAD
1000
AcDbSavedByObjectVersion
1070
     0
  0
VISUALSTYLE
  5
3F6
102
{ACAD_XDICTIONARY
360
2D46B
102
}
102
{ACAD_REACTORS
330
3F2
102
}
330
3F2
100
AcDbVisualStyle
  2

 70
     3
 71
     2
 72
     2
 73
     1
 90
        2
 40
-0.6
 41
30.0
 62
     5
 63
     7
 74
     1
 91
        4
 64
     7
 65
   257
 75
     1
175
     1
 42
1.0
 92
        0
 66
   257
 43
1.0
 76
     1
 77
     6
 78
     2
 67
     7
 79
     5
170
     0
171
     0
290
     0
174
     0
 93
       13
 44
0.0
173
     0
291
     1
 45
0.0
1001
ACAD
1000
AcDbSavedByObjectVersion
1070
     0
  0
VISUALSTYLE
  5
2D419
102
{ACAD_XDICTIONARY
360
2D48E
102
}
102
{ACAD_REACTORS
330
3F2
102
}
330
3F2
100
AcDbVisualStyle
  2
Hidden
 70
     6
 71
     1
 72
     2
 73
     2
 90
        0
 40
-0.6
 41
-30.0
 62
     5
 63
     7
 74
     2
 91
        2
 64
     7
 65
   257
 75
     2
175
     1
 42
40.0
 92
        0
 66
   257
 43
1.0
 76
     1
 77
     6
 78
     2
 67
     7
 79
     3
170
     0
171
     0
290
     0
174
     0
 93
        1
 44
0.0
173
     0
291
     0
 45
0.0
1001
ACAD
1000
AcDbSavedByObjectVersion
1070
     0
  0
VISUALSTYLE
  5
44C
102
{ACAD_XDICTIONARY
360
2D485
102
}
102
{ACAD_REACTORS
330
3F2
102
}
330
3F2
100
AcDbVisualStyle
  2

 70
    20
 71
     2
 72
     2
 73
     0
 90
        0
 40
-0.6
 41
-30.0
 62
     5
 63
     7
 74
     1
 91
        4
 64
     7
 65
   257
 75
     1
175
     1
 42
1.0
 92
       10
 66
     7
 43
1.0
 76
     1
 77
     6
 78
     2
 67
     7
 79
     5
170
     0
171
     0
290
     0
174
     0
 93
        1
 44
0.0
173
     0
291
     1
 45
0.0
1001
ACAD
1000
AcDbSavedByObjectVersion
1070
     0
  0
VISUALSTYLE
  5
400
102
{ACAD_XDICTIONARY
360
2D47F
102
}
102
{ACAD_REACTORS
330
3F2
102
}
330
3F2
100
AcDbVisualStyle
  2

 70
    14
 71
     2
 72
     2
 73
     0
 90
        0
 40
-0.6
 41
-30.0
 62
     5
 63
     7
 74
     1
 91
        4
 64
     7
 65
   257
 75
     7
175
     7
 42
1.0
 92
        8
 66
     7
 43
1.0
 76
     1
 77
     6
 78
     2
 67
     7
 79
     5
170
     0
171
     0
290
     0
174
     0
 93
        1
 44
0.0
173
     0
291
     1
 45
0.0
1001
ACAD
1000
AcDbSavedByObjectVersion
1070
     0
  0
VISUALSTYLE
  5
44D
102
{ACAD_XDICTIONARY
360
2D487
102
}
102
{ACAD_REACTORS
330
3F2
102
}
330
3F2
100
AcDbVisualStyle
  2

 70
    21
 71
     2
 72
     2
 73
     0
 90
        0
 40
-0.6
 41
-30.0
 62
     5
 63
     7
 74
     1
 91
        4
 64
     7
 65
   257
 75
     1
175
     1
 42
1.0
 92
        9
 66
     7
 43
1.0
 76
     1
 77
     6
 78
     2
 67
     7
 79
     5
170
     0
171
     0
290
     0
174
     0
 93
        1
 44
0.0
173
     0
291
     1
 45
0.0
1001
ACAD
1000
AcDbSavedByObjectVersion
1070
     0
  0
VISUALSTYLE
  5
3FC
102
{ACAD_XDICTIONARY
360
2D477
102
}
102
{ACAD_REACTORS
330
3F2
102
}
330
3F2
100
AcDbVisualStyle
  2

 70
     8
 71
     2
 72
     2
 73
     0
 90
        0
 40
-0.6
 41
-30.0
 62
     5
 63
     7
 74
     1
 91
        0
 64
     7
 65
   257
 75
     1
175
     1
 42
1.0
 92
        8
 66
     8
 43
1.0
 76
     1
 77
     6
 78
     2
 67
     7
 79
     5
170
     0
171
     0
290
     0
174
     0
 93
       13
 44
0.0
173
     0
291
     0
 45
0.0
1001
ACAD
1000
AcDbSavedByObjectVersion
1070
     0
  0
VISUALSTYLE
  5
2D41E
102
{ACAD_XDICTIONARY
360
2D498
102
}
102
{ACAD_REACTORS
330
3F2
102
}
330
3F2
100
AcDbVisualStyle
  2
Shaded
 70
    27
 71
     2
 72
     2
 73
     1
 90
        2
 40
-0.6
 41
30.0
 62
     5
 63
     7
 74
     0
 91
        4
 64
     7
 65
   257
 75
     1
175
     1
 42
1.0
 92
        8
 66
   257
 43
1.0
 76
     1
 77
     6
 78
     2
 67
     8
 79
     3
170
     0
171
     0
290
     0
174
     0
 93
        5
 44
0.0
173
     0
291
     0
 45
0.0
1001
ACAD
1000
AcDbSavedByObjectVersion
1070
     0
  0
VISUALSTYLE
  5
2D41D
102
{ACAD_XDICTIONARY
360
2D496
102
}
102
{ACAD_REACTORS
330
3F2
102
}
330
3F2
100
AcDbVisualStyle
  2
Shaded with edges
 70
    26
 71
     2
 72
     2
 73
     1
 90
        2
 40
-0.6
 41
30.0
 62
     5
 63
     7
 74
     1
 91
       10
 64
     7
 65
   257
 75
     2
175
     1
 42
1.0
 92
        8
 66
   257
 43
1.0
 76
     1
 77
     6
 78
     2
 67
     7
 79
     3
170
     0
171
     0
290
     0
174
     0
 93
        5
 44
0.0
173
     0
291
     0
 45
0.0
1001
ACAD
1000
AcDbSavedByObjectVersion
1070
     0
  0
VISUALSTYLE
  5
2D41A
102
{ACAD_XDICTIONARY
360
2D490
102
}
102
{ACAD_REACTORS
330
3F2
102
}
330
3F2
100
AcDbVisualStyle
  2
Shades of Gray
 70
    23
 71
     2
 72
     2
 73
     3
 90
        0
 40
-0.6
 41
-30.0
 62
     5
 63
     7
 74
     2
 91
        2
 64
     7
 65
     7
 75
     1
175
     1
 42
40.0
 92
        8
 66
     7
 43
1.0
 76
     1
 77
     6
 78
     2
 67
     7
 79
     3
170
     0
171
     0
290
     0
174
     0
 93
        1
 44
0.0
173
     0
291
     0
 45
0.0
1001
ACAD
1000
AcDbSavedByObjectVersion
1070
     0
  0
VISUALSTYLE
  5
2D41B
102
{ACAD_XDICTIONARY
360
2D492
102
}
102
{ACAD_REACTORS
330
3F2
102
}
330
3F2
100
AcDbVisualStyle
  2
Sketchy
 70
    24
 71
     1
 72
     2
 73
     2
 90
        0
 40
-0.6
 41
-30.0
 62
     5
 63
     7
 74
     2
 91
        2
 64
     7
 65
     7
 75
     1
175
     1
 42
40.0
 92
       11
 66
     7
 43
1.0
 76
     1
 77
     6
 78
     2
 67
     7
 79
     6
170
     0
171
     0
290
     0
174
     0
 93
        1
 44
0.0
173
     0
291
     0
 45
0.0
1001
ACAD
1000
AcDbSavedByObjectVersion
1070
     0
  0
VISUALSTYLE
  5
3FF
102
{ACAD_XDICTIONARY
360
2D47D
102
}
102
{ACAD_REACTORS
330
3F2
102
}
330
3F2
100
AcDbVisualStyle
  2

 70
    13
 71
     2
 72
     2
 73
     0
 90
        0
 40
-0.6
 41
-30.0
 62
     5
 63
     7
 74
     1
 91
        4
 64
     7
 65
   257
 75
     1
175
     1
 42
1.0
 92
       12
 66
     7
 43
1.0
 76
     1
 77
     6
 78
     2
 67
     7
 79
     5
170
     0
171
     0
290
     0
174
     0
 93
        1
 44
0.0
173
     0
291
     1
 45
0.0
1001
ACAD
1000
AcDbSavedByObjectVersion
1070
     0
  0
VISUALSTYLE
  5
2D418
102
{ACAD_XDICTIONARY
360
2D48C
102
}
102
{ACAD_REACTORS
330
3F2
102
}
330
3F2
100
AcDbVisualStyle
  2
Wireframe
 70
     5
 71
     0
 72
     2
 73
     0
 90
        0
 40
-0.6
 41
-30.0
 62
     5
 63
     7
 74
     1
 91
        4
 64
     7
 65
   257
 75
     1
175
     1
 42
1.0
 92
        0
 66
   257
 43
1.0
 76
     1
 77
     6
 78
     2
 67
     7
 79
     3
170
     0
171
     0
290
     0
174
     0
 93
        1
 44
0.0
173
     0
291
     0
 45
0.0
1001
ACAD
1000
AcDbSavedByObjectVersion
1070
     0
  0
VISUALSTYLE
  5
2D41C
102
{ACAD_XDICTIONARY
360
2D494
102
}
102
{ACAD_REACTORS
330
3F2
102
}
330
3F2
100
AcDbVisualStyle
  2
X-Ray
 70
    25
 71
     2
 72
     2
 73
     1
 90
        1
 40
0.5
 41
-30.0
 62
     5
 63
     7
 74
     1
 91
        0
 64
     7
 65
   257
 75
     1
175
     1
 42
1.0
 92
        8
 66
     7
 43
1.0
 76
     1
 77
     6
 78
     2
 67
     7
 79
     3
170
     0
171
     0
290
     0
174
     0
 93
       13
 44
0.0
173
     0
291
     0
 45
0.0
1001
ACAD
1000
AcDbSavedByObjectVersion
1070
     0
  0
DICTIONARYVAR
  5
449
102
{ACAD_REACTORS
330
357
102
}
330
357
100
DictionaryVariables
280
     0
  1
1:1
  0
DICTIONARYVAR
  5
447
102
{ACAD_REACTORS
330
357
102
}
330
357
100
DictionaryVariables
280
     0
  1
STANDARD
  0
DICTIONARYVAR
  5
38E
102
{ACAD_REACTORS
330
357
102
}
330
357
100
DictionaryVariables
280
     0
  1
STANDARD
  0
DICTIONARYVAR
  5
2D457
102
{ACAD_REACTORS
330
357
102
}
330
357
100
DictionaryVariables
280
     0
  1
Metric50
  0
DICTIONARYVAR
  5
2D458
102
{ACAD_REACTORS
330
357
102
}
330
357
100
DictionaryVariables
280
     0
  1
Metric50
  0
DICTIONARYVAR
  5
359
102
{ACAD_REACTORS
330
357
102
}
330
357
100
DictionaryVariables
280
     0
  1
2
  0
DICTIONARYVAR
  5
358
102
{ACAD_REACTORS
330
357
102
}
330
357
100
DictionaryVariables
280
     0
  1
1
  0
DICTIONARYVAR
  5
728
102
{ACAD_REACTORS
330
357
102
}
330
357
100
DictionaryVariables
280
     0
  1
0
  0
DICTIONARYVAR
  5
458
102
{ACAD_REACTORS
330
357
102
}
330
357
100
DictionaryVariables
280
     0
  1
1
  0
DICTIONARYVAR
  5
459
102
{ACAD_REACTORS
330
357
102
}
330
357
100
DictionaryVariables
280
     0
  1
15
  0
DICTIONARYVAR
  5
44A
102
{ACAD_REACTORS
330
357
102
}
330
357
100
DictionaryVariables
280
     0
  1
0
  0
DICTIONARYVAR
  5
448
102
{ACAD_REACTORS
330
357
102
}
330
357
100
DictionaryVariables
280
     0
  1
0
  0
DICTIONARYVAR
  5
727
102
{ACAD_REACTORS
330
357
102
}
330
357
100
DictionaryVariables
280
     0
  1
127
  0
DICTIONARYVAR
  5
2D459
102
{ACAD_REACTORS
330
357
102
}
330
357
100
DictionaryVariables
280
     0
  1
2
  0
DICTIONARY
  5
2D462
330
33B
100
AcDbDictionary
280
     1
281
     1
  3
ACAD_XREC_ROUNDTRIP
360
2D463
  0
DICTIONARY
  5
2D460
330
303
100
AcDbDictionary
280
     1
281
     1
  3
ACAD_XREC_ROUNDTRIP
360
2D461
  0
DICTIONARY
  5
2D3EA
330
3F0
100
AcDbDictionary
280
     1
281
     1
  3
ACAD_XREC_ROUNDTRIP
360
2D3EB
  0
DICTIONARY
  5
2D3E8
330
3EF
100
AcDbDictionary
280
     1
281
     1
  3
ACAD_XREC_ROUNDTRIP
360
2D3E9
  0
DICTIONARY
  5
2D3EC
330
3F1
100
AcDbDictionary
280
     1
281
     1
  3
ACAD_XREC_ROUNDTRIP
360
2D3ED
  0
DICTIONARY
  5
444
330
389
100
AcDbDictionary
280
     1
281
     1
  3
ACAD_ROUNDTRIP_2008_TABLESTYLE_CELLSTYLEMAP
360
2D45B
  3
ACAD_XREC_ROUNDTRIP
360
2D464
  0
DICTIONARY
  5
2D46F
330
3F8
100
AcDbDictionary
280
     1
281
     1
  3
ACAD_XREC_ROUNDTRIP
360
2D470
  0
DICTIONARY
  5
2D473
330
3FA
100
AcDbDictionary
280
     1
281
     1
  3
ACAD_XREC_ROUNDTRIP
360
2D474
  0
DICTIONARY
  5
2D471
330
3F9
100
AcDbDictionary
280
     1
281
     1
  3
ACAD_XREC_ROUNDTRIP
360
2D472
  0
DICTIONARY
  5
2D46D
330
3F7
100
AcDbDictionary
280
     1
281
     1
  3
ACAD_XREC_ROUNDTRIP
360
2D46E
  0
DICTIONARY
  5
2D47B
330
3FE
100
AcDbDictionary
280
     1
281
     1
  3
ACAD_XREC_ROUNDTRIP
360
2D47C
  0
DICTIONARY
  5
2D483
330
402
100
AcDbDictionary
280
     1
281
     1
  3
ACAD_XREC_ROUNDTRIP
360
2D484
  0
DICTIONARY
  5
2D475
330
3FB
100
AcDbDictionary
280
     1
281
     1
  3
ACAD_XREC_ROUNDTRIP
360
2D476
  0
DICTIONARY
  5
2D479
330
3FD
100
AcDbDictionary
280
     1
281
     1
  3
ACAD_XREC_ROUNDTRIP
360
2D47A
  0
DICTIONARY
  5
2D489
330
44E
100
AcDbDictionary
280
     1
281
     1
  3
ACAD_XREC_ROUNDTRIP
360
2D48A
  0
DICTIONARY
  5
2D481
330
401
100
AcDbDictionary
280
     1
281
     1
  3
ACAD_XREC_ROUNDTRIP
360
2D482
  0
DICTIONARY
  5
2D465
330
3F3
100
AcDbDictionary
280
     1
281
     1
  3
ACAD_XREC_ROUNDTRIP
360
2D466
  0
DICTIONARY
  5
2D467
330
3F4
100
AcDbDictionary
280
     1
281
     1
  3
ACAD_XREC_ROUNDTRIP
360
2D468
  0
DICTIONARY
  5
2D469
330
3F5
100
AcDbDictionary
280
     1
281
     1
  3
ACAD_XREC_ROUNDTRIP
360
2D46A
  0
DICTIONARY
  5
2D46B
330
3F6
100
AcDbDictionary
280
     1
281
     1
  3
ACAD_XREC_ROUNDTRIP
360
2D46C
  0
DICTIONARY
  5
2D48E
330
2D419
100
AcDbDictionary
280
     1
281
     1
  3
ACAD_XREC_ROUNDTRIP
360
2D48F
  0
DICTIONARY
  5
2D485
330
44C
100
AcDbDictionary
280
     1
281
     1
  3
ACAD_XREC_ROUNDTRIP
360
2D486
  0
DICTIONARY
  5
2D47F
330
400
100
AcDbDictionary
280
     1
281
     1
  3
ACAD_XREC_ROUNDTRIP
360
2D480
  0
DICTIONARY
  5
2D487
330
44D
100
AcDbDictionary
280
     1
281
     1
  3
ACAD_XREC_ROUNDTRIP
360
2D488
  0
DICTIONARY
  5
2D477
330
3FC
100
AcDbDictionary
280
     1
281
     1
  3
ACAD_XREC_ROUNDTRIP
360
2D478
  0
DICTIONARY
  5
2D498
330
2D41E
100
AcDbDictionary
280
     1
281
     1
  3
ACAD_XREC_ROUNDTRIP
360
2D499
  0
DICTIONARY
  5
2D496
330
2D41D
100
AcDbDictionary
280
     1
281
     1
  3
ACAD_XREC_ROUNDTRIP
360
2D497
  0
DICTIONARY
  5
2D490
330
2D41A
100
AcDbDictionary
280
     1
281
     1
  3
ACAD_XREC_ROUNDTRIP
360
2D491
  0
DICTIONARY
  5
2D492
330
2D41B
100
AcDbDictionary
280
     1
281
     1
  3
ACAD_XREC_ROUNDTRIP
360
2D493
  0
DICTIONARY
  5
2D47D
330
3FF
100
AcDbDictionary
280
     1
281
     1
  3
ACAD_XREC_ROUNDTRIP
360
2D47E
  0
DICTIONARY
  5
2D48C
330
2D418
100
AcDbDictionary
280
     1
281
     1
  3
ACAD_XREC_ROUNDTRIP
360
2D48D
  0
DICTIONARY
  5
2D494
330
2D41C
100
AcDbDictionary
280
     1
281
     1
  3
ACAD_XREC_ROUNDTRIP
360
2D495
  0
XRECORD
  5
2D463
102
{ACAD_REACTORS
330
2D462
102
}
330
2D462
100
AcDbXrecord
280
     1
102
SHADEPLOT
 70
     0
102
SHADEPLOTRESLEVEL
 70
     2
102
SHADEPLOTCUSTOMDPI
 70
   300
  0
XRECORD
  5
2D461
102
{ACAD_REACTORS
330
2D460
102
}
330
2D460
100
AcDbXrecord
280
     1
102
SHADEPLOT
 70
     1
102
SHADEPLOTRESLEVEL
 70
     2
102
SHADEPLOTCUSTOMDPI
 70
   300
  0
XRECORD
  5
2D3EB
102
{ACAD_REACTORS
330
2D3EA
102
}
330
2D3EA
100
AcDbXrecord
280
     1
102
MATERIAL
148
0.0
149
0.0
149
0.0
 93
        0
 94
      127
282
     0
 72
     1
 77
     1
171
     1
175
     1
179
     1
273
     0
  0
XRECORD
  5
2D3E9
102
{ACAD_REACTORS
330
2D3E8
102
}
330
2D3E8
100
AcDbXrecord
280
     1
102
MATERIAL
148
0.0
149
0.0
149
0.0
 93
        0
 94
      127
282
     0
 72
     1
 77
     1
171
     1
175
     1
179
     1
273
     0
  0
XRECORD
  5
2D3ED
102
{ACAD_REACTORS
330
2D3EC
102
}
330
2D3EC
100
AcDbXrecord
280
     1
102
MATERIAL
148
0.0
149
0.0
149
0.0
 93
        0
 94
      127
282
     0
 72
     1
 77
     1
171
     1
175
     1
179
     1
273
     0
  0
CELLSTYLEMAP
  5
2D45B
102
{ACAD_REACTORS
330
444
102
}
330
444
100
AcDbCellStyleMap
 90
        3
300
CELLSTYLE
  1
TABLEFORMAT_BEGIN
 90
        5
170
     1
 91
        0
 92
    32768
 62
   257
 93
        1
300
CONTENTFORMAT
  1
CONTENTFORMAT_BEGIN
 90
        0
 91
        0
 92
        4
 93
        0
300

 40
0.0
140
1.0
 94
        5
 62
     0
340
10
144
6.0
309
CONTENTFORMAT_END
171
     1
301
MARGIN
  1
CELLMARGIN_BEGIN
 40
1.5
 40
1.5
 40
1.5
 40
1.5
 40
0.18
 40
0.18
309
CELLMARGIN_END
 94
        6
 95
        1
302
GRIDFORMAT
  1
GRIDFORMAT_BEGIN
 90
        0
 91
        1
 62
     0
 92
       -2
340
0
 93
        0
 40
0.045
309
GRIDFORMAT_END
 95
        2
302
GRIDFORMAT
  1
GRIDFORMAT_BEGIN
 90
        0
 91
        1
 62
     0
 92
       -2
340
0
 93
        0
 40
0.045
309
GRIDFORMAT_END
 95
        4
302
GRIDFORMAT
  1
GRIDFORMAT_BEGIN
 90
        0
 91
        1
 62
     0
 92
       -2
340
0
 93
        0
 40
0.045
309
GRIDFORMAT_END
 95
        8
302
GRIDFORMAT
  1
GRIDFORMAT_BEGIN
 90
        0
 91
        1
 62
     0
 92
       -2
340
0
 93
        0
 40
0.045
309
GRIDFORMAT_END
 95
       16
302
GRIDFORMAT
  1
GRIDFORMAT_BEGIN
 90
        0
 91
        1
 62
     0
 92
       -2
340
0
 93
        0
 40
0.045
309
GRIDFORMAT_END
 95
       32
302
GRIDFORMAT
  1
GRIDFORMAT_BEGIN
 90
        0
 91
        1
 62
     0
 92
       -2
340
0
 93
        0
 40
0.045
309
GRIDFORMAT_END
309
TABLEFORMAT_END
  1
CELLSTYLE_BEGIN
 90
        1
 91
        1
300
_TITLE
309
CELLSTYLE_END
300
CELLSTYLE
  1
TABLEFORMAT_BEGIN
 90
        5
170
     1
 91
        0
 92
        0
 62
   257
 93
        1
300
CONTENTFORMAT
  1
CONTENTFORMAT_BEGIN
 90
        0
 91
        0
 92
        4
 93
        0
300

 40
0.0
140
1.0
 94
        5
 62
     0
340
10
144
4.5
309
CONTENTFORMAT_END
171
     1
301
MARGIN
  1
CELLMARGIN_BEGIN
 40
1.5
 40
1.5
 40
1.5
 40
1.5
 40
0.18
 40
0.18
309
CELLMARGIN_END
 94
        6
 95
        1
302
GRIDFORMAT
  1
GRIDFORMAT_BEGIN
 90
        0
 91
        1
 62
     0
 92
       -2
340
0
 93
        0
 40
0.045
309
GRIDFORMAT_END
 95
        2
302
GRIDFORMAT
  1
GRIDFORMAT_BEGIN
 90
        0
 91
        1
 62
     0
 92
       -2
340
0
 93
        0
 40
0.045
309
GRIDFORMAT_END
 95
        4
302
GRIDFORMAT
  1
GRIDFORMAT_BEGIN
 90
        0
 91
        1
 62
     0
 92
       -2
340
0
 93
        0
 40
0.045
309
GRIDFORMAT_END
 95
        8
302
GRIDFORMAT
  1
GRIDFORMAT_BEGIN
 90
        0
 91
        1
 62
     0
 92
       -2
340
0
 93
        0
 40
0.045
309
GRIDFORMAT_END
 95
       16
302
GRIDFORMAT
  1
GRIDFORMAT_BEGIN
 90
        0
 91
        1
 62
     0
 92
       -2
340
0
 93
        0
 40
0.045
309
GRIDFORMAT_END
 95
       32
302
GRIDFORMAT
  1
GRIDFORMAT_BEGIN
 90
        0
 91
        1
 62
     0
 92
       -2
340
0
 93
        0
 40
0.045
309
GRIDFORMAT_END
309
TABLEFORMAT_END
  1
CELLSTYLE_BEGIN
 90
        2
 91
        1
300
_HEADER
309
CELLSTYLE_END
300
CELLSTYLE
  1
TABLEFORMAT_BEGIN
 90
        5
170
     1
 91
        0
 92
        0
 62
   257
 93
        1
300
CONTENTFORMAT
  1
CONTENTFORMAT_BEGIN
 90
        0
 91
        0
 92
        4
 93
        0
300

 40
0.0
140
1.0
 94
        2
 62
     0
340
10
144
4.5
309
CONTENTFORMAT_END
171
     1
301
MARGIN
  1
CELLMARGIN_BEGIN
 40
1.5
 40
1.5
 40
1.5
 40
1.5
 40
0.18
 40
0.18
309
CELLMARGIN_END
 94
        6
 95
        1
302
GRIDFORMAT
  1
GRIDFORMAT_BEGIN
 90
        0
 91
        1
 62
     0
 92
       -2
340
0
 93
        0
 40
0.045
309
GRIDFORMAT_END
 95
        2
302
GRIDFORMAT
  1
GRIDFORMAT_BEGIN
 90
        0
 91
        1
 62
     0
 92
       -2
340
0
 93
        0
 40
0.045
309
GRIDFORMAT_END
 95
        4
302
GRIDFORMAT
  1
GRIDFORMAT_BEGIN
 90
        0
 91
        1
 62
     0
 92
       -2
340
0
 93
        0
 40
0.045
309
GRIDFORMAT_END
 95
        8
302
GRIDFORMAT
  1
GRIDFORMAT_BEGIN
 90
        0
 91
        1
 62
     0
 92
       -2
340
0
 93
        0
 40
0.045
309
GRIDFORMAT_END
 95
       16
302
GRIDFORMAT
  1
GRIDFORMAT_BEGIN
 90
        0
 91
        1
 62
     0
 92
       -2
340
0
 93
        0
 40
0.045
309
GRIDFORMAT_END
 95
       32
302
GRIDFORMAT
  1
GRIDFORMAT_BEGIN
 90
        0
 91
        1
 62
     0
 92
       -2
340
0
 93
        0
 40
0.045
309
GRIDFORMAT_END
309
TABLEFORMAT_END
  1
CELLSTYLE_BEGIN
 90
        3
 91
        2
300
_DATA
309
CELLSTYLE_END
  0
XRECORD
  5
2D464
102
{ACAD_REACTORS
330
444
102
}
330
444
100
AcDbXrecord
280
     1
102
ACAD_ROUNDTRIP_PRE2007_TABLESTYLE
 90
        4
 91
        0
  1

 92
        4
 93
        0
  2

 94
        4
 95
        0
  3

  0
XRECORD
  5
2D470
102
{ACAD_REACTORS
330
2D46F
102
}
330
2D46F
100
AcDbXrecord
280
     1
102
RTVSPost2010Prop28
280
     1
102
RTVSPost2010PropOp28
 70
     1
102
RTVSPost2010Prop29
280
     1
102
RTVSPost2010PropOp29
 70
     1
102
RTVSPost2010Prop30
280
     0
102
RTVSPost2010PropOp30
 70
     1
102
RTVSPost2010Prop31
280
     0
102
RTVSPost2010PropOp31
 70
     1
102
RTVSPost2010Prop32
280
     0
102
RTVSPost2010PropOp32
 70
     1
102
RTVSPost2010Prop33
280
     0
102
RTVSPost2010PropOp33
 70
     1
102
RTVSPost2010Prop34
280
     0
102
RTVSPost2010PropOp34
 70
     1
102
RTVSPost2010Prop35
280
     0
102
RTVSPost2010PropOp35
 70
     1
102
RTVSPost2010Prop36
280
     0
102
RTVSPost2010PropOp36
 70
     1
102
RTVSPost2010Prop37
 90
       50
102
RTVSPost2010PropOp37
 70
     1
102
RTVSPost2010Prop38
140
0.0
102
RTVSPost2010PropOp38
 70
     1
102
RTVSPost2010Prop39
140
1.0
102
RTVSPost2010PropOp39
 70
     1
102
RTVSPost2010Prop40
 90
        0
102
RTVSPost2010PropOp40
 70
     1
102
RTVSPost2010Prop41ColorIndex
 90
       18
102
RTVSPost2010Prop41ColorRGB
 90
        0
102
RTVSPost2010PropOp41
 70
     1
102
RTVSPost2010Prop42
 90
       50
102
RTVSPost2010PropOp42
 70
     1
102
RTVSPost2010Prop43
 90
        3
102
RTVSPost2010PropOp43
 70
     1
102
RTVSPost2010Prop44ColorIndex
 90
        5
102
RTVSPost2010Prop44ColorRGB
 90
      255
102
RTVSPost2010PropOp44
 70
     1
102
RTVSPost2010Prop45
280
     0
102
RTVSPost2010PropOp45
 70
     1
102
RTVSPost2010Prop46
 90
       50
102
RTVSPost2010PropOp46
 70
     1
102
RTVSPost2010Prop47
 90
       50
102
RTVSPost2010PropOp47
 70
     1
102
RTVSPost2010Prop48
 90
       50
102
RTVSPost2010PropOp48
 70
     1
102
RTVSPost2010Prop49
280
     0
102
RTVSPost2010PropOp49
 70
     1
102
RTVSPost2010Prop50
 90
       50
102
RTVSPost2010PropOp50
 70
     1
102
RTVSPost2010Prop51ColorIndex
 90
      256
102
RTVSPost2010Prop51ColorRGB
 90
-16777216
102
RTVSPost2010PropOp51
 70
     0
102
RTVSPost2010Prop52
140
1.0
102
RTVSPost2010PropOp52
 70
     0
102
RTVSPost2010Prop53
 90
        2
102
RTVSPost2010PropOp53
 70
     1
102
RTVSPost2010Prop54
  1
strokes_ogs.tif
102
RTVSPost2010PropOp54
 70
     1
102
RTVSPost2010Prop55
280
     0
102
RTVSPost2010PropOp55
 70
     1
102
RTVSPost2010Prop56
140
1.0
102
RTVSPost2010PropOp56
 70
     1
102
RTVSPost2010Prop57
140
1.0
102
RTVSPost2010PropOp57
 70
     1
102
RTVSPropertyOp0
 70
     1
102
RTVSPropertyOp1
 70
     1
102
RTVSPropertyOp2
 70
     1
102
RTVSPropertyOp3
 70
     1
102
RTVSPropertyOp4
 70
     1
102
RTVSPropertyOp5
 70
     1
102
RTVSPropertyOp6
 70
     1
102
RTVSPropertyOp7
 70
     1
102
RTVSPropertyOp8
 70
     1
102
RTVSPropertyOp9
 70
     1
102
RTVSPropertyOp10
 70
     1
102
RTVSPropertyOp11
 70
     1
102
RTVSPropertyOp12
 70
     1
102
RTVSPropertyOp13
 70
     1
102
RTVSPropertyOp14
 70
     1
102
RTVSPropertyOp15
 70
     1
102
RTVSPropertyOp16
 70
     1
102
RTVSPropertyOp17
 70
     1
102
RTVSPropertyOp18
 70
     1
102
RTVSPropertyOp19
 70
     1
102
RTVSPropertyOp20
 70
     1
102
RTVSPropertyOp21
 70
     1
102
RTVSPropertyOp22
 70
     1
102
RTVSPropertyOp23
 70
     1
102
RTVSPropertyOp24
 70
     1
102
RTVSPropertyOp25
 70
     1
102
RTVSPropertyOp26
 70
     1
102
RTVSPropertyOp27
 70
     1
102
RTVSPropertyOp28
 70
     1
102
RTVSPropertyOp29
 70
     1
102
RTVSPropertyOp30
 70
     1
102
RTVSPropertyOp31
 70
     1
102
RTVSPropertyOp32
 70
     1
102
RTVSPropertyOp33
 70
     1
102
RTVSPropertyOp34
 70
     1
102
RTVSPropertyOp35
 70
     1
102
RTVSPropertyOp36
 70
     1
102
RTVSPropertyOp37
 70
     1
102
RTVSPropertyOp38
 70
     1
102
RTVSPropertyOp39
 70
     1
102
RTVSPropertyOp40
 70
     1
102
RTVSPropertyOp41
 70
     1
102
RTVSPropertyOp42
 70
     1
102
RTVSPropertyOp43
 70
     1
102
RTVSPropertyOp44
 70
     1
102
RTVSPropertyOp45
 70
     1
102
RTVSPropertyOp46
 70
     1
102
RTVSPropertyOp47
 70
     1
102
RTVSPropertyOp48
 70
     1
102
RTVSPropertyOp49
 70
     1
102
RTVSPropertyOp50
 70
     1
102
RTVSPropertyOp51
 70
     0
102
RTVSPropertyOp52
 70
     0
102
RTVSPropertyOp53
 70
     1
102
RTVSPropertyOp54
 70
     1
102
RTVSPropertyOp55
 70
     1
102
RTVSPropertyOp56
 70
     1
102
RTVSPropertyOp57
 70
     1
102
RTVSPropertyOp58
 70
     1
102
RTVSPropertyOp59
 70
     1
102
RTVSPropertyOp60
 70
     1
102
RTVSPropertyOp61
 70
     1
102
RTVSPropertyOp62
 70
     1
  0
XRECORD
  5
2D474
102
{ACAD_REACTORS
330
2D473
102
}
330
2D473
100
AcDbXrecord
280
     1
102
RTVSPost2010Prop28
280
     0
102
RTVSPost2010PropOp28
 70
     1
102
RTVSPost2010Prop29
280
     1
102
RTVSPost2010PropOp29
 70
     1
102
RTVSPost2010Prop30
280
     1
102
RTVSPost2010PropOp30
 70
     1
102
RTVSPost2010Prop31
280
     0
102
RTVSPost2010PropOp31
 70
     1
102
RTVSPost2010Prop32
280
     0
102
RTVSPost2010PropOp32
 70
     1
102
RTVSPost2010Prop33
280
     0
102
RTVSPost2010PropOp33
 70
     1
102
RTVSPost2010Prop34
280
     0
102
RTVSPost2010PropOp34
 70
     1
102
RTVSPost2010Prop35
280
     0
102
RTVSPost2010PropOp35
 70
     1
102
RTVSPost2010Prop36
280
     0
102
RTVSPost2010PropOp36
 70
     1
102
RTVSPost2010Prop37
 90
       50
102
RTVSPost2010PropOp37
 70
     1
102
RTVSPost2010Prop38
140
0.0
102
RTVSPost2010PropOp38
 70
     1
102
RTVSPost2010Prop39
140
1.0
102
RTVSPost2010PropOp39
 70
     1
102
RTVSPost2010Prop40
 90
        0
102
RTVSPost2010PropOp40
 70
     1
102
RTVSPost2010Prop41ColorIndex
 90
       18
102
RTVSPost2010Prop41ColorRGB
 90
        0
102
RTVSPost2010PropOp41
 70
     1
102
RTVSPost2010Prop42
 90
       50
102
RTVSPost2010PropOp42
 70
     1
102
RTVSPost2010Prop43
 90
        3
102
RTVSPost2010PropOp43
 70
     1
102
RTVSPost2010Prop44ColorIndex
 90
        5
102
RTVSPost2010Prop44ColorRGB
 90
      255
102
RTVSPost2010PropOp44
 70
     1
102
RTVSPost2010Prop45
280
     0
102
RTVSPost2010PropOp45
 70
     1
102
RTVSPost2010Prop46
 90
       50
102
RTVSPost2010PropOp46
 70
     1
102
RTVSPost2010Prop47
 90
       50
102
RTVSPost2010PropOp47
 70
     1
102
RTVSPost2010Prop48
 90
       50
102
RTVSPost2010PropOp48
 70
     1
102
RTVSPost2010Prop49
280
     0
102
RTVSPost2010PropOp49
 70
     1
102
RTVSPost2010Prop50
 90
       50
102
RTVSPost2010PropOp50
 70
     1
102
RTVSPost2010Prop51ColorIndex
 90
      256
102
RTVSPost2010Prop51ColorRGB
 90
-16777216
102
RTVSPost2010PropOp51
 70
     0
102
RTVSPost2010Prop52
140
1.0
102
RTVSPost2010PropOp52
 70
     0
102
RTVSPost2010Prop53
 90
        2
102
RTVSPost2010PropOp53
 70
     1
102
RTVSPost2010Prop54
  1
strokes_ogs.tif
102
RTVSPost2010PropOp54
 70
     1
102
RTVSPost2010Prop55
280
     0
102
RTVSPost2010PropOp55
 70
     1
102
RTVSPost2010Prop56
140
1.0
102
RTVSPost2010PropOp56
 70
     1
102
RTVSPost2010Prop57
140
1.0
102
RTVSPost2010PropOp57
 70
     1
102
RTVSPropertyOp0
 70
     1
102
RTVSPropertyOp1
 70
     1
102
RTVSPropertyOp2
 70
     1
102
RTVSPropertyOp3
 70
     1
102
RTVSPropertyOp4
 70
     1
102
RTVSPropertyOp5
 70
     1
102
RTVSPropertyOp6
 70
     1
102
RTVSPropertyOp7
 70
     1
102
RTVSPropertyOp8
 70
     1
102
RTVSPropertyOp9
 70
     1
102
RTVSPropertyOp10
 70
     1
102
RTVSPropertyOp11
 70
     1
102
RTVSPropertyOp12
 70
     1
102
RTVSPropertyOp13
 70
     1
102
RTVSPropertyOp14
 70
     1
102
RTVSPropertyOp15
 70
     1
102
RTVSPropertyOp16
 70
     1
102
RTVSPropertyOp17
 70
     1
102
RTVSPropertyOp18
 70
     1
102
RTVSPropertyOp19
 70
     1
102
RTVSPropertyOp20
 70
     1
102
RTVSPropertyOp21
 70
     1
102
RTVSPropertyOp22
 70
     1
102
RTVSPropertyOp23
 70
     1
102
RTVSPropertyOp24
 70
     1
102
RTVSPropertyOp25
 70
     1
102
RTVSPropertyOp26
 70
     1
102
RTVSPropertyOp27
 70
     1
102
RTVSPropertyOp28
 70
     1
102
RTVSPropertyOp29
 70
     1
102
RTVSPropertyOp30
 70
     1
102
RTVSPropertyOp31
 70
     1
102
RTVSPropertyOp32
 70
     1
102
RTVSPropertyOp33
 70
     1
102
RTVSPropertyOp34
 70
     1
102
RTVSPropertyOp35
 70
     1
102
RTVSPropertyOp36
 70
     1
102
RTVSPropertyOp37
 70
     1
102
RTVSPropertyOp38
 70
     1
102
RTVSPropertyOp39
 70
     1
102
RTVSPropertyOp40
 70
     1
102
RTVSPropertyOp41
 70
     1
102
RTVSPropertyOp42
 70
     1
102
RTVSPropertyOp43
 70
     1
102
RTVSPropertyOp44
 70
     1
102
RTVSPropertyOp45
 70
     1
102
RTVSPropertyOp46
 70
     1
102
RTVSPropertyOp47
 70
     1
102
RTVSPropertyOp48
 70
     1
102
RTVSPropertyOp49
 70
     1
102
RTVSPropertyOp50
 70
     1
102
RTVSPropertyOp51
 70
     0
102
RTVSPropertyOp52
 70
     0
102
RTVSPropertyOp53
 70
     1
102
RTVSPropertyOp54
 70
     1
102
RTVSPropertyOp55
 70
     1
102
RTVSPropertyOp56
 70
     1
102
RTVSPropertyOp57
 70
     1
102
RTVSPropertyOp58
 70
     1
102
RTVSPropertyOp59
 70
     1
102
RTVSPropertyOp60
 70
     1
102
RTVSPropertyOp61
 70
     1
102
RTVSPropertyOp62
 70
     1
  0
XRECORD
  5
2D472
102
{ACAD_REACTORS
330
2D471
102
}
330
2D471
100
AcDbXrecord
280
     1
102
RTVSPost2010Prop28
280
     0
102
RTVSPost2010PropOp28
 70
     1
102
RTVSPost2010Prop29
280
     1
102
RTVSPost2010PropOp29
 70
     1
102
RTVSPost2010Prop30
280
     1
102
RTVSPost2010PropOp30
 70
     1
102
RTVSPost2010Prop31
280
     0
102
RTVSPost2010PropOp31
 70
     1
102
RTVSPost2010Prop32
280
     0
102
RTVSPost2010PropOp32
 70
     1
102
RTVSPost2010Prop33
280
     0
102
RTVSPost2010PropOp33
 70
     1
102
RTVSPost2010Prop34
280
     0
102
RTVSPost2010PropOp34
 70
     1
102
RTVSPost2010Prop35
280
     0
102
RTVSPost2010PropOp35
 70
     1
102
RTVSPost2010Prop36
280
     0
102
RTVSPost2010PropOp36
 70
     1
102
RTVSPost2010Prop37
 90
       50
102
RTVSPost2010PropOp37
 70
     1
102
RTVSPost2010Prop38
140
0.0
102
RTVSPost2010PropOp38
 70
     1
102
RTVSPost2010Prop39
140
1.0
102
RTVSPost2010PropOp39
 70
     1
102
RTVSPost2010Prop40
 90
        0
102
RTVSPost2010PropOp40
 70
     1
102
RTVSPost2010Prop41ColorIndex
 90
       18
102
RTVSPost2010Prop41ColorRGB
 90
        0
102
RTVSPost2010PropOp41
 70
     1
102
RTVSPost2010Prop42
 90
       50
102
RTVSPost2010PropOp42
 70
     1
102
RTVSPost2010Prop43
 90
        3
102
RTVSPost2010PropOp43
 70
     1
102
RTVSPost2010Prop44ColorIndex
 90
        5
102
RTVSPost2010Prop44ColorRGB
 90
      255
102
RTVSPost2010PropOp44
 70
     1
102
RTVSPost2010Prop45
280
     0
102
RTVSPost2010PropOp45
 70
     1
102
RTVSPost2010Prop46
 90
       50
102
RTVSPost2010PropOp46
 70
     1
102
RTVSPost2010Prop47
 90
       50
102
RTVSPost2010PropOp47
 70
     1
102
RTVSPost2010Prop48
 90
       50
102
RTVSPost2010PropOp48
 70
     1
102
RTVSPost2010Prop49
280
     0
102
RTVSPost2010PropOp49
 70
     1
102
RTVSPost2010Prop50
 90
       50
102
RTVSPost2010PropOp50
 70
     1
102
RTVSPost2010Prop51ColorIndex
 90
      256
102
RTVSPost2010Prop51ColorRGB
 90
-16777216
102
RTVSPost2010PropOp51
 70
     0
102
RTVSPost2010Prop52
140
1.0
102
RTVSPost2010PropOp52
 70
     0
102
RTVSPost2010Prop53
 90
        2
102
RTVSPost2010PropOp53
 70
     1
102
RTVSPost2010Prop54
  1
strokes_ogs.tif
102
RTVSPost2010PropOp54
 70
     1
102
RTVSPost2010Prop55
280
     0
102
RTVSPost2010PropOp55
 70
     1
102
RTVSPost2010Prop56
140
1.0
102
RTVSPost2010PropOp56
 70
     1
102
RTVSPost2010Prop57
140
1.0
102
RTVSPost2010PropOp57
 70
     1
102
RTVSPropertyOp0
 70
     1
102
RTVSPropertyOp1
 70
     1
102
RTVSPropertyOp2
 70
     1
102
RTVSPropertyOp3
 70
     1
102
RTVSPropertyOp4
 70
     1
102
RTVSPropertyOp5
 70
     1
102
RTVSPropertyOp6
 70
     1
102
RTVSPropertyOp7
 70
     1
102
RTVSPropertyOp8
 70
     1
102
RTVSPropertyOp9
 70
     1
102
RTVSPropertyOp10
 70
     1
102
RTVSPropertyOp11
 70
     1
102
RTVSPropertyOp12
 70
     1
102
RTVSPropertyOp13
 70
     1
102
RTVSPropertyOp14
 70
     1
102
RTVSPropertyOp15
 70
     1
102
RTVSPropertyOp16
 70
     1
102
RTVSPropertyOp17
 70
     1
102
RTVSPropertyOp18
 70
     1
102
RTVSPropertyOp19
 70
     1
102
RTVSPropertyOp20
 70
     1
102
RTVSPropertyOp21
 70
     1
102
RTVSPropertyOp22
 70
     1
102
RTVSPropertyOp23
 70
     1
102
RTVSPropertyOp24
 70
     1
102
RTVSPropertyOp25
 70
     1
102
RTVSPropertyOp26
 70
     1
102
RTVSPropertyOp27
 70
     1
102
RTVSPropertyOp28
 70
     1
102
RTVSPropertyOp29
 70
     1
102
RTVSPropertyOp30
 70
     1
102
RTVSPropertyOp31
 70
     1
102
RTVSPropertyOp32
 70
     1
102
RTVSPropertyOp33
 70
     1
102
RTVSPropertyOp34
 70
     1
102
RTVSPropertyOp35
 70
     1
102
RTVSPropertyOp36
 70
     1
102
RTVSPropertyOp37
 70
     1
102
RTVSPropertyOp38
 70
     1
102
RTVSPropertyOp39
 70
     1
102
RTVSPropertyOp40
 70
     1
102
RTVSPropertyOp41
 70
     1
102
RTVSPropertyOp42
 70
     1
102
RTVSPropertyOp43
 70
     1
102
RTVSPropertyOp44
 70
     1
102
RTVSPropertyOp45
 70
     1
102
RTVSPropertyOp46
 70
     1
102
RTVSPropertyOp47
 70
     1
102
RTVSPropertyOp48
 70
     1
102
RTVSPropertyOp49
 70
     1
102
RTVSPropertyOp50
 70
     1
102
RTVSPropertyOp51
 70
     0
102
RTVSPropertyOp52
 70
     0
102
RTVSPropertyOp53
 70
     1
102
RTVSPropertyOp54
 70
     1
102
RTVSPropertyOp55
 70
     1
102
RTVSPropertyOp56
 70
     1
102
RTVSPropertyOp57
 70
     1
102
RTVSPropertyOp58
 70
     1
102
RTVSPropertyOp59
 70
     1
102
RTVSPropertyOp60
 70
     1
102
RTVSPropertyOp61
 70
     1
102
RTVSPropertyOp62
 70
     1
  0
XRECORD
  5
2D46E
102
{ACAD_REACTORS
330
2D46D
102
}
330
2D46D
100
AcDbXrecord
280
     1
102
RTVSPost2010Prop28
280
     0
102
RTVSPost2010PropOp28
 70
     1
102
RTVSPost2010Prop29
280
     1
102
RTVSPost2010PropOp29
 70
     1
102
RTVSPost2010Prop30
280
     1
102
RTVSPost2010PropOp30
 70
     1
102
RTVSPost2010Prop31
280
     0
102
RTVSPost2010PropOp31
 70
     1
102
RTVSPost2010Prop32
280
     0
102
RTVSPost2010PropOp32
 70
     1
102
RTVSPost2010Prop33
280
     0
102
RTVSPost2010PropOp33
 70
     1
102
RTVSPost2010Prop34
280
     0
102
RTVSPost2010PropOp34
 70
     1
102
RTVSPost2010Prop35
280
     0
102
RTVSPost2010PropOp35
 70
     1
102
RTVSPost2010Prop36
280
     0
102
RTVSPost2010PropOp36
 70
     1
102
RTVSPost2010Prop37
 90
       50
102
RTVSPost2010PropOp37
 70
     1
102
RTVSPost2010Prop38
140
0.0
102
RTVSPost2010PropOp38
 70
     1
102
RTVSPost2010Prop39
140
1.0
102
RTVSPost2010PropOp39
 70
     1
102
RTVSPost2010Prop40
 90
        0
102
RTVSPost2010PropOp40
 70
     1
102
RTVSPost2010Prop41ColorIndex
 90
       18
102
RTVSPost2010Prop41ColorRGB
 90
        0
102
RTVSPost2010PropOp41
 70
     1
102
RTVSPost2010Prop42
 90
       50
102
RTVSPost2010PropOp42
 70
     1
102
RTVSPost2010Prop43
 90
        3
102
RTVSPost2010PropOp43
 70
     1
102
RTVSPost2010Prop44ColorIndex
 90
        5
102
RTVSPost2010Prop44ColorRGB
 90
      255
102
RTVSPost2010PropOp44
 70
     1
102
RTVSPost2010Prop45
280
     0
102
RTVSPost2010PropOp45
 70
     1
102
RTVSPost2010Prop46
 90
       50
102
RTVSPost2010PropOp46
 70
     1
102
RTVSPost2010Prop47
 90
       50
102
RTVSPost2010PropOp47
 70
     1
102
RTVSPost2010Prop48
 90
       50
102
RTVSPost2010PropOp48
 70
     1
102
RTVSPost2010Prop49
280
     0
102
RTVSPost2010PropOp49
 70
     1
102
RTVSPost2010Prop50
 90
       50
102
RTVSPost2010PropOp50
 70
     1
102
RTVSPost2010Prop51ColorIndex
 90
      256
102
RTVSPost2010Prop51ColorRGB
 90
-16777216
102
RTVSPost2010PropOp51
 70
     0
102
RTVSPost2010Prop52
140
1.0
102
RTVSPost2010PropOp52
 70
     0
102
RTVSPost2010Prop53
 90
        2
102
RTVSPost2010PropOp53
 70
     1
102
RTVSPost2010Prop54
  1
strokes_ogs.tif
102
RTVSPost2010PropOp54
 70
     1
102
RTVSPost2010Prop55
280
     0
102
RTVSPost2010PropOp55
 70
     1
102
RTVSPost2010Prop56
140
1.0
102
RTVSPost2010PropOp56
 70
     1
102
RTVSPost2010Prop57
140
1.0
102
RTVSPost2010PropOp57
 70
     1
102
RTVSPropertyOp0
 70
     1
102
RTVSPropertyOp1
 70
     1
102
RTVSPropertyOp2
 70
     1
102
RTVSPropertyOp3
 70
     1
102
RTVSPropertyOp4
 70
     1
102
RTVSPropertyOp5
 70
     1
102
RTVSPropertyOp6
 70
     1
102
RTVSPropertyOp7
 70
     1
102
RTVSPropertyOp8
 70
     1
102
RTVSPropertyOp9
 70
     1
102
RTVSPropertyOp10
 70
     1
102
RTVSPropertyOp11
 70
     1
102
RTVSPropertyOp12
 70
     1
102
RTVSPropertyOp13
 70
     1
102
RTVSPropertyOp14
 70
     1
102
RTVSPropertyOp15
 70
     1
102
RTVSPropertyOp16
 70
     1
102
RTVSPropertyOp17
 70
     1
102
RTVSPropertyOp18
 70
     1
102
RTVSPropertyOp19
 70
     1
102
RTVSPropertyOp20
 70
     1
102
RTVSPropertyOp21
 70
     1
102
RTVSPropertyOp22
 70
     1
102
RTVSPropertyOp23
 70
     1
102
RTVSPropertyOp24
 70
     1
102
RTVSPropertyOp25
 70
     1
102
RTVSPropertyOp26
 70
     1
102
RTVSPropertyOp27
 70
     1
102
RTVSPropertyOp28
 70
     1
102
RTVSPropertyOp29
 70
     1
102
RTVSPropertyOp30
 70
     1
102
RTVSPropertyOp31
 70
     1
102
RTVSPropertyOp32
 70
     1
102
RTVSPropertyOp33
 70
     1
102
RTVSPropertyOp34
 70
     1
102
RTVSPropertyOp35
 70
     1
102
RTVSPropertyOp36
 70
     1
102
RTVSPropertyOp37
 70
     1
102
RTVSPropertyOp38
 70
     1
102
RTVSPropertyOp39
 70
     1
102
RTVSPropertyOp40
 70
     1
102
RTVSPropertyOp41
 70
     1
102
RTVSPropertyOp42
 70
     1
102
RTVSPropertyOp43
 70
     1
102
RTVSPropertyOp44
 70
     1
102
RTVSPropertyOp45
 70
     1
102
RTVSPropertyOp46
 70
     1
102
RTVSPropertyOp47
 70
     1
102
RTVSPropertyOp48
 70
     1
102
RTVSPropertyOp49
 70
     1
102
RTVSPropertyOp50
 70
     1
102
RTVSPropertyOp51
 70
     0
102
RTVSPropertyOp52
 70
     0
102
RTVSPropertyOp53
 70
     1
102
RTVSPropertyOp54
 70
     1
102
RTVSPropertyOp55
 70
     1
102
RTVSPropertyOp56
 70
     1
102
RTVSPropertyOp57
 70
     1
102
RTVSPropertyOp58
 70
     1
102
RTVSPropertyOp59
 70
     1
102
RTVSPropertyOp60
 70
     1
102
RTVSPropertyOp61
 70
     1
102
RTVSPropertyOp62
 70
     1
  0
XRECORD
  5
2D47C
102
{ACAD_REACTORS
330
2D47B
102
}
330
2D47B
100
AcDbXrecord
280
     1
102
RTVSPost2010Prop28
280
     0
102
RTVSPost2010PropOp28
 70
     1
102
RTVSPost2010Prop29
280
     1
102
RTVSPost2010PropOp29
 70
     1
102
RTVSPost2010Prop30
280
     1
102
RTVSPost2010PropOp30
 70
     1
102
RTVSPost2010Prop31
280
     0
102
RTVSPost2010PropOp31
 70
     1
102
RTVSPost2010Prop32
280
     0
102
RTVSPost2010PropOp32
 70
     1
102
RTVSPost2010Prop33
280
     0
102
RTVSPost2010PropOp33
 70
     1
102
RTVSPost2010Prop34
280
     0
102
RTVSPost2010PropOp34
 70
     1
102
RTVSPost2010Prop35
280
     0
102
RTVSPost2010PropOp35
 70
     1
102
RTVSPost2010Prop36
280
     0
102
RTVSPost2010PropOp36
 70
     1
102
RTVSPost2010Prop37
 90
       50
102
RTVSPost2010PropOp37
 70
     1
102
RTVSPost2010Prop38
140
0.0
102
RTVSPost2010PropOp38
 70
     1
102
RTVSPost2010Prop39
140
1.0
102
RTVSPost2010PropOp39
 70
     1
102
RTVSPost2010Prop40
 90
        0
102
RTVSPost2010PropOp40
 70
     1
102
RTVSPost2010Prop41ColorIndex
 90
       18
102
RTVSPost2010Prop41ColorRGB
 90
        0
102
RTVSPost2010PropOp41
 70
     1
102
RTVSPost2010Prop42
 90
       50
102
RTVSPost2010PropOp42
 70
     1
102
RTVSPost2010Prop43
 90
        3
102
RTVSPost2010PropOp43
 70
     1
102
RTVSPost2010Prop44ColorIndex
 90
        5
102
RTVSPost2010Prop44ColorRGB
 90
      255
102
RTVSPost2010PropOp44
 70
     1
102
RTVSPost2010Prop45
280
     0
102
RTVSPost2010PropOp45
 70
     1
102
RTVSPost2010Prop46
 90
       50
102
RTVSPost2010PropOp46
 70
     1
102
RTVSPost2010Prop47
 90
       50
102
RTVSPost2010PropOp47
 70
     1
102
RTVSPost2010Prop48
 90
       50
102
RTVSPost2010PropOp48
 70
     1
102
RTVSPost2010Prop49
280
     0
102
RTVSPost2010PropOp49
 70
     1
102
RTVSPost2010Prop50
 90
       50
102
RTVSPost2010PropOp50
 70
     1
102
RTVSPost2010Prop51ColorIndex
 90
      256
102
RTVSPost2010Prop51ColorRGB
 90
-16777216
102
RTVSPost2010PropOp51
 70
     0
102
RTVSPost2010Prop52
140
1.0
102
RTVSPost2010PropOp52
 70
     0
102
RTVSPost2010Prop53
 90
        2
102
RTVSPost2010PropOp53
 70
     1
102
RTVSPost2010Prop54
  1
strokes_ogs.tif
102
RTVSPost2010PropOp54
 70
     1
102
RTVSPost2010Prop55
280
     0
102
RTVSPost2010PropOp55
 70
     1
102
RTVSPost2010Prop56
140
1.0
102
RTVSPost2010PropOp56
 70
     1
102
RTVSPost2010Prop57
140
1.0
102
RTVSPost2010PropOp57
 70
     1
102
RTVSPropertyOp0
 70
     1
102
RTVSPropertyOp1
 70
     1
102
RTVSPropertyOp2
 70
     1
102
RTVSPropertyOp3
 70
     1
102
RTVSPropertyOp4
 70
     1
102
RTVSPropertyOp5
 70
     1
102
RTVSPropertyOp6
 70
     1
102
RTVSPropertyOp7
 70
     1
102
RTVSPropertyOp8
 70
     1
102
RTVSPropertyOp9
 70
     1
102
RTVSPropertyOp10
 70
     1
102
RTVSPropertyOp11
 70
     1
102
RTVSPropertyOp12
 70
     1
102
RTVSPropertyOp13
 70
     1
102
RTVSPropertyOp14
 70
     1
102
RTVSPropertyOp15
 70
     1
102
RTVSPropertyOp16
 70
     1
102
RTVSPropertyOp17
 70
     1
102
RTVSPropertyOp18
 70
     1
102
RTVSPropertyOp19
 70
     1
102
RTVSPropertyOp20
 70
     1
102
RTVSPropertyOp21
 70
     1
102
RTVSPropertyOp22
 70
     1
102
RTVSPropertyOp23
 70
     1
102
RTVSPropertyOp24
 70
     1
102
RTVSPropertyOp25
 70
     1
102
RTVSPropertyOp26
 70
     1
102
RTVSPropertyOp27
 70
     1
102
RTVSPropertyOp28
 70
     1
102
RTVSPropertyOp29
 70
     1
102
RTVSPropertyOp30
 70
     1
102
RTVSPropertyOp31
 70
     1
102
RTVSPropertyOp32
 70
     1
102
RTVSPropertyOp33
 70
     1
102
RTVSPropertyOp34
 70
     1
102
RTVSPropertyOp35
 70
     1
102
RTVSPropertyOp36
 70
     1
102
RTVSPropertyOp37
 70
     1
102
RTVSPropertyOp38
 70
     1
102
RTVSPropertyOp39
 70
     1
102
RTVSPropertyOp40
 70
     1
102
RTVSPropertyOp41
 70
     1
102
RTVSPropertyOp42
 70
     1
102
RTVSPropertyOp43
 70
     1
102
RTVSPropertyOp44
 70
     1
102
RTVSPropertyOp45
 70
     1
102
RTVSPropertyOp46
 70
     1
102
RTVSPropertyOp47
 70
     1
102
RTVSPropertyOp48
 70
     1
102
RTVSPropertyOp49
 70
     1
102
RTVSPropertyOp50
 70
     1
102
RTVSPropertyOp51
 70
     0
102
RTVSPropertyOp52
 70
     0
102
RTVSPropertyOp53
 70
     1
102
RTVSPropertyOp54
 70
     1
102
RTVSPropertyOp55
 70
     1
102
RTVSPropertyOp56
 70
     1
102
RTVSPropertyOp57
 70
     1
102
RTVSPropertyOp58
 70
     1
102
RTVSPropertyOp59
 70
     1
102
RTVSPropertyOp60
 70
     1
102
RTVSPropertyOp61
 70
     1
102
RTVSPropertyOp62
 70
     1
  0
XRECORD
  5
2D484
102
{ACAD_REACTORS
330
2D483
102
}
330
2D483
100
AcDbXrecord
280
     1
102
RTVSPost2010Prop28
280
     0
102
RTVSPost2010PropOp28
 70
     1
102
RTVSPost2010Prop29
280
     1
102
RTVSPost2010PropOp29
 70
     1
102
RTVSPost2010Prop30
280
     1
102
RTVSPost2010PropOp30
 70
     1
102
RTVSPost2010Prop31
280
     0
102
RTVSPost2010PropOp31
 70
     1
102
RTVSPost2010Prop32
280
     0
102
RTVSPost2010PropOp32
 70
     1
102
RTVSPost2010Prop33
280
     0
102
RTVSPost2010PropOp33
 70
     1
102
RTVSPost2010Prop34
280
     0
102
RTVSPost2010PropOp34
 70
     1
102
RTVSPost2010Prop35
280
     0
102
RTVSPost2010PropOp35
 70
     1
102
RTVSPost2010Prop36
280
     0
102
RTVSPost2010PropOp36
 70
     1
102
RTVSPost2010Prop37
 90
       50
102
RTVSPost2010PropOp37
 70
     1
102
RTVSPost2010Prop38
140
0.0
102
RTVSPost2010PropOp38
 70
     1
102
RTVSPost2010Prop39
140
1.0
102
RTVSPost2010PropOp39
 70
     1
102
RTVSPost2010Prop40
 90
        0
102
RTVSPost2010PropOp40
 70
     1
102
RTVSPost2010Prop41ColorIndex
 90
       18
102
RTVSPost2010Prop41ColorRGB
 90
        0
102
RTVSPost2010PropOp41
 70
     1
102
RTVSPost2010Prop42
 90
       50
102
RTVSPost2010PropOp42
 70
     1
102
RTVSPost2010Prop43
 90
        3
102
RTVSPost2010PropOp43
 70
     1
102
RTVSPost2010Prop44ColorIndex
 90
        5
102
RTVSPost2010Prop44ColorRGB
 90
      255
102
RTVSPost2010PropOp44
 70
     1
102
RTVSPost2010Prop45
280
     0
102
RTVSPost2010PropOp45
 70
     1
102
RTVSPost2010Prop46
 90
       50
102
RTVSPost2010PropOp46
 70
     1
102
RTVSPost2010Prop47
 90
       50
102
RTVSPost2010PropOp47
 70
     1
102
RTVSPost2010Prop48
 90
       50
102
RTVSPost2010PropOp48
 70
     1
102
RTVSPost2010Prop49
280
     0
102
RTVSPost2010PropOp49
 70
     1
102
RTVSPost2010Prop50
 90
       50
102
RTVSPost2010PropOp50
 70
     1
102
RTVSPost2010Prop51ColorIndex
 90
      256
102
RTVSPost2010Prop51ColorRGB
 90
-16777216
102
RTVSPost2010PropOp51
 70
     0
102
RTVSPost2010Prop52
140
1.0
102
RTVSPost2010PropOp52
 70
     0
102
RTVSPost2010Prop53
 90
        2
102
RTVSPost2010PropOp53
 70
     1
102
RTVSPost2010Prop54
  1
strokes_ogs.tif
102
RTVSPost2010PropOp54
 70
     1
102
RTVSPost2010Prop55
280
     0
102
RTVSPost2010PropOp55
 70
     1
102
RTVSPost2010Prop56
140
1.0
102
RTVSPost2010PropOp56
 70
     1
102
RTVSPost2010Prop57
140
1.0
102
RTVSPost2010PropOp57
 70
     1
102
RTVSPropertyOp0
 70
     1
102
RTVSPropertyOp1
 70
     1
102
RTVSPropertyOp2
 70
     1
102
RTVSPropertyOp3
 70
     1
102
RTVSPropertyOp4
 70
     1
102
RTVSPropertyOp5
 70
     1
102
RTVSPropertyOp6
 70
     1
102
RTVSPropertyOp7
 70
     1
102
RTVSPropertyOp8
 70
     1
102
RTVSPropertyOp9
 70
     1
102
RTVSPropertyOp10
 70
     1
102
RTVSPropertyOp11
 70
     1
102
RTVSPropertyOp12
 70
     1
102
RTVSPropertyOp13
 70
     1
102
RTVSPropertyOp14
 70
     1
102
RTVSPropertyOp15
 70
     1
102
RTVSPropertyOp16
 70
     1
102
RTVSPropertyOp17
 70
     1
102
RTVSPropertyOp18
 70
     1
102
RTVSPropertyOp19
 70
     1
102
RTVSPropertyOp20
 70
     1
102
RTVSPropertyOp21
 70
     1
102
RTVSPropertyOp22
 70
     1
102
RTVSPropertyOp23
 70
     1
102
RTVSPropertyOp24
 70
     1
102
RTVSPropertyOp25
 70
     1
102
RTVSPropertyOp26
 70
     1
102
RTVSPropertyOp27
 70
     1
102
RTVSPropertyOp28
 70
     1
102
RTVSPropertyOp29
 70
     1
102
RTVSPropertyOp30
 70
     1
102
RTVSPropertyOp31
 70
     1
102
RTVSPropertyOp32
 70
     1
102
RTVSPropertyOp33
 70
     1
102
RTVSPropertyOp34
 70
     1
102
RTVSPropertyOp35
 70
     1
102
RTVSPropertyOp36
 70
     1
102
RTVSPropertyOp37
 70
     1
102
RTVSPropertyOp38
 70
     1
102
RTVSPropertyOp39
 70
     1
102
RTVSPropertyOp40
 70
     1
102
RTVSPropertyOp41
 70
     1
102
RTVSPropertyOp42
 70
     1
102
RTVSPropertyOp43
 70
     1
102
RTVSPropertyOp44
 70
     1
102
RTVSPropertyOp45
 70
     1
102
RTVSPropertyOp46
 70
     1
102
RTVSPropertyOp47
 70
     1
102
RTVSPropertyOp48
 70
     1
102
RTVSPropertyOp49
 70
     1
102
RTVSPropertyOp50
 70
     1
102
RTVSPropertyOp51
 70
     0
102
RTVSPropertyOp52
 70
     0
102
RTVSPropertyOp53
 70
     1
102
RTVSPropertyOp54
 70
     1
102
RTVSPropertyOp55
 70
     1
102
RTVSPropertyOp56
 70
     1
102
RTVSPropertyOp57
 70
     1
102
RTVSPropertyOp58
 70
     1
102
RTVSPropertyOp59
 70
     1
102
RTVSPropertyOp60
 70
     1
102
RTVSPropertyOp61
 70
     1
102
RTVSPropertyOp62
 70
     1
  0
XRECORD
  5
2D476
102
{ACAD_REACTORS
330
2D475
102
}
330
2D475
100
AcDbXrecord
280
     1
102
RTVSPost2010Prop28
280
     0
102
RTVSPost2010PropOp28
 70
     1
102
RTVSPost2010Prop29
280
     1
102
RTVSPost2010PropOp29
 70
     1
102
RTVSPost2010Prop30
280
     1
102
RTVSPost2010PropOp30
 70
     1
102
RTVSPost2010Prop31
280
     0
102
RTVSPost2010PropOp31
 70
     1
102
RTVSPost2010Prop32
280
     0
102
RTVSPost2010PropOp32
 70
     1
102
RTVSPost2010Prop33
280
     0
102
RTVSPost2010PropOp33
 70
     1
102
RTVSPost2010Prop34
280
     0
102
RTVSPost2010PropOp34
 70
     1
102
RTVSPost2010Prop35
280
     0
102
RTVSPost2010PropOp35
 70
     1
102
RTVSPost2010Prop36
280
     0
102
RTVSPost2010PropOp36
 70
     1
102
RTVSPost2010Prop37
 90
       50
102
RTVSPost2010PropOp37
 70
     1
102
RTVSPost2010Prop38
140
0.0
102
RTVSPost2010PropOp38
 70
     1
102
RTVSPost2010Prop39
140
1.0
102
RTVSPost2010PropOp39
 70
     1
102
RTVSPost2010Prop40
 90
        0
102
RTVSPost2010PropOp40
 70
     1
102
RTVSPost2010Prop41ColorIndex
 90
       18
102
RTVSPost2010Prop41ColorRGB
 90
        0
102
RTVSPost2010PropOp41
 70
     1
102
RTVSPost2010Prop42
 90
       50
102
RTVSPost2010PropOp42
 70
     1
102
RTVSPost2010Prop43
 90
        3
102
RTVSPost2010PropOp43
 70
     1
102
RTVSPost2010Prop44ColorIndex
 90
        5
102
RTVSPost2010Prop44ColorRGB
 90
      255
102
RTVSPost2010PropOp44
 70
     1
102
RTVSPost2010Prop45
280
     0
102
RTVSPost2010PropOp45
 70
     1
102
RTVSPost2010Prop46
 90
       50
102
RTVSPost2010PropOp46
 70
     1
102
RTVSPost2010Prop47
 90
       50
102
RTVSPost2010PropOp47
 70
     1
102
RTVSPost2010Prop48
 90
       50
102
RTVSPost2010PropOp48
 70
     1
102
RTVSPost2010Prop49
280
     0
102
RTVSPost2010PropOp49
 70
     1
102
RTVSPost2010Prop50
 90
       50
102
RTVSPost2010PropOp50
 70
     1
102
RTVSPost2010Prop51ColorIndex
 90
      256
102
RTVSPost2010Prop51ColorRGB
 90
-16777216
102
RTVSPost2010PropOp51
 70
     0
102
RTVSPost2010Prop52
140
1.0
102
RTVSPost2010PropOp52
 70
     0
102
RTVSPost2010Prop53
 90
        2
102
RTVSPost2010PropOp53
 70
     1
102
RTVSPost2010Prop54
  1
strokes_ogs.tif
102
RTVSPost2010PropOp54
 70
     1
102
RTVSPost2010Prop55
280
     0
102
RTVSPost2010PropOp55
 70
     1
102
RTVSPost2010Prop56
140
1.0
102
RTVSPost2010PropOp56
 70
     1
102
RTVSPost2010Prop57
140
1.0
102
RTVSPost2010PropOp57
 70
     1
102
RTVSPropertyOp0
 70
     1
102
RTVSPropertyOp1
 70
     1
102
RTVSPropertyOp2
 70
     1
102
RTVSPropertyOp3
 70
     1
102
RTVSPropertyOp4
 70
     1
102
RTVSPropertyOp5
 70
     1
102
RTVSPropertyOp6
 70
     1
102
RTVSPropertyOp7
 70
     1
102
RTVSPropertyOp8
 70
     1
102
RTVSPropertyOp9
 70
     1
102
RTVSPropertyOp10
 70
     1
102
RTVSPropertyOp11
 70
     1
102
RTVSPropertyOp12
 70
     1
102
RTVSPropertyOp13
 70
     1
102
RTVSPropertyOp14
 70
     1
102
RTVSPropertyOp15
 70
     1
102
RTVSPropertyOp16
 70
     1
102
RTVSPropertyOp17
 70
     1
102
RTVSPropertyOp18
 70
     1
102
RTVSPropertyOp19
 70
     1
102
RTVSPropertyOp20
 70
     1
102
RTVSPropertyOp21
 70
     1
102
RTVSPropertyOp22
 70
     1
102
RTVSPropertyOp23
 70
     1
102
RTVSPropertyOp24
 70
     1
102
RTVSPropertyOp25
 70
     1
102
RTVSPropertyOp26
 70
     1
102
RTVSPropertyOp27
 70
     1
102
RTVSPropertyOp28
 70
     1
102
RTVSPropertyOp29
 70
     1
102
RTVSPropertyOp30
 70
     1
102
RTVSPropertyOp31
 70
     1
102
RTVSPropertyOp32
 70
     1
102
RTVSPropertyOp33
 70
     1
102
RTVSPropertyOp34
 70
     1
102
RTVSPropertyOp35
 70
     1
102
RTVSPropertyOp36
 70
     1
102
RTVSPropertyOp37
 70
     1
102
RTVSPropertyOp38
 70
     1
102
RTVSPropertyOp39
 70
     1
102
RTVSPropertyOp40
 70
     1
102
RTVSPropertyOp41
 70
     1
102
RTVSPropertyOp42
 70
     1
102
RTVSPropertyOp43
 70
     1
102
RTVSPropertyOp44
 70
     1
102
RTVSPropertyOp45
 70
     1
102
RTVSPropertyOp46
 70
     1
102
RTVSPropertyOp47
 70
     1
102
RTVSPropertyOp48
 70
     1
102
RTVSPropertyOp49
 70
     1
102
RTVSPropertyOp50
 70
     1
102
RTVSPropertyOp51
 70
     0
102
RTVSPropertyOp52
 70
     0
102
RTVSPropertyOp53
 70
     1
102
RTVSPropertyOp54
 70
     1
102
RTVSPropertyOp55
 70
     1
102
RTVSPropertyOp56
 70
     1
102
RTVSPropertyOp57
 70
     1
102
RTVSPropertyOp58
 70
     1
102
RTVSPropertyOp59
 70
     1
102
RTVSPropertyOp60
 70
     1
102
RTVSPropertyOp61
 70
     1
102
RTVSPropertyOp62
 70
     1
  0
XRECORD
  5
2D47A
102
{ACAD_REACTORS
330
2D479
102
}
330
2D479
100
AcDbXrecord
280
     1
102
RTVSPost2010Prop28
280
     0
102
RTVSPost2010PropOp28
 70
     1
102
RTVSPost2010Prop29
280
     1
102
RTVSPost2010PropOp29
 70
     1
102
RTVSPost2010Prop30
280
     1
102
RTVSPost2010PropOp30
 70
     1
102
RTVSPost2010Prop31
280
     0
102
RTVSPost2010PropOp31
 70
     1
102
RTVSPost2010Prop32
280
     0
102
RTVSPost2010PropOp32
 70
     1
102
RTVSPost2010Prop33
280
     0
102
RTVSPost2010PropOp33
 70
     1
102
RTVSPost2010Prop34
280
     0
102
RTVSPost2010PropOp34
 70
     1
102
RTVSPost2010Prop35
280
     0
102
RTVSPost2010PropOp35
 70
     1
102
RTVSPost2010Prop36
280
     0
102
RTVSPost2010PropOp36
 70
     1
102
RTVSPost2010Prop37
 90
       50
102
RTVSPost2010PropOp37
 70
     1
102
RTVSPost2010Prop38
140
0.0
102
RTVSPost2010PropOp38
 70
     1
102
RTVSPost2010Prop39
140
1.0
102
RTVSPost2010PropOp39
 70
     1
102
RTVSPost2010Prop40
 90
        0
102
RTVSPost2010PropOp40
 70
     1
102
RTVSPost2010Prop41ColorIndex
 90
       18
102
RTVSPost2010Prop41ColorRGB
 90
        0
102
RTVSPost2010PropOp41
 70
     1
102
RTVSPost2010Prop42
 90
       50
102
RTVSPost2010PropOp42
 70
     1
102
RTVSPost2010Prop43
 90
        3
102
RTVSPost2010PropOp43
 70
     1
102
RTVSPost2010Prop44ColorIndex
 90
        5
102
RTVSPost2010Prop44ColorRGB
 90
      255
102
RTVSPost2010PropOp44
 70
     1
102
RTVSPost2010Prop45
280
     0
102
RTVSPost2010PropOp45
 70
     1
102
RTVSPost2010Prop46
 90
       50
102
RTVSPost2010PropOp46
 70
     1
102
RTVSPost2010Prop47
 90
       50
102
RTVSPost2010PropOp47
 70
     1
102
RTVSPost2010Prop48
 90
       50
102
RTVSPost2010PropOp48
 70
     1
102
RTVSPost2010Prop49
280
     0
102
RTVSPost2010PropOp49
 70
     1
102
RTVSPost2010Prop50
 90
       50
102
RTVSPost2010PropOp50
 70
     1
102
RTVSPost2010Prop51ColorIndex
 90
      256
102
RTVSPost2010Prop51ColorRGB
 90
-16777216
102
RTVSPost2010PropOp51
 70
     0
102
RTVSPost2010Prop52
140
1.0
102
RTVSPost2010PropOp52
 70
     0
102
RTVSPost2010Prop53
 90
        2
102
RTVSPost2010PropOp53
 70
     1
102
RTVSPost2010Prop54
  1
strokes_ogs.tif
102
RTVSPost2010PropOp54
 70
     1
102
RTVSPost2010Prop55
280
     0
102
RTVSPost2010PropOp55
 70
     1
102
RTVSPost2010Prop56
140
1.0
102
RTVSPost2010PropOp56
 70
     1
102
RTVSPost2010Prop57
140
1.0
102
RTVSPost2010PropOp57
 70
     1
102
RTVSPropertyOp0
 70
     1
102
RTVSPropertyOp1
 70
     1
102
RTVSPropertyOp2
 70
     1
102
RTVSPropertyOp3
 70
     1
102
RTVSPropertyOp4
 70
     1
102
RTVSPropertyOp5
 70
     1
102
RTVSPropertyOp6
 70
     1
102
RTVSPropertyOp7
 70
     1
102
RTVSPropertyOp8
 70
     1
102
RTVSPropertyOp9
 70
     1
102
RTVSPropertyOp10
 70
     1
102
RTVSPropertyOp11
 70
     1
102
RTVSPropertyOp12
 70
     1
102
RTVSPropertyOp13
 70
     1
102
RTVSPropertyOp14
 70
     1
102
RTVSPropertyOp15
 70
     1
102
RTVSPropertyOp16
 70
     1
102
RTVSPropertyOp17
 70
     1
102
RTVSPropertyOp18
 70
     1
102
RTVSPropertyOp19
 70
     1
102
RTVSPropertyOp20
 70
     1
102
RTVSPropertyOp21
 70
     1
102
RTVSPropertyOp22
 70
     1
102
RTVSPropertyOp23
 70
     1
102
RTVSPropertyOp24
 70
     1
102
RTVSPropertyOp25
 70
     1
102
RTVSPropertyOp26
 70
     1
102
RTVSPropertyOp27
 70
     1
102
RTVSPropertyOp28
 70
     1
102
RTVSPropertyOp29
 70
     1
102
RTVSPropertyOp30
 70
     1
102
RTVSPropertyOp31
 70
     1
102
RTVSPropertyOp32
 70
     1
102
RTVSPropertyOp33
 70
     1
102
RTVSPropertyOp34
 70
     1
102
RTVSPropertyOp35
 70
     1
102
RTVSPropertyOp36
 70
     1
102
RTVSPropertyOp37
 70
     1
102
RTVSPropertyOp38
 70
     1
102
RTVSPropertyOp39
 70
     1
102
RTVSPropertyOp40
 70
     1
102
RTVSPropertyOp41
 70
     1
102
RTVSPropertyOp42
 70
     1
102
RTVSPropertyOp43
 70
     1
102
RTVSPropertyOp44
 70
     1
102
RTVSPropertyOp45
 70
     1
102
RTVSPropertyOp46
 70
     1
102
RTVSPropertyOp47
 70
     1
102
RTVSPropertyOp48
 70
     1
102
RTVSPropertyOp49
 70
     1
102
RTVSPropertyOp50
 70
     1
102
RTVSPropertyOp51
 70
     0
102
RTVSPropertyOp52
 70
     0
102
RTVSPropertyOp53
 70
     1
102
RTVSPropertyOp54
 70
     1
102
RTVSPropertyOp55
 70
     1
102
RTVSPropertyOp56
 70
     1
102
RTVSPropertyOp57
 70
     1
102
RTVSPropertyOp58
 70
     1
102
RTVSPropertyOp59
 70
     1
102
RTVSPropertyOp60
 70
     1
102
RTVSPropertyOp61
 70
     1
102
RTVSPropertyOp62
 70
     1
  0
XRECORD
  5
2D48A
102
{ACAD_REACTORS
330
2D489
102
}
330
2D489
100
AcDbXrecord
280
     1
102
RTVSPost2010Prop28
280
     0
102
RTVSPost2010PropOp28
 70
     1
102
RTVSPost2010Prop29
280
     1
102
RTVSPost2010PropOp29
 70
     1
102
RTVSPost2010Prop30
280
     1
102
RTVSPost2010PropOp30
 70
     1
102
RTVSPost2010Prop31
280
     0
102
RTVSPost2010PropOp31
 70
     1
102
RTVSPost2010Prop32
280
     0
102
RTVSPost2010PropOp32
 70
     1
102
RTVSPost2010Prop33
280
     0
102
RTVSPost2010PropOp33
 70
     1
102
RTVSPost2010Prop34
280
     0
102
RTVSPost2010PropOp34
 70
     1
102
RTVSPost2010Prop35
280
     0
102
RTVSPost2010PropOp35
 70
     1
102
RTVSPost2010Prop36
280
     0
102
RTVSPost2010PropOp36
 70
     1
102
RTVSPost2010Prop37
 90
       50
102
RTVSPost2010PropOp37
 70
     1
102
RTVSPost2010Prop38
140
0.0
102
RTVSPost2010PropOp38
 70
     1
102
RTVSPost2010Prop39
140
1.0
102
RTVSPost2010PropOp39
 70
     1
102
RTVSPost2010Prop40
 90
        0
102
RTVSPost2010PropOp40
 70
     1
102
RTVSPost2010Prop41ColorIndex
 90
       18
102
RTVSPost2010Prop41ColorRGB
 90
        0
102
RTVSPost2010PropOp41
 70
     1
102
RTVSPost2010Prop42
 90
       50
102
RTVSPost2010PropOp42
 70
     1
102
RTVSPost2010Prop43
 90
        3
102
RTVSPost2010PropOp43
 70
     1
102
RTVSPost2010Prop44ColorIndex
 90
        5
102
RTVSPost2010Prop44ColorRGB
 90
      255
102
RTVSPost2010PropOp44
 70
     1
102
RTVSPost2010Prop45
280
     0
102
RTVSPost2010PropOp45
 70
     1
102
RTVSPost2010Prop46
 90
       50
102
RTVSPost2010PropOp46
 70
     1
102
RTVSPost2010Prop47
 90
       50
102
RTVSPost2010PropOp47
 70
     1
102
RTVSPost2010Prop48
 90
       50
102
RTVSPost2010PropOp48
 70
     1
102
RTVSPost2010Prop49
280
     0
102
RTVSPost2010PropOp49
 70
     1
102
RTVSPost2010Prop50
 90
       50
102
RTVSPost2010PropOp50
 70
     1
102
RTVSPost2010Prop51ColorIndex
 90
      256
102
RTVSPost2010Prop51ColorRGB
 90
-16777216
102
RTVSPost2010PropOp51
 70
     0
102
RTVSPost2010Prop52
140
1.0
102
RTVSPost2010PropOp52
 70
     0
102
RTVSPost2010Prop53
 90
        2
102
RTVSPost2010PropOp53
 70
     1
102
RTVSPost2010Prop54
  1
strokes_ogs.tif
102
RTVSPost2010PropOp54
 70
     1
102
RTVSPost2010Prop55
280
     0
102
RTVSPost2010PropOp55
 70
     1
102
RTVSPost2010Prop56
140
1.0
102
RTVSPost2010PropOp56
 70
     1
102
RTVSPost2010Prop57
140
1.0
102
RTVSPost2010PropOp57
 70
     1
102
RTVSPropertyOp0
 70
     0
102
RTVSPropertyOp1
 70
     0
102
RTVSPropertyOp2
 70
     0
102
RTVSPropertyOp3
 70
     0
102
RTVSPropertyOp4
 70
     0
102
RTVSPropertyOp5
 70
     0
102
RTVSPropertyOp6
 70
     0
102
RTVSPropertyOp7
 70
     0
102
RTVSPropertyOp8
 70
     0
102
RTVSPropertyOp9
 70
     0
102
RTVSPropertyOp10
 70
     0
102
RTVSPropertyOp11
 70
     0
102
RTVSPropertyOp12
 70
     0
102
RTVSPropertyOp13
 70
     0
102
RTVSPropertyOp14
 70
     2
102
RTVSPropertyOp15
 70
     0
102
RTVSPropertyOp16
 70
     0
102
RTVSPropertyOp17
 70
     0
102
RTVSPropertyOp18
 70
     0
102
RTVSPropertyOp19
 70
     0
102
RTVSPropertyOp20
 70
     0
102
RTVSPropertyOp21
 70
     0
102
RTVSPropertyOp22
 70
     0
102
RTVSPropertyOp23
 70
     0
102
RTVSPropertyOp24
 70
     0
102
RTVSPropertyOp25
 70
     0
102
RTVSPropertyOp26
 70
     0
102
RTVSPropertyOp27
 70
     0
102
RTVSPropertyOp28
 70
     1
102
RTVSPropertyOp29
 70
     1
102
RTVSPropertyOp30
 70
     1
102
RTVSPropertyOp31
 70
     1
102
RTVSPropertyOp32
 70
     1
102
RTVSPropertyOp33
 70
     1
102
RTVSPropertyOp34
 70
     1
102
RTVSPropertyOp35
 70
     1
102
RTVSPropertyOp36
 70
     1
102
RTVSPropertyOp37
 70
     1
102
RTVSPropertyOp38
 70
     1
102
RTVSPropertyOp39
 70
     1
102
RTVSPropertyOp40
 70
     1
102
RTVSPropertyOp41
 70
     1
102
RTVSPropertyOp42
 70
     1
102
RTVSPropertyOp43
 70
     1
102
RTVSPropertyOp44
 70
     1
102
RTVSPropertyOp45
 70
     1
102
RTVSPropertyOp46
 70
     1
102
RTVSPropertyOp47
 70
     1
102
RTVSPropertyOp48
 70
     1
102
RTVSPropertyOp49
 70
     1
102
RTVSPropertyOp50
 70
     1
102
RTVSPropertyOp51
 70
     0
102
RTVSPropertyOp52
 70
     0
102
RTVSPropertyOp53
 70
     1
102
RTVSPropertyOp54
 70
     1
102
RTVSPropertyOp55
 70
     1
102
RTVSPropertyOp56
 70
     1
102
RTVSPropertyOp57
 70
     1
102
RTVSPropertyOp58
 70
     1
102
RTVSPropertyOp59
 70
     1
102
RTVSPropertyOp60
 70
     1
102
RTVSPropertyOp61
 70
     1
102
RTVSPropertyOp62
 70
     1
  0
XRECORD
  5
2D482
102
{ACAD_REACTORS
330
2D481
102
}
330
2D481
100
AcDbXrecord
280
     1
102
RTVSPost2010Prop28
280
     0
102
RTVSPost2010PropOp28
 70
     1
102
RTVSPost2010Prop29
280
     1
102
RTVSPost2010PropOp29
 70
     1
102
RTVSPost2010Prop30
280
     1
102
RTVSPost2010PropOp30
 70
     1
102
RTVSPost2010Prop31
280
     0
102
RTVSPost2010PropOp31
 70
     1
102
RTVSPost2010Prop32
280
     0
102
RTVSPost2010PropOp32
 70
     1
102
RTVSPost2010Prop33
280
     0
102
RTVSPost2010PropOp33
 70
     1
102
RTVSPost2010Prop34
280
     0
102
RTVSPost2010PropOp34
 70
     1
102
RTVSPost2010Prop35
280
     0
102
RTVSPost2010PropOp35
 70
     1
102
RTVSPost2010Prop36
280
     0
102
RTVSPost2010PropOp36
 70
     1
102
RTVSPost2010Prop37
 90
       50
102
RTVSPost2010PropOp37
 70
     1
102
RTVSPost2010Prop38
140
0.0
102
RTVSPost2010PropOp38
 70
     1
102
RTVSPost2010Prop39
140
1.0
102
RTVSPost2010PropOp39
 70
     1
102
RTVSPost2010Prop40
 90
        0
102
RTVSPost2010PropOp40
 70
     1
102
RTVSPost2010Prop41ColorIndex
 90
       18
102
RTVSPost2010Prop41ColorRGB
 90
        0
102
RTVSPost2010PropOp41
 70
     1
102
RTVSPost2010Prop42
 90
       50
102
RTVSPost2010PropOp42
 70
     1
102
RTVSPost2010Prop43
 90
        3
102
RTVSPost2010PropOp43
 70
     1
102
RTVSPost2010Prop44ColorIndex
 90
        5
102
RTVSPost2010Prop44ColorRGB
 90
      255
102
RTVSPost2010PropOp44
 70
     1
102
RTVSPost2010Prop45
280
     0
102
RTVSPost2010PropOp45
 70
     1
102
RTVSPost2010Prop46
 90
       50
102
RTVSPost2010PropOp46
 70
     1
102
RTVSPost2010Prop47
 90
       50
102
RTVSPost2010PropOp47
 70
     1
102
RTVSPost2010Prop48
 90
       50
102
RTVSPost2010PropOp48
 70
     1
102
RTVSPost2010Prop49
280
     0
102
RTVSPost2010PropOp49
 70
     1
102
RTVSPost2010Prop50
 90
       50
102
RTVSPost2010PropOp50
 70
     1
102
RTVSPost2010Prop51ColorIndex
 90
      256
102
RTVSPost2010Prop51ColorRGB
 90
-16777216
102
RTVSPost2010PropOp51
 70
     0
102
RTVSPost2010Prop52
140
1.0
102
RTVSPost2010PropOp52
 70
     0
102
RTVSPost2010Prop53
 90
        2
102
RTVSPost2010PropOp53
 70
     1
102
RTVSPost2010Prop54
  1
strokes_ogs.tif
102
RTVSPost2010PropOp54
 70
     1
102
RTVSPost2010Prop55
280
     0
102
RTVSPost2010PropOp55
 70
     1
102
RTVSPost2010Prop56
140
1.0
102
RTVSPost2010PropOp56
 70
     1
102
RTVSPost2010Prop57
140
1.0
102
RTVSPost2010PropOp57
 70
     1
102
RTVSPropertyOp0
 70
     1
102
RTVSPropertyOp1
 70
     1
102
RTVSPropertyOp2
 70
     1
102
RTVSPropertyOp3
 70
     1
102
RTVSPropertyOp4
 70
     1
102
RTVSPropertyOp5
 70
     1
102
RTVSPropertyOp6
 70
     1
102
RTVSPropertyOp7
 70
     1
102
RTVSPropertyOp8
 70
     1
102
RTVSPropertyOp9
 70
     1
102
RTVSPropertyOp10
 70
     1
102
RTVSPropertyOp11
 70
     1
102
RTVSPropertyOp12
 70
     1
102
RTVSPropertyOp13
 70
     1
102
RTVSPropertyOp14
 70
     1
102
RTVSPropertyOp15
 70
     1
102
RTVSPropertyOp16
 70
     1
102
RTVSPropertyOp17
 70
     1
102
RTVSPropertyOp18
 70
     1
102
RTVSPropertyOp19
 70
     1
102
RTVSPropertyOp20
 70
     1
102
RTVSPropertyOp21
 70
     1
102
RTVSPropertyOp22
 70
     1
102
RTVSPropertyOp23
 70
     1
102
RTVSPropertyOp24
 70
     1
102
RTVSPropertyOp25
 70
     1
102
RTVSPropertyOp26
 70
     1
102
RTVSPropertyOp27
 70
     1
102
RTVSPropertyOp28
 70
     1
102
RTVSPropertyOp29
 70
     1
102
RTVSPropertyOp30
 70
     1
102
RTVSPropertyOp31
 70
     1
102
RTVSPropertyOp32
 70
     1
102
RTVSPropertyOp33
 70
     1
102
RTVSPropertyOp34
 70
     1
102
RTVSPropertyOp35
 70
     1
102
RTVSPropertyOp36
 70
     1
102
RTVSPropertyOp37
 70
     1
102
RTVSPropertyOp38
 70
     1
102
RTVSPropertyOp39
 70
     1
102
RTVSPropertyOp40
 70
     1
102
RTVSPropertyOp41
 70
     1
102
RTVSPropertyOp42
 70
     1
102
RTVSPropertyOp43
 70
     1
102
RTVSPropertyOp44
 70
     1
102
RTVSPropertyOp45
 70
     1
102
RTVSPropertyOp46
 70
     1
102
RTVSPropertyOp47
 70
     1
102
RTVSPropertyOp48
 70
     1
102
RTVSPropertyOp49
 70
     1
102
RTVSPropertyOp50
 70
     1
102
RTVSPropertyOp51
 70
     0
102
RTVSPropertyOp52
 70
     0
102
RTVSPropertyOp53
 70
     1
102
RTVSPropertyOp54
 70
     1
102
RTVSPropertyOp55
 70
     1
102
RTVSPropertyOp56
 70
     1
102
RTVSPropertyOp57
 70
     1
102
RTVSPropertyOp58
 70
     1
102
RTVSPropertyOp59
 70
     1
102
RTVSPropertyOp60
 70
     1
102
RTVSPropertyOp61
 70
     1
102
RTVSPropertyOp62
 70
     1
  0
XRECORD
  5
2D466
102
{ACAD_REACTORS
330
2D465
102
}
330
2D465
100
AcDbXrecord
280
     1
102
RTVSPost2010Prop28
280
     0
102
RTVSPost2010PropOp28
 70
     1
102
RTVSPost2010Prop29
280
     1
102
RTVSPost2010PropOp29
 70
     1
102
RTVSPost2010Prop30
280
     1
102
RTVSPost2010PropOp30
 70
     1
102
RTVSPost2010Prop31
280
     0
102
RTVSPost2010PropOp31
 70
     1
102
RTVSPost2010Prop32
280
     0
102
RTVSPost2010PropOp32
 70
     1
102
RTVSPost2010Prop33
280
     0
102
RTVSPost2010PropOp33
 70
     1
102
RTVSPost2010Prop34
280
     0
102
RTVSPost2010PropOp34
 70
     1
102
RTVSPost2010Prop35
280
     0
102
RTVSPost2010PropOp35
 70
     1
102
RTVSPost2010Prop36
280
     0
102
RTVSPost2010PropOp36
 70
     1
102
RTVSPost2010Prop37
 90
       50
102
RTVSPost2010PropOp37
 70
     1
102
RTVSPost2010Prop38
140
0.0
102
RTVSPost2010PropOp38
 70
     1
102
RTVSPost2010Prop39
140
1.0
102
RTVSPost2010PropOp39
 70
     1
102
RTVSPost2010Prop40
 90
        0
102
RTVSPost2010PropOp40
 70
     1
102
RTVSPost2010Prop41ColorIndex
 90
       18
102
RTVSPost2010Prop41ColorRGB
 90
        0
102
RTVSPost2010PropOp41
 70
     1
102
RTVSPost2010Prop42
 90
       50
102
RTVSPost2010PropOp42
 70
     1
102
RTVSPost2010Prop43
 90
        3
102
RTVSPost2010PropOp43
 70
     1
102
RTVSPost2010Prop44ColorIndex
 90
        5
102
RTVSPost2010Prop44ColorRGB
 90
      255
102
RTVSPost2010PropOp44
 70
     1
102
RTVSPost2010Prop45
280
     0
102
RTVSPost2010PropOp45
 70
     1
102
RTVSPost2010Prop46
 90
       50
102
RTVSPost2010PropOp46
 70
     1
102
RTVSPost2010Prop47
 90
       50
102
RTVSPost2010PropOp47
 70
     1
102
RTVSPost2010Prop48
 90
       50
102
RTVSPost2010PropOp48
 70
     1
102
RTVSPost2010Prop49
280
     0
102
RTVSPost2010PropOp49
 70
     1
102
RTVSPost2010Prop50
 90
       50
102
RTVSPost2010PropOp50
 70
     1
102
RTVSPost2010Prop51ColorIndex
 90
      256
102
RTVSPost2010Prop51ColorRGB
 90
-16777216
102
RTVSPost2010PropOp51
 70
     0
102
RTVSPost2010Prop52
140
1.0
102
RTVSPost2010PropOp52
 70
     0
102
RTVSPost2010Prop53
 90
        2
102
RTVSPost2010PropOp53
 70
     1
102
RTVSPost2010Prop54
  1
strokes_ogs.tif
102
RTVSPost2010PropOp54
 70
     1
102
RTVSPost2010Prop55
280
     0
102
RTVSPost2010PropOp55
 70
     1
102
RTVSPost2010Prop56
140
1.0
102
RTVSPost2010PropOp56
 70
     1
102
RTVSPost2010Prop57
140
1.0
102
RTVSPost2010PropOp57
 70
     1
102
RTVSPropertyOp0
 70
     1
102
RTVSPropertyOp1
 70
     1
102
RTVSPropertyOp2
 70
     1
102
RTVSPropertyOp3
 70
     1
102
RTVSPropertyOp4
 70
     1
102
RTVSPropertyOp5
 70
     1
102
RTVSPropertyOp6
 70
     1
102
RTVSPropertyOp7
 70
     1
102
RTVSPropertyOp8
 70
     1
102
RTVSPropertyOp9
 70
     1
102
RTVSPropertyOp10
 70
     1
102
RTVSPropertyOp11
 70
     1
102
RTVSPropertyOp12
 70
     1
102
RTVSPropertyOp13
 70
     1
102
RTVSPropertyOp14
 70
     1
102
RTVSPropertyOp15
 70
     1
102
RTVSPropertyOp16
 70
     1
102
RTVSPropertyOp17
 70
     1
102
RTVSPropertyOp18
 70
     1
102
RTVSPropertyOp19
 70
     1
102
RTVSPropertyOp20
 70
     1
102
RTVSPropertyOp21
 70
     1
102
RTVSPropertyOp22
 70
     1
102
RTVSPropertyOp23
 70
     1
102
RTVSPropertyOp24
 70
     1
102
RTVSPropertyOp25
 70
     1
102
RTVSPropertyOp26
 70
     1
102
RTVSPropertyOp27
 70
     1
102
RTVSPropertyOp28
 70
     1
102
RTVSPropertyOp29
 70
     1
102
RTVSPropertyOp30
 70
     1
102
RTVSPropertyOp31
 70
     1
102
RTVSPropertyOp32
 70
     1
102
RTVSPropertyOp33
 70
     1
102
RTVSPropertyOp34
 70
     1
102
RTVSPropertyOp35
 70
     1
102
RTVSPropertyOp36
 70
     1
102
RTVSPropertyOp37
 70
     1
102
RTVSPropertyOp38
 70
     1
102
RTVSPropertyOp39
 70
     1
102
RTVSPropertyOp40
 70
     1
102
RTVSPropertyOp41
 70
     1
102
RTVSPropertyOp42
 70
     1
102
RTVSPropertyOp43
 70
     1
102
RTVSPropertyOp44
 70
     1
102
RTVSPropertyOp45
 70
     1
102
RTVSPropertyOp46
 70
     1
102
RTVSPropertyOp47
 70
     1
102
RTVSPropertyOp48
 70
     1
102
RTVSPropertyOp49
 70
     1
102
RTVSPropertyOp50
 70
     1
102
RTVSPropertyOp51
 70
     0
102
RTVSPropertyOp52
 70
     0
102
RTVSPropertyOp53
 70
     1
102
RTVSPropertyOp54
 70
     1
102
RTVSPropertyOp55
 70
     1
102
RTVSPropertyOp56
 70
     1
102
RTVSPropertyOp57
 70
     1
102
RTVSPropertyOp58
 70
     1
102
RTVSPropertyOp59
 70
     1
102
RTVSPropertyOp60
 70
     1
102
RTVSPropertyOp61
 70
     1
102
RTVSPropertyOp62
 70
     1
  0
XRECORD
  5
2D468
102
{ACAD_REACTORS
330
2D467
102
}
330
2D467
100
AcDbXrecord
280
     1
102
RTVSPost2010Prop28
280
     0
102
RTVSPost2010PropOp28
 70
     1
102
RTVSPost2010Prop29
280
     1
102
RTVSPost2010PropOp29
 70
     1
102
RTVSPost2010Prop30
280
     1
102
RTVSPost2010PropOp30
 70
     1
102
RTVSPost2010Prop31
280
     0
102
RTVSPost2010PropOp31
 70
     1
102
RTVSPost2010Prop32
280
     0
102
RTVSPost2010PropOp32
 70
     1
102
RTVSPost2010Prop33
280
     0
102
RTVSPost2010PropOp33
 70
     1
102
RTVSPost2010Prop34
280
     0
102
RTVSPost2010PropOp34
 70
     1
102
RTVSPost2010Prop35
280
     0
102
RTVSPost2010PropOp35
 70
     1
102
RTVSPost2010Prop36
280
     0
102
RTVSPost2010PropOp36
 70
     1
102
RTVSPost2010Prop37
 90
       50
102
RTVSPost2010PropOp37
 70
     1
102
RTVSPost2010Prop38
140
0.0
102
RTVSPost2010PropOp38
 70
     1
102
RTVSPost2010Prop39
140
1.0
102
RTVSPost2010PropOp39
 70
     1
102
RTVSPost2010Prop40
 90
        0
102
RTVSPost2010PropOp40
 70
     1
102
RTVSPost2010Prop41ColorIndex
 90
       18
102
RTVSPost2010Prop41ColorRGB
 90
        0
102
RTVSPost2010PropOp41
 70
     1
102
RTVSPost2010Prop42
 90
       50
102
RTVSPost2010PropOp42
 70
     1
102
RTVSPost2010Prop43
 90
        3
102
RTVSPost2010PropOp43
 70
     1
102
RTVSPost2010Prop44ColorIndex
 90
        5
102
RTVSPost2010Prop44ColorRGB
 90
      255
102
RTVSPost2010PropOp44
 70
     1
102
RTVSPost2010Prop45
280
     0
102
RTVSPost2010PropOp45
 70
     1
102
RTVSPost2010Prop46
 90
       50
102
RTVSPost2010PropOp46
 70
     1
102
RTVSPost2010Prop47
 90
       50
102
RTVSPost2010PropOp47
 70
     1
102
RTVSPost2010Prop48
 90
       50
102
RTVSPost2010PropOp48
 70
     1
102
RTVSPost2010Prop49
280
     0
102
RTVSPost2010PropOp49
 70
     1
102
RTVSPost2010Prop50
 90
       50
102
RTVSPost2010PropOp50
 70
     1
102
RTVSPost2010Prop51ColorIndex
 90
      256
102
RTVSPost2010Prop51ColorRGB
 90
-16777216
102
RTVSPost2010PropOp51
 70
     0
102
RTVSPost2010Prop52
140
1.0
102
RTVSPost2010PropOp52
 70
     0
102
RTVSPost2010Prop53
 90
        2
102
RTVSPost2010PropOp53
 70
     1
102
RTVSPost2010Prop54
  1
strokes_ogs.tif
102
RTVSPost2010PropOp54
 70
     1
102
RTVSPost2010Prop55
280
     0
102
RTVSPost2010PropOp55
 70
     1
102
RTVSPost2010Prop56
140
1.0
102
RTVSPost2010PropOp56
 70
     1
102
RTVSPost2010Prop57
140
1.0
102
RTVSPost2010PropOp57
 70
     1
102
RTVSPropertyOp0
 70
     1
102
RTVSPropertyOp1
 70
     1
102
RTVSPropertyOp2
 70
     1
102
RTVSPropertyOp3
 70
     1
102
RTVSPropertyOp4
 70
     1
102
RTVSPropertyOp5
 70
     1
102
RTVSPropertyOp6
 70
     1
102
RTVSPropertyOp7
 70
     1
102
RTVSPropertyOp8
 70
     1
102
RTVSPropertyOp9
 70
     1
102
RTVSPropertyOp10
 70
     1
102
RTVSPropertyOp11
 70
     1
102
RTVSPropertyOp12
 70
     1
102
RTVSPropertyOp13
 70
     1
102
RTVSPropertyOp14
 70
     1
102
RTVSPropertyOp15
 70
     1
102
RTVSPropertyOp16
 70
     1
102
RTVSPropertyOp17
 70
     1
102
RTVSPropertyOp18
 70
     1
102
RTVSPropertyOp19
 70
     1
102
RTVSPropertyOp20
 70
     1
102
RTVSPropertyOp21
 70
     1
102
RTVSPropertyOp22
 70
     1
102
RTVSPropertyOp23
 70
     1
102
RTVSPropertyOp24
 70
     1
102
RTVSPropertyOp25
 70
     1
102
RTVSPropertyOp26
 70
     1
102
RTVSPropertyOp27
 70
     1
102
RTVSPropertyOp28
 70
     1
102
RTVSPropertyOp29
 70
     1
102
RTVSPropertyOp30
 70
     1
102
RTVSPropertyOp31
 70
     1
102
RTVSPropertyOp32
 70
     1
102
RTVSPropertyOp33
 70
     1
102
RTVSPropertyOp34
 70
     1
102
RTVSPropertyOp35
 70
     1
102
RTVSPropertyOp36
 70
     1
102
RTVSPropertyOp37
 70
     1
102
RTVSPropertyOp38
 70
     1
102
RTVSPropertyOp39
 70
     1
102
RTVSPropertyOp40
 70
     1
102
RTVSPropertyOp41
 70
     1
102
RTVSPropertyOp42
 70
     1
102
RTVSPropertyOp43
 70
     1
102
RTVSPropertyOp44
 70
     1
102
RTVSPropertyOp45
 70
     1
102
RTVSPropertyOp46
 70
     1
102
RTVSPropertyOp47
 70
     1
102
RTVSPropertyOp48
 70
     1
102
RTVSPropertyOp49
 70
     1
102
RTVSPropertyOp50
 70
     1
102
RTVSPropertyOp51
 70
     0
102
RTVSPropertyOp52
 70
     0
102
RTVSPropertyOp53
 70
     1
102
RTVSPropertyOp54
 70
     1
102
RTVSPropertyOp55
 70
     1
102
RTVSPropertyOp56
 70
     1
102
RTVSPropertyOp57
 70
     1
102
RTVSPropertyOp58
 70
     1
102
RTVSPropertyOp59
 70
     1
102
RTVSPropertyOp60
 70
     1
102
RTVSPropertyOp61
 70
     1
102
RTVSPropertyOp62
 70
     1
  0
XRECORD
  5
2D46A
102
{ACAD_REACTORS
330
2D469
102
}
330
2D469
100
AcDbXrecord
280
     1
102
RTVSPost2010Prop28
280
     0
102
RTVSPost2010PropOp28
 70
     1
102
RTVSPost2010Prop29
280
     1
102
RTVSPost2010PropOp29
 70
     1
102
RTVSPost2010Prop30
280
     1
102
RTVSPost2010PropOp30
 70
     1
102
RTVSPost2010Prop31
280
     0
102
RTVSPost2010PropOp31
 70
     1
102
RTVSPost2010Prop32
280
     0
102
RTVSPost2010PropOp32
 70
     1
102
RTVSPost2010Prop33
280
     0
102
RTVSPost2010PropOp33
 70
     1
102
RTVSPost2010Prop34
280
     0
102
RTVSPost2010PropOp34
 70
     1
102
RTVSPost2010Prop35
280
     0
102
RTVSPost2010PropOp35
 70
     1
102
RTVSPost2010Prop36
280
     0
102
RTVSPost2010PropOp36
 70
     1
102
RTVSPost2010Prop37
 90
       50
102
RTVSPost2010PropOp37
 70
     1
102
RTVSPost2010Prop38
140
0.0
102
RTVSPost2010PropOp38
 70
     1
102
RTVSPost2010Prop39
140
1.0
102
RTVSPost2010PropOp39
 70
     1
102
RTVSPost2010Prop40
 90
        0
102
RTVSPost2010PropOp40
 70
     1
102
RTVSPost2010Prop41ColorIndex
 90
       18
102
RTVSPost2010Prop41ColorRGB
 90
        0
102
RTVSPost2010PropOp41
 70
     1
102
RTVSPost2010Prop42
 90
       50
102
RTVSPost2010PropOp42
 70
     1
102
RTVSPost2010Prop43
 90
        3
102
RTVSPost2010PropOp43
 70
     1
102
RTVSPost2010Prop44ColorIndex
 90
        5
102
RTVSPost2010Prop44ColorRGB
 90
      255
102
RTVSPost2010PropOp44
 70
     1
102
RTVSPost2010Prop45
280
     0
102
RTVSPost2010PropOp45
 70
     1
102
RTVSPost2010Prop46
 90
       50
102
RTVSPost2010PropOp46
 70
     1
102
RTVSPost2010Prop47
 90
       50
102
RTVSPost2010PropOp47
 70
     1
102
RTVSPost2010Prop48
 90
       50
102
RTVSPost2010PropOp48
 70
     1
102
RTVSPost2010Prop49
280
     0
102
RTVSPost2010PropOp49
 70
     1
102
RTVSPost2010Prop50
 90
       50
102
RTVSPost2010PropOp50
 70
     1
102
RTVSPost2010Prop51ColorIndex
 90
      256
102
RTVSPost2010Prop51ColorRGB
 90
-16777216
102
RTVSPost2010PropOp51
 70
     0
102
RTVSPost2010Prop52
140
1.0
102
RTVSPost2010PropOp52
 70
     0
102
RTVSPost2010Prop53
 90
        2
102
RTVSPost2010PropOp53
 70
     1
102
RTVSPost2010Prop54
  1
strokes_ogs.tif
102
RTVSPost2010PropOp54
 70
     1
102
RTVSPost2010Prop55
280
     0
102
RTVSPost2010PropOp55
 70
     1
102
RTVSPost2010Prop56
140
1.0
102
RTVSPost2010PropOp56
 70
     1
102
RTVSPost2010Prop57
140
1.0
102
RTVSPost2010PropOp57
 70
     1
102
RTVSPropertyOp0
 70
     1
102
RTVSPropertyOp1
 70
     1
102
RTVSPropertyOp2
 70
     1
102
RTVSPropertyOp3
 70
     1
102
RTVSPropertyOp4
 70
     1
102
RTVSPropertyOp5
 70
     1
102
RTVSPropertyOp6
 70
     1
102
RTVSPropertyOp7
 70
     1
102
RTVSPropertyOp8
 70
     1
102
RTVSPropertyOp9
 70
     1
102
RTVSPropertyOp10
 70
     1
102
RTVSPropertyOp11
 70
     1
102
RTVSPropertyOp12
 70
     1
102
RTVSPropertyOp13
 70
     1
102
RTVSPropertyOp14
 70
     1
102
RTVSPropertyOp15
 70
     1
102
RTVSPropertyOp16
 70
     1
102
RTVSPropertyOp17
 70
     1
102
RTVSPropertyOp18
 70
     1
102
RTVSPropertyOp19
 70
     1
102
RTVSPropertyOp20
 70
     1
102
RTVSPropertyOp21
 70
     1
102
RTVSPropertyOp22
 70
     1
102
RTVSPropertyOp23
 70
     1
102
RTVSPropertyOp24
 70
     1
102
RTVSPropertyOp25
 70
     1
102
RTVSPropertyOp26
 70
     1
102
RTVSPropertyOp27
 70
     1
102
RTVSPropertyOp28
 70
     1
102
RTVSPropertyOp29
 70
     1
102
RTVSPropertyOp30
 70
     1
102
RTVSPropertyOp31
 70
     1
102
RTVSPropertyOp32
 70
     1
102
RTVSPropertyOp33
 70
     1
102
RTVSPropertyOp34
 70
     1
102
RTVSPropertyOp35
 70
     1
102
RTVSPropertyOp36
 70
     1
102
RTVSPropertyOp37
 70
     1
102
RTVSPropertyOp38
 70
     1
102
RTVSPropertyOp39
 70
     1
102
RTVSPropertyOp40
 70
     1
102
RTVSPropertyOp41
 70
     1
102
RTVSPropertyOp42
 70
     1
102
RTVSPropertyOp43
 70
     1
102
RTVSPropertyOp44
 70
     1
102
RTVSPropertyOp45
 70
     1
102
RTVSPropertyOp46
 70
     1
102
RTVSPropertyOp47
 70
     1
102
RTVSPropertyOp48
 70
     1
102
RTVSPropertyOp49
 70
     1
102
RTVSPropertyOp50
 70
     1
102
RTVSPropertyOp51
 70
     0
102
RTVSPropertyOp52
 70
     0
102
RTVSPropertyOp53
 70
     1
102
RTVSPropertyOp54
 70
     1
102
RTVSPropertyOp55
 70
     1
102
RTVSPropertyOp56
 70
     1
102
RTVSPropertyOp57
 70
     1
102
RTVSPropertyOp58
 70
     1
102
RTVSPropertyOp59
 70
     1
102
RTVSPropertyOp60
 70
     1
102
RTVSPropertyOp61
 70
     1
102
RTVSPropertyOp62
 70
     1
  0
XRECORD
  5
2D46C
102
{ACAD_REACTORS
330
2D46B
102
}
330
2D46B
100
AcDbXrecord
280
     1
102
RTVSPost2010Prop28
280
     0
102
RTVSPost2010PropOp28
 70
     1
102
RTVSPost2010Prop29
280
     1
102
RTVSPost2010PropOp29
 70
     1
102
RTVSPost2010Prop30
280
     1
102
RTVSPost2010PropOp30
 70
     1
102
RTVSPost2010Prop31
280
     0
102
RTVSPost2010PropOp31
 70
     1
102
RTVSPost2010Prop32
280
     0
102
RTVSPost2010PropOp32
 70
     1
102
RTVSPost2010Prop33
280
     0
102
RTVSPost2010PropOp33
 70
     1
102
RTVSPost2010Prop34
280
     0
102
RTVSPost2010PropOp34
 70
     1
102
RTVSPost2010Prop35
280
     0
102
RTVSPost2010PropOp35
 70
     1
102
RTVSPost2010Prop36
280
     0
102
RTVSPost2010PropOp36
 70
     1
102
RTVSPost2010Prop37
 90
       50
102
RTVSPost2010PropOp37
 70
     1
102
RTVSPost2010Prop38
140
0.0
102
RTVSPost2010PropOp38
 70
     1
102
RTVSPost2010Prop39
140
1.0
102
RTVSPost2010PropOp39
 70
     1
102
RTVSPost2010Prop40
 90
        0
102
RTVSPost2010PropOp40
 70
     1
102
RTVSPost2010Prop41ColorIndex
 90
       18
102
RTVSPost2010Prop41ColorRGB
 90
        0
102
RTVSPost2010PropOp41
 70
     1
102
RTVSPost2010Prop42
 90
       50
102
RTVSPost2010PropOp42
 70
     1
102
RTVSPost2010Prop43
 90
        3
102
RTVSPost2010PropOp43
 70
     1
102
RTVSPost2010Prop44ColorIndex
 90
        5
102
RTVSPost2010Prop44ColorRGB
 90
      255
102
RTVSPost2010PropOp44
 70
     1
102
RTVSPost2010Prop45
280
     0
102
RTVSPost2010PropOp45
 70
     1
102
RTVSPost2010Prop46
 90
       50
102
RTVSPost2010PropOp46
 70
     1
102
RTVSPost2010Prop47
 90
       50
102
RTVSPost2010PropOp47
 70
     1
102
RTVSPost2010Prop48
 90
       50
102
RTVSPost2010PropOp48
 70
     1
102
RTVSPost2010Prop49
280
     0
102
RTVSPost2010PropOp49
 70
     1
102
RTVSPost2010Prop50
 90
       50
102
RTVSPost2010PropOp50
 70
     1
102
RTVSPost2010Prop51ColorIndex
 90
      256
102
RTVSPost2010Prop51ColorRGB
 90
-16777216
102
RTVSPost2010PropOp51
 70
     0
102
RTVSPost2010Prop52
140
1.0
102
RTVSPost2010PropOp52
 70
     0
102
RTVSPost2010Prop53
 90
        2
102
RTVSPost2010PropOp53
 70
     1
102
RTVSPost2010Prop54
  1
strokes_ogs.tif
102
RTVSPost2010PropOp54
 70
     1
102
RTVSPost2010Prop55
280
     0
102
RTVSPost2010PropOp55
 70
     1
102
RTVSPost2010Prop56
140
1.0
102
RTVSPost2010PropOp56
 70
     1
102
RTVSPost2010Prop57
140
1.0
102
RTVSPost2010PropOp57
 70
     1
102
RTVSPropertyOp0
 70
     1
102
RTVSPropertyOp1
 70
     1
102
RTVSPropertyOp2
 70
     1
102
RTVSPropertyOp3
 70
     1
102
RTVSPropertyOp4
 70
     1
102
RTVSPropertyOp5
 70
     1
102
RTVSPropertyOp6
 70
     1
102
RTVSPropertyOp7
 70
     1
102
RTVSPropertyOp8
 70
     1
102
RTVSPropertyOp9
 70
     1
102
RTVSPropertyOp10
 70
     1
102
RTVSPropertyOp11
 70
     1
102
RTVSPropertyOp12
 70
     1
102
RTVSPropertyOp13
 70
     1
102
RTVSPropertyOp14
 70
     1
102
RTVSPropertyOp15
 70
     1
102
RTVSPropertyOp16
 70
     1
102
RTVSPropertyOp17
 70
     1
102
RTVSPropertyOp18
 70
     1
102
RTVSPropertyOp19
 70
     1
102
RTVSPropertyOp20
 70
     1
102
RTVSPropertyOp21
 70
     1
102
RTVSPropertyOp22
 70
     1
102
RTVSPropertyOp23
 70
     1
102
RTVSPropertyOp24
 70
     1
102
RTVSPropertyOp25
 70
     1
102
RTVSPropertyOp26
 70
     1
102
RTVSPropertyOp27
 70
     1
102
RTVSPropertyOp28
 70
     1
102
RTVSPropertyOp29
 70
     1
102
RTVSPropertyOp30
 70
     1
102
RTVSPropertyOp31
 70
     1
102
RTVSPropertyOp32
 70
     1
102
RTVSPropertyOp33
 70
     1
102
RTVSPropertyOp34
 70
     1
102
RTVSPropertyOp35
 70
     1
102
RTVSPropertyOp36
 70
     1
102
RTVSPropertyOp37
 70
     1
102
RTVSPropertyOp38
 70
     1
102
RTVSPropertyOp39
 70
     1
102
RTVSPropertyOp40
 70
     1
102
RTVSPropertyOp41
 70
     1
102
RTVSPropertyOp42
 70
     1
102
RTVSPropertyOp43
 70
     1
102
RTVSPropertyOp44
 70
     1
102
RTVSPropertyOp45
 70
     1
102
RTVSPropertyOp46
 70
     1
102
RTVSPropertyOp47
 70
     1
102
RTVSPropertyOp48
 70
     1
102
RTVSPropertyOp49
 70
     1
102
RTVSPropertyOp50
 70
     1
102
RTVSPropertyOp51
 70
     0
102
RTVSPropertyOp52
 70
     0
102
RTVSPropertyOp53
 70
     1
102
RTVSPropertyOp54
 70
     1
102
RTVSPropertyOp55
 70
     1
102
RTVSPropertyOp56
 70
     1
102
RTVSPropertyOp57
 70
     1
102
RTVSPropertyOp58
 70
     1
102
RTVSPropertyOp59
 70
     1
102
RTVSPropertyOp60
 70
     1
102
RTVSPropertyOp61
 70
     1
102
RTVSPropertyOp62
 70
     1
  0
XRECORD
  5
2D48F
102
{ACAD_REACTORS
330
2D48E
102
}
330
2D48E
100
AcDbXrecord
280
     1
102
RTVSPost2010Prop28
280
     0
102
RTVSPost2010PropOp28
 70
     1
102
RTVSPost2010Prop29
280
     1
102
RTVSPost2010PropOp29
 70
     1
102
RTVSPost2010Prop30
280
     1
102
RTVSPost2010PropOp30
 70
     1
102
RTVSPost2010Prop31
280
     0
102
RTVSPost2010PropOp31
 70
     1
102
RTVSPost2010Prop32
280
     0
102
RTVSPost2010PropOp32
 70
     1
102
RTVSPost2010Prop33
280
     0
102
RTVSPost2010PropOp33
 70
     1
102
RTVSPost2010Prop34
280
     0
102
RTVSPost2010PropOp34
 70
     1
102
RTVSPost2010Prop35
280
     0
102
RTVSPost2010PropOp35
 70
     1
102
RTVSPost2010Prop36
280
     0
102
RTVSPost2010PropOp36
 70
     1
102
RTVSPost2010Prop37
 90
       50
102
RTVSPost2010PropOp37
 70
     1
102
RTVSPost2010Prop38
140
0.0
102
RTVSPost2010PropOp38
 70
     1
102
RTVSPost2010Prop39
140
1.0
102
RTVSPost2010PropOp39
 70
     1
102
RTVSPost2010Prop40
 90
        0
102
RTVSPost2010PropOp40
 70
     1
102
RTVSPost2010Prop41ColorIndex
 90
       18
102
RTVSPost2010Prop41ColorRGB
 90
        0
102
RTVSPost2010PropOp41
 70
     1
102
RTVSPost2010Prop42
 90
       50
102
RTVSPost2010PropOp42
 70
     1
102
RTVSPost2010Prop43
 90
        3
102
RTVSPost2010PropOp43
 70
     1
102
RTVSPost2010Prop44ColorIndex
 90
        5
102
RTVSPost2010Prop44ColorRGB
 90
      255
102
RTVSPost2010PropOp44
 70
     1
102
RTVSPost2010Prop45
280
     0
102
RTVSPost2010PropOp45
 70
     1
102
RTVSPost2010Prop46
 90
       50
102
RTVSPost2010PropOp46
 70
     1
102
RTVSPost2010Prop47
 90
       50
102
RTVSPost2010PropOp47
 70
     1
102
RTVSPost2010Prop48
 90
       50
102
RTVSPost2010PropOp48
 70
     1
102
RTVSPost2010Prop49
280
     0
102
RTVSPost2010PropOp49
 70
     1
102
RTVSPost2010Prop50
 90
       50
102
RTVSPost2010PropOp50
 70
     1
102
RTVSPost2010Prop51ColorIndex
 90
      256
102
RTVSPost2010Prop51ColorRGB
 90
-16777216
102
RTVSPost2010PropOp51
 70
     0
102
RTVSPost2010Prop52
140
1.0
102
RTVSPost2010PropOp52
 70
     0
102
RTVSPost2010Prop53
 90
        2
102
RTVSPost2010PropOp53
 70
     1
102
RTVSPost2010Prop54
  1
strokes_ogs.tif
102
RTVSPost2010PropOp54
 70
     1
102
RTVSPost2010Prop55
280
     0
102
RTVSPost2010PropOp55
 70
     1
102
RTVSPost2010Prop56
140
1.0
102
RTVSPost2010PropOp56
 70
     1
102
RTVSPost2010Prop57
140
1.0
102
RTVSPost2010PropOp57
 70
     1
102
RTVSPropertyOp0
 70
     1
102
RTVSPropertyOp1
 70
     1
102
RTVSPropertyOp2
 70
     1
102
RTVSPropertyOp3
 70
     1
102
RTVSPropertyOp4
 70
     1
102
RTVSPropertyOp5
 70
     1
102
RTVSPropertyOp6
 70
     1
102
RTVSPropertyOp7
 70
     1
102
RTVSPropertyOp8
 70
     1
102
RTVSPropertyOp9
 70
     1
102
RTVSPropertyOp10
 70
     1
102
RTVSPropertyOp11
 70
     1
102
RTVSPropertyOp12
 70
     1
102
RTVSPropertyOp13
 70
     1
102
RTVSPropertyOp14
 70
     1
102
RTVSPropertyOp15
 70
     1
102
RTVSPropertyOp16
 70
     1
102
RTVSPropertyOp17
 70
     1
102
RTVSPropertyOp18
 70
     1
102
RTVSPropertyOp19
 70
     1
102
RTVSPropertyOp20
 70
     1
102
RTVSPropertyOp21
 70
     1
102
RTVSPropertyOp22
 70
     1
102
RTVSPropertyOp23
 70
     1
102
RTVSPropertyOp24
 70
     1
102
RTVSPropertyOp25
 70
     1
102
RTVSPropertyOp26
 70
     1
102
RTVSPropertyOp27
 70
     1
102
RTVSPropertyOp28
 70
     1
102
RTVSPropertyOp29
 70
     1
102
RTVSPropertyOp30
 70
     1
102
RTVSPropertyOp31
 70
     1
102
RTVSPropertyOp32
 70
     1
102
RTVSPropertyOp33
 70
     1
102
RTVSPropertyOp34
 70
     1
102
RTVSPropertyOp35
 70
     1
102
RTVSPropertyOp36
 70
     1
102
RTVSPropertyOp37
 70
     1
102
RTVSPropertyOp38
 70
     1
102
RTVSPropertyOp39
 70
     1
102
RTVSPropertyOp40
 70
     1
102
RTVSPropertyOp41
 70
     1
102
RTVSPropertyOp42
 70
     1
102
RTVSPropertyOp43
 70
     1
102
RTVSPropertyOp44
 70
     1
102
RTVSPropertyOp45
 70
     1
102
RTVSPropertyOp46
 70
     1
102
RTVSPropertyOp47
 70
     1
102
RTVSPropertyOp48
 70
     1
102
RTVSPropertyOp49
 70
     1
102
RTVSPropertyOp50
 70
     1
102
RTVSPropertyOp51
 70
     0
102
RTVSPropertyOp52
 70
     0
102
RTVSPropertyOp53
 70
     1
102
RTVSPropertyOp54
 70
     1
102
RTVSPropertyOp55
 70
     1
102
RTVSPropertyOp56
 70
     1
102
RTVSPropertyOp57
 70
     1
102
RTVSPropertyOp58
 70
     1
102
RTVSPropertyOp59
 70
     1
102
RTVSPropertyOp60
 70
     1
102
RTVSPropertyOp61
 70
     1
102
RTVSPropertyOp62
 70
     1
  0
XRECORD
  5
2D486
102
{ACAD_REACTORS
330
2D485
102
}
330
2D485
100
AcDbXrecord
280
     1
102
RTVSPost2010Prop28
280
     0
102
RTVSPost2010PropOp28
 70
     1
102
RTVSPost2010Prop29
280
     1
102
RTVSPost2010PropOp29
 70
     1
102
RTVSPost2010Prop30
280
     1
102
RTVSPost2010PropOp30
 70
     1
102
RTVSPost2010Prop31
280
     0
102
RTVSPost2010PropOp31
 70
     1
102
RTVSPost2010Prop32
280
     0
102
RTVSPost2010PropOp32
 70
     1
102
RTVSPost2010Prop33
280
     0
102
RTVSPost2010PropOp33
 70
     1
102
RTVSPost2010Prop34
280
     0
102
RTVSPost2010PropOp34
 70
     1
102
RTVSPost2010Prop35
280
     0
102
RTVSPost2010PropOp35
 70
     1
102
RTVSPost2010Prop36
280
     0
102
RTVSPost2010PropOp36
 70
     1
102
RTVSPost2010Prop37
 90
       50
102
RTVSPost2010PropOp37
 70
     1
102
RTVSPost2010Prop38
140
0.0
102
RTVSPost2010PropOp38
 70
     1
102
RTVSPost2010Prop39
140
1.0
102
RTVSPost2010PropOp39
 70
     1
102
RTVSPost2010Prop40
 90
        0
102
RTVSPost2010PropOp40
 70
     1
102
RTVSPost2010Prop41ColorIndex
 90
       18
102
RTVSPost2010Prop41ColorRGB
 90
        0
102
RTVSPost2010PropOp41
 70
     1
102
RTVSPost2010Prop42
 90
       50
102
RTVSPost2010PropOp42
 70
     1
102
RTVSPost2010Prop43
 90
        3
102
RTVSPost2010PropOp43
 70
     1
102
RTVSPost2010Prop44ColorIndex
 90
        5
102
RTVSPost2010Prop44ColorRGB
 90
      255
102
RTVSPost2010PropOp44
 70
     1
102
RTVSPost2010Prop45
280
     0
102
RTVSPost2010PropOp45
 70
     1
102
RTVSPost2010Prop46
 90
       50
102
RTVSPost2010PropOp46
 70
     1
102
RTVSPost2010Prop47
 90
       50
102
RTVSPost2010PropOp47
 70
     1
102
RTVSPost2010Prop48
 90
       50
102
RTVSPost2010PropOp48
 70
     1
102
RTVSPost2010Prop49
280
     0
102
RTVSPost2010PropOp49
 70
     1
102
RTVSPost2010Prop50
 90
       50
102
RTVSPost2010PropOp50
 70
     1
102
RTVSPost2010Prop51ColorIndex
 90
      256
102
RTVSPost2010Prop51ColorRGB
 90
-16777216
102
RTVSPost2010PropOp51
 70
     0
102
RTVSPost2010Prop52
140
1.0
102
RTVSPost2010PropOp52
 70
     0
102
RTVSPost2010Prop53
 90
        2
102
RTVSPost2010PropOp53
 70
     1
102
RTVSPost2010Prop54
  1
strokes_ogs.tif
102
RTVSPost2010PropOp54
 70
     1
102
RTVSPost2010Prop55
280
     0
102
RTVSPost2010PropOp55
 70
     1
102
RTVSPost2010Prop56
140
1.0
102
RTVSPost2010PropOp56
 70
     1
102
RTVSPost2010Prop57
140
1.0
102
RTVSPost2010PropOp57
 70
     1
102
RTVSPropertyOp0
 70
     0
102
RTVSPropertyOp1
 70
     0
102
RTVSPropertyOp2
 70
     0
102
RTVSPropertyOp3
 70
     0
102
RTVSPropertyOp4
 70
     0
102
RTVSPropertyOp5
 70
     0
102
RTVSPropertyOp6
 70
     0
102
RTVSPropertyOp7
 70
     0
102
RTVSPropertyOp8
 70
     0
102
RTVSPropertyOp9
 70
     0
102
RTVSPropertyOp10
 70
     0
102
RTVSPropertyOp11
 70
     0
102
RTVSPropertyOp12
 70
     0
102
RTVSPropertyOp13
 70
     0
102
RTVSPropertyOp14
 70
     2
102
RTVSPropertyOp15
 70
     0
102
RTVSPropertyOp16
 70
     0
102
RTVSPropertyOp17
 70
     0
102
RTVSPropertyOp18
 70
     0
102
RTVSPropertyOp19
 70
     0
102
RTVSPropertyOp20
 70
     0
102
RTVSPropertyOp21
 70
     0
102
RTVSPropertyOp22
 70
     0
102
RTVSPropertyOp23
 70
     0
102
RTVSPropertyOp24
 70
     0
102
RTVSPropertyOp25
 70
     0
102
RTVSPropertyOp26
 70
     0
102
RTVSPropertyOp27
 70
     0
102
RTVSPropertyOp28
 70
     1
102
RTVSPropertyOp29
 70
     1
102
RTVSPropertyOp30
 70
     1
102
RTVSPropertyOp31
 70
     1
102
RTVSPropertyOp32
 70
     1
102
RTVSPropertyOp33
 70
     1
102
RTVSPropertyOp34
 70
     1
102
RTVSPropertyOp35
 70
     1
102
RTVSPropertyOp36
 70
     1
102
RTVSPropertyOp37
 70
     1
102
RTVSPropertyOp38
 70
     1
102
RTVSPropertyOp39
 70
     1
102
RTVSPropertyOp40
 70
     1
102
RTVSPropertyOp41
 70
     1
102
RTVSPropertyOp42
 70
     1
102
RTVSPropertyOp43
 70
     1
102
RTVSPropertyOp44
 70
     1
102
RTVSPropertyOp45
 70
     1
102
RTVSPropertyOp46
 70
     1
102
RTVSPropertyOp47
 70
     1
102
RTVSPropertyOp48
 70
     1
102
RTVSPropertyOp49
 70
     1
102
RTVSPropertyOp50
 70
     1
102
RTVSPropertyOp51
 70
     0
102
RTVSPropertyOp52
 70
     0
102
RTVSPropertyOp53
 70
     1
102
RTVSPropertyOp54
 70
     1
102
RTVSPropertyOp55
 70
     1
102
RTVSPropertyOp56
 70
     1
102
RTVSPropertyOp57
 70
     1
102
RTVSPropertyOp58
 70
     1
102
RTVSPropertyOp59
 70
     1
102
RTVSPropertyOp60
 70
     1
102
RTVSPropertyOp61
 70
     1
102
RTVSPropertyOp62
 70
     1
  0
XRECORD
  5
2D480
102
{ACAD_REACTORS
330
2D47F
102
}
330
2D47F
100
AcDbXrecord
280
     1
102
RTVSPost2010Prop28
280
     0
102
RTVSPost2010PropOp28
 70
     1
102
RTVSPost2010Prop29
280
     1
102
RTVSPost2010PropOp29
 70
     1
102
RTVSPost2010Prop30
280
     1
102
RTVSPost2010PropOp30
 70
     1
102
RTVSPost2010Prop31
280
     0
102
RTVSPost2010PropOp31
 70
     1
102
RTVSPost2010Prop32
280
     0
102
RTVSPost2010PropOp32
 70
     1
102
RTVSPost2010Prop33
280
     0
102
RTVSPost2010PropOp33
 70
     1
102
RTVSPost2010Prop34
280
     0
102
RTVSPost2010PropOp34
 70
     1
102
RTVSPost2010Prop35
280
     0
102
RTVSPost2010PropOp35
 70
     1
102
RTVSPost2010Prop36
280
     0
102
RTVSPost2010PropOp36
 70
     1
102
RTVSPost2010Prop37
 90
       50
102
RTVSPost2010PropOp37
 70
     1
102
RTVSPost2010Prop38
140
0.0
102
RTVSPost2010PropOp38
 70
     1
102
RTVSPost2010Prop39
140
1.0
102
RTVSPost2010PropOp39
 70
     1
102
RTVSPost2010Prop40
 90
        0
102
RTVSPost2010PropOp40
 70
     1
102
RTVSPost2010Prop41ColorIndex
 90
       18
102
RTVSPost2010Prop41ColorRGB
 90
        0
102
RTVSPost2010PropOp41
 70
     1
102
RTVSPost2010Prop42
 90
       50
102
RTVSPost2010PropOp42
 70
     1
102
RTVSPost2010Prop43
 90
        3
102
RTVSPost2010PropOp43
 70
     1
102
RTVSPost2010Prop44ColorIndex
 90
        5
102
RTVSPost2010Prop44ColorRGB
 90
      255
102
RTVSPost2010PropOp44
 70
     1
102
RTVSPost2010Prop45
280
     0
102
RTVSPost2010PropOp45
 70
     1
102
RTVSPost2010Prop46
 90
       50
102
RTVSPost2010PropOp46
 70
     1
102
RTVSPost2010Prop47
 90
       50
102
RTVSPost2010PropOp47
 70
     1
102
RTVSPost2010Prop48
 90
       50
102
RTVSPost2010PropOp48
 70
     1
102
RTVSPost2010Prop49
280
     0
102
RTVSPost2010PropOp49
 70
     1
102
RTVSPost2010Prop50
 90
       50
102
RTVSPost2010PropOp50
 70
     1
102
RTVSPost2010Prop51ColorIndex
 90
      256
102
RTVSPost2010Prop51ColorRGB
 90
-16777216
102
RTVSPost2010PropOp51
 70
     0
102
RTVSPost2010Prop52
140
1.0
102
RTVSPost2010PropOp52
 70
     0
102
RTVSPost2010Prop53
 90
        2
102
RTVSPost2010PropOp53
 70
     1
102
RTVSPost2010Prop54
  1
strokes_ogs.tif
102
RTVSPost2010PropOp54
 70
     1
102
RTVSPost2010Prop55
280
     0
102
RTVSPost2010PropOp55
 70
     1
102
RTVSPost2010Prop56
140
1.0
102
RTVSPost2010PropOp56
 70
     1
102
RTVSPost2010Prop57
140
1.0
102
RTVSPost2010PropOp57
 70
     1
102
RTVSPropertyOp0
 70
     1
102
RTVSPropertyOp1
 70
     1
102
RTVSPropertyOp2
 70
     1
102
RTVSPropertyOp3
 70
     1
102
RTVSPropertyOp4
 70
     1
102
RTVSPropertyOp5
 70
     1
102
RTVSPropertyOp6
 70
     1
102
RTVSPropertyOp7
 70
     1
102
RTVSPropertyOp8
 70
     1
102
RTVSPropertyOp9
 70
     1
102
RTVSPropertyOp10
 70
     1
102
RTVSPropertyOp11
 70
     1
102
RTVSPropertyOp12
 70
     1
102
RTVSPropertyOp13
 70
     1
102
RTVSPropertyOp14
 70
     1
102
RTVSPropertyOp15
 70
     1
102
RTVSPropertyOp16
 70
     1
102
RTVSPropertyOp17
 70
     1
102
RTVSPropertyOp18
 70
     1
102
RTVSPropertyOp19
 70
     1
102
RTVSPropertyOp20
 70
     1
102
RTVSPropertyOp21
 70
     1
102
RTVSPropertyOp22
 70
     1
102
RTVSPropertyOp23
 70
     1
102
RTVSPropertyOp24
 70
     1
102
RTVSPropertyOp25
 70
     1
102
RTVSPropertyOp26
 70
     1
102
RTVSPropertyOp27
 70
     1
102
RTVSPropertyOp28
 70
     1
102
RTVSPropertyOp29
 70
     1
102
RTVSPropertyOp30
 70
     1
102
RTVSPropertyOp31
 70
     1
102
RTVSPropertyOp32
 70
     1
102
RTVSPropertyOp33
 70
     1
102
RTVSPropertyOp34
 70
     1
102
RTVSPropertyOp35
 70
     1
102
RTVSPropertyOp36
 70
     1
102
RTVSPropertyOp37
 70
     1
102
RTVSPropertyOp38
 70
     1
102
RTVSPropertyOp39
 70
     1
102
RTVSPropertyOp40
 70
     1
102
RTVSPropertyOp41
 70
     1
102
RTVSPropertyOp42
 70
     1
102
RTVSPropertyOp43
 70
     1
102
RTVSPropertyOp44
 70
     1
102
RTVSPropertyOp45
 70
     1
102
RTVSPropertyOp46
 70
     1
102
RTVSPropertyOp47
 70
     1
102
RTVSPropertyOp48
 70
     1
102
RTVSPropertyOp49
 70
     1
102
RTVSPropertyOp50
 70
     1
102
RTVSPropertyOp51
 70
     0
102
RTVSPropertyOp52
 70
     0
102
RTVSPropertyOp53
 70
     1
102
RTVSPropertyOp54
 70
     1
102
RTVSPropertyOp55
 70
     1
102
RTVSPropertyOp56
 70
     1
102
RTVSPropertyOp57
 70
     1
102
RTVSPropertyOp58
 70
     1
102
RTVSPropertyOp59
 70
     1
102
RTVSPropertyOp60
 70
     1
102
RTVSPropertyOp61
 70
     1
102
RTVSPropertyOp62
 70
     1
  0
XRECORD
  5
2D488
102
{ACAD_REACTORS
330
2D487
102
}
330
2D487
100
AcDbXrecord
280
     1
102
RTVSPost2010Prop28
280
     0
102
RTVSPost2010PropOp28
 70
     1
102
RTVSPost2010Prop29
280
     1
102
RTVSPost2010PropOp29
 70
     1
102
RTVSPost2010Prop30
280
     1
102
RTVSPost2010PropOp30
 70
     1
102
RTVSPost2010Prop31
280
     0
102
RTVSPost2010PropOp31
 70
     1
102
RTVSPost2010Prop32
280
     0
102
RTVSPost2010PropOp32
 70
     1
102
RTVSPost2010Prop33
280
     0
102
RTVSPost2010PropOp33
 70
     1
102
RTVSPost2010Prop34
280
     0
102
RTVSPost2010PropOp34
 70
     1
102
RTVSPost2010Prop35
280
     0
102
RTVSPost2010PropOp35
 70
     1
102
RTVSPost2010Prop36
280
     0
102
RTVSPost2010PropOp36
 70
     1
102
RTVSPost2010Prop37
 90
       50
102
RTVSPost2010PropOp37
 70
     1
102
RTVSPost2010Prop38
140
0.0
102
RTVSPost2010PropOp38
 70
     1
102
RTVSPost2010Prop39
140
1.0
102
RTVSPost2010PropOp39
 70
     1
102
RTVSPost2010Prop40
 90
        0
102
RTVSPost2010PropOp40
 70
     1
102
RTVSPost2010Prop41ColorIndex
 90
       18
102
RTVSPost2010Prop41ColorRGB
 90
        0
102
RTVSPost2010PropOp41
 70
     1
102
RTVSPost2010Prop42
 90
       50
102
RTVSPost2010PropOp42
 70
     1
102
RTVSPost2010Prop43
 90
        3
102
RTVSPost2010PropOp43
 70
     1
102
RTVSPost2010Prop44ColorIndex
 90
        5
102
RTVSPost2010Prop44ColorRGB
 90
      255
102
RTVSPost2010PropOp44
 70
     1
102
RTVSPost2010Prop45
280
     0
102
RTVSPost2010PropOp45
 70
     1
102
RTVSPost2010Prop46
 90
       50
102
RTVSPost2010PropOp46
 70
     1
102
RTVSPost2010Prop47
 90
       50
102
RTVSPost2010PropOp47
 70
     1
102
RTVSPost2010Prop48
 90
       50
102
RTVSPost2010PropOp48
 70
     1
102
RTVSPost2010Prop49
280
     0
102
RTVSPost2010PropOp49
 70
     1
102
RTVSPost2010Prop50
 90
       50
102
RTVSPost2010PropOp50
 70
     1
102
RTVSPost2010Prop51ColorIndex
 90
      256
102
RTVSPost2010Prop51ColorRGB
 90
-16777216
102
RTVSPost2010PropOp51
 70
     0
102
RTVSPost2010Prop52
140
1.0
102
RTVSPost2010PropOp52
 70
     0
102
RTVSPost2010Prop53
 90
        2
102
RTVSPost2010PropOp53
 70
     1
102
RTVSPost2010Prop54
  1
strokes_ogs.tif
102
RTVSPost2010PropOp54
 70
     1
102
RTVSPost2010Prop55
280
     0
102
RTVSPost2010PropOp55
 70
     1
102
RTVSPost2010Prop56
140
1.0
102
RTVSPost2010PropOp56
 70
     1
102
RTVSPost2010Prop57
140
1.0
102
RTVSPost2010PropOp57
 70
     1
102
RTVSPropertyOp0
 70
     0
102
RTVSPropertyOp1
 70
     0
102
RTVSPropertyOp2
 70
     0
102
RTVSPropertyOp3
 70
     0
102
RTVSPropertyOp4
 70
     0
102
RTVSPropertyOp5
 70
     0
102
RTVSPropertyOp6
 70
     0
102
RTVSPropertyOp7
 70
     0
102
RTVSPropertyOp8
 70
     0
102
RTVSPropertyOp9
 70
     0
102
RTVSPropertyOp10
 70
     0
102
RTVSPropertyOp11
 70
     0
102
RTVSPropertyOp12
 70
     0
102
RTVSPropertyOp13
 70
     0
102
RTVSPropertyOp14
 70
     2
102
RTVSPropertyOp15
 70
     0
102
RTVSPropertyOp16
 70
     0
102
RTVSPropertyOp17
 70
     0
102
RTVSPropertyOp18
 70
     0
102
RTVSPropertyOp19
 70
     0
102
RTVSPropertyOp20
 70
     0
102
RTVSPropertyOp21
 70
     0
102
RTVSPropertyOp22
 70
     0
102
RTVSPropertyOp23
 70
     0
102
RTVSPropertyOp24
 70
     0
102
RTVSPropertyOp25
 70
     0
102
RTVSPropertyOp26
 70
     0
102
RTVSPropertyOp27
 70
     0
102
RTVSPropertyOp28
 70
     1
102
RTVSPropertyOp29
 70
     1
102
RTVSPropertyOp30
 70
     1
102
RTVSPropertyOp31
 70
     1
102
RTVSPropertyOp32
 70
     1
102
RTVSPropertyOp33
 70
     1
102
RTVSPropertyOp34
 70
     1
102
RTVSPropertyOp35
 70
     1
102
RTVSPropertyOp36
 70
     1
102
RTVSPropertyOp37
 70
     1
102
RTVSPropertyOp38
 70
     1
102
RTVSPropertyOp39
 70
     1
102
RTVSPropertyOp40
 70
     1
102
RTVSPropertyOp41
 70
     1
102
RTVSPropertyOp42
 70
     1
102
RTVSPropertyOp43
 70
     1
102
RTVSPropertyOp44
 70
     1
102
RTVSPropertyOp45
 70
     1
102
RTVSPropertyOp46
 70
     1
102
RTVSPropertyOp47
 70
     1
102
RTVSPropertyOp48
 70
     1
102
RTVSPropertyOp49
 70
     1
102
RTVSPropertyOp50
 70
     1
102
RTVSPropertyOp51
 70
     0
102
RTVSPropertyOp52
 70
     0
102
RTVSPropertyOp53
 70
     1
102
RTVSPropertyOp54
 70
     1
102
RTVSPropertyOp55
 70
     1
102
RTVSPropertyOp56
 70
     1
102
RTVSPropertyOp57
 70
     1
102
RTVSPropertyOp58
 70
     1
102
RTVSPropertyOp59
 70
     1
102
RTVSPropertyOp60
 70
     1
102
RTVSPropertyOp61
 70
     1
102
RTVSPropertyOp62
 70
     1
  0
XRECORD
  5
2D478
102
{ACAD_REACTORS
330
2D477
102
}
330
2D477
100
AcDbXrecord
280
     1
102
RTVSPost2010Prop28
280
     0
102
RTVSPost2010PropOp28
 70
     1
102
RTVSPost2010Prop29
280
     1
102
RTVSPost2010PropOp29
 70
     1
102
RTVSPost2010Prop30
280
     1
102
RTVSPost2010PropOp30
 70
     1
102
RTVSPost2010Prop31
280
     0
102
RTVSPost2010PropOp31
 70
     1
102
RTVSPost2010Prop32
280
     0
102
RTVSPost2010PropOp32
 70
     1
102
RTVSPost2010Prop33
280
     0
102
RTVSPost2010PropOp33
 70
     1
102
RTVSPost2010Prop34
280
     0
102
RTVSPost2010PropOp34
 70
     1
102
RTVSPost2010Prop35
280
     0
102
RTVSPost2010PropOp35
 70
     1
102
RTVSPost2010Prop36
280
     0
102
RTVSPost2010PropOp36
 70
     1
102
RTVSPost2010Prop37
 90
       50
102
RTVSPost2010PropOp37
 70
     1
102
RTVSPost2010Prop38
140
0.0
102
RTVSPost2010PropOp38
 70
     1
102
RTVSPost2010Prop39
140
1.0
102
RTVSPost2010PropOp39
 70
     1
102
RTVSPost2010Prop40
 90
        0
102
RTVSPost2010PropOp40
 70
     1
102
RTVSPost2010Prop41ColorIndex
 90
       18
102
RTVSPost2010Prop41ColorRGB
 90
        0
102
RTVSPost2010PropOp41
 70
     1
102
RTVSPost2010Prop42
 90
       50
102
RTVSPost2010PropOp42
 70
     1
102
RTVSPost2010Prop43
 90
        3
102
RTVSPost2010PropOp43
 70
     1
102
RTVSPost2010Prop44ColorIndex
 90
        5
102
RTVSPost2010Prop44ColorRGB
 90
      255
102
RTVSPost2010PropOp44
 70
     1
102
RTVSPost2010Prop45
280
     0
102
RTVSPost2010PropOp45
 70
     1
102
RTVSPost2010Prop46
 90
       50
102
RTVSPost2010PropOp46
 70
     1
102
RTVSPost2010Prop47
 90
       50
102
RTVSPost2010PropOp47
 70
     1
102
RTVSPost2010Prop48
 90
       50
102
RTVSPost2010PropOp48
 70
     1
102
RTVSPost2010Prop49
280
     0
102
RTVSPost2010PropOp49
 70
     1
102
RTVSPost2010Prop50
 90
       50
102
RTVSPost2010PropOp50
 70
     1
102
RTVSPost2010Prop51ColorIndex
 90
      256
102
RTVSPost2010Prop51ColorRGB
 90
-16777216
102
RTVSPost2010PropOp51
 70
     0
102
RTVSPost2010Prop52
140
1.0
102
RTVSPost2010PropOp52
 70
     0
102
RTVSPost2010Prop53
 90
        2
102
RTVSPost2010PropOp53
 70
     1
102
RTVSPost2010Prop54
  1
strokes_ogs.tif
102
RTVSPost2010PropOp54
 70
     1
102
RTVSPost2010Prop55
280
     0
102
RTVSPost2010PropOp55
 70
     1
102
RTVSPost2010Prop56
140
1.0
102
RTVSPost2010PropOp56
 70
     1
102
RTVSPost2010Prop57
140
1.0
102
RTVSPost2010PropOp57
 70
     1
102
RTVSPropertyOp0
 70
     1
102
RTVSPropertyOp1
 70
     1
102
RTVSPropertyOp2
 70
     1
102
RTVSPropertyOp3
 70
     1
102
RTVSPropertyOp4
 70
     1
102
RTVSPropertyOp5
 70
     1
102
RTVSPropertyOp6
 70
     1
102
RTVSPropertyOp7
 70
     1
102
RTVSPropertyOp8
 70
     1
102
RTVSPropertyOp9
 70
     1
102
RTVSPropertyOp10
 70
     1
102
RTVSPropertyOp11
 70
     1
102
RTVSPropertyOp12
 70
     1
102
RTVSPropertyOp13
 70
     1
102
RTVSPropertyOp14
 70
     1
102
RTVSPropertyOp15
 70
     1
102
RTVSPropertyOp16
 70
     1
102
RTVSPropertyOp17
 70
     1
102
RTVSPropertyOp18
 70
     1
102
RTVSPropertyOp19
 70
     1
102
RTVSPropertyOp20
 70
     1
102
RTVSPropertyOp21
 70
     1
102
RTVSPropertyOp22
 70
     1
102
RTVSPropertyOp23
 70
     1
102
RTVSPropertyOp24
 70
     1
102
RTVSPropertyOp25
 70
     1
102
RTVSPropertyOp26
 70
     1
102
RTVSPropertyOp27
 70
     1
102
RTVSPropertyOp28
 70
     1
102
RTVSPropertyOp29
 70
     1
102
RTVSPropertyOp30
 70
     1
102
RTVSPropertyOp31
 70
     1
102
RTVSPropertyOp32
 70
     1
102
RTVSPropertyOp33
 70
     1
102
RTVSPropertyOp34
 70
     1
102
RTVSPropertyOp35
 70
     1
102
RTVSPropertyOp36
 70
     1
102
RTVSPropertyOp37
 70
     1
102
RTVSPropertyOp38
 70
     1
102
RTVSPropertyOp39
 70
     1
102
RTVSPropertyOp40
 70
     1
102
RTVSPropertyOp41
 70
     1
102
RTVSPropertyOp42
 70
     1
102
RTVSPropertyOp43
 70
     1
102
RTVSPropertyOp44
 70
     1
102
RTVSPropertyOp45
 70
     1
102
RTVSPropertyOp46
 70
     1
102
RTVSPropertyOp47
 70
     1
102
RTVSPropertyOp48
 70
     1
102
RTVSPropertyOp49
 70
     1
102
RTVSPropertyOp50
 70
     1
102
RTVSPropertyOp51
 70
     0
102
RTVSPropertyOp52
 70
     0
102
RTVSPropertyOp53
 70
     1
102
RTVSPropertyOp54
 70
     1
102
RTVSPropertyOp55
 70
     1
102
RTVSPropertyOp56
 70
     1
102
RTVSPropertyOp57
 70
     1
102
RTVSPropertyOp58
 70
     1
102
RTVSPropertyOp59
 70
     1
102
RTVSPropertyOp60
 70
     1
102
RTVSPropertyOp61
 70
     1
102
RTVSPropertyOp62
 70
     1
  0
XRECORD
  5
2D499
102
{ACAD_REACTORS
330
2D498
102
}
330
2D498
100
AcDbXrecord
280
     1
102
RTVSPost2010Prop28
280
     0
102
RTVSPost2010PropOp28
 70
     1
102
RTVSPost2010Prop29
280
     1
102
RTVSPost2010PropOp29
 70
     1
102
RTVSPost2010Prop30
280
     1
102
RTVSPost2010PropOp30
 70
     1
102
RTVSPost2010Prop31
280
     0
102
RTVSPost2010PropOp31
 70
     1
102
RTVSPost2010Prop32
280
     0
102
RTVSPost2010PropOp32
 70
     1
102
RTVSPost2010Prop33
280
     0
102
RTVSPost2010PropOp33
 70
     1
102
RTVSPost2010Prop34
280
     0
102
RTVSPost2010PropOp34
 70
     1
102
RTVSPost2010Prop35
280
     0
102
RTVSPost2010PropOp35
 70
     1
102
RTVSPost2010Prop36
280
     0
102
RTVSPost2010PropOp36
 70
     1
102
RTVSPost2010Prop37
 90
       50
102
RTVSPost2010PropOp37
 70
     1
102
RTVSPost2010Prop38
140
0.0
102
RTVSPost2010PropOp38
 70
     1
102
RTVSPost2010Prop39
140
1.0
102
RTVSPost2010PropOp39
 70
     1
102
RTVSPost2010Prop40
 90
        0
102
RTVSPost2010PropOp40
 70
     1
102
RTVSPost2010Prop41ColorIndex
 90
       18
102
RTVSPost2010Prop41ColorRGB
 90
        0
102
RTVSPost2010PropOp41
 70
     1
102
RTVSPost2010Prop42
 90
       50
102
RTVSPost2010PropOp42
 70
     1
102
RTVSPost2010Prop43
 90
        3
102
RTVSPost2010PropOp43
 70
     1
102
RTVSPost2010Prop44ColorIndex
 90
        5
102
RTVSPost2010Prop44ColorRGB
 90
      255
102
RTVSPost2010PropOp44
 70
     1
102
RTVSPost2010Prop45
280
     0
102
RTVSPost2010PropOp45
 70
     1
102
RTVSPost2010Prop46
 90
       50
102
RTVSPost2010PropOp46
 70
     1
102
RTVSPost2010Prop47
 90
       50
102
RTVSPost2010PropOp47
 70
     1
102
RTVSPost2010Prop48
 90
       50
102
RTVSPost2010PropOp48
 70
     1
102
RTVSPost2010Prop49
280
     0
102
RTVSPost2010PropOp49
 70
     1
102
RTVSPost2010Prop50
 90
       50
102
RTVSPost2010PropOp50
 70
     1
102
RTVSPost2010Prop51ColorIndex
 90
      256
102
RTVSPost2010Prop51ColorRGB
 90
-16777216
102
RTVSPost2010PropOp51
 70
     0
102
RTVSPost2010Prop52
140
1.0
102
RTVSPost2010PropOp52
 70
     0
102
RTVSPost2010Prop53
 90
        2
102
RTVSPost2010PropOp53
 70
     1
102
RTVSPost2010Prop54
  1
strokes_ogs.tif
102
RTVSPost2010PropOp54
 70
     1
102
RTVSPost2010Prop55
280
     0
102
RTVSPost2010PropOp55
 70
     1
102
RTVSPost2010Prop56
140
1.0
102
RTVSPost2010PropOp56
 70
     1
102
RTVSPost2010Prop57
140
1.0
102
RTVSPost2010PropOp57
 70
     1
102
RTVSPropertyOp0
 70
     1
102
RTVSPropertyOp1
 70
     1
102
RTVSPropertyOp2
 70
     1
102
RTVSPropertyOp3
 70
     1
102
RTVSPropertyOp4
 70
     1
102
RTVSPropertyOp5
 70
     1
102
RTVSPropertyOp6
 70
     1
102
RTVSPropertyOp7
 70
     1
102
RTVSPropertyOp8
 70
     1
102
RTVSPropertyOp9
 70
     1
102
RTVSPropertyOp10
 70
     1
102
RTVSPropertyOp11
 70
     1
102
RTVSPropertyOp12
 70
     1
102
RTVSPropertyOp13
 70
     1
102
RTVSPropertyOp14
 70
     1
102
RTVSPropertyOp15
 70
     1
102
RTVSPropertyOp16
 70
     1
102
RTVSPropertyOp17
 70
     1
102
RTVSPropertyOp18
 70
     1
102
RTVSPropertyOp19
 70
     1
102
RTVSPropertyOp20
 70
     1
102
RTVSPropertyOp21
 70
     1
102
RTVSPropertyOp22
 70
     1
102
RTVSPropertyOp23
 70
     1
102
RTVSPropertyOp24
 70
     1
102
RTVSPropertyOp25
 70
     1
102
RTVSPropertyOp26
 70
     1
102
RTVSPropertyOp27
 70
     1
102
RTVSPropertyOp28
 70
     1
102
RTVSPropertyOp29
 70
     1
102
RTVSPropertyOp30
 70
     1
102
RTVSPropertyOp31
 70
     1
102
RTVSPropertyOp32
 70
     1
102
RTVSPropertyOp33
 70
     1
102
RTVSPropertyOp34
 70
     1
102
RTVSPropertyOp35
 70
     1
102
RTVSPropertyOp36
 70
     1
102
RTVSPropertyOp37
 70
     1
102
RTVSPropertyOp38
 70
     1
102
RTVSPropertyOp39
 70
     1
102
RTVSPropertyOp40
 70
     1
102
RTVSPropertyOp41
 70
     1
102
RTVSPropertyOp42
 70
     1
102
RTVSPropertyOp43
 70
     1
102
RTVSPropertyOp44
 70
     1
102
RTVSPropertyOp45
 70
     1
102
RTVSPropertyOp46
 70
     1
102
RTVSPropertyOp47
 70
     1
102
RTVSPropertyOp48
 70
     1
102
RTVSPropertyOp49
 70
     1
102
RTVSPropertyOp50
 70
     1
102
RTVSPropertyOp51
 70
     0
102
RTVSPropertyOp52
 70
     0
102
RTVSPropertyOp53
 70
     1
102
RTVSPropertyOp54
 70
     1
102
RTVSPropertyOp55
 70
     1
102
RTVSPropertyOp56
 70
     1
102
RTVSPropertyOp57
 70
     1
102
RTVSPropertyOp58
 70
     1
102
RTVSPropertyOp59
 70
     1
102
RTVSPropertyOp60
 70
     1
102
RTVSPropertyOp61
 70
     1
102
RTVSPropertyOp62
 70
     1
  0
XRECORD
  5
2D497
102
{ACAD_REACTORS
330
2D496
102
}
330
2D496
100
AcDbXrecord
280
     1
102
RTVSPost2010Prop28
280
     0
102
RTVSPost2010PropOp28
 70
     1
102
RTVSPost2010Prop29
280
     1
102
RTVSPost2010PropOp29
 70
     1
102
RTVSPost2010Prop30
280
     1
102
RTVSPost2010PropOp30
 70
     1
102
RTVSPost2010Prop31
280
     0
102
RTVSPost2010PropOp31
 70
     1
102
RTVSPost2010Prop32
280
     0
102
RTVSPost2010PropOp32
 70
     1
102
RTVSPost2010Prop33
280
     0
102
RTVSPost2010PropOp33
 70
     1
102
RTVSPost2010Prop34
280
     0
102
RTVSPost2010PropOp34
 70
     1
102
RTVSPost2010Prop35
280
     0
102
RTVSPost2010PropOp35
 70
     1
102
RTVSPost2010Prop36
280
     0
102
RTVSPost2010PropOp36
 70
     1
102
RTVSPost2010Prop37
 90
       50
102
RTVSPost2010PropOp37
 70
     1
102
RTVSPost2010Prop38
140
0.0
102
RTVSPost2010PropOp38
 70
     1
102
RTVSPost2010Prop39
140
1.0
102
RTVSPost2010PropOp39
 70
     1
102
RTVSPost2010Prop40
 90
        0
102
RTVSPost2010PropOp40
 70
     1
102
RTVSPost2010Prop41ColorIndex
 90
       18
102
RTVSPost2010Prop41ColorRGB
 90
        0
102
RTVSPost2010PropOp41
 70
     1
102
RTVSPost2010Prop42
 90
       50
102
RTVSPost2010PropOp42
 70
     1
102
RTVSPost2010Prop43
 90
        3
102
RTVSPost2010PropOp43
 70
     1
102
RTVSPost2010Prop44ColorIndex
 90
        5
102
RTVSPost2010Prop44ColorRGB
 90
      255
102
RTVSPost2010PropOp44
 70
     1
102
RTVSPost2010Prop45
280
     0
102
RTVSPost2010PropOp45
 70
     1
102
RTVSPost2010Prop46
 90
       50
102
RTVSPost2010PropOp46
 70
     1
102
RTVSPost2010Prop47
 90
       50
102
RTVSPost2010PropOp47
 70
     1
102
RTVSPost2010Prop48
 90
       50
102
RTVSPost2010PropOp48
 70
     1
102
RTVSPost2010Prop49
280
     0
102
RTVSPost2010PropOp49
 70
     1
102
RTVSPost2010Prop50
 90
       50
102
RTVSPost2010PropOp50
 70
     1
102
RTVSPost2010Prop51ColorIndex
 90
      256
102
RTVSPost2010Prop51ColorRGB
 90
-16777216
102
RTVSPost2010PropOp51
 70
     0
102
RTVSPost2010Prop52
140
1.0
102
RTVSPost2010PropOp52
 70
     0
102
RTVSPost2010Prop53
 90
        2
102
RTVSPost2010PropOp53
 70
     1
102
RTVSPost2010Prop54
  1
strokes_ogs.tif
102
RTVSPost2010PropOp54
 70
     1
102
RTVSPost2010Prop55
280
     0
102
RTVSPost2010PropOp55
 70
     1
102
RTVSPost2010Prop56
140
1.0
102
RTVSPost2010PropOp56
 70
     1
102
RTVSPost2010Prop57
140
1.0
102
RTVSPost2010PropOp57
 70
     1
102
RTVSPropertyOp0
 70
     1
102
RTVSPropertyOp1
 70
     1
102
RTVSPropertyOp2
 70
     1
102
RTVSPropertyOp3
 70
     1
102
RTVSPropertyOp4
 70
     1
102
RTVSPropertyOp5
 70
     1
102
RTVSPropertyOp6
 70
     1
102
RTVSPropertyOp7
 70
     1
102
RTVSPropertyOp8
 70
     1
102
RTVSPropertyOp9
 70
     1
102
RTVSPropertyOp10
 70
     1
102
RTVSPropertyOp11
 70
     1
102
RTVSPropertyOp12
 70
     1
102
RTVSPropertyOp13
 70
     1
102
RTVSPropertyOp14
 70
     1
102
RTVSPropertyOp15
 70
     1
102
RTVSPropertyOp16
 70
     1
102
RTVSPropertyOp17
 70
     1
102
RTVSPropertyOp18
 70
     1
102
RTVSPropertyOp19
 70
     1
102
RTVSPropertyOp20
 70
     1
102
RTVSPropertyOp21
 70
     1
102
RTVSPropertyOp22
 70
     1
102
RTVSPropertyOp23
 70
     1
102
RTVSPropertyOp24
 70
     1
102
RTVSPropertyOp25
 70
     1
102
RTVSPropertyOp26
 70
     1
102
RTVSPropertyOp27
 70
     1
102
RTVSPropertyOp28
 70
     1
102
RTVSPropertyOp29
 70
     1
102
RTVSPropertyOp30
 70
     1
102
RTVSPropertyOp31
 70
     1
102
RTVSPropertyOp32
 70
     1
102
RTVSPropertyOp33
 70
     1
102
RTVSPropertyOp34
 70
     1
102
RTVSPropertyOp35
 70
     1
102
RTVSPropertyOp36
 70
     1
102
RTVSPropertyOp37
 70
     1
102
RTVSPropertyOp38
 70
     1
102
RTVSPropertyOp39
 70
     1
102
RTVSPropertyOp40
 70
     1
102
RTVSPropertyOp41
 70
     1
102
RTVSPropertyOp42
 70
     1
102
RTVSPropertyOp43
 70
     1
102
RTVSPropertyOp44
 70
     1
102
RTVSPropertyOp45
 70
     1
102
RTVSPropertyOp46
 70
     1
102
RTVSPropertyOp47
 70
     1
102
RTVSPropertyOp48
 70
     1
102
RTVSPropertyOp49
 70
     1
102
RTVSPropertyOp50
 70
     1
102
RTVSPropertyOp51
 70
     0
102
RTVSPropertyOp52
 70
     0
102
RTVSPropertyOp53
 70
     1
102
RTVSPropertyOp54
 70
     1
102
RTVSPropertyOp55
 70
     1
102
RTVSPropertyOp56
 70
     1
102
RTVSPropertyOp57
 70
     1
102
RTVSPropertyOp58
 70
     1
102
RTVSPropertyOp59
 70
     1
102
RTVSPropertyOp60
 70
     1
102
RTVSPropertyOp61
 70
     1
102
RTVSPropertyOp62
 70
     1
  0
XRECORD
  5
2D491
102
{ACAD_REACTORS
330
2D490
102
}
330
2D490
100
AcDbXrecord
280
     1
102
RTVSPost2010Prop28
280
     0
102
RTVSPost2010PropOp28
 70
     1
102
RTVSPost2010Prop29
280
     1
102
RTVSPost2010PropOp29
 70
     1
102
RTVSPost2010Prop30
280
     1
102
RTVSPost2010PropOp30
 70
     1
102
RTVSPost2010Prop31
280
     0
102
RTVSPost2010PropOp31
 70
     1
102
RTVSPost2010Prop32
280
     0
102
RTVSPost2010PropOp32
 70
     1
102
RTVSPost2010Prop33
280
     0
102
RTVSPost2010PropOp33
 70
     1
102
RTVSPost2010Prop34
280
     0
102
RTVSPost2010PropOp34
 70
     1
102
RTVSPost2010Prop35
280
     0
102
RTVSPost2010PropOp35
 70
     1
102
RTVSPost2010Prop36
280
     0
102
RTVSPost2010PropOp36
 70
     1
102
RTVSPost2010Prop37
 90
       50
102
RTVSPost2010PropOp37
 70
     1
102
RTVSPost2010Prop38
140
0.0
102
RTVSPost2010PropOp38
 70
     1
102
RTVSPost2010Prop39
140
1.0
102
RTVSPost2010PropOp39
 70
     1
102
RTVSPost2010Prop40
 90
        0
102
RTVSPost2010PropOp40
 70
     1
102
RTVSPost2010Prop41ColorIndex
 90
       18
102
RTVSPost2010Prop41ColorRGB
 90
        0
102
RTVSPost2010PropOp41
 70
     1
102
RTVSPost2010Prop42
 90
       50
102
RTVSPost2010PropOp42
 70
     1
102
RTVSPost2010Prop43
 90
        3
102
RTVSPost2010PropOp43
 70
     1
102
RTVSPost2010Prop44ColorIndex
 90
        5
102
RTVSPost2010Prop44ColorRGB
 90
      255
102
RTVSPost2010PropOp44
 70
     1
102
RTVSPost2010Prop45
280
     0
102
RTVSPost2010PropOp45
 70
     1
102
RTVSPost2010Prop46
 90
       50
102
RTVSPost2010PropOp46
 70
     1
102
RTVSPost2010Prop47
 90
       50
102
RTVSPost2010PropOp47
 70
     1
102
RTVSPost2010Prop48
 90
       50
102
RTVSPost2010PropOp48
 70
     1
102
RTVSPost2010Prop49
280
     0
102
RTVSPost2010PropOp49
 70
     1
102
RTVSPost2010Prop50
 90
       50
102
RTVSPost2010PropOp50
 70
     1
102
RTVSPost2010Prop51ColorIndex
 90
      256
102
RTVSPost2010Prop51ColorRGB
 90
-16777216
102
RTVSPost2010PropOp51
 70
     0
102
RTVSPost2010Prop52
140
1.0
102
RTVSPost2010PropOp52
 70
     0
102
RTVSPost2010Prop53
 90
        2
102
RTVSPost2010PropOp53
 70
     1
102
RTVSPost2010Prop54
  1
strokes_ogs.tif
102
RTVSPost2010PropOp54
 70
     1
102
RTVSPost2010Prop55
280
     0
102
RTVSPost2010PropOp55
 70
     1
102
RTVSPost2010Prop56
140
1.0
102
RTVSPost2010PropOp56
 70
     1
102
RTVSPost2010Prop57
140
1.0
102
RTVSPost2010PropOp57
 70
     1
102
RTVSPropertyOp0
 70
     1
102
RTVSPropertyOp1
 70
     1
102
RTVSPropertyOp2
 70
     1
102
RTVSPropertyOp3
 70
     1
102
RTVSPropertyOp4
 70
     1
102
RTVSPropertyOp5
 70
     1
102
RTVSPropertyOp6
 70
     1
102
RTVSPropertyOp7
 70
     1
102
RTVSPropertyOp8
 70
     1
102
RTVSPropertyOp9
 70
     1
102
RTVSPropertyOp10
 70
     1
102
RTVSPropertyOp11
 70
     1
102
RTVSPropertyOp12
 70
     1
102
RTVSPropertyOp13
 70
     1
102
RTVSPropertyOp14
 70
     1
102
RTVSPropertyOp15
 70
     1
102
RTVSPropertyOp16
 70
     1
102
RTVSPropertyOp17
 70
     1
102
RTVSPropertyOp18
 70
     1
102
RTVSPropertyOp19
 70
     1
102
RTVSPropertyOp20
 70
     1
102
RTVSPropertyOp21
 70
     1
102
RTVSPropertyOp22
 70
     1
102
RTVSPropertyOp23
 70
     1
102
RTVSPropertyOp24
 70
     1
102
RTVSPropertyOp25
 70
     1
102
RTVSPropertyOp26
 70
     1
102
RTVSPropertyOp27
 70
     1
102
RTVSPropertyOp28
 70
     1
102
RTVSPropertyOp29
 70
     1
102
RTVSPropertyOp30
 70
     1
102
RTVSPropertyOp31
 70
     1
102
RTVSPropertyOp32
 70
     1
102
RTVSPropertyOp33
 70
     1
102
RTVSPropertyOp34
 70
     1
102
RTVSPropertyOp35
 70
     1
102
RTVSPropertyOp36
 70
     1
102
RTVSPropertyOp37
 70
     1
102
RTVSPropertyOp38
 70
     1
102
RTVSPropertyOp39
 70
     1
102
RTVSPropertyOp40
 70
     1
102
RTVSPropertyOp41
 70
     1
102
RTVSPropertyOp42
 70
     1
102
RTVSPropertyOp43
 70
     1
102
RTVSPropertyOp44
 70
     1
102
RTVSPropertyOp45
 70
     1
102
RTVSPropertyOp46
 70
     1
102
RTVSPropertyOp47
 70
     1
102
RTVSPropertyOp48
 70
     1
102
RTVSPropertyOp49
 70
     1
102
RTVSPropertyOp50
 70
     1
102
RTVSPropertyOp51
 70
     0
102
RTVSPropertyOp52
 70
     0
102
RTVSPropertyOp53
 70
     1
102
RTVSPropertyOp54
 70
     1
102
RTVSPropertyOp55
 70
     1
102
RTVSPropertyOp56
 70
     1
102
RTVSPropertyOp57
 70
     1
102
RTVSPropertyOp58
 70
     1
102
RTVSPropertyOp59
 70
     1
102
RTVSPropertyOp60
 70
     1
102
RTVSPropertyOp61
 70
     1
102
RTVSPropertyOp62
 70
     1
  0
XRECORD
  5
2D493
102
{ACAD_REACTORS
330
2D492
102
}
330
2D492
100
AcDbXrecord
280
     1
102
RTVSPost2010Prop28
280
     0
102
RTVSPost2010PropOp28
 70
     1
102
RTVSPost2010Prop29
280
     1
102
RTVSPost2010PropOp29
 70
     1
102
RTVSPost2010Prop30
280
     1
102
RTVSPost2010PropOp30
 70
     1
102
RTVSPost2010Prop31
280
     0
102
RTVSPost2010PropOp31
 70
     1
102
RTVSPost2010Prop32
280
     0
102
RTVSPost2010PropOp32
 70
     1
102
RTVSPost2010Prop33
280
     0
102
RTVSPost2010PropOp33
 70
     1
102
RTVSPost2010Prop34
280
     0
102
RTVSPost2010PropOp34
 70
     1
102
RTVSPost2010Prop35
280
     0
102
RTVSPost2010PropOp35
 70
     1
102
RTVSPost2010Prop36
280
     0
102
RTVSPost2010PropOp36
 70
     1
102
RTVSPost2010Prop37
 90
       50
102
RTVSPost2010PropOp37
 70
     1
102
RTVSPost2010Prop38
140
0.0
102
RTVSPost2010PropOp38
 70
     1
102
RTVSPost2010Prop39
140
1.0
102
RTVSPost2010PropOp39
 70
     1
102
RTVSPost2010Prop40
 90
        0
102
RTVSPost2010PropOp40
 70
     1
102
RTVSPost2010Prop41ColorIndex
 90
       18
102
RTVSPost2010Prop41ColorRGB
 90
        0
102
RTVSPost2010PropOp41
 70
     1
102
RTVSPost2010Prop42
 90
       50
102
RTVSPost2010PropOp42
 70
     1
102
RTVSPost2010Prop43
 90
        3
102
RTVSPost2010PropOp43
 70
     1
102
RTVSPost2010Prop44ColorIndex
 90
        5
102
RTVSPost2010Prop44ColorRGB
 90
      255
102
RTVSPost2010PropOp44
 70
     1
102
RTVSPost2010Prop45
280
     0
102
RTVSPost2010PropOp45
 70
     1
102
RTVSPost2010Prop46
 90
       50
102
RTVSPost2010PropOp46
 70
     1
102
RTVSPost2010Prop47
 90
       50
102
RTVSPost2010PropOp47
 70
     1
102
RTVSPost2010Prop48
 90
       50
102
RTVSPost2010PropOp48
 70
     1
102
RTVSPost2010Prop49
280
     0
102
RTVSPost2010PropOp49
 70
     1
102
RTVSPost2010Prop50
 90
       50
102
RTVSPost2010PropOp50
 70
     1
102
RTVSPost2010Prop51ColorIndex
 90
      256
102
RTVSPost2010Prop51ColorRGB
 90
-16777216
102
RTVSPost2010PropOp51
 70
     0
102
RTVSPost2010Prop52
140
1.0
102
RTVSPost2010PropOp52
 70
     0
102
RTVSPost2010Prop53
 90
        2
102
RTVSPost2010PropOp53
 70
     1
102
RTVSPost2010Prop54
  1
strokes_ogs.tif
102
RTVSPost2010PropOp54
 70
     1
102
RTVSPost2010Prop55
280
     0
102
RTVSPost2010PropOp55
 70
     1
102
RTVSPost2010Prop56
140
1.0
102
RTVSPost2010PropOp56
 70
     1
102
RTVSPost2010Prop57
140
1.0
102
RTVSPost2010PropOp57
 70
     1
102
RTVSPropertyOp0
 70
     1
102
RTVSPropertyOp1
 70
     1
102
RTVSPropertyOp2
 70
     1
102
RTVSPropertyOp3
 70
     1
102
RTVSPropertyOp4
 70
     1
102
RTVSPropertyOp5
 70
     1
102
RTVSPropertyOp6
 70
     1
102
RTVSPropertyOp7
 70
     1
102
RTVSPropertyOp8
 70
     1
102
RTVSPropertyOp9
 70
     1
102
RTVSPropertyOp10
 70
     1
102
RTVSPropertyOp11
 70
     1
102
RTVSPropertyOp12
 70
     1
102
RTVSPropertyOp13
 70
     1
102
RTVSPropertyOp14
 70
     1
102
RTVSPropertyOp15
 70
     1
102
RTVSPropertyOp16
 70
     1
102
RTVSPropertyOp17
 70
     1
102
RTVSPropertyOp18
 70
     1
102
RTVSPropertyOp19
 70
     1
102
RTVSPropertyOp20
 70
     1
102
RTVSPropertyOp21
 70
     1
102
RTVSPropertyOp22
 70
     1
102
RTVSPropertyOp23
 70
     1
102
RTVSPropertyOp24
 70
     1
102
RTVSPropertyOp25
 70
     1
102
RTVSPropertyOp26
 70
     1
102
RTVSPropertyOp27
 70
     1
102
RTVSPropertyOp28
 70
     1
102
RTVSPropertyOp29
 70
     1
102
RTVSPropertyOp30
 70
     1
102
RTVSPropertyOp31
 70
     1
102
RTVSPropertyOp32
 70
     1
102
RTVSPropertyOp33
 70
     1
102
RTVSPropertyOp34
 70
     1
102
RTVSPropertyOp35
 70
     1
102
RTVSPropertyOp36
 70
     1
102
RTVSPropertyOp37
 70
     1
102
RTVSPropertyOp38
 70
     1
102
RTVSPropertyOp39
 70
     1
102
RTVSPropertyOp40
 70
     1
102
RTVSPropertyOp41
 70
     1
102
RTVSPropertyOp42
 70
     1
102
RTVSPropertyOp43
 70
     1
102
RTVSPropertyOp44
 70
     1
102
RTVSPropertyOp45
 70
     1
102
RTVSPropertyOp46
 70
     1
102
RTVSPropertyOp47
 70
     1
102
RTVSPropertyOp48
 70
     1
102
RTVSPropertyOp49
 70
     1
102
RTVSPropertyOp50
 70
     1
102
RTVSPropertyOp51
 70
     0
102
RTVSPropertyOp52
 70
     0
102
RTVSPropertyOp53
 70
     1
102
RTVSPropertyOp54
 70
     1
102
RTVSPropertyOp55
 70
     1
102
RTVSPropertyOp56
 70
     1
102
RTVSPropertyOp57
 70
     1
102
RTVSPropertyOp58
 70
     1
102
RTVSPropertyOp59
 70
     1
102
RTVSPropertyOp60
 70
     1
102
RTVSPropertyOp61
 70
     1
102
RTVSPropertyOp62
 70
     1
  0
XRECORD
  5
2D47E
102
{ACAD_REACTORS
330
2D47D
102
}
330
2D47D
100
AcDbXrecord
280
     1
102
RTVSPost2010Prop28
280
     0
102
RTVSPost2010PropOp28
 70
     1
102
RTVSPost2010Prop29
280
     1
102
RTVSPost2010PropOp29
 70
     1
102
RTVSPost2010Prop30
280
     1
102
RTVSPost2010PropOp30
 70
     1
102
RTVSPost2010Prop31
280
     0
102
RTVSPost2010PropOp31
 70
     1
102
RTVSPost2010Prop32
280
     0
102
RTVSPost2010PropOp32
 70
     1
102
RTVSPost2010Prop33
280
     0
102
RTVSPost2010PropOp33
 70
     1
102
RTVSPost2010Prop34
280
     0
102
RTVSPost2010PropOp34
 70
     1
102
RTVSPost2010Prop35
280
     0
102
RTVSPost2010PropOp35
 70
     1
102
RTVSPost2010Prop36
280
     0
102
RTVSPost2010PropOp36
 70
     1
102
RTVSPost2010Prop37
 90
       50
102
RTVSPost2010PropOp37
 70
     1
102
RTVSPost2010Prop38
140
0.0
102
RTVSPost2010PropOp38
 70
     1
102
RTVSPost2010Prop39
140
1.0
102
RTVSPost2010PropOp39
 70
     1
102
RTVSPost2010Prop40
 90
        0
102
RTVSPost2010PropOp40
 70
     1
102
RTVSPost2010Prop41ColorIndex
 90
       18
102
RTVSPost2010Prop41ColorRGB
 90
        0
102
RTVSPost2010PropOp41
 70
     1
102
RTVSPost2010Prop42
 90
       50
102
RTVSPost2010PropOp42
 70
     1
102
RTVSPost2010Prop43
 90
        3
102
RTVSPost2010PropOp43
 70
     1
102
RTVSPost2010Prop44ColorIndex
 90
        5
102
RTVSPost2010Prop44ColorRGB
 90
      255
102
RTVSPost2010PropOp44
 70
     1
102
RTVSPost2010Prop45
280
     0
102
RTVSPost2010PropOp45
 70
     1
102
RTVSPost2010Prop46
 90
       50
102
RTVSPost2010PropOp46
 70
     1
102
RTVSPost2010Prop47
 90
       50
102
RTVSPost2010PropOp47
 70
     1
102
RTVSPost2010Prop48
 90
       50
102
RTVSPost2010PropOp48
 70
     1
102
RTVSPost2010Prop49
280
     0
102
RTVSPost2010PropOp49
 70
     1
102
RTVSPost2010Prop50
 90
       50
102
RTVSPost2010PropOp50
 70
     1
102
RTVSPost2010Prop51ColorIndex
 90
      256
102
RTVSPost2010Prop51ColorRGB
 90
-16777216
102
RTVSPost2010PropOp51
 70
     0
102
RTVSPost2010Prop52
140
1.0
102
RTVSPost2010PropOp52
 70
     0
102
RTVSPost2010Prop53
 90
        2
102
RTVSPost2010PropOp53
 70
     1
102
RTVSPost2010Prop54
  1
strokes_ogs.tif
102
RTVSPost2010PropOp54
 70
     1
102
RTVSPost2010Prop55
280
     0
102
RTVSPost2010PropOp55
 70
     1
102
RTVSPost2010Prop56
140
1.0
102
RTVSPost2010PropOp56
 70
     1
102
RTVSPost2010Prop57
140
1.0
102
RTVSPost2010PropOp57
 70
     1
102
RTVSPropertyOp0
 70
     1
102
RTVSPropertyOp1
 70
     1
102
RTVSPropertyOp2
 70
     1
102
RTVSPropertyOp3
 70
     1
102
RTVSPropertyOp4
 70
     1
102
RTVSPropertyOp5
 70
     1
102
RTVSPropertyOp6
 70
     1
102
RTVSPropertyOp7
 70
     1
102
RTVSPropertyOp8
 70
     1
102
RTVSPropertyOp9
 70
     1
102
RTVSPropertyOp10
 70
     1
102
RTVSPropertyOp11
 70
     1
102
RTVSPropertyOp12
 70
     1
102
RTVSPropertyOp13
 70
     1
102
RTVSPropertyOp14
 70
     1
102
RTVSPropertyOp15
 70
     1
102
RTVSPropertyOp16
 70
     1
102
RTVSPropertyOp17
 70
     1
102
RTVSPropertyOp18
 70
     1
102
RTVSPropertyOp19
 70
     1
102
RTVSPropertyOp20
 70
     1
102
RTVSPropertyOp21
 70
     1
102
RTVSPropertyOp22
 70
     1
102
RTVSPropertyOp23
 70
     1
102
RTVSPropertyOp24
 70
     1
102
RTVSPropertyOp25
 70
     1
102
RTVSPropertyOp26
 70
     1
102
RTVSPropertyOp27
 70
     1
102
RTVSPropertyOp28
 70
     1
102
RTVSPropertyOp29
 70
     1
102
RTVSPropertyOp30
 70
     1
102
RTVSPropertyOp31
 70
     1
102
RTVSPropertyOp32
 70
     1
102
RTVSPropertyOp33
 70
     1
102
RTVSPropertyOp34
 70
     1
102
RTVSPropertyOp35
 70
     1
102
RTVSPropertyOp36
 70
     1
102
RTVSPropertyOp37
 70
     1
102
RTVSPropertyOp38
 70
     1
102
RTVSPropertyOp39
 70
     1
102
RTVSPropertyOp40
 70
     1
102
RTVSPropertyOp41
 70
     1
102
RTVSPropertyOp42
 70
     1
102
RTVSPropertyOp43
 70
     1
102
RTVSPropertyOp44
 70
     1
102
RTVSPropertyOp45
 70
     1
102
RTVSPropertyOp46
 70
     1
102
RTVSPropertyOp47
 70
     1
102
RTVSPropertyOp48
 70
     1
102
RTVSPropertyOp49
 70
     1
102
RTVSPropertyOp50
 70
     1
102
RTVSPropertyOp51
 70
     0
102
RTVSPropertyOp52
 70
     0
102
RTVSPropertyOp53
 70
     1
102
RTVSPropertyOp54
 70
     1
102
RTVSPropertyOp55
 70
     1
102
RTVSPropertyOp56
 70
     1
102
RTVSPropertyOp57
 70
     1
102
RTVSPropertyOp58
 70
     1
102
RTVSPropertyOp59
 70
     1
102
RTVSPropertyOp60
 70
     1
102
RTVSPropertyOp61
 70
     1
102
RTVSPropertyOp62
 70
     1
  0
XRECORD
  5
2D48D
102
{ACAD_REACTORS
330
2D48C
102
}
330
2D48C
100
AcDbXrecord
280
     1
102
RTVSPost2010Prop28
280
     0
102
RTVSPost2010PropOp28
 70
     1
102
RTVSPost2010Prop29
280
     1
102
RTVSPost2010PropOp29
 70
     1
102
RTVSPost2010Prop30
280
     1
102
RTVSPost2010PropOp30
 70
     1
102
RTVSPost2010Prop31
280
     0
102
RTVSPost2010PropOp31
 70
     1
102
RTVSPost2010Prop32
280
     0
102
RTVSPost2010PropOp32
 70
     1
102
RTVSPost2010Prop33
280
     0
102
RTVSPost2010PropOp33
 70
     1
102
RTVSPost2010Prop34
280
     0
102
RTVSPost2010PropOp34
 70
     1
102
RTVSPost2010Prop35
280
     0
102
RTVSPost2010PropOp35
 70
     1
102
RTVSPost2010Prop36
280
     0
102
RTVSPost2010PropOp36
 70
     1
102
RTVSPost2010Prop37
 90
       50
102
RTVSPost2010PropOp37
 70
     1
102
RTVSPost2010Prop38
140
0.0
102
RTVSPost2010PropOp38
 70
     1
102
RTVSPost2010Prop39
140
1.0
102
RTVSPost2010PropOp39
 70
     1
102
RTVSPost2010Prop40
 90
        0
102
RTVSPost2010PropOp40
 70
     1
102
RTVSPost2010Prop41ColorIndex
 90
       18
102
RTVSPost2010Prop41ColorRGB
 90
        0
102
RTVSPost2010PropOp41
 70
     1
102
RTVSPost2010Prop42
 90
       50
102
RTVSPost2010PropOp42
 70
     1
102
RTVSPost2010Prop43
 90
        3
102
RTVSPost2010PropOp43
 70
     1
102
RTVSPost2010Prop44ColorIndex
 90
        5
102
RTVSPost2010Prop44ColorRGB
 90
      255
102
RTVSPost2010PropOp44
 70
     1
102
RTVSPost2010Prop45
280
     0
102
RTVSPost2010PropOp45
 70
     1
102
RTVSPost2010Prop46
 90
       50
102
RTVSPost2010PropOp46
 70
     1
102
RTVSPost2010Prop47
 90
       50
102
RTVSPost2010PropOp47
 70
     1
102
RTVSPost2010Prop48
 90
       50
102
RTVSPost2010PropOp48
 70
     1
102
RTVSPost2010Prop49
280
     0
102
RTVSPost2010PropOp49
 70
     1
102
RTVSPost2010Prop50
 90
       50
102
RTVSPost2010PropOp50
 70
     1
102
RTVSPost2010Prop51ColorIndex
 90
      256
102
RTVSPost2010Prop51ColorRGB
 90
-16777216
102
RTVSPost2010PropOp51
 70
     0
102
RTVSPost2010Prop52
140
1.0
102
RTVSPost2010PropOp52
 70
     0
102
RTVSPost2010Prop53
 90
        2
102
RTVSPost2010PropOp53
 70
     1
102
RTVSPost2010Prop54
  1
strokes_ogs.tif
102
RTVSPost2010PropOp54
 70
     1
102
RTVSPost2010Prop55
280
     0
102
RTVSPost2010PropOp55
 70
     1
102
RTVSPost2010Prop56
140
1.0
102
RTVSPost2010PropOp56
 70
     1
102
RTVSPost2010Prop57
140
1.0
102
RTVSPost2010PropOp57
 70
     1
102
RTVSPropertyOp0
 70
     1
102
RTVSPropertyOp1
 70
     1
102
RTVSPropertyOp2
 70
     1
102
RTVSPropertyOp3
 70
     1
102
RTVSPropertyOp4
 70
     1
102
RTVSPropertyOp5
 70
     1
102
RTVSPropertyOp6
 70
     1
102
RTVSPropertyOp7
 70
     1
102
RTVSPropertyOp8
 70
     1
102
RTVSPropertyOp9
 70
     1
102
RTVSPropertyOp10
 70
     1
102
RTVSPropertyOp11
 70
     1
102
RTVSPropertyOp12
 70
     1
102
RTVSPropertyOp13
 70
     1
102
RTVSPropertyOp14
 70
     1
102
RTVSPropertyOp15
 70
     1
102
RTVSPropertyOp16
 70
     1
102
RTVSPropertyOp17
 70
     1
102
RTVSPropertyOp18
 70
     1
102
RTVSPropertyOp19
 70
     1
102
RTVSPropertyOp20
 70
     1
102
RTVSPropertyOp21
 70
     1
102
RTVSPropertyOp22
 70
     1
102
RTVSPropertyOp23
 70
     1
102
RTVSPropertyOp24
 70
     1
102
RTVSPropertyOp25
 70
     1
102
RTVSPropertyOp26
 70
     1
102
RTVSPropertyOp27
 70
     1
102
RTVSPropertyOp28
 70
     1
102
RTVSPropertyOp29
 70
     1
102
RTVSPropertyOp30
 70
     1
102
RTVSPropertyOp31
 70
     1
102
RTVSPropertyOp32
 70
     1
102
RTVSPropertyOp33
 70
     1
102
RTVSPropertyOp34
 70
     1
102
RTVSPropertyOp35
 70
     1
102
RTVSPropertyOp36
 70
     1
102
RTVSPropertyOp37
 70
     1
102
RTVSPropertyOp38
 70
     1
102
RTVSPropertyOp39
 70
     1
102
RTVSPropertyOp40
 70
     1
102
RTVSPropertyOp41
 70
     1
102
RTVSPropertyOp42
 70
     1
102
RTVSPropertyOp43
 70
     1
102
RTVSPropertyOp44
 70
     1
102
RTVSPropertyOp45
 70
     1
102
RTVSPropertyOp46
 70
     1
102
RTVSPropertyOp47
 70
     1
102
RTVSPropertyOp48
 70
     1
102
RTVSPropertyOp49
 70
     1
102
RTVSPropertyOp50
 70
     1
102
RTVSPropertyOp51
 70
     0
102
RTVSPropertyOp52
 70
     0
102
RTVSPropertyOp53
 70
     1
102
RTVSPropertyOp54
 70
     1
102
RTVSPropertyOp55
 70
     1
102
RTVSPropertyOp56
 70
     1
102
RTVSPropertyOp57
 70
     1
102
RTVSPropertyOp58
 70
     1
102
RTVSPropertyOp59
 70
     1
102
RTVSPropertyOp60
 70
     1
102
RTVSPropertyOp61
 70
     1
102
RTVSPropertyOp62
 70
     1
  0
XRECORD
  5
2D495
102
{ACAD_REACTORS
330
2D494
102
}
330
2D494
100
AcDbXrecord
280
     1
102
RTVSPost2010Prop28
280
     0
102
RTVSPost2010PropOp28
 70
     1
102
RTVSPost2010Prop29
280
     1
102
RTVSPost2010PropOp29
 70
     1
102
RTVSPost2010Prop30
280
     1
102
RTVSPost2010PropOp30
 70
     1
102
RTVSPost2010Prop31
280
     0
102
RTVSPost2010PropOp31
 70
     1
102
RTVSPost2010Prop32
280
     0
102
RTVSPost2010PropOp32
 70
     1
102
RTVSPost2010Prop33
280
     0
102
RTVSPost2010PropOp33
 70
     1
102
RTVSPost2010Prop34
280
     0
102
RTVSPost2010PropOp34
 70
     1
102
RTVSPost2010Prop35
280
     0
102
RTVSPost2010PropOp35
 70
     1
102
RTVSPost2010Prop36
280
     0
102
RTVSPost2010PropOp36
 70
     1
102
RTVSPost2010Prop37
 90
       50
102
RTVSPost2010PropOp37
 70
     1
102
RTVSPost2010Prop38
140
0.0
102
RTVSPost2010PropOp38
 70
     1
102
RTVSPost2010Prop39
140
1.0
102
RTVSPost2010PropOp39
 70
     1
102
RTVSPost2010Prop40
 90
        0
102
RTVSPost2010PropOp40
 70
     1
102
RTVSPost2010Prop41ColorIndex
 90
       18
102
RTVSPost2010Prop41ColorRGB
 90
        0
102
RTVSPost2010PropOp41
 70
     1
102
RTVSPost2010Prop42
 90
       50
102
RTVSPost2010PropOp42
 70
     1
102
RTVSPost2010Prop43
 90
        3
102
RTVSPost2010PropOp43
 70
     1
102
RTVSPost2010Prop44ColorIndex
 90
        5
102
RTVSPost2010Prop44ColorRGB
 90
      255
102
RTVSPost2010PropOp44
 70
     1
102
RTVSPost2010Prop45
280
     0
102
RTVSPost2010PropOp45
 70
     1
102
RTVSPost2010Prop46
 90
       50
102
RTVSPost2010PropOp46
 70
     1
102
RTVSPost2010Prop47
 90
       50
102
RTVSPost2010PropOp47
 70
     1
102
RTVSPost2010Prop48
 90
       50
102
RTVSPost2010PropOp48
 70
     1
102
RTVSPost2010Prop49
280
     0
102
RTVSPost2010PropOp49
 70
     1
102
RTVSPost2010Prop50
 90
       50
102
RTVSPost2010PropOp50
 70
     1
102
RTVSPost2010Prop51ColorIndex
 90
      256
102
RTVSPost2010Prop51ColorRGB
 90
-16777216
102
RTVSPost2010PropOp51
 70
     0
102
RTVSPost2010Prop52
140
1.0
102
RTVSPost2010PropOp52
 70
     0
102
RTVSPost2010Prop53
 90
        2
102
RTVSPost2010PropOp53
 70
     1
102
RTVSPost2010Prop54
  1
strokes_ogs.tif
102
RTVSPost2010PropOp54
 70
     1
102
RTVSPost2010Prop55
280
     0
102
RTVSPost2010PropOp55
 70
     1
102
RTVSPost2010Prop56
140
1.0
102
RTVSPost2010PropOp56
 70
     1
102
RTVSPost2010Prop57
140
1.0
102
RTVSPost2010PropOp57
 70
     1
102
RTVSPropertyOp0
 70
     1
102
RTVSPropertyOp1
 70
     1
102
RTVSPropertyOp2
 70
     1
102
RTVSPropertyOp3
 70
     1
102
RTVSPropertyOp4
 70
     1
102
RTVSPropertyOp5
 70
     1
102
RTVSPropertyOp6
 70
     1
102
RTVSPropertyOp7
 70
     1
102
RTVSPropertyOp8
 70
     1
102
RTVSPropertyOp9
 70
     1
102
RTVSPropertyOp10
 70
     1
102
RTVSPropertyOp11
 70
     1
102
RTVSPropertyOp12
 70
     1
102
RTVSPropertyOp13
 70
     1
102
RTVSPropertyOp14
 70
     1
102
RTVSPropertyOp15
 70
     1
102
RTVSPropertyOp16
 70
     1
102
RTVSPropertyOp17
 70
     1
102
RTVSPropertyOp18
 70
     1
102
RTVSPropertyOp19
 70
     1
102
RTVSPropertyOp20
 70
     1
102
RTVSPropertyOp21
 70
     1
102
RTVSPropertyOp22
 70
     1
102
RTVSPropertyOp23
 70
     1
102
RTVSPropertyOp24
 70
     1
102
RTVSPropertyOp25
 70
     1
102
RTVSPropertyOp26
 70
     1
102
RTVSPropertyOp27
 70
     1
102
RTVSPropertyOp28
 70
     1
102
RTVSPropertyOp29
 70
     1
102
RTVSPropertyOp30
 70
     1
102
RTVSPropertyOp31
 70
     1
102
RTVSPropertyOp32
 70
     1
102
RTVSPropertyOp33
 70
     1
102
RTVSPropertyOp34
 70
     1
102
RTVSPropertyOp35
 70
     1
102
RTVSPropertyOp36
 70
     1
102
RTVSPropertyOp37
 70
     1
102
RTVSPropertyOp38
 70
     1
102
RTVSPropertyOp39
 70
     1
102
RTVSPropertyOp40
 70
     1
102
RTVSPropertyOp41
 70
     1
102
RTVSPropertyOp42
 70
     1
102
RTVSPropertyOp43
 70
     1
102
RTVSPropertyOp44
 70
     1
102
RTVSPropertyOp45
 70
     1
102
RTVSPropertyOp46
 70
     1
102
RTVSPropertyOp47
 70
     1
102
RTVSPropertyOp48
 70
     1
102
RTVSPropertyOp49
 70
     1
102
RTVSPropertyOp50
 70
     1
102
RTVSPropertyOp51
 70
     0
102
RTVSPropertyOp52
 70
     0
102
RTVSPropertyOp53
 70
     1
102
RTVSPropertyOp54
 70
     1
102
RTVSPropertyOp55
 70
     1
102
RTVSPropertyOp56
 70
     1
102
RTVSPropertyOp57
 70
     1
102
RTVSPropertyOp58
 70
     1
102
RTVSPropertyOp59
 70
     1
102
RTVSPropertyOp60
 70
     1
102
RTVSPropertyOp61
 70
     1
102
RTVSPropertyOp62
 70
     1
  0
ENDSEC
  0
EOF
