0
SECTION
2
HEADER
9
$ACADVER
1
AC1015
9
$DWGCODEPAGE
3
ANSI_1252
9
$HANDSEED
5
219
9
$ANGBASE
50
0
9
$ANGDIR
70
0
9
$ATTMODE
70
1
9
$AUNITS
70
0
9
$AUPREC
70
0
9
$CECOLOR
62
256
9
$CELTSCALE
40
1
9
$CELTYPE
6
ByLayer
9
$CELWEIGHT
370
18
9
$CLAYER
8
0
9
$CMLJUST
70
0
9
$CMLSCALE
40
1
9
$CMLSTYLE
2
Standard
9
$DIMSTYLE
2
Standard
9
$TEXTSIZE
40
0.2
9
$TEXTSTYLE
7
Standard
9
$LUNITS
70
2
9
$LUPREC
70
4
9
$EXTNAMES
290
1
9
$INSUNITS
70
4
9
$LTSCALE
40
1
9
$LWDISPLAY
290
1
9
$PDMODE
70
0
9
$PDSIZE
40
0
9
$PLINEGEN
70
0
0
ENDSEC
0
SECTION
2
CLASSES
0
CLASS
1
RASTERVARIABLES
2
AcDbRasterVariables
3
ISM
90
0
280
0
281
0
0
ENDSEC
0
SECTION
2
TABLES
0
TABLE
2
VPORT
5
20f
100
AcDbSymbolTable
0
VPORT
5
1
100
AcDbSymbolTableRecord
100
AcDbViewportTableRecord
2
*Active
70
0
10
0
20
0
11
1
21
1
12
-1
22
1
13
0
23
0
14
0.5
24
0.5
15
10
25
10
16
0
26
0
36
1
17
0
27
0
37
0
0
ENDTAB
0
TABLE
2
LTYPE
5
210
100
AcDbSymbolTable
0
LTYPE
5
14
100
AcDbSymbolTableRecord
100
AcDbLinetypeTableRecord
70
0
2
ByBlock
3

72
65
73
0
40
0
0
LTYPE
5
15
100
AcDbSymbolTableRecord
100
AcDbLinetypeTableRecord
70
0
2
ByLayer
3

72
65
73
0
40
0
0
LTYPE
5
16
100
AcDbSymbolTableRecord
100
AcDbLinetypeTableRecord
70
0
2
CONTINUOUS
3
Solid line
72
65
73
0
40
0
0
LTYPE
5
6A
100
AcDbSymbolTableRecord
100
AcDbLinetypeTableRecord
70
0
2
CENTER
3
____ _ ____ _ ____ _ ____
72
65
73
4
40
47.5
49
22
74
0
49
-8.5
74
0
49
8.5
74
0
49
-8.5
74
0
0
LTYPE
5
6B
100
AcDbSymbolTableRecord
100
AcDbLinetypeTableRecord
70
0
2
DASHED
3
__ __ __ __ __ __ __ __ __
72
65
73
2
40
25.72
49
12.86
74
0
49
-12.86
74
0
0
ENDTAB
0
TABLE
2
LAYER
5
211
100
AcDbSymbolTable
0
LAYER
5
10
100
AcDbSymbolTableRecord
100
AcDbLayerTableRecord
2
0
70
0
62
7
6
CONTINUOUS
290
1
370
-3
390
0
0
LAYER
5
6D
100
AcDbSymbolTableRecord
100
AcDbLayerTableRecord
2
80
70
0
62
-6
6
CONTINUOUS
290
1
370
-3
390
0
0
LAYER
5
6F
100
AcDbSymbolTableRecord
100
AcDbLayerTableRecord
2
81
70
0
62
-3
6
CONTINUOUS
290
1
370
-3
390
0
0
LAYER
5
71
100
AcDbSymbolTableRecord
100
AcDbLayerTableRecord
2
1
70
0
62
4
6
CONTINUOUS
290
1
370
-3
390
0
0
LAYER
5
D0
100
AcDbSymbolTableRecord
100
AcDbLayerTableRecord
2
4
70
0
62
-2
6
CENTER
290
1
370
-3
390
0
0
LAYER
5
179
100
AcDbSymbolTableRecord
100
AcDbLayerTableRecord
2
2
70
0
62
7
6
CONTINUOUS
290
1
370
-3
390
0
0
LAYER
5
1fb
100
AcDbSymbolTableRecord
100
AcDbLayerTableRecord
2
SK1
70
0
62
4
6
CONTINUOUS
290
1
370
-3
390
0
0
LAYER
5
1fc
100
AcDbSymbolTableRecord
100
AcDbLayerTableRecord
2
SK4
70
0
62
2
6
CENTER
290
1
370
-3
390
0
0
LAYER
5
1fd
100
AcDbSymbolTableRecord
100
AcDbLayerTableRecord
2
SK6
70
0
62
5
6
CONTINUOUS
290
1
370
-3
390
0
0
LAYER
5
1fe
100
AcDbSymbolTableRecord
100
AcDbLayerTableRecord
2
SK2
70
0
62
7
6
CONTINUOUS
290
1
370
-3
390
0
0
ENDTAB
0
TABLE
2
STYLE
5
212
100
AcDbSymbolTable
0
STYLE
5
11
100
AcDbSymbolTableRecord
100
AcDbTextStyleTableRecord
2
Standard
3
txt
70
0
71
0
40
0
41
1
42
0
50
0
0
STYLE
5
15D
100
AcDbSymbolTableRecord
100
AcDbTextStyleTableRecord
2
iso_b_vert
3
simplex.shx
70
0
71
0
40
0
41
1
42
0
50
0
0
STYLE
5
15E
100
AcDbSymbolTableRecord
100
AcDbTextStyleTableRecord
2
DWGDirectTextStyle
3
simplex
70
0
71
0
40
0
41
1
42
0
50
0
0
ENDTAB
0
TABLE
2
DIMSTYLE
5
213
100
AcDbSymbolTable
100
AcDbDimStyleTable
0
DIMSTYLE
105
27
100
AcDbSymbolTableRecord
100
AcDbDimStyleTableRecord
2
Standard
70
0
3
<>
41
0.18
42
0.0625
44
0.18
140
0.18
147
0.09
73
0
74
0
77
1
271
2
275
0
278
52
280
0
340
11
0
ENDTAB
0
TABLE
2
VIEW
5
214
100
AcDbSymbolTable
0
ENDTAB
0
TABLE
2
UCS
5
215
100
AcDbSymbolTable
0
ENDTAB
0
TABLE
2
APPID
5
216
100
AcDbSymbolTable
0
APPID
5
12
100
AcDbSymbolTableRecord
100
AcDbRegAppTableRecord
2
ACAD
70
0
0
ENDTAB
0
TABLE
2
BLOCK_RECORD
5
217
100
AcDbSymbolTable
0
BLOCK_RECORD
5
1F
100
AcDbSymbolTableRecord
100
AcDbBlockTableRecord
2
*Model_Space
340
0
70
0
0
BLOCK_RECORD
5
1B
100
AcDbSymbolTableRecord
100
AcDbBlockTableRecord
2
*Paper_Space
340
0
70
0
0
BLOCK_RECORD
5
23
100
AcDbSymbolTableRecord
100
AcDbBlockTableRecord
2
*Paper_Space0
340
0
70
0
0
BLOCK_RECORD
5
160
100
AcDbSymbolTableRecord
100
AcDbBlockTableRecord
2
DimnDraft3D1
340
0
70
0
0
BLOCK_RECORD
5
170
100
AcDbSymbolTableRecord
100
AcDbBlockTableRecord
2
_CLOSED
340
0
70
0
0
BLOCK_RECORD
5
177
100
AcDbSymbolTableRecord
100
AcDbBlockTableRecord
2
DimnDraft3D2
340
0
70
0
0
BLOCK_RECORD
5
186
100
AcDbSymbolTableRecord
100
AcDbBlockTableRecord
2
DimnDraft3D3
340
0
70
0
0
BLOCK_RECORD
5
194
100
AcDbSymbolTableRecord
100
AcDbBlockTableRecord
2
DimnDraft3D4
340
0
70
0
0
ENDTAB
0
ENDSEC
0
SECTION
2
BLOCKS
0
BLOCK
5
20
100
AcDbEntity
8
0
100
AcDbBlockBegin
2
*Model_Space
70
0
10
0
20
0
30
0
3
*Model_Space
0
ENDBLK
5
21
100
AcDbEntity
8
0
100
AcDbBlockEnd
0
BLOCK
5
1C
100
AcDbEntity
8
0
100
AcDbBlockBegin
2
*Paper_Space
70
0
10
0
20
0
30
0
3
*Paper_Space
0
ENDBLK
5
1D
100
AcDbEntity
8
0
100
AcDbBlockEnd
0
BLOCK
5
24
100
AcDbEntity
8
0
100
AcDbBlockBegin
2
*Paper_Space0
70
0
10
0
20
0
30
0
3
*Paper_Space0
0
ENDBLK
5
25
100
AcDbEntity
8
0
100
AcDbBlockEnd
0
BLOCK
5
16D
100
AcDbEntity
8
0
100
AcDbBlockBegin
2
DimnDraft3D1
70
0
10
0
20
0
30
0
3
DimnDraft3D1
0
MTEXT
5
161
100
AcDbEntity
8
SK2
62
256
6
ByLayer
370
18
48
1
60
0
100
AcDbMText
10
-46.755217
20
4.080403
30
0
210
0
220
0
230
1
1
\W0.6562;50
40
3.50012
41
0
44
1.084337
50
90
71
7
72
5
7
iso_b_vert
0
MTEXT
5
163
100
AcDbEntity
8
SK2
62
256
6
ByLayer
370
18
48
1
60
0
100
AcDbMText
10
-46.755217
20
-4.642552
30
0
210
0
220
0
230
1
1
%%c
40
3.50012
41
0
44
1.084337
50
90
71
7
72
5
7
iso_b_vert
0
LINE
5
164
100
AcDbEntity
8
SK2
62
256
6
ByLayer
370
13
48
1
60
0
100
AcDbLine
10
-1.2875
20
25
30
0
11
-48.180157
21
25
31
0
39
0
210
0
220
0
230
1
0
LINE
5
165
100
AcDbEntity
8
SK2
62
256
6
ByLayer
370
13
48
1
60
0
100
AcDbLine
10
-1.2875
20
-25
30
0
11
-48.180157
21
-25
31
0
39
0
210
0
220
0
230
1
0
LINE
5
166
100
AcDbEntity
8
SK2
62
256
6
ByLayer
370
13
48
1
60
0
100
AcDbLine
10
-45.005157
20
25
30
0
11
-45.005157
21
-25
31
0
39
0
210
0
220
0
230
1
0
LINE
5
167
100
AcDbEntity
8
SK2
62
256
6
ByLayer
370
13
48
1
60
0
100
AcDbLine
10
-45.005157
20
25
30
0
11
-44.58716
21
21.825002
31
0
39
0
210
0
220
0
230
1
0
LINE
5
168
100
AcDbEntity
8
SK2
62
256
6
ByLayer
370
13
48
1
60
0
100
AcDbLine
10
-45.005157
20
25
30
0
11
-45.423153
21
21.824998
31
0
39
0
210
0
220
0
230
1
0
LINE
5
169
100
AcDbEntity
8
SK2
62
256
6
ByLayer
370
13
48
1
60
0
100
AcDbLine
10
-44.58716
20
21.825002
30
0
11
-45.423153
21
21.824998
31
0
39
0
210
0
220
0
230
1
0
LINE
5
16A
100
AcDbEntity
8
SK2
62
256
6
ByLayer
370
13
48
1
60
0
100
AcDbLine
10
-45.005157
20
-25
30
0
11
-45.423153
21
-21.825002
31
0
39
0
210
0
220
0
230
1
0
LINE
5
16B
100
AcDbEntity
8
SK2
62
256
6
ByLayer
370
13
48
1
60
0
100
AcDbLine
10
-45.005157
20
-25
30
0
11
-44.58716
21
-21.824998
31
0
39
0
210
0
220
0
230
1
0
LINE
5
16C
100
AcDbEntity
8
SK2
62
256
6
ByLayer
370
13
48
1
60
0
100
AcDbLine
10
-45.423153
20
-21.825002
30
0
11
-44.58716
21
-21.824998
31
0
39
0
210
0
220
0
230
1
0
ENDBLK
5
16E
100
AcDbEntity
8
0
100
AcDbBlockEnd
0
BLOCK
5
171
100
AcDbEntity
8
0
100
AcDbBlockBegin
2
_CLOSED
70
0
10
0
20
0
30
0
3
_CLOSED
0
LINE
5
173
100
AcDbEntity
8
0
62
256
6
ByLayer
370
-2
48
1
60
0
100
AcDbLine
10
-1
20
0.166667
30
0
11
0
21
0
31
0
39
0
210
0
220
0
230
1
0
LINE
5
174
100
AcDbEntity
8
0
62
256
6
ByLayer
370
-2
48
1
60
0
100
AcDbLine
10
0
20
0
30
0
11
-1
21
-0.166667
31
0
39
0
210
0
220
0
230
1
0
LINE
5
175
100
AcDbEntity
8
0
62
256
6
ByLayer
370
-2
48
1
60
0
100
AcDbLine
10
-1
20
0.166667
30
0
11
-1
21
-0.166667
31
0
39
0
210
0
220
0
230
1
0
LINE
5
176
100
AcDbEntity
8
0
62
256
6
ByLayer
370
-2
48
1
60
0
100
AcDbLine
10
0
20
0
30
0
11
-1
21
0
31
0
39
0
210
0
220
0
230
1
0
ENDBLK
5
172
100
AcDbEntity
8
0
100
AcDbBlockEnd
0
BLOCK
5
183
100
AcDbEntity
8
0
100
AcDbBlockBegin
2
DimnDraft3D2
70
0
10
0
20
0
30
0
3
DimnDraft3D2
0
MTEXT
5
178
100
AcDbEntity
8
2
62
256
6
ByLayer
370
18
48
1
60
0
100
AcDbMText
10
28.993859
20
-60.80585
30
0
210
0
220
0
230
1
1
\W0.6562;60
40
3.50012
41
0
44
1.084337
50
0
71
7
72
5
7
iso_b_vert
0
LINE
5
17A
100
AcDbEntity
8
2
62
256
6
ByLayer
370
13
48
1
60
0
100
AcDbLine
10
0
20
-26.2875
30
0
11
0
21
-64.85588
31
0
39
0
210
0
220
0
230
1
0
LINE
5
17B
100
AcDbEntity
8
2
62
256
6
ByLayer
370
13
48
1
60
0
100
AcDbLine
10
59.999654
20
-35.813532
30
0
11
59.999654
21
-64.85588
31
0
39
0
210
0
220
0
230
1
0
LINE
5
17C
100
AcDbEntity
8
2
62
256
6
ByLayer
370
13
48
1
60
0
100
AcDbLine
10
0
20
-61.68088
30
0
11
59.999654
21
-61.68088
31
0
39
0
210
0
220
0
230
1
0
LINE
5
17D
100
AcDbEntity
8
2
62
256
6
ByLayer
370
13
48
1
60
0
100
AcDbLine
10
0
20
-61.68088
30
0
11
3.174998
21
-61.262883
31
0
39
0
210
0
220
0
230
1
0
LINE
5
17E
100
AcDbEntity
8
2
62
256
6
ByLayer
370
13
48
1
60
0
100
AcDbLine
10
0
20
-61.68088
30
0
11
3.175002
21
-62.098876
31
0
39
0
210
0
220
0
230
1
0
LINE
5
17F
100
AcDbEntity
8
2
62
256
6
ByLayer
370
13
48
1
60
0
100
AcDbLine
10
3.174998
20
-61.262883
30
0
11
3.175002
21
-62.098876
31
0
39
0
210
0
220
0
230
1
0
LINE
5
180
100
AcDbEntity
8
2
62
256
6
ByLayer
370
13
48
1
60
0
100
AcDbLine
10
59.999654
20
-61.68088
30
0
11
56.824656
21
-62.098876
31
0
39
0
210
0
220
0
230
1
0
LINE
5
181
100
AcDbEntity
8
2
62
256
6
ByLayer
370
13
48
1
60
0
100
AcDbLine
10
59.999654
20
-61.68088
30
0
11
56.824653
21
-61.262883
31
0
39
0
210
0
220
0
230
1
0
LINE
5
182
100
AcDbEntity
8
2
62
256
6
ByLayer
370
13
48
1
60
0
100
AcDbLine
10
56.824656
20
-62.098876
30
0
11
56.824653
21
-61.262883
31
0
39
0
210
0
220
0
230
1
0
ENDBLK
5
184
100
AcDbEntity
8
0
100
AcDbBlockEnd
0
BLOCK
5
191
100
AcDbEntity
8
0
100
AcDbBlockBegin
2
DimnDraft3D3
70
0
10
0
20
0
30
0
3
DimnDraft3D3
0
MTEXT
5
187
100
AcDbEntity
8
2
62
256
6
ByLayer
370
18
48
1
60
0
100
AcDbMText
10
73.101074
20
-19.78374
30
0
210
0
220
0
230
1
1
\W0.6562;35
40
3.50012
41
0
44
1.084337
50
90
71
7
72
5
7
iso_b_vert
0
LINE
5
188
100
AcDbEntity
8
2
62
256
6
ByLayer
370
13
48
1
60
0
100
AcDbLine
10
55.0875
20
0
30
0
11
77.151104
21
0
31
0
39
0
210
0
220
0
230
1
0
LINE
5
189
100
AcDbEntity
8
2
62
256
6
ByLayer
370
13
48
1
60
0
100
AcDbLine
10
60.77416
20
-34.999881
30
0
11
77.151104
21
-34.999881
31
0
39
0
210
0
220
0
230
1
0
LINE
5
18A
100
AcDbEntity
8
2
62
256
6
ByLayer
370
13
48
1
60
0
100
AcDbLine
10
73.976104
20
0
30
0
11
73.976104
21
-34.999881
31
0
39
0
210
0
220
0
230
1
0
LINE
5
18B
100
AcDbEntity
8
2
62
256
6
ByLayer
370
13
48
1
60
0
100
AcDbLine
10
73.976104
20
0
30
0
11
74.394101
21
-3.174998
31
0
39
0
210
0
220
0
230
1
0
LINE
5
18C
100
AcDbEntity
8
2
62
256
6
ByLayer
370
13
48
1
60
0
100
AcDbLine
10
73.976104
20
0
30
0
11
73.558108
21
-3.175002
31
0
39
0
210
0
220
0
230
1
0
LINE
5
18D
100
AcDbEntity
8
2
62
256
6
ByLayer
370
13
48
1
60
0
100
AcDbLine
10
74.394101
20
-3.174998
30
0
11
73.558108
21
-3.175002
31
0
39
0
210
0
220
0
230
1
0
LINE
5
18E
100
AcDbEntity
8
2
62
256
6
ByLayer
370
13
48
1
60
0
100
AcDbLine
10
73.976104
20
-34.999881
30
0
11
73.558108
21
-31.824882
31
0
39
0
210
0
220
0
230
1
0
LINE
5
18F
100
AcDbEntity
8
2
62
256
6
ByLayer
370
13
48
1
60
0
100
AcDbLine
10
73.976104
20
-34.999881
30
0
11
74.394101
21
-31.824879
31
0
39
0
210
0
220
0
230
1
0
LINE
5
190
100
AcDbEntity
8
2
62
256
6
ByLayer
370
13
48
1
60
0
100
AcDbLine
10
73.558108
20
-31.824882
30
0
11
74.394101
21
-31.824879
31
0
39
0
210
0
220
0
230
1
0
ENDBLK
5
192
100
AcDbEntity
8
0
100
AcDbBlockEnd
0
BLOCK
5
19F
100
AcDbEntity
8
0
100
AcDbBlockBegin
2
DimnDraft3D4
70
0
10
0
20
0
30
0
3
DimnDraft3D4
0
MTEXT
5
195
100
AcDbEntity
8
2
62
256
6
ByLayer
370
18
48
1
60
0
100
AcDbMText
10
44.531061
20
-44.145775
30
0
210
0
220
0
230
1
1
\W0.8159;93%%d0'
40
3.50012
41
0
44
1.084337
50
313.880574832662
71
7
72
5
7
iso_b_vert
0
LINE
5
196
100
AcDbEntity
8
2
62
256
6
ByLayer
370
13
48
1
60
0
100
AcDbLine
10
45.719447
20
-34.29458
30
0
11
38.519879
21
-33.917267
31
0
39
0
210
0
220
0
230
1
0
LINE
5
197
100
AcDbEntity
8
2
62
256
6
ByLayer
370
13
48
1
60
0
100
AcDbLine
10
59.999654
20
-35.813532
30
0
11
59.999654
21
-56.552227
31
0
39
0
210
0
220
0
230
1
0
ARC
5
198
100
AcDbEntity
8
2
62
256
6
ByLayer
370
13
48
1
60
0
100
AcDbCircle
39
0
10
59.999654
20
-35.042974
30
0
40
18.3342526143521
210
0
220
0
230
1
100
AcDbArc
50
177
51
270
0
LINE
5
199
100
AcDbEntity
8
2
62
256
6
ByLayer
370
13
48
1
60
0
100
AcDbLine
10
41.690528
20
-34.083433
30
0
11
42.079379
21
-37.262133
31
0
39
0
210
0
220
0
230
1
0
LINE
5
19A
100
AcDbEntity
8
2
62
256
6
ByLayer
370
13
48
1
60
0
100
AcDbLine
10
41.690528
20
-34.083433
30
0
11
41.243421
21
-37.254466
31
0
39
0
210
0
220
0
230
1
0
LINE
5
19B
100
AcDbEntity
8
2
62
256
6
ByLayer
370
13
48
1
60
0
100
AcDbLine
10
42.079379
20
-37.262133
30
0
11
41.243421
21
-37.254466
31
0
39
0
210
0
220
0
230
1
0
LINE
5
19C
100
AcDbEntity
8
2
62
256
6
ByLayer
370
13
48
1
60
0
100
AcDbLine
10
59.999654
20
-53.377227
30
0
11
56.80957
21
-53.657762
31
0
39
0
210
0
220
0
230
1
0
LINE
5
19D
100
AcDbEntity
8
2
62
256
6
ByLayer
370
13
48
1
60
0
100
AcDbLine
10
59.999654
20
-53.377227
30
0
11
56.845659
21
-52.822548
31
0
39
0
210
0
220
0
230
1
0
LINE
5
19E
100
AcDbEntity
8
2
62
256
6
ByLayer
370
13
48
1
60
0
100
AcDbLine
10
56.80957
20
-53.657762
30
0
11
56.845659
21
-52.822548
31
0
39
0
210
0
220
0
230
1
0
ENDBLK
5
1A0
100
AcDbEntity
8
0
100
AcDbBlockEnd
0
ENDSEC
0
SECTION
2
ENTITIES
0
ARC
5
D3
100
AcDbEntity
8
1
62
256
6
ByLayer
370
18
48
1
60
0
100
AcDbCircle
39
0
10
-20.363293
20
31
30
0
40
6
210
0
220
0
230
-1
100
AcDbArc
50
257.161432
51
270
0
ARC
5
D4
100
AcDbEntity
8
1
62
256
6
ByLayer
370
18
48
1
60
0
100
AcDbCircle
39
0
10
-20.363293
20
-31
30
0
40
6
210
0
220
0
230
-1
100
AcDbArc
50
90
51
142.428131
0
ARC
5
D5
100
AcDbEntity
8
SK1
62
256
6
ByLayer
370
18
48
1
60
0
100
AcDbCircle
39
0
10
0.6
20
-18.75
30
0
40
1
210
0
220
0
230
-1
100
AcDbArc
50
113.578178
51
126.870857
0
ARC
5
D6
100
AcDbEntity
8
SK1
62
256
6
ByLayer
370
18
48
1
60
0
100
AcDbCircle
39
0
10
0.6
20
18.75
30
0
40
1
210
0
220
0
230
-1
100
AcDbArc
50
233.129143
51
246.421822
0
ARC
5
D7
100
AcDbEntity
8
1
62
256
6
ByLayer
370
18
48
1
60
0
100
AcDbCircle
39
0
10
52.859446
20
-6
30
0
40
35
210
0
220
0
230
1
100
AcDbArc
50
217.571869
51
228.663506
0
ELLIPSE
5
D8
100
AcDbEntity
8
1
62
256
6
ByLayer
370
18
48
1
60
0
100
AcDbEllipse
10
47.788214
20
-26.655698
30
0
11
-2.17913984617668
21
-1.71813111571995
31
0
210
0
220
0
230
1
40
0.987534
41
2.49078802938738
42
2.68045171780127
0
ELLIPSE
5
D9
100
AcDbEntity
8
1
62
256
6
ByLayer
370
18
48
1
60
0
100
AcDbEllipse
10
47.788214
20
-26.655698
30
0
11
-2.17913984617668
21
-1.71813111571995
31
0
210
0
220
0
230
1
40
0.987534
41
0.515309206792461
42
0.679708789841251
0
ELLIPSE
5
DA
100
AcDbEntity
8
1
62
256
6
ByLayer
370
18
48
1
60
0
100
AcDbEllipse
10
24.030674
20
-7.428901
30
0
11
0.71508970131273
21
1.31857753623989
31
0
210
0
220
0
230
1
40
0.822479
41
0
42
6.28318530717959
0
ELLIPSE
5
DB
100
AcDbEntity
8
1
62
256
6
ByLayer
370
18
48
1
60
0
100
AcDbEllipse
10
52.701784
20
-24.375915
30
0
11
0.935263263710423
21
0.737403300476563
31
0
210
0
220
0
230
1
40
0.987534
41
-0.115373502546878
42
5.54475468952499E-06
0
ELLIPSE
5
DC
100
AcDbEntity
8
1
62
256
6
ByLayer
370
18
48
1
60
0
100
AcDbEllipse
10
59.210029
20
-34.212337
30
0
11
-0.623312523568554
21
-0.491447413730707
31
0
210
0
220
0
230
1
40
0.987534
41
0.844557586050018
42
3.02621915104292
0
ELLIPSE
5
DD
100
AcDbEntity
8
1
62
256
6
ByLayer
370
18
48
1
60
0
100
AcDbEllipse
10
47.381378
20
-33.197424
30
0
11
0.935263263710423
21
0.737403300476563
31
0
210
0
220
0
230
1
40
0.987534
41
-2.77700061183823
42
-2.29703506753978
0
ELLIPSE
5
DE
100
AcDbEntity
8
1
62
256
6
ByLayer
370
18
48
1
60
0
100
AcDbEllipse
10
45.232162
20
-31.925569
30
0
11
0.935263263710423
21
0.737403300476563
31
0
210
0
220
0
230
1
40
0.987534
41
-3.14158685997166
42
-2.77700061183824
0
ELLIPSE
5
DF
100
AcDbEntity
8
1
62
256
6
ByLayer
370
18
48
1
60
0
100
AcDbEllipse
10
38.723917
20
-22.089147
30
0
11
-0.623312523568554
21
-0.491447413730707
31
0
210
0
220
0
230
1
40
0.987534
41
-2.29703506753979
42
-0.115373502546875
0
ELLIPSE
5
E0
100
AcDbEntity
8
1
62
256
6
ByLayer
370
18
48
1
60
0
100
AcDbEllipse
10
50.552568
20
-23.10406
30
0
11
0.935263263710423
21
0.737403300476563
31
0
210
0
220
0
230
1
40
0.987534
41
0.364592041751562
42
0.844557586050003
0
ELLIPSE
5
E1
100
AcDbEntity
8
1
62
256
6
ByLayer
370
18
48
1
60
0
100
AcDbEllipse
10
48.966973
20
-28.150742
30
0
11
-2.02601110022913
21
-1.59739757785855
31
0
210
0
220
0
230
1
40
0.987534
41
0
42
6.28318530717959
0
ELLIPSE
5
E2
100
AcDbEntity
8
1
62
256
6
ByLayer
370
18
48
1
60
0
100
AcDbEllipse
10
38.105057
20
-21.304233
30
0
11
-0.623312523568554
21
-0.491447413730707
31
0
210
0
220
0
230
1
40
0.987534
41
-2.29703506753979
42
-0.974266993747177
0
ELLIPSE
5
E3
100
AcDbEntity
8
1
62
256
6
ByLayer
370
18
48
1
60
0
100
AcDbEllipse
10
48.348112
20
-27.365829
30
0
11
-2.02601110022913
21
-1.59739757785855
31
0
210
0
220
0
230
1
40
0.987534
41
2.58785806084921
42
2.94423229647072
0
ELLIPSE
5
E4
100
AcDbEntity
8
1
62
256
6
ByLayer
370
18
48
1
60
0
100
AcDbEllipse
10
48.348112
20
-27.365829
30
0
11
-2.02601110022913
21
-1.59739757785855
31
0
210
0
220
0
230
1
40
0.987534
41
0.197400415268053
42
0.944215798864493
0
ELLIPSE
5
E5
100
AcDbEntity
8
1
62
256
6
ByLayer
370
18
48
1
60
0
100
AcDbEllipse
10
33.749486
20
-26.404154
30
0
11
-2.49128690522361
21
-1.96424178905281
31
0
210
0
220
0
230
1
40
0.987534
41
0
42
6.28318530717959
0
ELLIPSE
5
E6
100
AcDbEntity
8
1
62
256
6
ByLayer
370
18
48
1
60
0
100
AcDbEllipse
10
33.749486
20
-26.404154
30
0
11
-1.36013727220751
21
-1.07239293206917
31
0
210
0
220
0
230
1
40
0.987534
41
2.34786901198729
42
-2.8881187439957
0
ELLIPSE
5
E7
100
AcDbEntity
8
1
62
256
6
ByLayer
370
18
48
1
60
0
100
AcDbEllipse
10
33.749486
20
-26.404154
30
0
11
-1.36013727220751
21
-1.07239293206917
31
0
210
0
220
0
230
1
40
0.987534
41
-2.8881187439957
42
-1.8409211927991
0
ELLIPSE
5
E8
100
AcDbEntity
8
1
62
256
6
ByLayer
370
18
48
1
60
0
100
AcDbEllipse
10
33.749486
20
-26.404154
30
0
11
-1.36013727220751
21
-1.07239293206917
31
0
210
0
220
0
230
1
40
0.987534
41
-1.8409211927991
42
-0.793723641602511
0
ELLIPSE
5
E9
100
AcDbEntity
8
1
62
256
6
ByLayer
370
18
48
1
60
0
100
AcDbEllipse
10
33.749486
20
-26.404154
30
0
11
-1.36013727220751
21
-1.07239293206917
31
0
210
0
220
0
230
1
40
0.987534
41
-0.793723641602511
42
0.253473909594088
0
ELLIPSE
5
EA
100
AcDbEntity
8
1
62
256
6
ByLayer
370
18
48
1
60
0
100
AcDbEllipse
10
33.749486
20
-26.404154
30
0
11
-1.36013727220751
21
-1.07239293206917
31
0
210
0
220
0
230
1
40
0.987534
41
0.253473909594088
42
1.30067146079069
0
ELLIPSE
5
EB
100
AcDbEntity
8
1
62
256
6
ByLayer
370
18
48
1
60
0
100
AcDbEllipse
10
33.749486
20
-26.404154
30
0
11
-1.36013727220751
21
-1.07239293206917
31
0
210
0
220
0
230
1
40
0.987534
41
1.30067146079069
42
2.34786901198729
0
ELLIPSE
5
EC
100
AcDbEntity
8
1
62
256
6
ByLayer
370
18
48
1
60
0
100
AcDbEllipse
10
33.687604
20
-26.325667
30
0
11
-3.14110248097539
21
-2.47658539202876
31
0
210
0
220
0
230
1
40
0.987534
41
0
42
6.28318530717959
0
ELLIPSE
5
ED
100
AcDbEntity
8
1
62
256
6
ByLayer
370
18
48
1
60
0
100
AcDbEllipse
10
33.262194
20
-25.786112
30
0
11
-1.17791343036577
21
-0.928719522010784
31
0
210
0
220
0
230
1
40
0.987534
41
0.252033891845315
42
3.03754698116486
0
ELLIPSE
5
EE
100
AcDbEntity
8
1
62
256
6
ByLayer
370
18
48
1
60
0
100
AcDbEllipse
10
33.359653
20
-25.909721
30
0
11
1.17791343036577
21
0.928719522010785
31
0
210
0
220
0
230
1
40
0.987534
41
-0.270124866004212
42
2.75113274646261E-06
0
ELLIPSE
5
EF
100
AcDbEntity
8
1
62
256
6
ByLayer
370
18
48
1
60
0
100
AcDbEllipse
10
33.359653
20
-25.909721
30
0
11
1.17791343036577
21
0.928719522010785
31
0
210
0
220
0
230
1
40
0.987534
41
-1.3173224172008
42
-0.270124866004212
0
ELLIPSE
5
F0
100
AcDbEntity
8
1
62
256
6
ByLayer
370
18
48
1
60
0
100
AcDbEllipse
10
33.359653
20
-25.909721
30
0
11
1.17791343036577
21
0.928719522010785
31
0
210
0
220
0
230
1
40
0.987534
41
-2.36451996839741
42
-1.3173224172008
0
ELLIPSE
5
F1
100
AcDbEntity
8
1
62
256
6
ByLayer
370
18
48
1
60
0
100
AcDbEllipse
10
33.359653
20
-25.909721
30
0
11
1.17791343036577
21
0.928719522010785
31
0
210
0
220
0
230
1
40
0.987534
41
-2.95682500820433
42
-2.36451996839741
0
ELLIPSE
5
F2
100
AcDbEntity
8
1
62
256
6
ByLayer
370
18
48
1
60
0
100
AcDbEllipse
10
37.034599
20
-4.510904
30
0
11
0.544836567557859
21
1.39755254450477
31
0
210
0
220
0
230
1
40
0.882397
41
0
42
6.28318530717959
0
ELLIPSE
5
F3
100
AcDbEntity
8
1
62
256
6
ByLayer
370
18
48
1
60
0
100
AcDbEllipse
10
38.048238
20
0
30
0
11
15.5525823655325
21
-25.1488574431086
31
0
210
0
220
0
230
-1
40
0.015414
41
-3.13203253321312
42
-1.30405519957697
0
ELLIPSE
5
F4
100
AcDbEntity
8
1
62
256
6
ByLayer
370
18
48
1
60
0
100
AcDbEllipse
10
98.932572
20
0
30
0
11
61.700396891635
21
17.4133637849673
31
0
210
0
220
0
230
-1
40
0.294108
41
3.0218674684662
42
-2.6340189643317
0
ELLIPSE
5
F5
100
AcDbEntity
8
1
62
256
6
ByLayer
370
18
48
1
60
0
100
AcDbEllipse
10
73.176927
20
0
30
0
11
53.2700252456414
21
24.9040533298949
31
0
210
0
220
0
230
-1
40
0.065865
41
2.31533882769976
42
2.39159866647241
0
ELLIPSE
5
F6
100
AcDbEntity
8
1
62
256
6
ByLayer
370
18
48
1
60
0
100
AcDbEllipse
10
37.078436
20
-4.527994
30
0
11
-0.817254851336891
21
-2.09632881675715
31
0
210
0
220
0
230
1
40
0.882397
41
0.0510612354164567
42
2.94976927646069
0
ELLIPSE
5
F7
100
AcDbEntity
8
1
62
256
6
ByLayer
370
18
48
1
60
0
100
AcDbEllipse
10
-1.056258
20
0
30
0
11
11.7092723497271
21
24.6771864409372
31
0
210
0
220
0
230
-1
40
0.341999
41
0.167213071908979
42
1.08183270048928
0
ELLIPSE
5
F8
100
AcDbEntity
8
1
62
256
6
ByLayer
370
18
48
1
60
0
100
AcDbEllipse
10
21.056258
20
0
30
0
11
11.709272349727
21
-24.6771864409371
31
0
210
0
220
0
230
-1
40
0.341999
41
2.05975995310051
42
2.97437958168082
0
ELLIPSE
5
F9
100
AcDbEntity
8
1
62
256
6
ByLayer
370
18
48
1
60
0
100
AcDbEllipse
10
-1.056258
20
0
30
0
11
11.7092723497283
21
-24.6771864409388
31
0
210
0
220
0
230
-1
40
0.341999
41
-1.08183270048923
42
-0.167213071908965
0
ELLIPSE
5
FA
100
AcDbEntity
8
1
62
256
6
ByLayer
370
18
48
1
60
0
100
AcDbEllipse
10
21.056258
20
0
30
0
11
11.7092723497266
21
24.6771864409365
31
0
210
0
220
0
230
-1
40
0.341999
41
-2.97437958168081
42
-2.05975995310049
0
ELLIPSE
5
FB
100
AcDbEntity
8
1
62
256
6
ByLayer
370
18
48
1
60
0
100
AcDbEllipse
10
24.080674
20
-7.456017
30
0
11
-1.07263455196909
21
-1.97786630435984
31
0
210
0
220
0
230
1
40
0.822479
41
0.0990804620058537
42
2.87781921249336
0
ELLIPSE
5
FC
100
AcDbEntity
8
1
62
256
6
ByLayer
370
18
48
1
60
0
100
AcDbEllipse
10
37.078436
20
-4.527994
30
0
11
-0.599320224313712
21
-1.53730779895523
31
0
210
0
220
0
230
1
40
0.882397
41
0
42
6.28318530717959
0
ELLIPSE
5
FD
100
AcDbEntity
8
1
62
256
6
ByLayer
370
18
48
1
60
0
100
AcDbEllipse
10
45.585075
20
-19.746356
30
0
11
0.818532976195648
21
0.57506957467522
31
0
210
0
220
0
230
-1
40
0.877433
41
1.66972815055786
42
-3.01070525103383
0
ELLIPSE
5
FE
100
AcDbEntity
8
1
62
256
6
ByLayer
370
18
48
1
60
0
100
AcDbEllipse
10
41.022663
20
-22.223711
30
0
11
3.43783850002174
21
2.41529221363617
31
0
210
0
220
0
230
-1
40
0.877433
41
-1.40086146731599
42
0.130887402555994
0
ELLIPSE
5
FF
100
AcDbEntity
8
1
62
256
6
ByLayer
370
18
48
1
60
0
100
AcDbEllipse
10
47.02787
20
-17.893732
30
0
11
1.63706595239131
21
1.15013914935049
31
0
210
0
220
0
230
-1
40
0.877433
41
0.0669170867256942
42
1.6697281505579
0
ELLIPSE
5
100
100
AcDbEntity
8
1
62
256
6
ByLayer
370
18
48
1
60
0
100
AcDbEllipse
10
24.080674
20
-7.456017
30
0
11
-0.786598671444002
21
-1.45043528986389
31
0
210
0
220
0
230
1
40
0.822479
41
0
42
6.28318530717959
0
ELLIPSE
5
101
100
AcDbEntity
8
1
62
256
6
ByLayer
370
18
48
1
60
0
100
AcDbEllipse
10
40.3311
20
-21.346589
30
0
11
-3.29815760502416
21
-2.6004146616302
31
0
210
0
220
0
230
1
40
0.987534
41
2.96224883521262
42
2.99175889696167
0
ELLIPSE
5
102
100
AcDbEntity
8
1
62
256
6
ByLayer
370
18
48
1
60
0
100
AcDbEllipse
10
44.916197
20
-18.898005
30
0
11
0.785275620243848
21
0.61914634800719
31
0
210
0
220
0
230
1
40
0.987534
41
2.96224883521262
42
-3.1415785077919
0
ELLIPSE
5
103
100
AcDbEntity
8
1
62
256
6
ByLayer
370
18
48
1
60
0
100
AcDbEllipse
10
25.06219
20
-36.647986
30
0
11
9.04156507660345
21
15.9581510759158
31
0
210
0
220
0
230
-1
40
0.127906
41
-1.02082359436147
42
-0.736027436346065
0
ELLIPSE
5
104
100
AcDbEntity
8
1
62
256
6
ByLayer
370
18
48
1
60
0
100
AcDbEllipse
10
38.565508
20
-28.232297
30
0
11
6.28220496195078
21
4.95317078405752
31
0
210
0
220
0
230
1
40
0.987534
41
1.35240505149482
42
1.62449430698511
0
ELLIPSE
5
105
100
AcDbEntity
8
1
62
256
6
ByLayer
370
18
48
1
60
0
100
AcDbEllipse
10
35.346285
20
-21.349833
30
0
11
0.873355171346735
21
-1.79923615589558
31
0
210
0
220
0
230
1
40
0.034104
41
-1.92880614801738
42
-1.72516694708503
0
ELLIPSE
5
106
100
AcDbEntity
8
1
62
256
6
ByLayer
370
18
48
1
60
0
100
AcDbEllipse
10
42.270949
20
-20.310649
30
0
11
-1.76832644176218
21
-0.934356246495259
31
0
210
0
220
0
230
1
40
0.154883
41
-3.11316685243443
42
-2.16556462475863
0
ELLIPSE
5
107
100
AcDbEntity
8
1
62
256
6
ByLayer
370
18
48
1
60
0
100
AcDbEllipse
10
46.10058
20
-16.717631
30
0
11
-3.14110248097539
21
-2.47658539202876
31
0
210
0
220
0
230
1
40
0.987534
41
1.42340808721069
42
1.97902159984632
0
ELLIPSE
5
108
100
AcDbEntity
8
1
62
256
6
ByLayer
370
18
48
1
60
0
100
AcDbEllipse
10
48.253405
20
-20.396861
30
0
11
0.997365303240814
21
-1.73356928096092
31
0
210
0
220
0
230
1
40
0.023116
41
-2.10748007401194
42
-1.72717556860974
0
ELLIPSE
5
109
100
AcDbEntity
8
1
62
256
6
ByLayer
370
18
48
1
60
0
100
AcDbEllipse
10
44.72128
20
-18.650788
30
0
11
-2.35582686073155
21
-1.85743904402157
31
0
210
0
220
0
230
1
40
0.987534
41
1.07431205125041
42
1.4234080872107
0
ELLIPSE
5
10A
100
AcDbEntity
8
1
62
256
6
ByLayer
370
18
48
1
60
0
100
AcDbEllipse
10
46.384628
20
-21.472014
30
0
11
0.997365303240814
21
-1.73356928096092
31
0
210
0
220
0
230
1
40
0.023116
41
-2.11224139314202
42
-1.72717556860973
0
ELLIPSE
5
10B
100
AcDbEntity
8
1
62
256
6
ByLayer
370
18
48
1
60
0
100
AcDbEllipse
10
38.843916
20
-18.757331
30
0
11
1.96318905060962
21
1.54786587001797
31
0
210
0
220
0
230
1
40
0.987534
41
-1.53378063837587
42
-0.514922685220008
0
ELLIPSE
5
10C
100
AcDbEntity
8
1
62
256
6
ByLayer
370
18
48
1
60
0
100
AcDbEllipse
10
38.843916
20
-18.757331
30
0
11
1.96318905060962
21
1.54786587001797
31
0
210
0
220
0
230
1
40
0.987534
41
-2.88908349970477
42
-2.81702305906705
0
ELLIPSE
5
10D
100
AcDbEntity
8
1
62
256
6
ByLayer
370
18
48
1
60
0
100
AcDbEllipse
10
38.892645
20
-18.819135
30
0
11
-1.96318905060962
21
-1.54786587001797
31
0
210
0
220
0
230
1
40
0.987534
41
1.64162711390648
42
2.65269881678038
0
ELLIPSE
5
10E
100
AcDbEntity
8
1
62
256
6
ByLayer
370
18
48
1
60
0
100
AcDbEllipse
10
39.06807
20
-19.04163
30
0
11
-1.96318905060962
21
-1.54786587001797
31
0
210
0
220
0
230
1
40
0.987534
41
0.135017187405599
42
0.185283259969026
0
ELLIPSE
5
10F
100
AcDbEntity
8
1
62
256
6
ByLayer
370
18
48
1
60
0
100
AcDbEllipse
10
39.779516
20
-19.943971
30
0
11
1.96318905060962
21
1.54786587001797
31
0
210
0
220
0
230
1
40
0.987534
41
2.51584918722226
42
2.67145270087391
0
ELLIPSE
5
110
100
AcDbEntity
8
1
62
256
6
ByLayer
370
18
48
1
60
0
100
AcDbEllipse
10
33.634347
20
-26.258121
30
0
11
-3.14110248097539
21
-2.47658539202876
31
0
210
0
220
0
230
1
40
0.987534
41
3.14152501055651
42
-2.15935144071501
0
ELLIPSE
5
111
100
AcDbEntity
8
1
62
256
6
ByLayer
370
18
48
1
60
0
100
AcDbEllipse
10
39.812492
20
-20.663591
30
0
11
1.96318905060962
21
1.54786587001797
31
0
210
0
220
0
230
1
40
0.987534
41
2.37986253970826
42
3.0284008126079
0
ELLIPSE
5
112
100
AcDbEntity
8
1
62
256
6
ByLayer
370
18
48
1
60
0
100
AcDbEllipse
10
42.073787
20
-24.612277
30
0
11
1.96318905060962
21
1.54786587001797
31
0
210
0
220
0
230
1
40
0.987534
41
2.6802347913349
42
3.02840081260791
0
ELLIPSE
5
113
100
AcDbEntity
8
1
62
256
6
ByLayer
370
18
48
1
60
0
100
AcDbEllipse
10
43.729978
20
-27.295213
30
0
11
1.96318905060962
21
1.54786587001797
31
0
210
0
220
0
230
1
40
0.987534
41
3.0284008126079
42
-2.90661847329872
0
ELLIPSE
5
114
100
AcDbEntity
8
1
62
256
6
ByLayer
370
18
48
1
60
0
100
AcDbEllipse
10
48.80909
20
-27.950496
30
0
11
1.60981502149989
21
1.26925001341474
31
0
210
0
220
0
230
1
40
0.987534
41
1.99230911162452
42
2.70342891235004
0
ELLIPSE
5
115
100
AcDbEntity
8
1
62
256
6
ByLayer
370
18
48
1
60
0
100
AcDbEllipse
10
48.73696
20
-28.492356
30
0
11
1.80613392656085
21
1.42403660041654
31
0
210
0
220
0
230
1
40
0.987534
41
-0.212069140307833
42
1.76621451069261
0
ELLIPSE
5
116
100
AcDbEntity
8
1
62
256
6
ByLayer
370
18
48
1
60
0
100
AcDbEllipse
10
48.80909
20
-27.950496
30
0
11
1.60981502149989
21
1.26925001341474
31
0
210
0
220
0
230
1
40
0.987534
41
-1.14928354196527
42
-0.438163741239743
0
ELLIPSE
5
117
100
AcDbEntity
8
1
62
256
6
ByLayer
370
18
48
1
60
0
100
AcDbEllipse
10
48.881221
20
-27.408637
30
0
11
1.80613392656085
21
1.42403660041654
31
0
210
0
220
0
230
1
40
0.987534
41
2.92952351328196
42
-1.37537814289719
0
ELLIPSE
5
118
100
AcDbEntity
8
1
62
256
6
ByLayer
370
18
48
1
60
0
100
AcDbEllipse
10
48.707722
20
-28.455274
30
0
11
-2.04171661263401
21
-1.60978050481869
31
0
210
0
220
0
230
1
40
0.987534
41
2.91647931225147
42
-1.49756653582086
0
ELLIPSE
5
119
100
AcDbEntity
8
1
62
256
6
ByLayer
370
18
48
1
60
0
100
AcDbEllipse
10
48.779853
20
-27.913414
30
0
11
-1.84539770757304
21
-1.45499391781689
31
0
210
0
220
0
230
1
40
0.987534
41
-0.808423165989321
42
-0.423630651454122
0
ELLIPSE
5
11A
100
AcDbEntity
8
1
62
256
6
ByLayer
370
18
48
1
60
0
100
AcDbEllipse
10
48.851984
20
-27.371554
30
0
11
-2.04171661263401
21
-1.60978050481869
31
0
210
0
220
0
230
1
40
0.987534
41
-0.225113341338326
42
1.7792587117231
0
ELLIPSE
5
11B
100
AcDbEntity
8
1
62
256
6
ByLayer
370
18
48
1
60
0
100
AcDbEllipse
10
48.200938
20
-27.81251
30
0
11
2.041716612634
21
1.60978050481869
31
0
210
0
220
0
230
1
40
0.987534
41
1.33410195074505E-05
42
0.294899891452376
0
ELLIPSE
5
11C
100
AcDbEntity
8
1
62
256
6
ByLayer
370
18
48
1
60
0
100
AcDbEllipse
10
48.779853
20
-27.913414
30
0
11
-1.84539770757304
21
-1.45499391781689
31
0
210
0
220
0
230
1
40
0.987534
41
1.9777760218389
42
2.71796200213567
0
ELLIPSE
5
11D
100
AcDbEntity
8
1
62
256
6
ByLayer
370
18
48
1
60
0
100
AcDbEllipse
10
47.610352
20
-26.430113
30
0
11
-2.23803551769497
21
-1.76456709182049
31
0
210
0
220
0
230
1
40
0.987534
41
2.48759659694499
42
2.61199421631952
0
POINT
5
6C
100
AcDbEntity
8
80
62
256
6
ByLayer
370
18
48
1
60
0
100
AcDbPoint
10
0
20
0
30
0
39
0
210
0
220
0
230
1
50
360
0
POINT
5
6E
100
AcDbEntity
8
81
62
256
6
ByLayer
370
18
48
1
60
0
100
AcDbPoint
10
60.673322
20
-35.078279
30
0
39
0
210
0
220
0
230
1
50
360
0
SPLINE
5
11E
100
AcDbEntity
8
1
62
256
6
ByLayer
370
18
48
1
60
0
100
AcDbSpline
70
4
71
3
72
14
73
10
40
0
40
0
40
0
40
0
40
0.499999999999991
40
0.499999999999991
40
0.624999999999994
40
0.624999999999994
40
0.749999999999998
40
0.749999999999998
40
1
40
1
40
1
40
1
41
1
10
33.0918199870482
20
-24.8235097744179
30
0
41
1
10
32.9122382569063
20
-25.0379214555267
30
0
41
1
10
32.7329588098601
20
-25.2593433745299
30
0
41
1
10
32.5095251730789
20
-25.5515583526089
30
0
41
1
10
32.4649388058844
20
-25.6106681554357
30
0
41
1
10
32.3773284948599
20
-25.7283374825499
30
0
41
1
10
32.334109698772
20
-25.7871487896809
30
0
41
1
10
32.2059997572751
20
-25.9635211115358
30
0
41
1
10
32.1226490327772
20
-26.0810207667496
30
0
41
1
10
32.0407127899093
20
-26.1984640789861
30
0
0
SPLINE
5
11F
100
AcDbEntity
8
1
62
256
6
ByLayer
370
18
48
1
60
0
100
AcDbSpline
70
4
71
3
72
14
73
10
40
0
40
0
40
0
40
0
40
0.25
40
0.25
40
0.5
40
0.5
40
0.75
40
0.75
40
1
40
1
40
1
40
1
41
1
10
33.0918199870482
20
-24.8235097744185
30
0
41
1
10
33.2268564731363
20
-24.8352141851969
30
0
41
1
10
33.3658963982641
20
-24.848134542411
30
0
41
1
10
33.6467243928686
20
-24.8767214738786
30
0
41
1
10
33.7889844231049
20
-24.8924391673083
30
0
41
1
10
34.0778298765909
20
-24.9272116260107
30
0
41
1
10
34.2254733508549
20
-24.9464309431816
30
0
41
1
10
34.5153467606037
20
-24.9865772958022
30
0
41
1
10
34.6585465196313
20
-25.0075800883264
30
0
41
1
10
34.8005935320141
20
-25.029199832711
30
0
0
SPLINE
5
120
100
AcDbEntity
8
1
62
256
6
ByLayer
370
18
48
1
60
0
100
AcDbSpline
70
4
71
3
72
14
73
10
40
0
40
0
40
0
40
0
40
0.500000000000005
40
0.500000000000005
40
0.625000000000002
40
0.625000000000002
40
0.75
40
0.75
40
1
40
1
40
1
40
1
41
1
10
32.0407127899092
20
-26.1984640789855
30
0
41
1
10
32.1401402959372
20
-26.44646091608
30
0
41
1
10
32.2440515416969
20
-26.7019713252069
30
0
41
1
10
32.383814456078
20
-27.0379053320597
30
0
41
1
10
32.4122078284558
20
-27.1057999191143
30
0
41
1
10
32.468959379862
20
-27.240846504898
30
0
41
1
10
32.4974375175124
20
-27.308288181175
30
0
41
1
10
32.5831418967939
20
-27.5103979567929
30
0
41
1
10
32.64063705281
20
-27.6448516416722
30
0
41
1
10
32.6983791377367
20
-27.7791084418463
30
0
0
SPLINE
5
121
100
AcDbEntity
8
1
62
256
6
ByLayer
370
18
48
1
60
0
100
AcDbSpline
70
4
71
3
72
14
73
10
40
0
40
0
40
0
40
0
40
0.500000000000002
40
0.500000000000002
40
0.625000000000003
40
0.625000000000003
40
0.750000000000003
40
0.750000000000003
40
1
40
1
40
1
40
1
41
1
10
35.4582598798412
20
-26.6098441955712
30
0
41
1
10
35.3429193308482
20
-26.3416645297731
30
0
41
1
10
35.2288438349181
20
-26.0732626001154
30
0
41
1
10
35.0890352987111
20
-25.737270730194
30
0
41
1
10
35.0612523346385
20
-25.6701503361262
30
0
41
1
10
35.0068809825914
20
-25.538122604502
30
0
41
1
10
34.9801702267796
20
-25.472922533742
30
0
41
1
10
34.9012904996723
20
-25.2794686001335
30
0
41
1
10
34.8503691880798
20
-25.153352652808
30
0
41
1
10
34.8005935320139
20
-25.0291998327106
30
0
0
SPLINE
5
122
100
AcDbEntity
8
1
62
256
6
ByLayer
370
18
48
1
60
0
100
AcDbSpline
70
4
71
3
72
14
73
10
40
0
40
0
40
0
40
0
40
0.25
40
0.25
40
0.5
40
0.5
40
0.75
40
0.75
40
1
40
1
40
1
40
1
41
1
10
32.6983791377367
20
-27.7791084418462
30
0
41
1
10
32.8334156236196
20
-27.7908128526069
30
0
41
1
10
32.9724555484833
20
-27.803733209789
30
0
41
1
10
33.2532835447191
20
-27.8323201414266
30
0
41
1
10
33.3955435762691
20
-27.8480378350058
30
0
41
1
10
33.6843890336463
20
-27.8828102942332
30
0
41
1
10
33.8320325079677
20
-27.9020296114769
30
0
41
1
10
34.1219059131171
20
-27.942175963505
30
0
41
1
10
34.2651056709036
20
-27.9631787558431
30
0
41
1
10
34.4071526827026
20
-27.9847985001388
30
0
0
SPLINE
5
123
100
AcDbEntity
8
1
62
256
6
ByLayer
370
18
48
1
60
0
100
AcDbSpline
70
4
71
3
72
14
73
10
40
0
40
0
40
0
40
0
40
0.500000000000004
40
0.500000000000004
40
0.625000000000005
40
0.625000000000005
40
0.750000000000006
40
0.750000000000006
40
1
40
1
40
1
40
1
41
1
10
34.4071526827022
20
-27.9847985001387
30
0
41
1
10
34.5708213698791
20
-27.7502039903264
30
0
41
1
10
34.7399365667549
20
-27.5158905507924
30
0
41
1
10
34.9633245817103
20
-27.2236177096447
30
0
41
1
10
35.0085213572099
20
-27.1652820998048
30
0
41
1
10
35.0985118675936
20
-27.0506316268502
30
0
41
1
10
35.14349804552
20
-26.9940619252361
30
0
41
1
10
35.2784326391911
20
-26.8263454453905
30
0
41
1
10
35.3683572081126
20
-26.7171835277306
30
0
41
1
10
35.4582598798413
20
-26.6098441955708
30
0
0
SPLINE
5
124
100
AcDbEntity
8
1
62
256
6
ByLayer
370
18
48
1
60
0
100
AcDbSpline
70
4
71
3
72
26
73
22
40
0
40
0
40
0
40
0
40
0.0312499999999998
40
0.0312499999999998
40
0.0624999999999996
40
0.0624999999999996
40
0.125
40
0.125
40
0.1875
40
0.1875
40
0.25
40
0.25
40
0.375
40
0.375
40
0.500000000000001
40
0.500000000000001
40
0.750000000000001
40
0.750000000000001
40
0.875
40
0.875
40
1
40
1
40
1
40
1
41
1
10
21.6965218343261
20
-22.3984655166105
30
0
41
1
10
21.6965218343263
20
-22.4344675898905
30
0
41
1
10
21.7007599404138
20
-22.4709855397748
30
0
41
1
10
21.7174545666863
20
-22.5450527267581
30
0
41
1
10
21.7300009810408
20
-22.5828022048988
30
0
41
1
10
21.7781772792244
20
-22.6959654813053
30
0
41
1
10
21.8238745315908
20
-22.7710357625428
30
0
41
1
10
21.9323664771325
20
-22.921621613803
30
0
41
1
10
21.9951630325318
20
-22.9971427642356
30
0
41
1
10
22.131096640118
20
-23.1495515434321
30
0
41
1
10
22.2042002160482
20
-23.226349055797
30
0
41
1
10
22.4308387089526
20
-23.4577587662483
30
0
41
1
10
22.5920829631206
20
-23.6142772206086
30
0
41
1
10
22.9196738900057
20
-23.9358744354539
30
0
41
1
10
23.0863424364133
20
-24.1008761808282
30
0
41
1
10
23.5849450048183
20
-24.6117340575401
30
0
41
1
10
23.9153370045949
20
-24.9733530855375
30
0
41
1
10
24.3880204691715
20
-25.5571884532243
30
0
41
1
10
24.5418954806404
20
-25.7586963605965
30
0
41
1
10
24.8395978969241
20
-26.1774386468485
30
0
41
1
10
24.983146102183
20
-26.394369225339
30
0
41
1
10
25.1188273476788
20
-26.6177224253949
30
0
0
SPLINE
5
125
100
AcDbEntity
8
1
62
256
6
ByLayer
370
18
48
1
60
0
100
AcDbSpline
70
4
71
3
72
16
73
12
40
0
40
0
40
0
40
0
40
0.25
40
0.25
40
0.5
40
0.5
40
0.750000000000001
40
0.750000000000001
40
0.875
40
0.875
40
1
40
1
40
1
40
1
41
1
10
35.3177187169273
20
-20.6137364119515
30
0
41
1
10
34.9835335013261
20
-20.7420993911377
30
0
41
1
10
34.6681545684193
20
-20.8789831567287
30
0
41
1
10
34.0700225279681
20
-21.1642870081825
30
0
41
1
10
33.7873004383429
20
-21.3127272754893
30
0
41
1
10
33.2510727167251
20
-21.6166246067897
30
0
41
1
10
32.9975833939515
20
-21.7720924973183
30
0
41
1
10
32.6373040251016
20
-22.0075241826734
30
0
41
1
10
32.5208033803908
20
-22.0862103702782
30
0
41
1
10
32.295536822576
20
-22.2428385472609
30
0
41
1
10
32.1866066057343
20
-22.320887668657
30
0
41
1
10
32.0811321588753
20
-22.3984655166266
30
0
0
SPLINE
5
126
100
AcDbEntity
8
1
62
256
6
ByLayer
370
18
48
1
60
0
100
AcDbSpline
70
2053
71
3
72
98
73
94
40
0
40
0
40
0
40
0
40
0.0312499999999989
40
0.0312499999999989
40
0.0624999999999978
40
0.0624999999999978
40
0.0937499999999966
40
0.0937499999999966
40
0.109374999999996
40
0.109374999999996
40
0.124999999999996
40
0.140624999999995
40
0.140624999999995
40
0.156249999999994
40
0.156249999999994
40
0.187499999999993
40
0.187499999999993
40
0.203124999999993
40
0.203124999999993
40
0.218749999999992
40
0.234374999999992
40
0.234374999999992
40
0.249999999999991
40
0.249999999999991
40
0.281249999999989
40
0.281249999999989
40
0.312499999999987
40
0.312499999999987
40
0.343749999999984
40
0.343749999999984
40
0.359374999999983
40
0.359374999999983
40
0.374999999999982
40
0.374999999999982
40
0.40624999999998
40
0.40624999999998
40
0.421874999999979
40
0.421874999999979
40
0.437499999999977
40
0.437499999999977
40
0.468749999999976
40
0.468749999999976
40
0.484374999999976
40
0.484374999999976
40
0.499999999999975
40
0.499999999999975
40
0.531249999999975
40
0.531249999999975
40
0.546874999999975
40
0.546874999999975
40
0.562499999999975
40
0.578124999999975
40
0.578124999999975
40
0.593749999999975
40
0.593749999999975
40
0.624999999999974
40
0.624999999999974
40
0.640624999999974
40
0.640624999999974
40
0.656249999999973
40
0.656249999999973
40
0.671874999999973
40
0.671874999999973
40
0.687499999999973
40
0.687499999999973
40
0.718749999999972
40
0.718749999999972
40
0.734374999999972
40
0.734374999999972
40
0.749999999999972
40
0.765624999999973
40
0.765624999999973
40
0.781249999999973
40
0.781249999999973
40
0.812499999999974
40
0.812499999999974
40
0.828124999999975
40
0.828124999999975
40
0.843749999999976
40
0.843749999999976
40
0.874999999999979
40
0.874999999999979
40
0.890624999999981
40
0.890624999999981
40
0.906249999999983
40
0.906249999999983
40
0.937499999999988
40
0.937499999999988
40
0.95312499999999
40
0.95312499999999
40
0.968749999999993
40
0.968749999999993
40
1
40
1
40
1
40
1
41
1
10
35.5711928458671
20
-3.63962942894863
30
0
41
1
10
35.4859787035406
20
-3.77033432148849
30
0
41
1
10
35.4162242043056
20
-3.9074762224175
30
0
41
1
10
35.3073617726056
20
-4.19441387601807
30
0
41
1
10
35.2682492883763
20
-4.34596963322295
30
0
41
1
10
35.2255282633295
20
-4.64871895330378
30
0
41
1
10
35.2211226434557
20
-4.80098240045493
30
0
41
1
10
35.2407112569877
20
-5.03074421056871
30
0
41
1
10
35.2516389183479
20
-5.10695613362566
30
0
41
1
10
35.2816955215305
20
-5.25625302250015
30
0
41
1
10
35.3200105468473
20
-5.40317090688634
30
0
41
1
10
35.3746032975091
20
-5.5454210352228
30
0
41
1
10
35.4374827195179
20
-5.6853099442643
30
0
41
1
10
35.4729333185234
20
-5.75365968392319
30
0
41
1
10
35.5890892177925
20
-5.9506220748103
30
0
41
1
10
35.6801284415634
20
-6.07266619780449
30
0
41
1
10
35.8366826552517
20
-6.24225186950801
30
0
41
1
10
35.8921298130505
20
-6.2963393346744
30
0
41
1
10
36.0072376234983
20
-6.39781752015978
30
0
41
1
10
36.1271040479146
20
-6.49321247561588
30
0
41
1
10
36.2561696486812
20
-6.57689665649954
30
0
41
1
10
36.3898046941772
20
-6.65478710368069
30
0
41
1
10
36.4591348550167
20
-6.69090650287563
30
0
41
1
10
36.669958181345
20
-6.78870712180179
30
0
41
1
10
36.8153786360721
20
-6.84067708497096
30
0
41
1
10
37.1154341457818
20
-6.91972202458444
30
0
41
1
10
37.2708815800976
20
-6.94664164107905
30
0
41
1
10
37.5800818070771
20
-6.97432296365264
30
0
41
1
10
37.7350897149544
20
-6.97554041797557
30
0
41
1
10
37.968206278509
20
-6.95865069158418
30
0
41
1
10
38.0463481526729
20
-6.94981550678855
30
0
41
1
10
38.2004688960737
20
-6.92606721473356
30
0
41
1
10
38.2765879716811
20
-6.91117412132789
30
0
41
1
10
38.5021790153178
20
-6.85760898149516
30
0
41
1
10
38.648910679841
20
-6.81013622646483
30
0
41
1
10
38.8632889933472
20
-6.72046916565381
30
0
41
1
10
38.9341122124721
20
-6.68729431169916
30
0
41
1
10
39.071296466747
20
-6.61566842287357
30
0
41
1
10
39.1378379981051
20
-6.57717818333961
30
0
41
1
10
39.3313052503991
20
-6.4536382348634
30
0
41
1
10
39.4521432315161
20
-6.3606120634345
30
0
41
1
10
39.6200359554228
20
-6.20342279019445
30
0
41
1
10
39.6740631580071
20
-6.14767971610883
30
0
41
1
10
39.7750921233733
20
-6.03218976606351
30
0
41
1
10
39.8222319609164
20
-5.97238858480171
30
0
41
1
10
39.9534246664388
20
-5.78672348877245
30
0
41
1
10
40.0273798873135
20
-5.65467699038771
30
0
41
1
10
40.1156040714466
20
-5.44259262042183
30
0
41
1
10
40.1411064157659
20
-5.36951490493192
30
0
41
1
10
40.1826541297117
20
-5.2228526173956
30
0
41
1
10
40.2152315649487
20
-5.07462329398297
30
0
41
1
10
40.2298181648588
20
-4.92323589858412
30
0
41
1
10
40.2350974673201
20
-4.77021120299875
30
0
41
1
10
40.2329951352111
20
-4.69243626792252
30
0
41
1
10
40.2126409232167
20
-4.46287659015735
30
0
41
1
10
40.18075266493
20
-4.31317273156574
30
0
41
1
10
40.106369808357
20
-4.09349014032648
30
0
41
1
10
40.0770300107185
20
-4.02106262001084
30
0
41
1
10
40.0110796488184
20
-3.88132048265703
30
0
41
1
10
39.9743291192257
20
-3.81353556122588
30
0
41
1
10
39.8936338910711
20
-3.68195228417361
30
0
41
1
10
39.8496880893048
20
-3.6181545214497
30
0
41
1
10
39.7547208491555
20
-3.49449269679442
30
0
41
1
10
39.70392476409
20
-3.43498215173744
30
0
41
1
10
39.5443181118161
20
-3.26552764759651
30
0
41
1
10
39.4275512446276
20
-3.16349736286358
30
0
41
1
10
39.2377831532374
20
-3.0259518011928
30
0
41
1
10
39.1721188413053
20
-2.98279033457479
30
0
41
1
10
39.0383547103104
20
-2.9030590009927
30
0
41
1
10
38.9015845348656
20
-2.82948774291378
30
0
41
1
10
38.7590173033831
20
-2.76781264902922
30
0
41
1
10
38.6135745041657
20
-2.71204591529772
30
0
41
1
10
38.5391384515527
20
-2.68703978030672
30
0
41
1
10
38.3134302864005
20
-2.62163160495146
30
0
41
1
10
38.1611483715009
20
-2.59103768655348
30
0
41
1
10
37.9301061423418
20
-2.56400009427071
30
0
41
1
10
37.8526525064171
20
-2.55815116647025
30
0
41
1
10
37.69684657151
20
-2.55292260629429
30
0
41
1
10
37.6181178229812
20
-2.55356980878287
30
0
41
1
10
37.3836825997563
20
-2.56548720049972
30
0
41
1
10
37.2300557664061
20
-2.58647486183989
30
0
41
1
10
37.0036191453727
20
-2.63754718099949
30
0
41
1
10
36.9288116471512
20
-2.65785632734622
30
0
41
1
10
36.780593738999
20
-2.70530548081624
30
0
41
1
10
36.7068027592487
20
-2.73261319536096
30
0
41
1
10
36.4906360934743
20
-2.82417534043452
30
0
41
1
10
36.3542855765306
20
-2.89742943827773
30
0
41
1
10
36.1615495312935
20
-3.02580606327649
30
0
41
1
10
36.0992814001929
20
-3.07169998705501
30
0
41
1
10
35.9788902513759
20
-3.16997893892062
30
0
41
1
10
35.9204840111048
20
-3.22266950539316
30
0
41
1
10
35.7548133769273
20
-3.38825127633768
30
0
41
1
10
35.6564069881935
20
-3.50892453640873
30
0
41
1
10
35.5711928458671
20
-3.63962942894863
30
0
0
SPLINE
5
127
100
AcDbEntity
8
1
62
256
6
ByLayer
370
18
48
1
60
0
100
AcDbSpline
70
2053
71
3
72
91
73
87
40
0
40
0
40
0
40
0
40
0.0312499999999996
40
0.0312499999999996
40
0.0624999999999993
40
0.0624999999999993
40
0.0937499999999989
40
0.0937499999999989
40
0.124999999999999
40
0.124999999999999
40
0.140624999999999
40
0.140624999999999
40
0.156249999999999
40
0.156249999999999
40
0.171874999999999
40
0.171874999999999
40
0.187499999999999
40
0.187499999999999
40
0.21875
40
0.21875
40
0.234375
40
0.234375
40
0.25
40
0.25
40
0.281250000000001
40
0.281250000000001
40
0.312500000000002
40
0.312500000000002
40
0.343750000000003
40
0.343750000000003
40
0.375000000000004
40
0.375000000000004
40
0.406250000000005
40
0.406250000000005
40
0.437500000000006
40
0.437500000000006
40
0.468750000000007
40
0.468750000000007
40
0.484375000000007
40
0.484375000000007
40
0.500000000000007
40
0.500000000000007
40
0.515625000000008
40
0.515625000000008
40
0.531250000000008
40
0.531250000000008
40
0.562500000000008
40
0.562500000000008
40
0.578125000000009
40
0.578125000000009
40
0.593750000000009
40
0.609375000000009
40
0.609375000000009
40
0.625000000000009
40
0.625000000000009
40
0.656250000000009
40
0.656250000000009
40
0.671875000000009
40
0.671875000000009
40
0.687500000000009
40
0.687500000000009
40
0.718750000000009
40
0.718750000000009
40
0.750000000000009
40
0.750000000000009
40
0.765625000000008
40
0.765625000000008
40
0.781250000000008
40
0.781250000000008
40
0.812500000000006
40
0.812500000000006
40
0.843750000000005
40
0.843750000000005
40
0.875000000000003
40
0.875000000000003
40
0.890625000000003
40
0.890625000000003
40
0.906250000000002
40
0.906250000000002
40
0.937500000000002
40
0.937500000000002
40
0.953125000000001
40
0.953125000000001
40
0.968750000000001
40
0.968750000000001
40
1
40
1
40
1
40
1
41
1
10
22.6738555391413
20
-6.67855400635888
30
0
41
1
10
22.5783406917235
20
-6.80279588880953
30
0
41
1
10
22.4982829752707
20
-6.93441475075863
30
0
41
1
10
22.3695028521503
20
-7.2123972924567
30
0
41
1
10
22.3207993049402
20
-7.36033376257399
30
0
41
1
10
22.2612891188041
20
-7.65719294266674
30
0
41
1
10
22.2494822822156
20
-7.80770587014572
30
0
41
1
10
22.2635801851106
20
-8.11178492554859
30
0
41
1
10
22.2891681955373
20
-8.25960935681948
30
0
41
1
10
22.354001181356
20
-8.47539985387436
30
0
41
1
10
22.3801922173433
20
-8.54662287052528
30
0
41
1
10
22.4411186927656
20
-8.68571487639437
30
0
41
1
10
22.4755279908463
20
-8.75294571489582
30
0
41
1
10
22.5518410461353
20
-8.88303976975038
30
0
41
1
10
22.5937464513238
20
-8.9459019847209
30
0
41
1
10
22.6849156720098
20
-9.06737149944277
30
0
41
1
10
22.7344563547912
20
-9.12626189465522
30
0
41
1
10
22.8921456936837
20
-9.29435034833756
30
0
41
1
10
23.0083513974358
20
-9.39437306135153
30
0
41
1
10
23.1979447638328
20
-9.5280217262667
30
0
41
1
10
23.2639726328268
20
-9.56996316262138
30
0
41
1
10
23.3999329043429
20
-9.64768089752198
30
0
41
1
10
23.4694642993115
20
-9.68326548995262
30
0
41
1
10
23.6824449942872
20
-9.78080762014039
30
0
41
1
10
23.8302462847588
20
-9.83362812239037
30
0
41
1
10
24.1370350215031
20
-9.9159777802883
30
0
41
1
10
24.2933234633837
20
-9.94468450781685
30
0
41
1
10
24.6076054186265
20
-9.9784991937837
30
0
41
1
10
24.7665578392033
20
-9.98374370710241
30
0
41
1
10
25.0859332403085
20
-9.97083632218954
30
0
41
1
10
25.2430898354129
20
-9.95287308454394
30
0
41
1
10
25.5525417557162
20
-9.89477475077859
30
0
41
1
10
25.7048387006472
20
-9.85464778737639
30
0
41
1
10
26.004249539967
20
-9.7506031788395
30
0
41
1
10
26.1473682636619
20
-9.68805113075064
30
0
41
1
10
26.4196770142451
20
-9.5417589710321
30
0
41
1
10
26.5489937281584
20
-9.4580103757238
30
0
41
1
10
26.7313545940494
20
-9.31417675658142
30
0
41
1
10
26.7900991682684
20
-9.26317283057162
30
0
41
1
10
26.9007837301766
20
-9.15697158219757
30
0
41
1
10
26.9530718188175
20
-9.10151545420916
30
0
41
1
10
27.0512816826232
20
-8.98566044912693
30
0
41
1
10
27.0972053768547
20
-8.92526311817826
30
0
41
1
10
27.1821996257484
20
-8.79911574508091
30
0
41
1
10
27.2214102821583
20
-8.73299202091312
30
0
41
1
10
27.325042780453
20
-8.53118382957217
30
0
41
1
10
27.3766759763948
20
-8.39085390174924
30
0
41
1
10
27.4260789865425
20
-8.17093644322486
30
0
41
1
10
27.4378695120895
20
-8.09543092317159
30
0
41
1
10
27.4509785648466
20
-7.94438635371935
30
0
41
1
10
27.4537863873404
20
-7.79368017749013
30
0
41
1
10
27.4365427969088
20
-7.64363060823675
30
0
41
1
10
27.4092227921186
20
-7.49391727819329
30
0
41
1
10
27.3903485894989
20
-7.41884895609994
30
0
41
1
10
27.3202335340693
20
-7.20001117662969
30
0
41
1
10
27.2555489216472
20
-7.06086236758222
30
0
41
1
10
27.133612939353
20
-6.86161478997545
30
0
41
1
10
27.0891097018551
20
-6.79739204211867
30
0
41
1
10
26.9939705052548
20
-6.67449708398485
30
0
41
1
10
26.9431828473121
20
-6.6155779653439
30
0
41
1
10
26.7816916379606
20
-6.44602702315242
30
0
41
1
10
26.6609896137016
20
-6.34210529288004
30
0
41
1
10
26.4053839902369
20
-6.1589796550297
30
0
41
1
10
26.2697261433703
20
-6.07877572987374
30
0
41
1
10
26.0551164935482
20
-5.97466853763322
30
0
41
1
10
25.9819097816257
20
-5.94281352935474
30
0
41
1
10
25.8341796040555
20
-5.88539979408083
30
0
41
1
10
25.7593858252309
20
-5.85970654403155
30
0
41
1
10
25.5323025083349
20
-5.79141387460325
30
0
41
1
10
25.3773342872497
20
-5.75752691951786
30
0
41
1
10
25.0600998075365
20
-5.71356071873998
30
0
41
1
10
24.9015843976858
20
-5.70402518229318
30
0
41
1
10
24.5855398395687
20
-5.70927136020799
30
0
41
1
10
24.4278777163424
20
-5.7240289934569
30
0
41
1
10
24.1919651217546
20
-5.76570191134107
30
0
41
1
10
24.1136714561151
20
-5.78286385938108
30
0
41
1
10
23.9603626432963
20
-5.82319754225813
30
0
41
1
10
23.8849794846119
20
-5.84642850525199
30
0
41
1
10
23.662680977292
20
-5.92538440866437
30
0
41
1
10
23.5195771671918
20
-5.99027983110975
30
0
41
1
10
23.3133399497709
20
-6.10776709286927
30
0
41
1
10
23.2457851161416
20
-6.15051248470314
30
0
41
1
10
23.1167266787362
20
-6.24111409501108
30
0
41
1
10
23.0548564969637
20
-6.28914721271684
30
0
41
1
10
22.8773180110867
20
-6.44150327346983
30
0
41
1
10
22.7693703865591
20
-6.55431212390823
30
0
41
1
10
22.6738555391413
20
-6.67855400635888
30
0
0
SPLINE
5
128
100
AcDbEntity
8
1
62
256
6
ByLayer
370
18
48
1
60
0
100
AcDbSpline
70
4
71
3
72
16
73
12
40
0
40
0
40
0
40
0
40
0.250000000000001
40
0.250000000000001
40
0.500000000000002
40
0.500000000000002
40
0.750000000000002
40
0.750000000000002
40
0.875000000000001
40
0.875000000000001
40
1
40
1
40
1
40
1
41
1
10
8.10566243270256
20
8.05584836782779
30
0
41
1
10
8.12110769698498
20
7.99849169434916
30
0
41
1
10
8.13959628273543
20
7.9421825395126
30
0
41
1
10
8.18485781079315
20
7.83248598676809
30
0
41
1
10
8.21171210490061
20
7.77870179643031
30
0
41
1
10
8.27812666032528
20
7.67767014498895
30
0
41
1
10
8.31777781748542
20
7.63015704912698
30
0
41
1
10
8.39058907041823
20
7.57464889660895
30
0
41
1
10
8.41770072232731
20
7.55854989603586
30
0
41
1
10
8.47563983861076
20
7.53610198950841
30
0
41
1
10
8.50697323176115
20
7.52966679426476
30
0
41
1
10
8.53867513459471
20
7.52966679426476
30
0
0
SPLINE
5
129
100
AcDbEntity
8
1
62
256
6
ByLayer
370
18
48
1
60
0
100
AcDbSpline
70
4
71
3
72
16
73
12
40
0
40
0
40
0
40
0
40
0.125000000000004
40
0.125000000000004
40
0.250000000000007
40
0.250000000000007
40
0.500000000000005
40
0.500000000000005
40
0.750000000000002
40
0.750000000000002
40
1
40
1
40
1
40
1
41
1
10
11.4613248654052
20
7.52966679426507
30
0
41
1
10
11.4930777586346
20
7.52966679426507
30
0
41
1
10
11.523990670531
20
7.53597576299646
30
0
41
1
10
11.5824040005111
20
7.55857361750105
30
0
41
1
10
11.6089650834003
20
7.57431556968112
30
0
41
1
10
11.6829561422921
20
7.6307034754534
30
0
41
1
10
11.7219265489987
20
7.67774765104232
30
0
41
1
10
11.7882603826481
20
7.77866338250456
30
0
41
1
10
11.8148780607233
20
7.83191947486048
30
0
41
1
10
11.8602443227467
20
7.94172327888191
30
0
41
1
10
11.8788862370738
20
7.9984691682071
30
0
41
1
10
11.8943375672975
20
8.05584836782774
30
0
0
SPLINE
5
12A
100
AcDbEntity
8
1
62
256
6
ByLayer
370
18
48
1
60
0
100
AcDbSpline
70
4
71
3
72
16
73
12
40
0
40
0
40
0
40
0
40
0.249999999999999
40
0.249999999999999
40
0.499999999999997
40
0.499999999999997
40
0.749999999999996
40
0.749999999999996
40
0.874999999999998
40
0.874999999999998
40
1
40
1
40
1
40
1
41
1
10
11.8943375672974
20
23.666501792081
30
0
41
1
10
11.878892303015
20
23.6860254491253
30
0
41
1
10
11.8604037172646
20
23.7049589195932
30
0
41
1
10
11.8151421892069
20
23.74143011989
30
0
41
1
10
11.7882878950993
20
23.7590955179202
30
0
41
1
10
11.7218733396747
20
23.7919356634173
30
0
41
1
10
11.6822221825145
20
23.8071882416309
30
0
41
1
10
11.6094109295817
20
23.8248834464054
30
0
41
1
10
11.5822992776726
20
23.8299908115614
30
0
41
1
10
11.5243601613891
20
23.8370993498305
30
0
41
1
10
11.4930267682388
20
23.8391299750505
30
0
41
1
10
11.4613248654053
20
23.8391299750505
30
0
0
SPLINE
5
12B
100
AcDbEntity
8
1
62
256
6
ByLayer
370
18
48
1
60
0
100
AcDbSpline
70
4
71
3
72
16
73
12
40
0
40
0
40
0
40
0
40
0.124999999999999
40
0.124999999999999
40
0.249999999999997
40
0.249999999999997
40
0.499999999999996
40
0.499999999999996
40
0.749999999999998
40
0.749999999999998
40
1
40
1
40
1
40
1
41
1
10
8.53867513459477
20
23.8391299750504
30
0
41
1
10
8.50692224136537
20
23.8391299750504
30
0
41
1
10
8.47600932946895
20
23.8371392949587
30
0
41
1
10
8.41759599948892
20
23.829983326401
30
0
41
1
10
8.39103491659966
20
23.824989671385
30
0
41
1
10
8.31704385770789
20
23.8070141183761
30
0
41
1
10
8.27807345100129
20
23.7919105160783
30
0
41
1
10
8.21173961735187
20
23.7591079584198
30
0
41
1
10
8.18512193927674
20
23.7416171457992
30
0
41
1
10
8.13975567725328
20
23.7051129235883
30
0
41
1
10
8.12111376292614
20
23.6860331168061
30
0
41
1
10
8.10566243270242
20
23.6665017920809
30
0
0
SPLINE
5
12C
100
AcDbEntity
8
1
62
256
6
ByLayer
370
18
48
1
60
0
100
AcDbSpline
70
4
71
3
72
16
73
12
40
0
40
0
40
0
40
0
40
0.249999999999999
40
0.249999999999999
40
0.499999999999999
40
0.499999999999999
40
0.749999999999998
40
0.749999999999998
40
0.874999999999999
40
0.874999999999999
40
1
40
1
40
1
40
1
41
1
10
8.10566243270259
20
-23.6665017920809
30
0
41
1
10
8.12110769698501
20
-23.6860254491252
30
0
41
1
10
8.13959628273543
20
-23.7049589195931
30
0
41
1
10
8.18485781079315
20
-23.7414301198899
30
0
41
1
10
8.21171210490064
20
-23.7590955179201
30
0
41
1
10
8.27812666032531
20
-23.7919356634172
30
0
41
1
10
8.31777781748548
20
-23.8071882416308
30
0
41
1
10
8.39058907041829
20
-23.8248834464053
30
0
41
1
10
8.41770072232737
20
-23.8299908115613
30
0
41
1
10
8.47563983861082
20
-23.8370993498304
30
0
41
1
10
8.50697323176118
20
-23.8391299750505
30
0
41
1
10
8.53867513459474
20
-23.8391299750505
30
0
0
SPLINE
5
12D
100
AcDbEntity
8
1
62
256
6
ByLayer
370
18
48
1
60
0
100
AcDbSpline
70
4
71
3
72
16
73
12
40
0
40
0
40
0
40
0
40
0.125000000000001
40
0.125000000000001
40
0.250000000000002
40
0.250000000000002
40
0.500000000000001
40
0.500000000000001
40
0.750000000000001
40
0.750000000000001
40
1
40
1
40
1
40
1
41
1
10
11.4613248654052
20
-23.8391299750503
30
0
41
1
10
11.4930777586346
20
-23.8391299750503
30
0
41
1
10
11.523990670531
20
-23.8371392949585
30
0
41
1
10
11.5824040005111
20
-23.8299833264009
30
0
41
1
10
11.6089650834003
20
-23.8249896713849
30
0
41
1
10
11.6829561422921
20
-23.807014118376
30
0
41
1
10
11.7219265489987
20
-23.7919105160782
30
0
41
1
10
11.7882603826481
20
-23.7591079584197
30
0
41
1
10
11.8148780607232
20
-23.7416171457991
30
0
41
1
10
11.8602443227467
20
-23.7051129235882
30
0
41
1
10
11.8788862370738
20
-23.6860331168061
30
0
41
1
10
11.8943375672975
20
-23.6665017920809
30
0
0
SPLINE
5
12E
100
AcDbEntity
8
1
62
256
6
ByLayer
370
18
48
1
60
0
100
AcDbSpline
70
4
71
3
72
16
73
12
40
0
40
0
40
0
40
0
40
0.250000000000003
40
0.250000000000003
40
0.500000000000005
40
0.500000000000005
40
0.750000000000005
40
0.750000000000005
40
0.875000000000003
40
0.875000000000003
40
1
40
1
40
1
40
1
41
1
10
11.8943375672974
20
-8.05584836782771
30
0
41
1
10
11.878892303015
20
-7.99849169434907
30
0
41
1
10
11.8604037172645
20
-7.94218253951249
30
0
41
1
10
11.8151421892068
20
-7.83248598676798
30
0
41
1
10
11.7882878950993
20
-7.7787017964302
30
0
41
1
10
11.7218733396747
20
-7.67767014498884
30
0
41
1
10
11.6822221825145
20
-7.63015704912686
30
0
41
1
10
11.6094109295817
20
-7.57464889660886
30
0
41
1
10
11.5822992776726
20
-7.5585498960358
30
0
41
1
10
11.5243601613891
20
-7.53610198950835
30
0
41
1
10
11.4930267682388
20
-7.52966679426467
30
0
41
1
10
11.4613248654052
20
-7.52966679426467
30
0
0
SPLINE
5
12F
100
AcDbEntity
8
1
62
256
6
ByLayer
370
18
48
1
60
0
100
AcDbSpline
70
4
71
3
72
16
73
12
40
0
40
0
40
0
40
0
40
0.125000000000002
40
0.125000000000002
40
0.250000000000004
40
0.250000000000004
40
0.500000000000003
40
0.500000000000003
40
0.750000000000001
40
0.750000000000001
40
1
40
1
40
1
40
1
41
1
10
8.5386751345948
20
-7.52966679426501
30
0
41
1
10
8.5069222413654
20
-7.52966679426501
30
0
41
1
10
8.47600932946901
20
-7.53597576299646
30
0
41
1
10
8.41759599948895
20
-7.55857361750103
30
0
41
1
10
8.39103491659969
20
-7.57431556968106
30
0
41
1
10
8.31704385770789
20
-7.63070347545334
30
0
41
1
10
8.27807345100129
20
-7.67774765104227
30
0
41
1
10
8.21173961735187
20
-7.7786633825045
30
0
41
1
10
8.18512193927671
20
-7.8319194748604
30
0
41
1
10
8.13975567725325
20
-7.94172327888185
30
0
41
1
10
8.12111376292617
20
-7.99846916820704
30
0
41
1
10
8.10566243270242
20
-8.05584836782768
30
0
0
SPLINE
5
130
100
AcDbEntity
8
SK1
62
256
6
ByLayer
370
18
48
1
60
0
100
AcDbSpline
70
4
71
3
72
26
73
22
40
0
40
0
40
0
40
0
40
0.249999999999999
40
0.249999999999999
40
0.499999999999998
40
0.499999999999998
40
0.624999999999998
40
0.624999999999998
40
0.687499999999998
40
0.687499999999998
40
0.749999999999999
40
0.749999999999999
40
0.812499999999999
40
0.812499999999999
40
0.875
40
0.875
40
0.90625
40
0.90625
40
0.9375
40
0.9375
40
1
40
1
40
1
40
1
41
1
10
-1.3071067811866
20
3.91806548153787
30
0
41
1
10
-1.27769319780748
20
4.08052093037071
30
0
41
1
10
-1.24421801411862
20
4.24088838641728
30
0
41
1
10
-1.16485205097936
20
4.55692134673151
30
0
41
1
10
-1.11915053894168
20
4.71298625674965
30
0
41
1
10
-1.03398506252569
20
4.93920991648994
30
0
41
1
10
-1.00279216065923
20
5.01338233454956
30
0
41
1
10
-0.948686084795526
20
5.12180889714577
30
0
41
1
10
-0.92941394814639
20
5.15747348575948
30
0
41
1
10
-0.887192676607157
20
5.2274622561776
30
0
41
1
10
-0.864103743652976
20
5.2620159396939
30
0
41
1
10
-0.813044425251093
20
5.32730624386841
30
0
41
1
10
-0.785168859850643
20
5.35822757002165
30
0
41
1
10
-0.720036760130682
20
5.41334643052002
30
0
41
1
10
-0.681932962873333
20
5.43781069903423
30
0
41
1
10
-0.618164109731538
20
5.45755608765845
30
0
41
1
10
-0.595615461334688
20
5.46126474518044
30
0
41
1
10
-0.550411294006409
20
5.46132444639045
30
0
41
1
10
-0.528101012291245
20
5.45772738244955
30
0
41
1
10
-0.464215280713603
20
5.43805975377174
30
0
41
1
10
-0.427403975867833
20
5.41432955957455
30
0
41
1
10
-0.394976888875476
20
5.38678223323959
30
0
0
SPLINE
5
131
100
AcDbEntity
8
SK1
62
256
6
ByLayer
370
18
48
1
60
0
100
AcDbSpline
70
4
71
3
72
24
73
20
40
0
40
0
40
0
40
0
40
0.0312500000000003
40
0.0312500000000003
40
0.0625000000000007
40
0.0625000000000007
40
0.093750000000001
40
0.093750000000001
40
0.125000000000001
40
0.125000000000001
40
0.1875
40
0.1875
40
0.249999999999998
40
0.249999999999998
40
0.499999999999999
40
0.499999999999999
40
0.749999999999999
40
0.749999999999999
40
1
40
1
40
1
40
1
41
1
10
-0.394976888873003
20
5.38678223324209
30
0
41
1
10
-0.388503745329103
20
5.38128319480975
30
0
41
1
10
-0.381388986848094
20
5.37647349151376
30
0
41
1
10
-0.365645130729632
20
5.37003095057861
30
0
41
1
10
-0.356875018489489
20
5.36852559182822
30
0
41
1
10
-0.339464630967001
20
5.37101783691426
30
0
41
1
10
-0.33098524294985
20
5.37503833637217
30
0
41
1
10
-0.31651065282108
20
5.38583151921273
30
0
41
1
10
-0.31029265493018
20
5.39251318392272
30
0
41
1
10
-0.293803612204755
20
5.41390802600503
30
0
41
1
10
-0.28554407757386
20
5.42989034626169
30
0
41
1
10
-0.271326596659975
20
5.46242047093597
30
0
41
1
10
-0.265514310429893
20
5.47895729783241
30
0
41
1
10
-0.239827472074296
20
5.56231823892315
30
0
41
1
10
-0.229021554776978
20
5.63115874840241
30
0
41
1
10
-0.212565919448906
20
5.76699630063504
30
0
41
1
10
-0.207636724466056
20
5.8346241685793
30
0
41
1
10
-0.201310577492137
20
5.9693910574473
30
0
41
1
10
-0.200000000000358
20
6.03652860978244
30
0
41
1
10
-0.200000000000358
20
6.10344667966001
30
0
0
SPLINE
5
132
100
AcDbEntity
8
SK1
62
256
6
ByLayer
370
18
48
1
60
0
100
AcDbSpline
70
4
71
3
72
26
73
22
40
0
40
0
40
0
40
0
40
0.250000000000003
40
0.250000000000003
40
0.500000000000005
40
0.500000000000005
40
0.625000000000005
40
0.625000000000005
40
0.750000000000004
40
0.750000000000004
40
0.812500000000003
40
0.812500000000003
40
0.875000000000001
40
0.875000000000001
40
0.906250000000001
40
0.906250000000001
40
0.937500000000001
40
0.937500000000001
40
0.96875
40
0.96875
40
1
40
1
40
1
40
1
41
1
10
-0.199999999999989
20
-6.10344849123027
30
0
41
1
10
-0.199999999999989
20
-6.03658343849219
30
0
41
1
10
-0.201307915401543
20
-5.96945919325964
30
0
41
1
10
-0.207636972094122
20
-5.83460886439377
30
0
41
1
10
-0.212579850553397
20
-5.76680281418166
30
0
41
1
10
-0.224951590332751
20
-5.66479408005199
30
0
41
1
10
-0.229904281870233
20
-5.63080031605767
30
0
41
1
10
-0.242521523471169
20
-5.5629053131494
30
0
41
1
10
-0.250117086737589
20
-5.52896458934293
30
0
41
1
10
-0.265414899342318
20
-5.47925984090529
30
0
41
1
10
-0.271171206812255
20
-5.46286741312707
30
0
41
1
10
-0.285126828250412
20
-5.43075649789986
30
0
41
1
10
-0.293370777796042
20
-5.41464883184733
30
0
41
1
10
-0.309754325583384
20
-5.39312762647256
30
0
41
1
10
-0.315906755851444
20
-5.38639867120827
30
0
41
1
10
-0.33043328177348
20
-5.37534138513303
30
0
41
1
10
-0.338822824507929
20
-5.37123289411576
30
0
41
1
10
-0.356328976513907
20
-5.36848804676436
30
0
41
1
10
-0.365355266428708
20
-5.3699461257429
30
0
41
1
10
-0.381274177460881
20
-5.3763929379804
30
0
41
1
10
-0.3884397087092
20
-5.38122846522197
30
0
41
1
10
-0.394976888875334
20
-5.38678189578175
30
0
0
SPLINE
5
133
100
AcDbEntity
8
SK1
62
256
6
ByLayer
370
18
48
1
60
0
100
AcDbSpline
70
4
71
3
72
30
73
26
40
0
40
0
40
0
40
0
40
0.0312500000000004
40
0.0312500000000004
40
0.0625000000000009
40
0.0625000000000009
40
0.0937500000000013
40
0.0937500000000013
40
0.125000000000002
40
0.125000000000002
40
0.156250000000002
40
0.156250000000002
40
0.187500000000002
40
0.187500000000002
40
0.250000000000002
40
0.250000000000002
40
0.312500000000002
40
0.312500000000002
40
0.375000000000002
40
0.375000000000002
40
0.500000000000003
40
0.500000000000003
40
0.750000000000001
40
0.750000000000001
40
1
40
1
40
1
40
1
41
1
10
-0.394976888875334
20
-5.38678189578289
30
0
41
1
10
-0.411121004362684
20
-5.40049655899077
30
0
41
1
10
-0.42823327922278
20
-5.41311535582488
30
0
41
1
10
-0.465309612185933
20
-5.43514865455288
30
0
41
1
10
-0.485247093192157
20
-5.44447298609393
30
0
41
1
10
-0.527143852804073
20
-5.45749158572374
30
0
41
1
10
-0.549766809572674
20
-5.46123817959719
30
0
41
1
10
-0.594625996823481
20
-5.46134910310991
30
0
41
1
10
-0.617367334499107
20
-5.45772890381812
30
0
41
1
10
-0.660019264070257
20
-5.44466656582563
30
0
41
1
10
-0.680396026591751
20
-5.43519415358119
30
0
41
1
10
-0.71783427901795
20
-5.41311904009149
30
0
41
1
10
-0.735191453829259
20
-5.4004395860315
30
0
41
1
10
-0.784451320222161
20
-5.35899057781563
30
0
41
1
10
-0.812480141629862
20
-5.32795417138175
30
0
41
1
10
-0.86357998427215
20
-5.26275715404714
30
0
41
1
10
-0.886669998197988
20
-5.22827369564405
30
0
41
1
10
-0.929038370947694
20
-5.15814871783951
30
0
41
1
10
-0.948360494973542
20
-5.12242801873617
30
0
41
1
10
-1.00258384146318
20
-5.01386242026868
30
0
41
1
10
-1.03381196991219
20
-4.93963585912667
30
0
41
1
10
-1.11904493500307
20
-4.71333034940321
30
0
41
1
10
-1.16474908109114
20
-4.55729858564035
30
0
41
1
10
-1.24418351237225
20
-4.24105736808258
30
0
41
1
10
-1.27767890904272
20
-4.08059985762037
30
0
41
1
10
-1.3071067811866
20
-3.9180654805769
30
0
0
SPLINE
5
134
100
AcDbEntity
8
SK1
62
256
6
ByLayer
370
18
48
1
60
0
100
AcDbSpline
70
4
71
3
72
282
73
278
40
0
40
0
40
0
40
0
40
0.0031736976738478
40
0.0067479861372555
40
0.0103222746006632
40
0.013896563064071
40
0.0174708515274787
40
0.0210451399908864
40
0.0246194284542941
40
0.0281937169177018
40
0.0317680053811095
40
0.0353422938445172
40
0.0424908707713326
40
0.0460651592347403
40
0.049639447698148
40
0.0532137361615557
40
0.0567880246249634
40
0.0639366015517788
40
0.0675108900151866
40
0.0710851784785943
40
0.0782337554054097
40
0.0818080438688174
40
0.0853823323322251
40
0.0925309092590405
40
0.0961051977224482
40
0.0996794861858559
40
0.103253774649264
40
0.106828063112671
40
0.110402351576079
40
0.113976640039487
40
0.117550928502894
40
0.121125216966302
40
0.128273793893118
40
0.131848082356525
40
0.135422370819933
40
0.138996659283341
40
0.142570947746748
40
0.149719524673564
40
0.153293813136971
40
0.156868101600379
40
0.160442390063787
40
0.164016678527195
40
0.17116525545401
40
0.174739543917418
40
0.178313832380825
40
0.181888120844233
40
0.185462409307641
40
0.192610986234456
40
0.196185274697864
40
0.199759563161272
40
0.203333851624679
40
0.206908140088087
40
0.214056717014903
40
0.21763100547831
40
0.221205293941718
40
0.224779582405126
40
0.228353870868533
40
0.235502447795349
40
0.239076736258756
40
0.242651024722164
40
0.246225313185572
40
0.24979960164898
40
0.256948178575795
40
0.260522467039203
40
0.26409675550261
40
0.271245332429426
40
0.278393909356241
40
0.281968197819649
40
0.285542486283057
40
0.292691063209872
40
0.29626535167328
40
0.299839640136688
40
0.303413928600095
40
0.306988217063503
40
0.310562505526911
40
0.314136793990318
40
0.321285370917134
40
0.328433947843949
40
0.332008236307357
40
0.335582524770765
40
0.339156813234172
40
0.34273110169758
40
0.346305390160988
40
0.349879678624395
40
0.357028255551211
40
0.364176832478026
40
0.371325409404842
40
0.374899697868249
40
0.378473986331657
40
0.382048274795065
40
0.385622563258472
40
0.38919685172188
40
0.392771140185288
40
0.396345428648695
40
0.399919717112103
40
0.403494005575511
40
0.407068294038919
40
0.410642582502326
40
0.414216870965734
40
0.417791159429142
40
0.421365447892549
40
0.424939736355957
40
0.428514024819365
40
0.432088313282773
40
0.433875457514476
40
0.43566260174618
40
0.437449745977884
40
0.439236890209588
40
0.442811178672996
40
0.446385467136403
40
0.448172611368107
40
0.449959755599811
40
0.451746899831515
40
0.453534044063219
40
0.455321188294923
40
0.457108332526627
40
0.460682620990034
40
0.462469765221738
40
0.464256909453442
40
0.466044053685146
40
0.46783119791685
40
0.469618342148554
40
0.471405486380257
40
0.473192630611961
40
0.474979774843665
40
0.476766919075369
40
0.478554063307073
40
0.480341207538777
40
0.482128351770481
40
0.483915496002184
40
0.485702640233888
40
0.487489784465592
40
0.489276928697296
40
0.491064072929
40
0.492851217160704
40
0.494638361392408
40
0.496425505624111
40
0.498212649855815
40
0.499999794087519
40
0.501786938319223
40
0.503574082550927
40
0.505361226782631
40
0.507148371014335
40
0.508935515246038
40
0.510722659477742
40
0.512509803709446
40
0.51429694794115
40
0.516084092172854
40
0.517871236404558
40
0.519658380636261
40
0.521445524867965
40
0.523232669099669
40
0.525019813331373
40
0.526806957563077
40
0.528594101794781
40
0.530381246026485
40
0.532168390258188
40
0.533955534489892
40
0.535742678721596
40
0.5375298229533
40
0.539316967185004
40
0.541104111416708
40
0.542891255648411
40
0.544678399880115
40
0.546465544111819
40
0.550039832575227
40
0.551826976806931
40
0.553614121038635
40
0.557188409502042
40
0.56076269796545
40
0.562549842197154
40
0.564336986428858
40
0.566124130660562
40
0.567911274892265
40
0.571485563355673
40
0.575059851819081
40
0.578634140282489
40
0.582208428745896
40
0.585782717209304
40
0.589357005672712
40
0.592931294136119
40
0.596505582599527
40
0.600079871062935
40
0.603654159526342
40
0.60722844798975
40
0.610802736453158
40
0.614377024916566
40
0.617951313379973
40
0.621525601843381
40
0.625099890306789
40
0.628674178770196
40
0.635822755697012
40
0.642971332623827
40
0.650119909550643
40
0.65369419801405
40
0.657268486477458
40
0.660842774940866
40
0.664417063404274
40
0.667991351867681
40
0.671565640331089
40
0.678714217257904
40
0.68586279418472
40
0.689437082648128
40
0.693011371111535
40
0.696585659574943
40
0.700159948038351
40
0.703734236501758
40
0.707308524965166
40
0.714457101891981
40
0.718031390355389
40
0.721605678818797
40
0.728754255745612
40
0.735902832672428
40
0.739477121135835
40
0.743051409599243
40
0.750199986526058
40
0.753774274989466
40
0.757348563452874
40
0.760922851916282
40
0.764497140379689
40
0.771645717306505
40
0.775220005769912
40
0.77879429423332
40
0.782368582696728
40
0.785942871160136
40
0.793091448086951
40
0.796665736550359
40
0.800240025013766
40
0.803814313477174
40
0.807388601940582
40
0.814537178867397
40
0.818111467330805
40
0.821685755794213
40
0.82526004425762
40
0.828834332721028
40
0.835982909647843
40
0.839557198111251
40
0.843131486574659
40
0.844918630806363
40
0.846705775038067
40
0.850280063501474
40
0.85742864042829
40
0.861002928891697
40
0.864577217355105
40
0.868151505818513
40
0.871725794281921
40
0.878874371208736
40
0.882448659672144
40
0.886022948135551
40
0.889597236598959
40
0.893171525062367
40
0.896745813525774
40
0.900320101989182
40
0.90389439045259
40
0.907468678915998
40
0.914617255842813
40
0.918191544306221
40
0.921765832769628
40
0.928914409696444
40
0.932488698159852
40
0.936062986623259
40
0.943211563550075
40
0.946785852013482
40
0.95036014047689
40
0.953934428940298
40
0.957508717403705
40
0.964657294330521
40
0.968231582793929
40
0.971805871257336
40
0.975380159720744
40
0.978954448184152
40
0.982528736647559
40
0.986103025110967
40
0.989677313574375
40
0.993251602037783
40
0.99682589050119
40
1
40
1
40
1
40
1
41
1
10
-1.99503997793934
20
17.3199312102843
30
0
41
1
10
-1.99503997793934
20
17.3184000137503
30
0
41
1
10
-1.99503997793931
20
17.314441316832
30
0
41
1
10
-1.99503997793934
20
17.3061342577567
30
0
41
1
10
-1.99503997793934
20
17.295067771448
30
0
41
1
10
-1.99503997793931
20
17.2816041041457
30
0
41
1
10
-1.99503997793931
20
17.2657805776118
30
0
41
1
10
-1.99503997793934
20
17.2476335117891
30
0
41
1
10
-1.99503997793931
20
17.2271975457698
30
0
41
1
10
-1.99503997793931
20
17.2045053960087
30
0
41
1
10
-1.99503997793934
20
17.1795895960112
30
0
41
1
10
-1.99503997793931
20
17.143423992764
30
0
41
1
10
-1.99503997793931
20
17.1029924242497
30
0
41
1
10
-1.99503997793928
20
17.0582791326422
30
0
41
1
10
-1.99503997793937
20
17.0226787925822
30
0
41
1
10
-1.99503997793934
20
16.9850205529169
30
0
41
1
10
-1.99503997793928
20
16.9320728615658
30
0
41
1
10
-1.99503997793931
20
16.8751872660894
30
0
41
1
10
-1.99503997793928
20
16.8142877036056
30
0
41
1
10
-1.99503997793937
20
16.7507929832779
30
0
41
1
10
-1.99503997793928
20
16.6835453056651
30
0
41
1
10
-1.99503997793931
20
16.6124299551483
30
0
41
1
10
-1.99503997793931
20
16.5388242186582
30
0
41
1
10
-1.99503997793937
20
16.4616240004256
30
0
41
1
10
-1.99503997793928
20
16.3806869939664
30
0
41
1
10
-1.99503997793931
20
16.3182114219941
30
0
41
1
10
-1.99503997793931
20
16.2539521138774
30
0
41
1
10
-1.99503997793928
20
16.1879246249362
30
0
41
1
10
-1.99503997793928
20
16.1201424382026
30
0
41
1
10
-1.99503997793937
20
16.0506207732709
30
0
41
1
10
-1.99503997793931
20
15.9793734908251
30
0
41
1
10
-1.99503997793937
20
15.8820499794419
30
0
41
1
10
-1.99503997793931
20
15.7814584486047
30
0
41
1
10
-1.99503997793928
20
15.677384958149
30
0
41
1
10
-1.99503997793934
20
15.5977008436634
30
0
41
1
10
-1.99503997793934
20
15.5163656256123
30
0
41
1
10
-1.99503997793934
20
15.4056838451686
30
0
41
1
10
-1.99503997793937
20
15.2918890118945
30
0
41
1
10
-1.99503997793931
20
15.1747311694574
30
0
41
1
10
-1.99503997793931
20
15.0853020659338
30
0
41
1
10
-1.99503997793931
20
14.9942846604514
30
0
41
1
10
-1.99503997793931
20
14.8707702235387
30
0
41
1
10
-1.99503997793937
20
14.7442755428493
30
0
41
1
10
-1.99503997793928
20
14.6145160455858
30
0
41
1
10
-1.99503997793931
20
14.5156939096276
30
0
41
1
10
-1.99503997793934
20
14.4153366771622
30
0
41
1
10
-1.99503997793937
20
14.2794333721973
30
0
41
1
10
-1.99503997793937
20
14.1406647198645
30
0
41
1
10
-1.99503997793931
20
13.9987118830367
30
0
41
1
10
-1.99503997793934
20
13.890794724777
30
0
41
1
10
-1.99503997793934
20
13.7813876415877
30
0
41
1
10
-1.99503997793937
20
13.6334713769854
30
0
41
1
10
-1.99503997793931
20
13.482790135872
30
0
41
1
10
-1.99503997793928
20
13.328990109671
30
0
41
1
10
-1.99503997793934
20
13.2122307400427
30
0
41
1
10
-1.99503997793931
20
13.09401974916
30
0
41
1
10
-1.99503997793931
20
12.9344093145834
30
0
41
1
10
-1.99503997793934
20
12.7721223429485
30
0
41
1
10
-1.99503997793934
20
12.606768466692
30
0
41
1
10
-1.99503997793931
20
12.4813812679685
30
0
41
1
10
-1.99503997793937
20
12.3545748152048
30
0
41
1
10
-1.99503997793934
20
12.1835401119864
30
0
41
1
10
-1.99503997793934
20
12.0099077332895
30
0
41
1
10
-1.99503997793937
20
11.8332480165124
30
0
41
1
10
-1.99503997793934
20
11.6547268261542
30
0
41
1
10
-1.99503997793934
20
11.4282697000141
30
0
41
1
10
-1.99503997793934
20
11.197200136596
30
0
41
1
10
-1.99503997793934
20
11.00944356136
30
0
41
1
10
-1.99503997793937
20
10.8198574498996
30
0
41
1
10
-1.99503997793928
20
10.627787937013
30
0
41
1
10
-1.99503997793934
20
10.4327334855784
30
0
41
1
10
-1.99503997793931
20
10.2851499168301
30
0
41
1
10
-1.99503997793934
20
10.1362104702401
30
0
41
1
10
-1.99503997793937
20
9.9859187904772
30
0
41
1
10
-1.99503997793928
20
9.83427692622888
30
0
41
1
10
-1.99503997793931
20
9.63019833168178
30
0
41
1
10
-1.99503997793928
20
9.37195865327328
30
0
41
1
10
-1.99503997793934
20
9.10925717826126
30
0
41
1
10
-1.99503997793931
20
8.89624559944804
30
0
41
1
10
-1.99503997793928
20
8.73523611643316
30
0
41
1
10
-1.99503997793928
20
8.57289871794617
30
0
41
1
10
-1.99503997793928
20
8.40923673354899
30
0
41
1
10
-1.99503997793928
20
8.24425232954016
30
0
41
1
10
-1.99503997793931
20
8.02240146480563
30
0
41
1
10
-1.99503997793931
20
7.74205781329053
30
0
41
1
10
-1.99503997793934
20
7.40025290593454
30
0
41
1
10
-1.99503997793928
20
7.11118461088941
30
0
41
1
10
-1.99503997793934
20
6.87709665618272
30
0
41
1
10
-1.99503997793928
20
6.70033531356592
30
0
41
1
10
-1.99503997793928
20
6.52228078287746
30
0
41
1
10
-1.99503997793931
20
6.34293707417916
30
0
41
1
10
-1.99503997793934
20
6.16230788845584
30
0
41
1
10
-1.99503997793931
20
5.98039789106804
30
0
41
1
10
-1.99503997793931
20
5.79721186805693
30
0
41
1
10
-1.99503997793934
20
5.61275496243294
30
0
41
1
10
-1.99503997793934
20
5.42703270327701
30
0
41
1
10
-1.99503997793931
20
5.2400517573148
30
0
41
1
10
-1.99503997793931
20
5.05181945337142
30
0
41
1
10
-1.99503997793928
20
4.86234332329406
30
0
41
1
10
-1.99503997793928
20
4.67163207713236
30
0
41
1
10
-1.99503997793937
20
4.47969614999022
30
0
41
1
10
-1.99503997793934
20
4.28654656517497
30
0
41
1
10
-1.99503997793934
20
4.09219634432213
30
0
41
1
10
-1.99503997793934
20
3.9293466108191
30
0
41
1
10
-1.99503997793931
20
3.79829729672923
30
0
41
1
10
-1.99503997793928
20
3.69979994526256
30
0
41
1
10
-1.99503997793934
20
3.60101470619625
30
0
41
1
10
-1.99503997793931
20
3.46881385164502
30
0
41
1
10
-1.99503997793931
20
3.30310841087521
30
0
41
1
10
-1.99503997793934
20
3.1364757982418
30
0
41
1
10
-1.99503997793928
20
3.00241852965871
30
0
41
1
10
-1.99503997793934
20
2.90170218623109
30
0
41
1
10
-1.99503997793931
20
2.80072442890972
30
0
41
1
10
-1.99503997793928
20
2.69948931487849
30
0
41
1
10
-1.99503997793934
20
2.59800197345766
30
0
41
1
10
-1.99503997793931
20
2.46222694501742
30
0
41
1
10
-1.99503997793934
20
2.32636708010443
30
0
41
1
10
-1.99503997793928
20
2.18963187963749
30
0
41
1
10
-1.99503997793931
20
2.0869636745152
30
0
41
1
10
-1.99503997793931
20
1.98407765086861
30
0
41
1
10
-1.99503997793931
20
1.88098143773607
30
0
41
1
10
-1.99503997793934
20
1.77768276547403
30
0
41
1
10
-1.99503997793934
20
1.67418894734931
30
0
41
1
10
-1.99503997793934
20
1.57050946303124
30
0
41
1
10
-1.99503997793934
20
1.4666520999574
30
0
41
1
10
-1.99503997793928
20
1.36262724011794
30
0
41
1
10
-1.99503997793931
20
1.25844372920943
30
0
41
1
10
-1.99503997793931
20
1.15411255471389
30
0
41
1
10
-1.99503997793928
20
1.04964378000579
30
0
41
1
10
-1.99503997793928
20
0.945048899580655
30
0
41
1
10
-1.99503997793931
20
0.840338961204253
30
0
41
1
10
-1.99503997793931
20
0.735526073032361
30
0
41
1
10
-1.99503997793934
20
0.630622105582717
30
0
41
1
10
-1.99503997793934
20
0.525639721157319
30
0
41
1
10
-1.99503997793934
20
0.42059135092876
30
0
41
1
10
-1.99503997793928
20
0.315490126623843
30
0
41
1
10
-1.99503997793931
20
0.210348939519463
30
0
41
1
10
-1.99503997793934
20
0.105181165306277
30
0
41
1
10
-1.99503997793931
20
-2.6093403E-09
30
0
41
1
10
-1.99503997793928
20
-0.105181173899382
30
0
41
1
10
-1.99503997793931
20
-0.210348954453991
30
0
41
1
10
-1.99503997793937
20
-0.315490140896486
30
0
41
1
10
-1.99503997793931
20
-0.420591355720461
30
0
41
1
10
-1.99503997793931
20
-0.525639723935797
30
0
41
1
10
-1.99503997793931
20
-0.630622120770198
30
0
41
1
10
-1.99503997793934
20
-0.73552609301845
30
0
41
1
10
-1.99503997793931
20
-0.840338966235549
30
0
41
1
10
-1.99503997793931
20
-0.945048896197619
30
0
41
1
10
-1.99503997793934
20
-1.04964379294296
30
0
41
1
10
-1.99503997793937
20
-1.15411258033257
30
0
41
1
10
-1.99503997793937
20
-1.25844373877692
30
0
41
1
10
-1.99503997793928
20
-1.3626272319454
30
0
41
1
10
-1.99503997793934
20
-1.46665210416353
30
0
41
1
10
-1.99503997793934
20
-1.57050948928739
30
0
41
1
10
-1.99503997793931
20
-1.67418896894679
30
0
41
1
10
-1.99503997793928
20
-1.77768276258209
30
0
41
1
10
-1.99503997793937
20
-1.88098142742638
30
0
41
1
10
-1.99503997793928
20
-1.98407766278626
30
0
41
1
10
-1.99503997793931
20
-2.08696370566372
30
0
41
1
10
-1.99503997793931
20
-2.18963189754737
30
0
41
1
10
-1.99503997793931
20
-2.29207637206395
30
0
41
1
10
-1.99503997793928
20
-2.3942897393672
30
0
41
1
10
-1.99503997793934
20
-2.49626703199877
30
0
41
1
10
-1.99503997793928
20
-2.59800197223714
30
0
41
1
10
-1.99503997793931
20
-2.73345090264115
30
0
41
1
10
-1.99503997793931
20
-2.86801083241156
30
0
41
1
10
-1.99503997793934
20
-3.00241855173451
30
0
41
1
10
-1.99503997793934
20
-3.13647582573111
30
0
41
1
10
-1.99503997793928
20
-3.30310842941955
30
0
41
1
10
-1.99503997793934
20
-3.46881383607311
30
0
41
1
10
-1.99503997793928
20
-3.60101470543907
30
0
41
1
10
-1.99503997793934
20
-3.69979996514488
30
0
41
1
10
-1.99503997793928
20
-3.79829732832764
30
0
41
1
10
-1.99503997793931
20
-3.92934662557201
30
0
41
1
10
-1.99503997793934
20
-4.09219631216942
30
0
41
1
10
-1.99503997793937
20
-4.28654650347448
30
0
41
1
10
-1.99503997793928
20
-4.47969611179559
30
0
41
1
10
-1.99503997793928
20
-4.67163198724225
30
0
41
1
10
-1.99503997793934
20
-4.86234315765489
30
0
41
1
10
-1.99503997793931
20
-5.05181944357966
30
0
41
1
10
-1.99503997793931
20
-5.24005183821339
30
0
41
1
10
-1.99503997793934
20
-5.42703263168383
30
0
41
1
10
-1.99503997793934
20
-5.61275497462708
30
0
41
1
10
-1.99503997793931
20
-5.79721217482026
30
0
41
1
10
-1.99503997793937
20
-5.98039819956608
30
0
41
1
10
-1.99503997793934
20
-6.16230794338159
30
0
41
1
10
-1.99503997793937
20
-6.34293700639148
30
0
41
1
10
-1.99503997793934
20
-6.52228076981254
30
0
41
1
10
-1.99503997793931
20
-6.70033533418751
30
0
41
1
10
-1.99503997793934
20
-6.877096659263
30
0
41
1
10
-1.99503997793934
20
-7.11118459991681
30
0
41
1
10
-1.99503997793928
20
-7.40025292645402
30
0
41
1
10
-1.99503997793931
20
-7.742057818099
30
0
41
1
10
-1.99503997793931
20
-8.02240145976873
30
0
41
1
10
-1.99503997793928
20
-8.24425235284596
30
0
41
1
10
-1.99503997793928
20
-8.40923674956807
30
0
41
1
10
-1.99503997793934
20
-8.57289871422523
30
0
41
1
10
-1.99503997793928
20
-8.73523610803539
30
0
41
1
10
-1.99503997793931
20
-8.89624560664996
30
0
41
1
10
-1.99503997793934
20
-9.10925720032839
30
0
41
1
10
-1.99503997793931
20
-9.37195865915047
30
0
41
1
10
-1.99503997793937
20
-9.63019832461657
30
0
41
1
10
-1.99503997793934
20
-9.8342769427764
30
0
41
1
10
-1.99503997793931
20
-9.98591881051328
30
0
41
1
10
-1.99503997793928
20
-10.136210478965
30
0
41
1
10
-1.99503997793931
20
-10.2851499142426
30
0
41
1
10
-1.99503997793928
20
-10.432733482583
30
0
41
1
10
-1.99503997793928
20
-10.6277879483349
30
0
41
1
10
-1.99503997793928
20
-10.8198574709635
30
0
41
1
10
-1.99503997793931
20
-11.0094435667743
30
0
41
1
10
-1.99503997793928
20
-11.1972001338813
30
0
41
1
10
-1.99503997793928
20
-11.4282697094186
30
0
41
1
10
-1.99503997793926
20
-11.6547268446385
30
0
41
1
10
-1.99503997793928
20
-11.8332480225582
30
0
41
1
10
-1.99503997793931
20
-12.0099077334538
30
0
41
1
10
-1.99503997793934
20
-12.1835401209565
30
0
41
1
10
-1.99503997793928
20
-12.3545748313202
30
0
41
1
10
-1.99503997793931
20
-12.4813812819682
30
0
41
1
10
-1.99503997793934
20
-12.6067684751262
30
0
41
1
10
-1.99503997793928
20
-12.7721223466594
30
0
41
1
10
-1.99503997793926
20
-12.9344093235711
30
0
41
1
10
-1.99503997793931
20
-13.0940197637217
30
0
41
1
10
-1.99503997793934
20
-13.2122307543483
30
0
41
1
10
-1.99503997793934
20
-13.3289901210133
30
0
41
1
10
-1.99503997793928
20
-13.4827901435456
30
0
41
1
10
-1.99503997793931
20
-13.6334713858816
30
0
41
1
10
-1.99503997793934
20
-13.7813876543746
30
0
41
1
10
-1.99503997793931
20
-13.8907947392413
30
0
41
1
10
-1.99503997793928
20
-13.99871189727
30
0
41
1
10
-1.99503997793931
20
-14.1406647319193
30
0
41
1
10
-1.99503997793931
20
-14.2794333813788
30
0
41
1
10
-1.99503997793934
20
-14.4153366880848
30
0
41
1
10
-1.99503997793928
20
-14.5156939237825
30
0
41
1
10
-1.99503997793934
20
-14.614516060936
30
0
41
1
10
-1.99503997793931
20
-14.7442755571137
30
0
41
1
10
-1.99503997793928
20
-14.8707702595594
30
0
41
1
10
-1.99503997793926
20
-14.9942845913974
30
0
41
1
10
-1.99503997793931
20
-15.070107125687
30
0
41
1
10
-1.99503997793934
20
-15.130016414734
30
0
41
1
10
-1.99503997793931
20
-15.1893946011098
30
0
41
1
10
-1.99503997793934
20
-15.291889033124
30
0
41
1
10
-1.99503997793934
20
-15.4056838559474
30
0
41
1
10
-1.99503997793928
20
-15.5163656330196
30
0
41
1
10
-1.99503997793931
20
-15.5977008570348
30
0
41
1
10
-1.99503997793928
20
-15.677384979663
30
0
41
1
10
-1.99503997793931
20
-15.781458474053
30
0
41
1
10
-1.99503997793928
20
-15.8820499896636
30
0
41
1
10
-1.99503997793928
20
-15.9793734967038
30
0
41
1
10
-1.99503997793931
20
-16.0506207879892
30
0
41
1
10
-1.99503997793928
20
-16.1201424632647
30
0
41
1
10
-1.99503997793928
20
-16.1879246525291
30
0
41
1
10
-1.99503997793934
20
-16.2539521307207
30
0
41
1
10
-1.99503997793931
20
-16.3182114280861
30
0
41
1
10
-1.99503997793931
20
-16.3806869997558
30
0
41
1
10
-1.99503997793931
20
-16.4616240235723
30
0
41
1
10
-1.99503997793926
20
-16.5388242523809
30
0
41
1
10
-1.99503997793928
20
-16.6124299668847
30
0
41
1
10
-1.99503997793928
20
-16.6835453043615
30
0
41
1
10
-1.99503997793931
20
-16.7507930080793
30
0
41
1
10
-1.99503997793931
20
-16.8142877377231
30
0
41
1
10
-1.99503997793934
20
-16.8751872797734
30
0
41
1
10
-1.99503997793934
20
-16.9320728583858
30
0
41
1
10
-1.99503997793931
20
-16.9850205784632
30
0
41
1
10
-1.99503997793928
20
-17.0226788299272
30
0
41
1
10
-1.99503997793926
20
-17.0582791544303
30
0
41
1
10
-1.99503997793926
20
-17.1029924178939
30
0
41
1
10
-1.99503997793926
20
-17.1434240170936
30
0
41
1
10
-1.99503997793934
20
-17.1795896288676
30
0
41
1
10
-1.99503997793934
20
-17.204505416066
30
0
41
1
10
-1.99503997793934
20
-17.2271975480506
30
0
41
1
10
-1.99503997793928
20
-17.2476335178127
30
0
41
1
10
-1.99503997793926
20
-17.2657806121613
30
0
41
1
10
-1.99503997793926
20
-17.2816041393821
30
0
41
1
10
-1.99503997793934
20
-17.2950677779804
30
0
41
1
10
-1.99503997793931
20
-17.3061342543251
30
0
41
1
10
-1.99503997793926
20
-17.3144416680111
30
0
41
1
10
-1.99503997793926
20
-17.318400501155
30
0
41
1
10
-1.99503997793926
20
-17.3199317898111
30
0
0
SPLINE
5
135
100
AcDbEntity
8
SK1
62
256
6
ByLayer
370
18
48
1
60
0
100
AcDbSpline
70
4
71
3
72
13
73
9
40
0
40
0
40
0
40
0
40
0.239456135732677
40
0.368359721896223
40
0.499998983985001
40
0.631638415255861
40
0.760542467762255
40
1
40
1
40
1
40
1
41
1
10
-2.20000000000002
20
-17.5200985517959
30
0
41
1
10
-2.19909198642202
20
-17.4940410756898
30
0
41
1
10
-2.19103284106868
20
-17.4566684913668
30
0
41
1
10
-2.16563592203272
20
-17.410449317548
30
0
41
1
10
-2.13886378679192
20
-17.3791677636995
30
0
41
1
10
-2.10627712749815
20
-17.3540003935064
30
0
41
1
10
-2.05884064234178
20
-17.3309565910454
30
0
41
1
10
-2.02111030873067
20
-17.3247843360228
30
0
41
1
10
-1.99503997793928
20
-17.3251859759625
30
0
0
SPLINE
5
136
100
AcDbEntity
8
SK1
62
256
6
ByLayer
370
18
48
1
60
0
100
AcDbSpline
70
4
71
3
72
13
73
9
40
0
40
0
40
0
40
0
40
0.239457532283097
40
0.368361584805046
40
0.500001016081915
40
0.63164027816556
40
0.760543864313979
40
1
40
1
40
1
40
1
41
1
10
-1.99503997793934
20
17.3251861589553
30
0
41
1
10
-2.02111030872973
20
17.3247845190151
30
0
41
1
10
-2.05884064233996
20
17.3309567740352
30
0
41
1
10
-2.10627712749681
20
17.3540005764862
30
0
41
1
10
-2.13886378679066
20
17.3791679466685
30
0
41
1
10
-2.16563592203178
20
17.4104495005039
30
0
41
1
10
-2.19103284106799
20
17.4566686743029
30
0
41
1
10
-2.19909198642131
20
17.4940412586115
30
0
41
1
10
-2.20000000000005
20
17.5200987347079
30
0
0
SPLINE
5
137
100
AcDbEntity
8
SK1
62
256
6
ByLayer
370
18
48
1
60
0
100
AcDbSpline
70
4
71
3
72
282
73
278
40
0
40
0
40
0
40
0
40
0.0031740438854096
40
0.0067483307050678
40
0.0103226175247261
40
0.0138969043443843
40
0.0174711911640425
40
0.0210454779837008
40
0.024619764803359
40
0.0281940516230172
40
0.0317683384426755
40
0.0353426252623337
40
0.0424911989016502
40
0.0460654857213084
40
0.0496397725409667
40
0.0532140593606249
40
0.0567883461802831
40
0.0639369198195996
40
0.0675112066392579
40
0.0710854934589161
40
0.0782340670982326
40
0.0818083539178908
40
0.0853826407375491
40
0.0925312143768655
40
0.0961055011965238
40
0.099679788016182
40
0.10325407483584
40
0.106828361655498
40
0.110402648475157
40
0.113976935294815
40
0.117551222114473
40
0.121125508934131
40
0.128274082573448
40
0.131848369393106
40
0.135422656212764
40
0.138996943032423
40
0.142571229852081
40
0.149719803491397
40
0.153294090311056
40
0.156868377130714
40
0.160442663950372
40
0.16401695077003
40
0.171165524409347
40
0.174739811229005
40
0.178314098048663
40
0.181888384868322
40
0.18546267168798
40
0.192611245327296
40
0.196185532146954
40
0.199759818966613
40
0.203334105786271
40
0.206908392605929
40
0.214056966245246
40
0.217631253064904
40
0.221205539884562
40
0.22477982670422
40
0.228354113523879
40
0.235502687163195
40
0.239076973982853
40
0.242651260802512
40
0.24622554762217
40
0.249799834441828
40
0.256948408081144
40
0.260522694900803
40
0.264096981720461
40
0.271245555359777
40
0.278394128999094
40
0.281968415818752
40
0.28554270263841
40
0.292691276277727
40
0.296265563097385
40
0.299839849917043
40
0.303414136736701
40
0.30698842355636
40
0.310562710376018
40
0.314136997195676
40
0.321285570834993
40
0.328434144474309
40
0.332008431293968
40
0.335582718113626
40
0.339157004933284
40
0.342731291752942
40
0.3463055785726
40
0.349879865392259
40
0.357028439031575
40
0.364177012670892
40
0.371325586310208
40
0.374899873129866
40
0.378474159949524
40
0.382048446769183
40
0.385622733588841
40
0.389197020408499
40
0.392771307228158
40
0.396345594047816
40
0.399919880867474
40
0.403494167687132
40
0.40706845450679
40
0.410642741326449
40
0.414217028146107
40
0.417791314965765
40
0.421365601785423
40
0.424939888605082
40
0.42851417542474
40
0.432088462244398
40
0.433875605654227
40
0.435662749064056
40
0.437449892473885
40
0.439237035883715
40
0.442811322703373
40
0.446385609523031
40
0.44817275293286
40
0.449959896342689
40
0.451747039752519
40
0.453534183162348
40
0.455321326572177
40
0.457108469982006
40
0.460682756801664
40
0.462469900211493
40
0.464257043621322
40
0.466044187031151
40
0.467831330440981
40
0.46961847385081
40
0.471405617260639
40
0.473192760670468
40
0.474979904080297
40
0.476767047490126
40
0.478554190899955
40
0.480341334309784
40
0.482128477719613
40
0.483915621129442
40
0.485702764539272
40
0.487489907949101
40
0.48927705135893
40
0.491064194768759
40
0.492851338178588
40
0.494638481588417
40
0.496425624998246
40
0.498212768408075
40
0.499999911817905
40
0.501787055227734
40
0.503574198637563
40
0.505361342047392
40
0.507148485457221
40
0.50893562886705
40
0.510722772276879
40
0.512509915686708
40
0.514297059096538
40
0.516084202506367
40
0.517871345916196
40
0.519658489326025
40
0.521445632735854
40
0.523232776145683
40
0.525019919555512
40
0.526807062965341
40
0.528594206375171
40
0.530381349785
40
0.532168493194829
40
0.533955636604658
40
0.535742780014487
40
0.537529923424316
40
0.539317066834145
40
0.541104210243974
40
0.542891353653803
40
0.544678497063633
40
0.546465640473462
40
0.55003992729312
40
0.551827070702949
40
0.553614214112778
40
0.557188500932436
40
0.560762787752095
40
0.562549931161924
40
0.564337074571753
40
0.566124217981582
40
0.567911361391411
40
0.571485648211069
40
0.575059935030728
40
0.578634221850386
40
0.582208508670044
40
0.585782795489702
40
0.589357082309361
40
0.592931369129019
40
0.596505655948677
40
0.600079942768335
40
0.603654229587994
40
0.607228516407652
40
0.61080280322731
40
0.614377090046968
40
0.617951376866626
40
0.621525663686285
40
0.625099950505943
40
0.628674237325601
40
0.635822810964918
40
0.642971384604234
40
0.650119958243551
40
0.653694245063209
40
0.657268531882867
40
0.660842818702525
40
0.664417105522183
40
0.667991392341842
40
0.6715656791615
40
0.678714252800817
40
0.685862826440133
40
0.689437113259791
40
0.693011400079449
40
0.696585686899108
40
0.700159973718766
40
0.703734260538424
40
0.707308547358082
40
0.714457120997399
40
0.718031407817057
40
0.721605694636715
40
0.728754268276032
40
0.735902841915348
40
0.739477128735006
40
0.743051415554665
40
0.750199989193981
40
0.75377427601364
40
0.757348562833298
40
0.760922849652956
40
0.764497136472614
40
0.771645710111931
40
0.775219996931589
40
0.778794283751247
40
0.782368570570905
40
0.785942857390564
40
0.79309143102988
40
0.796665717849538
40
0.800240004669197
40
0.803814291488855
40
0.807388578308513
40
0.81453715194783
40
0.818111438767488
40
0.821685725587146
40
0.825260012406804
40
0.828834299226462
40
0.835982872865779
40
0.839557159685437
40
0.843131446505095
40
0.844918589914925
40
0.846705733324754
40
0.850280020144412
40
0.857428593783728
40
0.861002880603387
40
0.864577167423045
40
0.868151454242703
40
0.871725741062361
40
0.878874314701678
40
0.882448601521336
40
0.886022888340994
40
0.889597175160653
40
0.893171461980311
40
0.896745748799969
40
0.900320035619627
40
0.903894322439285
40
0.907468609258944
40
0.91461718289826
40
0.918191469717918
40
0.921765756537577
40
0.928914330176893
40
0.932488616996551
40
0.936062903816209
40
0.943211477455526
40
0.946785764275184
40
0.950360051094843
40
0.953934337914501
40
0.957508624734159
40
0.964657198373476
40
0.968231485193134
40
0.971805772012792
40
0.97538005883245
40
0.978954345652108
40
0.982528632471767
40
0.986102919291425
40
0.989677206111083
40
0.993251492930741
40
0.9968257797504
40
1
40
1
40
1
40
1
41
1
10
-2.19999999999999
20
17.5147868790128
30
0
41
1
10
-2.19999999999999
20
17.5132390191212
30
0
41
1
10
-2.19999999999999
20
17.5092376194931
30
0
41
1
10
-2.20000000000007
20
17.5008423359265
30
0
41
1
10
-2.19999999999999
20
17.4896606050755
30
0
41
1
10
-2.20000000000007
20
17.4760589345484
30
0
41
1
10
-2.20000000000005
20
17.4600756660117
30
0
41
1
10
-2.19999999999999
20
17.4417480829298
30
0
41
1
10
-2.20000000000002
20
17.4211116708093
30
0
41
1
10
-2.20000000000005
20
17.3981999720817
30
0
41
1
10
-2.20000000000005
20
17.373046254225
30
0
41
1
10
-2.20000000000002
20
17.3365615480366
30
0
41
1
10
-2.19999999999999
20
17.2957083393221
30
0
41
1
10
-2.19999999999999
20
17.2506132986913
30
0
41
1
10
-2.20000000000005
20
17.2146924230802
30
0
41
1
10
-2.20000000000005
20
17.1766986759848
30
0
41
1
10
-2.20000000000005
20
17.1233138560685
30
0
41
1
10
-2.20000000000002
20
17.0658713749174
30
0
41
1
10
-2.20000000000007
20
17.0044820563696
30
0
41
1
10
-2.20000000000002
20
16.940481996521
30
0
41
1
10
-2.19999999999999
20
16.8725984751516
30
0
41
1
10
-2.19999999999999
20
16.8009296734765
30
0
41
1
10
-2.20000000000002
20
16.72675615712
30
0
41
1
10
-2.20000000000002
20
16.6488472996885
30
0
41
1
10
-2.20000000000002
20
16.567297757363
30
0
41
1
10
-2.20000000000007
20
16.5043209819812
30
0
41
1
10
-2.20000000000002
20
16.4395493732765
30
0
41
1
10
-2.20000000000002
20
16.3729983406747
30
0
41
1
10
-2.20000000000007
20
16.3046816133433
30
0
41
1
10
-2.20000000000002
20
16.2346146587631
30
0
41
1
10
-2.20000000000007
20
16.1628111167189
30
0
41
1
10
-2.20000000000007
20
16.0647793469533
30
0
41
1
10
-2.20000000000007
20
15.9633134995802
30
0
41
1
10
-2.20000000000005
20
15.85849138878
30
0
41
1
10
-2.20000000000007
20
15.7781982427732
30
0
41
1
10
-2.20000000000002
20
15.6962433497342
30
0
41
1
10
-2.20000000000005
20
15.5847743861311
30
0
41
1
10
-2.20000000000005
20
15.4700110710186
30
0
41
1
10
-2.20000000000007
20
15.3520264687642
30
0
41
1
10
-2.20000000000002
20
15.2619258251736
30
0
41
1
10
-2.20000000000005
20
15.1702262286607
30
0
41
1
10
-2.20000000000005
20
15.0458463802596
30
0
41
1
10
-2.20000000000005
20
14.9182892137509
30
0
41
1
10
-2.20000000000007
20
14.7876243835494
30
0
41
1
10
-2.20000000000005
20
14.6880675684927
30
0
41
1
10
-2.20000000000007
20
14.5869647024965
30
0
41
1
10
-2.20000000000005
20
14.4501162009323
30
0
41
1
10
-2.20000000000007
20
14.3101885785041
30
0
41
1
10
-2.20000000000005
20
14.1672492498436
30
0
41
1
10
-2.20000000000005
20
14.0585319197
30
0
41
1
10
-2.20000000000002
20
13.9483131149779
30
0
41
1
10
-2.20000000000007
20
13.7993681823229
30
0
41
1
10
-2.20000000000002
20
13.6474264445926
30
0
41
1
10
-2.20000000000005
20
13.4925540283559
30
0
41
1
10
-2.20000000000002
20
13.3749248852382
30
0
41
1
10
-2.20000000000005
20
13.2558316845062
30
0
41
1
10
-2.20000000000007
20
13.0951031858019
30
0
41
1
10
-2.20000000000002
20
12.9314463879873
30
0
41
1
10
-2.20000000000002
20
12.7649271524075
30
0
41
1
10
-2.20000000000005
20
12.6385945304865
30
0
41
1
10
-2.20000000000005
20
12.5108289909281
30
0
41
1
10
-2.20000000000005
20
12.3385783725547
30
0
41
1
10
-2.19999999999999
20
12.1634558634281
30
0
41
1
10
-2.19999999999999
20
11.9855279960913
30
0
41
1
10
-2.20000000000002
20
11.805719384434
30
0
41
1
10
-2.20000000000002
20
11.5774197426994
30
0
41
1
10
-2.20000000000005
20
11.3444552561941
30
0
41
1
10
-2.20000000000005
20
11.1553144466798
30
0
41
1
10
-2.20000000000005
20
10.96432157968
30
0
41
1
10
-2.20000000000007
20
10.7705258372791
30
0
41
1
10
-2.20000000000002
20
10.5740001677826
30
0
41
1
10
-2.20000000000007
20
10.4252200954492
30
0
41
1
10
-2.20000000000002
20
10.2750653600417
30
0
41
1
10
-2.20000000000005
20
10.1235384488298
30
0
41
1
10
-2.20000000000007
20
9.97064122920813
30
0
41
1
10
-2.19999999999999
20
9.76496631801305
30
0
41
1
10
-2.20000000000005
20
9.504433927386
30
0
41
1
10
-2.20000000000005
20
9.23936570098888
30
0
41
1
10
-2.20000000000005
20
9.02461799380222
30
0
41
1
10
-2.20000000000007
20
8.86219304475893
30
0
41
1
10
-2.20000000000002
20
8.69841428000515
30
0
41
1
10
-2.20000000000005
20
8.53328405958752
30
0
41
1
10
-2.19999999999999
20
8.36680339868337
30
0
41
1
10
-2.20000000000005
20
8.14304412571016
30
0
41
1
10
-2.19999999999996
20
7.85994707617317
30
0
41
1
10
-2.19999999999999
20
7.51487111531029
30
0
41
1
10
-2.20000000000002
20
7.22282329277965
30
0
41
1
10
-2.19999999999999
20
6.98653548716828
30
0
41
1
10
-2.20000000000005
20
6.80797157864478
30
0
41
1
10
-2.20000000000002
20
6.62807270531457
30
0
41
1
10
-2.20000000000005
20
6.44684086969588
30
0
41
1
10
-2.20000000000005
20
6.26427776637021
30
0
41
1
10
-2.20000000000007
20
6.08038585927525
30
0
41
1
10
-2.19999999999999
20
5.8951672822387
30
0
41
1
10
-2.20000000000005
20
5.70862469092606
30
0
41
1
10
-2.19999999999999
20
5.52076103085636
30
0
41
1
10
-2.20000000000007
20
5.33157993388591
30
0
41
1
10
-2.19999999999999
20
5.14108511996028
30
0
41
1
10
-2.20000000000005
20
4.94928086714651
30
0
41
1
10
-2.20000000000002
20
4.75617251627349
30
0
41
1
10
-2.19999999999999
20
4.56176620564526
30
0
41
1
10
-2.20000000000005
20
4.3660687364135
30
0
41
1
10
-2.19999999999999
20
4.16908849962462
30
0
41
1
10
-2.19999999999999
20
4.00386590607064
30
0
41
1
10
-2.19999999999999
20
3.87107810854147
30
0
41
1
10
-2.19999999999999
20
3.7711641857039
30
0
41
1
10
-2.20000000000005
20
3.67093805129477
30
0
41
1
10
-2.20000000000002
20
3.53690182548823
30
0
41
1
10
-2.20000000000002
20
3.36855658184021
30
0
41
1
10
-2.20000000000005
20
3.19919951970701
30
0
41
1
10
-2.19999999999999
20
3.06314133422211
30
0
41
1
10
-2.20000000000005
20
2.96079189341762
30
0
41
1
10
-2.20000000000005
20
2.85815023786421
30
0
41
1
10
-2.20000000000002
20
2.75522026664274
30
0
41
1
10
-2.20000000000002
20
2.65200561172497
30
0
41
1
10
-2.19999999999999
20
2.51402705629775
30
0
41
1
10
-2.19999999999999
20
2.375450816946
30
0
41
1
10
-2.19999999999999
20
2.23639085040651
30
0
41
1
10
-2.20000000000002
20
2.13182395998018
30
0
41
1
10
-2.20000000000002
20
2.02700348752296
30
0
41
1
10
-2.20000000000002
20
1.92193653735018
30
0
41
1
10
-2.20000000000002
20
1.81663008016326
30
0
41
1
10
-2.20000000000005
20
1.71109231328523
30
0
41
1
10
-2.20000000000002
20
1.60533155404701
30
0
41
1
10
-2.20000000000002
20
1.49935698477984
30
0
41
1
10
-2.19999999999999
20
1.39317847233164
30
0
41
1
10
-2.19999999999999
20
1.28680633401083
30
0
41
1
10
-2.20000000000002
20
1.18025197439019
30
0
41
1
10
-2.19999999999999
20
1.073527020087
30
0
41
1
10
-2.20000000000005
20
0.966644343115377
30
0
41
1
10
-2.20000000000002
20
0.859616995486363
30
0
41
1
10
-2.20000000000005
20
0.752459219961537
30
0
41
1
10
-2.20000000000005
20
0.645185453734229
30
0
41
1
10
-2.20000000000005
20
0.537811163545683
30
0
41
1
10
-2.20000000000005
20
0.430352024766023
30
0
41
1
10
-2.20000000000005
20
0.322824496958646
30
0
41
1
10
-2.19999999999999
20
0.215245213108574
30
0
41
1
10
-2.20000000000002
20
0.107631302158211
30
0
41
1
10
-2.20000000000005
20
-5.9909269E-09
30
0
41
1
10
-2.20000000000002
20
-0.10763131371678
30
0
41
1
10
-2.20000000000005
20
-0.215245223931731
30
0
41
1
10
-2.19999999999999
20
-0.322824507999513
30
0
41
1
10
-2.20000000000005
20
-0.430352036900814
30
0
41
1
10
-2.19999999999999
20
-0.537811175438549
30
0
41
1
10
-2.20000000000005
20
-0.645185463980425
30
0
41
1
10
-2.20000000000005
20
-0.752459230354106
30
0
41
1
10
-2.20000000000005
20
-0.859617007920463
30
0
41
1
10
-2.20000000000005
20
-0.96664435526236
30
0
41
1
10
-2.20000000000002
20
-1.07352702949095
30
0
41
1
10
-2.20000000000005
20
-1.18025198377214
30
0
41
1
10
-2.19999999999999
20
-1.2868063464968
30
0
41
1
10
-2.20000000000005
20
-1.39317848503853
30
0
41
1
10
-2.20000000000002
20
-1.49935699380706
30
0
41
1
10
-2.20000000000002
20
-1.60533156181742
30
0
41
1
10
-2.20000000000002
20
-1.71109232444704
30
0
41
1
10
-2.20000000000005
20
-1.81663009373554
30
0
41
1
10
-2.20000000000002
20
-1.92193654804359
30
0
41
1
10
-2.20000000000002
20
-2.02700349385549
30
0
41
1
10
-2.20000000000005
20
-2.13182396747067
30
0
41
1
10
-2.19999999999999
20
-2.23639086291985
30
0
41
1
10
-2.20000000000005
20
-2.34069812940871
30
0
41
1
10
-2.20000000000002
20
-2.44473977839388
30
0
41
1
10
-2.19999999999999
20
-2.54851063247165
30
0
41
1
10
-2.19999999999999
20
-2.65200559968281
30
0
41
1
10
-2.20000000000007
20
-2.78960994504092
30
0
41
1
10
-2.20000000000005
20
-2.92668912429062
30
0
41
1
10
-2.20000000000005
20
-3.06314133551612
30
0
41
1
10
-2.20000000000005
20
-3.1991995233283
30
0
41
1
10
-2.20000000000007
20
-3.36855659963132
30
0
41
1
10
-2.19999999999999
20
-3.53690183437425
30
0
41
1
10
-2.19999999999999
20
-3.67093805397229
30
0
41
1
10
-2.20000000000002
20
-3.77116418775418
30
0
41
1
10
-2.20000000000002
20
-3.87107811616193
30
0
41
1
10
-2.20000000000005
20
-4.00386592221608
30
0
41
1
10
-2.19999999999999
20
-4.169088511784
30
0
41
1
10
-2.20000000000002
20
-4.36606871643772
30
0
41
1
10
-2.20000000000005
20
-4.56176617271478
30
0
41
1
10
-2.20000000000005
20
-4.7561724937965
30
0
41
1
10
-2.20000000000007
20
-4.94928076863451
30
0
41
1
10
-2.19999999999999
20
-5.14108500618136
30
0
41
1
10
-2.20000000000005
20
-5.3315799390322
30
0
41
1
10
-2.20000000000007
20
-5.52076102284175
30
0
41
1
10
-2.20000000000002
20
-5.70862461825789
30
0
41
1
10
-2.20000000000002
20
-5.89516734859461
30
0
41
1
10
-2.19999999999999
20
-6.0803860968085
30
0
41
1
10
-2.20000000000005
20
-6.26427796235186
30
0
41
1
10
-2.20000000000002
20
-6.44684092947375
30
0
41
1
10
-2.20000000000005
20
-6.62807271786147
30
0
41
1
10
-2.20000000000007
20
-6.80797159432123
30
0
41
1
10
-2.20000000000007
20
-6.98653550324821
30
0
41
1
10
-2.20000000000002
20
-7.22282328452869
30
0
41
1
10
-2.20000000000002
20
-7.51487112820206
30
0
41
1
10
-2.20000000000002
20
-7.85994708827312
30
0
41
1
10
-2.20000000000005
20
-8.14304411844029
30
0
41
1
10
-2.20000000000002
20
-8.36680341033818
30
0
41
1
10
-2.20000000000005
20
-8.53328407858572
30
0
41
1
10
-2.20000000000007
20
-8.6984142887776
30
0
41
1
10
-2.19999999999999
20
-8.86219304073114
30
0
41
1
10
-2.20000000000007
20
-9.0246179920552
30
0
41
1
10
-2.20000000000005
20
-9.23936571773669
30
0
41
1
10
-2.20000000000007
20
-9.50443394039917
30
0
41
1
10
-2.20000000000005
20
-9.76496631110047
30
0
41
1
10
-2.19999999999999
20
-9.97064123613961
30
0
41
1
10
-2.20000000000002
20
-10.1235384660539
30
0
41
1
10
-2.19999999999999
20
-10.2750653748105
30
0
41
1
10
-2.19999999999999
20
-10.4252201002359
30
0
41
1
10
-2.19999999999999
20
-10.5740001651573
30
0
41
1
10
-2.20000000000005
20
-10.7705258416001
30
0
41
1
10
-2.19999999999999
20
-10.9643215989582
30
0
41
1
10
-2.19999999999999
20
-11.1553144582602
30
0
41
1
10
-2.19999999999999
20
-11.3444552554371
30
0
41
1
10
-2.20000000000005
20
-11.5774197477567
30
0
41
1
10
-2.19999999999996
20
-11.8057194023465
30
0
41
1
10
-2.20000000000002
20
-11.9855280067157
30
0
41
1
10
-2.19999999999999
20
-12.1634558646821
30
0
41
1
10
-2.20000000000002
20
-12.3385783781737
30
0
41
1
10
-2.20000000000002
20
-12.510829004708
30
0
41
1
10
-2.20000000000002
20
-12.6385945454976
30
0
41
1
10
-2.20000000000005
20
-12.7649271637091
30
0
41
1
10
-2.20000000000002
20
-12.9314463925932
30
0
41
1
10
-2.20000000000002
20
-13.0951031927998
30
0
41
1
10
-2.20000000000002
20
-13.2558316973182
30
0
41
1
10
-2.19999999999996
20
-13.3749248996582
30
0
41
1
10
-2.19999999999999
20
-13.4925540411334
30
0
41
1
10
-2.19999999999996
20
-13.6474264531923
30
0
41
1
10
-2.20000000000002
20
-13.7993681905532
30
0
41
1
10
-2.20000000000002
20
-13.9483131264861
30
0
41
1
10
-2.19999999999996
20
-14.0585319334344
30
0
41
1
10
-2.19999999999999
20
-14.1672492642274
30
0
41
1
10
-2.19999999999999
20
-14.3101885914782
30
0
41
1
10
-2.19999999999999
20
-14.4501162106046
30
0
41
1
10
-2.19999999999999
20
-14.5869647126432
30
0
41
1
10
-2.19999999999999
20
-14.6880675812843
30
0
41
1
10
-2.20000000000002
20
-14.7876243995296
30
0
41
1
10
-2.19999999999999
20
-14.9182892218294
30
0
41
1
10
-2.20000000000002
20
-15.0458464314391
30
0
41
1
10
-2.19999999999999
20
-15.1702261509224
30
0
41
1
10
-2.20000000000002
20
-15.2466455133785
30
0
41
1
10
-2.20000000000002
20
-15.3069761679616
30
0
41
1
10
-2.19999999999999
20
-15.3667724139347
30
0
41
1
10
-2.20000000000002
20
-15.4700110929874
30
0
41
1
10
-2.20000000000002
20
-15.5847743990242
30
0
41
1
10
-2.20000000000002
20
-15.6962433571227
30
0
41
1
10
-2.19999999999999
20
-15.7781982539187
30
0
41
1
10
-2.19999999999996
20
-15.8584914079188
30
0
41
1
10
-2.19999999999999
20
-15.9633135259672
30
0
41
1
10
-2.20000000000005
20
-16.0647793597711
30
0
41
1
10
-2.20000000000002
20
-16.1628111223413
30
0
41
1
10
-2.20000000000002
20
-16.2346146707391
30
0
41
1
10
-2.20000000000002
20
-16.3046816359758
30
0
41
1
10
-2.19999999999999
20
-16.3729983688048
30
0
41
1
10
-2.19999999999999
20
-16.439549393056
30
0
41
1
10
-2.20000000000005
20
-16.5043209901433
30
0
41
1
10
-2.19999999999996
20
-16.5672977619412
30
0
41
1
10
-2.20000000000002
20
-16.6488473199257
30
0
41
1
10
-2.20000000000005
20
-16.7267561914693
30
0
41
1
10
-2.19999999999996
20
-16.8009296884544
30
0
41
1
10
-2.19999999999999
20
-16.8725984731112
30
0
41
1
10
-2.20000000000002
20
-16.9404820184079
30
0
41
1
10
-2.19999999999999
20
-17.0044820909957
30
0
41
1
10
-2.20000000000002
20
-17.0658713913631
30
0
41
1
10
-2.19999999999999
20
-17.1233138523189
30
0
41
1
10
-2.20000000000005
20
-17.1766986986671
30
0
41
1
10
-2.20000000000002
20
-17.2146924603873
30
0
41
1
10
-2.20000000000005
20
-17.2506133231919
30
0
41
1
10
-2.20000000000005
20
-17.2957083328928
30
0
41
1
10
-2.19999999999999
20
-17.3365615705831
30
0
41
1
10
-2.19999999999999
20
-17.3730462873428
30
0
41
1
10
-2.20000000000002
20
-17.398199993695
30
0
41
1
10
-2.19999999999999
20
-17.4211116738092
30
0
41
1
10
-2.20000000000002
20
-17.4417480876218
30
0
41
1
10
-2.20000000000005
20
-17.4600756994923
30
0
41
1
10
-2.20000000000005
20
-17.4760589706817
30
0
41
1
10
-2.20000000000002
20
-17.4896606126054
30
0
41
1
10
-2.19999999999999
20
-17.5008423321234
30
0
41
1
10
-2.20000000000005
20
-17.5092377828147
30
0
41
1
10
-2.20000000000002
20
-17.5132392337351
30
0
41
1
10
-2.20000000000002
20
-17.5147871219467
30
0
0
SPLINE
5
138
100
AcDbEntity
8
SK1
62
256
6
ByLayer
370
18
48
1
60
0
100
AcDbSpline
70
4
71
3
72
282
73
278
40
0
40
0
40
0
40
0
40
0.0031931408318816
40
0.0067672891423532
40
0.0103414374528249
40
0.0139155857632965
40
0.0174897340737682
40
0.0210638823842398
40
0.0246380306947115
40
0.0282121790051832
40
0.0317863273156548
40
0.0353604756261265
40
0.0425087722470697
40
0.0460829205575414
40
0.0496570688680131
40
0.0532312171784847
40
0.0568053654889564
40
0.0639536621098997
40
0.0675278104203714
40
0.071101958730843
40
0.0782502553517863
40
0.081824403662258
40
0.0853985519727296
40
0.092546848593673
40
0.0961209969041446
40
0.0996951452146162
40
0.103269293525088
40
0.106843441835559
40
0.110417590146031
40
0.113991738456503
40
0.117565886766974
40
0.121140035077446
40
0.128288331698389
40
0.131862480008861
40
0.135436628319333
40
0.139010776629804
40
0.142584924940276
40
0.149733221561219
40
0.153307369871691
40
0.156881518182163
40
0.160455666492634
40
0.164029814803106
40
0.171178111424049
40
0.174752259734521
40
0.178326408044993
40
0.181900556355464
40
0.185474704665936
40
0.192623001286879
40
0.196197149597351
40
0.199771297907822
40
0.203345446218294
40
0.206919594528766
40
0.214067891149709
40
0.217642039460181
40
0.221216187770652
40
0.224790336081124
40
0.228364484391596
40
0.235512781012539
40
0.239086929323011
40
0.242661077633482
40
0.246235225943954
40
0.249809374254426
40
0.256957670875369
40
0.260531819185841
40
0.264105967496312
40
0.271254264117256
40
0.278402560738199
40
0.28197670904867
40
0.285550857359142
40
0.292699153980085
40
0.296273302290557
40
0.299847450601029
40
0.3034215989115
40
0.306995747221972
40
0.310569895532444
40
0.314144043842915
40
0.321292340463859
40
0.328440637084802
40
0.332014785395274
40
0.335588933705745
40
0.339163082016217
40
0.342737230326689
40
0.34631137863716
40
0.349885526947632
40
0.357033823568575
40
0.364182120189519
40
0.371330416810462
40
0.374904565120933
40
0.378478713431405
40
0.382052861741877
40
0.385627010052348
40
0.38920115836282
40
0.392775306673292
40
0.396349454983763
40
0.399923603294235
40
0.403497751604707
40
0.407071899915178
40
0.41064604822565
40
0.414220196536122
40
0.417794344846593
40
0.421368493157065
40
0.424942641467537
40
0.428516789778008
40
0.43209093808848
40
0.433878012243716
40
0.435665086398952
40
0.437452160554187
40
0.439239234709423
40
0.442813383019895
40
0.446387531330367
40
0.448174605485602
40
0.449961679640838
40
0.451748753796074
40
0.45353582795131
40
0.455322902106546
40
0.457109976261781
40
0.460684124572253
40
0.462471198727489
40
0.464258272882725
40
0.466045347037961
40
0.467832421193197
40
0.469619495348432
40
0.471406569503668
40
0.473193643658904
40
0.47498071781414
40
0.476767791969376
40
0.478554866124611
40
0.480341940279847
40
0.482129014435083
40
0.483916088590319
40
0.485703162745555
40
0.487490236900791
40
0.489277311056026
40
0.491064385211262
40
0.492851459366498
40
0.494638533521734
40
0.49642560767697
40
0.498212681832206
40
0.499999755987441
40
0.501786830142677
40
0.503573904297913
40
0.505360978453149
40
0.507148052608385
40
0.50893512676362
40
0.510722200918856
40
0.512509275074092
40
0.514296349229328
40
0.516083423384564
40
0.5178704975398
40
0.519657571695035
40
0.521444645850271
40
0.523231720005507
40
0.525018794160743
40
0.526805868315979
40
0.528592942471214
40
0.53038001662645
40
0.532167090781686
40
0.533954164936922
40
0.535741239092158
40
0.537528313247394
40
0.53931538740263
40
0.541102461557865
40
0.542889535713101
40
0.544676609868337
40
0.546463684023573
40
0.550037832334044
40
0.55182490648928
40
0.553611980644516
40
0.557186128954988
40
0.56076027726546
40
0.562547351420695
40
0.564334425575931
40
0.566121499731167
40
0.567908573886403
40
0.571482722196874
40
0.575056870507346
40
0.578631018817818
40
0.582205167128289
40
0.585779315438761
40
0.589353463749233
40
0.592927612059704
40
0.596501760370176
40
0.600075908680648
40
0.603650056991119
40
0.607224205301591
40
0.610798353612063
40
0.614372501922534
40
0.617946650233006
40
0.621520798543478
40
0.625094946853949
40
0.628669095164421
40
0.635817391785364
40
0.642965688406307
40
0.650113985027251
40
0.653688133337722
40
0.657262281648194
40
0.660836429958666
40
0.664410578269137
40
0.667984726579609
40
0.671558874890081
40
0.678707171511024
40
0.685855468131967
40
0.689429616442439
40
0.693003764752911
40
0.696577913063382
40
0.700152061373854
40
0.703726209684326
40
0.707300357994797
40
0.71444865461574
40
0.718022802926212
40
0.721596951236684
40
0.728745247857627
40
0.73589354447857
40
0.739467692789042
40
0.743041841099514
40
0.750190137720457
40
0.753764286030929
40
0.7573384343414
40
0.760912582651872
40
0.764486730962343
40
0.771635027583287
40
0.775209175893759
40
0.77878332420423
40
0.782357472514702
40
0.785931620825174
40
0.793079917446117
40
0.796654065756589
40
0.80022821406706
40
0.803802362377532
40
0.807376510688003
40
0.814524807308947
40
0.818098955619418
40
0.82167310392989
40
0.825247252240362
40
0.828821400550833
40
0.835969697171777
40
0.839543845482248
40
0.84311799379272
40
0.844905067947956
40
0.846692142103192
40
0.850266290413663
40
0.857414587034607
40
0.860988735345078
40
0.86456288365555
40
0.868137031966022
40
0.871711180276493
40
0.878859476897436
40
0.882433625207908
40
0.88600777351838
40
0.889581921828851
40
0.893156070139323
40
0.896730218449795
40
0.900304366760266
40
0.903878515070738
40
0.90745266338121
40
0.914600960002153
40
0.918175108312625
40
0.921749256623096
40
0.92889755324404
40
0.932471701554511
40
0.936045849864983
40
0.943194146485926
40
0.946768294796398
40
0.950342443106869
40
0.953916591417341
40
0.957490739727813
40
0.964639036348756
40
0.968213184659228
40
0.9717873329697
40
0.975361481280171
40
0.978935629590643
40
0.982509777901115
40
0.986083926211586
40
0.989658074522058
40
0.99323222283253
40
0.996806371143001
40
1
40
1
40
1
40
1
41
1
10
-28.5000000000001
20
16.8542651673303
30
0
41
1
10
-28.5000000000001
20
16.8527683684392
30
0
41
1
10
-28.5000000000001
20
16.848904411419
30
0
41
1
10
-28.5
20
16.8407921788659
30
0
41
1
10
-28.5000000000001
20
16.8300011209595
30
0
41
1
10
-28.5000000000001
20
16.8168672741156
30
0
41
1
10
-28.5000000000001
20
16.801425522577
30
0
41
1
10
-28.5000000000001
20
16.783709883521
30
0
41
1
10
-28.5000000000001
20
16.7637529731542
30
0
41
1
10
-28.5000000000001
20
16.7415855338907
30
0
41
1
10
-28.5000000000001
20
16.7172383450784
30
0
41
1
10
-28.5000000000001
20
16.6818353810987
30
0
41
1
10
-28.5000000000001
20
16.642411510514
30
0
41
1
10
-28.5
20
16.5986105790194
30
0
41
1
10
-28.5000000000001
20
16.5637763020887
30
0
41
1
10
-28.5000000000001
20
16.5269199075572
30
0
41
1
10
-28.5000000000001
20
16.4750169305148
30
0
41
1
10
-28.5000000000001
20
16.4194622625482
30
0
41
1
10
-28.5
20
16.3597331913305
30
0
41
1
10
-28.5000000000001
20
16.2974462059126
30
0
41
1
10
-28.5000000000001
20
16.2317181614777
30
0
41
1
10
-28.5
20
16.1619255301563
30
0
41
1
10
-28.5000000000001
20
16.0896767577218
30
0
41
1
10
-28.5000000000001
20
16.0141701499498
30
0
41
1
10
-28.5000000000001
20
15.9346970720351
30
0
41
1
10
-28.5000000000001
20
15.8734193498835
30
0
41
1
10
-28.5000000000001
20
15.8103844132608
30
0
41
1
10
-28.5000000000001
20
15.745608166167
30
0
41
1
10
-28.5000000000001
20
15.6791035033831
30
0
41
1
10
-28.5000000000001
20
15.6108850520675
30
0
41
1
10
-28.5
20
15.5409672008416
30
0
41
1
10
-28.5000000000001
20
15.4453363897878
30
0
41
1
10
-28.5000000000001
20
15.3468344295443
30
0
41
1
10
-28.5
20
15.2445501023873
30
0
41
1
10
-28.5000000000001
20
15.1663215412448
30
0
41
1
10
-28.5000000000001
20
15.0864673138636
30
0
41
1
10
-28.5
20
14.9776668598205
30
0
41
1
10
-28.5000000000001
20
14.8661866472664
30
0
41
1
10
-28.5000000000001
20
14.7510047173633
30
0
41
1
10
-28.5000000000001
20
14.6631805593239
30
0
41
1
10
-28.5000000000001
20
14.5737935545693
30
0
41
1
10
-28.5
20
14.4523474056541
30
0
41
1
10
-28.5
20
14.3283920102608
30
0
41
1
10
-28.5000000000001
20
14.2007962111627
30
0
41
1
10
-28.5000000000001
20
14.1037299196574
30
0
41
1
10
-28.5000000000001
20
14.0051547121626
30
0
41
1
10
-28.5000000000001
20
13.8715103774193
30
0
41
1
10
-28.5
20
13.7355116027341
30
0
41
1
10
-28.5000000000001
20
13.5959164295663
30
0
41
1
10
-28.5000000000001
20
13.4899116400768
30
0
41
1
10
-28.5000000000001
20
13.3824445287114
30
0
41
1
10
-28.5000000000001
20
13.2369867267197
30
0
41
1
10
-28.5000000000001
20
13.0893180063073
30
0
41
1
10
-28.5
20
12.9380809359595
30
0
41
1
10
-28.5000000000001
20
12.8234002792819
30
0
41
1
10
-28.5000000000001
20
12.7072977235969
30
0
41
1
10
-28.5000000000001
20
12.5503594035541
30
0
41
1
10
-28.5000000000001
20
12.3913462445321
30
0
41
1
10
-28.5000000000001
20
12.2287775158426
30
0
41
1
10
-28.5000000000001
20
12.1056498288981
30
0
41
1
10
-28.5000000000001
20
11.9811355431937
30
0
41
1
10
-28.5000000000001
20
11.8130068133241
30
0
41
1
10
-28.5
20
11.642935768078
30
0
41
1
10
-28.5000000000001
20
11.4693068645234
30
0
41
1
10
-28.5000000000001
20
11.2938625434426
30
0
41
1
10
-28.5000000000001
20
11.0718089327865
30
0
41
1
10
-28.5000000000001
20
10.8452681360072
30
0
41
1
10
-28.5000000000001
20
10.6608198079833
30
0
41
1
10
-28.5
20
10.4745957683654
30
0
41
1
10
-28.5
20
10.28665185334
30
0
41
1
10
-28.5000000000001
20
10.0951135357909
30
0
41
1
10
-28.5000000000001
20
9.95038954775913
30
0
41
1
10
-28.5
20
9.80435457760413
30
0
41
1
10
-28.5000000000001
20
9.65701503611828
30
0
41
1
10
-28.5000000000001
20
9.50837340526914
30
0
41
1
10
-28.5000000000001
20
9.30810992365682
30
0
41
1
10
-28.5
20
9.05534970701547
30
0
41
1
10
-28.5
20
8.79830464348922
30
0
41
1
10
-28.5000000000001
20
8.58944232029057
30
0
41
1
10
-28.5
20
8.43181572672984
30
0
41
1
10
-28.5000000000001
20
8.27292311790598
30
0
41
1
10
-28.5000000000001
20
8.11277014047187
30
0
41
1
10
-28.5000000000001
20
7.95136171184495
30
0
41
1
10
-28.5000000000001
20
7.73407184255314
30
0
41
1
10
-28.5
20
7.46030866767532
30
0
41
1
10
-28.5
20
7.12632140637373
30
0
41
1
10
-28.5000000000001
20
6.84437402550572
30
0
41
1
10
-28.5
20
6.61554359890371
30
0
41
1
10
-28.5
20
6.4430902941161
30
0
41
1
10
-28.5
20
6.26944364545889
30
0
41
1
10
-28.5000000000001
20
6.09461246091774
30
0
41
1
10
-28.5
20
5.91860523667611
30
0
41
1
10
-28.5000000000001
20
5.74143189937959
30
0
41
1
10
-28.5000000000001
20
5.56310357372007
30
0
41
1
10
-28.5
20
5.38363134733166
30
0
41
1
10
-28.5000000000001
20
5.20302692387264
30
0
41
1
10
-28.5000000000001
20
5.02130422324726
30
0
41
1
10
-28.5000000000001
20
4.83847919931267
30
0
41
1
10
-28.5000000000001
20
4.65456716028007
30
0
41
1
10
-28.5
20
4.46958486845955
30
0
41
1
10
-28.5
20
4.28355302808072
30
0
41
1
10
-28.5000000000001
20
4.09649275318185
30
0
41
1
10
-28.5000000000001
20
3.90842813226234
30
0
41
1
10
-28.5000000000001
20
3.75124940963568
30
0
41
1
10
-28.5000000000001
20
3.62435497964395
30
0
41
1
10
-28.5
20
3.52924315934183
30
0
41
1
10
-28.5000000000001
20
3.43390158445521
30
0
41
1
10
-28.5
20
3.30608717079301
30
0
41
1
10
-28.5
20
3.14669072023423
30
0
41
1
10
-28.5000000000001
20
2.98656939879123
30
0
41
1
10
-28.5000000000001
20
2.85729421649617
30
0
41
1
10
-28.5
20
2.76048089001324
30
0
41
1
10
-28.5
20
2.66347976206257
30
0
41
1
10
-28.5
20
2.56629526768595
30
0
41
1
10
-28.5000000000001
20
2.46893611478757
30
0
41
1
10
-28.5000000000001
20
2.33842740009592
30
0
41
1
10
-28.5
20
2.20905952740145
30
0
41
1
10
-28.5000000000001
20
2.07788039572904
30
0
41
1
10
-28.5000000000001
20
1.97974994874622
30
0
41
1
10
-28.5000000000001
20
1.88148715614128
30
0
41
1
10
-28.5
20
1.7831009010128
30
0
41
1
10
-28.5000000000001
20
1.68460072925311
30
0
41
1
10
-28.5000000000001
20
1.58599184128102
30
0
41
1
10
-28.5000000000001
20
1.48728649469362
30
0
41
1
10
-28.5
20
1.3884891432059
30
0
41
1
10
-28.5000000000001
20
1.28961139997088
30
0
41
1
10
-28.5
20
1.1906585936099
30
0
41
1
10
-28.5
20
1.09164071478051
30
0
41
1
10
-28.5000000000001
20
0.992564090788505
30
0
41
1
10
-28.5000000000001
20
0.893436923932569
30
0
41
1
10
-28.5000000000001
20
0.794265471937194
30
0
41
1
10
-28.5000000000001
20
0.695056741362862
30
0
41
1
10
-28.5
20
0.595816468507252
30
0
41
1
10
-28.5000000000001
20
0.496550613210047
30
0
41
1
10
-28.5
20
0.397263853181812
30
0
41
1
10
-28.5
20
0.297961366795136
30
0
41
1
10
-28.5000000000001
20
0.198647102840766
30
0
41
1
10
-28.5
20
0.0993254669347721
30
0
41
1
10
-28.5000000000001
20
5.4725717E-09
30
0
41
1
10
-28.5000000000001
20
-0.0993254684405542
30
0
41
1
10
-28.5000000000001
20
-0.19864712760122
30
0
41
1
10
-28.5000000000001
20
-0.297961388791634
30
0
41
1
10
-28.5
20
-0.397263840423989
30
0
41
1
10
-28.5
20
-0.496550594205559
30
0
41
1
10
-28.5000000000001
20
-0.595816495504067
30
0
41
1
10
-28.5000000000001
20
-0.695056784276943
30
0
41
1
10
-28.5000000000001
20
-0.794265459276176
30
0
41
1
10
-28.5000000000001
20
-0.893436883433452
30
0
41
1
10
-28.5
20
-0.992564112169845
30
0
41
1
10
-28.5
20
-1.09164077920417
30
0
41
1
10
-28.5000000000001
20
-1.19065859620258
30
0
41
1
10
-28.5000000000001
20
-1.28961134189746
30
0
41
1
10
-28.5000000000001
20
-1.38848913588987
30
0
41
1
10
-28.5
20
-1.48728656512975
30
0
41
1
10
-28.5000000000001
20
-1.58599188781926
30
0
41
1
10
-28.5000000000001
20
-1.68460068701245
30
0
41
1
10
-28.5000000000001
20
-1.7831008405069
30
0
41
1
10
-28.5000000000001
20
-1.88148718140692
30
0
41
1
10
-28.5
20
-1.9797500364362
30
0
41
1
10
-28.5000000000001
20
-2.07788042653624
30
0
41
1
10
-28.5000000000001
20
-2.17587292609076
30
0
41
1
10
-28.5000000000001
20
-2.27371679621314
30
0
41
1
10
-28.5000000000001
20
-2.37140757120352
30
0
41
1
10
-28.5000000000001
20
-2.46893613943027
30
0
41
1
10
-28.5000000000001
20
-2.59923374131694
30
0
41
1
10
-28.5
20
-2.72777279716701
30
0
41
1
10
-28.5000000000001
20
-2.85729428823924
30
0
41
1
10
-28.5000000000001
20
-2.98656948332388
30
0
41
1
10
-28.5000000000001
20
-3.14669074057863
30
0
41
1
10
-28.5000000000001
20
-3.30608709676795
30
0
41
1
10
-28.5
20
-3.43390157548933
30
0
41
1
10
-28.5000000000001
20
-3.52924322184188
30
0
41
1
10
-28.5000000000001
20
-3.62435506854826
30
0
41
1
10
-28.5
20
-3.75124942106055
30
0
41
1
10
-28.5000000000001
20
-3.90842799420622
30
0
41
1
10
-28.5000000000001
20
-4.09649259176146
30
0
41
1
10
-28.5000000000001
20
-4.28355297730502
30
0
41
1
10
-28.5000000000001
20
-4.46958461745544
30
0
41
1
10
-28.5
20
-4.65456683421036
30
0
41
1
10
-28.5000000000001
20
-4.83847943804494
30
0
41
1
10
-28.5000000000001
20
-5.02130448518975
30
0
41
1
10
-28.5000000000001
20
-5.20302670033007
30
0
41
1
10
-28.5000000000001
20
-5.38363156234232
30
0
41
1
10
-28.5000000000001
20
-5.56310445504437
30
0
41
1
10
-28.5000000000001
20
-5.74143237747981
30
0
41
1
10
-28.5000000000001
20
-5.91860495448566
30
0
41
1
10
-28.5000000000001
20
-6.09461208825522
30
0
41
1
10
-28.5000000000001
20
-6.26944357118293
30
0
41
1
10
-28.5000000000001
20
-6.44309032655624
30
0
41
1
10
-28.5000000000001
20
-6.61554357091566
30
0
41
1
10
-28.5000000000001
20
-6.84437400802855
30
0
41
1
10
-28.5000000000001
20
-7.12632144512298
30
0
41
1
10
-28.5
20
-7.46030865505759
30
0
41
1
10
-28.5000000000001
20
-7.73407184285273
30
0
41
1
10
-28.5000000000001
20
-7.95136176299602
30
0
41
1
10
-28.5000000000001
20
-8.11277014937079
30
0
41
1
10
-28.5000000000001
20
-8.27292308432646
30
0
41
1
10
-28.5
20
-8.43181570788786
30
0
41
1
10
-28.5000000000001
20
-8.58944234887974
30
0
41
1
10
-28.5000000000001
20
-8.79830467826929
30
0
41
1
10
-28.5
20
-9.05534969583789
30
0
41
1
10
-28.5000000000001
20
-9.30810991622678
30
0
41
1
10
-28.5000000000001
20
-9.50837344479845
30
0
41
1
10
-28.5000000000001
20
-9.6570150628749
30
0
41
1
10
-28.5000000000001
20
-9.80435457188469
30
0
41
1
10
-28.5
20
-9.95038952754783
30
0
41
1
10
-28.5
20
-10.0951135319109
30
0
41
1
10
-28.5
20
-10.2866518813937
30
0
41
1
10
-28.5000000000001
20
-10.4745957936973
30
0
41
1
10
-28.5000000000001
20
-10.6608197986608
30
0
41
1
10
-28.5000000000001
20
-10.8452681286137
30
0
41
1
10
-28.5
20
-11.0718089525805
30
0
41
1
10
-28.5000000000001
20
-11.2938625632928
30
0
41
1
10
-28.5000000000001
20
-11.4693068596264
30
0
41
1
10
-28.5000000000001
20
-11.642935765638
30
0
41
1
10
-28.5
20
-11.8130068303033
30
0
41
1
10
-28.5
20
-11.9811355648907
30
0
41
1
10
-28.5
20
-12.1056498404808
30
0
41
1
10
-28.5
20
-12.2287775174238
30
0
41
1
10
-28.5000000000001
20
-12.3913462461042
30
0
41
1
10
-28.5000000000001
20
-12.550359417297
30
0
41
1
10
-28.5000000000001
20
-12.7072977423403
30
0
41
1
10
-28.5
20
-12.8234002933141
30
0
41
1
10
-28.5
20
-12.9380809438717
30
0
41
1
10
-28.5000000000001
20
-13.0893180117674
30
0
41
1
10
-28.5000000000001
20
-13.2369867372073
30
0
41
1
10
-28.5000000000001
20
-13.3824445445542
30
0
41
1
10
-28.5
20
-13.4899116562855
30
0
41
1
10
-28.5000000000001
20
-13.5959164434403
30
0
41
1
10
-28.5000000000001
20
-13.735511612592
30
0
41
1
10
-28.5000000000001
20
-13.8715103854274
30
0
41
1
10
-28.5000000000001
20
-14.0051547249397
30
0
41
1
10
-28.5
20
-14.1037299370701
30
0
41
1
10
-28.5000000000001
20
-14.2007962250068
30
0
41
1
10
-28.5000000000001
20
-14.3283920393089
30
0
41
1
10
-28.5
20
-14.4523474054459
30
0
41
1
10
-28.5
20
-14.5737935062701
30
0
41
1
10
-28.5
20
-14.6481896525931
30
0
41
1
10
-28.5000000000001
20
-14.7070919001429
30
0
41
1
10
-28.5000000000001
20
-14.7654709460417
30
0
41
1
10
-28.5
20
-14.8661866667289
30
0
41
1
10
-28.5000000000001
20
-14.9776668655465
30
0
41
1
10
-28.5000000000001
20
-15.0864673213159
30
0
41
1
10
-28.5
20
-15.166321559936
30
0
41
1
10
-28.5
20
-15.2445501295776
30
0
41
1
10
-28.5000000000001
20
-15.3468344527491
30
0
41
1
10
-28.5
20
-15.4453363938053
30
0
41
1
10
-28.5
20
-15.5409672073329
30
0
41
1
10
-28.5
20
-15.6108850733398
30
0
41
1
10
-28.5
20
-15.6791035342519
30
0
41
1
10
-28.5
20
-15.7456081924762
30
0
41
1
10
-28.5000000000001
20
-15.810384423087
30
0
41
1
10
-28.5000000000001
20
-15.8734193510278
30
0
41
1
10
-28.5000000000001
20
-15.934697080719
30
0
41
1
10
-28.5
20
-16.0141701800502
30
0
41
1
10
-28.5000000000001
20
-16.0896767899467
30
0
41
1
10
-28.5000000000001
20
-16.1619255341457
30
0
41
1
10
-28.5
20
-16.2317181619347
30
0
41
1
10
-28.5000000000001
20
-16.2974462376793
30
0
41
1
10
-28.5000000000001
20
-16.3597332242326
30
0
41
1
10
-28.5
20
-16.4194622696319
30
0
41
1
10
-28.5
20
-16.4750169286961
30
0
41
1
10
-28.5000000000001
20
-16.5269199399481
30
0
41
1
10
-28.5
20
-16.5637763395247
30
0
41
1
10
-28.5000000000001
20
-16.5986105943247
30
0
41
1
10
-28.5
20
-16.642411504334
30
0
41
1
10
-28.5000000000001
20
-16.6818354096897
30
0
41
1
10
-28.5000000000001
20
-16.7172383773104
30
0
41
1
10
-28.5
20
-16.741585550229
30
0
41
1
10
-28.5000000000001
20
-16.7637529737167
30
0
41
1
10
-28.5000000000001
20
-16.7837098927271
30
0
41
1
10
-28.5000000000001
20
-16.8014255596808
30
0
41
1
10
-28.5000000000001
20
-16.816867307208
30
0
41
1
10
-28.5
20
-16.8300011251081
30
0
41
1
10
-28.5000000000001
20
-16.8407921763223
30
0
41
1
10
-28.5000000000001
20
-16.8489048137274
30
0
41
1
10
-28.5000000000001
20
-16.8527689268575
30
0
41
1
10
-28.5
20
-16.8542658332079
30
0
0
SPLINE
5
139
100
AcDbEntity
8
SK1
62
256
6
ByLayer
370
18
48
1
60
0
100
AcDbSpline
70
4
71
2
72
6
73
3
40
0
40
0
40
0
40
1
40
1
40
1
41
1
10
-28.5000000000001
20
-16.8542724489282
30
0
41
1
10
-15.3499999999287
20
-17.1845422635703
30
0
41
1
10
-2.20000000000005
20
-17.5148116792767
30
0
0
SPLINE
5
13A
100
AcDbEntity
8
SK1
62
256
6
ByLayer
370
18
48
1
60
0
100
AcDbSpline
70
4
71
2
72
6
73
3
40
0
40
0
40
0
40
1
40
1
40
1
41
1
10
-2.20000000000005
20
17.5148117187523
30
0
41
1
10
-15.3499999999295
20
17.1845422725479
30
0
41
1
10
-28.5000000000001
20
16.8542724298411
30
0
0
SPLINE
5
13B
100
AcDbEntity
8
SK1
62
256
6
ByLayer
370
18
48
1
60
0
100
AcDbSpline
70
4
71
3
72
20
73
16
40
0
40
0
40
0
40
0
40
0.25
40
0.25
40
0.375
40
0.375
40
0.4375
40
0.4375
40
0.5
40
0.5
40
0.75
40
0.75
40
0.875
40
0.875
40
1
40
1
40
1
40
1
41
1
10
-1.3071067811866
20
3.91806548153787
30
0
41
1
10
-1.41969318564748
20
3.29623458683111
30
0
41
1
10
-1.52084354897517
20
2.66117243128366
30
0
41
1
10
-1.63284681317137
20
1.68012366058505
30
0
41
1
10
-1.66339462407882
20
1.34828924094128
30
0
41
1
10
-1.69495092810297
20
0.841576693078565
30
0
41
1
10
-1.70306621291692
20
0.670912483956357
30
0
41
1
10
-1.71379105874203
20
0.332128346739864
30
0
41
1
10
-1.7164513773341
20
0.163332447807704
30
0
41
1
10
-1.71619101064633
20
-0.677685636180854
30
0
41
1
10
-1.67125810013116
20
-1.34087191657744
30
0
41
1
10
-1.55943898894108
20
-2.32447859217888
30
0
41
1
10
-1.51483394489836
20
-2.6512039966245
30
0
41
1
10
-1.41687703207171
20
-3.29188260724433
30
0
41
1
10
-1.36340682815242
20
-3.60711221095693
30
0
41
1
10
-1.3071067811866
20
-3.91806548057693
30
0
0
SPLINE
5
13C
100
AcDbEntity
8
SK1
62
256
6
ByLayer
370
18
48
1
60
0
100
AcDbSpline
70
4
71
3
72
107
73
103
40
0
40
0
40
0
40
0
40
0.0027085772194452
40
0.0112399894049909
40
0.0197714015905366
40
0.0283028137760824
40
0.0368342259616281
40
0.0453656381471738
40
0.0538970503327195
40
0.0624284625182652
40
0.0709598747038109
40
0.0794912868893566
40
0.096554111260448
40
0.113616935631539
40
0.130679760002631
40
0.139211172188177
40
0.147742584373722
40
0.156273996559268
40
0.164805408744814
40
0.173336820930359
40
0.181868233115905
40
0.198931057486996
40
0.215993881858088
40
0.224525294043634
40
0.233056706229179
40
0.241588118414725
40
0.250119530600271
40
0.258650942785817
40
0.267182354971362
40
0.284245179342454
40
0.292776591527999
40
0.301308003713545
40
0.318370828084636
40
0.335433652455728
40
0.343965064641274
40
0.352496476826819
40
0.369559301197911
40
0.378090713383456
40
0.386622125569002
40
0.395153537754548
40
0.403684949940094
40
0.420747774311185
40
0.429279186496731
40
0.437810598682276
40
0.446342010867822
40
0.454873423053368
40
0.471936247424459
40
0.480467659610005
40
0.488999071795551
40
0.497530483981096
40
0.506061896166642
40
0.523124720537733
40
0.531656132723279
40
0.540187544908825
40
0.54871895709437
40
0.557250369279916
40
0.574313193651008
40
0.582844605836553
40
0.591376018022099
40
0.595641724114872
40
0.599907430207645
40
0.608438842393191
40
0.625501666764282
40
0.634033078949828
40
0.642564491135373
40
0.651095903320919
40
0.659627315506465
40
0.676690139877556
40
0.685221552063102
40
0.693752964248648
40
0.702284376434193
40
0.710815788619739
40
0.719347200805285
40
0.72787861299083
40
0.736410025176376
40
0.744941437361922
40
0.762004261733013
40
0.770535673918559
40
0.779067086104105
40
0.796129910475196
40
0.804661322660742
40
0.813192734846287
40
0.830255559217379
40
0.838786971402925
40
0.84731838358847
40
0.855849795774016
40
0.864381207959562
40
0.881444032330653
40
0.889975444516199
40
0.898506856701745
40
0.90703826888729
40
0.915569681072836
40
0.924101093258382
40
0.932632505443927
40
0.941163917629473
40
0.949695329815019
40
0.958226742000564
40
0.96675815418611
40
0.975289566371656
40
0.983820978557202
40
0.992352390742747
40
1
40
1
40
1
40
1
41
1
10
-0.394976888875306
20
-5.38678189578286
30
0
41
1
10
-0.394976888875306
20
-5.40659307656728
30
0
41
1
10
-0.394976888875306
20
-5.48871660168979
30
0
41
1
10
-0.394976888875334
20
-5.63252719489219
30
0
41
1
10
-0.394976888875334
20
-5.81741451623534
30
0
41
1
10
-0.394976888875277
20
-6.00101977124669
30
0
41
1
10
-0.394976888875334
20
-6.18333830919042
30
0
41
1
10
-0.394976888875306
20
-6.36436622189487
30
0
41
1
10
-0.394976888875306
20
-6.54409937286437
30
0
41
1
10
-0.394976888875306
20
-6.72253430941348
30
0
41
1
10
-0.394976888875334
20
-6.8996674006039
30
0
41
1
10
-0.394976888875334
20
-7.13420903787923
30
0
41
1
10
-0.394976888875362
20
-7.42389186204952
30
0
41
1
10
-0.394976888875362
20
-7.76637138106324
30
0
41
1
10
-0.394976888875334
20
-8.04728288344242
30
0
41
1
10
-0.394976888875334
20
-8.26952736598557
30
0
41
1
10
-0.394976888875306
20
-8.434820354761
30
0
41
1
10
-0.394976888875306
20
-8.59878513137218
30
0
41
1
10
-0.394976888875362
20
-8.76141979186247
30
0
41
1
10
-0.394976888875277
20
-8.922721214403
30
0
41
1
10
-0.394976888875334
20
-9.13609086912214
30
0
41
1
10
-0.394976888875306
20
-9.39928045092245
30
0
41
1
10
-0.394976888875306
20
-9.65799296546984
30
0
41
1
10
-0.394976888875334
20
-9.86240080704212
30
0
41
1
10
-0.394976888875249
20
-10.0143015815252
30
0
41
1
10
-0.394976888875277
20
-10.1648480067744
30
0
41
1
10
-0.394976888875306
20
-10.3140380843155
30
0
41
1
10
-0.394976888875306
20
-10.4618684189215
30
0
41
1
10
-0.394976888875277
20
-10.6572263081632
30
0
41
1
10
-0.394976888875277
20
-10.8496518506122
30
0
41
1
10
-0.394976888875306
20
-11.0395280782787
30
0
41
1
10
-0.394976888875277
20
-11.2275701299333
30
0
41
1
10
-0.394976888875277
20
-11.4590305143918
30
0
41
1
10
-0.394976888875277
20
-11.685867652055
30
0
41
1
10
-0.394976888875334
20
-11.864654349678
30
0
41
1
10
-0.394976888875334
20
-12.0415756040848
30
0
41
1
10
-0.394976888875306
20
-12.2155153161813
30
0
41
1
10
-0.394976888875306
20
-12.3868007979199
30
0
41
1
10
-0.394976888875306
20
-12.5138050519686
30
0
41
1
10
-0.394976888875277
20
-12.6393872302302
30
0
41
1
10
-0.394976888875306
20
-12.8049814458532
30
0
41
1
10
-0.394976888875277
20
-12.9675509360494
30
0
41
1
10
-0.394976888875249
20
-13.1273919665529
30
0
41
1
10
-0.394976888875249
20
-13.2457849051211
30
0
41
1
10
-0.394976888875334
20
-13.3627236547322
30
0
41
1
10
-0.394976888875249
20
-13.5167448476072
30
0
41
1
10
-0.394976888875334
20
-13.6676860552913
30
0
41
1
10
-0.394976888875277
20
-13.8158144768541
30
0
41
1
10
-0.394976888875249
20
-13.9253889718329
30
0
41
1
10
-0.394976888875334
20
-14.0334711580347
30
0
41
1
10
-0.394976888875277
20
-14.1756274475866
30
0
41
1
10
-0.394976888875277
20
-14.3146351237356
30
0
41
1
10
-0.394976888875334
20
-14.4507333681674
30
0
41
1
10
-0.394976888875306
20
-14.5512443837086
30
0
41
1
10
-0.394976888875277
20
-14.6502180419884
30
0
41
1
10
-0.394976888875334
20
-14.7801642532389
30
0
41
1
10
-0.394976888875277
20
-14.9068780878822
30
0
41
1
10
-0.394976888875334
20
-15.0305708978544
30
0
41
1
10
-0.394976888875306
20
-15.1065165223895
30
0
41
1
10
-0.394976888875277
20
-15.1665127141503
30
0
41
1
10
-0.394976888875306
20
-15.2259771214207
30
0
41
1
10
-0.394976888875334
20
-15.3286250474484
30
0
41
1
10
-0.394976888875334
20
-15.442619610906
30
0
41
1
10
-0.394976888875277
20
-15.5534637367265
30
0
41
1
10
-0.394976888875334
20
-15.6349267624759
30
0
41
1
10
-0.394976888875249
20
-15.7147364921469
30
0
41
1
10
-0.394976888875277
20
-15.8189643831875
30
0
41
1
10
-0.394976888875277
20
-15.9197362187748
30
0
41
1
10
-0.394976888875306
20
-16.0172057969154
30
0
41
1
10
-0.394976888875249
20
-16.0885678110446
30
0
41
1
10
-0.394976888875334
20
-16.1582019472911
30
0
41
1
10
-0.394976888875306
20
-16.2260943811825
30
0
41
1
10
-0.394976888875334
20
-16.2922298358682
30
0
41
1
10
-0.394976888875306
20
-16.3565947902754
30
0
41
1
10
-0.394976888875277
20
-16.4191737297992
30
0
41
1
10
-0.394976888875306
20
-16.5002370830775
30
0
41
1
10
-0.394976888875306
20
-16.577583462844
30
0
41
1
10
-0.394976888875334
20
-16.6513062771914
30
0
41
1
10
-0.394976888875277
20
-16.7225357579897
30
0
41
1
10
-0.394976888875277
20
-16.7899145981056
30
0
41
1
10
-0.394976888875306
20
-16.8535135500206
30
0
41
1
10
-0.394976888875277
20
-16.9145141001581
30
0
41
1
10
-0.394976888875334
20
-16.9715145305623
30
0
41
1
10
-0.394976888875277
20
-17.024552403858
30
0
41
1
10
-0.394976888875306
20
-17.0622798511846
30
0
41
1
10
-0.394976888875334
20
-17.0979462837243
30
0
41
1
10
-0.394976888875277
20
-17.1427382787905
30
0
41
1
10
-0.394976888875277
20
-17.1832568369982
30
0
41
1
10
-0.394976888875306
20
-17.2194882612007
30
0
41
1
10
-0.394976888875306
20
-17.2444531170066
30
0
41
1
10
-0.394976888875249
20
-17.2671905287463
30
0
41
1
10
-0.394976888875306
20
-17.2876678382251
30
0
41
1
10
-0.394976888875306
20
-17.3058521626297
30
0
41
1
10
-0.394976888875277
20
-17.3217086355548
30
0
41
1
10
-0.394976888875277
20
-17.3352007360525
30
0
41
1
10
-0.394976888875277
20
-17.3462909802274
30
0
41
1
10
-0.394976888875277
20
-17.3549392880652
30
0
41
1
10
-0.394976888875334
20
-17.3611046305144
30
0
41
1
10
-0.394976888875277
20
-17.3647432146661
30
0
41
1
10
-0.394976888875277
20
-17.3658102005923
30
0
41
1
10
-0.394976888875306
20
-17.3643113347985
30
0
41
1
10
-0.394976888875334
20
-17.3617298739414
30
0
41
1
10
-0.394976888875306
20
-17.3601458594874
30
0
0
SPLINE
5
13D
100
AcDbEntity
8
SK1
62
256
6
ByLayer
370
18
48
1
60
0
100
AcDbSpline
70
4
71
2
72
6
73
3
40
0
40
0
40
0
40
1
40
1
40
1
41
1
10
-1.99503997793928
20
-17.3199593099743
30
0
41
1
10
-1.19500843340705
20
-17.340052552406
30
0
41
1
10
-0.394976888875306
20
-17.3601457933935
30
0
0
SPLINE
5
13E
100
AcDbEntity
8
SK1
62
256
6
ByLayer
370
18
48
1
60
0
100
AcDbSpline
70
4
71
2
72
6
73
3
40
0
40
0
40
0
40
1
40
1
40
1
41
1
10
-0.394976888875306
20
17.3601458189994
30
0
41
1
10
-1.19500843340708
20
17.3400525762133
30
0
41
1
10
-1.99503997793934
20
17.3199593319919
30
0
0
SPLINE
5
13F
100
AcDbEntity
8
SK1
62
256
6
ByLayer
370
18
48
1
60
0
100
AcDbSpline
70
4
71
3
72
106
73
102
40
0
40
0
40
0
40
0
40
0.0076472944600185
40
0.0161787094798372
40
0.0247101244996559
40
0.0332415395194745
40
0.0417729545392932
40
0.0503043695591119
40
0.0588357845789306
40
0.0673671995987492
40
0.0758986146185679
40
0.0844300296383866
40
0.0929614446582053
40
0.101492859678024
40
0.110024274697843
40
0.118555689717661
40
0.135618519757299
40
0.144149934777117
40
0.152681349796936
40
0.161212764816755
40
0.169744179836573
40
0.186807009876211
40
0.195338424896029
40
0.203869839915848
40
0.220932669955485
40
0.229464084975304
40
0.237995499995123
40
0.25505833003476
40
0.263589745054579
40
0.272121160074397
40
0.280652575094216
40
0.289183990114035
40
0.297715405133853
40
0.306246820153672
40
0.314778235173491
40
0.323309650193309
40
0.340372480232947
40
0.348903895252766
40
0.357435310272584
40
0.365966725292403
40
0.374498140312222
40
0.391560970351859
40
0.400092385371678
40
0.408623800391496
40
0.417155215411315
40
0.425686630431134
40
0.442749460470771
40
0.45128087549059
40
0.459812290510408
40
0.468343705530227
40
0.476875120550046
40
0.493937950589683
40
0.502469365609502
40
0.51100078062932
40
0.519532195649139
40
0.528063610668958
40
0.545126440708595
40
0.553657855728414
40
0.562189270748232
40
0.570720685768051
40
0.57925210078787
40
0.596314930827507
40
0.604846345847326
40
0.613377760867144
40
0.621909175886963
40
0.630440590906782
40
0.647503420946419
40
0.656034835966238
40
0.664566250986056
40
0.681629081025694
40
0.698691911065331
40
0.70722332608515
40
0.715754741104969
40
0.732817571144606
40
0.741348986164425
40
0.749880401184243
40
0.758411816204062
40
0.766943231223881
40
0.775474646243699
40
0.784006061263518
40
0.801068891303155
40
0.818131721342793
40
0.826663136362611
40
0.83519455138243
40
0.843725966402249
40
0.852257381422067
40
0.860788796441886
40
0.869320211461705
40
0.886383041501342
40
0.903445871540979
40
0.920508701580617
40
0.929040116600436
40
0.937571531620254
40
0.946102946640073
40
0.954634361659891
40
0.96316577667971
40
0.971697191699529
40
0.980228606719347
40
0.988760021739166
40
0.997291436758985
40
1
40
1
40
1
40
1
41
1
10
-0.394976888875334
20
17.3601458881526
30
0
41
1
10
-0.394976888875306
20
17.3617298840231
30
0
41
1
10
-0.394976888875306
20
17.3643114258507
30
0
41
1
10
-0.394976888875362
20
17.3658104187983
30
0
41
1
10
-0.394976888875306
20
17.364743357607
30
0
41
1
10
-0.394976888875334
20
17.3611046370287
30
0
41
1
10
-0.394976888875306
20
17.3549392673806
30
0
41
1
10
-0.394976888875362
20
17.3462909837356
30
0
41
1
10
-0.394976888875334
20
17.3352007293143
30
0
41
1
10
-0.394976888875334
20
17.3217086001335
30
0
41
1
10
-0.394976888875362
20
17.3058521283007
30
0
41
1
10
-0.394976888875334
20
17.2876678324761
30
0
41
1
10
-0.394976888875306
20
17.2671905263171
30
0
41
1
10
-0.394976888875362
20
17.2444530966284
30
0
41
1
10
-0.394976888875306
20
17.2194882282903
30
0
41
1
10
-0.394976888875362
20
17.1832568130363
30
0
41
1
10
-0.394976888875334
20
17.1427382851614
30
0
41
1
10
-0.394976888875306
20
17.0979462613767
30
0
41
1
10
-0.394976888875334
20
17.0622798138473
30
0
41
1
10
-0.394976888875362
20
17.0245523789024
30
0
41
1
10
-0.394976888875362
20
16.9715145338598
30
0
41
1
10
-0.394976888875362
20
16.9145140859045
30
0
41
1
10
-0.394976888875334
20
16.8535135157982
30
0
41
1
10
-0.394976888875277
20
16.7899145739052
30
0
41
1
10
-0.394976888875362
20
16.7225357594453
30
0
41
1
10
-0.394976888875306
20
16.6513062647865
30
0
41
1
10
-0.394976888875334
20
16.5775834289921
30
0
41
1
10
-0.394976888875334
20
16.5002370605309
30
0
41
1
10
-0.394976888875306
20
16.4191737242596
30
0
41
1
10
-0.394976888875334
20
16.3565947837565
30
0
41
1
10
-0.394976888875334
20
16.2922298184193
30
0
41
1
10
-0.394976888875362
20
16.2260943534788
30
0
41
1
10
-0.394976888875334
20
16.1582019227301
30
0
41
1
10
-0.394976888875306
20
16.0885677968918
30
0
41
1
10
-0.394976888875277
20
16.0172057910895
30
0
41
1
10
-0.394976888875334
20
15.9197362080176
30
0
41
1
10
-0.394976888875277
20
15.8189643575456
30
0
41
1
10
-0.394976888875362
20
15.7147364711228
30
0
41
1
10
-0.394976888875334
20
15.6349267495635
30
0
41
1
10
-0.394976888875306
20
15.553463729323
30
0
41
1
10
-0.394976888875334
20
15.4426195996911
30
0
41
1
10
-0.394976888875362
20
15.3286250260664
30
0
41
1
10
-0.394976888875362
20
15.2112966721244
30
0
41
1
10
-0.394976888875334
20
15.1217290697223
30
0
41
1
10
-0.394976888875277
20
15.0305709686995
30
0
41
1
10
-0.394976888875362
20
14.9068780487351
30
0
41
1
10
-0.394976888875334
20
14.7801642402503
30
0
41
1
10
-0.394976888875334
20
14.6502180265083
30
0
41
1
10
-0.394976888875362
20
14.551244369835
30
0
41
1
10
-0.394976888875362
20
14.4507333574049
30
0
41
1
10
-0.394976888875334
20
14.3146351144528
30
0
41
1
10
-0.394976888875334
20
14.1756274353422
30
0
41
1
10
-0.394976888875334
20
14.0334711437704
30
0
41
1
10
-0.394976888875334
20
13.9253889575192
30
0
41
1
10
-0.394976888875362
20
13.8158144643309
30
0
41
1
10
-0.394976888875306
20
13.6676860465324
30
0
41
1
10
-0.394976888875362
20
13.5167448397426
30
0
41
1
10
-0.394976888875362
20
13.362723643094
30
0
41
1
10
-0.394976888875334
20
13.2457848907918
30
0
41
1
10
-0.394976888875362
20
13.127391952352
30
0
41
1
10
-0.394976888875391
20
12.9675509274721
30
0
41
1
10
-0.394976888875362
20
12.8049814419577
30
0
41
1
10
-0.394976888875334
20
12.6393872212047
30
0
41
1
10
-0.394976888875334
20
12.5138050377602
30
0
41
1
10
-0.394976888875306
20
12.3868007822861
30
0
41
1
10
-0.394976888875334
20
12.2155153079022
30
0
41
1
10
-0.394976888875334
20
12.0415756036958
30
0
41
1
10
-0.394976888875362
20
11.864654342688
30
0
41
1
10
-0.394976888875334
20
11.6858676336887
30
0
41
1
10
-0.394976888875334
20
11.4590305058839
30
0
41
1
10
-0.394976888875362
20
11.2275701322442
30
0
41
1
10
-0.394976888875306
20
11.0395280715927
30
0
41
1
10
-0.394976888875334
20
10.8496518299165
30
0
41
1
10
-0.394976888875334
20
10.6572262982852
30
0
41
1
10
-0.394976888875362
20
10.4618684218407
30
0
41
1
10
-0.394976888875334
20
10.3140380853822
30
0
41
1
10
-0.394976888875306
20
10.1648479968029
30
0
41
1
10
-0.394976888875334
20
10.014301562069
30
0
41
1
10
-0.394976888875334
20
9.86240079247784
30
0
41
1
10
-0.394976888875306
20
9.65799297250356
30
0
41
1
10
-0.394976888875277
20
9.39928044357353
30
0
41
1
10
-0.394976888875306
20
9.13609084815209
30
0
41
1
10
-0.394976888875334
20
8.92272120904673
30
0
41
1
10
-0.394976888875277
20
8.76141979935898
30
0
41
1
10
-0.394976888875334
20
8.59878513251647
30
0
41
1
10
-0.394976888875334
20
8.43482033812751
30
0
41
1
10
-0.394976888875334
20
8.26952734508274
30
0
41
1
10
-0.394976888875334
20
8.04728288893989
30
0
41
1
10
-0.394976888875277
20
7.76637137475097
30
0
41
1
10
-0.394976888875306
20
7.42389184310321
30
0
41
1
10
-0.394976888875306
20
7.13420904829053
30
0
41
1
10
-0.394976888875306
20
6.89966739484254
30
0
41
1
10
-0.394976888875306
20
6.72253428981173
30
0
41
1
10
-0.394976888875334
20
6.54409938064711
30
0
41
1
10
-0.394976888875306
20
6.36436626337328
30
0
41
1
10
-0.394976888875306
20
6.1833382251732
30
0
41
1
10
-0.394976888875306
20
6.00101947738443
30
0
41
1
10
-0.394976888875362
20
5.81741425905386
30
0
41
1
10
-0.394976888875277
20
5.63252720020009
30
0
41
1
10
-0.394976888875277
20
5.48871675629277
30
0
41
1
10
-0.394976888875277
20
5.40659331253005
30
0
41
1
10
-0.394976888875277
20
5.38678223324203
30
0
0
SPLINE
5
140
100
AcDbEntity
8
SK1
62
256
6
ByLayer
370
18
48
1
60
0
100
AcDbSpline
70
4
71
3
72
288
73
284
40
0
40
0
40
0
40
0
40
0.0026261275163804
40
0.0061287538366336
40
0.0096313801568868
40
0.01313400647714
40
0.0166366327973932
40
0.0201392591176464
40
0.0236418854378996
40
0.0271445117581528
40
0.030647138078406
40
0.0341497643986592
40
0.0376523907189124
40
0.0411550170391656
40
0.0446576433594188
40
0.0516628959999252
40
0.0551655223201784
40
0.0586681486404316
40
0.0621707749606848
40
0.065673401280938
40
0.0726786539214444
40
0.0761812802416976
40
0.0796839065619508
40
0.0866891592024571
40
0.0901917855227104
40
0.0936944118429636
40
0.10069966448347
40
0.104202290803723
40
0.107704917123976
40
0.11120754344423
40
0.114710169764483
40
0.118212796084736
40
0.121715422404989
40
0.125218048725242
40
0.128720675045496
40
0.135725927686002
40
0.139228554006255
40
0.142731180326508
40
0.146233806646761
40
0.149736432967015
40
0.156741685607521
40
0.160244311927774
40
0.163746938248027
40
0.167249564568281
40
0.170752190888534
40
0.17775744352904
40
0.181260069849293
40
0.184762696169547
40
0.1882653224898
40
0.191767948810053
40
0.198773201450559
40
0.202275827770813
40
0.205778454091066
40
0.209281080411319
40
0.212783706731572
40
0.219788959372079
40
0.223291585692332
40
0.226794212012585
40
0.230296838332838
40
0.233799464653092
40
0.240804717293598
40
0.244307343613851
40
0.247809969934104
40
0.251312596254357
40
0.254815222574611
40
0.261820475215117
40
0.26532310153537
40
0.268825727855623
40
0.27583098049613
40
0.282836233136636
40
0.28633885945689
40
0.289841485777143
40
0.296846738417649
40
0.300349364737902
40
0.303851991058156
40
0.307354617378409
40
0.310857243698662
40
0.314359870018915
40
0.317862496339168
40
0.324867748979675
40
0.331873001620181
40
0.335375627940434
40
0.338878254260688
40
0.342380880580941
40
0.345883506901194
40
0.349386133221447
40
0.3528887595417
40
0.359894012182207
40
0.366899264822713
40
0.373904517463219
40
0.377407143783473
40
0.380909770103726
40
0.384412396423979
40
0.387915022744232
40
0.391417649064485
40
0.394920275384739
40
0.398422901704992
40
0.401925528025245
40
0.405428154345498
40
0.408930780665751
40
0.412433406986005
40
0.415936033306258
40
0.419438659626511
40
0.422941285946764
40
0.426443912267017
40
0.429946538587271
40
0.433449164907524
40
0.43520047806765
40
0.436951791227777
40
0.438703104387904
40
0.44045441754803
40
0.443957043868283
40
0.447459670188537
40
0.449210983348663
40
0.45096229650879
40
0.452713609668916
40
0.454464922829043
40
0.456216235989169
40
0.457967549149296
40
0.461470175469549
40
0.463221488629676
40
0.464972801789802
40
0.466724114949929
40
0.468475428110056
40
0.470226741270182
40
0.471978054430309
40
0.473729367590435
40
0.475480680750562
40
0.477231993910689
40
0.478983307070815
40
0.480734620230942
40
0.482485933391068
40
0.484237246551195
40
0.485988559711322
40
0.487739872871448
40
0.489491186031575
40
0.491242499191701
40
0.492993812351828
40
0.494745125511955
40
0.496496438672081
40
0.498247751832208
40
0.499999064992334
40
0.501750378152461
40
0.503501691312588
40
0.505253004472714
40
0.507004317632841
40
0.508755630792968
40
0.510506943953094
40
0.512258257113221
40
0.514009570273347
40
0.515760883433474
40
0.517512196593601
40
0.519263509753727
40
0.521014822913854
40
0.52276613607398
40
0.524517449234107
40
0.526268762394233
40
0.52802007555436
40
0.529771388714487
40
0.531522701874613
40
0.53327401503474
40
0.535025328194867
40
0.536776641354993
40
0.53852795451512
40
0.540279267675246
40
0.542030580835373
40
0.543781893995499
40
0.545533207155626
40
0.549035833475879
40
0.550787146636006
40
0.552538459796133
40
0.556041086116386
40
0.559543712436639
40
0.561295025596766
40
0.563046338756892
40
0.564797651917019
40
0.566548965077145
40
0.570051591397399
40
0.573554217717652
40
0.577056844037905
40
0.580559470358158
40
0.584062096678411
40
0.587564722998665
40
0.591067349318918
40
0.594569975639171
40
0.598072601959424
40
0.601575228279677
40
0.605077854599931
40
0.608580480920184
40
0.612083107240437
40
0.61558573356069
40
0.619088359880943
40
0.622590986201197
40
0.62609361252145
40
0.633098865161956
40
0.640104117802463
40
0.647109370442969
40
0.650611996763222
40
0.654114623083475
40
0.657617249403729
40
0.661119875723982
40
0.664622502044235
40
0.668125128364488
40
0.675130381004995
40
0.682135633645501
40
0.685638259965754
40
0.689140886286007
40
0.692643512606261
40
0.696146138926514
40
0.699648765246767
40
0.70315139156702
40
0.710156644207527
40
0.71365927052778
40
0.717161896848033
40
0.724167149488539
40
0.731172402129046
40
0.734675028449299
40
0.738177654769552
40
0.745182907410059
40
0.748685533730312
40
0.752188160050565
40
0.755690786370818
40
0.759193412691071
40
0.766198665331578
40
0.769701291651831
40
0.773203917972084
40
0.776706544292337
40
0.780209170612591
40
0.787214423253097
40
0.79071704957335
40
0.794219675893603
40
0.797722302213856
40
0.80122492853411
40
0.808230181174616
40
0.811732807494869
40
0.815235433815123
40
0.818738060135376
40
0.822240686455629
40
0.829245939096135
40
0.832748565416388
40
0.836251191736642
40
0.838002504896768
40
0.839753818056895
40
0.843256444377148
40
0.850261697017655
40
0.853764323337908
40
0.857266949658161
40
0.860769575978414
40
0.864272202298667
40
0.871277454939174
40
0.874780081259427
40
0.87828270757968
40
0.881785333899933
40
0.885287960220187
40
0.88879058654044
40
0.892293212860693
40
0.895795839180946
40
0.899298465501199
40
0.906303718141706
40
0.909806344461959
40
0.913308970782212
40
0.920314223422719
40
0.923816849742972
40
0.927319476063225
40
0.934324728703731
40
0.937827355023985
40
0.941329981344238
40
0.944832607664491
40
0.948335233984744
40
0.955340486625251
40
0.958843112945504
40
0.962345739265757
40
0.96584836558601
40
0.969350991906263
40
0.972853618226517
40
0.97635624454677
40
0.979858870867023
40
0.983361497187276
40
0.986864123507529
40
0.990366749827783
40
0.993869376148036
40
0.997372002468289
40
1
40
1
40
1
40
1
41
1
10
-30.0000000000001
20
15.9924776691256
30
0
41
1
10
-30.0000000000001
20
15.9929878805317
30
0
41
1
10
-30.0000000000001
20
15.9936450621107
30
0
41
1
10
-30.0000000000001
20
15.992743696334
30
0
41
1
10
-30.0000000000001
20
15.9893850921089
30
0
41
1
10
-30
20
15.9836860314146
30
0
41
1
10
-30
20
15.9756808210229
30
0
41
1
10
-30.0000000000001
20
15.9654018084482
30
0
41
1
10
-30
20
15.952881126494
30
0
41
1
10
-30.0000000000001
20
15.9381491278438
30
0
41
1
10
-30
20
15.9212355486336
30
0
41
1
10
-30.0000000000001
20
15.9021692443495
30
0
41
1
10
-30.0000000000001
20
15.8809772874924
30
0
41
1
10
-30
20
15.85768719628
30
0
41
1
10
-30.0000000000001
20
15.8237020449635
30
0
41
1
10
-30
20
15.786151572388
30
0
41
1
10
-30
20
15.7440467976174
30
0
41
1
10
-30.0000000000001
20
15.7106366986067
30
0
41
1
10
-30
20
15.6752710038507
30
0
41
1
10
-30.0000000000001
20
15.6253102414824
30
0
41
1
10
-30
20
15.5722298833996
30
0
41
1
10
-30
20
15.5146768571488
30
0
41
1
10
-30.0000000000001
20
15.454635155867
30
0
41
1
10
-30.0000000000001
20
15.3917322415494
30
0
41
1
10
-30.0000000000001
20
15.3243986601424
30
0
41
1
10
-30.0000000000001
20
15.2546726017927
30
0
41
1
10
-30.0000000000001
20
15.1823145630236
30
0
41
1
10
-30.0000000000001
20
15.1055630554725
30
0
41
1
10
-30.0000000000001
20
15.0465122402176
30
0
41
1
10
-30.0000000000001
20
14.9857535165871
30
0
41
1
10
-30.0000000000001
20
14.9233034368069
30
0
41
1
10
-30.0000000000001
20
14.8591738020486
30
0
41
1
10
-30.0000000000001
20
14.7933781380804
30
0
41
1
10
-30.0000000000001
20
14.7259318150055
30
0
41
1
10
-30
20
14.6334478809413
30
0
41
1
10
-30.0000000000001
20
14.5388306139923
30
0
41
1
10
-30.0000000000001
20
14.4398724968665
30
0
41
1
10
-30.0000000000001
20
14.3643499358608
30
0
41
1
10
-30.0000000000001
20
14.2872489988172
30
0
41
1
10
-30.0000000000001
20
14.1819460940194
30
0
41
1
10
-30.0000000000001
20
14.0747689624993
30
0
41
1
10
-30
20
13.9632604256821
30
0
41
1
10
-30.0000000000001
20
13.8784200007503
30
0
41
1
10
-30.0000000000001
20
13.7920640526129
30
0
41
1
10
-30.0000000000001
20
13.674463030797
30
0
41
1
10
-30
20
13.5552283874056
30
0
41
1
10
-30.0000000000001
20
13.4316550911985
30
0
41
1
10
-30.0000000000001
20
13.337853067095
30
0
41
1
10
-30
20
13.2425907988595
30
0
41
1
10
-30
20
13.1131460860381
30
0
41
1
10
-30.0000000000001
20
12.9822967545724
30
0
41
1
10
-30.0000000000001
20
12.847084683004
30
0
41
1
10
-30.0000000000001
20
12.7446351532221
30
0
41
1
10
-30.0000000000001
20
12.6407746180399
30
0
41
1
10
-30
20
12.499887311655
30
0
41
1
10
-30.0000000000001
20
12.3578191289812
30
0
41
1
10
-30.0000000000001
20
12.2113468162577
30
0
41
1
10
-30
20
12.100530667573
30
0
41
1
10
-30.0000000000001
20
11.9883478761207
30
0
41
1
10
-30.0000000000001
20
11.836377249174
30
0
41
1
10
-30.0000000000001
20
11.6834503922585
30
0
41
1
10
-30.0000000000001
20
11.5260594948948
30
0
41
1
10
-30.0000000000001
20
11.4071324366749
30
0
41
1
10
-30.0000000000001
20
11.2868794886981
30
0
41
1
10
-30.0000000000001
20
11.1241532157818
30
0
41
1
10
-30.0000000000001
20
10.9607029988619
30
0
41
1
10
-30
20
10.7927086404325
30
0
41
1
10
-30.0000000000001
20
10.6229844866849
30
0
41
1
10
-30.0000000000001
20
10.4091173939315
30
0
41
1
10
-30.0000000000001
20
10.1909959678347
30
0
41
1
10
-30.0000000000001
20
10.0126979588287
30
0
41
1
10
-30.0000000000001
20
9.83272430289387
30
0
41
1
10
-30.0000000000001
20
9.65245023276202
30
0
41
1
10
-30
20
9.46744871362009
30
0
41
1
10
-30
20
9.32804093460692
30
0
41
1
10
-30
20
9.18740563851225
30
0
41
1
10
-30.0000000000001
20
9.04555437859213
30
0
41
1
10
-30
20
8.90249044231979
30
0
41
1
10
-30.0000000000001
20
8.70931958714522
30
0
41
1
10
-30.0000000000001
20
8.46674616603485
30
0
41
1
10
-30.0000000000001
20
8.2202168629417
30
0
41
1
10
-30
20
8.01906836645577
30
0
41
1
10
-30.0000000000001
20
7.86773085832669
30
0
41
1
10
-30
20
7.71524241280142
30
0
41
1
10
-30.0000000000001
20
7.56161298420648
30
0
41
1
10
-30
20
7.40685260452795
30
0
41
1
10
-30
20
7.19804202206521
30
0
41
1
10
-30.0000000000001
20
6.93651252502835
30
0
41
1
10
-30
20
6.61705894701075
30
0
41
1
10
-30.0000000000001
20
6.34834996432818
30
0
41
1
10
-30
20
6.12929373929515
30
0
41
1
10
-30
20
5.96484945115364
30
0
41
1
10
-30
20
5.79939743818983
30
0
41
1
10
-30.0000000000001
20
5.63295542814626
30
0
41
1
10
-30
20
5.46554083189747
30
0
41
1
10
-30
20
5.29717335727497
30
0
41
1
10
-30.0000000000001
20
5.1278759130733
30
0
41
1
10
-30
20
4.95767063849857
30
0
41
1
10
-30
20
4.78658071628459
30
0
41
1
10
-30.0000000000001
20
4.61463355062483
30
0
41
1
10
-30.0000000000001
20
4.44186113006069
30
0
41
1
10
-30.0000000000001
20
4.26829321973949
30
0
41
1
10
-30.0000000000001
20
4.09396155182321
30
0
41
1
10
-30.0000000000001
20
3.91890592173871
30
0
41
1
10
-30
20
3.74316620306936
30
0
41
1
10
-30.0000000000001
20
3.56678705857652
30
0
41
1
10
-30
20
3.42015123791833
30
0
41
1
10
-30
20
3.3009810984795
30
0
41
1
10
-30.0000000000001
20
3.21216327477836
30
0
41
1
10
-30
20
3.12322377081893
30
0
41
1
10
-30
20
3.00356413190352
30
0
41
1
10
-30
20
2.85589664233001
30
0
41
1
10
-30
20
2.70788037697056
30
0
41
1
10
-30
20
2.58749550859631
30
0
41
1
10
-30.0000000000001
20
2.49793822974368
30
0
41
1
10
-30.0000000000001
20
2.40833000131909
30
0
41
1
10
-30.0000000000001
20
2.31867596083529
30
0
41
1
10
-30
20
2.22899146909501
30
0
41
1
10
-30
20
2.10827328924756
30
0
41
1
10
-30.0000000000001
20
1.99097459417123
30
0
41
1
10
-30
20
1.87012467714985
30
0
41
1
10
-30.0000000000001
20
1.78043031683038
30
0
41
1
10
-30.0000000000001
20
1.69076251244056
30
0
41
1
10
-30.0000000000001
20
1.60113247848605
30
0
41
1
10
-30.0000000000001
20
1.51155313609783
30
0
41
1
10
-30
20
1.422025757727
30
0
41
1
10
-30
20
1.33256776537956
30
0
41
1
10
-30
20
1.24317741509077
30
0
41
1
10
-30
20
1.15386860885189
30
0
41
1
10
-30.0000000000001
20
1.06464013673647
30
0
41
1
10
-30.0000000000001
20
0.975500136218272
30
0
41
1
10
-30.0000000000001
20
0.886447988926847
30
0
41
1
10
-30
20
0.797485776681157
30
0
41
1
10
-30
20
0.708610852102595
30
0
41
1
10
-30
20
0.619820737442751
30
0
41
1
10
-30.0000000000001
20
0.531109764951253
30
0
41
1
10
-30.0000000000001
20
0.442471434007672
30
0
41
1
10
-30.0000000000001
20
0.35389600796347
30
0
41
1
10
-30
20
0.265373879214252
30
0
41
1
10
-30.0000000000001
20
0.176892371692134
30
0
41
1
10
-30.0000000000001
20
0.0884392148653603
30
0
41
1
10
-30
20
2.04973674E-08
30
0
41
1
10
-30
20
-0.0884392031952927
30
0
41
1
10
-30.0000000000001
20
-0.17689241471993
30
0
41
1
10
-30
20
-0.265373915570166
30
0
41
1
10
-30.0000000000001
20
-0.353895962579457
30
0
41
1
10
-30.0000000000001
20
-0.442471374506823
30
0
41
1
10
-30.0000000000001
20
-0.531109813902617
30
0
41
1
10
-30.0000000000001
20
-0.619820822982092
30
0
41
1
10
-30.0000000000001
20
-0.708610806550041
30
0
41
1
10
-30.0000000000001
20
-0.797485667180155
30
0
41
1
10
-30.0000000000001
20
-0.886448026006832
30
0
41
1
10
-30.0000000000001
20
-0.975500272783734
30
0
41
1
10
-30.0000000000001
20
-1.06464012636249
30
0
41
1
10
-30.0000000000001
20
-1.15386845800864
30
0
41
1
10
-30.0000000000001
20
-1.24317738635409
30
0
41
1
10
-30.0000000000001
20
-1.33256791795026
30
0
41
1
10
-30.0000000000001
20
-1.42202585063242
30
0
41
1
10
-30
20
-1.51155302070467
30
0
41
1
10
-30.0000000000001
20
-1.60113232466114
30
0
41
1
10
-30.0000000000001
20
-1.69076256252154
30
0
41
1
10
-30.0000000000001
20
-1.78043050963586
30
0
41
1
10
-30
20
-1.8701247319346
30
0
41
1
10
-30.0000000000001
20
-1.95984062320622
30
0
41
1
10
-30.0000000000001
20
-2.04956121840732
30
0
41
1
10
-30.0000000000001
20
-2.13928298465066
30
0
41
1
10
-30.0000000000001
20
-2.22899154181985
30
0
41
1
10
-30.0000000000001
20
-2.34971237639809
30
0
41
1
10
-30.0000000000001
20
-2.4670581044816
30
0
41
1
10
-30.0000000000001
20
-2.58749567267537
30
0
41
1
10
-30
20
-2.70788056755165
30
0
41
1
10
-30
20
-2.85589666602101
30
0
41
1
10
-30.0000000000001
20
-3.00356394920902
30
0
41
1
10
-30.0000000000001
20
-3.12322374659235
30
0
41
1
10
-30
20
-3.21216341650845
30
0
41
1
10
-30.0000000000001
20
-3.3009812939207
30
0
41
1
10
-30
20
-3.42015124315623
30
0
41
1
10
-30.0000000000001
20
-3.56678672363677
30
0
41
1
10
-30.0000000000001
20
-3.74316585626099
30
0
41
1
10
-30
20
-3.91890584757377
30
0
41
1
10
-30.0000000000001
20
-4.09396100129445
30
0
41
1
10
-30
20
-4.26829259541555
30
0
41
1
10
-30
20
-4.44186183082067
30
0
41
1
10
-30.0000000000001
20
-4.61463414914383
30
0
41
1
10
-30.0000000000001
20
-4.7865802102549
30
0
41
1
10
-30
20
-4.95767123056285
30
0
41
1
10
-30.0000000000001
20
-5.1278778625566
30
0
41
1
10
-30.0000000000001
20
-5.29717415068041
30
0
41
1
10
-30.0000000000001
20
-5.46553992297873
30
0
41
1
10
-30
20
-5.63295448869494
30
0
41
1
10
-30
20
-5.79939725011724
30
0
41
1
10
-30.0000000000001
20
-5.96484950556558
30
0
41
1
10
-30
20
-6.1292936535483
30
0
41
1
10
-30.0000000000001
20
-6.34834993475849
30
0
41
1
10
-30.0000000000001
20
-6.61705901965075
30
0
41
1
10
-30.0000000000001
20
-6.93651248001379
30
0
41
1
10
-30
20
-7.19804203228605
30
0
41
1
10
-30.0000000000001
20
-7.40685270744592
30
0
41
1
10
-30.0000000000001
20
-7.56161297986853
30
0
41
1
10
-30.0000000000001
20
-7.71524232371232
30
0
41
1
10
-30
20
-7.86773082006815
30
0
41
1
10
-30
20
-8.01906843480592
30
0
41
1
10
-30.0000000000001
20
-8.22021692135615
30
0
41
1
10
-30.0000000000001
20
-8.46674612315104
30
0
41
1
10
-30
20
-8.70931957903713
30
0
41
1
10
-30.0000000000001
20
-8.90249052457438
30
0
41
1
10
-30.0000000000001
20
-9.04555441784282
30
0
41
1
10
-30
20
-9.18740560593946
30
0
41
1
10
-30.0000000000001
20
-9.32804088163152
30
0
41
1
10
-30.0000000000001
20
-9.46744870809565
30
0
41
1
10
-30
20
-9.65245029192155
30
0
41
1
10
-30
20
-9.83272433616031
30
0
41
1
10
-30.0000000000001
20
-10.0126979221092
30
0
41
1
10
-30
20
-10.1909959517429
30
0
41
1
10
-30
20
-10.4091174330405
30
0
41
1
10
-30.0000000000001
20
-10.622984509075
30
0
41
1
10
-30.0000000000001
20
-10.7927086151922
30
0
41
1
10
-30
20
-10.9607029915804
30
0
41
1
10
-30
20
-11.1241532476502
30
0
41
1
10
-30
20
-11.286879520772
30
0
41
1
10
-30
20
-11.4071324437642
30
0
41
1
10
-30.0000000000001
20
-11.526059483736
30
0
41
1
10
-30
20
-11.6834503898541
30
0
41
1
10
-30.0000000000001
20
-11.8363772717575
30
0
41
1
10
-30
20
-11.9883479026383
30
0
41
1
10
-30.0000000000001
20
-12.100530681097
30
0
41
1
10
-30
20
-12.211346817793
30
0
41
1
10
-30.0000000000001
20
-12.3578191303265
30
0
41
1
10
-30
20
-12.4998873251014
30
0
41
1
10
-30.0000000000001
20
-12.640774639564
30
0
41
1
10
-30
20
-12.7446351726738
30
0
41
1
10
-30
20
-12.8470846962099
30
0
41
1
10
-30
20
-12.9822967603461
30
0
41
1
10
-30
20
-13.1131460918651
30
0
41
1
10
-30
20
-13.2425908150844
30
0
41
1
10
-30
20
-13.3378530905647
30
0
41
1
10
-30.0000000000001
20
-13.431655102243
30
0
41
1
10
-30
20
-13.5552284439381
30
0
41
1
10
-30
20
-13.6744629632361
30
0
41
1
10
-30.0000000000001
20
-13.7920640428986
30
0
41
1
10
-30
20
-13.8638084100541
30
0
41
1
10
-30
20
-13.9208384799595
30
0
41
1
10
-30
20
-13.9773600368974
30
0
41
1
10
-30.0000000000001
20
-14.0747689786766
30
0
41
1
10
-30
20
-14.1819460903518
30
0
41
1
10
-30.0000000000001
20
-14.2872490063531
30
0
41
1
10
-30
20
-14.3643499644422
30
0
41
1
10
-30
20
-14.4398725346097
30
0
41
1
10
-30.0000000000001
20
-14.5388306330265
30
0
41
1
10
-30
20
-14.6334478734244
30
0
41
1
10
-30
20
-14.7259318226356
30
0
41
1
10
-30
20
-14.793378171537
30
0
41
1
10
-30.0000000000001
20
-14.8591738437124
30
0
41
1
10
-30.0000000000001
20
-14.9233034607296
30
0
41
1
10
-30
20
-14.9857535133679
30
0
41
1
10
-30
20
-15.0465122321639
30
0
41
1
10
-30.0000000000001
20
-15.1055630695376
30
0
41
1
10
-30.0000000000001
20
-15.1823146060513
30
0
41
1
10
-30.0000000000001
20
-15.2546726312332
30
0
41
1
10
-30.0000000000001
20
-15.3243986497296
30
0
41
1
10
-30.0000000000001
20
-15.3917322452796
30
0
41
1
10
-30
20
-15.4546352005829
30
0
41
1
10
-30.0000000000001
20
-15.5146768877911
30
0
41
1
10
-30
20
-15.5722298782127
30
0
41
1
10
-30
20
-15.6253102421943
30
0
41
1
10
-30
20
-15.6752710489662
30
0
41
1
10
-30
20
-15.7106367362118
30
0
41
1
10
-30.0000000000001
20
-15.7440468008704
30
0
41
1
10
-30
20
-15.7861515665346
30
0
41
1
10
-30
20
-15.8237020814765
30
0
41
1
10
-30
20
-15.8576872273509
30
0
41
1
10
-30
20
-15.8809772969169
30
0
41
1
10
-30
20
-15.9021692417173
30
0
41
1
10
-30
20
-15.921235563756
30
0
41
1
10
-30
20
-15.9381491696965
30
0
41
1
10
-30.0000000000001
20
-15.9528811556007
30
0
41
1
10
-30.0000000000001
20
-15.9654018081648
30
0
41
1
10
-30
20
-15.9756808201301
30
0
41
1
10
-30
20
-15.9836860510364
30
0
41
1
10
-30
20
-15.989385071505
30
0
41
1
10
-30
20
-15.992743547039
30
0
41
1
10
-30
20
-15.9936450285293
30
0
41
1
10
-30.0000000000001
20
-15.9929873332061
30
0
41
1
10
-30.0000000000001
20
-15.9924764713688
30
0
0
SPLINE
5
141
100
AcDbEntity
8
SK1
62
256
6
ByLayer
370
18
48
1
60
0
100
AcDbSpline
70
4
71
2
72
6
73
3
40
0
40
0
40
0
40
1
40
1
40
1
41
1
10
-30
20
-15.9924794145163
30
0
41
1
10
-29.2499999991495
20
-16.4254650261933
30
0
41
1
10
-28.5000000000001
20
-16.8584504491481
30
0
0
SPLINE
5
142
100
AcDbEntity
8
SK1
62
256
6
ByLayer
370
18
48
1
60
0
100
AcDbSpline
70
4
71
2
72
6
73
3
40
0
40
0
40
0
40
1
40
1
40
1
41
1
10
-28.5000000000001
20
16.8584505716143
30
0
41
1
10
-29.2499999991496
20
16.4254651505508
30
0
41
1
10
-30.0000000000001
20
15.9924795407901
30
0
0
SPLINE
5
143
100
AcDbEntity
8
SK1
62
256
6
ByLayer
370
18
48
1
60
0
100
AcDbSpline
70
4
71
2
72
6
73
3
40
0
40
0
40
0
40
1
40
1
40
1
41
1
10
-0.394976888875306
20
-17.3596967958969
30
0
41
1
10
-0.30527722630967
20
-17.3671842624703
30
0
41
1
10
-0.25865874061563
20
-17.4310145299902
30
0
0
SPLINE
5
144
100
AcDbEntity
8
SK1
62
256
6
ByLayer
370
18
48
1
60
0
100
AcDbSpline
70
4
71
2
72
6
73
3
40
0
40
0
40
0
40
1
40
1
40
1
41
1
10
-0.258442643302487
20
17.4312381196178
30
0
41
1
10
-0.305123774552698
20
17.3672404580574
30
0
41
1
10
-0.394976888875306
20
17.3596982935394
30
0
0
SPLINE
5
145
100
AcDbEntity
8
1
62
256
6
ByLayer
370
18
48
1
60
0
100
AcDbSpline
70
4
71
3
72
12
73
8
40
0
40
0
40
0
40
0
40
0.249999999999999
40
0.249999999999999
40
0.499999999999998
40
0.499999999999998
40
1
40
1
40
1
40
1
41
1
10
27.0781746906471
20
-29.3300520937261
30
0
41
1
10
27.1397513918913
20
-29.1488467963858
30
0
41
1
10
27.2059642092888
20
-28.969844772566
30
0
41
1
10
27.3471187549986
20
-28.6200213294749
30
0
41
1
10
27.4221968344256
20
-28.4487655656581
30
0
41
1
10
27.6623794039584
20
-27.9461223226015
30
0
41
1
10
27.8422145890966
20
-27.6257979183004
30
0
41
1
10
28.0477432816514
20
-27.3213031945808
30
0
0
SPLINE
5
146
100
AcDbEntity
8
1
62
256
6
ByLayer
370
18
48
1
60
0
100
AcDbSpline
70
4
71
3
72
12
73
8
40
0
40
0
40
0
40
0
40
0.5
40
0.5
40
0.75
40
0.75
40
1
40
1
40
1
40
1
41
1
10
27.0781746906471
20
-29.3300520937261
30
0
41
1
10
26.7026122618717
20
-28.8809194416279
30
0
41
1
10
26.3500685911913
20
-28.4286105789896
30
0
41
1
10
25.8579923411701
20
-27.7477277977639
30
0
41
1
10
25.700081860024
20
-27.5203308501775
30
0
41
1
10
25.397227498453
20
-27.0652931467603
30
0
41
1
10
25.2539583545001
20
-26.8401698439014
30
0
41
1
10
25.1188273476789
20
-26.6177224253949
30
0
0
SPLINE
5
147
100
AcDbEntity
8
1
62
256
6
ByLayer
370
18
48
1
60
0
100
AcDbSpline
70
4
71
3
72
10
73
6
40
0
40
0
40
0
40
0
40
0.500000000000001
40
0.500000000000001
40
1
40
1
40
1
40
1
41
1
10
32.0811321588969
20
-22.3984655166026
30
0
41
1
10
31.7733754833179
20
-22.624824614001
30
0
41
1
10
31.4769699940591
20
-22.8736299370099
30
0
41
1
10
30.9122009831858
20
-23.4203936943151
30
0
41
1
10
30.6437858909317
20
-23.7183083991132
30
0
41
1
10
30.3929538453034
20
-24.0443478146899
30
0
0
SPLINE
5
148
100
AcDbEntity
8
1
62
256
6
ByLayer
370
18
48
1
60
0
100
AcDbSpline
70
4
71
3
72
17
73
13
40
0
40
0
40
0
40
0
40
0.25
40
0.25
40
0.5
40
0.5
40
0.625
40
0.625
40
0.75
40
0.875
40
0.875
40
1
40
1
40
1
40
1
41
1
10
27.0781746906471
20
-29.3300520937261
30
0
41
1
10
27.1182905691966
20
-29.3987520885189
30
0
41
1
10
27.1728257894451
20
-29.4799051224432
30
0
41
1
10
27.3093691521285
20
-29.6652815444935
30
0
41
1
10
27.3892063261961
20
-29.7665769546513
30
0
41
1
10
27.5257011672132
20
-29.9307722449042
30
0
41
1
10
27.5743476187069
20
-29.9879418422051
30
0
41
1
10
27.6759135806507
20
-30.1046895056018
30
0
41
1
10
27.7813089412961
20
-30.2233718110674
30
0
41
1
10
27.8942422773394
20
-30.3458259999225
30
0
41
1
10
28.0110623563456
20
-30.4702136540428
30
0
41
1
10
28.0716584773653
20
-30.5336107256718
30
0
41
1
10
28.1326989400261
20
-30.596373851346
30
0
0
SPLINE
5
149
100
AcDbEntity
8
1
62
256
6
ByLayer
370
18
48
1
60
0
100
AcDbSpline
70
4
71
3
72
12
73
8
40
0
40
0
40
0
40
0
40
0.250000000000002
40
0.250000000000002
40
0.500000000000001
40
0.500000000000001
40
1
40
1
40
1
40
1
41
1
10
28.1326989400262
20
-30.596373851346
30
0
41
1
10
28.3056207962897
20
-30.7741758489619
30
0
41
1
10
28.4807249285259
20
-30.9503701083569
30
0
41
1
10
28.835342685822
20
-31.2995100416168
30
0
41
1
10
29.0150779698316
20
-31.4726606088481
30
0
41
1
10
29.5587592183467
20
-31.9851176794003
30
0
41
1
10
29.9273967537979
20
-32.3176909654721
30
0
41
1
10
30.3021132064604
20
-32.6413526170396
30
0
0
SPLINE
5
14A
100
AcDbEntity
8
1
62
256
6
ByLayer
370
18
48
1
60
0
100
AcDbSpline
70
4
71
3
72
8
73
4
40
0
40
0
40
0
40
0
40
1
40
1
40
1
40
1
41
1
10
29.7341483635199
20
-32.2720997459919
30
0
41
1
10
29.8712509423937
20
-32.3927969385574
30
0
41
1
10
30.0600191687365
20
-32.5158559317873
30
0
41
1
10
30.3021132064622
20
-32.6413526170412
30
0
0
SPLINE
5
14B
100
AcDbEntity
8
1
62
256
6
ByLayer
370
18
48
1
60
0
100
AcDbSpline
70
4
71
3
72
18
73
14
40
0
40
0
40
0
40
0
40
0.25
40
0.25
40
0.374999999999998
40
0.374999999999998
40
0.499999999999996
40
0.499999999999996
40
0.749999999999998
40
0.749999999999998
40
0.874999999999999
40
0.874999999999999
40
1
40
1
40
1
40
1
41
1
10
33.3439557125104
20
-22.3031970194766
30
0
41
1
10
33.0685871542931
20
-22.326626182072
30
0
41
1
10
32.8039737213508
20
-22.3801322113327
30
0
41
1
10
32.4198618039802
20
-22.5010823883425
30
0
41
1
10
32.293996002501
20
-22.5482578728386
30
0
41
1
10
32.0463837802262
20
-22.6564014191352
30
0
41
1
10
31.9247404213782
20
-22.7174416264436
30
0
41
1
10
31.5738893853587
20
-22.916793987612
30
0
41
1
10
31.3556222738965
20
-23.0723329074205
30
0
41
1
10
31.0496004364481
20
-23.3394602912482
30
0
41
1
10
30.9508793307221
20
-23.4346040930945
30
0
41
1
10
30.7643574639195
20
-23.6327060818453
30
0
41
1
10
30.6760924291573
20
-23.7360065304403
30
0
41
1
10
30.5926780097286
20
-23.8435301072254
30
0
0
SPLINE
5
14C
100
AcDbEntity
8
1
62
256
6
ByLayer
370
18
48
1
60
0
100
AcDbSpline
70
4
71
3
72
8
73
4
40
0
40
0
40
0
40
0
40
1
40
1
40
1
40
1
41
1
10
37.2963102149428
20
-19.8372563920961
30
0
41
1
10
37.2914039899147
20
-19.9119615311014
30
0
41
1
10
37.2902856939346
20
-19.9872036596143
30
0
41
1
10
37.2930133028451
20
-20.0630541899026
30
0
0
SPLINE
5
14D
100
AcDbEntity
8
1
62
256
6
ByLayer
370
18
48
1
60
0
100
AcDbSpline
70
4
71
3
72
8
73
4
40
0
40
0
40
0
40
0
40
1
40
1
40
1
40
1
41
1
10
43.1419068368568
20
-19.5602618076567
30
0
41
1
10
43.0062170488521
20
-19.3406000998626
30
0
41
1
10
42.8737390634541
20
-19.1258879962107
30
0
41
1
10
42.7446221159107
20
-18.9163554782692
30
0
0
SPLINE
5
14E
100
AcDbEntity
8
1
62
256
6
ByLayer
370
18
48
1
60
0
100
AcDbSpline
70
4
71
3
72
10
73
6
40
0
40
0
40
0
40
0
40
0.924641457004864
40
0.924641457004864
40
1
40
1
40
1
40
1
41
1
10
42.7446221159107
20
-18.9163554782692
30
0
41
1
10
42.6503930937771
20
-18.7634395005725
30
0
41
1
10
42.5404760208817
20
-18.6239796727291
30
0
41
1
10
42.4052520620931
20
-18.4868874731627
30
0
41
1
10
42.3949604412321
20
-18.4766415796736
30
0
41
1
10
42.3845668710318
20
-18.4664812602602
30
0
0
SPLINE
5
14F
100
AcDbEntity
8
1
62
256
6
ByLayer
370
18
48
1
60
0
100
AcDbSpline
70
4
71
3
72
12
73
8
40
0
40
0
40
0
40
0
40
0.364630707876731
40
0.364630707876731
40
0.729261415753461
40
0.729261415753461
40
1
40
1
40
1
40
1
41
1
10
49.5922780223024
20
-18.5815215419825
30
0
41
1
10
49.5026743075099
20
-18.4356487573861
30
0
41
1
10
49.4162481038451
20
-18.2943622234183
30
0
41
1
10
49.2487610580781
20
-18.0195332331119
30
0
41
1
10
49.167654212404
20
-17.8859119233302
30
0
41
1
10
49.0307599711642
20
-17.6595211270544
30
0
41
1
10
48.9748056789964
20
-17.5667088740665
30
0
41
1
10
48.9209204921607
20
-17.4770773745478
30
0
0
SPLINE
5
150
100
AcDbEntity
8
1
62
256
6
ByLayer
370
18
48
1
60
0
100
AcDbSpline
70
4
71
3
72
8
73
4
40
0
40
0
40
0
40
0
40
1
40
1
40
1
40
1
41
1
10
45.2119295104938
20
-21.5811232939159
30
0
41
1
10
44.9272161478617
20
-21.5655801255982
30
0
41
1
10
44.6427175847544
20
-21.5503148235154
30
0
41
1
10
44.3579265956789
20
-21.5346855997899
30
0
0
SPLINE
5
151
100
AcDbEntity
8
1
62
256
6
ByLayer
370
18
48
1
60
0
100
AcDbSpline
70
4
71
3
72
16
73
12
40
0
40
0
40
0
40
0
40
0.249999999999999
40
0.249999999999999
40
0.499999999999998
40
0.499999999999998
40
0.749999999999997
40
0.749999999999997
40
0.874999999999999
40
0.874999999999999
40
1
40
1
40
1
40
1
41
1
10
44.3579265956789
20
-21.5346855997899
30
0
41
1
10
44.2521275488737
20
-21.3632238808742
30
0
41
1
10
44.1495822136249
20
-21.1968038151041
30
0
41
1
10
43.9484250526314
20
-20.8700586892886
30
0
41
1
10
43.8498665896632
20
-20.7098164775275
30
0
41
1
10
43.6530399281596
20
-20.3897811016373
30
0
41
1
10
43.5547434545684
20
-20.2299437937999
30
0
41
1
10
43.4035618297122
20
-19.9844195502214
30
0
41
1
10
43.3525297610492
20
-19.9015930231878
30
0
41
1
10
43.2486387914006
20
-19.7331200802081
30
0
41
1
10
43.1957712126435
20
-19.6474602692989
30
0
41
1
10
43.1419068368568
20
-19.5602618076567
30
0
0
SPLINE
5
152
100
AcDbEntity
8
1
62
256
6
ByLayer
370
18
48
1
60
0
100
AcDbSpline
70
4
71
3
72
8
73
4
40
0
40
0
40
0
40
0
40
1
40
1
40
1
40
1
41
1
10
41.8000586541564
20
-28.8892664541282
30
0
41
1
10
41.8939168304325
20
-28.9917353964087
30
0
41
1
10
41.9965933995536
20
-29.0877609109994
30
0
41
1
10
42.1060515454591
20
-29.1750612052872
30
0
0
SPLINE
5
153
100
AcDbEntity
8
1
62
256
6
ByLayer
370
18
48
1
60
0
100
AcDbSpline
70
4
71
3
72
8
73
4
40
0
40
0
40
0
40
0
40
1
40
1
40
1
40
1
41
1
10
42.1060515454594
20
-29.1750612052877
30
0
41
1
10
42.1295727478592
20
-29.2006784814012
30
0
41
1
10
42.1530937639356
20
-29.2262954557226
30
0
41
1
10
42.1766145927983
20
-29.2519121268097
30
0
0
SPLINE
5
154
100
AcDbEntity
8
1
62
256
6
ByLayer
370
18
48
1
60
0
100
AcDbSpline
70
4
71
3
72
8
73
4
40
0
40
0
40
0
40
0
40
1
40
1
40
1
40
1
41
1
10
51.0527742914508
20
-27.3361737567424
30
0
41
1
10
50.9681068611892
20
-27.3826887399168
30
0
41
1
10
50.8833988576364
20
-27.4291819877802
30
0
41
1
10
50.7986305987482
20
-27.4756429565648
30
0
0
SPLINE
5
155
100
AcDbEntity
8
1
62
256
6
ByLayer
370
18
48
1
60
0
100
AcDbSpline
70
4
71
3
72
8
73
4
40
0
40
0
40
0
40
0
40
1
40
1
40
1
40
1
41
1
10
46.7728443929111
20
-26.8473959449744
30
0
41
1
10
46.8507739637149
20
-26.904674920792
30
0
41
1
10
46.9287329416367
20
-26.9619445055976
30
0
41
1
10
47.0067325333434
20
-27.0192011206
30
0
0
SPLINE
5
156
100
AcDbEntity
8
1
62
256
6
ByLayer
370
18
48
1
60
0
100
AcDbSpline
70
4
71
3
72
8
73
4
40
0
40
0
40
0
40
0
40
1
40
1
40
1
40
1
41
1
10
46.819550068671
20
-28.4253495775278
30
0
41
1
10
46.7152978028986
20
-28.4470985930884
30
0
41
1
10
46.6110971873598
20
-28.4688689737058
30
0
41
1
10
46.506931350815
20
-28.4906537406124
30
0
0
SPLINE
5
157
100
AcDbEntity
8
1
62
256
6
ByLayer
370
18
48
1
60
0
100
AcDbSpline
70
4
71
3
72
8
73
4
40
0
40
0
40
0
40
0
40
1
40
1
40
1
40
1
41
1
10
50.6114481340757
20
-28.8817914134926
30
0
41
1
10
50.6842986333635
20
-28.9248588057194
30
0
41
1
10
50.7570836138432
20
-28.9679334590238
30
0
41
1
10
50.829824476841
20
-29.0110130016181
30
0
0
SPLINE
5
158
100
AcDbEntity
8
1
62
256
6
ByLayer
370
18
48
1
60
0
100
AcDbSpline
70
4
71
3
72
10
73
6
40
0
40
0
40
0
40
0
40
0.88040843817866
40
0.88040843817866
40
1
40
1
40
1
40
1
41
1
10
46.4171469391238
20
-28.4700523765677
30
0
41
1
10
46.4478465936682
20
-28.5166430779579
30
0
41
1
10
46.4798783839666
20
-28.5613963432994
30
0
41
1
10
46.5175279976126
20
-28.6100199710917
30
0
41
1
10
46.5220533005449
20
-28.6157997588707
30
0
41
1
10
46.5265991414615
20
-28.6215428480027
30
0
0
SPLINE
5
159
100
AcDbEntity
8
1
62
256
6
ByLayer
370
18
48
1
60
0
100
AcDbSpline
70
4
71
3
72
14
73
10
40
0
40
0
40
0
40
0
40
0.0871232409684606
40
0.0871232409684606
40
0.333930309704229
40
0.333930309704229
40
0.580737378439998
40
0.580737378439998
40
1
40
1
40
1
40
1
41
1
10
50.4810377421695
20
-26.5157977371892
30
0
41
1
10
50.4747351191945
20
-26.4981892043889
30
0
41
1
10
50.4681617450582
20
-26.4801765680842
30
0
41
1
10
50.4420139974287
20
-26.4105729878823
30
0
41
1
10
50.4208372288552
20
-26.3580240254865
30
0
41
1
10
50.3744287103758
20
-26.2525587145025
30
0
41
1
10
50.3490692356613
20
-26.1993576416914
30
0
41
1
10
50.2757021507681
20
-26.0580461121748
30
0
41
1
10
50.2244626786883
20
-25.9717568586183
30
0
41
1
10
50.1679663234786
20
-25.8885551198473
30
0
0
SPLINE
5
15A
100
AcDbEntity
8
1
62
256
6
ByLayer
370
18
48
1
60
0
100
AcDbSpline
70
4
71
3
72
10
73
6
40
0
40
0
40
0
40
0
40
0.861077622540561
40
0.861077622540561
40
1
40
1
40
1
40
1
41
1
10
46.6201423211739
20
-29.1566425937677
30
0
41
1
10
46.7640739231378
20
-29.1876913293705
30
0
41
1
10
46.9039847150439
20
-29.2187295112201
30
0
41
1
10
47.0622557883445
20
-29.2547641968918
30
0
41
1
10
47.0841577174575
20
-29.2597699967702
30
0
41
1
10
47.1059662444639
20
-29.2647755514882
30
0
0
SPLINE
5
15B
100
AcDbEntity
8
1
62
256
6
ByLayer
370
18
48
1
60
0
100
AcDbSpline
70
4
71
3
72
8
73
4
40
0
40
0
40
0
40
0
40
1
40
1
40
1
40
1
41
1
10
41.3466692381258
20
-28.1985581379452
30
0
41
1
10
41.3693062924881
20
-28.2036565040747
30
0
41
1
10
41.3919438312074
20
-28.2087538399368
30
0
41
1
10
41.4145818660933
20
-28.2138501204115
30
0
0
LINE
5
70
100
AcDbEntity
8
1
62
256
6
ByLayer
370
18
48
1
60
0
100
AcDbLine
10
24.030674
20
-6.332262
30
0
11
24.8967
21
-6.724027
31
0
39
0
210
0
220
0
230
1
0
LINE
5
72
100
AcDbEntity
8
1
62
256
6
ByLayer
370
18
48
1
60
0
100
AcDbLine
10
23.164649
20
-7.037135
30
0
11
24.030674
21
-6.332262
31
0
39
0
210
0
220
0
230
1
0
LINE
5
73
100
AcDbEntity
8
1
62
256
6
ByLayer
370
18
48
1
60
0
100
AcDbLine
10
23.164649
20
-8.133775
30
0
11
23.164649
21
-7.037135
31
0
39
0
210
0
220
0
230
1
0
LINE
5
74
100
AcDbEntity
8
1
62
256
6
ByLayer
370
18
48
1
60
0
100
AcDbLine
10
24.8967
20
-6.724027
30
0
11
24.8967
21
-7.820667
31
0
39
0
210
0
220
0
230
1
0
LINE
5
75
100
AcDbEntity
8
1
62
256
6
ByLayer
370
18
48
1
60
0
100
AcDbLine
10
24.030674
20
-8.52554
30
0
11
23.164649
21
-8.133775
31
0
39
0
210
0
220
0
230
1
0
LINE
5
76
100
AcDbEntity
8
1
62
256
6
ByLayer
370
18
48
1
60
0
100
AcDbLine
10
24.8967
20
-7.820667
30
0
11
24.030674
21
-8.52554
31
0
39
0
210
0
220
0
230
1
0
LINE
5
77
100
AcDbEntity
8
1
62
256
6
ByLayer
370
18
48
1
60
0
100
AcDbLine
10
23.280674
20
-8.118801
30
0
11
23.16464
21
-8.066311
31
0
39
0
210
0
220
0
230
1
0
LINE
5
78
100
AcDbEntity
8
1
62
256
6
ByLayer
370
18
48
1
60
0
100
AcDbLine
10
23.280674
20
-8.118801
30
0
11
24.030674
21
-8.52554
31
0
39
0
210
0
220
0
230
1
0
LINE
5
79
100
AcDbEntity
8
1
62
256
6
ByLayer
370
18
48
1
60
0
100
AcDbLine
10
24.1467
20
-7.413927
30
0
11
24.8967
21
-7.820667
31
0
39
0
210
0
220
0
230
1
0
LINE
5
7A
100
AcDbEntity
8
1
62
256
6
ByLayer
370
18
48
1
60
0
100
AcDbLine
10
24.1467
20
-6.384749
30
0
11
24.1467
21
-7.413927
31
0
39
0
210
0
220
0
230
1
0
LINE
5
7B
100
AcDbEntity
8
1
62
256
6
ByLayer
370
18
48
1
60
0
100
AcDbLine
10
24.1467
20
-7.413927
30
0
11
23.280674
21
-8.118801
31
0
39
0
210
0
220
0
230
1
0
LINE
5
7C
100
AcDbEntity
8
1
62
256
6
ByLayer
370
18
48
1
60
0
100
AcDbLine
10
53.71466
20
-23.749737
30
0
11
59.885066
21
-33.795017
31
0
39
0
210
0
220
0
230
1
0
LINE
5
7D
100
AcDbEntity
8
1
62
256
6
ByLayer
370
18
48
1
60
0
100
AcDbLine
10
59.158974
20
-34.998916
30
0
11
47.304772
21
-34.377663
31
0
39
0
210
0
220
0
230
1
0
LINE
5
7E
100
AcDbEntity
8
1
62
256
6
ByLayer
370
18
48
1
60
0
100
AcDbLine
10
46.767247
20
-34.215685
30
0
11
44.618031
21
-32.94383
31
0
39
0
210
0
220
0
230
1
0
LINE
5
7F
100
AcDbEntity
8
1
62
256
6
ByLayer
370
18
48
1
60
0
100
AcDbLine
10
38.774972
20
-21.302568
30
0
11
50.629174
21
-21.92382
31
0
39
0
210
0
220
0
230
1
0
LINE
5
80
100
AcDbEntity
8
1
62
256
6
ByLayer
370
18
48
1
60
0
100
AcDbLine
10
38.156111
20
-20.517655
30
0
11
38.774972
21
-21.302568
31
0
39
0
210
0
220
0
230
1
0
LINE
5
81
100
AcDbEntity
8
1
62
256
6
ByLayer
370
18
48
1
60
0
100
AcDbLine
10
38.156111
20
-20.517655
30
0
11
43.875393
21
-20.81739
31
0
39
0
210
0
220
0
230
1
0
LINE
5
82
100
AcDbEntity
8
1
62
256
6
ByLayer
370
18
48
1
60
0
100
AcDbLine
10
41.844945
20
-28.908951
30
0
11
39.723771
21
-25.45573
31
0
39
0
210
0
220
0
230
1
0
LINE
5
83
100
AcDbEntity
8
1
62
256
6
ByLayer
370
18
48
1
60
0
100
AcDbLine
10
53.637047
20
-23.638511
30
0
11
53.018187
21
-22.853598
31
0
39
0
210
0
220
0
230
1
0
LINE
5
84
100
AcDbEntity
8
1
62
256
6
ByLayer
370
18
48
1
60
0
100
AcDbLine
10
44.229549
20
-32.577552
30
0
11
44.296898
21
-32.662973
31
0
39
0
210
0
220
0
230
1
0
LINE
5
85
100
AcDbEntity
8
1
62
256
6
ByLayer
370
18
48
1
60
0
100
AcDbLine
10
34.739593
20
-25.325088
30
0
11
34.604905
21
-25.001377
31
0
39
0
210
0
220
0
230
1
0
LINE
5
86
100
AcDbEntity
8
1
62
256
6
ByLayer
370
18
48
1
60
0
100
AcDbLine
10
35.068426
20
-26.115411
30
0
11
35.45826
21
-26.609844
31
0
39
0
210
0
220
0
230
1
0
LINE
5
87
100
AcDbEntity
8
1
62
256
6
ByLayer
370
18
48
1
60
0
100
AcDbLine
10
35.068426
20
-26.115411
30
0
11
34.739593
21
-25.325088
31
0
39
0
210
0
220
0
230
1
0
LINE
5
88
100
AcDbEntity
8
1
62
256
6
ByLayer
370
18
48
1
60
0
100
AcDbLine
10
33.162932
20
-27.38752
30
0
11
34.017319
21
-27.490365
31
0
39
0
210
0
220
0
230
1
0
LINE
5
89
100
AcDbEntity
8
1
62
256
6
ByLayer
370
18
48
1
60
0
100
AcDbLine
10
34.017319
20
-27.490365
30
0
11
34.407153
21
-27.984799
31
0
39
0
210
0
220
0
230
1
0
LINE
5
8A
100
AcDbEntity
8
1
62
256
6
ByLayer
370
18
48
1
60
0
100
AcDbLine
10
32.497365
20
-27.307404
30
0
11
33.162932
21
-27.38752
31
0
39
0
210
0
220
0
230
1
0
LINE
5
8B
100
AcDbEntity
8
1
62
256
6
ByLayer
370
18
48
1
60
0
100
AcDbLine
10
30.49324
20
-28.7347
30
0
11
30.546501
21
-28.802253
31
0
39
0
210
0
220
0
230
1
0
LINE
5
8C
100
AcDbEntity
8
1
62
256
6
ByLayer
370
18
48
1
60
0
100
AcDbLine
10
34.542873
20
-26.802888
30
0
11
35.068426
21
-26.115411
31
0
39
0
210
0
220
0
230
1
0
LINE
5
8D
100
AcDbEntity
8
1
62
256
6
ByLayer
370
18
48
1
60
0
100
AcDbLine
10
36.828706
20
-23.849082
30
0
11
36.775444
21
-23.781529
31
0
39
0
210
0
220
0
230
1
0
LINE
5
8E
100
AcDbEntity
8
1
62
256
6
ByLayer
370
18
48
1
60
0
100
AcDbLine
10
34.017319
20
-27.490365
30
0
11
34.542873
21
-26.802888
31
0
39
0
210
0
220
0
230
1
0
LINE
5
8F
100
AcDbEntity
8
1
62
256
6
ByLayer
370
18
48
1
60
0
100
AcDbLine
10
37.933393
20
-3.860734
30
0
11
37.933393
21
-4.994368
31
0
39
0
210
0
220
0
230
1
0
LINE
5
90
100
AcDbEntity
8
1
62
256
6
ByLayer
370
18
48
1
60
0
100
AcDbLine
10
37.034599
20
-3.377269
30
0
11
37.933393
21
-3.860734
31
0
39
0
210
0
220
0
230
1
0
LINE
5
91
100
AcDbEntity
8
1
62
256
6
ByLayer
370
18
48
1
60
0
100
AcDbLine
10
36.135805
20
-4.02744
30
0
11
37.034599
21
-3.377269
31
0
39
0
210
0
220
0
230
1
0
LINE
5
92
100
AcDbEntity
8
1
62
256
6
ByLayer
370
18
48
1
60
0
100
AcDbLine
10
36.135805
20
-5.161075
30
0
11
36.135805
21
-4.02744
31
0
39
0
210
0
220
0
230
1
0
LINE
5
93
100
AcDbEntity
8
1
62
256
6
ByLayer
370
18
48
1
60
0
100
AcDbLine
10
37.034599
20
-5.644539
30
0
11
36.135805
21
-5.161075
31
0
39
0
210
0
220
0
230
1
0
LINE
5
94
100
AcDbEntity
8
1
62
256
6
ByLayer
370
18
48
1
60
0
100
AcDbLine
10
37.933393
20
-4.994368
30
0
11
37.034599
21
-5.644539
31
0
39
0
210
0
220
0
230
1
0
LINE
5
95
100
AcDbEntity
8
1
62
256
6
ByLayer
370
18
48
1
60
0
100
AcDbLine
10
37.275837
20
-3.604385
30
0
11
37.933393
21
-3.860734
31
0
39
0
210
0
220
0
230
1
0
LINE
5
96
100
AcDbEntity
8
1
62
256
6
ByLayer
370
18
48
1
60
0
100
AcDbLine
10
36.957411
20
-3.433102
30
0
11
37.275837
21
-3.604385
31
0
39
0
210
0
220
0
230
1
0
LINE
5
97
100
AcDbEntity
8
1
62
256
6
ByLayer
370
18
48
1
60
0
100
AcDbLine
10
37.275837
20
-4.738019
30
0
11
36.45424
21
-5.332346
31
0
39
0
210
0
220
0
230
1
0
LINE
5
98
100
AcDbEntity
8
1
62
256
6
ByLayer
370
18
48
1
60
0
100
AcDbLine
10
37.275837
20
-4.738019
30
0
11
37.933393
21
-4.994368
31
0
39
0
210
0
220
0
230
1
0
LINE
5
99
100
AcDbEntity
8
1
62
256
6
ByLayer
370
18
48
1
60
0
100
AcDbLine
10
37.275837
20
-3.604385
30
0
11
37.275837
21
-4.738019
31
0
39
0
210
0
220
0
230
1
0
LINE
5
9A
100
AcDbEntity
8
1
62
256
6
ByLayer
370
18
48
1
60
0
100
AcDbLine
10
25.118827
20
-27.341463
30
0
11
25.118827
21
-26.617722
31
0
39
0
210
0
220
0
230
1
0
LINE
5
9B
100
AcDbEntity
8
1
62
256
6
ByLayer
370
18
48
1
60
0
100
AcDbLine
10
21.696522
20
25.15
30
0
11
21.696522
21
-22.398466
31
0
39
0
210
0
220
0
230
1
0
LINE
5
9C
100
AcDbEntity
8
1
62
256
6
ByLayer
370
18
48
1
60
0
100
AcDbLine
10
20.363293
20
-25
30
0
11
20.363293
21
24.806431
31
0
39
0
210
0
220
0
230
1
0
LINE
5
9D
100
AcDbEntity
8
1
62
256
6
ByLayer
370
18
48
1
60
0
100
AcDbLine
10
20.363293
20
24.806431
30
0
11
20.363293
21
25
31
0
39
0
210
0
220
0
230
1
0
LINE
5
9E
100
AcDbEntity
8
1
62
256
6
ByLayer
370
18
48
1
60
0
100
AcDbLine
10
22.500057
20
25.15
30
0
11
21.696522
21
25.15
31
0
39
0
210
0
220
0
230
1
0
LINE
5
9F
100
AcDbEntity
8
1
62
256
6
ByLayer
370
18
48
1
60
0
100
AcDbLine
10
32.081132
20
-22.398466
30
0
11
21.696522
21
-22.398466
31
0
39
0
210
0
220
0
230
1
0
LINE
5
A0
100
AcDbEntity
8
1
62
256
6
ByLayer
370
18
48
1
60
0
100
AcDbLine
10
0.3
20
-25
30
0
11
0.3
21
25
31
0
39
0
210
0
220
0
230
1
0
LINE
5
A1
100
AcDbEntity
8
1
62
256
6
ByLayer
370
18
48
1
60
0
100
AcDbLine
10
0.3
20
25
30
0
11
0
21
24.7
31
0
39
0
210
0
220
0
230
1
0
LINE
5
A2
100
AcDbEntity
8
1
62
256
6
ByLayer
370
18
48
1
60
0
100
AcDbLine
10
0
20
-24.7
30
0
11
0.3
21
-25
31
0
39
0
210
0
220
0
230
1
0
LINE
5
A3
100
AcDbEntity
8
1
62
256
6
ByLayer
370
18
48
1
60
0
100
AcDbLine
10
0
20
-24.7
30
0
11
0
21
24.7
31
0
39
0
210
0
220
0
230
1
0
LINE
5
A4
100
AcDbEntity
8
1
62
256
6
ByLayer
370
18
48
1
60
0
100
AcDbLine
10
0.3
20
-25
30
0
11
20.363293
21
-25
31
0
39
0
210
0
220
0
230
1
0
LINE
5
A5
100
AcDbEntity
8
1
62
256
6
ByLayer
370
18
48
1
60
0
100
AcDbLine
10
20.363293
20
25
30
0
11
0.3
21
25
31
0
39
0
210
0
220
0
230
1
0
LINE
5
A6
100
AcDbEntity
8
1
62
256
6
ByLayer
370
18
48
1
60
0
100
AcDbLine
10
8.538675
20
7.529667
30
0
11
11.461325
21
7.529667
31
0
39
0
210
0
220
0
230
1
0
LINE
5
A7
100
AcDbEntity
8
1
62
256
6
ByLayer
370
18
48
1
60
0
100
AcDbLine
10
11.461325
20
23.83913
30
0
11
8.538675
21
23.83913
31
0
39
0
210
0
220
0
230
1
0
LINE
5
A8
100
AcDbEntity
8
1
62
256
6
ByLayer
370
18
48
1
60
0
100
AcDbLine
10
8.538675
20
-23.83913
30
0
11
11.461325
21
-23.83913
31
0
39
0
210
0
220
0
230
1
0
LINE
5
A9
100
AcDbEntity
8
1
62
256
6
ByLayer
370
18
48
1
60
0
100
AcDbLine
10
11.461325
20
-7.529667
30
0
11
8.538675
21
-7.529667
31
0
39
0
210
0
220
0
230
1
0
LINE
5
AA
100
AcDbEntity
8
1
62
256
6
ByLayer
370
18
48
1
60
0
100
AcDbLine
10
38.285554
20
-19.456123
30
0
11
39.515332
21
-18.842218
31
0
39
0
210
0
220
0
230
1
0
LINE
5
AB
100
AcDbEntity
8
1
62
256
6
ByLayer
370
18
48
1
60
0
100
AcDbLine
10
46.006346
20
-20.517852
30
0
11
47.870412
21
-19.436724
31
0
39
0
210
0
220
0
230
1
0
LINE
5
AC
100
AcDbEntity
8
1
62
256
6
ByLayer
370
18
48
1
60
0
100
AcDbLine
10
42.521666
20
-6.397718
30
0
11
48.728753
21
-16.842216
31
0
39
0
210
0
220
0
230
1
0
LINE
5
AD
100
AcDbEntity
8
1
62
256
6
ByLayer
370
18
48
1
60
0
100
AcDbLine
10
11.461325
20
-23.83913
30
0
11
11.461325
21
-7.529667
31
0
39
0
210
0
220
0
230
1
0
LINE
5
AE
100
AcDbEntity
8
1
62
256
6
ByLayer
370
18
48
1
60
0
100
AcDbLine
10
11.894338
20
-23.666502
30
0
11
11.894338
21
-8.055848
31
0
39
0
210
0
220
0
230
1
0
LINE
5
AF
100
AcDbEntity
8
1
62
256
6
ByLayer
370
18
48
1
60
0
100
AcDbLine
10
8.105662
20
8.055848
30
0
11
8.105662
21
23.666502
31
0
39
0
210
0
220
0
230
1
0
LINE
5
B0
100
AcDbEntity
8
1
62
256
6
ByLayer
370
18
48
1
60
0
100
AcDbLine
10
8.538675
20
7.529667
30
0
11
8.538675
21
23.83913
31
0
39
0
210
0
220
0
230
1
0
LINE
5
B1
100
AcDbEntity
8
1
62
256
6
ByLayer
370
18
48
1
60
0
100
AcDbLine
10
11.461325
20
7.529667
30
0
11
11.461325
21
23.83913
31
0
39
0
210
0
220
0
230
1
0
LINE
5
B2
100
AcDbEntity
8
1
62
256
6
ByLayer
370
18
48
1
60
0
100
AcDbLine
10
11.894338
20
8.055848
30
0
11
11.894338
21
23.666502
31
0
39
0
210
0
220
0
230
1
0
LINE
5
B3
100
AcDbEntity
8
1
62
256
6
ByLayer
370
18
48
1
60
0
100
AcDbLine
10
8.105662
20
-23.666502
30
0
11
8.105662
21
-8.055848
31
0
39
0
210
0
220
0
230
1
0
LINE
5
B4
100
AcDbEntity
8
1
62
256
6
ByLayer
370
18
48
1
60
0
100
AcDbLine
10
8.538675
20
-23.83913
30
0
11
8.538675
21
-7.529667
31
0
39
0
210
0
220
0
230
1
0
LINE
5
B5
100
AcDbEntity
8
SK1
62
256
6
ByLayer
370
18
48
1
60
0
100
AcDbLine
10
-1.307107
20
-3.918065
30
0
11
-1.307107
21
3.918065
31
0
39
0
210
0
220
0
230
1
0
LINE
5
B7
100
AcDbEntity
8
SK1
62
256
6
ByLayer
370
18
48
1
60
0
100
AcDbLine
10
-0.2
20
6.103447
30
0
11
-0.2
21
17.833485
31
0
39
0
210
0
220
0
230
1
0
LINE
5
B8
100
AcDbEntity
8
SK1
62
256
6
ByLayer
370
18
48
1
60
0
100
AcDbLine
10
-0.2
20
-17.833485
30
0
11
-0.2
21
-6.103448
31
0
39
0
210
0
220
0
230
1
0
LINE
5
B9
100
AcDbEntity
8
1
62
256
6
ByLayer
370
18
48
1
60
0
100
AcDbLine
10
44.707688
20
-20.222771
30
0
11
44.034448
21
-19.368886
31
0
39
0
210
0
220
0
230
1
0
LINE
5
BA
100
AcDbEntity
8
1
62
256
6
ByLayer
370
18
48
1
60
0
100
AcDbLine
10
44.130922
20
-19.517151
30
0
11
44.791944
21
-20.355539
31
0
39
0
210
0
220
0
230
1
0
LINE
5
BB
100
AcDbEntity
8
1
62
256
6
ByLayer
370
18
48
1
60
0
100
AcDbLine
10
37.293013
20
-20.063054
30
0
11
35.151368
21
-21.102616
31
0
39
0
210
0
220
0
230
1
0
LINE
5
BC
100
AcDbEntity
8
1
62
256
6
ByLayer
370
18
48
1
60
0
100
AcDbLine
10
29.855532
20
-27.552758
30
0
11
28.132699
21
-30.596374
31
0
39
0
210
0
220
0
230
1
0
LINE
5
BD
100
AcDbEntity
8
1
62
256
6
ByLayer
370
18
48
1
60
0
100
AcDbLine
10
48.058488
20
-20.149644
30
0
11
46.189711
21
-21.224797
31
0
39
0
210
0
220
0
230
1
0
LINE
5
BE
100
AcDbEntity
8
1
62
256
6
ByLayer
370
18
48
1
60
0
100
AcDbLine
10
42.589343
20
-18.686303
30
0
11
42.744622
21
-18.916355
31
0
39
0
210
0
220
0
230
1
0
LINE
5
BF
100
AcDbEntity
8
1
62
256
6
ByLayer
370
18
48
1
60
0
100
AcDbLine
10
37.689214
20
-21.982573
30
0
11
39.635387
21
-25.135265
31
0
39
0
210
0
220
0
230
1
0
LINE
5
C0
100
AcDbEntity
8
1
62
256
6
ByLayer
370
18
48
1
60
0
100
AcDbLine
10
39.950509
20
-25.931259
30
0
11
41.606699
21
-28.614196
31
0
39
0
210
0
220
0
230
1
0
LINE
5
C1
100
AcDbEntity
8
1
62
256
6
ByLayer
370
18
48
1
60
0
100
AcDbLine
10
42.176615
20
-29.251912
30
0
11
44.73589
21
-33.397795
31
0
39
0
210
0
220
0
230
1
0
LINE
5
C2
100
AcDbEntity
8
1
62
256
6
ByLayer
370
18
48
1
60
0
100
AcDbLine
10
30.302113
20
-32.641353
30
0
11
44.73589
21
-33.397795
31
0
39
0
210
0
220
0
230
1
0
LINE
5
C3
100
AcDbEntity
8
1
62
256
6
ByLayer
370
18
48
1
60
0
100
AcDbLine
10
43.847256
20
-20.815901
30
0
11
42.427926
21
-18.516665
31
0
39
0
210
0
220
0
230
1
0
LINE
5
C4
100
AcDbEntity
8
1
62
256
6
ByLayer
370
18
48
1
60
0
100
AcDbLine
10
44.357927
20
-21.534686
30
0
11
43.709439
21
-20.570828
31
0
39
0
210
0
220
0
230
1
0
LINE
5
C5
100
AcDbEntity
8
1
62
256
6
ByLayer
370
18
48
1
60
0
100
AcDbLine
10
51.650729
20
-21.932632
30
0
11
45.21193
21
-21.581123
31
0
39
0
210
0
220
0
230
1
0
LINE
5
C6
100
AcDbEntity
8
1
62
256
6
ByLayer
370
18
48
1
60
0
100
AcDbLine
10
51.650729
20
-21.932632
30
0
11
49.592278
21
-18.581522
31
0
39
0
210
0
220
0
230
1
0
LINE
5
C7
100
AcDbEntity
8
1
62
256
6
ByLayer
370
18
48
1
60
0
100
AcDbLine
10
42.185536
20
-18.414703
30
0
11
43.661798
21
-20.806164
31
0
39
0
210
0
220
0
230
1
0
LINE
5
C8
100
AcDbEntity
8
1
62
256
6
ByLayer
370
18
48
1
60
0
100
AcDbLine
10
50.749439
20
-26.845493
30
0
11
50.242655
21
-26.202729
31
0
39
0
210
0
220
0
230
1
0
LINE
5
C9
100
AcDbEntity
8
1
62
256
6
ByLayer
370
18
48
1
60
0
100
AcDbLine
10
46.405631
20
-28.362172
30
0
11
46.506931
21
-28.490654
31
0
39
0
210
0
220
0
230
1
0
LINE
5
CA
100
AcDbEntity
8
1
62
256
6
ByLayer
370
18
48
1
60
0
100
AcDbLine
10
46.523687
20
-28.61786
30
0
11
46.810267
21
-28.981334
31
0
39
0
210
0
220
0
230
1
0
LINE
5
CB
100
AcDbEntity
8
1
62
256
6
ByLayer
370
18
48
1
60
0
100
AcDbLine
10
41.514218
20
-28.37069
30
0
11
41.451468
21
-28.362773
31
0
39
0
210
0
220
0
230
1
0
LINE
5
CC
100
AcDbEntity
8
1
62
256
6
ByLayer
370
18
48
1
60
0
100
AcDbLine
10
53.018187
20
-22.853598
30
0
11
51.166699
21
-22.085799
31
0
39
0
210
0
220
0
230
1
0
LINE
5
CD
100
AcDbEntity
8
SK4
62
256
6
ByLayer
370
18
48
0.05
60
0
100
AcDbLine
10
-34.5
20
0
30
0
11
53.5
21
0
31
0
39
0
210
0
220
0
230
1
0
LINE
5
CF
100
AcDbEntity
8
4
62
256
6
ByLayer
370
18
48
0.05
60
0
100
AcDbLine
10
0
20
0
30
0
11
53.213
21
0
31
0
39
0
210
0
220
0
230
1
0
LINE
5
D1
100
AcDbEntity
8
80
62
256
6
ByLayer
370
18
48
1
60
0
100
AcDbLine
10
0
20
0
30
0
11
-10.040278
21
0
31
0
39
0
210
0
220
0
230
1
0
LINE
5
D2
100
AcDbEntity
8
81
62
256
6
ByLayer
370
18
48
1
60
0
100
AcDbLine
10
70.7136
20
-35.078279
30
0
11
60.673322
21
-35.078279
31
0
39
0
210
0
220
0
230
1
0
MTEXT
5
15C
100
AcDbEntity
8
SK6
62
256
6
ByLayer
370
18
48
1
60
0
100
AcDbMText
10
7.685409
20
-80.371796
30
0
210
0
220
0
230
1
1
\W0.7317;C5-PDJNL-35060-15HP
40
3.175
41
0
44
1.084337
50
0
71
7
72
5
7
iso_b_vert
0
DIMENSION
5
16F
100
AcDbEntity
8
SK2
62
256
6
ByLayer
370
13
48
1
60
0
100
AcDbDimension
2
DimnDraft3D1
10
-48.180157
20
-25
30
0
11
-47.630247
21
3.205373
31
0
70
33
71
5
72
1
41
1
210
0
220
0
230
1
3
Standard
100
AcDbAlignedDimension
13
-1.2875
23
25
33
0
14
-1.2875
24
-25
34
0
1001
ACAD
1000
DSTYLE
1002
{
1070
   279
1070
     0
1070
    74
1070
     0
1070
   173
1070
     1
1070
   340
1005
15D
1070
   271
1070
     1
1070
   272
1070
     2
1070
    77
1070
     1
1070
    73
1070
     0
1070
   171
1070
     3
1070
   274
1070
     4
1070
   177
1070
     7
1070
   176
1070
     7
1070
   178
1070
     7
1070
    78
1070
     8
1070
    48
1040
-0.005
1070
    41
1041
3.175
1070
   147
1041
1.75006
1070
    42
1041
1.5875
1070
    44
1041
3.175
1070
   140
1041
3.50012
1070
   343
1005
170
1070
   344
1005
170
1002
}
0
DIMENSION
5
185
100
AcDbEntity
8
2
62
256
6
ByLayer
370
13
48
1
60
0
100
AcDbDimension
2
DimnDraft3D2
10
59.999654
20
-61.68088
30
0
11
30.163636
21
-61.68088
31
0
70
32
71
5
72
1
41
1
210
0
220
0
230
1
3
Standard
100
AcDbAlignedDimension
13
0
23
-26.2875
33
0
14
59.999654
24
-35.813532
34
0
50
0
100
AcDbRotatedDimension
1001
ACAD
1000
DSTYLE
1002
{
1070
   279
1070
     0
1070
   172
1070
     1
1070
   173
1070
     1
1070
   340
1005
15D
1070
   271
1070
     1
1070
   272
1070
     2
1070
    77
1070
     1
1070
    73
1070
     0
1070
   171
1070
     3
1070
   274
1070
     4
1070
   177
1070
     7
1070
   176
1070
     7
1070
   178
1070
     7
1070
    78
1070
     8
1070
    48
1040
-0.005
1070
    41
1041
3.175
1070
   147
1041
1.75006
1070
    42
1041
1.5875
1070
    44
1041
3.175
1070
   140
1041
3.50012
1070
   343
1005
170
1070
   344
1005
170
1002
}
0
DIMENSION
5
193
100
AcDbEntity
8
2
62
256
6
ByLayer
370
13
48
1
60
0
100
AcDbDimension
2
DimnDraft3D3
10
73.976104
20
-34.999881
30
0
11
73.976104
21
-18.613963
31
0
70
32
71
5
72
1
41
1
210
0
220
0
230
1
3
Standard
100
AcDbAlignedDimension
13
55.0875
23
0
33
0
14
60.77416
24
-34.999881
34
0
50
90
100
AcDbRotatedDimension
1001
ACAD
1000
DSTYLE
1002
{
1070
    74
1070
     0
1070
   279
1070
     0
1070
   172
1070
     1
1070
   173
1070
     1
1070
   340
1005
15D
1070
   271
1070
     1
1070
   272
1070
     2
1070
    77
1070
     1
1070
    73
1070
     0
1070
   171
1070
     3
1070
   274
1070
     4
1070
   177
1070
     7
1070
   176
1070
     7
1070
   178
1070
     7
1070
    78
1070
     8
1070
    48
1040
-0.005
1070
    41
1041
3.175
1070
   147
1041
1.75006
1070
    42
1041
1.5875
1070
    44
1041
3.175
1070
   140
1041
3.50012
1070
   343
1005
170
1070
   344
1005
170
1002
}
0
DIMENSION
5
1A1
100
AcDbEntity
8
2
62
256
6
ByLayer
370
13
48
1
60
0
100
AcDbDimension
2
DimnDraft3D4
10
58.557472
20
-35.664165
30
0
11
49.307417
21
-45.325364
31
0
70
34
71
5
72
1
41
1
210
0
220
0
230
1
3
Standard
100
AcDb2LineAngularDimension
13
59.158974
23
-34.998916
33
0
14
47.304772
24
-34.377663
34
0
15
58.557472
25
-34.664165
35
0
16
46.700457
26
-47.663441
36
0
40
0
0
ENDSEC
0
SECTION
2
OBJECTS
0
DICTIONARY
5
20c
330
0
100
AcDbDictionary
280
0
281
1
3
ACAD_GROUP
350
20d
3
ACAD_MLINESTYLE
350
20e
0
DICTIONARY
5
20d
330
0
100
AcDbDictionary
280
0
281
1
0
DICTIONARY
5
20e
330
0
100
AcDbDictionary
280
0
281
1
3
Standard
350
18
0
MLINESTYLE
5
18
330
20e
100
AcDbMlineStyle
2
Standard
70
0
3

62
256
51
90
52
90
71
2
49
-0.5
62
256
6
ByLayer
49
0.5
62
256
6
ByLayer
0
RASTERVARIABLES
5
1fa
330

100
AcDbRasterVariables
90
0
70
1
71
1
72
1
0
ENDSEC
0
EOF
