  0
SECTION
  2
HEADER
  9
$ACADVER
  1
AC1015
  9
$ACADMAINTVER
 70
    20
  9
$DWGCODEPAGE
  3
ANSI_1252
  9
$INSBASE
 10
0.0
 20
0.0
 30
0.0
  9
$EXTMIN
 10
-40.75993171702134
 20
-25.0088489276925
 30
-0.0015258207003583
  9
$EXTMAX
 10
152.6848919248266
 20
66.25854569750209
 30
0.0000000349246037
  9
$LIMMIN
 10
-170.0
 20
-170.0
  9
$LIMMAX
 10
519.0
 20
260.0
  9
$ORTHOMODE
 70
     0
  9
$REGENMODE
 70
     1
  9
$FILLMODE
 70
     1
  9
$QTEXTMODE
 70
     0
  9
$MIRRTEXT
 70
     0
  9
$LTSCALE
 40
1.0
  9
$ATTMODE
 70
     1
  9
$TEXTSIZE
 40
3.5
  9
$TRACEWID
 40
1.0
  9
$TEXTSTYLE
  7
SIMPLEX
  9
$CLAYER
  8
1
  9
$CELTYPE
  6
BYLAYER
  9
$CECOLOR
 62
   256
  9
$CELTSCALE
 40
1.0
  9
$DISPSILH
 70
     0
  9
$DIMSCALE
 40
1.0
  9
$DIMASZ
 40
2.5
  9
$DIMEXO
 40
0.0
  9
$DIMDLI
 40
3.75
  9
$DIMRND
 40
0.0
  9
$DIMDLE
 40
0.0
  9
$DIMEXE
 40
1.25
  9
$DIMTP
 40
0.0
  9
$DIMTM
 40
0.0
  9
$DIMTXT
 40
3.5
  9
$DIMCEN
 40
0.0
  9
$DIMTSZ
 40
0.0
  9
$DIMTOL
 70
     0
  9
$DIMLIM
 70
     0
  9
$DIMTIH
 70
     0
  9
$DIMTOH
 70
     0
  9
$DIMSE1
 70
     0
  9
$DIMSE2
 70
     0
  9
$DIMTAD
 70
     1
  9
$DIMZIN
 70
     8
  9
$DIMBLK
  1

  9
$DIMASO
 70
     1
  9
$DIMSHO
 70
     1
  9
$DIMPOST
  1

  9
$DIMAPOST
  1

  9
$DIMALT
 70
     0
  9
$DIMALTD
 70
     3
  9
$DIMALTF
 40
0.039370078
  9
$DIMLFAC
 40
1.0
  9
$DIMTOFL
 70
     0
  9
$DIMTVP
 40
0.0
  9
$DIMTIX
 70
     0
  9
$DIMSOXD
 70
     0
  9
$DIMSAH
 70
     0
  9
$DIMBLK1
  1

  9
$DIMBLK2
  1

  9
$DIMSTYLE
  2
SANDVIK_STYLE
  9
$DIMCLRD
 70
     0
  9
$DIMCLRE
 70
     0
  9
$DIMCLRT
 70
     0
  9
$DIMTFAC
 40
1.0
  9
$DIMGAP
 40
0.625
  9
$DIMJUST
 70
     0
  9
$DIMSD1
 70
     0
  9
$DIMSD2
 70
     0
  9
$DIMTOLJ
 70
     0
  9
$DIMTZIN
 70
     8
  9
$DIMALTZ
 70
     0
  9
$DIMALTTZ
 70
     0
  9
$DIMUPT
 70
     0
  9
$DIMDEC
 70
     2
  9
$DIMTDEC
 70
     2
  9
$DIMALTU
 70
     2
  9
$DIMALTTD
 70
     3
  9
$DIMTXSTY
  7
SIMPLEX
  9
$DIMAUNIT
 70
     0
  9
$DIMADEC
 70
     2
  9
$DIMALTRND
 40
0.0
  9
$DIMAZIN
 70
     2
  9
$DIMDSEP
 70
    46
  9
$DIMATFIT
 70
     3
  9
$DIMFRAC
 70
     0
  9
$DIMLDRBLK
  1

  9
$DIMLUNIT
 70
     2
  9
$DIMLWD
 70
    -2
  9
$DIMLWE
 70
    -2
  9
$DIMTMOVE
 70
     0
  9
$LUNITS
 70
     2
  9
$LUPREC
 70
     4
  9
$SKETCHINC
 40
1.0
  9
$FILLETRAD
 40
0.0
  9
$AUNITS
 70
     0
  9
$AUPREC
 70
     0
  9
$MENU
  1
c:\tdm21\cad\caduti13\tdm13
  9
$ELEVATION
 40
0.0
  9
$PELEVATION
 40
0.0
  9
$THICKNESS
 40
0.0
  9
$LIMCHECK
 70
     0
  9
$CHAMFERA
 40
0.0
  9
$CHAMFERB
 40
0.0
  9
$CHAMFERC
 40
0.0
  9
$CHAMFERD
 40
0.0
  9
$SKPOLY
 70
     0
  9
$TDCREATE
 40
2455883.652280521
  9
$TDUCREATE
 40
2455883.568947188
  9
$TDUPDATE
 40
2456818.429614618
  9
$TDUUPDATE
 40
2456818.346281285
  9
$TDINDWG
 40
0.0034539352
  9
$TDUSRTIMER
 40
0.0034537500
  9
$USRTIMER
 70
     1
  9
$ANGBASE
 50
0.0
  9
$ANGDIR
 70
     0
  9
$PDMODE
 70
     1
  9
$PDSIZE
 40
0.0
  9
$PLINEWID
 40
0.0
  9
$SPLFRAME
 70
     0
  9
$SPLINETYPE
 70
     6
  9
$SPLINESEGS
 70
     8
  9
$HANDSEED
  5
E70C4
  9
$SURFTAB1
 70
     6
  9
$SURFTAB2
 70
     6
  9
$SURFTYPE
 70
     6
  9
$SURFU
 70
     6
  9
$SURFV
 70
     6
  9
$UCSBASE
  2

  9
$UCSNAME
  2

  9
$UCSORG
 10
0.0
 20
0.0
 30
0.0
  9
$UCSXDIR
 10
1.0
 20
0.0
 30
0.0
  9
$UCSYDIR
 10
0.0
 20
1.0
 30
0.0
  9
$UCSORTHOREF
  2

  9
$UCSORTHOVIEW
 70
     0
  9
$UCSORGTOP
 10
0.0
 20
0.0
 30
0.0
  9
$UCSORGBOTTOM
 10
0.0
 20
0.0
 30
0.0
  9
$UCSORGLEFT
 10
0.0
 20
0.0
 30
0.0
  9
$UCSORGRIGHT
 10
0.0
 20
0.0
 30
0.0
  9
$UCSORGFRONT
 10
0.0
 20
0.0
 30
0.0
  9
$UCSORGBACK
 10
0.0
 20
0.0
 30
0.0
  9
$PUCSBASE
  2

  9
$PUCSNAME
  2

  9
$PUCSORG
 10
0.0
 20
0.0
 30
0.0
  9
$PUCSXDIR
 10
1.0
 20
0.0
 30
0.0
  9
$PUCSYDIR
 10
0.0
 20
1.0
 30
0.0
  9
$PUCSORTHOREF
  2

  9
$PUCSORTHOVIEW
 70
     0
  9
$PUCSORGTOP
 10
0.0
 20
0.0
 30
0.0
  9
$PUCSORGBOTTOM
 10
0.0
 20
0.0
 30
0.0
  9
$PUCSORGLEFT
 10
0.0
 20
0.0
 30
0.0
  9
$PUCSORGRIGHT
 10
0.0
 20
0.0
 30
0.0
  9
$PUCSORGFRONT
 10
0.0
 20
0.0
 30
0.0
  9
$PUCSORGBACK
 10
0.0
 20
0.0
 30
0.0
  9
$USERI1
 70
     0
  9
$USERI2
 70
     0
  9
$USERI3
 70
     0
  9
$USERI4
 70
     0
  9
$USERI5
 70
     0
  9
$USERR1
 40
0.0
  9
$USERR2
 40
0.0
  9
$USERR3
 40
0.0
  9
$USERR4
 40
0.0
  9
$USERR5
 40
0.0
  9
$WORLDVIEW
 70
     1
  9
$SHADEDGE
 70
     3
  9
$SHADEDIF
 70
    70
  9
$TILEMODE
 70
     1
  9
$MAXACTVP
 70
    64
  9
$PINSBASE
 10
0.0
 20
0.0
 30
0.0
  9
$PLIMCHECK
 70
     0
  9
$PEXTMIN
 10
0.0
 20
0.0
 30
0.0
  9
$PEXTMAX
 10
0.0
 20
0.0
 30
0.0
  9
$PLIMMIN
 10
0.0
 20
0.0
  9
$PLIMMAX
 10
12.0
 20
9.0
  9
$UNITMODE
 70
     0
  9
$VISRETAIN
 70
     0
  9
$PLINEGEN
 70
     0
  9
$PSLTSCALE
 70
     1
  9
$TREEDEPTH
 70
  3020
  9
$CMLSTYLE
  2
STANDARD
  9
$CMLJUST
 70
     0
  9
$CMLSCALE
 40
20.0
  9
$PROXYGRAPHICS
 70
     1
  9
$MEASUREMENT
 70
     1
  9
$CELWEIGHT
370
    -1
  9
$ENDCAPS
280
     0
  9
$JOINSTYLE
280
     0
  9
$LWDISPLAY
290
     0
  9
$INSUNITS
 70
     4
  9
$HYPERLINKBASE
  1

  9
$STYLESHEET
  1
MONOCHROME.CTB
  9
$XEDIT
290
     1
  9
$CEPSNTYPE
380
     0
  9
$PSTYLEMODE
290
     1
  9
$FINGERPRINTGUID
  2
{36B768E0-36AF-4475-81FB-06B9C40D017C}
  9
$VERSIONGUID
  2
{281A5714-FB3B-496B-BB77-47BF668D07C2}
  9
$EXTNAMES
290
     1
  9
$PSVPSCALE
 40
0.0
  9
$OLESTARTUP
290
     0
  0
ENDSEC
  0
SECTION
  2
CLASSES
  0
CLASS
  1
ACDBDICTIONARYWDFLT
  2
AcDbDictionaryWithDefault
  3
ObjectDBX Classes
 90
        0
280
     0
281
     0
  0
CLASS
  1
ACDBPLACEHOLDER
  2
AcDbPlaceHolder
  3
ObjectDBX Classes
 90
        0
280
     0
281
     0
  0
CLASS
  1
LAYOUT
  2
AcDbLayout
  3
ObjectDBX Classes
 90
        0
280
     0
281
     0
  0
CLASS
  1
DICTIONARYVAR
  2
AcDbDictionaryVar
  3
ObjectDBX Classes
 90
        0
280
     0
281
     0
  0
CLASS
  1
TABLESTYLE
  2
AcDbTableStyle
  3
ObjectDBX Classes
 90
     4095
280
     0
281
     0
  0
CLASS
  1
MATERIAL
  2
AcDbMaterial
  3
ObjectDBX Classes
 90
     1153
280
     0
281
     0
  0
CLASS
  1
VISUALSTYLE
  2
AcDbVisualStyle
  3
ObjectDBX Classes
 90
     4095
280
     0
281
     0
  0
CLASS
  1
SCALE
  2
AcDbScale
  3
ObjectDBX Classes
 90
     1153
280
     0
281
     0
  0
CLASS
  1
MLEADERSTYLE
  2
AcDbMLeaderStyle
  3
ACDB_MLEADERSTYLE_CLASS
 90
     4095
280
     0
281
     0
  0
CLASS
  1
CELLSTYLEMAP
  2
AcDbCellStyleMap
  3
ObjectDBX Classes
 90
     1152
280
     0
281
     0
  0
CLASS
  1
SORTENTSTABLE
  2
AcDbSortentsTable
  3
ObjectDBX Classes
 90
        0
280
     0
281
     0
  0
CLASS
  1
ACDBSECTIONVIEWSTYLE
  2
AcDbSectionViewStyle
  3
ObjectDBX Classes
 90
     1025
280
     0
281
     0
  0
CLASS
  1
ACDBDETAILVIEWSTYLE
  2
AcDbDetailViewStyle
  3
ObjectDBX Classes
 90
     1025
280
     0
281
     0
  0
CLASS
  1
EXACXREFPANELOBJECT
  2
ExAcXREFPanelObject
  3
EXAC_ESW
 90
     1025
280
     0
281
     0
  0
CLASS
  1
NPOCOLLECTION
  2
AcDbImpNonPersistentObjectsCollection
  3
ObjectDBX Classes
 90
     1153
280
     0
281
     0
  0
ENDSEC
  0
SECTION
  2
TABLES
  0
TABLE
  2
VPORT
  5
8
330
0
100
AcDbSymbolTable
 70
     1
  0
VPORT
  5
3ED
330
8
100
AcDbSymbolTableRecord
100
AcDbViewportTableRecord
  2
*Active
 70
     0
 10
0.0
 20
0.0
 11
1.0
 21
1.0
 12
55.96248010390264
 22
20.6248483849048
 13
0.0
 23
0.0
 14
5.0
 24
5.0
 15
5.0
 25
5.0
 16
0.0
 26
0.0
 36
1.0
 17
0.0
 27
0.0
 37
0.0
 40
102.1360264146914
 41
2.2
 42
50.0
 43
0.0
 44
0.0
 50
0.0
 51
0.0
 71
     0
 72
  2000
 73
     1
 74
     1
 75
     0
 76
     0
 77
     0
 78
     0
281
     0
 65
     1
110
0.0
120
0.0
130
0.0
111
1.0
121
0.0
131
0.0
112
0.0
122
1.0
132
0.0
 79
     0
146
0.0
1001
ACAD_NAV_VCDISPLAY
1070
     3
  0
ENDTAB
  0
TABLE
  2
LTYPE
  5
5
330
0
100
AcDbSymbolTable
 70
     3
  0
LTYPE
  5
12
330
5
100
AcDbSymbolTableRecord
100
AcDbLinetypeTableRecord
  2
BYBLOCK
 70
     0
  3

 72
    65
 73
     0
 40
0.0
  0
LTYPE
  5
13
330
5
100
AcDbSymbolTableRecord
100
AcDbLinetypeTableRecord
  2
BYLAYER
 70
     0
  3

 72
    65
 73
     0
 40
0.0
  0
LTYPE
  5
14
330
5
100
AcDbSymbolTableRecord
100
AcDbLinetypeTableRecord
  2
CONTINUOUS
 70
     0
  3
Solid line
 72
    65
 73
     0
 40
0.0
  0
LTYPE
  5
E6B7D
330
5
100
AcDbSymbolTableRecord
100
AcDbLinetypeTableRecord
  2
CENTER
 70
     0
  3
____ _ ____ _ ____ _ ____ _ ____ _ ____ _ ____
 72
    65
 73
     4
 40
0.1992
 49
0.1245
 74
     0
 49
-0.0249
 74
     0
 49
0.0249
 74
     0
 49
-0.0249
 74
     0
  0
LTYPE
  5
E6B7E
330
5
100
AcDbSymbolTableRecord
100
AcDbLinetypeTableRecord
  2
DASHED
 70
     0
  3
__ __ __ __ __ __ __ __ __ __ __ __ __ __ __ __
 72
    65
 73
     2
 40
0.29881
 49
0.1992
 74
     0
 49
-0.099604
 74
     0
  0
ENDTAB
  0
TABLE
  2
LAYER
  5
2
330
0
100
AcDbSymbolTable
 70
    39
  0
LAYER
  5
F
102
{ACAD_XDICTIONARY
360
E7035
102
}
330
2
100
AcDbSymbolTableRecord
100
AcDbLayerTableRecord
  2
0
 70
     0
 62
     7
  6
CONTINUOUS
370
    -3
390
300
  0
LAYER
  5
23
102
{ACAD_XDICTIONARY
360
E7037
102
}
330
2
100
AcDbSymbolTableRecord
100
AcDbLayerTableRecord
  2
1
 70
     0
 62
     4
  6
CONTINUOUS
370
    -3
390
300
  0
LAYER
  5
E6B7F
102
{ACAD_XDICTIONARY
360
E7039
102
}
330
2
100
AcDbSymbolTableRecord
100
AcDbLayerTableRecord
  2
2
 70
     0
 62
     7
  6
CONTINUOUS
370
    -3
390
300
  0
LAYER
  5
E6B80
102
{ACAD_XDICTIONARY
360
E703B
102
}
330
2
100
AcDbSymbolTableRecord
100
AcDbLayerTableRecord
  2
61
 70
     0
 62
     5
  6
CONTINUOUS
370
    -3
390
300
  0
LAYER
  5
E6B81
102
{ACAD_XDICTIONARY
360
E703D
102
}
330
2
100
AcDbSymbolTableRecord
100
AcDbLayerTableRecord
  2
62
 70
     0
 62
    -5
  6
CONTINUOUS
370
    -3
390
300
  0
LAYER
  5
E6B82
102
{ACAD_XDICTIONARY
360
E703F
102
}
330
2
100
AcDbSymbolTableRecord
100
AcDbLayerTableRecord
  2
63
 70
     0
 62
    -5
  6
CONTINUOUS
370
    -3
390
300
  0
LAYER
  5
E6B83
102
{ACAD_XDICTIONARY
360
E7041
102
}
330
2
100
AcDbSymbolTableRecord
100
AcDbLayerTableRecord
  2
64
 70
     0
 62
    -5
  6
CONTINUOUS
370
    -3
390
300
  0
LAYER
  5
E6B84
102
{ACAD_XDICTIONARY
360
E7043
102
}
330
2
100
AcDbSymbolTableRecord
100
AcDbLayerTableRecord
  2
65
 70
     0
 62
    -5
  6
CONTINUOUS
370
    -3
390
300
  0
LAYER
  5
E6B85
102
{ACAD_XDICTIONARY
360
E7045
102
}
330
2
100
AcDbSymbolTableRecord
100
AcDbLayerTableRecord
  2
66
 70
     0
 62
    -5
  6
CONTINUOUS
370
    -3
390
300
  0
LAYER
  5
E6B86
102
{ACAD_XDICTIONARY
360
E7047
102
}
330
2
100
AcDbSymbolTableRecord
100
AcDbLayerTableRecord
  2
67
 70
     0
 62
    -5
  6
CONTINUOUS
370
    -3
390
300
  0
LAYER
  5
E6B87
102
{ACAD_XDICTIONARY
360
E7049
102
}
330
2
100
AcDbSymbolTableRecord
100
AcDbLayerTableRecord
  2
68
 70
     0
 62
    -5
  6
CONTINUOUS
370
    -3
390
300
  0
LAYER
  5
E6B88
102
{ACAD_XDICTIONARY
360
E704B
102
}
330
2
100
AcDbSymbolTableRecord
100
AcDbLayerTableRecord
  2
69
 70
     0
 62
    -5
  6
CONTINUOUS
370
    -3
390
300
  0
LAYER
  5
E6B89
102
{ACAD_XDICTIONARY
360
E704D
102
}
330
2
100
AcDbSymbolTableRecord
100
AcDbLayerTableRecord
  2
70
 70
     0
 62
     5
  6
CONTINUOUS
370
    -3
390
300
  0
LAYER
  5
E6B8A
102
{ACAD_XDICTIONARY
360
E704F
102
}
330
2
100
AcDbSymbolTableRecord
100
AcDbLayerTableRecord
  2
3
 70
     0
 62
     1
  6
DASHED
370
    -3
390
300
  0
LAYER
  5
E6B8B
102
{ACAD_XDICTIONARY
360
E7051
102
}
330
2
100
AcDbSymbolTableRecord
100
AcDbLayerTableRecord
  2
4
 70
     0
 62
    -2
  6
CENTER
370
    -3
390
300
  0
LAYER
  5
E6B8C
102
{ACAD_XDICTIONARY
360
E7053
102
}
330
2
100
AcDbSymbolTableRecord
100
AcDbLayerTableRecord
  2
5
 70
     0
 62
    -7
  6
CONTINUOUS
370
    -3
390
300
  0
LAYER
  5
E6B8D
102
{ACAD_XDICTIONARY
360
E7055
102
}
330
2
100
AcDbSymbolTableRecord
100
AcDbLayerTableRecord
  2
SK1
 70
     0
 62
     4
  6
CONTINUOUS
370
    -3
390
300
  0
LAYER
  5
E6B8E
102
{ACAD_XDICTIONARY
360
E7057
102
}
330
2
100
AcDbSymbolTableRecord
100
AcDbLayerTableRecord
  2
6
 70
     0
 62
     5
  6
CONTINUOUS
370
    -3
390
300
  0
LAYER
  5
E6B8F
102
{ACAD_XDICTIONARY
360
E7059
102
}
330
2
100
AcDbSymbolTableRecord
100
AcDbLayerTableRecord
  2
SK2
 70
     0
 62
     7
  6
CONTINUOUS
370
    -3
390
300
  0
LAYER
  5
E6B90
102
{ACAD_XDICTIONARY
360
E705B
102
}
330
2
100
AcDbSymbolTableRecord
100
AcDbLayerTableRecord
  2
SK3
 70
     0
 62
     1
  6
DASHED
370
    -3
390
300
  0
LAYER
  5
E6B91
102
{ACAD_XDICTIONARY
360
E705D
102
}
330
2
100
AcDbSymbolTableRecord
100
AcDbLayerTableRecord
  2
SK4
 70
     0
 62
     2
  6
CENTER
370
    -3
390
300
  0
LAYER
  5
E6B92
102
{ACAD_XDICTIONARY
360
E705F
102
}
330
2
100
AcDbSymbolTableRecord
100
AcDbLayerTableRecord
  2
CUT
 70
     0
 62
    -1
  6
CONTINUOUS
370
    -3
390
300
  0
LAYER
  5
E6B93
102
{ACAD_XDICTIONARY
360
E7061
102
}
330
2
100
AcDbSymbolTableRecord
100
AcDbLayerTableRecord
  2
SK6
 70
     0
 62
     5
  6
CONTINUOUS
370
    -3
390
300
  0
LAYER
  5
E6B94
102
{ACAD_XDICTIONARY
360
E7063
102
}
330
2
100
AcDbSymbolTableRecord
100
AcDbLayerTableRecord
  2
80
 70
     0
 62
    -2
  6
CENTER
370
    -3
390
300
  0
LAYER
  5
E6B95
102
{ACAD_XDICTIONARY
360
E7065
102
}
330
2
100
AcDbSymbolTableRecord
100
AcDbLayerTableRecord
  2
81
 70
     0
 62
    -2
  6
CENTER
370
    -3
390
300
  0
LAYER
  5
E6B96
102
{ACAD_XDICTIONARY
360
E7067
102
}
330
2
100
AcDbSymbolTableRecord
100
AcDbLayerTableRecord
  2
82
 70
     0
 62
    -2
  6
CENTER
370
    -3
390
300
  0
LAYER
  5
E6B97
102
{ACAD_XDICTIONARY
360
E7069
102
}
330
2
100
AcDbSymbolTableRecord
100
AcDbLayerTableRecord
  2
NOCUT
 70
     0
 62
     7
  6
CONTINUOUS
370
    -3
390
300
  0
LAYER
  5
E6B98
102
{ACAD_XDICTIONARY
360
E706B
102
}
330
2
100
AcDbSymbolTableRecord
100
AcDbLayerTableRecord
  2
50
 70
     0
 62
    -7
  6
CONTINUOUS
370
    -3
390
300
  0
LAYER
  5
E6B99
102
{ACAD_XDICTIONARY
360
E706D
102
}
330
2
100
AcDbSymbolTableRecord
100
AcDbLayerTableRecord
  2
51
 70
     0
 62
     7
  6
CONTINUOUS
370
    -3
390
300
  0
LAYER
  5
E6B9A
102
{ACAD_XDICTIONARY
360
E706F
102
}
330
2
100
AcDbSymbolTableRecord
100
AcDbLayerTableRecord
  2
52
 70
     0
 62
    -7
  6
CONTINUOUS
370
    -3
390
300
  0
LAYER
  5
E6B9B
102
{ACAD_XDICTIONARY
360
E7071
102
}
330
2
100
AcDbSymbolTableRecord
100
AcDbLayerTableRecord
  2
53
 70
     0
 62
    -7
  6
CONTINUOUS
370
    -3
390
300
  0
LAYER
  5
E6B9C
102
{ACAD_XDICTIONARY
360
E7073
102
}
330
2
100
AcDbSymbolTableRecord
100
AcDbLayerTableRecord
  2
54
 70
     0
 62
    -7
  6
CONTINUOUS
370
    -3
390
300
  0
LAYER
  5
E6B9D
102
{ACAD_XDICTIONARY
360
E7075
102
}
330
2
100
AcDbSymbolTableRecord
100
AcDbLayerTableRecord
  2
55
 70
     0
 62
    -7
  6
CONTINUOUS
370
    -3
390
300
  0
LAYER
  5
E6B9E
102
{ACAD_XDICTIONARY
360
E7077
102
}
330
2
100
AcDbSymbolTableRecord
100
AcDbLayerTableRecord
  2
56
 70
     0
 62
    -7
  6
CONTINUOUS
370
    -3
390
300
  0
LAYER
  5
E6B9F
102
{ACAD_XDICTIONARY
360
E7079
102
}
330
2
100
AcDbSymbolTableRecord
100
AcDbLayerTableRecord
  2
57
 70
     0
 62
    -7
  6
CONTINUOUS
370
    -3
390
300
  0
LAYER
  5
E6BA0
102
{ACAD_XDICTIONARY
360
E707B
102
}
330
2
100
AcDbSymbolTableRecord
100
AcDbLayerTableRecord
  2
58
 70
     0
 62
    -7
  6
CONTINUOUS
370
    -3
390
300
  0
LAYER
  5
E6BA1
102
{ACAD_XDICTIONARY
360
E707D
102
}
330
2
100
AcDbSymbolTableRecord
100
AcDbLayerTableRecord
  2
2L
 70
     0
 62
     7
  6
CONTINUOUS
370
    -3
390
300
  0
LAYER
  5
E6BA2
102
{ACAD_XDICTIONARY
360
E707F
102
}
330
2
100
AcDbSymbolTableRecord
100
AcDbLayerTableRecord
  2
59
 70
     0
 62
    -7
  6
CONTINUOUS
370
    -3
390
300
  0
LAYER
  5
E6BA3
330
2
100
AcDbSymbolTableRecord
100
AcDbLayerTableRecord
  2
Defpoints
 70
     0
 62
     7
  6
CONTINUOUS
290
     0
370
    -3
390
300
  0
ENDTAB
  0
TABLE
  2
STYLE
  5
3
330
0
100
AcDbSymbolTable
 70
     4
  0
STYLE
  5
10
330
3
100
AcDbSymbolTableRecord
100
AcDbTextStyleTableRecord
  2
STANDARD
 70
     0
 40
0.0
 41
1.0
 50
0.0
 71
     0
 42
5.0
  3
txt
  4

  0
STYLE
  5
1E
330
3
100
AcDbSymbolTableRecord
100
AcDbTextStyleTableRecord
  2
SIMPLEX
 70
     0
 40
0.0
 41
1.0
 50
0.0
 71
     0
 42
3.5
  3
simplex
  4

  0
STYLE
  5
E6BA4
330
3
100
AcDbSymbolTableRecord
100
AcDbTextStyleTableRecord
  2
Annotative
 70
     0
 40
0.0
 41
1.0
 50
0.0
 71
     0
 42
0.2
  3
txt
  4

1001
AcadAnnotative
1000
AnnotativeData
1002
{
1070
     1
1070
     1
1002
}
  0
STYLE
  5
E6BA5
330
3
100
AcDbSymbolTableRecord
100
AcDbTextStyleTableRecord
  2
SANDVIK_STYLE
 70
     0
 40
0.11811
 41
1.0
 50
0.0
 71
     0
 42
0.11811
  3
simplex.shx
  4

  0
ENDTAB
  0
TABLE
  2
VIEW
  5
6
330
0
100
AcDbSymbolTable
 70
     0
  0
ENDTAB
  0
TABLE
  2
UCS
  5
7
330
0
100
AcDbSymbolTable
 70
     0
  0
ENDTAB
  0
TABLE
  2
APPID
  5
9
330
0
100
AcDbSymbolTable
 70
    11
  0
APPID
  5
11
330
9
100
AcDbSymbolTableRecord
100
AcDbRegAppTableRecord
  2
ACAD
 70
     0
  0
APPID
  5
3A6
330
9
100
AcDbSymbolTableRecord
100
AcDbRegAppTableRecord
  2
ACAD_PSEXT
 70
     0
  0
APPID
  5
3A8
330
9
100
AcDbSymbolTableRecord
100
AcDbRegAppTableRecord
  2
ACAD_EXEMPT_FROM_CAD_STANDARDS
 70
     0
  0
APPID
  5
43E
330
9
100
AcDbSymbolTableRecord
100
AcDbRegAppTableRecord
  2
ACAD_MLEADERVER
 70
     0
  0
APPID
  5
454
330
9
100
AcDbSymbolTableRecord
100
AcDbRegAppTableRecord
  2
ACAD_DSTYLE_DIMJAG
 70
     0
  0
APPID
  5
455
330
9
100
AcDbSymbolTableRecord
100
AcDbRegAppTableRecord
  2
ACAD_DSTYLE_DIMBREAK
 70
     0
  0
APPID
  5
456
330
9
100
AcDbSymbolTableRecord
100
AcDbRegAppTableRecord
  2
ACAD_DSTYLE_DIMTALN
 70
     0
  0
APPID
  5
4EE
330
9
100
AcDbSymbolTableRecord
100
AcDbRegAppTableRecord
  2
AcadAnnotative
 70
     0
  0
APPID
  5
4EF
330
9
100
AcDbSymbolTableRecord
100
AcDbRegAppTableRecord
  2
ACADIGES
 70
     0
  0
APPID
  5
4F0
330
9
100
AcDbSymbolTableRecord
100
AcDbRegAppTableRecord
  2
ACAD_DSTYLE_DIMJOGGED_JOGANGLE_SYMBOL
 70
     0
  0
APPID
  5
E7084
330
9
100
AcDbSymbolTableRecord
100
AcDbRegAppTableRecord
  2
ACAD_NAV_VCDISPLAY
 70
     0
  0
ENDTAB
  0
TABLE
  2
DIMSTYLE
  5
A
330
0
100
AcDbSymbolTable
 70
     5
100
AcDbDimStyleTable
 71
     1
340
457
  0
DIMSTYLE
105
457
102
{ACAD_REACTORS
330
E6FA3
330
E6FA2
330
E6FA1
330
E6FA0
102
}
330
A
100
AcDbSymbolTableRecord
100
AcDbDimStyleTableRecord
  2
SANDVIK_STYLE
 70
     0
 41
2.5
 42
0.0
 43
3.75
 44
1.25
 73
     0
 74
     0
 77
     1
 78
     8
 79
     2
140
3.5
141
0.0
143
0.039370078
147
0.625
171
     3
179
     2
271
     2
272
     2
274
     3
283
     0
284
     8
340
1E
1001
ACAD_DSTYLE_DIMBREAK
1070
   391
1040
3.75
1001
ACAD_DSTYLE_DIMJAG
1070
   388
1040
1.5
1001
ACAD_DSTYLE_DIMTALN
1070
   392
1070
     0
  0
DIMSTYLE
105
E6BA6
330
A
100
AcDbSymbolTableRecord
100
AcDbDimStyleTableRecord
  2
ISO-25
 70
     0
 41
2.5
 42
0.625
 43
3.75
 44
1.25
 73
     0
 74
     0
 77
     1
 78
     8
140
2.5
141
2.5
143
0.03937007874016
147
0.625
171
     3
172
     1
271
     2
272
     2
274
     3
278
    44
283
     0
284
     8
340
10
1001
ACAD_DSTYLE_DIMJOGGED_JOGANGLE_SYMBOL
1070
   384
1040
1.570796326794896
  0
DIMSTYLE
105
E6BA7
330
A
100
AcDbSymbolTableRecord
100
AcDbDimStyleTableRecord
  2
STANDARD
 70
     0
  4
 
 43
0.18
 44
2.5
 46
1.25
 73
     0
 74
     0
140
0.11811
141
-3.0
143
0.039
145
1.5
146
0.75
147
1.5
271
     2
272
     2
279
     2
340
E6BA5
  0
DIMSTYLE
105
E6BA8
330
A
100
AcDbSymbolTableRecord
100
AcDbDimStyleTableRecord
  2
Annotative
 70
     0
340
10
1001
AcadAnnotative
1000
AnnotativeData
1002
{
1070
     1
1070
     1
1002
}
  0
DIMSTYLE
105
E6BA9
330
A
100
AcDbSymbolTableRecord
100
AcDbDimStyleTableRecord
  2
SANDVIK_DIM
 70
     0
  4
 
 40
0.0
 42
0.0
 73
     0
 74
     0
 77
     1
 78
     8
173
     1
176
   256
177
   256
178
   256
271
     2
272
     2
279
     2
340
E6BA5
  0
ENDTAB
  0
TABLE
  2
BLOCK_RECORD
  5
1
330
0
100
AcDbSymbolTable
 70
    10
  0
BLOCK_RECORD
  5
18
330
1
100
AcDbSymbolTableRecord
100
AcDbBlockTableRecord
  2
*MODEL_SPACE
340
303
  0
BLOCK_RECORD
  5
338
330
1
100
AcDbSymbolTableRecord
100
AcDbBlockTableRecord
  2
*Paper_Space
340
33B
  0
BLOCK_RECORD
  5
E6B1C
330
1
100
AcDbSymbolTableRecord
100
AcDbBlockTableRecord
  2
*D0
340
0
  0
BLOCK_RECORD
  5
E6B25
330
1
100
AcDbSymbolTableRecord
100
AcDbBlockTableRecord
  2
*D1
340
0
  0
BLOCK_RECORD
  5
E6B2E
330
1
100
AcDbSymbolTableRecord
100
AcDbBlockTableRecord
  2
*D2
340
0
  0
BLOCK_RECORD
  5
E6B37
330
1
100
AcDbSymbolTableRecord
100
AcDbBlockTableRecord
  2
*D3
340
0
  0
BLOCK_RECORD
  5
E6B40
330
1
100
AcDbSymbolTableRecord
100
AcDbBlockTableRecord
  2
*D4
340
0
  0
BLOCK_RECORD
  5
E6B4C
330
1
100
AcDbSymbolTableRecord
100
AcDbBlockTableRecord
  2
*D5
340
0
  0
BLOCK_RECORD
  5
E6B58
330
1
100
AcDbSymbolTableRecord
100
AcDbBlockTableRecord
  2
*D6
340
0
  0
BLOCK_RECORD
  5
E6B64
330
1
100
AcDbSymbolTableRecord
100
AcDbBlockTableRecord
  2
*D7
340
0
  0
BLOCK_RECORD
  5
E6B70
102
{ACAD_XDICTIONARY
360
E6B71
102
}
330
1
100
AcDbSymbolTableRecord
100
AcDbBlockTableRecord
  2
_Zeropoint.dwg
340
0
102
{BLKREFS
331
E6B7B
102
}
  0
BLOCK_RECORD
  5
E6B79
330
1
100
AcDbSymbolTableRecord
100
AcDbBlockTableRecord
  2
_nullpunkt
340
0
102
{BLKREFS
331
E6FA4
102
}
1001
ACAD
1000
DesignCenter Data
1002
{
1070
     1
1070
     4
1002
}
  0
ENDTAB
  0
ENDSEC
  0
SECTION
  2
BLOCKS
  0
BLOCK
  5
32
330
18
100
AcDbEntity
  8
0
100
AcDbBlockBegin
  2
*MODEL_SPACE
 70
     0
 10
0.0
 20
0.0
 30
0.0
  3
*MODEL_SPACE
  1

  0
ENDBLK
  5
33
330
18
100
AcDbEntity
  8
0
100
AcDbBlockEnd
  0
BLOCK
  5
339
330
338
100
AcDbEntity
 67
     1
  8
0
100
AcDbBlockBegin
  2
*Paper_Space
 70
     0
 10
0.0
 20
0.0
 30
0.0
  3
*Paper_Space
  1

  0
ENDBLK
  5
33A
330
338
100
AcDbEntity
 67
     1
  8
0
100
AcDbBlockEnd
  0
BLOCK
  5
E6B1D
330
E6B1C
100
AcDbEntity
  8
0
100
AcDbBlockBegin
  2
*D0
 70
     1
 10
0.0
 20
0.0
 30
0.0
  3
*D0
  1

  0
LINE
  5
E6B1E
330
E6B1C
100
AcDbEntity
  8
0
100
AcDbLine
 10
-25.0
 20
0.0625
 30
0.0
 11
-25.0
 21
36.724706
 31
0.0
  0
LINE
  5
E6B1F
330
E6B1C
100
AcDbEntity
  8
0
100
AcDbLine
 10
25.0
 20
0.0625
 30
0.0
 11
25.0
 21
36.724706
 31
0.0
  0
LINE
  5
E6B20
330
E6B1C
100
AcDbEntity
  8
0
100
AcDbLine
 10
-25.0
 20
36.599706
 30
0.0
 11
25.0
 21
36.599706
 31
0.0
  0
SOLID
  5
E6B21
330
E6B1C
100
AcDbEntity
  8
0
100
AcDbTrace
 10
-25.0
 20
36.599706
 30
0.0
 11
-22.0
 21
37.403554
 31
0.0
 12
-22.0
 22
35.795859
 32
0.0
 13
-22.0
 23
35.795859
 33
0.0
  0
SOLID
  5
E6B22
330
E6B1C
100
AcDbEntity
  8
0
100
AcDbTrace
 10
25.0
 20
36.599706
 30
0.0
 11
22.0
 21
35.795859
 31
0.0
 12
22.0
 22
37.403554
 32
0.0
 13
22.0
 23
37.403554
 33
0.0
  0
TEXT
  5
E6B23
330
E6B1C
100
AcDbEntity
  8
0
100
AcDbText
 10
-6.970749
 20
38.849706
 30
0.0
 40
3.0
  1
%%c50
100
AcDbText
  0
ENDBLK
  5
E6B24
330
E6B1C
100
AcDbEntity
  8
0
100
AcDbBlockEnd
  0
BLOCK
  5
E6B26
330
E6B25
100
AcDbEntity
  8
0
100
AcDbBlockBegin
  2
*D1
 70
     1
 10
0.0
 20
0.0
 30
0.0
  3
*D1
  1

  0
LINE
  5
E6B27
330
E6B25
100
AcDbEntity
  8
0
100
AcDbLine
 10
0.0
 20
-143.497123
 30
0.0
 11
0.0
 21
-151.520616
 31
0.0
  0
LINE
  5
E6B28
330
E6B25
100
AcDbEntity
  8
0
100
AcDbLine
 10
26.875
 20
-144.550859
 30
0.0
 11
26.875
 21
-151.520616
 31
0.0
  0
LINE
  5
E6B29
330
E6B25
100
AcDbEntity
  8
0
100
AcDbLine
 10
0.0
 20
-151.395616
 30
0.0
 11
26.875
 21
-151.395616
 31
0.0
  0
SOLID
  5
E6B2A
330
E6B25
100
AcDbEntity
  8
0
100
AcDbTrace
 10
0.0
 20
-151.395616
 30
0.0
 11
3.0
 21
-150.591768
 31
0.0
 12
3.0
 22
-152.1994639999999
 32
0.0
 13
3.0
 23
-152.1994639999999
 33
0.0
  0
SOLID
  5
E6B2B
330
E6B25
100
AcDbEntity
  8
0
100
AcDbTrace
 10
26.875
 20
-151.395616
 30
0.0
 11
23.875
 21
-152.1994639999999
 31
0.0
 12
23.875
 22
-150.591768
 32
0.0
 13
23.875
 23
-150.591768
 33
0.0
  0
TEXT
  5
E6B2C
330
E6B25
100
AcDbEntity
  8
0
100
AcDbText
 10
12.924336
 20
-149.895616
 30
0.0
 40
3.0
  1
27
100
AcDbText
  0
ENDBLK
  5
E6B2D
330
E6B25
100
AcDbEntity
  8
0
100
AcDbBlockEnd
  0
BLOCK
  5
E6B2F
330
E6B2E
100
AcDbEntity
  8
0
100
AcDbBlockBegin
  2
*D2
 70
     1
 10
0.0
 20
0.0
 30
0.0
  3
*D2
  1

  0
LINE
  5
E6B30
330
E6B2E
100
AcDbEntity
  8
0
100
AcDbLine
 10
26.9375
 20
-140.0
 30
0.0
 11
62.23541700000001
 21
-140.0
 31
0.0
  0
LINE
  5
E6B31
330
E6B2E
100
AcDbEntity
  8
0
100
AcDbLine
 10
25.0625
 20
0.0
 30
0.0
 11
62.23541700000001
 21
0.0
 31
0.0
  0
LINE
  5
E6B32
330
E6B2E
100
AcDbEntity
  8
0
100
AcDbLine
 10
62.110417
 20
-140.0
 30
0.0
 11
62.110417
 21
0.0
 31
0.0
  0
SOLID
  5
E6B33
330
E6B2E
100
AcDbEntity
  8
0
100
AcDbTrace
 10
62.110417
 20
-140.0
 30
0.0
 11
61.30656999999999
 21
-137.0
 31
0.0
 12
62.914265
 22
-137.0
 32
0.0
 13
62.914265
 23
-137.0
 33
0.0
  0
SOLID
  5
E6B34
330
E6B2E
100
AcDbEntity
  8
0
100
AcDbTrace
 10
62.110417
 20
0.0
 30
0.0
 11
62.914265
 21
-3.0
 31
0.0
 12
61.30656999999999
 22
-3.0
 32
0.0
 13
61.30656999999999
 23
-3.0
 33
0.0
  0
TEXT
  5
E6B35
330
E6B2E
100
AcDbEntity
  8
0
100
AcDbText
 10
60.610417
 20
-76.95482
 30
0.0
 40
3.0
  1
140
 50
90.0
100
AcDbText
  0
ENDBLK
  5
E6B36
330
E6B2E
100
AcDbEntity
  8
0
100
AcDbBlockEnd
  0
BLOCK
  5
E6B38
330
E6B37
100
AcDbEntity
  8
0
100
AcDbBlockBegin
  2
*D3
 70
     1
 10
0.0
 20
0.0
 30
0.0
  3
*D3
  1

  0
LINE
  5
E6B39
330
E6B37
100
AcDbEntity
  8
0
100
AcDbLine
 10
26.088226
 20
-139.998345
 30
0.0
 11
40.138902
 21
-139.998345
 31
0.0
  0
LINE
  5
E6B3A
330
E6B37
100
AcDbEntity
  8
0
100
AcDbLine
 10
18.9625
 20
-21.13449
 30
0.0
 11
40.138902
 21
-21.13449
 31
0.0
  0
LINE
  5
E6B3B
330
E6B37
100
AcDbEntity
  8
0
100
AcDbLine
 10
40.013902
 20
-139.998345
 30
0.0
 11
40.013902
 21
-21.13449
 31
0.0
  0
SOLID
  5
E6B3C
330
E6B37
100
AcDbEntity
  8
0
100
AcDbTrace
 10
40.013902
 20
-139.998345
 30
0.0
 11
39.210055
 21
-136.998345
 31
0.0
 12
40.81774999999999
 22
-136.998345
 32
0.0
 13
40.81774999999999
 23
-136.998345
 33
0.0
  0
SOLID
  5
E6B3D
330
E6B37
100
AcDbEntity
  8
0
100
AcDbTrace
 10
40.013902
 20
-21.13449
 30
0.0
 11
40.81774999999999
 21
-24.13449
 31
0.0
 12
39.210055
 22
-24.13449
 32
0.0
 13
39.210055
 23
-24.13449
 33
0.0
  0
TEXT
  5
E6B3E
330
E6B37
100
AcDbEntity
  8
0
100
AcDbText
 10
38.513902
 20
-81.731701
 30
0.0
 40
3.0
  1
119
 50
90.0
100
AcDbText
  0
ENDBLK
  5
E6B3F
330
E6B37
100
AcDbEntity
  8
0
100
AcDbBlockEnd
  0
BLOCK
  5
E6B41
330
E6B40
100
AcDbEntity
  8
0
100
AcDbBlockBegin
  2
*D4
 70
     1
 10
0.0
 20
0.0
 30
0.0
  3
*D4
  1

  0
LINE
  5
E6FE5
330
E6B40
100
AcDbEntity
  8
SK2
 62
     0
370
    -2
100
AcDbLine
 10
-0.0625000000000015
 20
-25.0
 30
0.0
 11
-37.84970600000001
 21
-24.99999999999999
 31
0.0
  0
LINE
  5
E6FE6
330
E6B40
100
AcDbEntity
  8
SK2
 62
     0
370
    -2
100
AcDbLine
 10
-0.0624999999999985
 20
25.0
 30
0.0
 11
-37.849706
 21
25.00000000000001
 31
0.0
  0
LINE
  5
E6FE7
330
E6B40
100
AcDbEntity
  8
SK2
 62
     0
370
    -2
100
AcDbLine
 10
-36.59970600000001
 20
-22.49999999999999
 30
0.0
 11
-36.599706
 21
22.50000000000001
 31
0.0
  0
SOLID
  5
E6FE8
330
E6B40
100
AcDbEntity
  8
SK2
 62
     0
100
AcDbTrace
 10
-37.01637266666668
 20
-22.49999999999999
 30
0.0
 11
-36.18303933333335
 21
-22.49999999999999
 31
0.0
 12
-36.59970600000001
 22
-24.99999999999999
 32
0.0
 13
-36.59970600000001
 23
-24.99999999999999
 33
0.0
  0
SOLID
  5
E6FE9
330
E6B40
100
AcDbEntity
  8
SK2
 62
     0
100
AcDbTrace
 10
-37.01637266666665
 20
22.50000000000001
 30
0.0
 11
-36.18303933333333
 21
22.50000000000001
 31
0.0
 12
-36.599706
 22
25.00000000000001
 32
0.0
 13
-36.599706
 23
25.00000000000001
 33
0.0
  0
MTEXT
  5
E6FEA
330
E6B40
100
AcDbEntity
  8
SK2
 62
     0
100
AcDbMText
 10
-38.97470600000001
 20
0.0000000000000061
 30
0.0
 40
3.5
 41
0.0
 71
     5
 72
     1
  1
%%c50
  7
SIMPLEX
 11
0.0000000000000001
 21
1.0
 31
0.0
 73
     1
 44
1.0
1001
ACAD
1000
MTEXTBEGIN
1070
    73
1070
     1
1070
    44
1040
1.0
1070
    74
1070
     0
1000
MTEXTEND
  0
POINT
  5
E6FEB
330
E6B40
100
AcDbEntity
  8
Defpoints
 62
     0
100
AcDbPoint
 10
-0.0625000000000015
 20
-25.0
 30
0.0
  0
POINT
  5
E6FEC
330
E6B40
100
AcDbEntity
  8
Defpoints
 62
     0
100
AcDbPoint
 10
-0.0624999999999985
 20
25.0
 30
0.0
  0
POINT
  5
E6FED
330
E6B40
100
AcDbEntity
  8
Defpoints
 62
     0
100
AcDbPoint
 10
-36.599706
 20
25.00000000000001
 30
0.0
  0
ENDBLK
  5
E6B4B
330
E6B40
100
AcDbEntity
  8
0
100
AcDbBlockEnd
  0
BLOCK
  5
E6B4D
330
E6B4C
100
AcDbEntity
  8
0
100
AcDbBlockBegin
  2
*D5
 70
     1
 10
0.0
 20
0.0
 30
0.0
  3
*D5
  1

  0
LINE
  5
E6FDC
330
E6B4C
100
AcDbEntity
  8
2L
 62
     0
370
    -2
100
AcDbLine
 10
143.497123
 20
-0.0000000000000088
 30
0.0
 11
152.645616
 21
-0.0000000000000114
 31
0.0
  0
LINE
  5
E6FDD
330
E6B4C
100
AcDbEntity
  8
2L
 62
     0
370
    -2
100
AcDbLine
 10
144.550859
 20
26.875
 30
0.0
 11
152.645616
 21
26.875
 31
0.0
  0
LINE
  5
E6FDE
330
E6B4C
100
AcDbEntity
  8
2L
 62
     0
370
    -2
100
AcDbLine
 10
151.395616
 20
2.499999999999988
 30
0.0
 11
151.395616
 21
24.375
 31
0.0
  0
SOLID
  5
E6FDF
330
E6B4C
100
AcDbEntity
  8
2L
 62
     0
100
AcDbTrace
 10
150.9789493333333
 20
2.499999999999989
 30
0.0
 11
151.8122826666666
 21
2.499999999999988
 31
0.0
 12
151.395616
 22
-0.000000000000011
 32
0.0
 13
151.395616
 23
-0.000000000000011
 33
0.0
  0
SOLID
  5
E6FE0
330
E6B4C
100
AcDbEntity
  8
2L
 62
     0
100
AcDbTrace
 10
150.9789493333333
 20
24.375
 30
0.0
 11
151.8122826666666
 21
24.375
 31
0.0
 12
151.395616
 22
26.875
 32
0.0
 13
151.395616
 23
26.875
 33
0.0
  0
MTEXT
  5
E6FE1
330
E6B4C
100
AcDbEntity
  8
2L
 62
     0
100
AcDbMText
 10
149.020616
 20
13.43750000000001
 30
0.0
 40
3.5
 41
0.0
 71
     5
 72
     1
  1
27
  7
SIMPLEX
 11
0.0000000000000001
 21
1.0
 31
0.0
 73
     1
 44
1.0
1001
ACAD
1000
MTEXTBEGIN
1070
    73
1070
     1
1070
    44
1040
1.0
1070
    74
1070
     0
1000
MTEXTEND
  0
POINT
  5
E6FE2
330
E6B4C
100
AcDbEntity
  8
Defpoints
 62
     0
100
AcDbPoint
 10
143.497123
 20
-0.0000000000000088
 30
0.0
  0
POINT
  5
E6FE3
330
E6B4C
100
AcDbEntity
  8
Defpoints
 62
     0
100
AcDbPoint
 10
144.550859
 20
26.875
 30
0.0
  0
POINT
  5
E6FE4
330
E6B4C
100
AcDbEntity
  8
Defpoints
 62
     0
100
AcDbPoint
 10
151.395616
 20
26.875
 30
0.0
  0
ENDBLK
  5
E6B57
330
E6B4C
100
AcDbEntity
  8
0
100
AcDbBlockEnd
  0
BLOCK
  5
E6B59
330
E6B58
100
AcDbEntity
  8
0
100
AcDbBlockBegin
  2
*D6
 70
     1
 10
0.0
 20
0.0
 30
0.0
  3
*D6
  1

  0
LINE
  5
E6FD3
330
E6B58
100
AcDbEntity
  8
2L
 62
     0
370
    -2
100
AcDbLine
 10
140.0
 20
26.9375
 30
0.0
 11
140.0
 21
63.360417
 31
0.0
  0
LINE
  5
E6FD4
330
E6B58
100
AcDbEntity
  8
2L
 62
     0
370
    -2
100
AcDbLine
 10
0.0000000000000015
 20
25.0625
 30
0.0
 11
0.0000000000000038
 21
63.360417
 31
0.0
  0
LINE
  5
E6FD5
330
E6B58
100
AcDbEntity
  8
2L
 62
     0
370
    -2
100
AcDbLine
 10
137.5
 20
62.110417
 30
0.0
 11
2.500000000000003
 21
62.110417
 31
0.0
  0
SOLID
  5
E6FD6
330
E6B58
100
AcDbEntity
  8
2L
 62
     0
100
AcDbTrace
 10
137.5
 20
62.52708366666666
 30
0.0
 11
137.5
 21
61.69375033333334
 31
0.0
 12
140.0
 22
62.110417
 32
0.0
 13
140.0
 23
62.110417
 33
0.0
  0
SOLID
  5
E6FD7
330
E6B58
100
AcDbEntity
  8
2L
 62
     0
100
AcDbTrace
 10
2.500000000000003
 20
62.52708366666666
 30
0.0
 11
2.500000000000003
 21
61.69375033333334
 31
0.0
 12
0.0000000000000038
 22
62.110417
 32
0.0
 13
0.0000000000000038
 23
62.110417
 33
0.0
  0
MTEXT
  5
E6FD8
330
E6B58
100
AcDbEntity
  8
2L
 62
     0
100
AcDbMText
 10
70.0
 20
64.48541700000001
 30
0.0
 40
3.5
 41
0.0
 71
     5
 72
     1
  1
140
  7
SIMPLEX
 73
     1
 44
1.0
1001
ACAD
1000
MTEXTBEGIN
1070
    73
1070
     1
1070
    44
1040
1.0
1070
    74
1070
     0
1000
MTEXTEND
  0
POINT
  5
E6FD9
330
E6B58
100
AcDbEntity
  8
Defpoints
 62
     0
100
AcDbPoint
 10
140.0
 20
26.9375
 30
0.0
  0
POINT
  5
E6FDA
330
E6B58
100
AcDbEntity
  8
Defpoints
 62
     0
100
AcDbPoint
 10
0.0000000000000015
 20
25.0625
 30
0.0
  0
POINT
  5
E6FDB
330
E6B58
100
AcDbEntity
  8
Defpoints
 62
     0
100
AcDbPoint
 10
0.0000000000000038
 20
62.110417
 30
0.0
  0
ENDBLK
  5
E6B63
330
E6B58
100
AcDbEntity
  8
0
100
AcDbBlockEnd
  0
BLOCK
  5
E6B65
330
E6B64
100
AcDbEntity
  8
0
100
AcDbBlockBegin
  2
*D7
 70
     1
 10
0.0
 20
0.0
 30
0.0
  3
*D7
  1

  0
LINE
  5
E6FCA
330
E6B64
100
AcDbEntity
  8
2L
 62
     0
370
    -2
100
AcDbLine
 10
139.998345
 20
26.088226
 30
0.0
 11
139.998345
 21
41.263902
 31
0.0
  0
LINE
  5
E6FCB
330
E6B64
100
AcDbEntity
  8
2L
 62
     0
370
    -2
100
AcDbLine
 10
21.13449
 20
18.9625
 30
0.0
 11
21.13449
 21
41.263902
 31
0.0
  0
LINE
  5
E6FCC
330
E6B64
100
AcDbEntity
  8
2L
 62
     0
370
    -2
100
AcDbLine
 10
137.498345
 20
40.013902
 30
0.0
 11
23.63449
 21
40.013902
 31
0.0
  0
SOLID
  5
E6FCD
330
E6B64
100
AcDbEntity
  8
2L
 62
     0
100
AcDbTrace
 10
137.498345
 20
40.43056866666666
 30
0.0
 11
137.498345
 21
39.59723533333335
 31
0.0
 12
139.998345
 22
40.013902
 32
0.0
 13
139.998345
 23
40.013902
 33
0.0
  0
SOLID
  5
E6FCE
330
E6B64
100
AcDbEntity
  8
2L
 62
     0
100
AcDbTrace
 10
23.63449
 20
40.43056866666666
 30
0.0
 11
23.63449
 21
39.59723533333335
 31
0.0
 12
21.13449
 22
40.013902
 32
0.0
 13
21.13449
 23
40.013902
 33
0.0
  0
MTEXT
  5
E6FCF
330
E6B64
100
AcDbEntity
  8
2L
 62
     0
100
AcDbMText
 10
80.5664175
 20
42.388902
 30
0.0
 40
3.5
 41
0.0
 71
     5
 72
     1
  1
119
  7
SIMPLEX
 73
     1
 44
1.0
1001
ACAD
1000
MTEXTBEGIN
1070
    73
1070
     1
1070
    44
1040
1.0
1070
    74
1070
     0
1000
MTEXTEND
  0
POINT
  5
E6FD0
330
E6B64
100
AcDbEntity
  8
Defpoints
 62
     0
100
AcDbPoint
 10
139.998345
 20
26.088226
 30
0.0
  0
POINT
  5
E6FD1
330
E6B64
100
AcDbEntity
  8
Defpoints
 62
     0
100
AcDbPoint
 10
21.13449
 20
18.9625
 30
0.0
  0
POINT
  5
E6FD2
330
E6B64
100
AcDbEntity
  8
Defpoints
 62
     0
100
AcDbPoint
 10
21.13449
 20
40.013902
 30
0.0
  0
ENDBLK
  5
E6B6F
330
E6B64
100
AcDbEntity
  8
0
100
AcDbBlockEnd
  0
BLOCK
  5
E6B73
330
E6B70
100
AcDbEntity
  8
0
100
AcDbBlockBegin
  2
_Zeropoint.dwg
 70
     0
 10
0.0
 20
0.0
 30
0.0
  3
_Zeropoint.dwg
  1

  0
HATCH
  5
E6B74
330
E6B70
100
AcDbEntity
  8
2
100
AcDbHatch
 10
0.0
 20
0.0
 30
0.0
210
0.0
220
0.0
230
1.0
  2
_USER
 70
     0
 71
     1
 91
        2
 92
        7
 72
     1
 73
     1
 93
        3
 10
-2.5
 20
0.0
 42
0.4142135623730951
 10
0.0
 20
-2.5
 42
0.0
 10
0.0
 20
0.0
 42
0.0
 97
        3
330
E6B75
330
E6B77
330
E6B76
 92
        7
 72
     1
 73
     1
 93
        3
 10
0.0
 20
2.5
 42
0.0
 10
0.0
 20
0.0
 42
0.0
 10
2.5
 20
0.0
 42
0.4142135623730951
 97
        3
330
E6B76
330
E6B75
330
E6B77
 75
     0
 76
     0
 52
45.0
 41
0.5
 77
     0
 78
     1
 53
45.0
 43
0.0
 44
0.0
 45
-0.3535533905932737
 46
0.3535533905932738
 79
     0
 47
0.0807540860238484
 98
        2
 10
-1.081351813010084
 20
-0.6749528531090621
 10
1.100054950607727
 20
1.263145885468702
  0
LINE
  5
E6B75
102
{ACAD_REACTORS
330
E6B74
102
}
330
E6B70
100
AcDbEntity
  8
2
100
AcDbLine
 10
5.0
 20
0.0
 30
0.0
 11
-5.0
 21
0.0
 31
0.0
  0
LINE
  5
E6B76
102
{ACAD_REACTORS
330
E6B74
102
}
330
E6B70
100
AcDbEntity
  8
2
100
AcDbLine
 10
0.0
 20
5.0
 30
0.0
 11
0.0
 21
-5.0
 31
0.0
  0
CIRCLE
  5
E6B77
102
{ACAD_REACTORS
330
E6B74
102
}
330
E6B70
100
AcDbEntity
  8
2
100
AcDbCircle
 10
0.0
 20
0.0
 30
0.0
 40
2.5
  0
ENDBLK
  5
E6B78
330
E6B70
100
AcDbEntity
  8
0
100
AcDbBlockEnd
  0
BLOCK
  5
E6B7A
330
E6B79
100
AcDbEntity
  8
0
100
AcDbBlockBegin
  2
_nullpunkt
 70
     0
 10
0.0
 20
0.0
 30
0.0
  3
_nullpunkt
  1

  0
INSERT
  5
E6B7B
330
E6B79
100
AcDbEntity
  8
0
100
AcDbBlockReference
  2
_Zeropoint.dwg
 10
0.0
 20
0.0
 30
0.0
  0
ENDBLK
  5
E6B7C
330
E6B79
100
AcDbEntity
  8
0
100
AcDbBlockEnd
  0
ENDSEC
  0
SECTION
  2
ENTITIES
  0
LINE
  5
E6BAA
330
18
100
AcDbEntity
  8
1
100
AcDbLine
 10
135.414979
 20
9.78257499999999
 30
0.0
 11
131.603884
 21
13.03557799999999
 31
0.0
  0
LINE
  5
E6BAB
330
18
100
AcDbEntity
  8
1
100
AcDbLine
 10
11.894338
 20
8.055847999999999
 30
0.0
 11
11.840658
 21
7.894421999999997
 31
0.0
  0
LINE
  5
E6BAC
330
18
100
AcDbEntity
  8
1
100
AcDbLine
 10
11.894338
 20
23.666502
 30
0.0
 11
11.840658
 21
23.72083
 31
0.0
  0
LINE
  5
E6BAD
330
18
100
AcDbEntity
  8
1
100
AcDbLine
 10
11.840658
 20
7.894421999999997
 30
0.0
 11
11.706151
 21
7.662630999999997
 31
0.0
  0
LINE
  5
E6BAE
330
18
100
AcDbEntity
  8
1
100
AcDbLine
 10
11.840658
 20
23.72083
 30
0.0
 11
11.706151
 21
23.796728
 31
0.0
  0
LINE
  5
E6BAF
330
18
100
AcDbEntity
  8
1
100
AcDbLine
 10
11.706151
 20
7.662630999999997
 30
0.0
 11
11.59973
 21
7.570103999999997
 31
0.0
  0
LINE
  5
E6BB0
330
18
100
AcDbEntity
  8
1
100
AcDbLine
 10
11.706151
 20
23.796728
 30
0.0
 11
11.59973
 21
23.826321
 31
0.0
  0
LINE
  5
E6BB1
330
18
100
AcDbEntity
  8
1
100
AcDbLine
 10
11.461325
 20
7.529666999999997
 30
0.0
 11
9.985238999999999
 21
7.529666999999997
 31
0.0
  0
LINE
  5
E6BB2
330
18
100
AcDbEntity
  8
1
100
AcDbLine
 10
9.985238999999999
 20
7.529666999999997
 30
0.0
 11
8.538674999999999
 21
7.529666999999997
 31
0.0
  0
LINE
  5
E6BB3
330
18
100
AcDbEntity
  8
1
100
AcDbLine
 10
11.894338
 20
-23.666502
 30
0.0
 11
11.84065799999999
 21
-23.72083
 31
0.0
  0
LINE
  5
E6BB4
330
18
100
AcDbEntity
  8
1
100
AcDbLine
 10
11.894338
 20
-8.055847999999999
 30
0.0
 11
11.840658
 21
-7.894422000000001
 31
0.0
  0
LINE
  5
E6BB5
330
18
100
AcDbEntity
  8
1
100
AcDbLine
 10
11.84065799999999
 20
-23.72083
 30
0.0
 11
11.706151
 21
-23.796728
 31
0.0
  0
LINE
  5
E6BB6
330
18
100
AcDbEntity
  8
1
100
AcDbLine
 10
11.840658
 20
-7.894422000000001
 30
0.0
 11
11.706151
 21
-7.662631000000001
 31
0.0
  0
LINE
  5
E6BB7
330
18
100
AcDbEntity
  8
1
100
AcDbLine
 10
11.706151
 20
-23.796728
 30
0.0
 11
11.59973
 21
-23.826321
 31
0.0
  0
LINE
  5
E6BB8
330
18
100
AcDbEntity
  8
1
100
AcDbLine
 10
11.706151
 20
-7.662631000000001
 30
0.0
 11
11.59973
 21
-7.570103999999997
 31
0.0
  0
LINE
  5
E6BB9
330
18
100
AcDbEntity
  8
SK1
100
AcDbLine
 10
-0.000000000000001
 20
-17.004583
 30
0.0
 11
-0.654115000000001
 21
-17.046131
 31
0.0
  0
LINE
  5
E6BBA
330
18
100
AcDbEntity
  8
SK1
100
AcDbLine
 10
0.000000000000001
 20
17.004583
 30
0.0
 11
-0.6541149999999992
 21
17.046131
 31
0.0
  0
LINE
  5
E6BBB
330
18
100
AcDbEntity
  8
1
100
AcDbLine
 10
11.461325
 20
7.529666999999997
 30
0.0
 11
11.461325
 21
23.83913
 31
0.0
  0
LINE
  5
E6BBC
330
18
100
AcDbEntity
  8
1
100
AcDbLine
 10
21.13449
 20
-18.9
 30
0.0
 11
21.13449
 21
18.9
 31
0.0
  0
LINE
  5
E6BBD
330
18
100
AcDbEntity
  8
1
100
AcDbLine
 10
120.997417
 20
18.89999999999998
 30
0.0
 11
125.250483
 21
15.52646299999999
 31
0.0
  0
LINE
  5
E6BBE
330
18
100
AcDbEntity
  8
1
100
AcDbLine
 10
126.221711
 20
-3.110580000000006
 30
0.0
 11
123.71881
 21
-5.329459000000006
 31
0.0
  0
LINE
  5
E6BBF
330
18
100
AcDbEntity
  8
1
100
AcDbLine
 10
125.470464
 20
0.2315689999999923
 30
0.0
 11
126.221711
 21
-3.110580000000006
 31
0.0
  0
LINE
  5
E6BC0
330
18
100
AcDbEntity
  8
SK1
100
AcDbLine
 10
-28.5
 20
16.787437
 30
0.0
 11
-30.0
 21
15.921412
 31
0.0
  0
LINE
  5
E6BC1
330
18
100
AcDbEntity
  8
1
100
AcDbLine
 10
8.538674999999999
 20
7.529666999999997
 30
0.0
 11
8.538675000000001
 21
23.83913
 31
0.0
  0
LINE
  5
E6BC2
330
18
100
AcDbEntity
  8
SK1
100
AcDbLine
 10
-28.5
 20
-16.787437
 30
0.0
 11
-30.0
 21
-15.921412
 31
0.0
  0
LINE
  5
E6BC3
330
18
100
AcDbEntity
  8
1
100
AcDbLine
 10
123.71881
 20
-5.329459000000006
 30
0.0
 11
120.464661
 21
-4.206188000000006
 31
0.0
  0
LINE
  5
E6BC4
330
18
100
AcDbEntity
  8
1
100
AcDbLine
 10
129.367631
 20
11.34967599999999
 30
0.0
 11
130.052473
 21
11.90711699999999
 31
0.0
  0
LINE
  5
E6BC5
330
18
100
AcDbEntity
  8
1
100
AcDbLine
 10
19.5
 20
-25.0
 30
0.0
 11
21.13449
 21
-18.9
 31
0.0
  0
LINE
  5
E6BC6
330
18
100
AcDbEntity
  8
1
100
AcDbLine
 10
139.997917
 20
26.01756599999999
 30
0.0
 11
139.285786
 21
12.42930599999999
 31
0.0
  0
LINE
  5
E6BC7
330
18
100
AcDbEntity
  8
1
100
AcDbLine
 10
21.13449
 20
18.9
 30
0.0
 11
120.997417
 21
18.89999999999998
 31
0.0
  0
LINE
  5
E6BC8
330
18
100
AcDbEntity
  8
1
100
AcDbLine
 10
8.105661999999997
 20
8.055847999999999
 30
0.0
 11
8.105675000000001
 21
23.666548
 31
0.0
  0
LINE
  5
E6BC9
330
18
100
AcDbEntity
  8
1
100
AcDbLine
 10
11.894338
 20
8.055847999999999
 30
0.0
 11
11.894325
 21
23.666548
 31
0.0
  0
LINE
  5
E6BCA
330
18
100
AcDbEntity
  8
1
100
AcDbLine
 10
8.538674999999997
 20
-23.83913
 30
0.0
 11
8.538674999999999
 21
-7.529666999999997
 31
0.0
  0
LINE
  5
E6BCB
330
18
100
AcDbEntity
  8
1
100
AcDbLine
 10
19.5
 20
-25.0
 30
0.0
 11
19.5
 21
25.0
 31
0.0
  0
LINE
  5
E6BCC
330
18
100
AcDbEntity
  8
1
100
AcDbLine
 10
21.13449
 20
-18.9
 30
0.0
 11
125.827694
 21
-18.9
 31
0.0
  0
LINE
  5
E6BCD
330
18
100
AcDbEntity
  8
SK1
100
AcDbLine
 10
-30.0
 20
-15.921412
 30
0.0
 11
-30.0
 21
15.921412
 31
0.0
  0
LINE
  5
E6BCE
330
18
100
AcDbEntity
  8
SK1
100
AcDbLine
 10
-28.5
 20
-16.787437
 30
0.0
 11
-28.5
 21
16.787437
 31
0.0
  0
LINE
  5
E6BCF
330
18
100
AcDbEntity
  8
SK1
100
AcDbLine
 10
-2.043353999999999
 20
-17.448912
 30
0.0
 11
-2.043353999999999
 21
17.448912
 31
0.0
  0
LINE
  5
E6BD0
330
18
100
AcDbEntity
  8
1
100
AcDbLine
 10
19.5
 20
-25.0
 30
0.0
 11
-0.0000000000000015
 21
-25.0
 31
0.0
  0
LINE
  5
E6BD1
330
18
100
AcDbEntity
  8
1
100
AcDbLine
 10
19.5
 20
25.0
 30
0.0
 11
21.13449
 21
18.9
 31
0.0
  0
LINE
  5
E6BD2
330
18
100
AcDbEntity
  8
1
100
AcDbLine
 10
138.427694
 20
-6.300000000000008
 30
0.0
 11
125.827694
 21
-18.9
 31
0.0
  0
LINE
  5
E6BD3
330
18
100
AcDbEntity
  8
1
100
AcDbLine
 10
139.371135
 20
11.70191399999999
 30
0.0
 11
138.427694
 21
-6.300000000000008
 31
0.0
  0
LINE
  5
E6BD4
330
18
100
AcDbEntity
  8
1
100
AcDbLine
 10
19.5
 20
25.0
 30
0.0
 11
0.0000000000000015
 21
25.0
 31
0.0
  0
LINE
  5
E6BD5
330
18
100
AcDbEntity
  8
SK1
100
AcDbLine
 10
-2.043353999999999
 20
-17.448912
 30
0.0
 11
-28.5
 21
-16.787437
 31
0.0
  0
LINE
  5
E6BD6
330
18
100
AcDbEntity
  8
SK1
100
AcDbLine
 10
-2.043353999999999
 20
17.448912
 30
0.0
 11
-28.5
 21
16.787437
 31
0.0
  0
LINE
  5
E6BD7
330
18
100
AcDbEntity
  8
1
100
AcDbLine
 10
11.894338
 20
-23.666502
 30
0.0
 11
11.894325
 21
-8.055771999999999
 31
0.0
  0
LINE
  5
E6BD8
330
18
100
AcDbEntity
  8
1
100
AcDbLine
 10
8.105661999999997
 20
-23.666502
 30
0.0
 11
8.105674999999997
 21
-8.055771999999999
 31
0.0
  0
LINE
  5
E6BD9
330
18
100
AcDbEntity
  8
1
100
AcDbLine
 10
11.461325
 20
-23.83913
 30
0.0
 11
11.461325
 21
-7.529666999999997
 31
0.0
  0
LINE
  5
E6BDA
330
18
100
AcDbEntity
  8
1
100
AcDbLine
 10
122.216315
 20
1.354839999999992
 30
0.0
 11
125.470464
 21
0.2315689999999923
 31
0.0
  0
LINE
  5
E6BDB
330
18
100
AcDbEntity
  8
1
100
AcDbLine
 10
0.0000000000000015
 20
25.0
 30
0.0
 11
-0.0000000000000015
 21
-25.0
 31
0.0
  0
LINE
  5
E6BDC
330
18
100
AcDbEntity
  8
1
100
AcDbLine
 10
129.367631
 20
11.34967599999999
 30
0.0
 11
123.168468
 21
3.700507999999991
 31
0.0
  0
LINE
  5
E6BDD
330
18
100
AcDbEntity
  8
1
100
AcDbLine
 10
127.241415
 20
8.151169999999991
 30
0.0
 11
123.360849
 21
3.437957999999991
 31
0.0
  0
LINE
  5
E6BDE
330
18
100
AcDbEntity
  8
1
100
AcDbLine
 10
129.962088
 20
15.55262399999999
 30
0.0
 11
129.759882
 21
11.69429199999999
 31
0.0
  0
LINE
  5
E6BDF
330
18
100
AcDbEntity
  8
1
100
AcDbLine
 10
11.59973
 20
-23.826321
 30
0.0
 11
11.461325
 21
-23.83913
 31
0.0
  0
LINE
  5
E6BE0
330
18
100
AcDbEntity
  8
1
100
AcDbLine
 10
11.461325
 20
-23.83913
 30
0.0
 11
9.985238999999998
 21
-23.83913
 31
0.0
  0
LINE
  5
E6BE1
330
18
100
AcDbEntity
  8
1
100
AcDbLine
 10
9.985238999999998
 20
-23.83913
 30
0.0
 11
8.538674999999997
 21
-23.83913
 31
0.0
  0
LINE
  5
E6BE2
330
18
100
AcDbEntity
  8
1
100
AcDbLine
 10
8.538674999999997
 20
-23.83913
 30
0.0
 11
8.400269999999997
 21
-23.826321
 31
0.0
  0
LINE
  5
E6BE3
330
18
100
AcDbEntity
  8
1
100
AcDbLine
 10
8.400269999999997
 20
-23.826321
 30
0.0
 11
8.293848999999998
 21
-23.796728
 31
0.0
  0
LINE
  5
E6BE4
330
18
100
AcDbEntity
  8
1
100
AcDbLine
 10
8.293848999999998
 20
-23.796728
 30
0.0
 11
8.159341999999996
 21
-23.72083
 31
0.0
  0
LINE
  5
E6BE5
330
18
100
AcDbEntity
  8
1
100
AcDbLine
 10
8.159341999999996
 20
-23.72083
 30
0.0
 11
8.105661999999997
 21
-23.666502
 31
0.0
  0
LINE
  5
E6BE6
330
18
100
AcDbEntity
  8
1
100
AcDbLine
 10
11.59973
 20
-7.570103999999997
 30
0.0
 11
11.461325
 21
-7.529666999999997
 31
0.0
  0
LINE
  5
E6BE7
330
18
100
AcDbEntity
  8
1
100
AcDbLine
 10
11.461325
 20
-7.529666999999997
 30
0.0
 11
9.985238999999999
 21
-7.529666999999997
 31
0.0
  0
LINE
  5
E6BE8
330
18
100
AcDbEntity
  8
1
100
AcDbLine
 10
9.985238999999999
 20
-7.529666999999997
 30
0.0
 11
8.538674999999999
 21
-7.529666999999997
 31
0.0
  0
LINE
  5
E6BE9
330
18
100
AcDbEntity
  8
1
100
AcDbLine
 10
8.538674999999999
 20
-7.529666999999997
 30
0.0
 11
8.400269999999999
 21
-7.570103999999997
 31
0.0
  0
LINE
  5
E6BEA
330
18
100
AcDbEntity
  8
1
100
AcDbLine
 10
8.293848999999998
 20
-7.662631000000001
 30
0.0
 11
8.159342
 21
-7.894422000000001
 31
0.0
  0
LINE
  5
E6BEB
330
18
100
AcDbEntity
  8
1
100
AcDbLine
 10
8.159342
 20
-7.894422000000001
 30
0.0
 11
8.105661999999997
 21
-8.055847999999999
 31
0.0
  0
LINE
  5
E6BEC
330
18
100
AcDbEntity
  8
1
100
AcDbLine
 10
11.59973
 20
7.570103999999997
 30
0.0
 11
11.461325
 21
7.529666999999997
 31
0.0
  0
LINE
  5
E6BED
330
18
100
AcDbEntity
  8
1
100
AcDbLine
 10
11.461325
 20
7.529666999999997
 30
0.0
 11
9.985238999999999
 21
7.529666999999997
 31
0.0
  0
LINE
  5
E6BEE
330
18
100
AcDbEntity
  8
1
100
AcDbLine
 10
9.985238999999999
 20
7.529666999999997
 30
0.0
 11
8.538674999999999
 21
7.529666999999997
 31
0.0
  0
LINE
  5
E6BEF
330
18
100
AcDbEntity
  8
1
100
AcDbLine
 10
8.538674999999999
 20
7.529666999999997
 30
0.0
 11
8.400269999999999
 21
7.570103999999997
 31
0.0
  0
LINE
  5
E6BF0
330
18
100
AcDbEntity
  8
1
100
AcDbLine
 10
8.400269999999999
 20
7.570103999999997
 30
0.0
 11
8.293848999999998
 21
7.662630999999997
 31
0.0
  0
LINE
  5
E6BF1
330
18
100
AcDbEntity
  8
1
100
AcDbLine
 10
8.293848999999998
 20
7.662630999999997
 30
0.0
 11
8.159342
 21
7.894421999999997
 31
0.0
  0
LINE
  5
E6BF2
330
18
100
AcDbEntity
  8
1
100
AcDbLine
 10
8.159342
 20
7.894421999999997
 30
0.0
 11
8.105661999999997
 21
8.055847999999999
 31
0.0
  0
LINE
  5
E6BF3
330
18
100
AcDbEntity
  8
1
100
AcDbLine
 10
11.59973
 20
23.826321
 30
0.0
 11
11.461325
 21
23.83913
 31
0.0
  0
LINE
  5
E6BF4
330
18
100
AcDbEntity
  8
1
100
AcDbLine
 10
11.461325
 20
23.83913
 30
0.0
 11
9.985238999999999
 21
23.83913
 31
0.0
  0
LINE
  5
E6BF5
330
18
100
AcDbEntity
  8
1
100
AcDbLine
 10
9.985238999999999
 20
23.83913
 30
0.0
 11
8.538675000000001
 21
23.83913
 31
0.0
  0
LINE
  5
E6BF6
330
18
100
AcDbEntity
  8
1
100
AcDbLine
 10
8.538675000000001
 20
23.83913
 30
0.0
 11
8.400269999999999
 21
23.826321
 31
0.0
  0
LINE
  5
E6BF7
330
18
100
AcDbEntity
  8
1
100
AcDbLine
 10
8.400269999999999
 20
23.826321
 30
0.0
 11
8.293849000000001
 21
23.796728
 31
0.0
  0
LINE
  5
E6BF8
330
18
100
AcDbEntity
  8
1
100
AcDbLine
 10
8.293849000000001
 20
23.796728
 30
0.0
 11
8.159342000000002
 21
23.72083
 31
0.0
  0
LINE
  5
E6BF9
330
18
100
AcDbEntity
  8
1
100
AcDbLine
 10
8.159342000000002
 20
23.72083
 30
0.0
 11
8.105661999999997
 21
23.666502
 31
0.0
  0
LINE
  5
E6BFA
330
18
100
AcDbEntity
  8
SK1
100
AcDbLine
 10
-0.654115000000001
 20
-17.046131
 30
0.0
 11
-1.354130999999999
 21
-17.182245
 31
0.0
  0
LINE
  5
E6BFB
330
18
100
AcDbEntity
  8
SK1
100
AcDbLine
 10
-1.354130999999999
 20
-17.182245
 30
0.0
 11
-1.801363999999999
 21
-17.298915
 31
0.0
  0
LINE
  5
E6BFC
330
18
100
AcDbEntity
  8
1
100
AcDbLine
 10
8.538674999999999
 20
7.529666999999997
 30
0.0
 11
8.400269999999999
 21
7.570103999999997
 31
0.0
  0
LINE
  5
E6BFD
330
18
100
AcDbEntity
  8
1
100
AcDbLine
 10
8.400269999999999
 20
7.570103999999997
 30
0.0
 11
8.293848999999998
 21
7.662630999999997
 31
0.0
  0
LINE
  5
E6BFE
330
18
100
AcDbEntity
  8
1
100
AcDbLine
 10
8.293848999999998
 20
7.662630999999997
 30
0.0
 11
8.159342
 21
7.894421999999997
 31
0.0
  0
LINE
  5
E6BFF
330
18
100
AcDbEntity
  8
1
100
AcDbLine
 10
8.159342
 20
7.894421999999997
 30
0.0
 11
8.105661999999997
 21
8.055847999999999
 31
0.0
  0
LINE
  5
E6C00
330
18
100
AcDbEntity
  8
SK1
100
AcDbLine
 10
-0.6541149999999992
 20
17.046131
 30
0.0
 11
-1.354130999999997
 21
17.182245
 31
0.0
  0
LINE
  5
E6C01
330
18
100
AcDbEntity
  8
SK1
100
AcDbLine
 10
-1.801363999999995
 20
17.298915
 30
0.0
 11
-2.043353999999999
 21
17.448912
 31
0.0
  0
LINE
  5
E6C02
330
18
100
AcDbEntity
  8
1
100
AcDbLine
 10
129.506697
 20
11.00022599999999
 30
0.0
 11
131.272273
 21
12.45688199999999
 31
0.0
  0
LINE
  5
E6C03
330
18
100
AcDbEntity
  8
1
100
AcDbLine
 10
131.272273
 20
12.45688199999999
 30
0.0
 11
131.694969
 21
12.95783199999999
 31
0.0
  0
LINE
  5
E6C04
330
18
100
AcDbEntity
  8
1
100
AcDbLine
 10
138.577325
 20
26.57057999999999
 30
0.0
 11
130.129315
 21
15.99377999999999
 31
0.0
  0
LINE
  5
E6C05
330
18
100
AcDbEntity
  8
1
100
AcDbLine
 10
129.367631
 20
11.34967599999999
 30
0.0
 11
129.506697
 21
11.00022599999999
 31
0.0
  0
LINE
  5
E6C06
330
18
100
AcDbEntity
  8
1
100
AcDbLine
 10
132.103725
 20
4.161588999999991
 30
0.0
 11
128.223159
 21
-0.5516240000000079
 31
0.0
  0
LINE
  5
E6C07
330
18
100
AcDbEntity
  8
1
100
AcDbLine
 10
129.506697
 20
11.00022599999999
 30
0.0
 11
134.369007
 21
7.010643999999991
 31
0.0
  0
LINE
  5
E6C08
330
18
100
AcDbEntity
  8
1
100
AcDbLine
 10
8.400269999999999
 20
-7.570103999999997
 30
0.0
 11
8.293848999999998
 21
-7.662631000000001
 31
0.0
  0
LINE
  5
E6C09
330
18
100
AcDbEntity
  8
1
100
AcDbLine
 10
134.369007
 20
7.010643999999991
 30
0.0
 11
135.237722
 21
9.203185999999991
 31
0.0
  0
LINE
  5
E6C0A
330
18
100
AcDbEntity
  8
1
100
AcDbLine
 10
130.052473
 20
11.90711699999999
 30
0.0
 11
131.603884
 21
13.03557799999999
 31
0.0
  0
LINE
  5
E6C0B
330
18
100
AcDbEntity
  8
1
100
AcDbLine
 10
135.237722
 20
9.203185999999991
 30
0.0
 11
135.414979
 21
9.78257499999999
 31
0.0
  0
LINE
  5
E6C0C
330
18
100
AcDbEntity
  8
1
100
AcDbLine
 10
120.464661
 20
-4.206188000000006
 30
0.0
 11
119.713414
 21
-0.8640380000000073
 31
0.0
  0
LINE
  5
E6C0D
330
18
100
AcDbEntity
  8
1
100
AcDbLine
 10
127.241415
 20
8.151169999999991
 30
0.0
 11
132.103725
 21
4.161588999999991
 31
0.0
  0
LINE
  5
E6C0E
330
18
100
AcDbEntity
  8
1
100
AcDbLine
 10
130.67055
 20
1.411349999999989
 30
0.0
 11
139.118559
 21
11.98814999999999
 31
0.0
  0
LINE
  5
E6C0F
330
18
100
AcDbEntity
  8
1
100
AcDbLine
 10
119.713414
 20
-0.8640380000000073
 30
0.0
 11
122.216315
 21
1.354839999999992
 31
0.0
  0
LINE
  5
E6C10
330
18
100
AcDbEntity
  8
1
100
AcDbLine
 10
123.168468
 20
3.700507999999991
 30
0.0
 11
122.72149
 21
3.720239999999991
 31
0.0
  0
LINE
  5
E6C11
330
18
100
AcDbEntity
  8
1
100
AcDbLine
 10
122.72149
 20
3.720239999999991
 30
0.0
 11
122.274347
 21
3.70326999999999
 31
0.0
  0
LINE
  5
E6C12
330
18
100
AcDbEntity
  8
1
100
AcDbLine
 10
122.274347
 20
3.70326999999999
 30
0.0
 11
121.830058
 21
3.649711999999991
 31
0.0
  0
LINE
  5
E6C13
330
18
100
AcDbEntity
  8
1
100
AcDbLine
 10
121.830058
 20
3.649711999999991
 30
0.0
 11
121.39162
 21
3.559925999999991
 31
0.0
  0
LINE
  5
E6C14
330
18
100
AcDbEntity
  8
1
100
AcDbLine
 10
121.39162
 20
3.559925999999991
 30
0.0
 11
120.961992
 21
3.43451899999999
 31
0.0
  0
LINE
  5
E6C15
330
18
100
AcDbEntity
  8
1
100
AcDbLine
 10
120.961992
 20
3.43451899999999
 30
0.0
 11
120.544074
 21
3.27433799999999
 31
0.0
  0
LINE
  5
E6C16
330
18
100
AcDbEntity
  8
1
100
AcDbLine
 10
120.544074
 20
3.27433799999999
 30
0.0
 11
120.140685
 21
3.080462999999991
 31
0.0
  0
LINE
  5
E6C17
330
18
100
AcDbEntity
  8
1
100
AcDbLine
 10
120.140685
 20
3.080462999999991
 30
0.0
 11
119.754548
 21
2.854201999999991
 31
0.0
  0
LINE
  5
E6C18
330
18
100
AcDbEntity
  8
1
100
AcDbLine
 10
119.754548
 20
2.854201999999991
 30
0.0
 11
119.388269
 21
2.59708199999999
 31
0.0
  0
LINE
  5
E6C19
330
18
100
AcDbEntity
  8
1
100
AcDbLine
 10
119.388269
 20
2.59708199999999
 30
0.0
 11
119.044319
 21
2.31083899999999
 31
0.0
  0
LINE
  5
E6C1A
330
18
100
AcDbEntity
  8
1
100
AcDbLine
 10
119.044319
 20
2.31083899999999
 30
0.0
 11
118.725018
 21
1.997403999999992
 31
0.0
  0
LINE
  5
E6C1B
330
18
100
AcDbEntity
  8
1
100
AcDbLine
 10
118.725018
 20
1.997403999999992
 30
0.0
 11
118.432523
 21
1.658891999999991
 31
0.0
  0
LINE
  5
E6C1C
330
18
100
AcDbEntity
  8
1
100
AcDbLine
 10
118.432523
 20
1.658891999999991
 30
0.0
 11
118.168807
 21
1.297587999999989
 31
0.0
  0
LINE
  5
E6C1D
330
18
100
AcDbEntity
  8
1
100
AcDbLine
 10
118.168807
 20
1.297587999999989
 30
0.0
 11
117.935649
 21
0.9159289999999927
 31
0.0
  0
LINE
  5
E6C1E
330
18
100
AcDbEntity
  8
1
100
AcDbLine
 10
117.935649
 20
0.9159289999999927
 30
0.0
 11
117.734623
 21
0.5164909999999928
 31
0.0
  0
LINE
  5
E6C1F
330
18
100
AcDbEntity
  8
1
100
AcDbLine
 10
117.734623
 20
0.5164909999999928
 30
0.0
 11
117.567085
 21
0.1019709999999928
 31
0.0
  0
LINE
  5
E6C20
330
18
100
AcDbEntity
  8
1
100
AcDbLine
 10
117.567085
 20
0.1019709999999928
 30
0.0
 11
117.434167
 21
-0.3248360000000072
 31
0.0
  0
LINE
  5
E6C21
330
18
100
AcDbEntity
  8
1
100
AcDbLine
 10
117.434167
 20
-0.3248360000000072
 30
0.0
 11
117.336764
 21
-0.7610490000000072
 31
0.0
  0
LINE
  5
E6C22
330
18
100
AcDbEntity
  8
1
100
AcDbLine
 10
117.336764
 20
-0.7610490000000072
 30
0.0
 11
117.275534
 21
-1.203724000000007
 31
0.0
  0
LINE
  5
E6C23
330
18
100
AcDbEntity
  8
1
100
AcDbLine
 10
117.275534
 20
-1.203724000000007
 30
0.0
 11
117.250891
 21
-1.649874000000006
 31
0.0
  0
LINE
  5
E6C24
330
18
100
AcDbEntity
  8
1
100
AcDbLine
 10
117.250891
 20
-1.649874000000006
 30
0.0
 11
117.263
 21
-2.096488000000007
 31
0.0
  0
LINE
  5
E6C25
330
18
100
AcDbEntity
  8
1
100
AcDbLine
 10
117.263
 20
-2.096488000000007
 30
0.0
 11
117.311781
 21
-2.540553000000004
 31
0.0
  0
LINE
  5
E6C26
330
18
100
AcDbEntity
  8
1
100
AcDbLine
 10
117.311781
 20
-2.540553000000004
 30
0.0
 11
117.396903
 21
-2.979071000000006
 31
0.0
  0
LINE
  5
E6C27
330
18
100
AcDbEntity
  8
1
100
AcDbLine
 10
117.396903
 20
-2.979071000000006
 30
0.0
 11
117.517793
 21
-3.409083000000006
 31
0.0
  0
LINE
  5
E6C28
330
18
100
AcDbEntity
  8
1
100
AcDbLine
 10
117.517793
 20
-3.409083000000006
 30
0.0
 11
117.673634
 21
-3.827689000000006
 31
0.0
  0
LINE
  5
E6C29
330
18
100
AcDbEntity
  8
1
100
AcDbLine
 10
117.673634
 20
-3.827689000000006
 30
0.0
 11
117.863375
 21
-4.232062000000006
 31
0.0
  0
LINE
  5
E6C2A
330
18
100
AcDbEntity
  8
1
100
AcDbLine
 10
117.863375
 20
-4.232062000000006
 30
0.0
 11
118.085735
 21
-4.619474000000003
 31
0.0
  0
LINE
  5
E6C2B
330
18
100
AcDbEntity
  8
1
100
AcDbLine
 10
118.085735
 20
-4.619474000000003
 30
0.0
 11
118.339215
 21
-4.987311000000006
 31
0.0
  0
LINE
  5
E6C2C
330
18
100
AcDbEntity
  8
1
100
AcDbLine
 10
118.339215
 20
-4.987311000000006
 30
0.0
 11
118.622103
 21
-5.333091000000004
 31
0.0
  0
LINE
  5
E6C2D
330
18
100
AcDbEntity
  8
1
100
AcDbLine
 10
118.622103
 20
-5.333091000000004
 30
0.0
 11
118.932491
 21
-5.654479000000008
 31
0.0
  0
LINE
  5
E6C2E
330
18
100
AcDbEntity
  8
1
100
AcDbLine
 10
118.932491
 20
-5.654479000000008
 30
0.0
 11
119.268283
 21
-5.949308000000008
 31
0.0
  0
LINE
  5
E6C2F
330
18
100
AcDbEntity
  8
1
100
AcDbLine
 10
119.268283
 20
-5.949308000000008
 30
0.0
 11
119.627214
 21
-6.215587000000008
 31
0.0
  0
LINE
  5
E6C30
330
18
100
AcDbEntity
  8
1
100
AcDbLine
 10
132.103736
 20
4.161601999999991
 30
0.0
 11
133.297098
 21
5.636014999999991
 31
0.0
  0
LINE
  5
E6C31
330
18
100
AcDbEntity
  8
1
100
AcDbLine
 10
133.297098
 20
5.636014999999991
 30
0.0
 11
134.369007
 21
7.010643999999991
 31
0.0
  0
LINE
  5
E6C32
330
18
100
AcDbEntity
  8
1
100
AcDbLine
 10
123.360849
 20
3.437957999999991
 30
0.0
 11
122.931368
 21
3.451446999999991
 31
0.0
  0
LINE
  5
E6C33
330
18
100
AcDbEntity
  8
1
100
AcDbLine
 10
122.931368
 20
3.451446999999991
 30
0.0
 11
122.502113
 21
3.431084999999991
 31
0.0
  0
LINE
  5
E6C34
330
18
100
AcDbEntity
  8
1
100
AcDbLine
 10
122.502113
 20
3.431084999999991
 30
0.0
 11
122.075755
 21
3.376998999999991
 31
0.0
  0
LINE
  5
E6C35
330
18
100
AcDbEntity
  8
1
100
AcDbLine
 10
122.075755
 20
3.376998999999991
 30
0.0
 11
121.654947
 21
3.28952499999999
 31
0.0
  0
LINE
  5
E6C36
330
18
100
AcDbEntity
  8
1
100
AcDbLine
 10
121.654947
 20
3.28952499999999
 30
0.0
 11
121.242309
 21
3.169208999999991
 31
0.0
  0
LINE
  5
E6C37
330
18
100
AcDbEntity
  8
1
100
AcDbLine
 10
121.242309
 20
3.169208999999991
 30
0.0
 11
120.840409
 21
3.016797999999991
 31
0.0
  0
LINE
  5
E6C38
330
18
100
AcDbEntity
  8
1
100
AcDbLine
 10
120.840409
 20
3.016797999999991
 30
0.0
 11
120.451748
 21
2.833241999999991
 31
0.0
  0
LINE
  5
E6C39
330
18
100
AcDbEntity
  8
1
100
AcDbLine
 10
120.451748
 20
2.833241999999991
 30
0.0
 11
120.078746
 21
2.619682999999989
 31
0.0
  0
LINE
  5
E6C3A
330
18
100
AcDbEntity
  8
1
100
AcDbLine
 10
120.078746
 20
2.619682999999989
 30
0.0
 11
119.723723
 21
2.37744999999999
 31
0.0
  0
LINE
  5
E6C3B
330
18
100
AcDbEntity
  8
1
100
AcDbLine
 10
119.723723
 20
2.37744999999999
 30
0.0
 11
119.388891
 21
2.108049999999991
 31
0.0
  0
LINE
  5
E6C3C
330
18
100
AcDbEntity
  8
1
100
AcDbLine
 10
119.388891
 20
2.108049999999991
 30
0.0
 11
119.076332
 21
1.813161999999991
 31
0.0
  0
LINE
  5
E6C3D
330
18
100
AcDbEntity
  8
1
100
AcDbLine
 10
119.076332
 20
1.813161999999991
 30
0.0
 11
118.787992
 21
1.494618999999991
 31
0.0
  0
LINE
  5
E6C3E
330
18
100
AcDbEntity
  8
1
100
AcDbLine
 10
118.787992
 20
1.494618999999991
 30
0.0
 11
118.525665
 21
1.154403999999989
 31
0.0
  0
LINE
  5
E6C3F
330
18
100
AcDbEntity
  8
1
100
AcDbLine
 10
118.525665
 20
1.154403999999989
 30
0.0
 11
118.290985
 21
0.7946359999999928
 31
0.0
  0
LINE
  5
E6C40
330
18
100
AcDbEntity
  8
1
100
AcDbLine
 10
118.290985
 20
0.7946359999999928
 30
0.0
 11
118.085412
 21
0.417552999999993
 31
0.0
  0
LINE
  5
E6C41
330
18
100
AcDbEntity
  8
1
100
AcDbLine
 10
118.085412
 20
0.417552999999993
 30
0.0
 11
117.910225
 21
0.0255019999999928
 31
0.0
  0
LINE
  5
E6C42
330
18
100
AcDbEntity
  8
1
100
AcDbLine
 10
117.910225
 20
0.0255019999999928
 30
0.0
 11
117.766516
 21
-0.3790770000000072
 31
0.0
  0
LINE
  5
E6C43
330
18
100
AcDbEntity
  8
1
100
AcDbLine
 10
117.766516
 20
-0.3790770000000072
 30
0.0
 11
117.655177
 21
-0.7936650000000072
 31
0.0
  0
LINE
  5
E6C44
330
18
100
AcDbEntity
  8
1
100
AcDbLine
 10
117.655177
 20
-0.7936650000000072
 30
0.0
 11
117.576903
 21
-1.215683000000007
 31
0.0
  0
LINE
  5
E6C45
330
18
100
AcDbEntity
  8
1
100
AcDbLine
 10
117.576903
 20
-1.215683000000007
 30
0.0
 11
117.53218
 21
-1.642503000000004
 31
0.0
  0
LINE
  5
E6C46
330
18
100
AcDbEntity
  8
1
100
AcDbLine
 10
117.53218
 20
-1.642503000000004
 30
0.0
 11
117.521287
 21
-2.071470000000004
 31
0.0
  0
LINE
  5
E6C47
330
18
100
AcDbEntity
  8
1
100
AcDbLine
 10
117.521287
 20
-2.071470000000004
 30
0.0
 11
117.544292
 21
-2.499912000000003
 31
0.0
  0
LINE
  5
E6C48
330
18
100
AcDbEntity
  8
1
100
AcDbLine
 10
117.544292
 20
-2.499912000000003
 30
0.0
 11
117.60105
 21
-2.925164000000006
 31
0.0
  0
LINE
  5
E6C49
330
18
100
AcDbEntity
  8
1
100
AcDbLine
 10
117.60105
 20
-2.925164000000006
 30
0.0
 11
117.691211
 21
-3.344579000000006
 31
0.0
  0
LINE
  5
E6C4A
330
18
100
AcDbEntity
  8
1
100
AcDbLine
 10
117.691211
 20
-3.344579000000006
 30
0.0
 11
117.814211
 21
-3.755546000000006
 31
0.0
  0
LINE
  5
E6C4B
330
18
100
AcDbEntity
  8
1
100
AcDbLine
 10
117.814211
 20
-3.755546000000006
 30
0.0
 11
117.969285
 21
-4.155508000000006
 31
0.0
  0
LINE
  5
E6C4C
330
18
100
AcDbEntity
  8
1
100
AcDbLine
 10
117.969285
 20
-4.155508000000006
 30
0.0
 11
118.155469
 21
-4.541975000000006
 31
0.0
  0
LINE
  5
E6C4D
330
18
100
AcDbEntity
  8
1
100
AcDbLine
 10
118.155469
 20
-4.541975000000006
 30
0.0
 11
118.371603
 21
-4.912541000000006
 31
0.0
  0
LINE
  5
E6C4E
330
18
100
AcDbEntity
  8
1
100
AcDbLine
 10
118.371603
 20
-4.912541000000006
 30
0.0
 11
118.616342
 21
-5.264901000000006
 31
0.0
  0
LINE
  5
E6C4F
330
18
100
AcDbEntity
  8
1
100
AcDbLine
 10
118.616342
 20
-5.264901000000006
 30
0.0
 11
118.888164
 21
-5.596862000000005
 31
0.0
  0
LINE
  5
E6C50
330
18
100
AcDbEntity
  8
1
100
AcDbLine
 10
118.888164
 20
-5.596862000000005
 30
0.0
 11
119.185375
 21
-5.906356000000005
 31
0.0
  0
LINE
  5
E6C51
330
18
100
AcDbEntity
  8
1
100
AcDbLine
 10
119.185375
 20
-5.906356000000005
 30
0.0
 11
119.506127
 21
-6.191459000000008
 31
0.0
  0
LINE
  5
E6C52
330
18
100
AcDbEntity
  8
1
100
AcDbLine
 10
119.506127
 20
-6.191459000000008
 30
0.0
 11
119.848423
 21
-6.450394000000008
 31
0.0
  0
LINE
  5
E6C53
330
18
100
AcDbEntity
  8
1
100
AcDbLine
 10
119.848423
 20
-6.450394000000008
 30
0.0
 11
120.210132
 21
-6.681552000000007
 31
0.0
  0
LINE
  5
E6C54
330
18
100
AcDbEntity
  8
1
100
AcDbLine
 10
120.210132
 20
-6.681552000000007
 30
0.0
 11
120.589004
 21
-6.883492000000003
 31
0.0
  0
LINE
  5
E6C55
330
18
100
AcDbEntity
  8
1
100
AcDbLine
 10
120.589004
 20
-6.883492000000003
 30
0.0
 11
120.982679
 21
-7.054959000000003
 31
0.0
  0
LINE
  5
E6C56
330
18
100
AcDbEntity
  8
1
100
AcDbLine
 10
120.982679
 20
-7.054959000000003
 30
0.0
 11
121.388709
 21
-7.194885000000008
 31
0.0
  0
LINE
  5
E6C57
330
18
100
AcDbEntity
  8
1
100
AcDbLine
 10
121.388709
 20
-7.194885000000008
 30
0.0
 11
121.804565
 21
-7.302399000000008
 31
0.0
  0
LINE
  5
E6C58
330
18
100
AcDbEntity
  8
1
100
AcDbLine
 10
121.804565
 20
-7.302399000000008
 30
0.0
 11
122.22766
 21
-7.376832000000008
 31
0.0
  0
LINE
  5
E6C59
330
18
100
AcDbEntity
  8
1
100
AcDbLine
 10
122.22766
 20
-7.376832000000008
 30
0.0
 11
122.65536
 21
-7.417720000000008
 31
0.0
  0
LINE
  5
E6C5A
330
18
100
AcDbEntity
  8
1
100
AcDbLine
 10
122.65536
 20
-7.417720000000008
 30
0.0
 11
123.085003
 21
-7.424810000000007
 31
0.0
  0
LINE
  5
E6C5B
330
18
100
AcDbEntity
  8
1
100
AcDbLine
 10
123.085003
 20
-7.424810000000007
 30
0.0
 11
123.513915
 21
-7.398056000000008
 31
0.0
  0
LINE
  5
E6C5C
330
18
100
AcDbEntity
  8
1
100
AcDbLine
 10
123.513915
 20
-7.398056000000008
 30
0.0
 11
123.939427
 21
-7.337627000000008
 31
0.0
  0
LINE
  5
E6C5D
330
18
100
AcDbEntity
  8
1
100
AcDbLine
 10
123.939427
 20
-7.337627000000008
 30
0.0
 11
124.358889
 21
-7.243896000000008
 31
0.0
  0
LINE
  5
E6C5E
330
18
100
AcDbEntity
  8
1
100
AcDbLine
 10
124.358889
 20
-7.243896000000008
 30
0.0
 11
124.769693
 21
-7.117449000000008
 31
0.0
  0
LINE
  5
E6C5F
330
18
100
AcDbEntity
  8
1
100
AcDbLine
 10
124.769693
 20
-7.117449000000008
 30
0.0
 11
125.169279
 21
-6.959072000000007
 31
0.0
  0
LINE
  5
E6C60
330
18
100
AcDbEntity
  8
1
100
AcDbLine
 10
125.169279
 20
-6.959072000000007
 30
0.0
 11
125.555163
 21
-6.769751000000008
 31
0.0
  0
LINE
  5
E6C61
330
18
100
AcDbEntity
  8
1
100
AcDbLine
 10
125.555163
 20
-6.769751000000008
 30
0.0
 11
125.924941
 21
-6.550664000000008
 31
0.0
  0
LINE
  5
E6C62
330
18
100
AcDbEntity
  8
1
100
AcDbLine
 10
125.924941
 20
-6.550664000000008
 30
0.0
 11
126.276312
 21
-6.303174000000008
 31
0.0
  0
LINE
  5
E6C63
330
18
100
AcDbEntity
  8
1
100
AcDbLine
 10
126.276312
 20
-6.303174000000008
 30
0.0
 11
126.60709
 21
-6.028823000000008
 31
0.0
  0
LINE
  5
E6C64
330
18
100
AcDbEntity
  8
1
100
AcDbLine
 10
126.60709
 20
-6.028823000000008
 30
0.0
 11
126.915215
 21
-5.729317000000007
 31
0.0
  0
LINE
  5
E6C65
330
18
100
AcDbEntity
  8
1
100
AcDbLine
 10
126.915215
 20
-5.729317000000007
 30
0.0
 11
127.19877
 21
-5.406521000000005
 31
0.0
  0
LINE
  5
E6C66
330
18
100
AcDbEntity
  8
1
100
AcDbLine
 10
127.19877
 20
-5.406521000000005
 30
0.0
 11
127.45599
 21
-5.062444000000008
 31
0.0
  0
LINE
  5
E6C67
330
18
100
AcDbEntity
  8
1
100
AcDbLine
 10
127.45599
 20
-5.062444000000008
 30
0.0
 11
127.685274
 21
-4.699227000000004
 31
0.0
  0
LINE
  5
E6C68
330
18
100
AcDbEntity
  8
1
100
AcDbLine
 10
127.685274
 20
-4.699227000000004
 30
0.0
 11
127.885196
 21
-4.319132000000006
 31
0.0
  0
LINE
  5
E6C69
330
18
100
AcDbEntity
  8
1
100
AcDbLine
 10
127.885196
 20
-4.319132000000006
 30
0.0
 11
128.05451
 21
-3.924523000000008
 31
0.0
  0
LINE
  5
E6C6A
330
18
100
AcDbEntity
  8
1
100
AcDbLine
 10
128.05451
 20
-3.924523000000008
 30
0.0
 11
128.192162
 21
-3.517857000000006
 31
0.0
  0
LINE
  5
E6C6B
330
18
100
AcDbEntity
  8
1
100
AcDbLine
 10
128.192162
 20
-3.517857000000006
 30
0.0
 11
128.297297
 21
-3.101664000000006
 31
0.0
  0
LINE
  5
E6C6C
330
18
100
AcDbEntity
  8
1
100
AcDbLine
 10
128.297297
 20
-3.101664000000006
 30
0.0
 11
128.36926
 21
-2.678536000000008
 31
0.0
  0
LINE
  5
E6C6D
330
18
100
AcDbEntity
  8
1
100
AcDbLine
 10
128.36926
 20
-2.678536000000008
 30
0.0
 11
128.407602
 21
-2.251106000000008
 31
0.0
  0
LINE
  5
E6C6E
330
18
100
AcDbEntity
  8
1
100
AcDbLine
 10
128.407602
 20
-2.251106000000008
 30
0.0
 11
128.412086
 21
-1.822034000000004
 31
0.0
  0
LINE
  5
E6C6F
330
18
100
AcDbEntity
  8
1
100
AcDbLine
 10
128.412086
 20
-1.822034000000004
 30
0.0
 11
128.382683
 21
-1.393991000000007
 31
0.0
  0
LINE
  5
E6C70
330
18
100
AcDbEntity
  8
1
100
AcDbLine
 10
128.382683
 20
-1.393991000000007
 30
0.0
 11
128.319577
 21
-0.9696400000000078
 31
0.0
  0
LINE
  5
E6C71
330
18
100
AcDbEntity
  8
1
100
AcDbLine
 10
128.319577
 20
-0.9696400000000078
 30
0.0
 11
128.223159
 21
-0.5516240000000079
 31
0.0
  0
LINE
  5
E6C72
330
18
100
AcDbEntity
  8
1
100
AcDbLine
 10
134.495085
 20
11.53231999999999
 30
0.0
 11
134.738883
 21
11.52702699999999
 31
0.0
  0
LINE
  5
E6C73
330
18
100
AcDbEntity
  8
1
100
AcDbLine
 10
134.738883
 20
11.52702699999999
 30
0.0
 11
134.981574
 21
11.54546399999999
 31
0.0
  0
LINE
  5
E6C74
330
18
100
AcDbEntity
  8
1
100
AcDbLine
 10
134.981574
 20
11.54546399999999
 30
0.0
 11
135.22082
 21
11.58745199999999
 31
0.0
  0
LINE
  5
E6C75
330
18
100
AcDbEntity
  8
1
100
AcDbLine
 10
135.22082
 20
11.58745199999999
 30
0.0
 11
135.454318
 21
11.65258799999999
 31
0.0
  0
LINE
  5
E6C76
330
18
100
AcDbEntity
  8
1
100
AcDbLine
 10
135.454318
 20
11.65258799999999
 30
0.0
 11
135.67982
 21
11.74024299999999
 31
0.0
  0
LINE
  5
E6C77
330
18
100
AcDbEntity
  8
1
100
AcDbLine
 10
135.67982
 20
11.74024299999999
 30
0.0
 11
135.895152
 21
11.84957399999999
 31
0.0
  0
LINE
  5
E6C78
330
18
100
AcDbEntity
  8
1
100
AcDbLine
 10
135.895152
 20
11.84957399999999
 30
0.0
 11
136.098242
 21
11.97952799999999
 31
0.0
  0
LINE
  5
E6C79
330
18
100
AcDbEntity
  8
1
100
AcDbLine
 10
136.098242
 20
11.97952799999999
 30
0.0
 11
136.287134
 21
12.12885299999999
 31
0.0
  0
LINE
  5
E6C7A
330
18
100
AcDbEntity
  8
1
100
AcDbLine
 10
136.287134
 20
12.12885299999999
 30
0.0
 11
136.460008
 21
12.29611099999999
 31
0.0
  0
LINE
  5
E6C7B
330
18
100
AcDbEntity
  8
1
100
AcDbLine
 10
136.460008
 20
12.29611099999999
 30
0.0
 11
136.6152
 21
12.47969099999999
 31
0.0
  0
LINE
  5
E6C7C
330
18
100
AcDbEntity
  8
1
100
AcDbLine
 10
136.6152
 20
12.47969099999999
 30
0.0
 11
136.751215
 21
12.67782599999999
 31
0.0
  0
LINE
  5
E6C7D
330
18
100
AcDbEntity
  8
1
100
AcDbLine
 10
136.751215
 20
12.67782599999999
 30
0.0
 11
136.866743
 21
12.88860699999999
 31
0.0
  0
LINE
  5
E6C7E
330
18
100
AcDbEntity
  8
1
100
AcDbLine
 10
136.866743
 20
12.88860699999999
 30
0.0
 11
136.960671
 21
13.11000499999999
 31
0.0
  0
LINE
  5
E6C7F
330
18
100
AcDbEntity
  8
1
100
AcDbLine
 10
136.960671
 20
13.11000499999999
 30
0.0
 11
137.032096
 21
13.33988599999999
 31
0.0
  0
LINE
  5
E6C80
330
18
100
AcDbEntity
  8
1
100
AcDbLine
 10
137.032096
 20
13.33988599999999
 30
0.0
 11
137.080328
 21
13.57603799999999
 31
0.0
  0
LINE
  5
E6C81
330
18
100
AcDbEntity
  8
1
100
AcDbLine
 10
137.080328
 20
13.57603799999999
 30
0.0
 11
137.104904
 21
13.81618599999999
 31
0.0
  0
LINE
  5
E6C82
330
18
100
AcDbEntity
  8
1
100
AcDbLine
 10
137.104904
 20
13.81618599999999
 30
0.0
 11
137.105588
 21
14.05801699999999
 31
0.0
  0
LINE
  5
E6C83
330
18
100
AcDbEntity
  8
1
100
AcDbLine
 10
137.105588
 20
14.05801699999999
 30
0.0
 11
137.082371
 21
14.29920199999999
 31
0.0
  0
LINE
  5
E6C84
330
18
100
AcDbEntity
  8
1
100
AcDbLine
 10
137.082371
 20
14.29920199999999
 30
0.0
 11
137.035479
 21
14.53741899999999
 31
0.0
  0
LINE
  5
E6C85
330
18
100
AcDbEntity
  8
1
100
AcDbLine
 10
137.035479
 20
14.53741899999999
 30
0.0
 11
136.965362
 21
14.77037299999999
 31
0.0
  0
LINE
  5
E6C86
330
18
100
AcDbEntity
  8
1
100
AcDbLine
 10
136.965362
 20
14.77037299999999
 30
0.0
 11
136.872695
 21
14.99582099999999
 31
0.0
  0
LINE
  5
E6C87
330
18
100
AcDbEntity
  8
1
100
AcDbLine
 10
136.872695
 20
14.99582099999999
 30
0.0
 11
136.758373
 21
15.21159099999999
 31
0.0
  0
LINE
  5
E6C88
330
18
100
AcDbEntity
  8
1
100
AcDbLine
 10
136.758373
 20
15.21159099999999
 30
0.0
 11
136.623494
 21
15.41560699999999
 31
0.0
  0
LINE
  5
E6C89
330
18
100
AcDbEntity
  8
1
100
AcDbLine
 10
136.623494
 20
15.41560699999999
 30
0.0
 11
136.469358
 21
15.60590199999999
 31
0.0
  0
LINE
  5
E6C8A
330
18
100
AcDbEntity
  8
1
100
AcDbLine
 10
136.469358
 20
15.60590199999999
 30
0.0
 11
136.29745
 21
15.78064499999999
 31
0.0
  0
LINE
  5
E6C8B
330
18
100
AcDbEntity
  8
1
100
AcDbLine
 10
136.29745
 20
15.78064499999999
 30
0.0
 11
136.109425
 21
15.93815199999999
 31
0.0
  0
LINE
  5
E6C8C
330
18
100
AcDbEntity
  8
1
100
AcDbLine
 10
136.109425
 20
15.93815199999999
 30
0.0
 11
135.907095
 21
16.07690599999999
 31
0.0
  0
LINE
  5
E6C8D
330
18
100
AcDbEntity
  8
1
100
AcDbLine
 10
135.907095
 20
16.07690599999999
 30
0.0
 11
135.692406
 21
16.19557199999999
 31
0.0
  0
LINE
  5
E6C8E
330
18
100
AcDbEntity
  8
1
100
AcDbLine
 10
135.692406
 20
16.19557199999999
 30
0.0
 11
135.467428
 21
16.29300599999999
 31
0.0
  0
LINE
  5
E6C8F
330
18
100
AcDbEntity
  8
1
100
AcDbLine
 10
135.467428
 20
16.29300599999999
 30
0.0
 11
135.234326
 21
16.36826999999999
 31
0.0
  0
LINE
  5
E6C90
330
18
100
AcDbEntity
  8
1
100
AcDbLine
 10
135.234326
 20
16.36826999999999
 30
0.0
 11
134.995346
 21
16.42063999999999
 31
0.0
  0
LINE
  5
E6C91
330
18
100
AcDbEntity
  8
1
100
AcDbLine
 10
134.995346
 20
16.42063999999999
 30
0.0
 11
134.752789
 21
16.44960999999999
 31
0.0
  0
LINE
  5
E6C92
330
18
100
AcDbEntity
  8
1
100
AcDbLine
 10
134.752789
 20
16.44960999999999
 30
0.0
 11
134.508992
 21
16.45490299999999
 31
0.0
  0
LINE
  5
E6C93
330
18
100
AcDbEntity
  8
1
100
AcDbLine
 10
134.508992
 20
16.45490299999999
 30
0.0
 11
134.266301
 21
16.43646599999999
 31
0.0
  0
LINE
  5
E6C94
330
18
100
AcDbEntity
  8
1
100
AcDbLine
 10
134.266301
 20
16.43646599999999
 30
0.0
 11
134.027054
 21
16.39447799999999
 31
0.0
  0
LINE
  5
E6C95
330
18
100
AcDbEntity
  8
1
100
AcDbLine
 10
134.027054
 20
16.39447799999999
 30
0.0
 11
133.793556
 21
16.32934199999999
 31
0.0
  0
LINE
  5
E6C96
330
18
100
AcDbEntity
  8
1
100
AcDbLine
 10
133.793556
 20
16.32934199999999
 30
0.0
 11
133.568055
 21
16.24168699999999
 31
0.0
  0
LINE
  5
E6C97
330
18
100
AcDbEntity
  8
1
100
AcDbLine
 10
133.568055
 20
16.24168699999999
 30
0.0
 11
133.352722
 21
16.13235599999999
 31
0.0
  0
LINE
  5
E6C98
330
18
100
AcDbEntity
  8
1
100
AcDbLine
 10
133.352722
 20
16.13235599999999
 30
0.0
 11
133.149632
 21
16.00240199999999
 31
0.0
  0
LINE
  5
E6C99
330
18
100
AcDbEntity
  8
1
100
AcDbLine
 10
133.149632
 20
16.00240199999999
 30
0.0
 11
132.960741
 21
15.85307699999999
 31
0.0
  0
LINE
  5
E6C9A
330
18
100
AcDbEntity
  8
1
100
AcDbLine
 10
132.960741
 20
15.85307699999999
 30
0.0
 11
132.787867
 21
15.68581899999999
 31
0.0
  0
LINE
  5
E6C9B
330
18
100
AcDbEntity
  8
1
100
AcDbLine
 10
132.787867
 20
15.68581899999999
 30
0.0
 11
132.632675
 21
15.50223899999999
 31
0.0
  0
LINE
  5
E6C9C
330
18
100
AcDbEntity
  8
1
100
AcDbLine
 10
132.632675
 20
15.50223899999999
 30
0.0
 11
132.49666
 21
15.30410399999999
 31
0.0
  0
LINE
  5
E6C9D
330
18
100
AcDbEntity
  8
1
100
AcDbLine
 10
132.49666
 20
15.30410399999999
 30
0.0
 11
132.381132
 21
15.09332299999999
 31
0.0
  0
LINE
  5
E6C9E
330
18
100
AcDbEntity
  8
1
100
AcDbLine
 10
132.381132
 20
15.09332299999999
 30
0.0
 11
132.287203
 21
14.87192499999999
 31
0.0
  0
LINE
  5
E6C9F
330
18
100
AcDbEntity
  8
1
100
AcDbLine
 10
132.287203
 20
14.87192499999999
 30
0.0
 11
132.215779
 21
14.64204399999999
 31
0.0
  0
LINE
  5
E6CA0
330
18
100
AcDbEntity
  8
1
100
AcDbLine
 10
132.215779
 20
14.64204399999999
 30
0.0
 11
132.167546
 21
14.40589199999999
 31
0.0
  0
LINE
  5
E6CA1
330
18
100
AcDbEntity
  8
1
100
AcDbLine
 10
132.167546
 20
14.40589199999999
 30
0.0
 11
132.14297
 21
14.16574399999999
 31
0.0
  0
LINE
  5
E6CA2
330
18
100
AcDbEntity
  8
1
100
AcDbLine
 10
132.14297
 20
14.16574399999999
 30
0.0
 11
132.142287
 21
13.92391299999999
 31
0.0
  0
LINE
  5
E6CA3
330
18
100
AcDbEntity
  8
1
100
AcDbLine
 10
132.142287
 20
13.92391299999999
 30
0.0
 11
132.165503
 21
13.68272799999999
 31
0.0
  0
LINE
  5
E6CA4
330
18
100
AcDbEntity
  8
1
100
AcDbLine
 10
132.165503
 20
13.68272799999999
 30
0.0
 11
132.212396
 21
13.44451099999999
 31
0.0
  0
LINE
  5
E6CA5
330
18
100
AcDbEntity
  8
1
100
AcDbLine
 10
132.212396
 20
13.44451099999999
 30
0.0
 11
132.282513
 21
13.21155699999999
 31
0.0
  0
LINE
  5
E6CA6
330
18
100
AcDbEntity
  8
1
100
AcDbLine
 10
132.282513
 20
13.21155699999999
 30
0.0
 11
132.375179
 21
12.98610899999999
 31
0.0
  0
LINE
  5
E6CA7
330
18
100
AcDbEntity
  8
1
100
AcDbLine
 10
132.375179
 20
12.98610899999999
 30
0.0
 11
132.489502
 21
12.77033799999999
 31
0.0
  0
LINE
  5
E6CA8
330
18
100
AcDbEntity
  8
1
100
AcDbLine
 10
132.489502
 20
12.77033799999999
 30
0.0
 11
132.624381
 21
12.56632299999999
 31
0.0
  0
LINE
  5
E6CA9
330
18
100
AcDbEntity
  8
1
100
AcDbLine
 10
132.624381
 20
12.56632299999999
 30
0.0
 11
132.778516
 21
12.37602799999999
 31
0.0
  0
LINE
  5
E6CAA
330
18
100
AcDbEntity
  8
1
100
AcDbLine
 10
132.778516
 20
12.37602799999999
 30
0.0
 11
132.950424
 21
12.20128499999999
 31
0.0
  0
LINE
  5
E6CAB
330
18
100
AcDbEntity
  8
1
100
AcDbLine
 10
132.950424
 20
12.20128499999999
 30
0.0
 11
133.138449
 21
12.04377799999999
 31
0.0
  0
LINE
  5
E6CAC
330
18
100
AcDbEntity
  8
1
100
AcDbLine
 10
133.138449
 20
12.04377799999999
 30
0.0
 11
133.34078
 21
11.90502399999999
 31
0.0
  0
LINE
  5
E6CAD
330
18
100
AcDbEntity
  8
1
100
AcDbLine
 10
133.34078
 20
11.90502399999999
 30
0.0
 11
133.555468
 21
11.78635799999999
 31
0.0
  0
LINE
  5
E6CAE
330
18
100
AcDbEntity
  8
1
100
AcDbLine
 10
133.555468
 20
11.78635799999999
 30
0.0
 11
133.780447
 21
11.68892399999999
 31
0.0
  0
LINE
  5
E6CAF
330
18
100
AcDbEntity
  8
1
100
AcDbLine
 10
133.780447
 20
11.68892399999999
 30
0.0
 11
134.013548
 21
11.61365999999999
 31
0.0
  0
LINE
  5
E6CB0
330
18
100
AcDbEntity
  8
1
100
AcDbLine
 10
134.013548
 20
11.61365999999999
 30
0.0
 11
134.252528
 21
11.56128999999999
 31
0.0
  0
LINE
  5
E6CB1
330
18
100
AcDbEntity
  8
1
100
AcDbLine
 10
134.252528
 20
11.56128999999999
 30
0.0
 11
134.495085
 21
11.53231999999999
 31
0.0
  0
LINE
  5
E6CB2
330
18
100
AcDbEntity
  8
1
100
AcDbLine
 10
130.129315
 20
15.99377999999999
 30
0.0
 11
130.011232
 21
15.78662099999999
 31
0.0
  0
LINE
  5
E6CB3
330
18
100
AcDbEntity
  8
1
100
AcDbLine
 10
130.011232
 20
15.78662099999999
 30
0.0
 11
129.962088
 21
15.55262399999999
 31
0.0
  0
LINE
  5
E6CB4
330
18
100
AcDbEntity
  8
1
100
AcDbLine
 10
129.677915
 20
1.215275999999992
 30
0.0
 11
129.805091
 21
1.160757999999989
 31
0.0
  0
LINE
  5
E6CB5
330
18
100
AcDbEntity
  8
1
100
AcDbLine
 10
129.805091
 20
1.160757999999989
 30
0.0
 11
129.93942
 21
1.12863999999999
 31
0.0
  0
LINE
  5
E6CB6
330
18
100
AcDbEntity
  8
1
100
AcDbLine
 10
129.93942
 20
1.12863999999999
 30
0.0
 11
130.076878
 21
1.119881999999992
 31
0.0
  0
LINE
  5
E6CB7
330
18
100
AcDbEntity
  8
1
100
AcDbLine
 10
130.076878
 20
1.119881999999992
 30
0.0
 11
130.213348
 21
1.13474799999999
 31
0.0
  0
LINE
  5
E6CB8
330
18
100
AcDbEntity
  8
1
100
AcDbLine
 10
130.213348
 20
1.13474799999999
 30
0.0
 11
130.34474
 21
1.172791999999992
 31
0.0
  0
LINE
  5
E6CB9
330
18
100
AcDbEntity
  8
1
100
AcDbLine
 10
130.34474
 20
1.172791999999992
 30
0.0
 11
130.467119
 21
1.232874999999989
 31
0.0
  0
LINE
  5
E6CBA
330
18
100
AcDbEntity
  8
1
100
AcDbLine
 10
130.467119
 20
1.232874999999989
 30
0.0
 11
130.576817
 21
1.31319599999999
 31
0.0
  0
LINE
  5
E6CBB
330
18
100
AcDbEntity
  8
1
100
AcDbLine
 10
130.576817
 20
1.31319599999999
 30
0.0
 11
130.67055
 21
1.411349999999989
 31
0.0
  0
LINE
  5
E6CBC
330
18
100
AcDbEntity
  8
1
100
AcDbLine
 10
125.250483
 20
15.52646299999999
 30
0.0
 11
125.505647
 21
15.33969699999999
 31
0.0
  0
LINE
  5
E6CBD
330
18
100
AcDbEntity
  8
1
100
AcDbLine
 10
125.505647
 20
15.33969699999999
 30
0.0
 11
125.774501
 21
15.17323599999999
 31
0.0
  0
LINE
  5
E6CBE
330
18
100
AcDbEntity
  8
1
100
AcDbLine
 10
125.774501
 20
15.17323599999999
 30
0.0
 11
126.055366
 21
15.02811899999999
 31
0.0
  0
LINE
  5
E6CBF
330
18
100
AcDbEntity
  8
1
100
AcDbLine
 10
126.055366
 20
15.02811899999999
 30
0.0
 11
126.346486
 21
14.90525399999999
 31
0.0
  0
LINE
  5
E6CC0
330
18
100
AcDbEntity
  8
1
100
AcDbLine
 10
126.346486
 20
14.90525399999999
 30
0.0
 11
126.646041
 21
14.80540899999999
 31
0.0
  0
LINE
  5
E6CC1
330
18
100
AcDbEntity
  8
1
100
AcDbLine
 10
126.646041
 20
14.80540899999999
 30
0.0
 11
126.95216
 21
14.72920699999999
 31
0.0
  0
LINE
  5
E6CC2
330
18
100
AcDbEntity
  8
1
100
AcDbLine
 10
126.95216
 20
14.72920699999999
 30
0.0
 11
127.262929
 21
14.67712499999999
 31
0.0
  0
LINE
  5
E6CC3
330
18
100
AcDbEntity
  8
1
100
AcDbLine
 10
127.262929
 20
14.67712499999999
 30
0.0
 11
127.576405
 21
14.64948799999999
 31
0.0
  0
LINE
  5
E6CC4
330
18
100
AcDbEntity
  8
1
100
AcDbLine
 10
127.576405
 20
14.64948799999999
 30
0.0
 11
127.890631
 21
14.64646899999999
 31
0.0
  0
LINE
  5
E6CC5
330
18
100
AcDbEntity
  8
1
100
AcDbLine
 10
127.890631
 20
14.64646899999999
 30
0.0
 11
128.203641
 21
14.66808699999999
 31
0.0
  0
LINE
  5
E6CC6
330
18
100
AcDbEntity
  8
1
100
AcDbLine
 10
128.203641
 20
14.66808699999999
 30
0.0
 11
128.51348
 21
14.71420699999999
 31
0.0
  0
LINE
  5
E6CC7
330
18
100
AcDbEntity
  8
1
100
AcDbLine
 10
128.51348
 20
14.71420699999999
 30
0.0
 11
128.818211
 21
14.78453999999999
 31
0.0
  0
LINE
  5
E6CC8
330
18
100
AcDbEntity
  8
1
100
AcDbLine
 10
128.818211
 20
14.78453999999999
 30
0.0
 11
129.115929
 21
14.87864699999999
 31
0.0
  0
LINE
  5
E6CC9
330
18
100
AcDbEntity
  8
1
100
AcDbLine
 10
129.115929
 20
14.87864699999999
 30
0.0
 11
129.404775
 21
14.99593999999999
 31
0.0
  0
LINE
  5
E6CCA
330
18
100
AcDbEntity
  8
1
100
AcDbLine
 10
129.404775
 20
14.99593999999999
 30
0.0
 11
129.682942
 21
15.13568599999999
 31
0.0
  0
LINE
  5
E6CCB
330
18
100
AcDbEntity
  8
1
100
AcDbLine
 10
129.682942
 20
15.13568599999999
 30
0.0
 11
129.948692
 21
15.29701099999999
 31
0.0
  0
LINE
  5
E6CCC
330
18
100
AcDbEntity
  8
1
100
AcDbLine
 10
124.856745
 20
5.783677999999991
 30
0.0
 11
124.188553
 21
5.936824999999991
 31
0.0
  0
LINE
  5
E6CCD
330
18
100
AcDbEntity
  8
1
100
AcDbLine
 10
124.188553
 20
5.936824999999991
 30
0.0
 11
123.509227
 21
6.029569999999991
 31
0.0
  0
LINE
  5
E6CCE
330
18
100
AcDbEntity
  8
1
100
AcDbLine
 10
123.509227
 20
6.029569999999991
 30
0.0
 11
122.824229
 21
6.061164999999991
 31
0.0
  0
LINE
  5
E6CCF
330
18
100
AcDbEntity
  8
1
100
AcDbLine
 10
122.824229
 20
6.061164999999991
 30
0.0
 11
122.139066
 21
6.031357999999992
 31
0.0
  0
LINE
  5
E6CD0
330
18
100
AcDbEntity
  8
1
100
AcDbLine
 10
122.139066
 20
6.031357999999992
 30
0.0
 11
121.459247
 21
5.940387999999991
 31
0.0
  0
LINE
  5
E6CD1
330
18
100
AcDbEntity
  8
1
100
AcDbLine
 10
121.459247
 20
5.940387999999991
 30
0.0
 11
120.790238
 21
5.788986999999991
 31
0.0
  0
LINE
  5
E6CD2
330
18
100
AcDbEntity
  8
1
100
AcDbLine
 10
120.790238
 20
5.788986999999991
 30
0.0
 11
120.137419
 21
5.578370999999991
 31
0.0
  0
LINE
  5
E6CD3
330
18
100
AcDbEntity
  8
1
100
AcDbLine
 10
120.137419
 20
5.578370999999991
 30
0.0
 11
119.506038
 21
5.310233999999992
 31
0.0
  0
LINE
  5
E6CD4
330
18
100
AcDbEntity
  8
1
100
AcDbLine
 10
127.241426
 20
8.151182999999992
 30
0.0
 11
128.434787
 21
9.625596999999991
 31
0.0
  0
LINE
  5
E6CD5
330
18
100
AcDbEntity
  8
1
100
AcDbLine
 10
128.434787
 20
9.625596999999991
 30
0.0
 11
129.506697
 21
11.00022599999999
 31
0.0
  0
LINE
  5
E6CD6
330
18
100
AcDbEntity
  8
1
100
AcDbLine
 10
139.118559
 20
11.98814999999999
 30
0.0
 11
139.236643
 21
12.19530899999999
 31
0.0
  0
LINE
  5
E6CD7
330
18
100
AcDbEntity
  8
1
100
AcDbLine
 10
139.236643
 20
12.19530899999999
 30
0.0
 11
139.285786
 21
12.42930599999999
 31
0.0
  0
LINE
  5
E6CD8
330
18
100
AcDbEntity
  8
4
100
AcDbLine
 10
0.0
 20
0.0
 30
0.0
 11
143.434623
 21
-0.0000000000000088
 31
0.0
  0
LINE
  5
E6CD9
330
18
100
AcDbEntity
  8
SK4
100
AcDbLine
 10
143.434623
 20
-0.0000000000000088
 30
0.0
 11
-35.384991
 21
0.0000000000000022
 31
0.0
  0
LINE
  5
E6CDA
330
18
100
AcDbEntity
  8
81
100
AcDbLine
 10
140.0
 20
26.875
 30
0.0
 11
144.488359
 21
26.875
 31
0.0
  0
LINE
  5
E6CDB
330
18
100
AcDbEntity
  8
80
100
AcDbLine
 10
0.0
 20
0.0
 30
0.0
 11
-4.819536
 21
0.0000000000000003
 31
0.0
  0
POINT
  5
E6CDC
330
18
100
AcDbEntity
  8
81
100
AcDbPoint
 10
140.0
 20
26.875
 30
0.0
 50
90.0
  0
POINT
  5
E6CDD
330
18
100
AcDbEntity
  8
80
100
AcDbPoint
 10
0.0
 20
0.0
 30
0.0
 50
90.0
  0
CIRCLE
  5
E6CDE
330
18
100
AcDbEntity
  8
1
100
AcDbCircle
 10
88.18035899999998
 20
-0.0000000000000054
 30
0.0
 40
3.007499999999998
  0
ARC
  5
E6CDF
330
18
100
AcDbEntity
  8
1
100
AcDbCircle
 10
139.199441
 20
26.06759499999999
 30
0.0
 40
0.8
100
AcDbArc
 50
357.0
 51
141.384583
  0
TEXT
  5
E6CE0
330
18
100
AcDbEntity
  8
SK6
100
AcDbText
 10
4.463014999999998
 20
-20.694177
 30
0.0
 40
3.0
  1
C5-MVUNR-27140-16
 50
90.0
 41
0.8556971529745045
  7
SANDVIK_STYLE
 72
     5
 11
4.463015000000002
 21
22.457408
 31
0.0
100
AcDbText
  0
POLYLINE
  5
E6CE1
330
18
100
AcDbEntity
  8
1
100
AcDb3dPolyline
 66
     1
 10
0.0
 20
0.0
 30
0.0
 70
     8
  0
VERTEX
  5
E6CE2
330
E6CE1
100
AcDbEntity
  8
1
100
AcDbVertex
100
AcDb3dPolylineVertex
 10
119.506038
 20
5.310233999999992
 30
0.0
 70
    32
  0
VERTEX
  5
E6CE3
330
E6CE1
100
AcDbEntity
  8
1
100
AcDbVertex
100
AcDb3dPolylineVertex
 10
119.420129
 20
5.263753999999993
 30
0.0
 70
    32
  0
VERTEX
  5
E6CE4
330
E6CE1
100
AcDbEntity
  8
1
100
AcDbVertex
100
AcDb3dPolylineVertex
 10
119.334221
 20
5.217272999999993
 30
0.0
 70
    32
  0
VERTEX
  5
E6CE5
330
E6CE1
100
AcDbEntity
  8
1
100
AcDbVertex
100
AcDb3dPolylineVertex
 10
119.248312
 20
5.170792999999992
 30
0.0
 70
    32
  0
VERTEX
  5
E6CE6
330
E6CE1
100
AcDbEntity
  8
1
100
AcDbVertex
100
AcDb3dPolylineVertex
 10
119.166154
 20
5.118133999999992
 30
0.0
 70
    32
  0
VERTEX
  5
E6CE7
330
E6CE1
100
AcDbEntity
  8
1
100
AcDbVertex
100
AcDb3dPolylineVertex
 10
119.085269
 20
5.063376999999992
 30
0.0
 70
    32
  0
VERTEX
  5
E6CE8
330
E6CE1
100
AcDbEntity
  8
1
100
AcDbVertex
100
AcDb3dPolylineVertex
 10
119.004384
 20
5.008618999999993
 30
0.0
 70
    32
  0
VERTEX
  5
E6CE9
330
E6CE1
100
AcDbEntity
  8
1
100
AcDbVertex
100
AcDb3dPolylineVertex
 10
118.92637
 20
4.950043999999993
 30
0.0
 70
    32
  0
VERTEX
  5
E6CEA
330
E6CE1
100
AcDbEntity
  8
1
100
AcDbVertex
100
AcDb3dPolylineVertex
 10
118.851304
 20
4.887546999999993
 30
0.0
 70
    32
  0
VERTEX
  5
E6CEB
330
E6CE1
100
AcDbEntity
  8
1
100
AcDbVertex
100
AcDb3dPolylineVertex
 10
118.776239
 20
4.825049999999992
 30
0.0
 70
    32
  0
VERTEX
  5
E6CEC
330
E6CE1
100
AcDbEntity
  8
1
100
AcDbVertex
100
AcDb3dPolylineVertex
 10
118.70275
 20
4.76083899999999
 30
0.0
 70
    32
  0
VERTEX
  5
E6CED
330
E6CE1
100
AcDbEntity
  8
1
100
AcDbVertex
100
AcDb3dPolylineVertex
 10
118.634244
 20
4.691214999999993
 30
0.0
 70
    32
  0
VERTEX
  5
E6CEE
330
E6CE1
100
AcDbEntity
  8
1
100
AcDbVertex
100
AcDb3dPolylineVertex
 10
118.565737
 20
4.621589999999993
 30
0.0
 70
    32
  0
VERTEX
  5
E6CEF
330
E6CE1
100
AcDbEntity
  8
1
100
AcDbVertex
100
AcDb3dPolylineVertex
 10
118.497231
 20
4.551965999999993
 30
0.0
 70
    32
  0
VERTEX
  5
E6CF0
330
E6CE1
100
AcDbEntity
  8
1
100
AcDbVertex
100
AcDb3dPolylineVertex
 10
118.435872
 20
4.475974999999992
 30
0.0
 70
    32
  0
VERTEX
  5
E6CF1
330
E6CE1
100
AcDbEntity
  8
1
100
AcDbVertex
100
AcDb3dPolylineVertex
 10
118.3746
 20
4.399905999999992
 30
0.0
 70
    32
  0
VERTEX
  5
E6CF2
330
E6CE1
100
AcDbEntity
  8
1
100
AcDbVertex
100
AcDb3dPolylineVertex
 10
118.313329
 20
4.323835999999992
 30
0.0
 70
    32
  0
VERTEX
  5
E6CF3
330
E6CE1
100
AcDbEntity
  8
1
100
AcDbVertex
100
AcDb3dPolylineVertex
 10
118.257827
 20
4.24357399999999
 30
0.0
 70
    32
  0
VERTEX
  5
E6CF4
330
E6CE1
100
AcDbEntity
  8
1
100
AcDbVertex
100
AcDb3dPolylineVertex
 10
118.204396
 20
4.161807999999993
 30
0.0
 70
    32
  0
VERTEX
  5
E6CF5
330
E6CE1
100
AcDbEntity
  8
1
100
AcDbVertex
100
AcDb3dPolylineVertex
 10
118.150965
 20
4.080040999999993
 30
0.0
 70
    32
  0
VERTEX
  5
E6CF6
330
E6CE1
100
AcDbEntity
  8
1
100
AcDbVertex
100
AcDb3dPolylineVertex
 10
118.101588
 20
3.99590299999999
 30
0.0
 70
    32
  0
VERTEX
  5
E6CF7
330
E6CE1
100
AcDbEntity
  8
1
100
AcDbVertex
100
AcDb3dPolylineVertex
 10
118.056527
 20
3.90924099999999
 30
0.0
 70
    32
  0
VERTEX
  5
E6CF8
330
E6CE1
100
AcDbEntity
  8
1
100
AcDbVertex
100
AcDb3dPolylineVertex
 10
118.011465
 20
3.822579999999993
 30
0.0
 70
    32
  0
VERTEX
  5
E6CF9
330
E6CE1
100
AcDbEntity
  8
1
100
AcDbVertex
100
AcDb3dPolylineVertex
 10
117.968464
 20
3.73497399999999
 30
0.0
 70
    32
  0
VERTEX
  5
E6CFA
330
E6CE1
100
AcDbEntity
  8
1
100
AcDbVertex
100
AcDb3dPolylineVertex
 10
117.93222
 20
3.64427099999999
 30
0.0
 70
    32
  0
VERTEX
  5
E6CFB
330
E6CE1
100
AcDbEntity
  8
1
100
AcDbVertex
100
AcDb3dPolylineVertex
 10
117.895975
 20
3.55356799999999
 30
0.0
 70
    32
  0
VERTEX
  5
E6CFC
330
E6CE1
100
AcDbEntity
  8
1
100
AcDbVertex
100
AcDb3dPolylineVertex
 10
117.859731
 20
3.462864999999993
 30
0.0
 70
    32
  0
VERTEX
  5
E6CFD
330
E6CE1
100
AcDbEntity
  8
1
100
AcDbVertex
100
AcDb3dPolylineVertex
 10
117.832514
 20
3.369064999999991
 30
0.0
 70
    32
  0
VERTEX
  5
E6CFE
330
E6CE1
100
AcDbEntity
  8
1
100
AcDbVertex
100
AcDb3dPolylineVertex
 10
117.805448
 20
3.275212999999991
 30
0.0
 70
    32
  0
VERTEX
  5
E6CFF
330
E6CE1
100
AcDbEntity
  8
1
100
AcDbVertex
100
AcDb3dPolylineVertex
 10
117.778382
 20
3.181360999999991
 30
0.0
 70
    32
  0
VERTEX
  5
E6D00
330
E6CE1
100
AcDbEntity
  8
1
100
AcDbVertex
100
AcDb3dPolylineVertex
 10
117.758253
 20
3.085877999999991
 30
0.0
 70
    32
  0
VERTEX
  5
E6D01
330
E6CE1
100
AcDbEntity
  8
1
100
AcDbVertex
100
AcDb3dPolylineVertex
 10
117.740636
 20
2.98980299999999
 30
0.0
 70
    32
  0
VERTEX
  5
E6D02
330
E6CE1
100
AcDbEntity
  8
1
100
AcDbVertex
100
AcDb3dPolylineVertex
 10
117.723019
 20
2.89372799999999
 30
0.0
 70
    32
  0
VERTEX
  5
E6D03
330
E6CE1
100
AcDbEntity
  8
1
100
AcDbVertex
100
AcDb3dPolylineVertex
 10
117.710072
 20
2.79703499999999
 30
0.0
 70
    32
  0
VERTEX
  5
E6D04
330
E6CE1
100
AcDbEntity
  8
1
100
AcDbVertex
100
AcDb3dPolylineVertex
 10
117.702082
 20
2.699685999999993
 30
0.0
 70
    32
  0
VERTEX
  5
E6D05
330
E6CE1
100
AcDbEntity
  8
1
100
AcDbVertex
100
AcDb3dPolylineVertex
 10
117.694091
 20
2.60233699999999
 30
0.0
 70
    32
  0
VERTEX
  5
E6D06
330
E6CE1
100
AcDbEntity
  8
1
100
AcDbVertex
100
AcDb3dPolylineVertex
 10
117.6884
 20
2.50491399999999
 30
0.0
 70
    32
  0
VERTEX
  5
E6D07
330
E6CE1
100
AcDbEntity
  8
1
100
AcDbVertex
100
AcDb3dPolylineVertex
 10
117.690118
 20
2.407251999999993
 30
0.0
 70
    32
  0
VERTEX
  5
E6D08
330
E6CE1
100
AcDbEntity
  8
1
100
AcDbVertex
100
AcDb3dPolylineVertex
 10
117.691837
 20
2.309590999999993
 30
0.0
 70
    32
  0
VERTEX
  5
E6D09
330
E6CE1
100
AcDbEntity
  8
1
100
AcDbVertex
100
AcDb3dPolylineVertex
 10
117.693555
 20
2.21192899999999
 30
0.0
 70
    32
  0
VERTEX
  5
E6D0A
330
E6CE1
100
AcDbEntity
  8
1
100
AcDbVertex
100
AcDb3dPolylineVertex
 10
117.70486
 20
2.114914999999993
 30
0.0
 70
    32
  0
VERTEX
  5
E6D0B
330
E6CE1
100
AcDbEntity
  8
1
100
AcDbVertex
100
AcDb3dPolylineVertex
 10
117.716272
 20
2.017906999999993
 30
0.0
 70
    32
  0
VERTEX
  5
E6D0C
330
E6CE1
100
AcDbEntity
  8
1
100
AcDbVertex
100
AcDb3dPolylineVertex
 10
117.727684
 20
1.920898999999993
 30
0.0
 70
    32
  0
VERTEX
  5
E6D0D
330
E6CE1
100
AcDbEntity
  8
1
100
AcDbVertex
100
AcDb3dPolylineVertex
 10
117.746201
 20
1.825087999999992
 30
0.0
 70
    32
  0
VERTEX
  5
E6D0E
330
E6CE1
100
AcDbEntity
  8
1
100
AcDbVertex
100
AcDb3dPolylineVertex
 10
117.767196
 20
1.729694999999991
 30
0.0
 70
    32
  0
VERTEX
  5
E6D0F
330
E6CE1
100
AcDbEntity
  8
1
100
AcDbVertex
100
AcDb3dPolylineVertex
 10
117.788191
 20
1.634300999999991
 30
0.0
 70
    32
  0
VERTEX
  5
E6D10
330
E6CE1
100
AcDbEntity
  8
1
100
AcDbVertex
100
AcDb3dPolylineVertex
 10
117.81382
 20
1.540171999999991
 30
0.0
 70
    32
  0
VERTEX
  5
E6D11
330
E6CE1
100
AcDbEntity
  8
1
100
AcDbVertex
100
AcDb3dPolylineVertex
 10
117.844192
 20
1.447337999999992
 30
0.0
 70
    32
  0
VERTEX
  5
E6D12
330
E6CE1
100
AcDbEntity
  8
1
100
AcDbVertex
100
AcDb3dPolylineVertex
 10
117.874563
 20
1.354502999999992
 30
0.0
 70
    32
  0
VERTEX
  5
E6D13
330
E6CE1
100
AcDbEntity
  8
1
100
AcDbVertex
100
AcDb3dPolylineVertex
 10
117.907178
 20
1.26252799999999
 30
0.0
 70
    32
  0
VERTEX
  5
E6D14
330
E6CE1
100
AcDbEntity
  8
1
100
AcDbVertex
100
AcDb3dPolylineVertex
 10
117.946625
 20
1.173170999999989
 30
0.0
 70
    32
  0
VERTEX
  5
E6D15
330
E6CE1
100
AcDbEntity
  8
1
100
AcDbVertex
100
AcDb3dPolylineVertex
 10
117.986073
 20
1.083814999999992
 30
0.0
 70
    32
  0
VERTEX
  5
E6D16
330
E6CE1
100
AcDbEntity
  8
1
100
AcDbVertex
100
AcDb3dPolylineVertex
 10
118.02552
 20
0.9944579999999929
 30
0.0
 70
    32
  0
SEQEND
  5
E6D17
330
E6CE1
100
AcDbEntity
  8
1
  0
POLYLINE
  5
E6D18
330
18
100
AcDbEntity
  8
1
100
AcDb3dPolyline
 66
     1
 10
0.0
 20
0.0
 30
0.0
 70
     8
  0
VERTEX
  5
E6D19
330
E6D18
100
AcDbEntity
  8
1
100
AcDbVertex
100
AcDb3dPolylineVertex
 10
11.894325
 20
-8.055771999999999
 30
0.0
 70
    32
  0
VERTEX
  5
E6D1A
330
E6D18
100
AcDbEntity
  8
1
100
AcDbVertex
100
AcDb3dPolylineVertex
 10
11.967259
 20
-8.338243999999999
 30
0.0
 70
    32
  0
VERTEX
  5
E6D1B
330
E6D18
100
AcDbEntity
  8
1
100
AcDbVertex
100
AcDb3dPolylineVertex
 10
12.040193
 20
-8.620715999999998
 30
0.0
 70
    32
  0
VERTEX
  5
E6D1C
330
E6D18
100
AcDbEntity
  8
1
100
AcDbVertex
100
AcDb3dPolylineVertex
 10
12.113128
 20
-8.903188
 30
0.0
 70
    32
  0
VERTEX
  5
E6D1D
330
E6D18
100
AcDbEntity
  8
1
100
AcDbVertex
100
AcDb3dPolylineVertex
 10
12.186062
 20
-9.18566
 30
0.0
 70
    32
  0
VERTEX
  5
E6D1E
330
E6D18
100
AcDbEntity
  8
1
100
AcDbVertex
100
AcDb3dPolylineVertex
 10
12.256112
 20
-9.46884
 30
0.0
 70
    32
  0
VERTEX
  5
E6D1F
330
E6D18
100
AcDbEntity
  8
1
100
AcDbVertex
100
AcDb3dPolylineVertex
 10
12.32236
 20
-9.752954
 30
0.0
 70
    32
  0
VERTEX
  5
E6D20
330
E6D18
100
AcDbEntity
  8
1
100
AcDbVertex
100
AcDb3dPolylineVertex
 10
12.388607
 20
-10.037069
 30
0.0
 70
    32
  0
VERTEX
  5
E6D21
330
E6D18
100
AcDbEntity
  8
1
100
AcDbVertex
100
AcDb3dPolylineVertex
 10
12.454854
 20
-10.321183
 30
0.0
 70
    32
  0
VERTEX
  5
E6D22
330
E6D18
100
AcDbEntity
  8
1
100
AcDbVertex
100
AcDb3dPolylineVertex
 10
12.521102
 20
-10.605298
 30
0.0
 70
    32
  0
VERTEX
  5
E6D23
330
E6D18
100
AcDbEntity
  8
1
100
AcDbVertex
100
AcDb3dPolylineVertex
 10
12.580458
 20
-10.890918
 30
0.0
 70
    32
  0
VERTEX
  5
E6D24
330
E6D18
100
AcDbEntity
  8
1
100
AcDbVertex
100
AcDb3dPolylineVertex
 10
12.638734
 20
-11.176774
 30
0.0
 70
    32
  0
VERTEX
  5
E6D25
330
E6D18
100
AcDbEntity
  8
1
100
AcDbVertex
100
AcDb3dPolylineVertex
 10
12.697011
 20
-11.46263
 30
0.0
 70
    32
  0
VERTEX
  5
E6D26
330
E6D18
100
AcDbEntity
  8
1
100
AcDbVertex
100
AcDb3dPolylineVertex
 10
12.755287
 20
-11.748486
 30
0.0
 70
    32
  0
VERTEX
  5
E6D27
330
E6D18
100
AcDbEntity
  8
1
100
AcDbVertex
100
AcDb3dPolylineVertex
 10
12.810754
 20
-12.034867
 30
0.0
 70
    32
  0
VERTEX
  5
E6D28
330
E6D18
100
AcDbEntity
  8
1
100
AcDbVertex
100
AcDb3dPolylineVertex
 10
12.85974
 20
-12.322461
 30
0.0
 70
    32
  0
VERTEX
  5
E6D29
330
E6D18
100
AcDbEntity
  8
1
100
AcDbVertex
100
AcDb3dPolylineVertex
 10
12.908726
 20
-12.610055
 30
0.0
 70
    32
  0
VERTEX
  5
E6D2A
330
E6D18
100
AcDbEntity
  8
1
100
AcDbVertex
100
AcDb3dPolylineVertex
 10
12.957713
 20
-12.897648
 30
0.0
 70
    32
  0
VERTEX
  5
E6D2B
330
E6D18
100
AcDbEntity
  8
1
100
AcDbVertex
100
AcDb3dPolylineVertex
 10
13.006699
 20
-13.185242
 30
0.0
 70
    32
  0
VERTEX
  5
E6D2C
330
E6D18
100
AcDbEntity
  8
1
100
AcDbVertex
100
AcDb3dPolylineVertex
 10
13.047752
 20
-13.474037
 30
0.0
 70
    32
  0
VERTEX
  5
E6D2D
330
E6D18
100
AcDbEntity
  8
1
100
AcDbVertex
100
AcDb3dPolylineVertex
 10
13.086102
 20
-13.763241
 30
0.0
 70
    32
  0
VERTEX
  5
E6D2E
330
E6D18
100
AcDbEntity
  8
1
100
AcDbVertex
100
AcDb3dPolylineVertex
 10
13.124452
 20
-14.052445
 30
0.0
 70
    32
  0
VERTEX
  5
E6D2F
330
E6D18
100
AcDbEntity
  8
1
100
AcDbVertex
100
AcDb3dPolylineVertex
 10
13.162802
 20
-14.341649
 30
0.0
 70
    32
  0
VERTEX
  5
E6D30
330
E6D18
100
AcDbEntity
  8
1
100
AcDbVertex
100
AcDb3dPolylineVertex
 10
13.198829
 20
-14.631113
 30
0.0
 70
    32
  0
VERTEX
  5
E6D31
330
E6D18
100
AcDbEntity
  8
1
100
AcDbVertex
100
AcDb3dPolylineVertex
 10
13.22518599999999
 20
-14.921655
 30
0.0
 70
    32
  0
VERTEX
  5
E6D32
330
E6D18
100
AcDbEntity
  8
1
100
AcDbVertex
100
AcDb3dPolylineVertex
 10
13.251544
 20
-15.212198
 30
0.0
 70
    32
  0
VERTEX
  5
E6D33
330
E6D18
100
AcDbEntity
  8
1
100
AcDbVertex
100
AcDb3dPolylineVertex
 10
13.277901
 20
-15.502741
 30
0.0
 70
    32
  0
VERTEX
  5
E6D34
330
E6D18
100
AcDbEntity
  8
1
100
AcDbVertex
100
AcDb3dPolylineVertex
 10
13.30425799999999
 20
-15.793283
 30
0.0
 70
    32
  0
VERTEX
  5
E6D35
330
E6D18
100
AcDbEntity
  8
1
100
AcDbVertex
100
AcDb3dPolylineVertex
 10
13.324456
 20
-16.084283
 30
0.0
 70
    32
  0
VERTEX
  5
E6D36
330
E6D18
100
AcDbEntity
  8
1
100
AcDbVertex
100
AcDb3dPolylineVertex
 10
13.34123
 20
-16.375536
 30
0.0
 70
    32
  0
VERTEX
  5
E6D37
330
E6D18
100
AcDbEntity
  8
1
100
AcDbVertex
100
AcDb3dPolylineVertex
 10
13.358004
 20
-16.666789
 30
0.0
 70
    32
  0
VERTEX
  5
E6D38
330
E6D18
100
AcDbEntity
  8
1
100
AcDbVertex
100
AcDb3dPolylineVertex
 10
13.369859
 20
-16.95825199999999
 30
0.0
 70
    32
  0
VERTEX
  5
E6D39
330
E6D18
100
AcDbEntity
  8
1
100
AcDbVertex
100
AcDb3dPolylineVertex
 10
13.377989
 20
-17.249875
 30
0.0
 70
    32
  0
VERTEX
  5
E6D3A
330
E6D18
100
AcDbEntity
  8
1
100
AcDbVertex
100
AcDb3dPolylineVertex
 10
13.386118
 20
-17.541497
 30
0.0
 70
    32
  0
VERTEX
  5
E6D3B
330
E6D18
100
AcDbEntity
  8
1
100
AcDbVertex
100
AcDb3dPolylineVertex
 10
13.38822399999999
 20
-17.83316099999999
 30
0.0
 70
    32
  0
VERTEX
  5
E6D3C
330
E6D18
100
AcDbEntity
  8
1
100
AcDbVertex
100
AcDb3dPolylineVertex
 10
13.384116
 20
-18.124868
 30
0.0
 70
    32
  0
VERTEX
  5
E6D3D
330
E6D18
100
AcDbEntity
  8
1
100
AcDbVertex
100
AcDb3dPolylineVertex
 10
13.38000799999999
 20
-18.416575
 30
0.0
 70
    32
  0
VERTEX
  5
E6D3E
330
E6D18
100
AcDbEntity
  8
1
100
AcDbVertex
100
AcDb3dPolylineVertex
 10
13.36931599999999
 20
-18.70801
 30
0.0
 70
    32
  0
VERTEX
  5
E6D3F
330
E6D18
100
AcDbEntity
  8
1
100
AcDbVertex
100
AcDb3dPolylineVertex
 10
13.349367
 20
-18.999063
 30
0.0
 70
    32
  0
VERTEX
  5
E6D40
330
E6D18
100
AcDbEntity
  8
1
100
AcDbVertex
100
AcDb3dPolylineVertex
 10
13.329417
 20
-19.290116
 30
0.0
 70
    32
  0
VERTEX
  5
E6D41
330
E6D18
100
AcDbEntity
  8
1
100
AcDbVertex
100
AcDb3dPolylineVertex
 10
13.302931
 20
-19.580501
 30
0.0
 70
    32
  0
VERTEX
  5
E6D42
330
E6D18
100
AcDbEntity
  8
1
100
AcDbVertex
100
AcDb3dPolylineVertex
 10
13.263638
 20
-19.869579
 30
0.0
 70
    32
  0
VERTEX
  5
E6D43
330
E6D18
100
AcDbEntity
  8
1
100
AcDbVertex
100
AcDb3dPolylineVertex
 10
13.224346
 20
-20.158657
 30
0.0
 70
    32
  0
VERTEX
  5
E6D44
330
E6D18
100
AcDbEntity
  8
1
100
AcDbVertex
100
AcDb3dPolylineVertex
 10
13.179387
 20
-20.446736
 30
0.0
 70
    32
  0
VERTEX
  5
E6D45
330
E6D18
100
AcDbEntity
  8
1
100
AcDbVertex
100
AcDb3dPolylineVertex
 10
13.117571
 20
-20.731848
 30
0.0
 70
    32
  0
VERTEX
  5
E6D46
330
E6D18
100
AcDbEntity
  8
1
100
AcDbVertex
100
AcDb3dPolylineVertex
 10
13.055756
 20
-21.01696
 30
0.0
 70
    32
  0
VERTEX
  5
E6D47
330
E6D18
100
AcDbEntity
  8
1
100
AcDbVertex
100
AcDb3dPolylineVertex
 10
12.991083
 20
-21.301344
 30
0.0
 70
    32
  0
VERTEX
  5
E6D48
330
E6D18
100
AcDbEntity
  8
1
100
AcDbVertex
100
AcDb3dPolylineVertex
 10
12.909071
 20
-21.581315
 30
0.0
 70
    32
  0
VERTEX
  5
E6D49
330
E6D18
100
AcDbEntity
  8
1
100
AcDbVertex
100
AcDb3dPolylineVertex
 10
12.827059
 20
-21.861286
 30
0.0
 70
    32
  0
VERTEX
  5
E6D4A
330
E6D18
100
AcDbEntity
  8
1
100
AcDbVertex
100
AcDb3dPolylineVertex
 10
12.725394
 20
-22.134624
 30
0.0
 70
    32
  0
VERTEX
  5
E6D4B
330
E6D18
100
AcDbEntity
  8
1
100
AcDbVertex
100
AcDb3dPolylineVertex
 10
12.620971
 20
-22.407031
 30
0.0
 70
    32
  0
VERTEX
  5
E6D4C
330
E6D18
100
AcDbEntity
  8
1
100
AcDbVertex
100
AcDb3dPolylineVertex
 10
12.49851
 20
-22.671406
 30
0.0
 70
    32
  0
VERTEX
  5
E6D4D
330
E6D18
100
AcDbEntity
  8
1
100
AcDbVertex
100
AcDb3dPolylineVertex
 10
12.365914
 20
-22.931267
 30
0.0
 70
    32
  0
VERTEX
  5
E6D4E
330
E6D18
100
AcDbEntity
  8
1
100
AcDbVertex
100
AcDb3dPolylineVertex
 10
12.225415
 20
-23.186564
 30
0.0
 70
    32
  0
VERTEX
  5
E6D4F
330
E6D18
100
AcDbEntity
  8
1
100
AcDbVertex
100
AcDb3dPolylineVertex
 10
12.066572
 20
-23.431266
 30
0.0
 70
    32
  0
VERTEX
  5
E6D50
330
E6D18
100
AcDbEntity
  8
1
100
AcDbVertex
100
AcDb3dPolylineVertex
 10
11.894325
 20
-23.666548
 30
0.0
 70
    32
  0
SEQEND
  5
E6D51
330
E6D18
100
AcDbEntity
  8
1
  0
POLYLINE
  5
E6D52
330
18
100
AcDbEntity
  8
1
100
AcDb3dPolyline
 66
     1
 10
0.0
 20
0.0
 30
0.0
 70
     8
  0
VERTEX
  5
E6D53
330
E6D52
100
AcDbEntity
  8
1
100
AcDbVertex
100
AcDb3dPolylineVertex
 10
8.105675000000001
 20
23.666548
 30
0.0
 70
    32
  0
VERTEX
  5
E6D54
330
E6D52
100
AcDbEntity
  8
1
100
AcDbVertex
100
AcDb3dPolylineVertex
 10
7.952985000000002
 20
23.435841
 30
0.0
 70
    32
  0
VERTEX
  5
E6D55
330
E6D52
100
AcDbEntity
  8
1
100
AcDbVertex
100
AcDb3dPolylineVertex
 10
7.800295000000001
 20
23.205134
 30
0.0
 70
    32
  0
VERTEX
  5
E6D56
330
E6D52
100
AcDbEntity
  8
1
100
AcDbVertex
100
AcDb3dPolylineVertex
 10
7.664198000000001
 20
22.96465
 30
0.0
 70
    32
  0
VERTEX
  5
E6D57
330
E6D52
100
AcDbEntity
  8
1
100
AcDbVertex
100
AcDb3dPolylineVertex
 10
7.536387000000001
 20
22.719285
 30
0.0
 70
    32
  0
VERTEX
  5
E6D58
330
E6D52
100
AcDbEntity
  8
1
100
AcDbVertex
100
AcDb3dPolylineVertex
 10
7.416374000000002
 20
22.470314
 30
0.0
 70
    32
  0
VERTEX
  5
E6D59
330
E6D52
100
AcDbEntity
  8
1
100
AcDbVertex
100
AcDb3dPolylineVertex
 10
7.312235000000002
 20
22.214003
 30
0.0
 70
    32
  0
VERTEX
  5
E6D5A
330
E6D52
100
AcDbEntity
  8
1
100
AcDbVertex
100
AcDb3dPolylineVertex
 10
7.208095000000001
 20
21.957693
 30
0.0
 70
    32
  0
VERTEX
  5
E6D5B
330
E6D52
100
AcDbEntity
  8
1
100
AcDbVertex
100
AcDb3dPolylineVertex
 10
7.125436999999998
 20
21.693694
 30
0.0
 70
    32
  0
VERTEX
  5
E6D5C
330
E6D52
100
AcDbEntity
  8
1
100
AcDbVertex
100
AcDb3dPolylineVertex
 10
7.043271000000001
 20
21.429518
 30
0.0
 70
    32
  0
VERTEX
  5
E6D5D
330
E6D52
100
AcDbEntity
  8
1
100
AcDbVertex
100
AcDb3dPolylineVertex
 10
6.973314999999997
 20
21.162043
 30
0.0
 70
    32
  0
VERTEX
  5
E6D5E
330
E6D52
100
AcDbEntity
  8
1
100
AcDbVertex
100
AcDb3dPolylineVertex
 10
6.911227999999997
 20
20.892441
 30
0.0
 70
    32
  0
VERTEX
  5
E6D5F
330
E6D52
100
AcDbEntity
  8
1
100
AcDbVertex
100
AcDb3dPolylineVertex
 10
6.853192999999999
 20
20.622048
 30
0.0
 70
    32
  0
VERTEX
  5
E6D60
330
E6D52
100
AcDbEntity
  8
1
100
AcDbVertex
100
AcDb3dPolylineVertex
 10
6.809296000000001
 20
20.348894
 30
0.0
 70
    32
  0
VERTEX
  5
E6D61
330
E6D52
100
AcDbEntity
  8
1
100
AcDbVertex
100
AcDb3dPolylineVertex
 10
6.765399999999997
 20
20.07574
 30
0.0
 70
    32
  0
VERTEX
  5
E6D62
330
E6D52
100
AcDbEntity
  8
1
100
AcDbVertex
100
AcDb3dPolylineVertex
 10
6.733547999999997
 20
19.800977
 30
0.0
 70
    32
  0
VERTEX
  5
E6D63
330
E6D52
100
AcDbEntity
  8
1
100
AcDbVertex
100
AcDb3dPolylineVertex
 10
6.704197999999997
 20
19.52588
 30
0.0
 70
    32
  0
VERTEX
  5
E6D64
330
E6D52
100
AcDbEntity
  8
1
100
AcDbVertex
100
AcDb3dPolylineVertex
 10
6.674849
 20
19.250782
 30
0.0
 70
    32
  0
VERTEX
  5
E6D65
330
E6D52
100
AcDbEntity
  8
1
100
AcDbVertex
100
AcDb3dPolylineVertex
 10
6.655327999999999
 20
18.974848
 30
0.0
 70
    32
  0
VERTEX
  5
E6D66
330
E6D52
100
AcDbEntity
  8
1
100
AcDbVertex
100
AcDb3dPolylineVertex
 10
6.637761999999997
 20
18.698748
 30
0.0
 70
    32
  0
VERTEX
  5
E6D67
330
E6D52
100
AcDbEntity
  8
1
100
AcDbVertex
100
AcDb3dPolylineVertex
 10
6.620194999999998
 20
18.422648
 30
0.0
 70
    32
  0
VERTEX
  5
E6D68
330
E6D52
100
AcDbEntity
  8
1
100
AcDbVertex
100
AcDb3dPolylineVertex
 10
6.612302999999998
 20
18.146128
 30
0.0
 70
    32
  0
VERTEX
  5
E6D69
330
E6D52
100
AcDbEntity
  8
1
100
AcDbVertex
100
AcDb3dPolylineVertex
 10
6.605927000000001
 20
17.869543
 30
0.0
 70
    32
  0
VERTEX
  5
E6D6A
330
E6D52
100
AcDbEntity
  8
1
100
AcDbVertex
100
AcDb3dPolylineVertex
 10
6.599552
 20
17.592958
 30
0.0
 70
    32
  0
VERTEX
  5
E6D6B
330
E6D52
100
AcDbEntity
  8
1
100
AcDbVertex
100
AcDb3dPolylineVertex
 10
6.602764999999997
 20
17.316334
 30
0.0
 70
    32
  0
VERTEX
  5
E6D6C
330
E6D52
100
AcDbEntity
  8
1
100
AcDbVertex
100
AcDb3dPolylineVertex
 10
6.606902999999999
 20
17.039707
 30
0.0
 70
    32
  0
VERTEX
  5
E6D6D
330
E6D52
100
AcDbEntity
  8
1
100
AcDbVertex
100
AcDb3dPolylineVertex
 10
6.611041999999997
 20
16.763079
 30
0.0
 70
    32
  0
VERTEX
  5
E6D6E
330
E6D52
100
AcDbEntity
  8
1
100
AcDbVertex
100
AcDb3dPolylineVertex
 10
6.624666999999997
 20
16.486761
 30
0.0
 70
    32
  0
VERTEX
  5
E6D6F
330
E6D52
100
AcDbEntity
  8
1
100
AcDbVertex
100
AcDb3dPolylineVertex
 10
6.638575000000001
 20
16.210452
 30
0.0
 70
    32
  0
VERTEX
  5
E6D70
330
E6D52
100
AcDbEntity
  8
1
100
AcDbVertex
100
AcDb3dPolylineVertex
 10
6.652813
 20
15.934165
 30
0.0
 70
    32
  0
VERTEX
  5
E6D71
330
E6D52
100
AcDbEntity
  8
1
100
AcDbVertex
100
AcDb3dPolylineVertex
 10
6.675697999999997
 20
15.658455
 30
0.0
 70
    32
  0
VERTEX
  5
E6D72
330
E6D52
100
AcDbEntity
  8
1
100
AcDbVertex
100
AcDb3dPolylineVertex
 10
6.698583999999997
 20
15.382745
 30
0.0
 70
    32
  0
VERTEX
  5
E6D73
330
E6D52
100
AcDbEntity
  8
1
100
AcDbVertex
100
AcDb3dPolylineVertex
 10
6.722325999999998
 20
15.107118
 30
0.0
 70
    32
  0
VERTEX
  5
E6D74
330
E6D52
100
AcDbEntity
  8
1
100
AcDbVertex
100
AcDb3dPolylineVertex
 10
6.753369000000001
 20
14.832207
 30
0.0
 70
    32
  0
VERTEX
  5
E6D75
330
E6D52
100
AcDbEntity
  8
1
100
AcDbVertex
100
AcDb3dPolylineVertex
 10
6.784411000000001
 20
14.557295
 30
0.0
 70
    32
  0
VERTEX
  5
E6D76
330
E6D52
100
AcDbEntity
  8
1
100
AcDbVertex
100
AcDb3dPolylineVertex
 10
6.816716000000001
 20
14.282543
 30
0.0
 70
    32
  0
VERTEX
  5
E6D77
330
E6D52
100
AcDbEntity
  8
1
100
AcDbVertex
100
AcDb3dPolylineVertex
 10
6.855077999999998
 20
14.008557
 30
0.0
 70
    32
  0
VERTEX
  5
E6D78
330
E6D52
100
AcDbEntity
  8
1
100
AcDbVertex
100
AcDb3dPolylineVertex
 10
6.893439999999999
 20
13.734571
 30
0.0
 70
    32
  0
VERTEX
  5
E6D79
330
E6D52
100
AcDbEntity
  8
1
100
AcDbVertex
100
AcDb3dPolylineVertex
 10
6.934004999999999
 20
13.460932
 30
0.0
 70
    32
  0
VERTEX
  5
E6D7A
330
E6D52
100
AcDbEntity
  8
1
100
AcDbVertex
100
AcDb3dPolylineVertex
 10
6.981666999999997
 20
13.18841
 30
0.0
 70
    32
  0
VERTEX
  5
E6D7B
330
E6D52
100
AcDbEntity
  8
1
100
AcDbVertex
100
AcDb3dPolylineVertex
 10
7.029327999999997
 20
12.915888
 30
0.0
 70
    32
  0
VERTEX
  5
E6D7C
330
E6D52
100
AcDbEntity
  8
1
100
AcDbVertex
100
AcDb3dPolylineVertex
 10
7.076989999999997
 20
12.643366
 30
0.0
 70
    32
  0
VERTEX
  5
E6D7D
330
E6D52
100
AcDbEntity
  8
1
100
AcDbVertex
100
AcDb3dPolylineVertex
 10
7.124650999999999
 20
12.370843
 30
0.0
 70
    32
  0
VERTEX
  5
E6D7E
330
E6D52
100
AcDbEntity
  8
1
100
AcDbVertex
100
AcDb3dPolylineVertex
 10
7.172313
 20
12.098321
 30
0.0
 70
    32
  0
VERTEX
  5
E6D7F
330
E6D52
100
AcDbEntity
  8
1
100
AcDbVertex
100
AcDb3dPolylineVertex
 10
7.223342999999997
 20
11.82645
 30
0.0
 70
    32
  0
VERTEX
  5
E6D80
330
E6D52
100
AcDbEntity
  8
1
100
AcDbVertex
100
AcDb3dPolylineVertex
 10
7.280621
 20
11.555785
 30
0.0
 70
    32
  0
VERTEX
  5
E6D81
330
E6D52
100
AcDbEntity
  8
1
100
AcDbVertex
100
AcDb3dPolylineVertex
 10
7.337898
 20
11.285121
 30
0.0
 70
    32
  0
VERTEX
  5
E6D82
330
E6D52
100
AcDbEntity
  8
1
100
AcDbVertex
100
AcDb3dPolylineVertex
 10
7.395175999999997
 20
11.014456
 30
0.0
 70
    32
  0
VERTEX
  5
E6D83
330
E6D52
100
AcDbEntity
  8
1
100
AcDbVertex
100
AcDb3dPolylineVertex
 10
7.452453000000001
 20
10.743792
 30
0.0
 70
    32
  0
VERTEX
  5
E6D84
330
E6D52
100
AcDbEntity
  8
1
100
AcDbVertex
100
AcDb3dPolylineVertex
 10
7.509730000000001
 20
10.473127
 30
0.0
 70
    32
  0
VERTEX
  5
E6D85
330
E6D52
100
AcDbEntity
  8
1
100
AcDbVertex
100
AcDb3dPolylineVertex
 10
7.570391
 20
10.20323
 30
0.0
 70
    32
  0
VERTEX
  5
E6D86
330
E6D52
100
AcDbEntity
  8
1
100
AcDbVertex
100
AcDb3dPolylineVertex
 10
7.635394999999999
 20
9.934316
 30
0.0
 70
    32
  0
VERTEX
  5
E6D87
330
E6D52
100
AcDbEntity
  8
1
100
AcDbVertex
100
AcDb3dPolylineVertex
 10
7.700400000000001
 20
9.665402999999999
 30
0.0
 70
    32
  0
VERTEX
  5
E6D88
330
E6D52
100
AcDbEntity
  8
1
100
AcDbVertex
100
AcDb3dPolylineVertex
 10
7.765403999999997
 20
9.39649
 30
0.0
 70
    32
  0
VERTEX
  5
E6D89
330
E6D52
100
AcDbEntity
  8
1
100
AcDbVertex
100
AcDb3dPolylineVertex
 10
7.830408999999997
 20
9.127575999999999
 30
0.0
 70
    32
  0
VERTEX
  5
E6D8A
330
E6D52
100
AcDbEntity
  8
1
100
AcDbVertex
100
AcDb3dPolylineVertex
 10
7.895413000000001
 20
8.858662999999998
 30
0.0
 70
    32
  0
VERTEX
  5
E6D8B
330
E6D52
100
AcDbEntity
  8
1
100
AcDbVertex
100
AcDb3dPolylineVertex
 10
7.964853999999997
 20
8.590868999999999
 30
0.0
 70
    32
  0
VERTEX
  5
E6D8C
330
E6D52
100
AcDbEntity
  8
1
100
AcDbVertex
100
AcDb3dPolylineVertex
 10
8.035263999999997
 20
8.323320999999998
 30
0.0
 70
    32
  0
VERTEX
  5
E6D8D
330
E6D52
100
AcDbEntity
  8
1
100
AcDbVertex
100
AcDb3dPolylineVertex
 10
8.105674999999997
 20
8.055771999999999
 30
0.0
 70
    32
  0
SEQEND
  5
E6D8E
330
E6D52
100
AcDbEntity
  8
1
  0
POLYLINE
  5
E6D8F
330
18
100
AcDbEntity
  8
1
100
AcDb3dPolyline
 66
     1
 10
0.0
 20
0.0
 30
0.0
 70
     8
  0
VERTEX
  5
E6D90
330
E6D8F
100
AcDbEntity
  8
1
100
AcDbVertex
100
AcDb3dPolylineVertex
 10
121.765909
 20
18.29043199999999
 30
0.0
 70
    32
  0
VERTEX
  5
E6D91
330
E6D8F
100
AcDbEntity
  8
1
100
AcDbVertex
100
AcDb3dPolylineVertex
 10
121.436046
 20
18.27980199999999
 30
0.0
 70
    32
  0
VERTEX
  5
E6D92
330
E6D8F
100
AcDbEntity
  8
1
100
AcDbVertex
100
AcDb3dPolylineVertex
 10
121.106183
 20
18.26917199999998
 30
0.0
 70
    32
  0
VERTEX
  5
E6D93
330
E6D8F
100
AcDbEntity
  8
1
100
AcDbVertex
100
AcDb3dPolylineVertex
 10
120.776321
 20
18.25854199999999
 30
0.0
 70
    32
  0
VERTEX
  5
E6D94
330
E6D8F
100
AcDbEntity
  8
1
100
AcDbVertex
100
AcDb3dPolylineVertex
 10
120.446458
 20
18.24791199999999
 30
0.0
 70
    32
  0
VERTEX
  5
E6D95
330
E6D8F
100
AcDbEntity
  8
1
100
AcDbVertex
100
AcDb3dPolylineVertex
 10
120.116595
 20
18.23728199999999
 30
0.0
 70
    32
  0
VERTEX
  5
E6D96
330
E6D8F
100
AcDbEntity
  8
1
100
AcDbVertex
100
AcDb3dPolylineVertex
 10
119.786732
 20
18.22665199999999
 30
0.0
 70
    32
  0
VERTEX
  5
E6D97
330
E6D8F
100
AcDbEntity
  8
1
100
AcDbVertex
100
AcDb3dPolylineVertex
 10
119.456869
 20
18.21602199999999
 30
0.0
 70
    32
  0
VERTEX
  5
E6D98
330
E6D8F
100
AcDbEntity
  8
1
100
AcDbVertex
100
AcDb3dPolylineVertex
 10
119.127007
 20
18.20539199999999
 30
0.0
 70
    32
  0
VERTEX
  5
E6D99
330
E6D8F
100
AcDbEntity
  8
1
100
AcDbVertex
100
AcDb3dPolylineVertex
 10
118.797144
 20
18.19476199999998
 30
0.0
 70
    32
  0
VERTEX
  5
E6D9A
330
E6D8F
100
AcDbEntity
  8
1
100
AcDbVertex
100
AcDb3dPolylineVertex
 10
118.467281
 20
18.18413199999999
 30
0.0
 70
    32
  0
VERTEX
  5
E6D9B
330
E6D8F
100
AcDbEntity
  8
1
100
AcDbVertex
100
AcDb3dPolylineVertex
 10
118.137418
 20
18.17350199999999
 30
0.0
 70
    32
  0
VERTEX
  5
E6D9C
330
E6D8F
100
AcDbEntity
  8
1
100
AcDbVertex
100
AcDb3dPolylineVertex
 10
117.807555
 20
18.16287199999999
 30
0.0
 70
    32
  0
VERTEX
  5
E6D9D
330
E6D8F
100
AcDbEntity
  8
1
100
AcDbVertex
100
AcDb3dPolylineVertex
 10
117.477693
 20
18.15224099999999
 30
0.0
 70
    32
  0
VERTEX
  5
E6D9E
330
E6D8F
100
AcDbEntity
  8
1
100
AcDbVertex
100
AcDb3dPolylineVertex
 10
117.14783
 20
18.14161099999999
 30
0.0
 70
    32
  0
VERTEX
  5
E6D9F
330
E6D8F
100
AcDbEntity
  8
1
100
AcDbVertex
100
AcDb3dPolylineVertex
 10
116.818035
 20
18.12928999999998
 30
0.0
 70
    32
  0
VERTEX
  5
E6DA0
330
E6D8F
100
AcDbEntity
  8
1
100
AcDbVertex
100
AcDb3dPolylineVertex
 10
116.48839
 20
18.11326899999999
 30
0.0
 70
    32
  0
VERTEX
  5
E6DA1
330
E6D8F
100
AcDbEntity
  8
1
100
AcDbVertex
100
AcDb3dPolylineVertex
 10
116.158745
 20
18.09724699999999
 30
0.0
 70
    32
  0
VERTEX
  5
E6DA2
330
E6D8F
100
AcDbEntity
  8
1
100
AcDbVertex
100
AcDb3dPolylineVertex
 10
115.829101
 20
18.08122599999999
 30
0.0
 70
    32
  0
VERTEX
  5
E6DA3
330
E6D8F
100
AcDbEntity
  8
1
100
AcDbVertex
100
AcDb3dPolylineVertex
 10
115.499456
 20
18.06520499999999
 30
0.0
 70
    32
  0
VERTEX
  5
E6DA4
330
E6D8F
100
AcDbEntity
  8
1
100
AcDbVertex
100
AcDb3dPolylineVertex
 10
115.169811
 20
18.04918299999999
 30
0.0
 70
    32
  0
VERTEX
  5
E6DA5
330
E6D8F
100
AcDbEntity
  8
1
100
AcDbVertex
100
AcDb3dPolylineVertex
 10
114.840166
 20
18.03316199999999
 30
0.0
 70
    32
  0
VERTEX
  5
E6DA6
330
E6D8F
100
AcDbEntity
  8
1
100
AcDbVertex
100
AcDb3dPolylineVertex
 10
114.510773
 20
18.01309999999999
 30
0.0
 70
    32
  0
VERTEX
  5
E6DA7
330
E6D8F
100
AcDbEntity
  8
1
100
AcDbVertex
100
AcDb3dPolylineVertex
 10
114.181691
 20
17.98804699999999
 30
0.0
 70
    32
  0
VERTEX
  5
E6DA8
330
E6D8F
100
AcDbEntity
  8
1
100
AcDbVertex
100
AcDb3dPolylineVertex
 10
113.852609
 20
17.96299399999998
 30
0.0
 70
    32
  0
VERTEX
  5
E6DA9
330
E6D8F
100
AcDbEntity
  8
1
100
AcDbVertex
100
AcDb3dPolylineVertex
 10
113.523527
 20
17.93794099999999
 30
0.0
 70
    32
  0
VERTEX
  5
E6DAA
330
E6D8F
100
AcDbEntity
  8
1
100
AcDbVertex
100
AcDb3dPolylineVertex
 10
113.194446
 20
17.91288799999999
 30
0.0
 70
    32
  0
VERTEX
  5
E6DAB
330
E6D8F
100
AcDbEntity
  8
1
100
AcDbVertex
100
AcDb3dPolylineVertex
 10
112.865364
 20
17.88783499999999
 30
0.0
 70
    32
  0
VERTEX
  5
E6DAC
330
E6D8F
100
AcDbEntity
  8
1
100
AcDbVertex
100
AcDb3dPolylineVertex
 10
112.536282
 20
17.86278199999999
 30
0.0
 70
    32
  0
VERTEX
  5
E6DAD
330
E6D8F
100
AcDbEntity
  8
1
100
AcDbVertex
100
AcDb3dPolylineVertex
 10
112.20769
 20
17.83231099999999
 30
0.0
 70
    32
  0
VERTEX
  5
E6DAE
330
E6D8F
100
AcDbEntity
  8
1
100
AcDbVertex
100
AcDb3dPolylineVertex
 10
111.879448
 20
17.79796599999999
 30
0.0
 70
    32
  0
VERTEX
  5
E6DAF
330
E6D8F
100
AcDbEntity
  8
1
100
AcDbVertex
100
AcDb3dPolylineVertex
 10
111.551206
 20
17.76362099999998
 30
0.0
 70
    32
  0
VERTEX
  5
E6DB0
330
E6D8F
100
AcDbEntity
  8
1
100
AcDbVertex
100
AcDb3dPolylineVertex
 10
111.223094
 20
17.72815099999999
 30
0.0
 70
    32
  0
VERTEX
  5
E6DB1
330
E6D8F
100
AcDbEntity
  8
1
100
AcDbVertex
100
AcDb3dPolylineVertex
 10
110.895726
 20
17.68628899999999
 30
0.0
 70
    32
  0
VERTEX
  5
E6DB2
330
E6D8F
100
AcDbEntity
  8
1
100
AcDbVertex
100
AcDb3dPolylineVertex
 10
110.568358
 20
17.64442799999998
 30
0.0
 70
    32
  0
VERTEX
  5
E6DB3
330
E6D8F
100
AcDbEntity
  8
1
100
AcDbVertex
100
AcDb3dPolylineVertex
 10
110.240989
 20
17.60256599999999
 30
0.0
 70
    32
  0
VERTEX
  5
E6DB4
330
E6D8F
100
AcDbEntity
  8
1
100
AcDbVertex
100
AcDb3dPolylineVertex
 10
109.914475
 20
17.55465199999999
 30
0.0
 70
    32
  0
VERTEX
  5
E6DB5
330
E6D8F
100
AcDbEntity
  8
1
100
AcDbVertex
100
AcDb3dPolylineVertex
 10
109.588303
 20
17.50430899999999
 30
0.0
 70
    32
  0
VERTEX
  5
E6DB6
330
E6D8F
100
AcDbEntity
  8
1
100
AcDbVertex
100
AcDb3dPolylineVertex
 10
109.262131
 20
17.45396599999999
 30
0.0
 70
    32
  0
VERTEX
  5
E6DB7
330
E6D8F
100
AcDbEntity
  8
1
100
AcDbVertex
100
AcDb3dPolylineVertex
 10
108.936393
 20
17.40105999999999
 30
0.0
 70
    32
  0
VERTEX
  5
E6DB8
330
E6D8F
100
AcDbEntity
  8
1
100
AcDbVertex
100
AcDb3dPolylineVertex
 10
108.611813
 20
17.34130799999999
 30
0.0
 70
    32
  0
VERTEX
  5
E6DB9
330
E6D8F
100
AcDbEntity
  8
1
100
AcDbVertex
100
AcDb3dPolylineVertex
 10
108.287233
 20
17.28155699999999
 30
0.0
 70
    32
  0
VERTEX
  5
E6DBA
330
E6D8F
100
AcDbEntity
  8
1
100
AcDbVertex
100
AcDb3dPolylineVertex
 10
107.962653
 20
17.22180599999999
 30
0.0
 70
    32
  0
VERTEX
  5
E6DBB
330
E6D8F
100
AcDbEntity
  8
1
100
AcDbVertex
100
AcDb3dPolylineVertex
 10
107.640163
 20
17.15181099999999
 30
0.0
 70
    32
  0
VERTEX
  5
E6DBC
330
E6D8F
100
AcDbEntity
  8
1
100
AcDbVertex
100
AcDb3dPolylineVertex
 10
107.318123
 20
17.07961199999999
 30
0.0
 70
    32
  0
VERTEX
  5
E6DBD
330
E6D8F
100
AcDbEntity
  8
1
100
AcDbVertex
100
AcDb3dPolylineVertex
 10
106.996083
 20
17.00741199999999
 30
0.0
 70
    32
  0
VERTEX
  5
E6DBE
330
E6D8F
100
AcDbEntity
  8
1
100
AcDbVertex
100
AcDb3dPolylineVertex
 10
106.674043
 20
16.93521299999999
 30
0.0
 70
    32
  0
VERTEX
  5
E6DBF
330
E6D8F
100
AcDbEntity
  8
1
100
AcDbVertex
100
AcDb3dPolylineVertex
 10
106.352098
 20
16.86262499999999
 30
0.0
 70
    32
  0
VERTEX
  5
E6DC0
330
E6D8F
100
AcDbEntity
  8
1
100
AcDbVertex
100
AcDb3dPolylineVertex
 10
106.032944
 20
16.77858199999999
 30
0.0
 70
    32
  0
VERTEX
  5
E6DC1
330
E6D8F
100
AcDbEntity
  8
1
100
AcDbVertex
100
AcDb3dPolylineVertex
 10
105.71379
 20
16.69453899999999
 30
0.0
 70
    32
  0
VERTEX
  5
E6DC2
330
E6D8F
100
AcDbEntity
  8
1
100
AcDbVertex
100
AcDb3dPolylineVertex
 10
105.396133
 20
16.60509699999999
 30
0.0
 70
    32
  0
VERTEX
  5
E6DC3
330
E6D8F
100
AcDbEntity
  8
1
100
AcDbVertex
100
AcDb3dPolylineVertex
 10
105.07928
 20
16.51275799999999
 30
0.0
 70
    32
  0
VERTEX
  5
E6DC4
330
E6D8F
100
AcDbEntity
  8
1
100
AcDbVertex
100
AcDb3dPolylineVertex
 10
104.763103
 20
16.41820699999999
 30
0.0
 70
    32
  0
VERTEX
  5
E6DC5
330
E6D8F
100
AcDbEntity
  8
1
100
AcDbVertex
100
AcDb3dPolylineVertex
 10
104.448832
 20
16.31742899999999
 30
0.0
 70
    32
  0
VERTEX
  5
E6DC6
330
E6D8F
100
AcDbEntity
  8
1
100
AcDbVertex
100
AcDb3dPolylineVertex
 10
104.134561
 20
16.21665199999999
 30
0.0
 70
    32
  0
VERTEX
  5
E6DC7
330
E6D8F
100
AcDbEntity
  8
1
100
AcDbVertex
100
AcDb3dPolylineVertex
 10
103.822714
 20
16.10865299999999
 30
0.0
 70
    32
  0
VERTEX
  5
E6DC8
330
E6D8F
100
AcDbEntity
  8
1
100
AcDbVertex
100
AcDb3dPolylineVertex
 10
103.511278
 20
15.99942699999999
 30
0.0
 70
    32
  0
VERTEX
  5
E6DC9
330
E6D8F
100
AcDbEntity
  8
1
100
AcDbVertex
100
AcDb3dPolylineVertex
 10
103.201593
 20
15.88548699999999
 30
0.0
 70
    32
  0
VERTEX
  5
E6DCA
330
E6D8F
100
AcDbEntity
  8
1
100
AcDbVertex
100
AcDb3dPolylineVertex
 10
102.89436
 20
15.76494599999999
 30
0.0
 70
    32
  0
VERTEX
  5
E6DCB
330
E6D8F
100
AcDbEntity
  8
1
100
AcDbVertex
100
AcDb3dPolylineVertex
 10
102.587126
 20
15.64440599999999
 30
0.0
 70
    32
  0
VERTEX
  5
E6DCC
330
E6D8F
100
AcDbEntity
  8
1
100
AcDbVertex
100
AcDb3dPolylineVertex
 10
102.281297
 20
15.52053899999999
 30
0.0
 70
    32
  0
VERTEX
  5
E6DCD
330
E6D8F
100
AcDbEntity
  8
1
100
AcDbVertex
100
AcDb3dPolylineVertex
 10
101.980674
 20
15.38434799999999
 30
0.0
 70
    32
  0
VERTEX
  5
E6DCE
330
E6D8F
100
AcDbEntity
  8
1
100
AcDbVertex
100
AcDb3dPolylineVertex
 10
101.680051
 20
15.24815599999999
 30
0.0
 70
    32
  0
VERTEX
  5
E6DCF
330
E6D8F
100
AcDbEntity
  8
1
100
AcDbVertex
100
AcDb3dPolylineVertex
 10
101.379915
 20
15.11096699999999
 30
0.0
 70
    32
  0
VERTEX
  5
E6DD0
330
E6D8F
100
AcDbEntity
  8
1
100
AcDbVertex
100
AcDb3dPolylineVertex
 10
101.087765
 20
14.95743999999999
 30
0.0
 70
    32
  0
VERTEX
  5
E6DD1
330
E6D8F
100
AcDbEntity
  8
1
100
AcDbVertex
100
AcDb3dPolylineVertex
 10
100.795615
 20
14.80391299999999
 30
0.0
 70
    32
  0
VERTEX
  5
E6DD2
330
E6D8F
100
AcDbEntity
  8
1
100
AcDbVertex
100
AcDb3dPolylineVertex
 10
100.503464
 20
14.65038499999999
 30
0.0
 70
    32
  0
VERTEX
  5
E6DD3
330
E6D8F
100
AcDbEntity
  8
1
100
AcDbVertex
100
AcDb3dPolylineVertex
 10
100.220987
 20
14.47980399999999
 30
0.0
 70
    32
  0
VERTEX
  5
E6DD4
330
E6D8F
100
AcDbEntity
  8
1
100
AcDbVertex
100
AcDb3dPolylineVertex
 10
99.939292
 20
14.30784299999999
 30
0.0
 70
    32
  0
VERTEX
  5
E6DD5
330
E6D8F
100
AcDbEntity
  8
1
100
AcDbVertex
100
AcDb3dPolylineVertex
 10
99.65759699999999
 20
14.13588299999999
 30
0.0
 70
    32
  0
VERTEX
  5
E6DD6
330
E6D8F
100
AcDbEntity
  8
1
100
AcDbVertex
100
AcDb3dPolylineVertex
 10
99.385632
 20
13.94914199999999
 30
0.0
 70
    32
  0
VERTEX
  5
E6DD7
330
E6D8F
100
AcDbEntity
  8
1
100
AcDbVertex
100
AcDb3dPolylineVertex
 10
99.116327
 20
13.75836199999999
 30
0.0
 70
    32
  0
VERTEX
  5
E6DD8
330
E6D8F
100
AcDbEntity
  8
1
100
AcDbVertex
100
AcDb3dPolylineVertex
 10
98.847021
 20
13.567582
 30
0.0
 70
    32
  0
VERTEX
  5
E6DD9
330
E6D8F
100
AcDbEntity
  8
1
100
AcDbVertex
100
AcDb3dPolylineVertex
 10
98.58623100000002
 20
13.36563599999999
 30
0.0
 70
    32
  0
VERTEX
  5
E6DDA
330
E6D8F
100
AcDbEntity
  8
1
100
AcDbVertex
100
AcDb3dPolylineVertex
 10
98.330999
 20
13.15640199999999
 30
0.0
 70
    32
  0
VERTEX
  5
E6DDB
330
E6D8F
100
AcDbEntity
  8
1
100
AcDbVertex
100
AcDb3dPolylineVertex
 10
98.075766
 20
12.94716799999999
 30
0.0
 70
    32
  0
VERTEX
  5
E6DDC
330
E6D8F
100
AcDbEntity
  8
1
100
AcDbVertex
100
AcDb3dPolylineVertex
 10
97.82498000000003
 20
12.73282499999999
 30
0.0
 70
    32
  0
VERTEX
  5
E6DDD
330
E6D8F
100
AcDbEntity
  8
1
100
AcDbVertex
100
AcDb3dPolylineVertex
 10
97.58248899999999
 20
12.50894799999999
 30
0.0
 70
    32
  0
VERTEX
  5
E6DDE
330
E6D8F
100
AcDbEntity
  8
1
100
AcDbVertex
100
AcDb3dPolylineVertex
 10
97.34480699999998
 20
12.28011799999999
 30
0.0
 70
    32
  0
VERTEX
  5
E6DDF
330
E6D8F
100
AcDbEntity
  8
1
100
AcDbVertex
100
AcDb3dPolylineVertex
 10
97.113828
 20
12.04438299999999
 30
0.0
 70
    32
  0
VERTEX
  5
E6DE0
330
E6D8F
100
AcDbEntity
  8
1
100
AcDbVertex
100
AcDb3dPolylineVertex
 10
96.889707
 20
11.80227799999999
 30
0.0
 70
    32
  0
VERTEX
  5
E6DE1
330
E6D8F
100
AcDbEntity
  8
1
100
AcDbVertex
100
AcDb3dPolylineVertex
 10
96.671636
 20
11.55455299999999
 30
0.0
 70
    32
  0
VERTEX
  5
E6DE2
330
E6D8F
100
AcDbEntity
  8
1
100
AcDbVertex
100
AcDb3dPolylineVertex
 10
96.463207
 20
11.29880799999999
 30
0.0
 70
    32
  0
VERTEX
  5
E6DE3
330
E6D8F
100
AcDbEntity
  8
1
100
AcDbVertex
100
AcDb3dPolylineVertex
 10
96.25934800000001
 20
11.03926299999999
 30
0.0
 70
    32
  0
VERTEX
  5
E6DE4
330
E6D8F
100
AcDbEntity
  8
1
100
AcDbVertex
100
AcDb3dPolylineVertex
 10
96.06848499999999
 20
10.77010399999999
 30
0.0
 70
    32
  0
VERTEX
  5
E6DE5
330
E6D8F
100
AcDbEntity
  8
1
100
AcDbVertex
100
AcDb3dPolylineVertex
 10
95.88038
 20
10.49893999999999
 30
0.0
 70
    32
  0
VERTEX
  5
E6DE6
330
E6D8F
100
AcDbEntity
  8
1
100
AcDbVertex
100
AcDb3dPolylineVertex
 10
95.708055
 20
10.21746799999999
 30
0.0
 70
    32
  0
VERTEX
  5
E6DE7
330
E6D8F
100
AcDbEntity
  8
1
100
AcDbVertex
100
AcDb3dPolylineVertex
 10
95.539094
 20
9.934068999999995
 30
0.0
 70
    32
  0
VERTEX
  5
E6DE8
330
E6D8F
100
AcDbEntity
  8
1
100
AcDbVertex
100
AcDb3dPolylineVertex
 10
95.383502
 20
9.643012999999994
 30
0.0
 70
    32
  0
VERTEX
  5
E6DE9
330
E6D8F
100
AcDbEntity
  8
1
100
AcDbVertex
100
AcDb3dPolylineVertex
 10
95.23400399999999
 20
9.348919999999994
 30
0.0
 70
    32
  0
VERTEX
  5
E6DEA
330
E6D8F
100
AcDbEntity
  8
1
100
AcDbVertex
100
AcDb3dPolylineVertex
 10
95.09532
 20
9.049438999999994
 30
0.0
 70
    32
  0
VERTEX
  5
E6DEB
330
E6D8F
100
AcDbEntity
  8
1
100
AcDbVertex
100
AcDb3dPolylineVertex
 10
94.96484999999999
 20
8.746424999999995
 30
0.0
 70
    32
  0
VERTEX
  5
E6DEC
330
E6D8F
100
AcDbEntity
  8
1
100
AcDbVertex
100
AcDb3dPolylineVertex
 10
94.84288799999999
 20
8.439752999999994
 30
0.0
 70
    32
  0
VERTEX
  5
E6DED
330
E6D8F
100
AcDbEntity
  8
1
100
AcDbVertex
100
AcDb3dPolylineVertex
 10
94.730343
 20
8.129617999999991
 30
0.0
 70
    32
  0
VERTEX
  5
E6DEE
330
E6D8F
100
AcDbEntity
  8
1
100
AcDbVertex
100
AcDb3dPolylineVertex
 10
94.62459100000002
 20
7.816985999999991
 30
0.0
 70
    32
  0
VERTEX
  5
E6DEF
330
E6D8F
100
AcDbEntity
  8
1
100
AcDbVertex
100
AcDb3dPolylineVertex
 10
94.528364
 20
7.501388999999991
 30
0.0
 70
    32
  0
VERTEX
  5
E6DF0
330
E6D8F
100
AcDbEntity
  8
1
100
AcDbVertex
100
AcDb3dPolylineVertex
 10
94.438037
 20
7.183956999999994
 30
0.0
 70
    32
  0
VERTEX
  5
E6DF1
330
E6D8F
100
AcDbEntity
  8
1
100
AcDbVertex
100
AcDb3dPolylineVertex
 10
94.35622100000001
 20
6.864308999999991
 30
0.0
 70
    32
  0
VERTEX
  5
E6DF2
330
E6D8F
100
AcDbEntity
  8
1
100
AcDbVertex
100
AcDb3dPolylineVertex
 10
94.280331
 20
6.543118999999991
 30
0.0
 70
    32
  0
VERTEX
  5
E6DF3
330
E6D8F
100
AcDbEntity
  8
1
100
AcDbVertex
100
AcDb3dPolylineVertex
 10
94.211749
 20
6.220380999999994
 30
0.0
 70
    32
  0
VERTEX
  5
E6DF4
330
E6D8F
100
AcDbEntity
  8
1
100
AcDbVertex
100
AcDb3dPolylineVertex
 10
94.15089399999999
 20
5.896004999999995
 30
0.0
 70
    32
  0
VERTEX
  5
E6DF5
330
E6D8F
100
AcDbEntity
  8
1
100
AcDbVertex
100
AcDb3dPolylineVertex
 10
94.09004000000001
 20
5.571629999999991
 30
0.0
 70
    32
  0
VERTEX
  5
E6DF6
330
E6D8F
100
AcDbEntity
  8
1
100
AcDbVertex
100
AcDb3dPolylineVertex
 10
94.029185
 20
5.247254999999993
 30
0.0
 70
    32
  0
VERTEX
  5
E6DF7
330
E6D8F
100
AcDbEntity
  8
1
100
AcDbVertex
100
AcDb3dPolylineVertex
 10
93.988074
 20
4.919807999999994
 30
0.0
 70
    32
  0
VERTEX
  5
E6DF8
330
E6D8F
100
AcDbEntity
  8
1
100
AcDbVertex
100
AcDb3dPolylineVertex
 10
93.947497
 20
4.592277999999994
 30
0.0
 70
    32
  0
VERTEX
  5
E6DF9
330
E6D8F
100
AcDbEntity
  8
1
100
AcDbVertex
100
AcDb3dPolylineVertex
 10
93.90691999999999
 20
4.264747999999993
 30
0.0
 70
    32
  0
VERTEX
  5
E6DFA
330
E6D8F
100
AcDbEntity
  8
1
100
AcDbVertex
100
AcDb3dPolylineVertex
 10
93.879838
 20
3.935923999999993
 30
0.0
 70
    32
  0
VERTEX
  5
E6DFB
330
E6D8F
100
AcDbEntity
  8
1
100
AcDbVertex
100
AcDb3dPolylineVertex
 10
93.85994399999999
 20
3.606529999999993
 30
0.0
 70
    32
  0
VERTEX
  5
E6DFC
330
E6D8F
100
AcDbEntity
  8
1
100
AcDbVertex
100
AcDb3dPolylineVertex
 10
93.850613
 20
3.276627999999993
 30
0.0
 70
    32
  0
VERTEX
  5
E6DFD
330
E6D8F
100
AcDbEntity
  8
1
100
AcDbVertex
100
AcDb3dPolylineVertex
 10
93.850121
 20
2.946654999999993
 30
0.0
 70
    32
  0
VERTEX
  5
E6DFE
330
E6D8F
100
AcDbEntity
  8
1
100
AcDbVertex
100
AcDb3dPolylineVertex
 10
93.856823
 20
2.616757999999994
 30
0.0
 70
    32
  0
VERTEX
  5
E6DFF
330
E6D8F
100
AcDbEntity
  8
1
100
AcDbVertex
100
AcDb3dPolylineVertex
 10
93.880406
 20
2.287567999999994
 30
0.0
 70
    32
  0
VERTEX
  5
E6E00
330
E6D8F
100
AcDbEntity
  8
1
100
AcDbVertex
100
AcDb3dPolylineVertex
 10
93.90398899999999
 20
1.958376999999994
 30
0.0
 70
    32
  0
VERTEX
  5
E6E01
330
E6D8F
100
AcDbEntity
  8
1
100
AcDbVertex
100
AcDb3dPolylineVertex
 10
93.928375
 20
1.629272999999994
 30
0.0
 70
    32
  0
VERTEX
  5
E6E02
330
E6D8F
100
AcDbEntity
  8
1
100
AcDbVertex
100
AcDb3dPolylineVertex
 10
93.975258
 20
1.302585999999994
 30
0.0
 70
    32
  0
VERTEX
  5
E6E03
330
E6D8F
100
AcDbEntity
  8
1
100
AcDbVertex
100
AcDb3dPolylineVertex
 10
94.022141
 20
0.9758989999999942
 30
0.0
 70
    32
  0
VERTEX
  5
E6E04
330
E6D8F
100
AcDbEntity
  8
1
100
AcDbVertex
100
AcDb3dPolylineVertex
 10
94.069023
 20
0.6492119999999943
 30
0.0
 70
    32
  0
VERTEX
  5
E6E05
330
E6D8F
100
AcDbEntity
  8
1
100
AcDbVertex
100
AcDb3dPolylineVertex
 10
94.12665200000001
 20
0.3243089999999942
 30
0.0
 70
    32
  0
VERTEX
  5
E6E06
330
E6D8F
100
AcDbEntity
  8
1
100
AcDbVertex
100
AcDb3dPolylineVertex
 10
94.18785900000001
 20
-0.0000000000000058
 30
0.0
 70
    32
  0
SEQEND
  5
E6E07
330
E6D8F
100
AcDbEntity
  8
1
  0
POLYLINE
  5
E6E08
330
18
100
AcDbEntity
  8
1
100
AcDb3dPolyline
 66
     1
 10
0.0
 20
0.0
 30
0.0
 70
     8
  0
VERTEX
  5
E6E09
330
E6E08
100
AcDbEntity
  8
1
100
AcDbVertex
100
AcDb3dPolylineVertex
 10
94.18785900000001
 20
-0.0000000000000058
 30
0.0
 70
    32
  0
VERTEX
  5
E6E0A
330
E6E08
100
AcDbEntity
  8
1
100
AcDbVertex
100
AcDb3dPolylineVertex
 10
94.246929
 20
-0.2661570000000058
 30
0.0
 70
    32
  0
VERTEX
  5
E6E0B
330
E6E08
100
AcDbEntity
  8
1
100
AcDbVertex
100
AcDb3dPolylineVertex
 10
94.30599800000001
 20
-0.5323130000000058
 30
0.0
 70
    32
  0
VERTEX
  5
E6E0C
330
E6E08
100
AcDbEntity
  8
1
100
AcDbVertex
100
AcDb3dPolylineVertex
 10
94.373807
 20
-0.7963570000000058
 30
0.0
 70
    32
  0
VERTEX
  5
E6E0D
330
E6E08
100
AcDbEntity
  8
1
100
AcDbVertex
100
AcDb3dPolylineVertex
 10
94.442854
 20
-1.060102000000004
 30
0.0
 70
    32
  0
VERTEX
  5
E6E0E
330
E6E08
100
AcDbEntity
  8
1
100
AcDbVertex
100
AcDb3dPolylineVertex
 10
94.51928399999999
 20
-1.321766000000004
 30
0.0
 70
    32
  0
VERTEX
  5
E6E0F
330
E6E08
100
AcDbEntity
  8
1
100
AcDbVertex
100
AcDb3dPolylineVertex
 10
94.598042
 20
-1.582776000000004
 30
0.0
 70
    32
  0
VERTEX
  5
E6E10
330
E6E08
100
AcDbEntity
  8
1
100
AcDbVertex
100
AcDb3dPolylineVertex
 10
94.682946
 20
-1.841808000000004
 30
0.0
 70
    32
  0
VERTEX
  5
E6E11
330
E6E08
100
AcDbEntity
  8
1
100
AcDbVertex
100
AcDb3dPolylineVertex
 10
94.77113000000001
 20
-2.099785000000004
 30
0.0
 70
    32
  0
VERTEX
  5
E6E12
330
E6E08
100
AcDbEntity
  8
1
100
AcDbVertex
100
AcDb3dPolylineVertex
 10
94.866764
 20
-2.354993000000003
 30
0.0
 70
    32
  0
VERTEX
  5
E6E13
330
E6E08
100
AcDbEntity
  8
1
100
AcDbVertex
100
AcDb3dPolylineVertex
 10
94.968506
 20
-2.607930000000004
 30
0.0
 70
    32
  0
VERTEX
  5
E6E14
330
E6E08
100
AcDbEntity
  8
1
100
AcDbVertex
100
AcDb3dPolylineVertex
 10
95.070247
 20
-2.860867000000004
 30
0.0
 70
    32
  0
VERTEX
  5
E6E15
330
E6E08
100
AcDbEntity
  8
1
100
AcDbVertex
100
AcDb3dPolylineVertex
 10
95.171988
 20
-3.113805000000004
 30
0.0
 70
    32
  0
VERTEX
  5
E6E16
330
E6E08
100
AcDbEntity
  8
1
100
AcDbVertex
100
AcDb3dPolylineVertex
 10
95.279837
 20
-3.364039000000003
 30
0.0
 70
    32
  0
VERTEX
  5
E6E17
330
E6E08
100
AcDbEntity
  8
1
100
AcDbVertex
100
AcDb3dPolylineVertex
 10
95.39862300000001
 20
-3.609434000000004
 30
0.0
 70
    32
  0
VERTEX
  5
E6E18
330
E6E08
100
AcDbEntity
  8
1
100
AcDbVertex
100
AcDb3dPolylineVertex
 10
95.51740800000001
 20
-3.854829000000004
 30
0.0
 70
    32
  0
VERTEX
  5
E6E19
330
E6E08
100
AcDbEntity
  8
1
100
AcDbVertex
100
AcDb3dPolylineVertex
 10
95.636193
 20
-4.100224000000006
 30
0.0
 70
    32
  0
VERTEX
  5
E6E1A
330
E6E08
100
AcDbEntity
  8
1
100
AcDbVertex
100
AcDb3dPolylineVertex
 10
95.75780899999999
 20
-4.344133000000006
 30
0.0
 70
    32
  0
VERTEX
  5
E6E1B
330
E6E08
100
AcDbEntity
  8
1
100
AcDbVertex
100
AcDb3dPolylineVertex
 10
95.89240799999997
 20
-4.581223000000004
 30
0.0
 70
    32
  0
VERTEX
  5
E6E1C
330
E6E08
100
AcDbEntity
  8
1
100
AcDbVertex
100
AcDb3dPolylineVertex
 10
96.027006
 20
-4.818313000000006
 30
0.0
 70
    32
  0
VERTEX
  5
E6E1D
330
E6E08
100
AcDbEntity
  8
1
100
AcDbVertex
100
AcDb3dPolylineVertex
 10
96.16160499999999
 20
-5.055404000000003
 30
0.0
 70
    32
  0
VERTEX
  5
E6E1E
330
E6E08
100
AcDbEntity
  8
1
100
AcDbVertex
100
AcDb3dPolylineVertex
 10
96.29630699999999
 20
-5.292431000000004
 30
0.0
 70
    32
  0
VERTEX
  5
E6E1F
330
E6E08
100
AcDbEntity
  8
1
100
AcDbVertex
100
AcDb3dPolylineVertex
 10
96.44551800000002
 20
-5.520608000000006
 30
0.0
 70
    32
  0
VERTEX
  5
E6E20
330
E6E08
100
AcDbEntity
  8
1
100
AcDbVertex
100
AcDb3dPolylineVertex
 10
96.59472800000001
 20
-5.748785000000006
 30
0.0
 70
    32
  0
VERTEX
  5
E6E21
330
E6E08
100
AcDbEntity
  8
1
100
AcDbVertex
100
AcDb3dPolylineVertex
 10
96.743938
 20
-5.976963000000002
 30
0.0
 70
    32
  0
VERTEX
  5
E6E22
330
E6E08
100
AcDbEntity
  8
1
100
AcDbVertex
100
AcDb3dPolylineVertex
 10
96.89314899999999
 20
-6.205140000000006
 30
0.0
 70
    32
  0
VERTEX
  5
E6E23
330
E6E08
100
AcDbEntity
  8
1
100
AcDbVertex
100
AcDb3dPolylineVertex
 10
97.05132900000002
 20
-6.427142000000006
 30
0.0
 70
    32
  0
VERTEX
  5
E6E24
330
E6E08
100
AcDbEntity
  8
1
100
AcDbVertex
100
AcDb3dPolylineVertex
 10
97.211209
 20
-6.647975000000005
 30
0.0
 70
    32
  0
VERTEX
  5
E6E25
330
E6E08
100
AcDbEntity
  8
1
100
AcDbVertex
100
AcDb3dPolylineVertex
 10
97.37546700000001
 20
-6.865523000000002
 30
0.0
 70
    32
  0
VERTEX
  5
E6E26
330
E6E08
100
AcDbEntity
  8
1
100
AcDbVertex
100
AcDb3dPolylineVertex
 10
97.54274800000001
 20
-7.080804000000002
 30
0.0
 70
    32
  0
VERTEX
  5
E6E27
330
E6E08
100
AcDbEntity
  8
1
100
AcDbVertex
100
AcDb3dPolylineVertex
 10
97.71248900000001
 20
-7.294105000000006
 30
0.0
 70
    32
  0
VERTEX
  5
E6E28
330
E6E08
100
AcDbEntity
  8
1
100
AcDbVertex
100
AcDb3dPolylineVertex
 10
97.88697
 20
-7.503592000000003
 30
0.0
 70
    32
  0
VERTEX
  5
E6E29
330
E6E08
100
AcDbEntity
  8
1
100
AcDbVertex
100
AcDb3dPolylineVertex
 10
98.062084
 20
-7.712534000000005
 30
0.0
 70
    32
  0
VERTEX
  5
E6E2A
330
E6E08
100
AcDbEntity
  8
1
100
AcDbVertex
100
AcDb3dPolylineVertex
 10
98.24356299999999
 20
-7.915990000000006
 30
0.0
 70
    32
  0
VERTEX
  5
E6E2B
330
E6E08
100
AcDbEntity
  8
1
100
AcDbVertex
100
AcDb3dPolylineVertex
 10
98.42504099999999
 20
-8.119445000000004
 30
0.0
 70
    32
  0
VERTEX
  5
E6E2C
330
E6E08
100
AcDbEntity
  8
1
100
AcDbVertex
100
AcDb3dPolylineVertex
 10
98.61220199999999
 20
-8.317657000000004
 30
0.0
 70
    32
  0
VERTEX
  5
E6E2D
330
E6E08
100
AcDbEntity
  8
1
100
AcDbVertex
100
AcDb3dPolylineVertex
 10
98.80046900000001
 20
-8.514848000000004
 30
0.0
 70
    32
  0
VERTEX
  5
E6E2E
330
E6E08
100
AcDbEntity
  8
1
100
AcDbVertex
100
AcDb3dPolylineVertex
 10
98.992556
 20
-8.708265000000004
 30
0.0
 70
    32
  0
VERTEX
  5
E6E2F
330
E6E08
100
AcDbEntity
  8
1
100
AcDbVertex
100
AcDb3dPolylineVertex
 10
99.187396
 20
-8.898964000000002
 30
0.0
 70
    32
  0
VERTEX
  5
E6E30
330
E6E08
100
AcDbEntity
  8
1
100
AcDbVertex
100
AcDb3dPolylineVertex
 10
99.38428299999999
 20
-9.087499000000006
 30
0.0
 70
    32
  0
VERTEX
  5
E6E31
330
E6E08
100
AcDbEntity
  8
1
100
AcDbVertex
100
AcDb3dPolylineVertex
 10
99.58547600000001
 20
-9.271482000000004
 30
0.0
 70
    32
  0
VERTEX
  5
E6E32
330
E6E08
100
AcDbEntity
  8
1
100
AcDbVertex
100
AcDb3dPolylineVertex
 10
99.787034
 20
-9.455053000000003
 30
0.0
 70
    32
  0
VERTEX
  5
E6E33
330
E6E08
100
AcDbEntity
  8
1
100
AcDbVertex
100
AcDb3dPolylineVertex
 10
99.99435599999999
 20
-9.632102000000003
 30
0.0
 70
    32
  0
VERTEX
  5
E6E34
330
E6E08
100
AcDbEntity
  8
1
100
AcDbVertex
100
AcDb3dPolylineVertex
 10
100.201677
 20
-9.809152000000006
 30
0.0
 70
    32
  0
VERTEX
  5
E6E35
330
E6E08
100
AcDbEntity
  8
1
100
AcDbVertex
100
AcDb3dPolylineVertex
 10
100.413669
 20
-9.980539000000003
 30
0.0
 70
    32
  0
VERTEX
  5
E6E36
330
E6E08
100
AcDbEntity
  8
1
100
AcDbVertex
100
AcDb3dPolylineVertex
 10
100.626886
 20
-10.150442
 30
0.0
 70
    32
  0
VERTEX
  5
E6E37
330
E6E08
100
AcDbEntity
  8
1
100
AcDbVertex
100
AcDb3dPolylineVertex
 10
100.843047
 20
-10.31652
 30
0.0
 70
    32
  0
VERTEX
  5
E6E38
330
E6E08
100
AcDbEntity
  8
1
100
AcDbVertex
100
AcDb3dPolylineVertex
 10
101.061922
 20
-10.479069
 30
0.0
 70
    32
  0
VERTEX
  5
E6E39
330
E6E08
100
AcDbEntity
  8
1
100
AcDbVertex
100
AcDb3dPolylineVertex
 10
101.282109
 20
-10.63978800000001
 30
0.0
 70
    32
  0
VERTEX
  5
E6E3A
330
E6E08
100
AcDbEntity
  8
1
100
AcDbVertex
100
AcDb3dPolylineVertex
 10
101.506398
 20
-10.794781
 30
0.0
 70
    32
  0
VERTEX
  5
E6E3B
330
E6E08
100
AcDbEntity
  8
1
100
AcDbVertex
100
AcDb3dPolylineVertex
 10
101.730688
 20
-10.949774
 30
0.0
 70
    32
  0
VERTEX
  5
E6E3C
330
E6E08
100
AcDbEntity
  8
1
100
AcDbVertex
100
AcDb3dPolylineVertex
 10
101.959923
 20
-11.097343
 30
0.0
 70
    32
  0
VERTEX
  5
E6E3D
330
E6E08
100
AcDbEntity
  8
1
100
AcDbVertex
100
AcDb3dPolylineVertex
 10
102.189375
 20
-11.24458500000001
 30
0.0
 70
    32
  0
VERTEX
  5
E6E3E
330
E6E08
100
AcDbEntity
  8
1
100
AcDbVertex
100
AcDb3dPolylineVertex
 10
102.422534
 20
-11.385795
 30
0.0
 70
    32
  0
VERTEX
  5
E6E3F
330
E6E08
100
AcDbEntity
  8
1
100
AcDbVertex
100
AcDb3dPolylineVertex
 10
102.657548
 20
-11.52398800000001
 30
0.0
 70
    32
  0
VERTEX
  5
E6E40
330
E6E08
100
AcDbEntity
  8
1
100
AcDbVertex
100
AcDb3dPolylineVertex
 10
102.892561
 20
-11.66218000000001
 30
0.0
 70
    32
  0
VERTEX
  5
E6E41
330
E6E08
100
AcDbEntity
  8
1
100
AcDbVertex
100
AcDb3dPolylineVertex
 10
103.129673
 20
-11.79661600000001
 30
0.0
 70
    32
  0
VERTEX
  5
E6E42
330
E6E08
100
AcDbEntity
  8
1
100
AcDbVertex
100
AcDb3dPolylineVertex
 10
103.370629
 20
-11.924165
 30
0.0
 70
    32
  0
VERTEX
  5
E6E43
330
E6E08
100
AcDbEntity
  8
1
100
AcDbVertex
100
AcDb3dPolylineVertex
 10
103.611585
 20
-12.05171400000001
 30
0.0
 70
    32
  0
VERTEX
  5
E6E44
330
E6E08
100
AcDbEntity
  8
1
100
AcDbVertex
100
AcDb3dPolylineVertex
 10
103.852971
 20
-12.17840800000001
 30
0.0
 70
    32
  0
VERTEX
  5
E6E45
330
E6E08
100
AcDbEntity
  8
1
100
AcDbVertex
100
AcDb3dPolylineVertex
 10
104.099096
 20
-12.295673
 30
0.0
 70
    32
  0
VERTEX
  5
E6E46
330
E6E08
100
AcDbEntity
  8
1
100
AcDbVertex
100
AcDb3dPolylineVertex
 10
104.345221
 20
-12.41293800000001
 30
0.0
 70
    32
  0
VERTEX
  5
E6E47
330
E6E08
100
AcDbEntity
  8
1
100
AcDbVertex
100
AcDb3dPolylineVertex
 10
104.591346
 20
-12.53020300000001
 30
0.0
 70
    32
  0
VERTEX
  5
E6E48
330
E6E08
100
AcDbEntity
  8
1
100
AcDbVertex
100
AcDb3dPolylineVertex
 10
104.840653
 20
-12.64044700000001
 30
0.0
 70
    32
  0
VERTEX
  5
E6E49
330
E6E08
100
AcDbEntity
  8
1
100
AcDbVertex
100
AcDb3dPolylineVertex
 10
105.091073
 20
-12.748237
 30
0.0
 70
    32
  0
VERTEX
  5
E6E4A
330
E6E08
100
AcDbEntity
  8
1
100
AcDbVertex
100
AcDb3dPolylineVertex
 10
105.341492
 20
-12.85602700000001
 30
0.0
 70
    32
  0
VERTEX
  5
E6E4B
330
E6E08
100
AcDbEntity
  8
1
100
AcDbVertex
100
AcDb3dPolylineVertex
 10
105.591972
 20
-12.96367100000001
 30
0.0
 70
    32
  0
VERTEX
  5
E6E4C
330
E6E08
100
AcDbEntity
  8
1
100
AcDbVertex
100
AcDb3dPolylineVertex
 10
105.846268
 20
-13.061966
 30
0.0
 70
    32
  0
VERTEX
  5
E6E4D
330
E6E08
100
AcDbEntity
  8
1
100
AcDbVertex
100
AcDb3dPolylineVertex
 10
106.100564
 20
-13.160262
 30
0.0
 70
    32
  0
VERTEX
  5
E6E4E
330
E6E08
100
AcDbEntity
  8
1
100
AcDbVertex
100
AcDb3dPolylineVertex
 10
106.35486
 20
-13.25855700000001
 30
0.0
 70
    32
  0
VERTEX
  5
E6E4F
330
E6E08
100
AcDbEntity
  8
1
100
AcDbVertex
100
AcDb3dPolylineVertex
 10
106.610271
 20
-13.35380600000001
 30
0.0
 70
    32
  0
VERTEX
  5
E6E50
330
E6E08
100
AcDbEntity
  8
1
100
AcDbVertex
100
AcDb3dPolylineVertex
 10
106.867981
 20
-13.442768
 30
0.0
 70
    32
  0
VERTEX
  5
E6E51
330
E6E08
100
AcDbEntity
  8
1
100
AcDbVertex
100
AcDb3dPolylineVertex
 10
107.12569
 20
-13.53173100000001
 30
0.0
 70
    32
  0
VERTEX
  5
E6E52
330
E6E08
100
AcDbEntity
  8
1
100
AcDbVertex
100
AcDb3dPolylineVertex
 10
107.3834
 20
-13.62069400000001
 30
0.0
 70
    32
  0
VERTEX
  5
E6E53
330
E6E08
100
AcDbEntity
  8
1
100
AcDbVertex
100
AcDb3dPolylineVertex
 10
107.643083
 20
-13.703599
 30
0.0
 70
    32
  0
VERTEX
  5
E6E54
330
E6E08
100
AcDbEntity
  8
1
100
AcDbVertex
100
AcDb3dPolylineVertex
 10
107.903753
 20
-13.78347000000001
 30
0.0
 70
    32
  0
VERTEX
  5
E6E55
330
E6E08
100
AcDbEntity
  8
1
100
AcDbVertex
100
AcDb3dPolylineVertex
 10
108.164424
 20
-13.86334100000001
 30
0.0
 70
    32
  0
VERTEX
  5
E6E56
330
E6E08
100
AcDbEntity
  8
1
100
AcDbVertex
100
AcDb3dPolylineVertex
 10
108.425164
 20
-13.942973
 30
0.0
 70
    32
  0
VERTEX
  5
E6E57
330
E6E08
100
AcDbEntity
  8
1
100
AcDbVertex
100
AcDb3dPolylineVertex
 10
108.688364
 20
-14.014066
 30
0.0
 70
    32
  0
VERTEX
  5
E6E58
330
E6E08
100
AcDbEntity
  8
1
100
AcDbVertex
100
AcDb3dPolylineVertex
 10
108.951564
 20
-14.085159
 30
0.0
 70
    32
  0
VERTEX
  5
E6E59
330
E6E08
100
AcDbEntity
  8
1
100
AcDbVertex
100
AcDb3dPolylineVertex
 10
109.214765
 20
-14.156252
 30
0.0
 70
    32
  0
VERTEX
  5
E6E5A
330
E6E08
100
AcDbEntity
  8
1
100
AcDbVertex
100
AcDb3dPolylineVertex
 10
109.478821
 20
-14.22396300000001
 30
0.0
 70
    32
  0
VERTEX
  5
E6E5B
330
E6E08
100
AcDbEntity
  8
1
100
AcDbVertex
100
AcDb3dPolylineVertex
 10
109.744148
 20
-14.286656
 30
0.0
 70
    32
  0
VERTEX
  5
E6E5C
330
E6E08
100
AcDbEntity
  8
1
100
AcDbVertex
100
AcDb3dPolylineVertex
 10
110.009474
 20
-14.349349
 30
0.0
 70
    32
  0
VERTEX
  5
E6E5D
330
E6E08
100
AcDbEntity
  8
1
100
AcDbVertex
100
AcDb3dPolylineVertex
 10
110.274801
 20
-14.41204200000001
 30
0.0
 70
    32
  0
VERTEX
  5
E6E5E
330
E6E08
100
AcDbEntity
  8
1
100
AcDbVertex
100
AcDb3dPolylineVertex
 10
110.541509
 20
-14.46847000000001
 30
0.0
 70
    32
  0
VERTEX
  5
E6E5F
330
E6E08
100
AcDbEntity
  8
1
100
AcDbVertex
100
AcDb3dPolylineVertex
 10
110.808593
 20
-14.52319700000001
 30
0.0
 70
    32
  0
VERTEX
  5
E6E60
330
E6E08
100
AcDbEntity
  8
1
100
AcDbVertex
100
AcDb3dPolylineVertex
 10
111.075676
 20
-14.57792300000001
 30
0.0
 70
    32
  0
VERTEX
  5
E6E61
330
E6E08
100
AcDbEntity
  8
1
100
AcDbVertex
100
AcDb3dPolylineVertex
 10
111.343006
 20
-14.631354
 30
0.0
 70
    32
  0
VERTEX
  5
E6E62
330
E6E08
100
AcDbEntity
  8
1
100
AcDbVertex
100
AcDb3dPolylineVertex
 10
111.611515
 20
-14.678593
 30
0.0
 70
    32
  0
VERTEX
  5
E6E63
330
E6E08
100
AcDbEntity
  8
1
100
AcDbVertex
100
AcDb3dPolylineVertex
 10
111.880025
 20
-14.725831
 30
0.0
 70
    32
  0
VERTEX
  5
E6E64
330
E6E08
100
AcDbEntity
  8
1
100
AcDbVertex
100
AcDb3dPolylineVertex
 10
112.148534
 20
-14.77306900000001
 30
0.0
 70
    32
  0
VERTEX
  5
E6E65
330
E6E08
100
AcDbEntity
  8
1
100
AcDbVertex
100
AcDb3dPolylineVertex
 10
112.417675
 20
-14.816419
 30
0.0
 70
    32
  0
VERTEX
  5
E6E66
330
E6E08
100
AcDbEntity
  8
1
100
AcDbVertex
100
AcDb3dPolylineVertex
 10
112.687318
 20
-14.856683
 30
0.0
 70
    32
  0
VERTEX
  5
E6E67
330
E6E08
100
AcDbEntity
  8
1
100
AcDbVertex
100
AcDb3dPolylineVertex
 10
112.956961
 20
-14.89694800000001
 30
0.0
 70
    32
  0
VERTEX
  5
E6E68
330
E6E08
100
AcDbEntity
  8
1
100
AcDbVertex
100
AcDb3dPolylineVertex
 10
113.226604
 20
-14.937213
 30
0.0
 70
    32
  0
VERTEX
  5
E6E69
330
E6E08
100
AcDbEntity
  8
1
100
AcDbVertex
100
AcDb3dPolylineVertex
 10
113.497073
 20
-14.971457
 30
0.0
 70
    32
  0
VERTEX
  5
E6E6A
330
E6E08
100
AcDbEntity
  8
1
100
AcDbVertex
100
AcDb3dPolylineVertex
 10
113.767598
 20
-15.00529
 30
0.0
 70
    32
  0
VERTEX
  5
E6E6B
330
E6E08
100
AcDbEntity
  8
1
100
AcDbVertex
100
AcDb3dPolylineVertex
 10
114.038124
 20
-15.03912300000001
 30
0.0
 70
    32
  0
VERTEX
  5
E6E6C
330
E6E08
100
AcDbEntity
  8
1
100
AcDbVertex
100
AcDb3dPolylineVertex
 10
114.308932
 20
-15.07036000000001
 30
0.0
 70
    32
  0
VERTEX
  5
E6E6D
330
E6E08
100
AcDbEntity
  8
1
100
AcDbVertex
100
AcDb3dPolylineVertex
 10
114.580388
 20
-15.09566900000001
 30
0.0
 70
    32
  0
VERTEX
  5
E6E6E
330
E6E08
100
AcDbEntity
  8
1
100
AcDbVertex
100
AcDb3dPolylineVertex
 10
114.851843
 20
-15.120977
 30
0.0
 70
    32
  0
VERTEX
  5
E6E6F
330
E6E08
100
AcDbEntity
  8
1
100
AcDbVertex
100
AcDb3dPolylineVertex
 10
115.123299
 20
-15.14628500000001
 30
0.0
 70
    32
  0
VERTEX
  5
E6E70
330
E6E08
100
AcDbEntity
  8
1
100
AcDbVertex
100
AcDb3dPolylineVertex
 10
115.394754
 20
-15.17159400000001
 30
0.0
 70
    32
  0
VERTEX
  5
E6E71
330
E6E08
100
AcDbEntity
  8
1
100
AcDbVertex
100
AcDb3dPolylineVertex
 10
115.66621
 20
-15.19690200000001
 30
0.0
 70
    32
  0
VERTEX
  5
E6E72
330
E6E08
100
AcDbEntity
  8
1
100
AcDbVertex
100
AcDb3dPolylineVertex
 10
115.937665
 20
-15.222211
 30
0.0
 70
    32
  0
VERTEX
  5
E6E73
330
E6E08
100
AcDbEntity
  8
1
100
AcDbVertex
100
AcDb3dPolylineVertex
 10
116.209121
 20
-15.24751900000001
 30
0.0
 70
    32
  0
SEQEND
  5
E6E74
330
E6E08
100
AcDbEntity
  8
1
  0
POLYLINE
  5
E6E75
330
18
100
AcDbEntity
  8
1
100
AcDb3dPolyline
 66
     1
 10
0.0
 20
0.0
 30
0.0
 70
     8
  0
VERTEX
  5
E6E76
330
E6E75
100
AcDbEntity
  8
1
100
AcDbVertex
100
AcDb3dPolylineVertex
 10
116.209121
 20
-15.24751900000001
 30
0.0
 70
    32
  0
VERTEX
  5
E6E77
330
E6E75
100
AcDbEntity
  8
1
100
AcDbVertex
100
AcDb3dPolylineVertex
 10
117.58843
 20
-15.34646300000001
 30
0.0
 70
    32
  0
VERTEX
  5
E6E78
330
E6E75
100
AcDbEntity
  8
1
100
AcDbVertex
100
AcDb3dPolylineVertex
 10
118.96774
 20
-15.44540600000001
 30
0.0
 70
    32
  0
VERTEX
  5
E6E79
330
E6E75
100
AcDbEntity
  8
1
100
AcDbVertex
100
AcDb3dPolylineVertex
 10
120.347049
 20
-15.54435
 30
0.0
 70
    32
  0
VERTEX
  5
E6E7A
330
E6E75
100
AcDbEntity
  8
1
100
AcDbVertex
100
AcDb3dPolylineVertex
 10
121.726359
 20
-15.643293
 30
0.0
 70
    32
  0
VERTEX
  5
E6E7B
330
E6E75
100
AcDbEntity
  8
1
100
AcDbVertex
100
AcDb3dPolylineVertex
 10
123.105792
 20
-15.74044200000001
 30
0.0
 70
    32
  0
VERTEX
  5
E6E7C
330
E6E75
100
AcDbEntity
  8
1
100
AcDbVertex
100
AcDb3dPolylineVertex
 10
124.485538
 20
-15.83305700000001
 30
0.0
 70
    32
  0
VERTEX
  5
E6E7D
330
E6E75
100
AcDbEntity
  8
1
100
AcDbVertex
100
AcDb3dPolylineVertex
 10
125.865473
 20
-15.92294700000001
 30
0.0
 70
    32
  0
VERTEX
  5
E6E7E
330
E6E75
100
AcDbEntity
  8
1
100
AcDbVertex
100
AcDb3dPolylineVertex
 10
127.245461
 20
-16.012055
 30
0.0
 70
    32
  0
VERTEX
  5
E6E7F
330
E6E75
100
AcDbEntity
  8
1
100
AcDbVertex
100
AcDb3dPolylineVertex
 10
128.625369
 20
-16.10232500000001
 30
0.0
 70
    32
  0
SEQEND
  5
E6E80
330
E6E75
100
AcDbEntity
  8
1
  0
POLYLINE
  5
E6E81
330
18
100
AcDbEntity
  8
1
100
AcDb3dPolyline
 66
     1
 10
0.0
 20
0.0
 30
0.0
 70
     8
  0
VERTEX
  5
E6E82
330
E6E81
100
AcDbEntity
  8
1
100
AcDbVertex
100
AcDb3dPolylineVertex
 10
11.894325
 20
23.666548
 30
0.0
 70
    32
  0
VERTEX
  5
E6E83
330
E6E81
100
AcDbEntity
  8
1
100
AcDbVertex
100
AcDb3dPolylineVertex
 10
12.058572
 20
23.443905
 30
0.0
 70
    32
  0
VERTEX
  5
E6E84
330
E6E81
100
AcDbEntity
  8
1
100
AcDbVertex
100
AcDb3dPolylineVertex
 10
12.211014
 20
23.213138
 30
0.0
 70
    32
  0
VERTEX
  5
E6E85
330
E6E81
100
AcDbEntity
  8
1
100
AcDbVertex
100
AcDb3dPolylineVertex
 10
12.347346
 20
22.972705
 30
0.0
 70
    32
  0
VERTEX
  5
E6E86
330
E6E81
100
AcDbEntity
  8
1
100
AcDbVertex
100
AcDb3dPolylineVertex
 10
12.474836
 20
22.727158
 30
0.0
 70
    32
  0
VERTEX
  5
E6E87
330
E6E81
100
AcDbEntity
  8
1
100
AcDbVertex
100
AcDb3dPolylineVertex
 10
12.596001
 20
22.478745
 30
0.0
 70
    32
  0
VERTEX
  5
E6E88
330
E6E81
100
AcDbEntity
  8
1
100
AcDbVertex
100
AcDb3dPolylineVertex
 10
12.696538
 20
22.220987
 30
0.0
 70
    32
  0
VERTEX
  5
E6E89
330
E6E81
100
AcDbEntity
  8
1
100
AcDbVertex
100
AcDb3dPolylineVertex
 10
12.797076
 20
21.963229
 30
0.0
 70
    32
  0
VERTEX
  5
E6E8A
330
E6E81
100
AcDbEntity
  8
1
100
AcDbVertex
100
AcDb3dPolylineVertex
 10
12.877129
 20
21.698501
 30
0.0
 70
    32
  0
VERTEX
  5
E6E8B
330
E6E81
100
AcDbEntity
  8
1
100
AcDbVertex
100
AcDb3dPolylineVertex
 10
12.954676
 20
21.432919
 30
0.0
 70
    32
  0
VERTEX
  5
E6E8C
330
E6E81
100
AcDbEntity
  8
1
100
AcDbVertex
100
AcDb3dPolylineVertex
 10
13.022174
 20
21.164772
 30
0.0
 70
    32
  0
VERTEX
  5
E6E8D
330
E6E81
100
AcDbEntity
  8
1
100
AcDbVertex
100
AcDb3dPolylineVertex
 10
13.081422
 20
20.894519
 30
0.0
 70
    32
  0
VERTEX
  5
E6E8E
330
E6E81
100
AcDbEntity
  8
1
100
AcDbVertex
100
AcDb3dPolylineVertex
 10
13.1379
 20
20.62373
 30
0.0
 70
    32
  0
VERTEX
  5
E6E8F
330
E6E81
100
AcDbEntity
  8
1
100
AcDbVertex
100
AcDb3dPolylineVertex
 10
13.183768
 20
20.350888
 30
0.0
 70
    32
  0
VERTEX
  5
E6E90
330
E6E81
100
AcDbEntity
  8
1
100
AcDbVertex
100
AcDb3dPolylineVertex
 10
13.229637
 20
20.078045
 30
0.0
 70
    32
  0
VERTEX
  5
E6E91
330
E6E81
100
AcDbEntity
  8
1
100
AcDbVertex
100
AcDb3dPolylineVertex
 10
13.266038
 20
19.803803
 30
0.0
 70
    32
  0
VERTEX
  5
E6E92
330
E6E81
100
AcDbEntity
  8
1
100
AcDbVertex
100
AcDb3dPolylineVertex
 10
13.301049
 20
19.529356
 30
0.0
 70
    32
  0
VERTEX
  5
E6E93
330
E6E81
100
AcDbEntity
  8
1
100
AcDbVertex
100
AcDb3dPolylineVertex
 10
13.328805
 20
19.254132
 30
0.0
 70
    32
  0
VERTEX
  5
E6E94
330
E6E81
100
AcDbEntity
  8
1
100
AcDbVertex
100
AcDb3dPolylineVertex
 10
13.352668
 20
18.978492
 30
0.0
 70
    32
  0
VERTEX
  5
E6E95
330
E6E81
100
AcDbEntity
  8
1
100
AcDbVertex
100
AcDb3dPolylineVertex
 10
13.372047
 20
18.702548
 30
0.0
 70
    32
  0
VERTEX
  5
E6E96
330
E6E81
100
AcDbEntity
  8
1
100
AcDbVertex
100
AcDb3dPolylineVertex
 10
13.385515
 20
18.426205
 30
0.0
 70
    32
  0
VERTEX
  5
E6E97
330
E6E81
100
AcDbEntity
  8
1
100
AcDbVertex
100
AcDb3dPolylineVertex
 10
13.396958
 20
18.149798
 30
0.0
 70
    32
  0
VERTEX
  5
E6E98
330
E6E81
100
AcDbEntity
  8
1
100
AcDbVertex
100
AcDb3dPolylineVertex
 10
13.400823
 20
17.873154
 30
0.0
 70
    32
  0
VERTEX
  5
E6E99
330
E6E81
100
AcDbEntity
  8
1
100
AcDbVertex
100
AcDb3dPolylineVertex
 10
13.404688
 20
17.59651
 30
0.0
 70
    32
  0
VERTEX
  5
E6E9A
330
E6E81
100
AcDbEntity
  8
1
100
AcDbVertex
100
AcDb3dPolylineVertex
 10
13.395918
 20
17.319981
 30
0.0
 70
    32
  0
VERTEX
  5
E6E9B
330
E6E81
100
AcDbEntity
  8
1
100
AcDbVertex
100
AcDb3dPolylineVertex
 10
13.386992
 20
17.043454
 30
0.0
 70
    32
  0
VERTEX
  5
E6E9C
330
E6E81
100
AcDbEntity
  8
1
100
AcDbVertex
100
AcDb3dPolylineVertex
 10
13.378066
 20
16.766926
 30
0.0
 70
    32
  0
VERTEX
  5
E6E9D
330
E6E81
100
AcDbEntity
  8
1
100
AcDbVertex
100
AcDb3dPolylineVertex
 10
13.369139
 20
16.490399
 30
0.0
 70
    32
  0
VERTEX
  5
E6E9E
330
E6E81
100
AcDbEntity
  8
1
100
AcDbVertex
100
AcDb3dPolylineVertex
 10
13.352612
 20
16.214315
 30
0.0
 70
    32
  0
VERTEX
  5
E6E9F
330
E6E81
100
AcDbEntity
  8
1
100
AcDbVertex
100
AcDb3dPolylineVertex
 10
13.329339
 20
15.938624
 30
0.0
 70
    32
  0
VERTEX
  5
E6EA0
330
E6E81
100
AcDbEntity
  8
1
100
AcDbVertex
100
AcDb3dPolylineVertex
 10
13.306066
 20
15.662933
 30
0.0
 70
    32
  0
VERTEX
  5
E6EA1
330
E6E81
100
AcDbEntity
  8
1
100
AcDbVertex
100
AcDb3dPolylineVertex
 10
13.282794
 20
15.387242
 30
0.0
 70
    32
  0
VERTEX
  5
E6EA2
330
E6E81
100
AcDbEntity
  8
1
100
AcDbVertex
100
AcDb3dPolylineVertex
 10
13.258906
 20
15.111616
 30
0.0
 70
    32
  0
VERTEX
  5
E6EA3
330
E6E81
100
AcDbEntity
  8
1
100
AcDbVertex
100
AcDb3dPolylineVertex
 10
13.224454
 20
14.837098
 30
0.0
 70
    32
  0
VERTEX
  5
E6EA4
330
E6E81
100
AcDbEntity
  8
1
100
AcDbVertex
100
AcDb3dPolylineVertex
 10
13.190003
 20
14.56258
 30
0.0
 70
    32
  0
VERTEX
  5
E6EA5
330
E6E81
100
AcDbEntity
  8
1
100
AcDbVertex
100
AcDb3dPolylineVertex
 10
13.155551
 20
14.288062
 30
0.0
 70
    32
  0
VERTEX
  5
E6EA6
330
E6E81
100
AcDbEntity
  8
1
100
AcDbVertex
100
AcDb3dPolylineVertex
 10
13.121099
 20
14.013544
 30
0.0
 70
    32
  0
VERTEX
  5
E6EA7
330
E6E81
100
AcDbEntity
  8
1
100
AcDbVertex
100
AcDb3dPolylineVertex
 10
13.082016
 20
13.739678
 30
0.0
 70
    32
  0
VERTEX
  5
E6EA8
330
E6E81
100
AcDbEntity
  8
1
100
AcDbVertex
100
AcDb3dPolylineVertex
 10
13.039427
 20
13.466304
 30
0.0
 70
    32
  0
VERTEX
  5
E6EA9
330
E6E81
100
AcDbEntity
  8
1
100
AcDbVertex
100
AcDb3dPolylineVertex
 10
12.996839
 20
13.19293
 30
0.0
 70
    32
  0
VERTEX
  5
E6EAA
330
E6E81
100
AcDbEntity
  8
1
100
AcDbVertex
100
AcDb3dPolylineVertex
 10
12.95425
 20
12.919556
 30
0.0
 70
    32
  0
VERTEX
  5
E6EAB
330
E6E81
100
AcDbEntity
  8
1
100
AcDbVertex
100
AcDb3dPolylineVertex
 10
12.910973
 20
12.6463
 30
0.0
 70
    32
  0
VERTEX
  5
E6EAC
330
E6E81
100
AcDbEntity
  8
1
100
AcDbVertex
100
AcDb3dPolylineVertex
 10
12.860196
 20
12.374328
 30
0.0
 70
    32
  0
VERTEX
  5
E6EAD
330
E6E81
100
AcDbEntity
  8
1
100
AcDbVertex
100
AcDb3dPolylineVertex
 10
12.809419
 20
12.102356
 30
0.0
 70
    32
  0
VERTEX
  5
E6EAE
330
E6E81
100
AcDbEntity
  8
1
100
AcDbVertex
100
AcDb3dPolylineVertex
 10
12.758642
 20
11.830385
 30
0.0
 70
    32
  0
VERTEX
  5
E6EAF
330
E6E81
100
AcDbEntity
  8
1
100
AcDbVertex
100
AcDb3dPolylineVertex
 10
12.707865
 20
11.558413
 30
0.0
 70
    32
  0
VERTEX
  5
E6EB0
330
E6E81
100
AcDbEntity
  8
1
100
AcDbVertex
100
AcDb3dPolylineVertex
 10
12.657088
 20
11.286441
 30
0.0
 70
    32
  0
VERTEX
  5
E6EB1
330
E6E81
100
AcDbEntity
  8
1
100
AcDbVertex
100
AcDb3dPolylineVertex
 10
12.602798
 20
11.015188
 30
0.0
 70
    32
  0
VERTEX
  5
E6EB2
330
E6E81
100
AcDbEntity
  8
1
100
AcDbVertex
100
AcDb3dPolylineVertex
 10
12.542597
 20
10.745146
 30
0.0
 70
    32
  0
VERTEX
  5
E6EB3
330
E6E81
100
AcDbEntity
  8
1
100
AcDbVertex
100
AcDb3dPolylineVertex
 10
12.482396
 20
10.475103
 30
0.0
 70
    32
  0
VERTEX
  5
E6EB4
330
E6E81
100
AcDbEntity
  8
1
100
AcDbVertex
100
AcDb3dPolylineVertex
 10
12.422195
 20
10.205061
 30
0.0
 70
    32
  0
VERTEX
  5
E6EB5
330
E6E81
100
AcDbEntity
  8
1
100
AcDbVertex
100
AcDb3dPolylineVertex
 10
12.361994
 20
9.935019
 30
0.0
 70
    32
  0
VERTEX
  5
E6EB6
330
E6E81
100
AcDbEntity
  8
1
100
AcDbVertex
100
AcDb3dPolylineVertex
 10
12.301793
 20
9.664975999999999
 30
0.0
 70
    32
  0
VERTEX
  5
E6EB7
330
E6E81
100
AcDbEntity
  8
1
100
AcDbVertex
100
AcDb3dPolylineVertex
 10
12.235998
 20
9.396269999999999
 30
0.0
 70
    32
  0
VERTEX
  5
E6EB8
330
E6E81
100
AcDbEntity
  8
1
100
AcDbVertex
100
AcDb3dPolylineVertex
 10
12.167663
 20
9.128171
 30
0.0
 70
    32
  0
VERTEX
  5
E6EB9
330
E6E81
100
AcDbEntity
  8
1
100
AcDbVertex
100
AcDb3dPolylineVertex
 10
12.099329
 20
8.860071000000003
 30
0.0
 70
    32
  0
VERTEX
  5
E6EBA
330
E6E81
100
AcDbEntity
  8
1
100
AcDbVertex
100
AcDb3dPolylineVertex
 10
12.030994
 20
8.591971
 30
0.0
 70
    32
  0
VERTEX
  5
E6EBB
330
E6E81
100
AcDbEntity
  8
1
100
AcDbVertex
100
AcDb3dPolylineVertex
 10
11.96266
 20
8.323871999999997
 30
0.0
 70
    32
  0
VERTEX
  5
E6EBC
330
E6E81
100
AcDbEntity
  8
1
100
AcDbVertex
100
AcDb3dPolylineVertex
 10
11.894325
 20
8.055771999999999
 30
0.0
 70
    32
  0
SEQEND
  5
E6EBD
330
E6E81
100
AcDbEntity
  8
1
  0
POLYLINE
  5
E6EBE
330
18
100
AcDbEntity
  8
1
100
AcDb3dPolyline
 66
     1
 10
0.0
 20
0.0
 30
0.0
 70
     8
  0
VERTEX
  5
E6EBF
330
E6EBE
100
AcDbEntity
  8
1
100
AcDbVertex
100
AcDb3dPolylineVertex
 10
113.280822
 20
12.85704799999999
 30
0.0
 70
    32
  0
VERTEX
  5
E6EC0
330
E6EBE
100
AcDbEntity
  8
1
100
AcDbVertex
100
AcDb3dPolylineVertex
 10
113.335144
 20
12.70598399999999
 30
0.0
 70
    32
  0
VERTEX
  5
E6EC1
330
E6EBE
100
AcDbEntity
  8
1
100
AcDbVertex
100
AcDb3dPolylineVertex
 10
113.357833
 20
12.54772399999999
 30
0.0
 70
    32
  0
VERTEX
  5
E6EC2
330
E6EBE
100
AcDbEntity
  8
1
100
AcDbVertex
100
AcDb3dPolylineVertex
 10
113.334067
 20
12.38981599999999
 30
0.0
 70
    32
  0
VERTEX
  5
E6EC3
330
E6EBE
100
AcDbEntity
  8
1
100
AcDbVertex
100
AcDb3dPolylineVertex
 10
113.265791
 20
12.24500499999999
 30
0.0
 70
    32
  0
VERTEX
  5
E6EC4
330
E6EBE
100
AcDbEntity
  8
1
100
AcDbVertex
100
AcDb3dPolylineVertex
 10
113.178965
 20
12.10997799999999
 30
0.0
 70
    32
  0
VERTEX
  5
E6EC5
330
E6EBE
100
AcDbEntity
  8
1
100
AcDbVertex
100
AcDb3dPolylineVertex
 10
113.086826
 20
11.97864399999999
 30
0.0
 70
    32
  0
VERTEX
  5
E6EC6
330
E6EBE
100
AcDbEntity
  8
1
100
AcDbVertex
100
AcDb3dPolylineVertex
 10
112.990521
 20
11.85020499999999
 30
0.0
 70
    32
  0
VERTEX
  5
E6EC7
330
E6EBE
100
AcDbEntity
  8
1
100
AcDbVertex
100
AcDb3dPolylineVertex
 10
112.894216
 20
11.72176699999999
 30
0.0
 70
    32
  0
VERTEX
  5
E6EC8
330
E6EBE
100
AcDbEntity
  8
1
100
AcDbVertex
100
AcDb3dPolylineVertex
 10
112.790801
 20
11.59916099999999
 30
0.0
 70
    32
  0
VERTEX
  5
E6EC9
330
E6EBE
100
AcDbEntity
  8
1
100
AcDbVertex
100
AcDb3dPolylineVertex
 10
112.683689
 20
11.47958599999999
 30
0.0
 70
    32
  0
VERTEX
  5
E6ECA
330
E6EBE
100
AcDbEntity
  8
1
100
AcDbVertex
100
AcDb3dPolylineVertex
 10
112.576577
 20
11.36001199999999
 30
0.0
 70
    32
  0
VERTEX
  5
E6ECB
330
E6EBE
100
AcDbEntity
  8
1
100
AcDbVertex
100
AcDb3dPolylineVertex
 10
112.463265
 20
11.24638599999999
 30
0.0
 70
    32
  0
VERTEX
  5
E6ECC
330
E6EBE
100
AcDbEntity
  8
1
100
AcDbVertex
100
AcDb3dPolylineVertex
 10
112.348214
 20
11.13442999999999
 30
0.0
 70
    32
  0
VERTEX
  5
E6ECD
330
E6EBE
100
AcDbEntity
  8
1
100
AcDbVertex
100
AcDb3dPolylineVertex
 10
112.233163
 20
11.02247299999999
 30
0.0
 70
    32
  0
VERTEX
  5
E6ECE
330
E6EBE
100
AcDbEntity
  8
1
100
AcDbVertex
100
AcDb3dPolylineVertex
 10
112.113228
 20
10.91578899999999
 30
0.0
 70
    32
  0
VERTEX
  5
E6ECF
330
E6EBE
100
AcDbEntity
  8
1
100
AcDbVertex
100
AcDb3dPolylineVertex
 10
111.99281
 20
10.80962599999999
 30
0.0
 70
    32
  0
VERTEX
  5
E6ED0
330
E6EBE
100
AcDbEntity
  8
1
100
AcDbVertex
100
AcDb3dPolylineVertex
 10
111.872258
 20
10.70362099999999
 30
0.0
 70
    32
  0
VERTEX
  5
E6ED1
330
E6EBE
100
AcDbEntity
  8
1
100
AcDbVertex
100
AcDb3dPolylineVertex
 10
111.748197
 20
10.60173899999999
 30
0.0
 70
    32
  0
VERTEX
  5
E6ED2
330
E6EBE
100
AcDbEntity
  8
1
100
AcDbVertex
100
AcDb3dPolylineVertex
 10
111.624137
 20
10.49985599999999
 30
0.0
 70
    32
  0
VERTEX
  5
E6ED3
330
E6EBE
100
AcDbEntity
  8
1
100
AcDbVertex
100
AcDb3dPolylineVertex
 10
111.500077
 20
10.39797299999999
 30
0.0
 70
    32
  0
VERTEX
  5
E6ED4
330
E6EBE
100
AcDbEntity
  8
1
100
AcDbVertex
100
AcDb3dPolylineVertex
 10
111.376017
 20
10.29608999999999
 30
0.0
 70
    32
  0
VERTEX
  5
E6ED5
330
E6EBE
100
AcDbEntity
  8
1
100
AcDbVertex
100
AcDb3dPolylineVertex
 10
111.251957
 20
10.19420799999999
 30
0.0
 70
    32
  0
VERTEX
  5
E6ED6
330
E6EBE
100
AcDbEntity
  8
1
100
AcDbVertex
100
AcDb3dPolylineVertex
 10
111.127111
 20
10.09330799999999
 30
0.0
 70
    32
  0
VERTEX
  5
E6ED7
330
E6EBE
100
AcDbEntity
  8
1
100
AcDbVertex
100
AcDb3dPolylineVertex
 10
111.000352
 20
9.994802999999992
 30
0.0
 70
    32
  0
VERTEX
  5
E6ED8
330
E6EBE
100
AcDbEntity
  8
1
100
AcDbVertex
100
AcDb3dPolylineVertex
 10
110.873593
 20
9.89629799999999
 30
0.0
 70
    32
  0
VERTEX
  5
E6ED9
330
E6EBE
100
AcDbEntity
  8
1
100
AcDbVertex
100
AcDb3dPolylineVertex
 10
110.746834
 20
9.79779399999999
 30
0.0
 70
    32
  0
VERTEX
  5
E6EDA
330
E6EBE
100
AcDbEntity
  8
1
100
AcDbVertex
100
AcDb3dPolylineVertex
 10
110.620075
 20
9.699288999999991
 30
0.0
 70
    32
  0
VERTEX
  5
E6EDB
330
E6EBE
100
AcDbEntity
  8
1
100
AcDbVertex
100
AcDb3dPolylineVertex
 10
110.493316
 20
9.600783999999991
 30
0.0
 70
    32
  0
VERTEX
  5
E6EDC
330
E6EBE
100
AcDbEntity
  8
1
100
AcDbVertex
100
AcDb3dPolylineVertex
 10
110.363487
 20
9.506421999999991
 30
0.0
 70
    32
  0
VERTEX
  5
E6EDD
330
E6EBE
100
AcDbEntity
  8
1
100
AcDbVertex
100
AcDb3dPolylineVertex
 10
110.232351
 20
9.413823999999991
 30
0.0
 70
    32
  0
VERTEX
  5
E6EDE
330
E6EBE
100
AcDbEntity
  8
1
100
AcDbVertex
100
AcDb3dPolylineVertex
 10
110.101216
 20
9.321225999999992
 30
0.0
 70
    32
  0
VERTEX
  5
E6EDF
330
E6EBE
100
AcDbEntity
  8
1
100
AcDbVertex
100
AcDb3dPolylineVertex
 10
109.97008
 20
9.228627999999991
 30
0.0
 70
    32
  0
VERTEX
  5
E6EE0
330
E6EBE
100
AcDbEntity
  8
1
100
AcDbVertex
100
AcDb3dPolylineVertex
 10
109.838944
 20
9.136028999999991
 30
0.0
 70
    32
  0
VERTEX
  5
E6EE1
330
E6EBE
100
AcDbEntity
  8
1
100
AcDbVertex
100
AcDb3dPolylineVertex
 10
109.707362
 20
9.044094999999991
 30
0.0
 70
    32
  0
VERTEX
  5
E6EE2
330
E6EBE
100
AcDbEntity
  8
1
100
AcDbVertex
100
AcDb3dPolylineVertex
 10
109.572117
 20
8.95760899999999
 30
0.0
 70
    32
  0
VERTEX
  5
E6EE3
330
E6EBE
100
AcDbEntity
  8
1
100
AcDbVertex
100
AcDb3dPolylineVertex
 10
109.436872
 20
8.871122999999991
 30
0.0
 70
    32
  0
VERTEX
  5
E6EE4
330
E6EBE
100
AcDbEntity
  8
1
100
AcDbVertex
100
AcDb3dPolylineVertex
 10
109.301627
 20
8.784636999999991
 30
0.0
 70
    32
  0
VERTEX
  5
E6EE5
330
E6EBE
100
AcDbEntity
  8
1
100
AcDbVertex
100
AcDb3dPolylineVertex
 10
109.166382
 20
8.698150999999992
 30
0.0
 70
    32
  0
VERTEX
  5
E6EE6
330
E6EBE
100
AcDbEntity
  8
1
100
AcDbVertex
100
AcDb3dPolylineVertex
 10
109.031137
 20
8.611664999999991
 30
0.0
 70
    32
  0
VERTEX
  5
E6EE7
330
E6EBE
100
AcDbEntity
  8
1
100
AcDbVertex
100
AcDb3dPolylineVertex
 10
108.893937
 20
8.528395999999991
 30
0.0
 70
    32
  0
VERTEX
  5
E6EE8
330
E6EBE
100
AcDbEntity
  8
1
100
AcDbVertex
100
AcDb3dPolylineVertex
 10
108.754859
 20
8.448219999999992
 30
0.0
 70
    32
  0
VERTEX
  5
E6EE9
330
E6EBE
100
AcDbEntity
  8
1
100
AcDbVertex
100
AcDb3dPolylineVertex
 10
108.615781
 20
8.368042999999991
 30
0.0
 70
    32
  0
VERTEX
  5
E6EEA
330
E6EBE
100
AcDbEntity
  8
1
100
AcDbVertex
100
AcDb3dPolylineVertex
 10
108.476703
 20
8.287866999999991
 30
0.0
 70
    32
  0
VERTEX
  5
E6EEB
330
E6EBE
100
AcDbEntity
  8
1
100
AcDbVertex
100
AcDb3dPolylineVertex
 10
108.337624
 20
8.207689999999992
 30
0.0
 70
    32
  0
VERTEX
  5
E6EEC
330
E6EBE
100
AcDbEntity
  8
1
100
AcDbVertex
100
AcDb3dPolylineVertex
 10
108.198546
 20
8.12751399999999
 30
0.0
 70
    32
  0
VERTEX
  5
E6EED
330
E6EBE
100
AcDbEntity
  8
1
100
AcDbVertex
100
AcDb3dPolylineVertex
 10
108.056264
 20
8.053203999999992
 30
0.0
 70
    32
  0
VERTEX
  5
E6EEE
330
E6EBE
100
AcDbEntity
  8
1
100
AcDbVertex
100
AcDb3dPolylineVertex
 10
107.913637
 20
7.979525999999991
 30
0.0
 70
    32
  0
VERTEX
  5
E6EEF
330
E6EBE
100
AcDbEntity
  8
1
100
AcDbVertex
100
AcDb3dPolylineVertex
 10
107.771009
 20
7.905847999999991
 30
0.0
 70
    32
  0
VERTEX
  5
E6EF0
330
E6EBE
100
AcDbEntity
  8
1
100
AcDbVertex
100
AcDb3dPolylineVertex
 10
107.628381
 20
7.832169999999991
 30
0.0
 70
    32
  0
VERTEX
  5
E6EF1
330
E6EBE
100
AcDbEntity
  8
1
100
AcDbVertex
100
AcDb3dPolylineVertex
 10
107.485754
 20
7.758491999999991
 30
0.0
 70
    32
  0
VERTEX
  5
E6EF2
330
E6EBE
100
AcDbEntity
  8
1
100
AcDbVertex
100
AcDb3dPolylineVertex
 10
107.342203
 20
7.686708999999991
 30
0.0
 70
    32
  0
VERTEX
  5
E6EF3
330
E6EBE
100
AcDbEntity
  8
1
100
AcDbVertex
100
AcDb3dPolylineVertex
 10
107.196319
 20
7.619709999999994
 30
0.0
 70
    32
  0
VERTEX
  5
E6EF4
330
E6EBE
100
AcDbEntity
  8
1
100
AcDbVertex
100
AcDb3dPolylineVertex
 10
107.050435
 20
7.552709999999994
 30
0.0
 70
    32
  0
VERTEX
  5
E6EF5
330
E6EBE
100
AcDbEntity
  8
1
100
AcDbVertex
100
AcDb3dPolylineVertex
 10
106.904551
 20
7.485710999999994
 30
0.0
 70
    32
  0
VERTEX
  5
E6EF6
330
E6EBE
100
AcDbEntity
  8
1
100
AcDbVertex
100
AcDb3dPolylineVertex
 10
106.758667
 20
7.418710999999992
 30
0.0
 70
    32
  0
VERTEX
  5
E6EF7
330
E6EBE
100
AcDbEntity
  8
1
100
AcDbVertex
100
AcDb3dPolylineVertex
 10
106.612783
 20
7.351711999999992
 30
0.0
 70
    32
  0
VERTEX
  5
E6EF8
330
E6EBE
100
AcDbEntity
  8
1
100
AcDbVertex
100
AcDb3dPolylineVertex
 10
106.465011
 20
7.289084999999992
 30
0.0
 70
    32
  0
VERTEX
  5
E6EF9
330
E6EBE
100
AcDbEntity
  8
1
100
AcDbVertex
100
AcDb3dPolylineVertex
 10
106.316221
 20
7.228813999999991
 30
0.0
 70
    32
  0
VERTEX
  5
E6EFA
330
E6EBE
100
AcDbEntity
  8
1
100
AcDbVertex
100
AcDb3dPolylineVertex
 10
106.167431
 20
7.168542999999991
 30
0.0
 70
    32
  0
VERTEX
  5
E6EFB
330
E6EBE
100
AcDbEntity
  8
1
100
AcDbVertex
100
AcDb3dPolylineVertex
 10
106.018641
 20
7.108272999999991
 30
0.0
 70
    32
  0
VERTEX
  5
E6EFC
330
E6EBE
100
AcDbEntity
  8
1
100
AcDbVertex
100
AcDb3dPolylineVertex
 10
105.86805
 20
7.052894999999991
 30
0.0
 70
    32
  0
VERTEX
  5
E6EFD
330
E6EBE
100
AcDbEntity
  8
1
100
AcDbVertex
100
AcDb3dPolylineVertex
 10
105.715689
 20
7.002325999999992
 30
0.0
 70
    32
  0
VERTEX
  5
E6EFE
330
E6EBE
100
AcDbEntity
  8
1
100
AcDbVertex
100
AcDb3dPolylineVertex
 10
105.563329
 20
6.951755999999991
 30
0.0
 70
    32
  0
VERTEX
  5
E6EFF
330
E6EBE
100
AcDbEntity
  8
1
100
AcDbVertex
100
AcDb3dPolylineVertex
 10
105.410968
 20
6.901186999999991
 30
0.0
 70
    32
  0
VERTEX
  5
E6F00
330
E6EBE
100
AcDbEntity
  8
1
100
AcDbVertex
100
AcDb3dPolylineVertex
 10
105.257121
 20
6.855862999999994
 30
0.0
 70
    32
  0
VERTEX
  5
E6F01
330
E6EBE
100
AcDbEntity
  8
1
100
AcDbVertex
100
AcDb3dPolylineVertex
 10
105.100883
 20
6.818973999999991
 30
0.0
 70
    32
  0
VERTEX
  5
E6F02
330
E6EBE
100
AcDbEntity
  8
1
100
AcDbVertex
100
AcDb3dPolylineVertex
 10
104.944645
 20
6.782083999999991
 30
0.0
 70
    32
  0
VERTEX
  5
E6F03
330
E6EBE
100
AcDbEntity
  8
1
100
AcDbVertex
100
AcDb3dPolylineVertex
 10
104.788408
 20
6.745194999999991
 30
0.0
 70
    32
  0
VERTEX
  5
E6F04
330
E6EBE
100
AcDbEntity
  8
1
100
AcDbVertex
100
AcDb3dPolylineVertex
 10
104.631738
 20
6.710653999999991
 30
0.0
 70
    32
  0
VERTEX
  5
E6F05
330
E6EBE
100
AcDbEntity
  8
1
100
AcDbVertex
100
AcDb3dPolylineVertex
 10
104.472607
 20
6.689472999999991
 30
0.0
 70
    32
  0
VERTEX
  5
E6F06
330
E6EBE
100
AcDbEntity
  8
1
100
AcDbVertex
100
AcDb3dPolylineVertex
 10
104.313072
 20
6.674192999999991
 30
0.0
 70
    32
  0
VERTEX
  5
E6F07
330
E6EBE
100
AcDbEntity
  8
1
100
AcDbVertex
100
AcDb3dPolylineVertex
 10
104.15254
 20
6.673398999999991
 30
0.0
 70
    32
  0
VERTEX
  5
E6F08
330
E6EBE
100
AcDbEntity
  8
1
100
AcDbVertex
100
AcDb3dPolylineVertex
 10
103.993028
 20
6.685752999999992
 30
0.0
 70
    32
  0
VERTEX
  5
E6F09
330
E6EBE
100
AcDbEntity
  8
1
100
AcDbVertex
100
AcDb3dPolylineVertex
 10
103.834537
 20
6.711281999999994
 30
0.0
 70
    32
  0
VERTEX
  5
E6F0A
330
E6EBE
100
AcDbEntity
  8
1
100
AcDbVertex
100
AcDb3dPolylineVertex
 10
103.681635
 20
6.758284999999991
 30
0.0
 70
    32
  0
VERTEX
  5
E6F0B
330
E6EBE
100
AcDbEntity
  8
1
100
AcDbVertex
100
AcDb3dPolylineVertex
 10
103.530806
 20
6.813253999999991
 30
0.0
 70
    32
  0
VERTEX
  5
E6F0C
330
E6EBE
100
AcDbEntity
  8
1
100
AcDbVertex
100
AcDb3dPolylineVertex
 10
103.392028
 20
6.893423999999994
 30
0.0
 70
    32
  0
VERTEX
  5
E6F0D
330
E6EBE
100
AcDbEntity
  8
1
100
AcDbVertex
100
AcDb3dPolylineVertex
 10
103.254557
 20
6.976325999999991
 30
0.0
 70
    32
  0
VERTEX
  5
E6F0E
330
E6EBE
100
AcDbEntity
  8
1
100
AcDbVertex
100
AcDb3dPolylineVertex
 10
103.132313
 20
7.080101999999991
 30
0.0
 70
    32
  0
VERTEX
  5
E6F0F
330
E6EBE
100
AcDbEntity
  8
1
100
AcDbVertex
100
AcDb3dPolylineVertex
 10
103.011391
 20
7.185689999999991
 30
0.0
 70
    32
  0
VERTEX
  5
E6F10
330
E6EBE
100
AcDbEntity
  8
1
100
AcDbVertex
100
AcDb3dPolylineVertex
 10
102.903151
 20
7.303613999999991
 30
0.0
 70
    32
  0
VERTEX
  5
E6F11
330
E6EBE
100
AcDbEntity
  8
1
100
AcDbVertex
100
AcDb3dPolylineVertex
 10
102.804991
 20
7.429985999999994
 30
0.0
 70
    32
  0
VERTEX
  5
E6F12
330
E6EBE
100
AcDbEntity
  8
1
100
AcDbVertex
100
AcDb3dPolylineVertex
 10
102.736057
 20
7.574965999999991
 30
0.0
 70
    32
  0
VERTEX
  5
E6F13
330
E6EBE
100
AcDbEntity
  8
1
100
AcDbVertex
100
AcDb3dPolylineVertex
 10
102.707374
 20
7.732048999999991
 30
0.0
 70
    32
  0
VERTEX
  5
E6F14
330
E6EBE
100
AcDbEntity
  8
1
100
AcDbVertex
100
AcDb3dPolylineVertex
 10
102.712429
 20
7.891472999999991
 30
0.0
 70
    32
  0
VERTEX
  5
E6F15
330
E6EBE
100
AcDbEntity
  8
1
100
AcDbVertex
100
AcDb3dPolylineVertex
 10
102.739568
 20
8.049227999999992
 30
0.0
 70
    32
  0
VERTEX
  5
E6F16
330
E6EBE
100
AcDbEntity
  8
1
100
AcDbVertex
100
AcDb3dPolylineVertex
 10
102.780841
 20
8.204364999999992
 30
0.0
 70
    32
  0
VERTEX
  5
E6F17
330
E6EBE
100
AcDbEntity
  8
1
100
AcDbVertex
100
AcDb3dPolylineVertex
 10
102.822114
 20
8.359502999999991
 30
0.0
 70
    32
  0
VERTEX
  5
E6F18
330
E6EBE
100
AcDbEntity
  8
1
100
AcDbVertex
100
AcDb3dPolylineVertex
 10
102.863781
 20
8.514524999999991
 30
0.0
 70
    32
  0
VERTEX
  5
E6F19
330
E6EBE
100
AcDbEntity
  8
1
100
AcDbVertex
100
AcDb3dPolylineVertex
 10
102.912599
 20
8.667455999999992
 30
0.0
 70
    32
  0
VERTEX
  5
E6F1A
330
E6EBE
100
AcDbEntity
  8
1
100
AcDbVertex
100
AcDb3dPolylineVertex
 10
102.963714
 20
8.819558999999991
 30
0.0
 70
    32
  0
VERTEX
  5
E6F1B
330
E6EBE
100
AcDbEntity
  8
1
100
AcDbVertex
100
AcDb3dPolylineVertex
 10
103.023644
 20
8.968485999999991
 30
0.0
 70
    32
  0
VERTEX
  5
E6F1C
330
E6EBE
100
AcDbEntity
  8
1
100
AcDbVertex
100
AcDb3dPolylineVertex
 10
103.090687
 20
9.114195999999994
 30
0.0
 70
    32
  0
VERTEX
  5
E6F1D
330
E6EBE
100
AcDbEntity
  8
1
100
AcDbVertex
100
AcDb3dPolylineVertex
 10
103.16451
 20
9.256666999999991
 30
0.0
 70
    32
  0
VERTEX
  5
E6F1E
330
E6EBE
100
AcDbEntity
  8
1
100
AcDbVertex
100
AcDb3dPolylineVertex
 10
103.249708
 20
9.392726999999991
 30
0.0
 70
    32
  0
VERTEX
  5
E6F1F
330
E6EBE
100
AcDbEntity
  8
1
100
AcDbVertex
100
AcDb3dPolylineVertex
 10
103.349233
 20
9.51836899999999
 30
0.0
 70
    32
  0
VERTEX
  5
E6F20
330
E6EBE
100
AcDbEntity
  8
1
100
AcDbVertex
100
AcDb3dPolylineVertex
 10
103.452407
 20
9.641356999999992
 30
0.0
 70
    32
  0
VERTEX
  5
E6F21
330
E6EBE
100
AcDbEntity
  8
1
100
AcDbVertex
100
AcDb3dPolylineVertex
 10
103.562461
 20
9.757633999999992
 30
0.0
 70
    32
  0
VERTEX
  5
E6F22
330
E6EBE
100
AcDbEntity
  8
1
100
AcDbVertex
100
AcDb3dPolylineVertex
 10
103.682856
 20
9.863823999999992
 30
0.0
 70
    32
  0
VERTEX
  5
E6F23
330
E6EBE
100
AcDbEntity
  8
1
100
AcDbVertex
100
AcDb3dPolylineVertex
 10
103.803764
 20
9.96940299999999
 30
0.0
 70
    32
  0
VERTEX
  5
E6F24
330
E6EBE
100
AcDbEntity
  8
1
100
AcDbVertex
100
AcDb3dPolylineVertex
 10
103.928954
 20
10.06989399999999
 30
0.0
 70
    32
  0
VERTEX
  5
E6F25
330
E6EBE
100
AcDbEntity
  8
1
100
AcDbVertex
100
AcDb3dPolylineVertex
 10
104.054145
 20
10.17038399999999
 30
0.0
 70
    32
  0
VERTEX
  5
E6F26
330
E6EBE
100
AcDbEntity
  8
1
100
AcDbVertex
100
AcDb3dPolylineVertex
 10
104.179336
 20
10.27087399999999
 30
0.0
 70
    32
  0
VERTEX
  5
E6F27
330
E6EBE
100
AcDbEntity
  8
1
100
AcDbVertex
100
AcDb3dPolylineVertex
 10
104.304527
 20
10.37136399999999
 30
0.0
 70
    32
  0
VERTEX
  5
E6F28
330
E6EBE
100
AcDbEntity
  8
1
100
AcDbVertex
100
AcDb3dPolylineVertex
 10
104.429718
 20
10.47185399999999
 30
0.0
 70
    32
  0
VERTEX
  5
E6F29
330
E6EBE
100
AcDbEntity
  8
1
100
AcDbVertex
100
AcDb3dPolylineVertex
 10
104.554909
 20
10.57234499999999
 30
0.0
 70
    32
  0
VERTEX
  5
E6F2A
330
E6EBE
100
AcDbEntity
  8
1
100
AcDbVertex
100
AcDb3dPolylineVertex
 10
104.680099
 20
10.67283499999999
 30
0.0
 70
    32
  0
VERTEX
  5
E6F2B
330
E6EBE
100
AcDbEntity
  8
1
100
AcDbVertex
100
AcDb3dPolylineVertex
 10
104.80529
 20
10.77332499999999
 30
0.0
 70
    32
  0
VERTEX
  5
E6F2C
330
E6EBE
100
AcDbEntity
  8
1
100
AcDbVertex
100
AcDb3dPolylineVertex
 10
104.933346
 20
10.87005699999999
 30
0.0
 70
    32
  0
VERTEX
  5
E6F2D
330
E6EBE
100
AcDbEntity
  8
1
100
AcDbVertex
100
AcDb3dPolylineVertex
 10
105.06342
 20
10.96414099999999
 30
0.0
 70
    32
  0
VERTEX
  5
E6F2E
330
E6EBE
100
AcDbEntity
  8
1
100
AcDbVertex
100
AcDb3dPolylineVertex
 10
105.193494
 20
11.05822499999999
 30
0.0
 70
    32
  0
VERTEX
  5
E6F2F
330
E6EBE
100
AcDbEntity
  8
1
100
AcDbVertex
100
AcDb3dPolylineVertex
 10
105.325139
 20
11.14998699999999
 30
0.0
 70
    32
  0
VERTEX
  5
E6F30
330
E6EBE
100
AcDbEntity
  8
1
100
AcDbVertex
100
AcDb3dPolylineVertex
 10
105.46083
 20
11.23577199999999
 30
0.0
 70
    32
  0
VERTEX
  5
E6F31
330
E6EBE
100
AcDbEntity
  8
1
100
AcDbVertex
100
AcDb3dPolylineVertex
 10
105.59652
 20
11.32155799999999
 30
0.0
 70
    32
  0
VERTEX
  5
E6F32
330
E6EBE
100
AcDbEntity
  8
1
100
AcDbVertex
100
AcDb3dPolylineVertex
 10
105.732547
 20
11.40677399999999
 30
0.0
 70
    32
  0
VERTEX
  5
E6F33
330
E6EBE
100
AcDbEntity
  8
1
100
AcDbVertex
100
AcDb3dPolylineVertex
 10
105.873184
 20
11.48418299999999
 30
0.0
 70
    32
  0
VERTEX
  5
E6F34
330
E6EBE
100
AcDbEntity
  8
1
100
AcDbVertex
100
AcDb3dPolylineVertex
 10
106.013821
 20
11.56159299999999
 30
0.0
 70
    32
  0
VERTEX
  5
E6F35
330
E6EBE
100
AcDbEntity
  8
1
100
AcDbVertex
100
AcDb3dPolylineVertex
 10
106.154458
 20
11.63900199999999
 30
0.0
 70
    32
  0
VERTEX
  5
E6F36
330
E6EBE
100
AcDbEntity
  8
1
100
AcDbVertex
100
AcDb3dPolylineVertex
 10
106.298634
 20
11.70954199999999
 30
0.0
 70
    32
  0
VERTEX
  5
E6F37
330
E6EBE
100
AcDbEntity
  8
1
100
AcDbVertex
100
AcDb3dPolylineVertex
 10
106.443307
 20
11.77911899999999
 30
0.0
 70
    32
  0
VERTEX
  5
E6F38
330
E6EBE
100
AcDbEntity
  8
1
100
AcDbVertex
100
AcDb3dPolylineVertex
 10
106.587979
 20
11.84869599999999
 30
0.0
 70
    32
  0
VERTEX
  5
E6F39
330
E6EBE
100
AcDbEntity
  8
1
100
AcDbVertex
100
AcDb3dPolylineVertex
 10
106.734592
 20
11.91398799999999
 30
0.0
 70
    32
  0
VERTEX
  5
E6F3A
330
E6EBE
100
AcDbEntity
  8
1
100
AcDbVertex
100
AcDb3dPolylineVertex
 10
106.88232
 20
11.97681699999999
 30
0.0
 70
    32
  0
VERTEX
  5
E6F3B
330
E6EBE
100
AcDbEntity
  8
1
100
AcDbVertex
100
AcDb3dPolylineVertex
 10
107.030048
 20
12.03964599999999
 30
0.0
 70
    32
  0
VERTEX
  5
E6F3C
330
E6EBE
100
AcDbEntity
  8
1
100
AcDbVertex
100
AcDb3dPolylineVertex
 10
107.178436
 20
12.10083099999999
 30
0.0
 70
    32
  0
VERTEX
  5
E6F3D
330
E6EBE
100
AcDbEntity
  8
1
100
AcDbVertex
100
AcDb3dPolylineVertex
 10
107.328573
 20
12.15766299999999
 30
0.0
 70
    32
  0
VERTEX
  5
E6F3E
330
E6EBE
100
AcDbEntity
  8
1
100
AcDbVertex
100
AcDb3dPolylineVertex
 10
107.47871
 20
12.21449499999999
 30
0.0
 70
    32
  0
VERTEX
  5
E6F3F
330
E6EBE
100
AcDbEntity
  8
1
100
AcDbVertex
100
AcDb3dPolylineVertex
 10
107.628847
 20
12.27132699999999
 30
0.0
 70
    32
  0
VERTEX
  5
E6F40
330
E6EBE
100
AcDbEntity
  8
1
100
AcDbVertex
100
AcDb3dPolylineVertex
 10
107.778984
 20
12.32815899999999
 30
0.0
 70
    32
  0
VERTEX
  5
E6F41
330
E6EBE
100
AcDbEntity
  8
1
100
AcDbVertex
100
AcDb3dPolylineVertex
 10
107.929121
 20
12.38499099999999
 30
0.0
 70
    32
  0
VERTEX
  5
E6F42
330
E6EBE
100
AcDbEntity
  8
1
100
AcDbVertex
100
AcDb3dPolylineVertex
 10
108.079259
 20
12.44182299999999
 30
0.0
 70
    32
  0
VERTEX
  5
E6F43
330
E6EBE
100
AcDbEntity
  8
1
100
AcDbVertex
100
AcDb3dPolylineVertex
 10
108.229396
 20
12.49865499999999
 30
0.0
 70
    32
  0
VERTEX
  5
E6F44
330
E6EBE
100
AcDbEntity
  8
1
100
AcDbVertex
100
AcDb3dPolylineVertex
 10
108.379533
 20
12.55548699999999
 30
0.0
 70
    32
  0
VERTEX
  5
E6F45
330
E6EBE
100
AcDbEntity
  8
1
100
AcDbVertex
100
AcDb3dPolylineVertex
 10
108.53015
 20
12.61094499999999
 30
0.0
 70
    32
  0
VERTEX
  5
E6F46
330
E6EBE
100
AcDbEntity
  8
1
100
AcDbVertex
100
AcDb3dPolylineVertex
 10
108.682996
 20
12.66002999999999
 30
0.0
 70
    32
  0
VERTEX
  5
E6F47
330
E6EBE
100
AcDbEntity
  8
1
100
AcDbVertex
100
AcDb3dPolylineVertex
 10
108.835841
 20
12.70911499999999
 30
0.0
 70
    32
  0
VERTEX
  5
E6F48
330
E6EBE
100
AcDbEntity
  8
1
100
AcDbVertex
100
AcDb3dPolylineVertex
 10
108.988686
 20
12.75819999999999
 30
0.0
 70
    32
  0
VERTEX
  5
E6F49
330
E6EBE
100
AcDbEntity
  8
1
100
AcDbVertex
100
AcDb3dPolylineVertex
 10
109.141532
 20
12.80728399999999
 30
0.0
 70
    32
  0
VERTEX
  5
E6F4A
330
E6EBE
100
AcDbEntity
  8
1
100
AcDbVertex
100
AcDb3dPolylineVertex
 10
109.296126
 20
12.85040799999999
 30
0.0
 70
    32
  0
VERTEX
  5
E6F4B
330
E6EBE
100
AcDbEntity
  8
1
100
AcDbVertex
100
AcDb3dPolylineVertex
 10
109.45126
 20
12.89169599999999
 30
0.0
 70
    32
  0
VERTEX
  5
E6F4C
330
E6EBE
100
AcDbEntity
  8
1
100
AcDbVertex
100
AcDb3dPolylineVertex
 10
109.606393
 20
12.93298399999999
 30
0.0
 70
    32
  0
VERTEX
  5
E6F4D
330
E6EBE
100
AcDbEntity
  8
1
100
AcDbVertex
100
AcDb3dPolylineVertex
 10
109.761526
 20
12.97427199999999
 30
0.0
 70
    32
  0
VERTEX
  5
E6F4E
330
E6EBE
100
AcDbEntity
  8
1
100
AcDbVertex
100
AcDb3dPolylineVertex
 10
109.917479
 20
13.01205099999999
 30
0.0
 70
    32
  0
VERTEX
  5
E6F4F
330
E6EBE
100
AcDbEntity
  8
1
100
AcDbVertex
100
AcDb3dPolylineVertex
 10
110.074844
 20
13.04379199999999
 30
0.0
 70
    32
  0
VERTEX
  5
E6F50
330
E6EBE
100
AcDbEntity
  8
1
100
AcDbVertex
100
AcDb3dPolylineVertex
 10
110.232208
 20
13.07553399999999
 30
0.0
 70
    32
  0
VERTEX
  5
E6F51
330
E6EBE
100
AcDbEntity
  8
1
100
AcDbVertex
100
AcDb3dPolylineVertex
 10
110.389572
 20
13.10727499999999
 30
0.0
 70
    32
  0
VERTEX
  5
E6F52
330
E6EBE
100
AcDbEntity
  8
1
100
AcDbVertex
100
AcDb3dPolylineVertex
 10
110.546937
 20
13.13901599999999
 30
0.0
 70
    32
  0
VERTEX
  5
E6F53
330
E6EBE
100
AcDbEntity
  8
1
100
AcDbVertex
100
AcDb3dPolylineVertex
 10
110.705965
 20
13.16074699999999
 30
0.0
 70
    32
  0
VERTEX
  5
E6F54
330
E6EBE
100
AcDbEntity
  8
1
100
AcDbVertex
100
AcDb3dPolylineVertex
 10
110.865136
 20
13.18162099999999
 30
0.0
 70
    32
  0
VERTEX
  5
E6F55
330
E6EBE
100
AcDbEntity
  8
1
100
AcDbVertex
100
AcDb3dPolylineVertex
 10
111.024306
 20
13.20249499999999
 30
0.0
 70
    32
  0
VERTEX
  5
E6F56
330
E6EBE
100
AcDbEntity
  8
1
100
AcDbVertex
100
AcDb3dPolylineVertex
 10
111.183477
 20
13.22336899999999
 30
0.0
 70
    32
  0
VERTEX
  5
E6F57
330
E6EBE
100
AcDbEntity
  8
1
100
AcDbVertex
100
AcDb3dPolylineVertex
 10
111.343079
 20
13.23924899999999
 30
0.0
 70
    32
  0
VERTEX
  5
E6F58
330
E6EBE
100
AcDbEntity
  8
1
100
AcDbVertex
100
AcDb3dPolylineVertex
 10
111.503472
 20
13.24595699999999
 30
0.0
 70
    32
  0
VERTEX
  5
E6F59
330
E6EBE
100
AcDbEntity
  8
1
100
AcDbVertex
100
AcDb3dPolylineVertex
 10
111.663865
 20
13.25266599999999
 30
0.0
 70
    32
  0
VERTEX
  5
E6F5A
330
E6EBE
100
AcDbEntity
  8
1
100
AcDbVertex
100
AcDb3dPolylineVertex
 10
111.824259
 20
13.25937399999999
 30
0.0
 70
    32
  0
VERTEX
  5
E6F5B
330
E6EBE
100
AcDbEntity
  8
1
100
AcDbVertex
100
AcDb3dPolylineVertex
 10
111.984652
 20
13.26538699999999
 30
0.0
 70
    32
  0
VERTEX
  5
E6F5C
330
E6EBE
100
AcDbEntity
  8
1
100
AcDbVertex
100
AcDb3dPolylineVertex
 10
112.145043
 20
13.25863099999999
 30
0.0
 70
    32
  0
VERTEX
  5
E6F5D
330
E6EBE
100
AcDbEntity
  8
1
100
AcDbVertex
100
AcDb3dPolylineVertex
 10
112.305435
 20
13.25187499999999
 30
0.0
 70
    32
  0
VERTEX
  5
E6F5E
330
E6EBE
100
AcDbEntity
  8
1
100
AcDbVertex
100
AcDb3dPolylineVertex
 10
112.46583
 20
13.24520899999999
 30
0.0
 70
    32
  0
VERTEX
  5
E6F5F
330
E6EBE
100
AcDbEntity
  8
1
100
AcDbVertex
100
AcDb3dPolylineVertex
 10
112.626229
 20
13.23864299999999
 30
0.0
 70
    32
  0
VERTEX
  5
E6F60
330
E6EBE
100
AcDbEntity
  8
1
100
AcDbVertex
100
AcDb3dPolylineVertex
 10
112.785541
 20
13.22043499999999
 30
0.0
 70
    32
  0
VERTEX
  5
E6F61
330
E6EBE
100
AcDbEntity
  8
1
100
AcDbVertex
100
AcDb3dPolylineVertex
 10
112.939534
 20
13.17813799999999
 30
0.0
 70
    32
  0
VERTEX
  5
E6F62
330
E6EBE
100
AcDbEntity
  8
1
100
AcDbVertex
100
AcDb3dPolylineVertex
 10
113.078448
 20
13.10141999999999
 30
0.0
 70
    32
  0
VERTEX
  5
E6F63
330
E6EBE
100
AcDbEntity
  8
1
100
AcDbVertex
100
AcDb3dPolylineVertex
 10
113.192056
 20
12.99080799999999
 30
0.0
 70
    32
  0
VERTEX
  5
E6F64
330
E6EBE
100
AcDbEntity
  8
1
100
AcDbVertex
100
AcDb3dPolylineVertex
 10
113.280822
 20
12.85704799999999
 30
0.0
 70
    32
  0
SEQEND
  5
E6F65
330
E6EBE
100
AcDbEntity
  8
1
  0
POLYLINE
  5
E6F66
330
18
100
AcDbEntity
  8
1
100
AcDb3dPolyline
 66
     1
 10
0.0
 20
0.0
 30
0.0
 70
     8
  0
VERTEX
  5
E6F67
330
E6F66
100
AcDbEntity
  8
1
100
AcDbVertex
100
AcDb3dPolylineVertex
 10
8.105674999999997
 20
-8.055771999999999
 30
0.0
 70
    32
  0
VERTEX
  5
E6F68
330
E6F66
100
AcDbEntity
  8
1
100
AcDbVertex
100
AcDb3dPolylineVertex
 10
8.032740999999999
 20
-8.338243999999999
 30
0.0
 70
    32
  0
VERTEX
  5
E6F69
330
E6F66
100
AcDbEntity
  8
1
100
AcDbVertex
100
AcDb3dPolylineVertex
 10
7.959805999999997
 20
-8.620715999999998
 30
0.0
 70
    32
  0
VERTEX
  5
E6F6A
330
E6F66
100
AcDbEntity
  8
1
100
AcDbVertex
100
AcDb3dPolylineVertex
 10
7.886871999999997
 20
-8.903188
 30
0.0
 70
    32
  0
VERTEX
  5
E6F6B
330
E6F66
100
AcDbEntity
  8
1
100
AcDbVertex
100
AcDb3dPolylineVertex
 10
7.813937999999997
 20
-9.185658999999999
 30
0.0
 70
    32
  0
VERTEX
  5
E6F6C
330
E6F66
100
AcDbEntity
  8
1
100
AcDbVertex
100
AcDb3dPolylineVertex
 10
7.743887999999999
 20
-9.46884
 30
0.0
 70
    32
  0
VERTEX
  5
E6F6D
330
E6F66
100
AcDbEntity
  8
1
100
AcDbVertex
100
AcDb3dPolylineVertex
 10
7.677639999999997
 20
-9.752954
 30
0.0
 70
    32
  0
VERTEX
  5
E6F6E
330
E6F66
100
AcDbEntity
  8
1
100
AcDbVertex
100
AcDb3dPolylineVertex
 10
7.611392999999997
 20
-10.037069
 30
0.0
 70
    32
  0
VERTEX
  5
E6F6F
330
E6F66
100
AcDbEntity
  8
1
100
AcDbVertex
100
AcDb3dPolylineVertex
 10
7.545145999999999
 20
-10.321183
 30
0.0
 70
    32
  0
VERTEX
  5
E6F70
330
E6F66
100
AcDbEntity
  8
1
100
AcDbVertex
100
AcDb3dPolylineVertex
 10
7.478897999999997
 20
-10.605298
 30
0.0
 70
    32
  0
VERTEX
  5
E6F71
330
E6F66
100
AcDbEntity
  8
1
100
AcDbVertex
100
AcDb3dPolylineVertex
 10
7.419542999999997
 20
-10.890918
 30
0.0
 70
    32
  0
VERTEX
  5
E6F72
330
E6F66
100
AcDbEntity
  8
1
100
AcDbVertex
100
AcDb3dPolylineVertex
 10
7.361265999999997
 20
-11.176774
 30
0.0
 70
    32
  0
VERTEX
  5
E6F73
330
E6F66
100
AcDbEntity
  8
1
100
AcDbVertex
100
AcDb3dPolylineVertex
 10
7.302988999999997
 20
-11.46263
 30
0.0
 70
    32
  0
VERTEX
  5
E6F74
330
E6F66
100
AcDbEntity
  8
1
100
AcDbVertex
100
AcDb3dPolylineVertex
 10
7.244711999999998
 20
-11.748486
 30
0.0
 70
    32
  0
VERTEX
  5
E6F75
330
E6F66
100
AcDbEntity
  8
1
100
AcDbVertex
100
AcDb3dPolylineVertex
 10
7.189246999999999
 20
-12.034867
 30
0.0
 70
    32
  0
VERTEX
  5
E6F76
330
E6F66
100
AcDbEntity
  8
1
100
AcDbVertex
100
AcDb3dPolylineVertex
 10
7.140259999999997
 20
-12.322461
 30
0.0
 70
    32
  0
VERTEX
  5
E6F77
330
E6F66
100
AcDbEntity
  8
1
100
AcDbVertex
100
AcDb3dPolylineVertex
 10
7.091273999999997
 20
-12.610055
 30
0.0
 70
    32
  0
VERTEX
  5
E6F78
330
E6F66
100
AcDbEntity
  8
1
100
AcDbVertex
100
AcDb3dPolylineVertex
 10
7.042286999999999
 20
-12.897648
 30
0.0
 70
    32
  0
VERTEX
  5
E6F79
330
E6F66
100
AcDbEntity
  8
1
100
AcDbVertex
100
AcDb3dPolylineVertex
 10
6.993299999999997
 20
-13.185242
 30
0.0
 70
    32
  0
VERTEX
  5
E6F7A
330
E6F66
100
AcDbEntity
  8
1
100
AcDbVertex
100
AcDb3dPolylineVertex
 10
6.952248999999999
 20
-13.474037
 30
0.0
 70
    32
  0
VERTEX
  5
E6F7B
330
E6F66
100
AcDbEntity
  8
1
100
AcDbVertex
100
AcDb3dPolylineVertex
 10
6.913897999999997
 20
-13.763241
 30
0.0
 70
    32
  0
VERTEX
  5
E6F7C
330
E6F66
100
AcDbEntity
  8
1
100
AcDbVertex
100
AcDb3dPolylineVertex
 10
6.875547999999997
 20
-14.052445
 30
0.0
 70
    32
  0
VERTEX
  5
E6F7D
330
E6F66
100
AcDbEntity
  8
1
100
AcDbVertex
100
AcDb3dPolylineVertex
 10
6.837197999999997
 20
-14.341649
 30
0.0
 70
    32
  0
VERTEX
  5
E6F7E
330
E6F66
100
AcDbEntity
  8
1
100
AcDbVertex
100
AcDb3dPolylineVertex
 10
6.801172999999997
 20
-14.631113
 30
0.0
 70
    32
  0
VERTEX
  5
E6F7F
330
E6F66
100
AcDbEntity
  8
1
100
AcDbVertex
100
AcDb3dPolylineVertex
 10
6.774814999999997
 20
-14.921655
 30
0.0
 70
    32
  0
VERTEX
  5
E6F80
330
E6F66
100
AcDbEntity
  8
1
100
AcDbVertex
100
AcDb3dPolylineVertex
 10
6.748457000000001
 20
-15.212198
 30
0.0
 70
    32
  0
VERTEX
  5
E6F81
330
E6F66
100
AcDbEntity
  8
1
100
AcDbVertex
100
AcDb3dPolylineVertex
 10
6.722099
 20
-15.502741
 30
0.0
 70
    32
  0
VERTEX
  5
E6F82
330
E6F66
100
AcDbEntity
  8
1
100
AcDbVertex
100
AcDb3dPolylineVertex
 10
6.695739999999998
 20
-15.793283
 30
0.0
 70
    32
  0
VERTEX
  5
E6F83
330
E6F66
100
AcDbEntity
  8
1
100
AcDbVertex
100
AcDb3dPolylineVertex
 10
6.675543999999997
 20
-16.084283
 30
0.0
 70
    32
  0
VERTEX
  5
E6F84
330
E6F66
100
AcDbEntity
  8
1
100
AcDbVertex
100
AcDb3dPolylineVertex
 10
6.658768999999997
 20
-16.375536
 30
0.0
 70
    32
  0
VERTEX
  5
E6F85
330
E6F66
100
AcDbEntity
  8
1
100
AcDbVertex
100
AcDb3dPolylineVertex
 10
6.641993999999997
 20
-16.666789
 30
0.0
 70
    32
  0
VERTEX
  5
E6F86
330
E6F66
100
AcDbEntity
  8
1
100
AcDbVertex
100
AcDb3dPolylineVertex
 10
6.630140999999999
 20
-16.95825199999999
 30
0.0
 70
    32
  0
VERTEX
  5
E6F87
330
E6F66
100
AcDbEntity
  8
1
100
AcDbVertex
100
AcDb3dPolylineVertex
 10
6.622009999999997
 20
-17.249875
 30
0.0
 70
    32
  0
VERTEX
  5
E6F88
330
E6F66
100
AcDbEntity
  8
1
100
AcDbVertex
100
AcDb3dPolylineVertex
 10
6.613879999999999
 20
-17.541497
 30
0.0
 70
    32
  0
VERTEX
  5
E6F89
330
E6F66
100
AcDbEntity
  8
1
100
AcDbVertex
100
AcDb3dPolylineVertex
 10
6.611776999999999
 20
-17.83316099999999
 30
0.0
 70
    32
  0
VERTEX
  5
E6F8A
330
E6F66
100
AcDbEntity
  8
1
100
AcDbVertex
100
AcDb3dPolylineVertex
 10
6.615882999999997
 20
-18.124868
 30
0.0
 70
    32
  0
VERTEX
  5
E6F8B
330
E6F66
100
AcDbEntity
  8
1
100
AcDbVertex
100
AcDb3dPolylineVertex
 10
6.619989999999997
 20
-18.416575
 30
0.0
 70
    32
  0
VERTEX
  5
E6F8C
330
E6F66
100
AcDbEntity
  8
1
100
AcDbVertex
100
AcDb3dPolylineVertex
 10
6.630684999999997
 20
-18.70801
 30
0.0
 70
    32
  0
VERTEX
  5
E6F8D
330
E6F66
100
AcDbEntity
  8
1
100
AcDbVertex
100
AcDb3dPolylineVertex
 10
6.650633999999997
 20
-18.999063
 30
0.0
 70
    32
  0
VERTEX
  5
E6F8E
330
E6F66
100
AcDbEntity
  8
1
100
AcDbVertex
100
AcDb3dPolylineVertex
 10
6.670581999999997
 20
-19.290116
 30
0.0
 70
    32
  0
VERTEX
  5
E6F8F
330
E6F66
100
AcDbEntity
  8
1
100
AcDbVertex
100
AcDb3dPolylineVertex
 10
6.697071999999997
 20
-19.580501
 30
0.0
 70
    32
  0
VERTEX
  5
E6F90
330
E6F66
100
AcDbEntity
  8
1
100
AcDbVertex
100
AcDb3dPolylineVertex
 10
6.736361999999997
 20
-19.869579
 30
0.0
 70
    32
  0
VERTEX
  5
E6F91
330
E6F66
100
AcDbEntity
  8
1
100
AcDbVertex
100
AcDb3dPolylineVertex
 10
6.775652999999997
 20
-20.158657
 30
0.0
 70
    32
  0
VERTEX
  5
E6F92
330
E6F66
100
AcDbEntity
  8
1
100
AcDbVertex
100
AcDb3dPolylineVertex
 10
6.820615999999997
 20
-20.446736
 30
0.0
 70
    32
  0
VERTEX
  5
E6F93
330
E6F66
100
AcDbEntity
  8
1
100
AcDbVertex
100
AcDb3dPolylineVertex
 10
6.882428999999997
 20
-20.731848
 30
0.0
 70
    32
  0
VERTEX
  5
E6F94
330
E6F66
100
AcDbEntity
  8
1
100
AcDbVertex
100
AcDb3dPolylineVertex
 10
6.944241999999999
 20
-21.01696
 30
0.0
 70
    32
  0
VERTEX
  5
E6F95
330
E6F66
100
AcDbEntity
  8
1
100
AcDbVertex
100
AcDb3dPolylineVertex
 10
7.008918999999997
 20
-21.301343
 30
0.0
 70
    32
  0
VERTEX
  5
E6F96
330
E6F66
100
AcDbEntity
  8
1
100
AcDbVertex
100
AcDb3dPolylineVertex
 10
7.090928999999997
 20
-21.581315
 30
0.0
 70
    32
  0
VERTEX
  5
E6F97
330
E6F66
100
AcDbEntity
  8
1
100
AcDbVertex
100
AcDb3dPolylineVertex
 10
7.172938999999997
 20
-21.861287
 30
0.0
 70
    32
  0
VERTEX
  5
E6F98
330
E6F66
100
AcDbEntity
  8
1
100
AcDbVertex
100
AcDb3dPolylineVertex
 10
7.274606999999997
 20
-22.134623
 30
0.0
 70
    32
  0
VERTEX
  5
E6F99
330
E6F66
100
AcDbEntity
  8
1
100
AcDbVertex
100
AcDb3dPolylineVertex
 10
7.379026999999998
 20
-22.407032
 30
0.0
 70
    32
  0
VERTEX
  5
E6F9A
330
E6F66
100
AcDbEntity
  8
1
100
AcDbVertex
100
AcDb3dPolylineVertex
 10
7.501491999999998
 20
-22.671404
 30
0.0
 70
    32
  0
VERTEX
  5
E6F9B
330
E6F66
100
AcDbEntity
  8
1
100
AcDbVertex
100
AcDb3dPolylineVertex
 10
7.634084999999998
 20
-22.931268
 30
0.0
 70
    32
  0
VERTEX
  5
E6F9C
330
E6F66
100
AcDbEntity
  8
1
100
AcDbVertex
100
AcDb3dPolylineVertex
 10
7.774587999999997
 20
-23.186562
 30
0.0
 70
    32
  0
VERTEX
  5
E6F9D
330
E6F66
100
AcDbEntity
  8
1
100
AcDbVertex
100
AcDb3dPolylineVertex
 10
7.933426999999997
 20
-23.431266
 30
0.0
 70
    32
  0
VERTEX
  5
E6F9E
330
E6F66
100
AcDbEntity
  8
1
100
AcDbVertex
100
AcDb3dPolylineVertex
 10
8.105674999999997
 20
-23.666548
 30
0.0
 70
    32
  0
SEQEND
  5
E6F9F
330
E6F66
100
AcDbEntity
  8
1
  0
DIMENSION
  5
E6FA0
330
18
100
AcDbEntity
  8
SK2
100
AcDbDimension
  2
*D4
 10
-36.599706
 20
25.00000000000001
 30
0.0
 11
-38.97470600000001
 21
0.0000000000000061
 31
0.0
 70
    32
  1
%%c50
 71
     5
 42
50.0
  3
SANDVIK_STYLE
100
AcDbAlignedDimension
 13
-0.0625000000000015
 23
-25.0
 33
0.0
 14
-0.0624999999999985
 24
25.0
 34
0.0
 50
90.0
100
AcDbRotatedDimension
  0
DIMENSION
  5
E6FA1
330
18
100
AcDbEntity
  8
2L
100
AcDbDimension
  2
*D5
 10
151.395616
 20
26.875
 30
0.0
 11
149.020616
 21
13.43750000000001
 31
0.0
 70
    32
  1
27
 71
     5
 42
26.87500000000001
  3
SANDVIK_STYLE
100
AcDbAlignedDimension
 13
143.497123
 23
-0.0000000000000088
 33
0.0
 14
144.550859
 24
26.875
 34
0.0
 50
90.0
100
AcDbRotatedDimension
  0
DIMENSION
  5
E6FA2
330
18
100
AcDbEntity
  8
2L
100
AcDbDimension
  2
*D6
 10
0.0000000000000038
 20
62.110417
 30
0.0
 11
70.0
 21
64.48541700000001
 31
0.0
 70
    32
  1
140
 71
     5
 42
140.0
  3
SANDVIK_STYLE
100
AcDbAlignedDimension
 13
140.0
 23
26.9375
 33
0.0
 14
0.0000000000000015
 24
25.0625
 34
0.0
 50
180.0
100
AcDbRotatedDimension
  0
DIMENSION
  5
E6FA3
330
18
100
AcDbEntity
  8
2L
100
AcDbDimension
  2
*D7
 10
21.13449
 20
40.013902
 30
0.0
 11
80.5664175
 21
42.388902
 31
0.0
 70
    32
  1
119
 71
     5
 42
118.863855
  3
SANDVIK_STYLE
100
AcDbAlignedDimension
 13
139.998345
 23
26.088226
 33
0.0
 14
21.13449
 24
18.9625
 34
0.0
 50
180.0
100
AcDbRotatedDimension
  0
INSERT
  5
E6FA4
330
18
100
AcDbEntity
  8
5
100
AcDbBlockReference
  2
_nullpunkt
 10
0.0
 20
0.0
 30
0.0
  0
TEXT
  5
E6FA5
330
18
100
AcDbEntity
  8
5
100
AcDbText
 10
0.0
 20
0.0
 30
0.0
 40
0.1
  1
ISOORIENTED
100
AcDbText
  0
ENDSEC
  0
SECTION
  2
OBJECTS
  0
DICTIONARY
  5
C
330
0
100
AcDbDictionary
281
     1
  3
ACAD_2007HEADERVARS_RT
350
E7088
  3
ACAD_CIP_PREVIOUS_PRODUCT_INFO
350
E7032
  3
ACAD_COLOR
350
387
  3
ACAD_DETAILVIEWSTYLE
350
E702F
  3
ACAD_GROUP
350
D
  3
ACAD_LAYOUT
350
301
  3
ACAD_MATERIAL
350
386
  3
ACAD_MLEADERSTYLE
350
43C
  3
ACAD_MLINESTYLE
350
E
  3
ACAD_PLOTSETTINGS
350
302
  3
ACAD_PLOTSTYLENAME
350
2FF
  3
ACAD_SCALELIST
350
41A
  3
ACAD_SECTIONVIEWSTYLE
350
E702D
  3
ACAD_TABLESTYLE
350
388
  3
ACAD_VISUALSTYLE
350
3F2
  3
ACDB_RECOMPOSE_DATA
350
E7086
  3
AcDbVariableDictionary
350
357
  3
DWGPROPS
350
E7087
  0
DICTIONARY
  5
E7035
330
F
100
AcDbDictionary
280
     1
281
     1
  3
ADSK_XREC_LAYER_RECONCILED
360
E7036
  0
DICTIONARY
  5
E7037
330
23
100
AcDbDictionary
280
     1
281
     1
  3
ADSK_XREC_LAYER_RECONCILED
360
E7038
  0
DICTIONARY
  5
E7039
330
E6B7F
100
AcDbDictionary
280
     1
281
     1
  3
ADSK_XREC_LAYER_RECONCILED
360
E703A
  0
DICTIONARY
  5
E703B
330
E6B80
100
AcDbDictionary
280
     1
281
     1
  3
ADSK_XREC_LAYER_RECONCILED
360
E703C
  0
DICTIONARY
  5
E703D
330
E6B81
100
AcDbDictionary
280
     1
281
     1
  3
ADSK_XREC_LAYER_RECONCILED
360
E703E
  0
DICTIONARY
  5
E703F
330
E6B82
100
AcDbDictionary
280
     1
281
     1
  3
ADSK_XREC_LAYER_RECONCILED
360
E7040
  0
DICTIONARY
  5
E7041
330
E6B83
100
AcDbDictionary
280
     1
281
     1
  3
ADSK_XREC_LAYER_RECONCILED
360
E7042
  0
DICTIONARY
  5
E7043
330
E6B84
100
AcDbDictionary
280
     1
281
     1
  3
ADSK_XREC_LAYER_RECONCILED
360
E7044
  0
DICTIONARY
  5
E7045
330
E6B85
100
AcDbDictionary
280
     1
281
     1
  3
ADSK_XREC_LAYER_RECONCILED
360
E7046
  0
DICTIONARY
  5
E7047
330
E6B86
100
AcDbDictionary
280
     1
281
     1
  3
ADSK_XREC_LAYER_RECONCILED
360
E7048
  0
DICTIONARY
  5
E7049
330
E6B87
100
AcDbDictionary
280
     1
281
     1
  3
ADSK_XREC_LAYER_RECONCILED
360
E704A
  0
DICTIONARY
  5
E704B
330
E6B88
100
AcDbDictionary
280
     1
281
     1
  3
ADSK_XREC_LAYER_RECONCILED
360
E704C
  0
DICTIONARY
  5
E704D
330
E6B89
100
AcDbDictionary
280
     1
281
     1
  3
ADSK_XREC_LAYER_RECONCILED
360
E704E
  0
DICTIONARY
  5
E704F
330
E6B8A
100
AcDbDictionary
280
     1
281
     1
  3
ADSK_XREC_LAYER_RECONCILED
360
E7050
  0
DICTIONARY
  5
E7051
330
E6B8B
100
AcDbDictionary
280
     1
281
     1
  3
ADSK_XREC_LAYER_RECONCILED
360
E7052
  0
DICTIONARY
  5
E7053
330
E6B8C
100
AcDbDictionary
280
     1
281
     1
  3
ADSK_XREC_LAYER_RECONCILED
360
E7054
  0
DICTIONARY
  5
E7055
330
E6B8D
100
AcDbDictionary
280
     1
281
     1
  3
ADSK_XREC_LAYER_RECONCILED
360
E7056
  0
DICTIONARY
  5
E7057
330
E6B8E
100
AcDbDictionary
280
     1
281
     1
  3
ADSK_XREC_LAYER_RECONCILED
360
E7058
  0
DICTIONARY
  5
E7059
330
E6B8F
100
AcDbDictionary
280
     1
281
     1
  3
ADSK_XREC_LAYER_RECONCILED
360
E705A
  0
DICTIONARY
  5
E705B
330
E6B90
100
AcDbDictionary
280
     1
281
     1
  3
ADSK_XREC_LAYER_RECONCILED
360
E705C
  0
DICTIONARY
  5
E705D
330
E6B91
100
AcDbDictionary
280
     1
281
     1
  3
ADSK_XREC_LAYER_RECONCILED
360
E705E
  0
DICTIONARY
  5
E705F
330
E6B92
100
AcDbDictionary
280
     1
281
     1
  3
ADSK_XREC_LAYER_RECONCILED
360
E7060
  0
DICTIONARY
  5
E7061
330
E6B93
100
AcDbDictionary
280
     1
281
     1
  3
ADSK_XREC_LAYER_RECONCILED
360
E7062
  0
DICTIONARY
  5
E7063
330
E6B94
100
AcDbDictionary
280
     1
281
     1
  3
ADSK_XREC_LAYER_RECONCILED
360
E7064
  0
DICTIONARY
  5
E7065
330
E6B95
100
AcDbDictionary
280
     1
281
     1
  3
ADSK_XREC_LAYER_RECONCILED
360
E7066
  0
DICTIONARY
  5
E7067
330
E6B96
100
AcDbDictionary
280
     1
281
     1
  3
ADSK_XREC_LAYER_RECONCILED
360
E7068
  0
DICTIONARY
  5
E7069
330
E6B97
100
AcDbDictionary
280
     1
281
     1
  3
ADSK_XREC_LAYER_RECONCILED
360
E706A
  0
DICTIONARY
  5
E706B
330
E6B98
100
AcDbDictionary
280
     1
281
     1
  3
ADSK_XREC_LAYER_RECONCILED
360
E706C
  0
DICTIONARY
  5
E706D
330
E6B99
100
AcDbDictionary
280
     1
281
     1
  3
ADSK_XREC_LAYER_RECONCILED
360
E706E
  0
DICTIONARY
  5
E706F
330
E6B9A
100
AcDbDictionary
280
     1
281
     1
  3
ADSK_XREC_LAYER_RECONCILED
360
E7070
  0
DICTIONARY
  5
E7071
330
E6B9B
100
AcDbDictionary
280
     1
281
     1
  3
ADSK_XREC_LAYER_RECONCILED
360
E7072
  0
DICTIONARY
  5
E7073
330
E6B9C
100
AcDbDictionary
280
     1
281
     1
  3
ADSK_XREC_LAYER_RECONCILED
360
E7074
  0
DICTIONARY
  5
E7075
330
E6B9D
100
AcDbDictionary
280
     1
281
     1
  3
ADSK_XREC_LAYER_RECONCILED
360
E7076
  0
DICTIONARY
  5
E7077
330
E6B9E
100
AcDbDictionary
280
     1
281
     1
  3
ADSK_XREC_LAYER_RECONCILED
360
E7078
  0
DICTIONARY
  5
E7079
330
E6B9F
100
AcDbDictionary
280
     1
281
     1
  3
ADSK_XREC_LAYER_RECONCILED
360
E707A
  0
DICTIONARY
  5
E707B
330
E6BA0
100
AcDbDictionary
280
     1
281
     1
  3
ADSK_XREC_LAYER_RECONCILED
360
E707C
  0
DICTIONARY
  5
E707D
330
E6BA1
100
AcDbDictionary
280
     1
281
     1
  3
ADSK_XREC_LAYER_RECONCILED
360
E707E
  0
DICTIONARY
  5
E707F
330
E6BA2
100
AcDbDictionary
280
     1
281
     1
  3
ADSK_XREC_LAYER_RECONCILED
360
E7080
  0
DICTIONARY
  5
E6B71
330
E6B70
100
AcDbDictionary
280
     1
281
     1
  3
ACAD_SORTENTS
360
E6B72
  0
DICTIONARY
  5
E7088
102
{ACAD_REACTORS
330
C
102
}
330
C
100
AcDbDictionary
281
     1
  3
DIMJOGANG
350
E7089
  0
XRECORD
  5
E7032
102
{ACAD_REACTORS
330
C
102
}
330
C
100
AcDbXrecord
280
     1
300
AMECH_PP
300
2013
300
PDSU_F_S
  0
DICTIONARY
  5
387
102
{ACAD_REACTORS
330
C
102
}
330
C
100
AcDbDictionary
281
     1
  0
DICTIONARY
  5
E702F
102
{ACAD_REACTORS
330
C
102
}
330
C
100
AcDbDictionary
281
     1
  3
Metric50
350
E7030
  0
DICTIONARY
  5
D
102
{ACAD_REACTORS
330
C
102
}
330
C
100
AcDbDictionary
281
     1
  0
DICTIONARY
  5
301
102
{ACAD_REACTORS
330
C
102
}
330
C
100
AcDbDictionary
281
     1
  3
Layout1
350
33B
  3
Model
350
303
  0
DICTIONARY
  5
386
102
{ACAD_REACTORS
330
C
102
}
330
C
100
AcDbDictionary
281
     1
  3
ByBlock
350
3F0
  3
ByLayer
350
3EF
  3
Global
350
3F1
  0
DICTIONARY
  5
43C
102
{ACAD_REACTORS
330
C
102
}
330
C
100
AcDbDictionary
281
     1
  3
Standard
350
43D
  0
DICTIONARY
  5
E
102
{ACAD_REACTORS
330
C
102
}
330
C
100
AcDbDictionary
281
     1
  3
STANDARD
350
1B
  0
DICTIONARY
  5
302
102
{ACAD_REACTORS
330
C
102
}
330
C
100
AcDbDictionary
281
     1
  0
ACDBDICTIONARYWDFLT
  5
2FF
102
{ACAD_REACTORS
330
C
102
}
330
C
100
AcDbDictionary
281
     1
  3
Normal
350
300
100
AcDbDictionaryWithDefault
340
300
  0
DICTIONARY
  5
41A
102
{ACAD_REACTORS
330
C
102
}
330
C
100
AcDbDictionary
281
     1
  3
A0
350
41B
  3
A1
350
41C
  3
A2
350
41D
  3
A3
350
41E
  3
A4
350
41F
  3
A5
350
420
  3
A6
350
421
  3
A7
350
422
  3
A8
350
423
  3
A9
350
424
  3
B0
350
425
  3
B1
350
426
  3
B2
350
427
  3
B3
350
428
  3
B4
350
429
  3
B5
350
42A
  3
B6
350
42B
  3
B7
350
42C
  3
B8
350
42D
  3
B9
350
42E
  3
C0
350
42F
  3
C1
350
430
  3
C2
350
431
  3
C3
350
432
  3
C4
350
433
  3
C5
350
434
  3
C6
350
435
  3
C7
350
436
  3
C8
350
437
  3
C9
350
438
  3
D0
350
439
  3
D1
350
43A
  3
D2
350
43B
  0
DICTIONARY
  5
E702D
102
{ACAD_REACTORS
330
C
102
}
330
C
100
AcDbDictionary
281
     1
  3
Metric50
350
E702E
  0
DICTIONARY
  5
388
102
{ACAD_REACTORS
330
C
102
}
330
C
100
AcDbDictionary
281
     1
  3
Standard
350
389
  0
DICTIONARY
  5
3F2
102
{ACAD_REACTORS
330
C
102
}
330
C
100
AcDbDictionary
281
     1
  3
2dWireframe
350
3F8
  3
3D Hidden
350
3FA
  3
3dWireframe
350
3F9
  3
Basic
350
3F7
  3
Brighten
350
3FE
  3
ColorChange
350
402
  3
Conceptual
350
3FB
  3
Dim
350
3FD
  3
EdgeColorOff
350
44E
  3
Facepattern
350
401
  3
Flat
350
3F3
  3
FlatWithEdges
350
3F4
  3
Gouraud
350
3F5
  3
GouraudWithEdges
350
3F6
  3
Hidden
350
E7027
  3
JitterOff
350
44C
  3
Linepattern
350
400
  3
OverhangOff
350
44D
  3
Realistic
350
3FC
  3
Shaded
350
E702C
  3
Shaded with edges
350
E702B
  3
Shades of Gray
350
E7028
  3
Sketchy
350
E7029
  3
Thicken
350
3FF
  3
Wireframe
350
E7026
  3
X-Ray
350
E702A
  0
XRECORD
  5
E7086
102
{ACAD_REACTORS
330
C
102
}
330
C
100
AcDbXrecord
280
     1
 90
        1
330
389
  0
DICTIONARY
  5
357
102
{ACAD_REACTORS
330
C
102
}
330
C
100
AcDbDictionary
281
     1
  3
CANNOSCALE
350
449
  3
CMLEADERSTYLE
350
447
  3
CTABLESTYLE
350
38E
  3
CVIEWDETAILSTYLE
350
E7081
  3
CVIEWSECTIONSTYLE
350
E7082
  3
DIMASSOC
350
359
  3
HIDETEXT
350
358
  3
INDEXCTL
350
1260
  3
LAYEREVAL
350
458
  3
LAYERNOTIFY
350
459
  3
LIGHTINGUNITS
350
44A
  3
MSLTSCALE
350
448
  3
SORTENTS
350
125F
  3
XCLIPFRAME
350
E7083
  0
XRECORD
  5
E7087
102
{ACAD_REACTORS
330
C
102
}
330
C
100
AcDbXrecord
280
     1
  1
DWGPROPS COOKIE
  2

  3

  4

  6

  7

  8
Micke
  9

300
=
301
=
302
=
303
=
304
=
305
=
306
=
307
=
308
=
309
=
 40
0.003452974537037
 41
2455883.652280521
 42
2456818.429614618
  1

 90
        0
  0
XRECORD
  5
E7036
102
{ACAD_REACTORS
330
E7035
102
}
330
E7035
100
AcDbXrecord
280
     1
290
     1
  0
XRECORD
  5
E7038
102
{ACAD_REACTORS
330
E7037
102
}
330
E7037
100
AcDbXrecord
280
     1
290
     1
  0
XRECORD
  5
E703A
102
{ACAD_REACTORS
330
E7039
102
}
330
E7039
100
AcDbXrecord
280
     1
290
     1
  0
XRECORD
  5
E703C
102
{ACAD_REACTORS
330
E703B
102
}
330
E703B
100
AcDbXrecord
280
     1
290
     1
  0
XRECORD
  5
E703E
102
{ACAD_REACTORS
330
E703D
102
}
330
E703D
100
AcDbXrecord
280
     1
290
     1
  0
XRECORD
  5
E7040
102
{ACAD_REACTORS
330
E703F
102
}
330
E703F
100
AcDbXrecord
280
     1
290
     1
  0
XRECORD
  5
E7042
102
{ACAD_REACTORS
330
E7041
102
}
330
E7041
100
AcDbXrecord
280
     1
290
     1
  0
XRECORD
  5
E7044
102
{ACAD_REACTORS
330
E7043
102
}
330
E7043
100
AcDbXrecord
280
     1
290
     1
  0
XRECORD
  5
E7046
102
{ACAD_REACTORS
330
E7045
102
}
330
E7045
100
AcDbXrecord
280
     1
290
     1
  0
XRECORD
  5
E7048
102
{ACAD_REACTORS
330
E7047
102
}
330
E7047
100
AcDbXrecord
280
     1
290
     1
  0
XRECORD
  5
E704A
102
{ACAD_REACTORS
330
E7049
102
}
330
E7049
100
AcDbXrecord
280
     1
290
     1
  0
XRECORD
  5
E704C
102
{ACAD_REACTORS
330
E704B
102
}
330
E704B
100
AcDbXrecord
280
     1
290
     1
  0
XRECORD
  5
E704E
102
{ACAD_REACTORS
330
E704D
102
}
330
E704D
100
AcDbXrecord
280
     1
290
     1
  0
XRECORD
  5
E7050
102
{ACAD_REACTORS
330
E704F
102
}
330
E704F
100
AcDbXrecord
280
     1
290
     1
  0
XRECORD
  5
E7052
102
{ACAD_REACTORS
330
E7051
102
}
330
E7051
100
AcDbXrecord
280
     1
290
     1
  0
XRECORD
  5
E7054
102
{ACAD_REACTORS
330
E7053
102
}
330
E7053
100
AcDbXrecord
280
     1
290
     1
  0
XRECORD
  5
E7056
102
{ACAD_REACTORS
330
E7055
102
}
330
E7055
100
AcDbXrecord
280
     1
290
     1
  0
XRECORD
  5
E7058
102
{ACAD_REACTORS
330
E7057
102
}
330
E7057
100
AcDbXrecord
280
     1
290
     1
  0
XRECORD
  5
E705A
102
{ACAD_REACTORS
330
E7059
102
}
330
E7059
100
AcDbXrecord
280
     1
290
     1
  0
XRECORD
  5
E705C
102
{ACAD_REACTORS
330
E705B
102
}
330
E705B
100
AcDbXrecord
280
     1
290
     1
  0
XRECORD
  5
E705E
102
{ACAD_REACTORS
330
E705D
102
}
330
E705D
100
AcDbXrecord
280
     1
290
     1
  0
XRECORD
  5
E7060
102
{ACAD_REACTORS
330
E705F
102
}
330
E705F
100
AcDbXrecord
280
     1
290
     1
  0
XRECORD
  5
E7062
102
{ACAD_REACTORS
330
E7061
102
}
330
E7061
100
AcDbXrecord
280
     1
290
     1
  0
XRECORD
  5
E7064
102
{ACAD_REACTORS
330
E7063
102
}
330
E7063
100
AcDbXrecord
280
     1
290
     1
  0
XRECORD
  5
E7066
102
{ACAD_REACTORS
330
E7065
102
}
330
E7065
100
AcDbXrecord
280
     1
290
     1
  0
XRECORD
  5
E7068
102
{ACAD_REACTORS
330
E7067
102
}
330
E7067
100
AcDbXrecord
280
     1
290
     1
  0
XRECORD
  5
E706A
102
{ACAD_REACTORS
330
E7069
102
}
330
E7069
100
AcDbXrecord
280
     1
290
     1
  0
XRECORD
  5
E706C
102
{ACAD_REACTORS
330
E706B
102
}
330
E706B
100
AcDbXrecord
280
     1
290
     1
  0
XRECORD
  5
E706E
102
{ACAD_REACTORS
330
E706D
102
}
330
E706D
100
AcDbXrecord
280
     1
290
     1
  0
XRECORD
  5
E7070
102
{ACAD_REACTORS
330
E706F
102
}
330
E706F
100
AcDbXrecord
280
     1
290
     1
  0
XRECORD
  5
E7072
102
{ACAD_REACTORS
330
E7071
102
}
330
E7071
100
AcDbXrecord
280
     1
290
     1
  0
XRECORD
  5
E7074
102
{ACAD_REACTORS
330
E7073
102
}
330
E7073
100
AcDbXrecord
280
     1
290
     1
  0
XRECORD
  5
E7076
102
{ACAD_REACTORS
330
E7075
102
}
330
E7075
100
AcDbXrecord
280
     1
290
     1
  0
XRECORD
  5
E7078
102
{ACAD_REACTORS
330
E7077
102
}
330
E7077
100
AcDbXrecord
280
     1
290
     1
  0
XRECORD
  5
E707A
102
{ACAD_REACTORS
330
E7079
102
}
330
E7079
100
AcDbXrecord
280
     1
290
     1
  0
XRECORD
  5
E707C
102
{ACAD_REACTORS
330
E707B
102
}
330
E707B
100
AcDbXrecord
280
     1
290
     1
  0
XRECORD
  5
E707E
102
{ACAD_REACTORS
330
E707D
102
}
330
E707D
100
AcDbXrecord
280
     1
290
     1
  0
XRECORD
  5
E7080
102
{ACAD_REACTORS
330
E707F
102
}
330
E707F
100
AcDbXrecord
280
     1
290
     1
  0
SORTENTSTABLE
  5
E6B72
102
{ACAD_REACTORS
330
E6B71
102
}
330
E6B71
100
AcDbSortentsTable
330
E6B70
  0
XRECORD
  5
E7089
102
{ACAD_REACTORS
330
E7088
102
}
330
E7088
100
AcDbXrecord
280
     1
 40
1.570796326794896
  0
ACDBDETAILVIEWSTYLE
  5
E7030
102
{ACAD_REACTORS
330
E702F
102
}
330
E702F
100
AcDbModelDocViewStyle
 70
     0
  3
Metric50
290
     0
100
AcDbDetailViewStyle
 70
     0
 71
     0
 90
        3
 71
     1
340
10
 40
5.0
340
0
 40
5.0
300

 40
0.0
280
     1
 71
     2
340
14
 90
       25
 71
     3
340
10
 40
5.0
 90
        0
 40
15.0
 90
        1
300
%<\AcVar ViewDetailId>% (%<\AcVar ViewScale \f "%sn">%)
 71
     4
340
14
 90
       25
340
14
 90
       25
280
     0
  0
LAYOUT
  5
33B
102
{ACAD_XDICTIONARY
360
E708C
102
}
102
{ACAD_REACTORS
330
301
102
}
330
301
100
AcDbPlotSettings
  1

  2
Lexmark Optra PS2
  4

  6

 40
0.0
 41
0.0
 42
0.0
 43
0.0
 44
0.0
 45
0.0
 46
0.0
 47
0.0
 48
0.0
 49
0.0
140
0.0
141
0.0
142
1.0
143
1.0
 70
   688
 72
     0
 73
     0
 74
     5
  7
monochrome.ctb
 75
    16
147
1.0
148
0.0
149
0.0
100
AcDbLayout
  1
Layout1
 70
     1
 71
     1
 10
0.0
 20
0.0
 11
12.0
 21
9.0
 12
0.0
 22
0.0
 32
0.0
 14
0.0
 24
0.0
 34
0.0
 15
0.0
 25
0.0
 35
0.0
146
0.0
 13
0.0
 23
0.0
 33
0.0
 16
1.0
 26
0.0
 36
0.0
 17
0.0
 27
1.0
 37
0.0
 76
     0
330
338
  0
LAYOUT
  5
303
102
{ACAD_XDICTIONARY
360
E708A
102
}
102
{ACAD_REACTORS
330
301
102
}
330
301
100
AcDbPlotSettings
  1

  2
Default Windows System Printer.pc3
  4
A4
  6

 40
6.805083274841307
 41
5.535083293914794
 42
6.974411010742187
 43
7.14373779296875
 44
209.9733276367186
 45
296.9259948730469
 46
67.83299579489725
 47
0.0
 48
0.0
 49
0.0
140
0.0
141
0.0
142
1.0
143
0.3604333568168785
 70
  3764
 72
     1
 73
     1
 74
     1
  7
monochrome.ctb
 75
     0
147
2.774437995504559
148
-82.35087775247029
149
-53.69369632994493
100
AcDbLayout
  1
Model
 70
     1
 71
     0
 10
0.0
 20
0.0
 11
12.0
 21
9.0
 12
0.0
 22
0.0
 32
0.0
 14
0.0
 24
0.0
 34
0.0
 15
0.0
 25
0.0
 35
0.0
146
0.0
 13
0.0
 23
0.0
 33
0.0
 16
1.0
 26
0.0
 36
0.0
 17
0.0
 27
1.0
 37
0.0
 76
     0
330
18
331
3ED
1001
ACAD_PSEXT
1000
Default Windows System Printer.pc3
1000
Lexmark Optra Rx
1000
Lexmark Rx
1000
Erstellt von Lexmark Benutzerdefinierte Installation,Nov 13,2005,10:03
1070
     0
  0
MATERIAL
  5
3F0
102
{ACAD_XDICTIONARY
360
E6FF8
102
}
102
{ACAD_REACTORS
330
386
102
}
330
386
100
AcDbMaterial
  1
ByBlock
 73
     1
 78
     1
172
     1
176
     1
270
     1
274
     1
  0
MATERIAL
  5
3EF
102
{ACAD_XDICTIONARY
360
E6FF6
102
}
102
{ACAD_REACTORS
330
386
102
}
330
386
100
AcDbMaterial
  1
ByLayer
 73
     1
 78
     1
172
     1
176
     1
270
     1
274
     1
  0
MATERIAL
  5
3F1
102
{ACAD_XDICTIONARY
360
E6FFA
102
}
102
{ACAD_REACTORS
330
386
102
}
330
386
100
AcDbMaterial
  1
Global
 73
     1
 78
     1
172
     1
176
     1
270
     1
274
     1
  0
MLEADERSTYLE
  5
43D
102
{ACAD_REACTORS
330
43C
102
}
330
43C
100
AcDbMLeaderStyle
170
     2
171
     1
172
     0
 90
        2
 40
0.0
 41
0.0
173
     1
 91
-1056964608
340
12
 92
       -2
290
     1
 42
2.0
291
     1
 43
0.36
  3
Standard
 44
4.0
300

342
10
174
     1
178
     6
175
     1
176
     0
 93
-1056964608
 45
4.0
292
     0
297
     0
 46
4.0
 94
-1056964608
 47
1.0
 49
1.0
140
1.0
293
     1
141
0.0
294
     1
177
     0
142
1.0
295
     0
296
     0
143
0.125
1001
ACAD_MLEADERVER
1070
     2
  0
MLINESTYLE
  5
1B
102
{ACAD_REACTORS
330
E
102
}
330
E
100
AcDbMlineStyle
  2
STANDARD
 70
     0
  3

 62
     0
 51
90.0
 52
90.0
 71
     2
 49
0.5
 62
   256
  6
BYLAYER
 49
-0.5
 62
   256
  6
BYLAYER
  0
ACDBPLACEHOLDER
  5
300
102
{ACAD_REACTORS
330
2FF
102
}
330
2FF
  0
SCALE
  5
41B
102
{ACAD_REACTORS
330
41A
102
}
330
41A
100
AcDbScale
 70
     0
300
1:1
140
1.0
141
1.0
290
     1
  0
SCALE
  5
41C
102
{ACAD_REACTORS
330
41A
102
}
330
41A
100
AcDbScale
 70
     0
300
1:2
140
1.0
141
2.0
290
     0
  0
SCALE
  5
41D
102
{ACAD_REACTORS
330
41A
102
}
330
41A
100
AcDbScale
 70
     0
300
1:4
140
1.0
141
4.0
290
     0
  0
SCALE
  5
41E
102
{ACAD_REACTORS
330
41A
102
}
330
41A
100
AcDbScale
 70
     0
300
1:5
140
1.0
141
5.0
290
     0
  0
SCALE
  5
41F
102
{ACAD_REACTORS
330
41A
102
}
330
41A
100
AcDbScale
 70
     0
300
1:8
140
1.0
141
8.0
290
     0
  0
SCALE
  5
420
102
{ACAD_REACTORS
330
41A
102
}
330
41A
100
AcDbScale
 70
     0
300
1:10
140
1.0
141
10.0
290
     0
  0
SCALE
  5
421
102
{ACAD_REACTORS
330
41A
102
}
330
41A
100
AcDbScale
 70
     0
300
1:16
140
1.0
141
16.0
290
     0
  0
SCALE
  5
422
102
{ACAD_REACTORS
330
41A
102
}
330
41A
100
AcDbScale
 70
     0
300
1:20
140
1.0
141
20.0
290
     0
  0
SCALE
  5
423
102
{ACAD_REACTORS
330
41A
102
}
330
41A
100
AcDbScale
 70
     0
300
1:30
140
1.0
141
30.0
290
     0
  0
SCALE
  5
424
102
{ACAD_REACTORS
330
41A
102
}
330
41A
100
AcDbScale
 70
     0
300
1:40
140
1.0
141
40.0
290
     0
  0
SCALE
  5
425
102
{ACAD_REACTORS
330
41A
102
}
330
41A
100
AcDbScale
 70
     0
300
1:50
140
1.0
141
50.0
290
     0
  0
SCALE
  5
426
102
{ACAD_REACTORS
330
41A
102
}
330
41A
100
AcDbScale
 70
     0
300
1:100
140
1.0
141
100.0
290
     0
  0
SCALE
  5
427
102
{ACAD_REACTORS
330
41A
102
}
330
41A
100
AcDbScale
 70
     0
300
2:1
140
2.0
141
1.0
290
     0
  0
SCALE
  5
428
102
{ACAD_REACTORS
330
41A
102
}
330
41A
100
AcDbScale
 70
     0
300
4:1
140
4.0
141
1.0
290
     0
  0
SCALE
  5
429
102
{ACAD_REACTORS
330
41A
102
}
330
41A
100
AcDbScale
 70
     0
300
8:1
140
8.0
141
1.0
290
     0
  0
SCALE
  5
42A
102
{ACAD_REACTORS
330
41A
102
}
330
41A
100
AcDbScale
 70
     0
300
10:1
140
10.0
141
1.0
290
     0
  0
SCALE
  5
42B
102
{ACAD_REACTORS
330
41A
102
}
330
41A
100
AcDbScale
 70
     0
300
100:1
140
100.0
141
1.0
290
     0
  0
SCALE
  5
42C
102
{ACAD_REACTORS
330
41A
102
}
330
41A
100
AcDbScale
 70
     0
300
1/128" = 1'-0"
140
0.0078125
141
12.0
290
     0
  0
SCALE
  5
42D
102
{ACAD_REACTORS
330
41A
102
}
330
41A
100
AcDbScale
 70
     0
300
1/64" = 1'-0"
140
0.015625
141
12.0
290
     0
  0
SCALE
  5
42E
102
{ACAD_REACTORS
330
41A
102
}
330
41A
100
AcDbScale
 70
     0
300
1/32" = 1'-0"
140
0.03125
141
12.0
290
     0
  0
SCALE
  5
42F
102
{ACAD_REACTORS
330
41A
102
}
330
41A
100
AcDbScale
 70
     0
300
1/16" = 1'-0"
140
0.0625
141
12.0
290
     0
  0
SCALE
  5
430
102
{ACAD_REACTORS
330
41A
102
}
330
41A
100
AcDbScale
 70
     0
300
3/32" = 1'-0"
140
0.09375
141
12.0
290
     0
  0
SCALE
  5
431
102
{ACAD_REACTORS
330
41A
102
}
330
41A
100
AcDbScale
 70
     0
300
1/8" = 1'-0"
140
0.125
141
12.0
290
     0
  0
SCALE
  5
432
102
{ACAD_REACTORS
330
41A
102
}
330
41A
100
AcDbScale
 70
     0
300
3/16" = 1'-0"
140
0.1875
141
12.0
290
     0
  0
SCALE
  5
433
102
{ACAD_REACTORS
330
41A
102
}
330
41A
100
AcDbScale
 70
     0
300
1/4" = 1'-0"
140
0.25
141
12.0
290
     0
  0
SCALE
  5
434
102
{ACAD_REACTORS
330
41A
102
}
330
41A
100
AcDbScale
 70
     0
300
3/8" = 1'-0"
140
0.375
141
12.0
290
     0
  0
SCALE
  5
435
102
{ACAD_REACTORS
330
41A
102
}
330
41A
100
AcDbScale
 70
     0
300
1/2" = 1'-0"
140
0.5
141
12.0
290
     0
  0
SCALE
  5
436
102
{ACAD_REACTORS
330
41A
102
}
330
41A
100
AcDbScale
 70
     0
300
3/4" = 1'-0"
140
0.75
141
12.0
290
     0
  0
SCALE
  5
437
102
{ACAD_REACTORS
330
41A
102
}
330
41A
100
AcDbScale
 70
     0
300
1" = 1'-0"
140
1.0
141
12.0
290
     0
  0
SCALE
  5
438
102
{ACAD_REACTORS
330
41A
102
}
330
41A
100
AcDbScale
 70
     0
300
1-1/2" = 1'-0"
140
1.5
141
12.0
290
     0
  0
SCALE
  5
439
102
{ACAD_REACTORS
330
41A
102
}
330
41A
100
AcDbScale
 70
     0
300
3" = 1'-0"
140
3.0
141
12.0
290
     0
  0
SCALE
  5
43A
102
{ACAD_REACTORS
330
41A
102
}
330
41A
100
AcDbScale
 70
     0
300
6" = 1'-0"
140
6.0
141
12.0
290
     0
  0
SCALE
  5
43B
102
{ACAD_REACTORS
330
41A
102
}
330
41A
100
AcDbScale
 70
     0
300
1'-0" = 1'-0"
140
12.0
141
12.0
290
     0
  0
ACDBSECTIONVIEWSTYLE
  5
E702E
102
{ACAD_REACTORS
330
E702D
102
}
330
E702D
100
AcDbModelDocViewStyle
 70
     0
  3
Metric50
290
     0
100
AcDbSectionViewStyle
 70
     0
 71
     0
 90
      102
 71
     1
340
10
 40
5.0
340
0
340
0
 40
5.0
300
I, O, Q, S, X, Z
 40
10.0
 90
        0
 40
2.5
 90
        0
 71
     2
340
14
 90
       25
340
14
 90
       50
 40
5.0
 40
2.5
 40
5.0
 71
     3
340
10
 40
5.0
 90
        0
 40
15.0
 90
        1
300
%<\AcVar ViewSectionStartId>%-%<\AcVar ViewSectionEndId>% (%<\AcVar ViewScale \f "%sn">%)
 71
     4
300
ANSI31
 40
1.0
 90
        0
290
     0
290
     0
 90
        6
 40
0.0
 40
1.570796326794896
 40
0.2617993877991494
 40
1.308996938995747
 40
-0.2617993877991494
 40
1.832595714594046
  0
TABLESTYLE
  5
389
102
{ACAD_XDICTIONARY
360
444
102
}
102
{ACAD_REACTORS
330
388
102
}
330
388
100
AcDbTableStyle
  3
Standard
 70
     0
 71
     0
 40
1.5
 41
1.5
280
     0
281
     0
  7
STANDARD
140
4.5
170
     2
 62
     0
 63
     7
283
     0
274
    -2
284
     1
 64
     0
275
    -2
285
     1
 65
     0
276
    -2
286
     1
 66
     0
277
    -2
287
     1
 67
     0
278
    -2
288
     1
 68
     0
279
    -2
289
     1
 69
     0
  7
STANDARD
140
6.0
170
     5
 62
     0
 63
     7
283
     0
274
    -2
284
     1
 64
     0
275
    -2
285
     1
 65
     0
276
    -2
286
     1
 66
     0
277
    -2
287
     1
 67
     0
278
    -2
288
     1
 68
     0
279
    -2
289
     1
 69
     0
  7
STANDARD
140
4.5
170
     5
 62
     0
 63
     7
283
     0
274
    -2
284
     1
 64
     0
275
    -2
285
     1
 65
     0
276
    -2
286
     1
 66
     0
277
    -2
287
     1
 67
     0
278
    -2
288
     1
 68
     0
279
    -2
289
     1
 69
     0
  0
VISUALSTYLE
  5
3F8
102
{ACAD_XDICTIONARY
360
E7099
102
}
102
{ACAD_REACTORS
330
3F2
102
}
330
3F2
100
AcDbVisualStyle
  2

 70
     4
 71
     0
 72
     2
 73
     0
 90
        0
 40
-0.6
 41
-30.0
 62
     5
 63
     7
 74
     1
 91
        4
 64
     7
 65
   257
 75
     1
175
     1
 42
1.0
 92
        0
 66
   257
 43
1.0
 76
     1
 77
     6
 78
     2
 67
     7
 79
     5
170
     0
171
     0
290
     0
174
     0
 93
        1
 44
0.0
173
     0
291
     0
 45
0.0
1001
ACAD
1000
AcDbSavedByObjectVersion
1070
     0
  0
VISUALSTYLE
  5
3FA
102
{ACAD_XDICTIONARY
360
E709D
102
}
102
{ACAD_REACTORS
330
3F2
102
}
330
3F2
100
AcDbVisualStyle
  2

 70
     6
 71
     1
 72
     2
 73
     2
 90
        0
 40
-0.6
 41
-30.0
 62
     5
 63
     7
 74
     2
 91
        2
 64
     7
 65
   257
 75
     2
175
     1
 42
40.0
 92
        0
 66
   257
 43
1.0
 76
     1
 77
     6
 78
     2
 67
     7
 79
     3
170
     0
171
     0
290
     0
174
     0
 93
        1
 44
0.0
173
     0
291
     0
 45
0.0
1001
ACAD
1000
AcDbSavedByObjectVersion
1070
     0
  0
VISUALSTYLE
  5
3F9
102
{ACAD_XDICTIONARY
360
E709B
102
}
102
{ACAD_REACTORS
330
3F2
102
}
330
3F2
100
AcDbVisualStyle
  2

 70
     5
 71
     0
 72
     2
 73
     0
 90
        0
 40
-0.6
 41
-30.0
 62
     5
 63
     7
 74
     1
 91
        4
 64
     7
 65
   257
 75
     1
175
     1
 42
1.0
 92
        0
 66
   257
 43
1.0
 76
     1
 77
     6
 78
     2
 67
     7
 79
     5
170
     0
171
     0
290
     0
174
     0
 93
        1
 44
0.0
173
     0
291
     0
 45
0.0
1001
ACAD
1000
AcDbSavedByObjectVersion
1070
     0
  0
VISUALSTYLE
  5
3F7
102
{ACAD_XDICTIONARY
360
E7097
102
}
102
{ACAD_REACTORS
330
3F2
102
}
330
3F2
100
AcDbVisualStyle
  2

 70
     7
 71
     1
 72
     0
 73
     1
 90
        0
 40
-0.6
 41
-30.0
 62
     5
 63
     7
 74
     0
 91
        4
 64
     7
 65
   257
 75
     1
175
     1
 42
1.0
 92
        8
 66
     7
 43
1.0
 76
     1
 77
     6
 78
     2
 67
     7
 79
     5
170
     0
171
     0
290
     0
174
     0
 93
        1
 44
0.0
173
     0
291
     1
 45
0.0
1001
ACAD
1000
AcDbSavedByObjectVersion
1070
     0
  0
VISUALSTYLE
  5
3FE
102
{ACAD_XDICTIONARY
360
E70A5
102
}
102
{ACAD_REACTORS
330
3F2
102
}
330
3F2
100
AcDbVisualStyle
  2

 70
    12
 71
     2
 72
     2
 73
     0
 90
        0
 40
-0.6
 41
-30.0
 62
     5
 63
     7
 74
     1
 91
        4
 64
     7
 65
   257
 75
     1
175
     1
 42
1.0
 92
        8
 66
     7
 43
1.0
 76
     1
 77
     6
 78
     2
 67
     7
 79
     5
170
     0
171
     0
290
     0
174
     0
 93
        1
 44
50.0
173
     0
291
     1
 45
0.0
1001
ACAD
1000
AcDbSavedByObjectVersion
1070
     0
  0
VISUALSTYLE
  5
402
102
{ACAD_XDICTIONARY
360
E70AD
102
}
102
{ACAD_REACTORS
330
3F2
102
}
330
3F2
100
AcDbVisualStyle
  2

 70
    16
 71
     2
 72
     2
 73
     3
 90
        0
 40
-0.6
 41
-30.0
 62
     5
 63
     8
 74
     1
 91
        4
 64
     7
 65
   257
 75
     1
175
     1
 42
1.0
 92
        8
 66
     8
 43
1.0
 76
     1
 77
     6
 78
     2
 67
     7
 79
     5
170
     0
171
     0
290
     0
174
     0
 93
        1
 44
0.0
173
     0
291
     1
 45
0.0
1001
ACAD
1000
AcDbSavedByObjectVersion
1070
     0
  0
VISUALSTYLE
  5
3FB
102
{ACAD_XDICTIONARY
360
E709F
102
}
102
{ACAD_REACTORS
330
3F2
102
}
330
3F2
100
AcDbVisualStyle
  2

 70
     9
 71
     3
 72
     2
 73
     0
 90
        0
 40
-0.6
 41
-30.0
 62
     5
 63
     7
 74
     2
 91
        2
 64
     7
 65
   257
 75
     1
175
     1
 42
40.0
 92
        8
 66
     7
 43
1.0
 76
     1
 77
     6
 78
     2
 67
     7
 79
     3
170
     0
171
     0
290
     0
174
     0
 93
        1
 44
0.0
173
     0
291
     0
 45
0.0
1001
ACAD
1000
AcDbSavedByObjectVersion
1070
     0
  0
VISUALSTYLE
  5
3FD
102
{ACAD_XDICTIONARY
360
E70A3
102
}
102
{ACAD_REACTORS
330
3F2
102
}
330
3F2
100
AcDbVisualStyle
  2

 70
    11
 71
     2
 72
     2
 73
     0
 90
        0
 40
-0.6
 41
-30.0
 62
     5
 63
     7
 74
     1
 91
        4
 64
     7
 65
   257
 75
     1
175
     1
 42
1.0
 92
        8
 66
     7
 43
1.0
 76
     1
 77
     6
 78
     2
 67
     7
 79
     5
170
     0
171
     0
290
     0
174
     0
 93
        1
 44
-50.0
173
     0
291
     1
 45
0.0
1001
ACAD
1000
AcDbSavedByObjectVersion
1070
     0
  0
VISUALSTYLE
  5
44E
102
{ACAD_XDICTIONARY
360
E70B3
102
}
102
{ACAD_REACTORS
330
3F2
102
}
330
3F2
100
AcDbVisualStyle
  2

 70
    22
 71
     2
 72
     2
 73
     0
 90
        0
 40
-0.6
 41
-30.0
 62
     5
 63
     7
 74
     1
 91
        4
 64
     7
 65
   257
 75
     1
175
     1
 42
1.0
 92
        8
 66
     7
 43
1.0
 76
     1
 77
     6
 78
     2
 67
     7
 79
     5
170
     0
171
     0
290
     0
174
     0
 93
        1
 44
0.0
173
     0
291
     1
 45
0.0
1001
ACAD
1000
AcDbSavedByObjectVersion
1070
     0
  0
VISUALSTYLE
  5
401
102
{ACAD_XDICTIONARY
360
E70AB
102
}
102
{ACAD_REACTORS
330
3F2
102
}
330
3F2
100
AcDbVisualStyle
  2

 70
    15
 71
     2
 72
     2
 73
     0
 90
        0
 40
-0.6
 41
-30.0
 62
     5
 63
     7
 74
     1
 91
        4
 64
     7
 65
   257
 75
     1
175
     1
 42
1.0
 92
        8
 66
     7
 43
1.0
 76
     1
 77
     6
 78
     2
 67
     7
 79
     5
170
     0
171
     0
290
     0
174
     0
 93
        1
 44
0.0
173
     0
291
     1
 45
0.0
1001
ACAD
1000
AcDbSavedByObjectVersion
1070
     0
  0
VISUALSTYLE
  5
3F3
102
{ACAD_XDICTIONARY
360
E708F
102
}
102
{ACAD_REACTORS
330
3F2
102
}
330
3F2
100
AcDbVisualStyle
  2

 70
     0
 71
     2
 72
     1
 73
     1
 90
        2
 40
-0.6
 41
30.0
 62
     5
 63
     7
 74
     0
 91
        4
 64
     7
 65
   257
 75
     1
175
     1
 42
1.0
 92
        8
 66
     7
 43
1.0
 76
     1
 77
     6
 78
     2
 67
     7
 79
     5
170
     0
171
     0
290
     0
174
     0
 93
       13
 44
0.0
173
     0
291
     1
 45
0.0
1001
ACAD
1000
AcDbSavedByObjectVersion
1070
     0
  0
VISUALSTYLE
  5
3F4
102
{ACAD_XDICTIONARY
360
E7091
102
}
102
{ACAD_REACTORS
330
3F2
102
}
330
3F2
100
AcDbVisualStyle
  2

 70
     1
 71
     2
 72
     1
 73
     1
 90
        2
 40
-0.6
 41
30.0
 62
     5
 63
     7
 74
     1
 91
        4
 64
     7
 65
   257
 75
     1
175
     1
 42
1.0
 92
        0
 66
   257
 43
1.0
 76
     1
 77
     6
 78
     2
 67
     7
 79
     5
170
     0
171
     0
290
     0
174
     0
 93
       13
 44
0.0
173
     0
291
     1
 45
0.0
1001
ACAD
1000
AcDbSavedByObjectVersion
1070
     0
  0
VISUALSTYLE
  5
3F5
102
{ACAD_XDICTIONARY
360
E7093
102
}
102
{ACAD_REACTORS
330
3F2
102
}
330
3F2
100
AcDbVisualStyle
  2

 70
     2
 71
     2
 72
     2
 73
     1
 90
        2
 40
-0.6
 41
30.0
 62
     5
 63
     7
 74
     0
 91
        4
 64
     7
 65
   257
 75
     1
175
     1
 42
1.0
 92
        0
 66
     7
 43
1.0
 76
     1
 77
     6
 78
     2
 67
     7
 79
     5
170
     0
171
     0
290
     0
174
     0
 93
       13
 44
0.0
173
     0
291
     1
 45
0.0
1001
ACAD
1000
AcDbSavedByObjectVersion
1070
     0
  0
VISUALSTYLE
  5
3F6
102
{ACAD_XDICTIONARY
360
E7095
102
}
102
{ACAD_REACTORS
330
3F2
102
}
330
3F2
100
AcDbVisualStyle
  2

 70
     3
 71
     2
 72
     2
 73
     1
 90
        2
 40
-0.6
 41
30.0
 62
     5
 63
     7
 74
     1
 91
        4
 64
     7
 65
   257
 75
     1
175
     1
 42
1.0
 92
        0
 66
   257
 43
1.0
 76
     1
 77
     6
 78
     2
 67
     7
 79
     5
170
     0
171
     0
290
     0
174
     0
 93
       13
 44
0.0
173
     0
291
     1
 45
0.0
1001
ACAD
1000
AcDbSavedByObjectVersion
1070
     0
  0
VISUALSTYLE
  5
E7027
102
{ACAD_XDICTIONARY
360
E70B8
102
}
102
{ACAD_REACTORS
330
3F2
102
}
330
3F2
100
AcDbVisualStyle
  2
Hidden
 70
     6
 71
     1
 72
     2
 73
     2
 90
        0
 40
-0.6
 41
-30.0
 62
     5
 63
     7
 74
     2
 91
        2
 64
     7
 65
   257
 75
     2
175
     1
 42
40.0
 92
        0
 66
   257
 43
1.0
 76
     1
 77
     6
 78
     2
 67
     7
 79
     3
170
     0
171
     0
290
     0
174
     0
 93
        1
 44
0.0
173
     0
291
     0
 45
0.0
1001
ACAD
1000
AcDbSavedByObjectVersion
1070
     0
  0
VISUALSTYLE
  5
44C
102
{ACAD_XDICTIONARY
360
E70AF
102
}
102
{ACAD_REACTORS
330
3F2
102
}
330
3F2
100
AcDbVisualStyle
  2

 70
    20
 71
     2
 72
     2
 73
     0
 90
        0
 40
-0.6
 41
-30.0
 62
     5
 63
     7
 74
     1
 91
        4
 64
     7
 65
   257
 75
     1
175
     1
 42
1.0
 92
       10
 66
     7
 43
1.0
 76
     1
 77
     6
 78
     2
 67
     7
 79
     5
170
     0
171
     0
290
     0
174
     0
 93
        1
 44
0.0
173
     0
291
     1
 45
0.0
1001
ACAD
1000
AcDbSavedByObjectVersion
1070
     0
  0
VISUALSTYLE
  5
400
102
{ACAD_XDICTIONARY
360
E70A9
102
}
102
{ACAD_REACTORS
330
3F2
102
}
330
3F2
100
AcDbVisualStyle
  2

 70
    14
 71
     2
 72
     2
 73
     0
 90
        0
 40
-0.6
 41
-30.0
 62
     5
 63
     7
 74
     1
 91
        4
 64
     7
 65
   257
 75
     7
175
     7
 42
1.0
 92
        8
 66
     7
 43
1.0
 76
     1
 77
     6
 78
     2
 67
     7
 79
     5
170
     0
171
     0
290
     0
174
     0
 93
        1
 44
0.0
173
     0
291
     1
 45
0.0
1001
ACAD
1000
AcDbSavedByObjectVersion
1070
     0
  0
VISUALSTYLE
  5
44D
102
{ACAD_XDICTIONARY
360
E70B1
102
}
102
{ACAD_REACTORS
330
3F2
102
}
330
3F2
100
AcDbVisualStyle
  2

 70
    21
 71
     2
 72
     2
 73
     0
 90
        0
 40
-0.6
 41
-30.0
 62
     5
 63
     7
 74
     1
 91
        4
 64
     7
 65
   257
 75
     1
175
     1
 42
1.0
 92
        9
 66
     7
 43
1.0
 76
     1
 77
     6
 78
     2
 67
     7
 79
     5
170
     0
171
     0
290
     0
174
     0
 93
        1
 44
0.0
173
     0
291
     1
 45
0.0
1001
ACAD
1000
AcDbSavedByObjectVersion
1070
     0
  0
VISUALSTYLE
  5
3FC
102
{ACAD_XDICTIONARY
360
E70A1
102
}
102
{ACAD_REACTORS
330
3F2
102
}
330
3F2
100
AcDbVisualStyle
  2

 70
     8
 71
     2
 72
     2
 73
     0
 90
        0
 40
-0.6
 41
-30.0
 62
     5
 63
     7
 74
     1
 91
        0
 64
     7
 65
   257
 75
     1
175
     1
 42
1.0
 92
        8
 66
     8
 43
1.0
 76
     1
 77
     6
 78
     2
 67
     7
 79
     5
170
     0
171
     0
290
     0
174
     0
 93
       13
 44
0.0
173
     0
291
     0
 45
0.0
1001
ACAD
1000
AcDbSavedByObjectVersion
1070
     0
  0
VISUALSTYLE
  5
E702C
102
{ACAD_XDICTIONARY
360
E70C2
102
}
102
{ACAD_REACTORS
330
3F2
102
}
330
3F2
100
AcDbVisualStyle
  2
Shaded
 70
    27
 71
     2
 72
     2
 73
     1
 90
        2
 40
-0.6
 41
30.0
 62
     5
 63
     7
 74
     0
 91
        4
 64
     7
 65
   257
 75
     1
175
     1
 42
1.0
 92
        8
 66
   257
 43
1.0
 76
     1
 77
     6
 78
     2
 67
     8
 79
     3
170
     0
171
     0
290
     0
174
     0
 93
        5
 44
0.0
173
     0
291
     0
 45
0.0
1001
ACAD
1000
AcDbSavedByObjectVersion
1070
     0
  0
VISUALSTYLE
  5
E702B
102
{ACAD_XDICTIONARY
360
E70C0
102
}
102
{ACAD_REACTORS
330
3F2
102
}
330
3F2
100
AcDbVisualStyle
  2
Shaded with edges
 70
    26
 71
     2
 72
     2
 73
     1
 90
        2
 40
-0.6
 41
30.0
 62
     5
 63
     7
 74
     1
 91
       10
 64
     7
 65
   257
 75
     2
175
     1
 42
1.0
 92
        8
 66
   257
 43
1.0
 76
     1
 77
     6
 78
     2
 67
     7
 79
     3
170
     0
171
     0
290
     0
174
     0
 93
        5
 44
0.0
173
     0
291
     0
 45
0.0
1001
ACAD
1000
AcDbSavedByObjectVersion
1070
     0
  0
VISUALSTYLE
  5
E7028
102
{ACAD_XDICTIONARY
360
E70BA
102
}
102
{ACAD_REACTORS
330
3F2
102
}
330
3F2
100
AcDbVisualStyle
  2
Shades of Gray
 70
    23
 71
     2
 72
     2
 73
     3
 90
        0
 40
-0.6
 41
-30.0
 62
     5
 63
     7
 74
     2
 91
        2
 64
     7
 65
     7
 75
     1
175
     1
 42
40.0
 92
        8
 66
     7
 43
1.0
 76
     1
 77
     6
 78
     2
 67
     7
 79
     3
170
     0
171
     0
290
     0
174
     0
 93
        1
 44
0.0
173
     0
291
     0
 45
0.0
1001
ACAD
1000
AcDbSavedByObjectVersion
1070
     0
  0
VISUALSTYLE
  5
E7029
102
{ACAD_XDICTIONARY
360
E70BC
102
}
102
{ACAD_REACTORS
330
3F2
102
}
330
3F2
100
AcDbVisualStyle
  2
Sketchy
 70
    24
 71
     1
 72
     2
 73
     2
 90
        0
 40
-0.6
 41
-30.0
 62
     5
 63
     7
 74
     2
 91
        2
 64
     7
 65
     7
 75
     1
175
     1
 42
40.0
 92
       11
 66
     7
 43
1.0
 76
     1
 77
     6
 78
     2
 67
     7
 79
     6
170
     0
171
     0
290
     0
174
     0
 93
        1
 44
0.0
173
     0
291
     0
 45
0.0
1001
ACAD
1000
AcDbSavedByObjectVersion
1070
     0
  0
VISUALSTYLE
  5
3FF
102
{ACAD_XDICTIONARY
360
E70A7
102
}
102
{ACAD_REACTORS
330
3F2
102
}
330
3F2
100
AcDbVisualStyle
  2

 70
    13
 71
     2
 72
     2
 73
     0
 90
        0
 40
-0.6
 41
-30.0
 62
     5
 63
     7
 74
     1
 91
        4
 64
     7
 65
   257
 75
     1
175
     1
 42
1.0
 92
       12
 66
     7
 43
1.0
 76
     1
 77
     6
 78
     2
 67
     7
 79
     5
170
     0
171
     0
290
     0
174
     0
 93
        1
 44
0.0
173
     0
291
     1
 45
0.0
1001
ACAD
1000
AcDbSavedByObjectVersion
1070
     0
  0
VISUALSTYLE
  5
E7026
102
{ACAD_XDICTIONARY
360
E70B6
102
}
102
{ACAD_REACTORS
330
3F2
102
}
330
3F2
100
AcDbVisualStyle
  2
Wireframe
 70
     5
 71
     0
 72
     2
 73
     0
 90
        0
 40
-0.6
 41
-30.0
 62
     5
 63
     7
 74
     1
 91
        4
 64
     7
 65
   257
 75
     1
175
     1
 42
1.0
 92
        0
 66
   257
 43
1.0
 76
     1
 77
     6
 78
     2
 67
     7
 79
     3
170
     0
171
     0
290
     0
174
     0
 93
        1
 44
0.0
173
     0
291
     0
 45
0.0
1001
ACAD
1000
AcDbSavedByObjectVersion
1070
     0
  0
VISUALSTYLE
  5
E702A
102
{ACAD_XDICTIONARY
360
E70BE
102
}
102
{ACAD_REACTORS
330
3F2
102
}
330
3F2
100
AcDbVisualStyle
  2
X-Ray
 70
    25
 71
     2
 72
     2
 73
     1
 90
        1
 40
0.5
 41
-30.0
 62
     5
 63
     7
 74
     1
 91
        0
 64
     7
 65
   257
 75
     1
175
     1
 42
1.0
 92
        8
 66
     7
 43
1.0
 76
     1
 77
     6
 78
     2
 67
     7
 79
     3
170
     0
171
     0
290
     0
174
     0
 93
       13
 44
0.0
173
     0
291
     0
 45
0.0
1001
ACAD
1000
AcDbSavedByObjectVersion
1070
     0
  0
DICTIONARYVAR
  5
449
102
{ACAD_REACTORS
330
357
102
}
330
357
100
DictionaryVariables
280
     0
  1
1:1
  0
DICTIONARYVAR
  5
447
102
{ACAD_REACTORS
330
357
102
}
330
357
100
DictionaryVariables
280
     0
  1
STANDARD
  0
DICTIONARYVAR
  5
38E
102
{ACAD_REACTORS
330
357
102
}
330
357
100
DictionaryVariables
280
     0
  1
STANDARD
  0
DICTIONARYVAR
  5
E7081
102
{ACAD_REACTORS
330
357
102
}
330
357
100
DictionaryVariables
280
     0
  1
Metric50
  0
DICTIONARYVAR
  5
E7082
102
{ACAD_REACTORS
330
357
102
}
330
357
100
DictionaryVariables
280
     0
  1
Metric50
  0
DICTIONARYVAR
  5
359
102
{ACAD_REACTORS
330
357
102
}
330
357
100
DictionaryVariables
280
     0
  1
2
  0
DICTIONARYVAR
  5
358
102
{ACAD_REACTORS
330
357
102
}
330
357
100
DictionaryVariables
280
     0
  1
1
  0
DICTIONARYVAR
  5
1260
102
{ACAD_REACTORS
330
357
102
}
330
357
100
DictionaryVariables
280
     0
  1
0
  0
DICTIONARYVAR
  5
458
102
{ACAD_REACTORS
330
357
102
}
330
357
100
DictionaryVariables
280
     0
  1
1
  0
DICTIONARYVAR
  5
459
102
{ACAD_REACTORS
330
357
102
}
330
357
100
DictionaryVariables
280
     0
  1
15
  0
DICTIONARYVAR
  5
44A
102
{ACAD_REACTORS
330
357
102
}
330
357
100
DictionaryVariables
280
     0
  1
0
  0
DICTIONARYVAR
  5
448
102
{ACAD_REACTORS
330
357
102
}
330
357
100
DictionaryVariables
280
     0
  1
0
  0
DICTIONARYVAR
  5
125F
102
{ACAD_REACTORS
330
357
102
}
330
357
100
DictionaryVariables
280
     0
  1
127
  0
DICTIONARYVAR
  5
E7083
102
{ACAD_REACTORS
330
357
102
}
330
357
100
DictionaryVariables
280
     0
  1
2
  0
DICTIONARY
  5
E708C
330
33B
100
AcDbDictionary
280
     1
281
     1
  3
ACAD_XREC_ROUNDTRIP
360
E708D
  0
DICTIONARY
  5
E708A
330
303
100
AcDbDictionary
280
     1
281
     1
  3
ACAD_XREC_ROUNDTRIP
360
E708B
  0
DICTIONARY
  5
E6FF8
330
3F0
100
AcDbDictionary
280
     1
281
     1
  3
ACAD_XREC_ROUNDTRIP
360
E6FF9
  0
DICTIONARY
  5
E6FF6
330
3EF
100
AcDbDictionary
280
     1
281
     1
  3
ACAD_XREC_ROUNDTRIP
360
E6FF7
  0
DICTIONARY
  5
E6FFA
330
3F1
100
AcDbDictionary
280
     1
281
     1
  3
ACAD_XREC_ROUNDTRIP
360
E6FFB
  0
DICTIONARY
  5
444
330
389
100
AcDbDictionary
280
     1
281
     1
  3
ACAD_ROUNDTRIP_2008_TABLESTYLE_CELLSTYLEMAP
360
E7085
  3
ACAD_XREC_ROUNDTRIP
360
E708E
  0
DICTIONARY
  5
E7099
330
3F8
100
AcDbDictionary
280
     1
281
     1
  3
ACAD_XREC_ROUNDTRIP
360
E709A
  0
DICTIONARY
  5
E709D
330
3FA
100
AcDbDictionary
280
     1
281
     1
  3
ACAD_XREC_ROUNDTRIP
360
E709E
  0
DICTIONARY
  5
E709B
330
3F9
100
AcDbDictionary
280
     1
281
     1
  3
ACAD_XREC_ROUNDTRIP
360
E709C
  0
DICTIONARY
  5
E7097
330
3F7
100
AcDbDictionary
280
     1
281
     1
  3
ACAD_XREC_ROUNDTRIP
360
E7098
  0
DICTIONARY
  5
E70A5
330
3FE
100
AcDbDictionary
280
     1
281
     1
  3
ACAD_XREC_ROUNDTRIP
360
E70A6
  0
DICTIONARY
  5
E70AD
330
402
100
AcDbDictionary
280
     1
281
     1
  3
ACAD_XREC_ROUNDTRIP
360
E70AE
  0
DICTIONARY
  5
E709F
330
3FB
100
AcDbDictionary
280
     1
281
     1
  3
ACAD_XREC_ROUNDTRIP
360
E70A0
  0
DICTIONARY
  5
E70A3
330
3FD
100
AcDbDictionary
280
     1
281
     1
  3
ACAD_XREC_ROUNDTRIP
360
E70A4
  0
DICTIONARY
  5
E70B3
330
44E
100
AcDbDictionary
280
     1
281
     1
  3
ACAD_XREC_ROUNDTRIP
360
E70B4
  0
DICTIONARY
  5
E70AB
330
401
100
AcDbDictionary
280
     1
281
     1
  3
ACAD_XREC_ROUNDTRIP
360
E70AC
  0
DICTIONARY
  5
E708F
330
3F3
100
AcDbDictionary
280
     1
281
     1
  3
ACAD_XREC_ROUNDTRIP
360
E7090
  0
DICTIONARY
  5
E7091
330
3F4
100
AcDbDictionary
280
     1
281
     1
  3
ACAD_XREC_ROUNDTRIP
360
E7092
  0
DICTIONARY
  5
E7093
330
3F5
100
AcDbDictionary
280
     1
281
     1
  3
ACAD_XREC_ROUNDTRIP
360
E7094
  0
DICTIONARY
  5
E7095
330
3F6
100
AcDbDictionary
280
     1
281
     1
  3
ACAD_XREC_ROUNDTRIP
360
E7096
  0
DICTIONARY
  5
E70B8
330
E7027
100
AcDbDictionary
280
     1
281
     1
  3
ACAD_XREC_ROUNDTRIP
360
E70B9
  0
DICTIONARY
  5
E70AF
330
44C
100
AcDbDictionary
280
     1
281
     1
  3
ACAD_XREC_ROUNDTRIP
360
E70B0
  0
DICTIONARY
  5
E70A9
330
400
100
AcDbDictionary
280
     1
281
     1
  3
ACAD_XREC_ROUNDTRIP
360
E70AA
  0
DICTIONARY
  5
E70B1
330
44D
100
AcDbDictionary
280
     1
281
     1
  3
ACAD_XREC_ROUNDTRIP
360
E70B2
  0
DICTIONARY
  5
E70A1
330
3FC
100
AcDbDictionary
280
     1
281
     1
  3
ACAD_XREC_ROUNDTRIP
360
E70A2
  0
DICTIONARY
  5
E70C2
330
E702C
100
AcDbDictionary
280
     1
281
     1
  3
ACAD_XREC_ROUNDTRIP
360
E70C3
  0
DICTIONARY
  5
E70C0
330
E702B
100
AcDbDictionary
280
     1
281
     1
  3
ACAD_XREC_ROUNDTRIP
360
E70C1
  0
DICTIONARY
  5
E70BA
330
E7028
100
AcDbDictionary
280
     1
281
     1
  3
ACAD_XREC_ROUNDTRIP
360
E70BB
  0
DICTIONARY
  5
E70BC
330
E7029
100
AcDbDictionary
280
     1
281
     1
  3
ACAD_XREC_ROUNDTRIP
360
E70BD
  0
DICTIONARY
  5
E70A7
330
3FF
100
AcDbDictionary
280
     1
281
     1
  3
ACAD_XREC_ROUNDTRIP
360
E70A8
  0
DICTIONARY
  5
E70B6
330
E7026
100
AcDbDictionary
280
     1
281
     1
  3
ACAD_XREC_ROUNDTRIP
360
E70B7
  0
DICTIONARY
  5
E70BE
330
E702A
100
AcDbDictionary
280
     1
281
     1
  3
ACAD_XREC_ROUNDTRIP
360
E70BF
  0
XRECORD
  5
E708D
102
{ACAD_REACTORS
330
E708C
102
}
330
E708C
100
AcDbXrecord
280
     1
102
SHADEPLOT
 70
     0
102
SHADEPLOTRESLEVEL
 70
     2
102
SHADEPLOTCUSTOMDPI
 70
   300
  0
XRECORD
  5
E708B
102
{ACAD_REACTORS
330
E708A
102
}
330
E708A
100
AcDbXrecord
280
     1
102
SHADEPLOT
 70
     1
102
SHADEPLOTRESLEVEL
 70
     2
102
SHADEPLOTCUSTOMDPI
 70
   300
  0
XRECORD
  5
E6FF9
102
{ACAD_REACTORS
330
E6FF8
102
}
330
E6FF8
100
AcDbXrecord
280
     1
102
MATERIAL
148
0.0
149
0.0
149
0.0
 93
        0
 94
      127
282
     0
 72
     1
 77
     1
171
     1
175
     1
179
     1
273
     0
  0
XRECORD
  5
E6FF7
102
{ACAD_REACTORS
330
E6FF6
102
}
330
E6FF6
100
AcDbXrecord
280
     1
102
MATERIAL
148
0.0
149
0.0
149
0.0
 93
        0
 94
      127
282
     0
 72
     1
 77
     1
171
     1
175
     1
179
     1
273
     0
  0
XRECORD
  5
E6FFB
102
{ACAD_REACTORS
330
E6FFA
102
}
330
E6FFA
100
AcDbXrecord
280
     1
102
MATERIAL
148
0.0
149
0.0
149
0.0
 93
        0
 94
      127
282
     0
 72
     1
 77
     1
171
     1
175
     1
179
     1
273
     0
  0
CELLSTYLEMAP
  5
E7085
102
{ACAD_REACTORS
330
444
102
}
330
444
100
AcDbCellStyleMap
 90
        3
300
CELLSTYLE
  1
TABLEFORMAT_BEGIN
 90
        5
170
     1
 91
        0
 92
    32768
 62
   257
 93
        1
300
CONTENTFORMAT
  1
CONTENTFORMAT_BEGIN
 90
        0
 91
        0
 92
        4
 93
        0
300

 40
0.0
140
1.0
 94
        5
 62
     0
340
10
144
6.0
309
CONTENTFORMAT_END
171
     1
301
MARGIN
  1
CELLMARGIN_BEGIN
 40
1.5
 40
1.5
 40
1.5
 40
1.5
 40
0.18
 40
0.18
309
CELLMARGIN_END
 94
        6
 95
        1
302
GRIDFORMAT
  1
GRIDFORMAT_BEGIN
 90
        0
 91
        1
 62
     0
 92
       -2
340
0
 93
        0
 40
0.045
309
GRIDFORMAT_END
 95
        2
302
GRIDFORMAT
  1
GRIDFORMAT_BEGIN
 90
        0
 91
        1
 62
     0
 92
       -2
340
0
 93
        0
 40
0.045
309
GRIDFORMAT_END
 95
        4
302
GRIDFORMAT
  1
GRIDFORMAT_BEGIN
 90
        0
 91
        1
 62
     0
 92
       -2
340
0
 93
        0
 40
0.045
309
GRIDFORMAT_END
 95
        8
302
GRIDFORMAT
  1
GRIDFORMAT_BEGIN
 90
        0
 91
        1
 62
     0
 92
       -2
340
0
 93
        0
 40
0.045
309
GRIDFORMAT_END
 95
       16
302
GRIDFORMAT
  1
GRIDFORMAT_BEGIN
 90
        0
 91
        1
 62
     0
 92
       -2
340
0
 93
        0
 40
0.045
309
GRIDFORMAT_END
 95
       32
302
GRIDFORMAT
  1
GRIDFORMAT_BEGIN
 90
        0
 91
        1
 62
     0
 92
       -2
340
0
 93
        0
 40
0.045
309
GRIDFORMAT_END
309
TABLEFORMAT_END
  1
CELLSTYLE_BEGIN
 90
        1
 91
        1
300
_TITLE
309
CELLSTYLE_END
300
CELLSTYLE
  1
TABLEFORMAT_BEGIN
 90
        5
170
     1
 91
        0
 92
        0
 62
   257
 93
        1
300
CONTENTFORMAT
  1
CONTENTFORMAT_BEGIN
 90
        0
 91
        0
 92
        4
 93
        0
300

 40
0.0
140
1.0
 94
        5
 62
     0
340
10
144
4.5
309
CONTENTFORMAT_END
171
     1
301
MARGIN
  1
CELLMARGIN_BEGIN
 40
1.5
 40
1.5
 40
1.5
 40
1.5
 40
0.18
 40
0.18
309
CELLMARGIN_END
 94
        6
 95
        1
302
GRIDFORMAT
  1
GRIDFORMAT_BEGIN
 90
        0
 91
        1
 62
     0
 92
       -2
340
0
 93
        0
 40
0.045
309
GRIDFORMAT_END
 95
        2
302
GRIDFORMAT
  1
GRIDFORMAT_BEGIN
 90
        0
 91
        1
 62
     0
 92
       -2
340
0
 93
        0
 40
0.045
309
GRIDFORMAT_END
 95
        4
302
GRIDFORMAT
  1
GRIDFORMAT_BEGIN
 90
        0
 91
        1
 62
     0
 92
       -2
340
0
 93
        0
 40
0.045
309
GRIDFORMAT_END
 95
        8
302
GRIDFORMAT
  1
GRIDFORMAT_BEGIN
 90
        0
 91
        1
 62
     0
 92
       -2
340
0
 93
        0
 40
0.045
309
GRIDFORMAT_END
 95
       16
302
GRIDFORMAT
  1
GRIDFORMAT_BEGIN
 90
        0
 91
        1
 62
     0
 92
       -2
340
0
 93
        0
 40
0.045
309
GRIDFORMAT_END
 95
       32
302
GRIDFORMAT
  1
GRIDFORMAT_BEGIN
 90
        0
 91
        1
 62
     0
 92
       -2
340
0
 93
        0
 40
0.045
309
GRIDFORMAT_END
309
TABLEFORMAT_END
  1
CELLSTYLE_BEGIN
 90
        2
 91
        1
300
_HEADER
309
CELLSTYLE_END
300
CELLSTYLE
  1
TABLEFORMAT_BEGIN
 90
        5
170
     1
 91
        0
 92
        0
 62
   257
 93
        1
300
CONTENTFORMAT
  1
CONTENTFORMAT_BEGIN
 90
        0
 91
        0
 92
        4
 93
        0
300

 40
0.0
140
1.0
 94
        2
 62
     0
340
10
144
4.5
309
CONTENTFORMAT_END
171
     1
301
MARGIN
  1
CELLMARGIN_BEGIN
 40
1.5
 40
1.5
 40
1.5
 40
1.5
 40
0.18
 40
0.18
309
CELLMARGIN_END
 94
        6
 95
        1
302
GRIDFORMAT
  1
GRIDFORMAT_BEGIN
 90
        0
 91
        1
 62
     0
 92
       -2
340
0
 93
        0
 40
0.045
309
GRIDFORMAT_END
 95
        2
302
GRIDFORMAT
  1
GRIDFORMAT_BEGIN
 90
        0
 91
        1
 62
     0
 92
       -2
340
0
 93
        0
 40
0.045
309
GRIDFORMAT_END
 95
        4
302
GRIDFORMAT
  1
GRIDFORMAT_BEGIN
 90
        0
 91
        1
 62
     0
 92
       -2
340
0
 93
        0
 40
0.045
309
GRIDFORMAT_END
 95
        8
302
GRIDFORMAT
  1
GRIDFORMAT_BEGIN
 90
        0
 91
        1
 62
     0
 92
       -2
340
0
 93
        0
 40
0.045
309
GRIDFORMAT_END
 95
       16
302
GRIDFORMAT
  1
GRIDFORMAT_BEGIN
 90
        0
 91
        1
 62
     0
 92
       -2
340
0
 93
        0
 40
0.045
309
GRIDFORMAT_END
 95
       32
302
GRIDFORMAT
  1
GRIDFORMAT_BEGIN
 90
        0
 91
        1
 62
     0
 92
       -2
340
0
 93
        0
 40
0.045
309
GRIDFORMAT_END
309
TABLEFORMAT_END
  1
CELLSTYLE_BEGIN
 90
        3
 91
        2
300
_DATA
309
CELLSTYLE_END
  0
XRECORD
  5
E708E
102
{ACAD_REACTORS
330
444
102
}
330
444
100
AcDbXrecord
280
     1
102
ACAD_ROUNDTRIP_PRE2007_TABLESTYLE
 90
        4
 91
        0
  1

 92
        4
 93
        0
  2

 94
        4
 95
        0
  3

  0
XRECORD
  5
E709A
102
{ACAD_REACTORS
330
E7099
102
}
330
E7099
100
AcDbXrecord
280
     1
102
RTVSPost2010Prop28
280
     1
102
RTVSPost2010PropOp28
 70
     1
102
RTVSPost2010Prop29
280
     1
102
RTVSPost2010PropOp29
 70
     1
102
RTVSPost2010Prop30
280
     0
102
RTVSPost2010PropOp30
 70
     1
102
RTVSPost2010Prop31
280
     0
102
RTVSPost2010PropOp31
 70
     1
102
RTVSPost2010Prop32
280
     0
102
RTVSPost2010PropOp32
 70
     1
102
RTVSPost2010Prop33
280
     0
102
RTVSPost2010PropOp33
 70
     1
102
RTVSPost2010Prop34
280
     0
102
RTVSPost2010PropOp34
 70
     1
102
RTVSPost2010Prop35
280
     0
102
RTVSPost2010PropOp35
 70
     1
102
RTVSPost2010Prop36
280
     0
102
RTVSPost2010PropOp36
 70
     1
102
RTVSPost2010Prop37
 90
       50
102
RTVSPost2010PropOp37
 70
     1
102
RTVSPost2010Prop38
140
0.0
102
RTVSPost2010PropOp38
 70
     1
102
RTVSPost2010Prop39
140
1.0
102
RTVSPost2010PropOp39
 70
     1
102
RTVSPost2010Prop40
 90
        0
102
RTVSPost2010PropOp40
 70
     1
102
RTVSPost2010Prop41ColorIndex
 90
       18
102
RTVSPost2010Prop41ColorRGB
 90
        0
102
RTVSPost2010PropOp41
 70
     1
102
RTVSPost2010Prop42
 90
       50
102
RTVSPost2010PropOp42
 70
     1
102
RTVSPost2010Prop43
 90
        3
102
RTVSPost2010PropOp43
 70
     1
102
RTVSPost2010Prop44ColorIndex
 90
        5
102
RTVSPost2010Prop44ColorRGB
 90
      255
102
RTVSPost2010PropOp44
 70
     1
102
RTVSPost2010Prop45
280
     0
102
RTVSPost2010PropOp45
 70
     1
102
RTVSPost2010Prop46
 90
       50
102
RTVSPost2010PropOp46
 70
     1
102
RTVSPost2010Prop47
 90
       50
102
RTVSPost2010PropOp47
 70
     1
102
RTVSPost2010Prop48
 90
       50
102
RTVSPost2010PropOp48
 70
     1
102
RTVSPost2010Prop49
280
     0
102
RTVSPost2010PropOp49
 70
     1
102
RTVSPost2010Prop50
 90
       50
102
RTVSPost2010PropOp50
 70
     1
102
RTVSPost2010Prop51ColorIndex
 90
      256
102
RTVSPost2010Prop51ColorRGB
 90
-16777216
102
RTVSPost2010PropOp51
 70
     0
102
RTVSPost2010Prop52
140
1.0
102
RTVSPost2010PropOp52
 70
     0
102
RTVSPost2010Prop53
 90
        2
102
RTVSPost2010PropOp53
 70
     1
102
RTVSPost2010Prop54
  1
strokes_ogs.tif
102
RTVSPost2010PropOp54
 70
     1
102
RTVSPost2010Prop55
280
     0
102
RTVSPost2010PropOp55
 70
     1
102
RTVSPost2010Prop56
140
1.0
102
RTVSPost2010PropOp56
 70
     1
102
RTVSPost2010Prop57
140
1.0
102
RTVSPost2010PropOp57
 70
     1
102
RTVSPropertyOp0
 70
     1
102
RTVSPropertyOp1
 70
     1
102
RTVSPropertyOp2
 70
     1
102
RTVSPropertyOp3
 70
     1
102
RTVSPropertyOp4
 70
     1
102
RTVSPropertyOp5
 70
     1
102
RTVSPropertyOp6
 70
     1
102
RTVSPropertyOp7
 70
     1
102
RTVSPropertyOp8
 70
     1
102
RTVSPropertyOp9
 70
     1
102
RTVSPropertyOp10
 70
     1
102
RTVSPropertyOp11
 70
     1
102
RTVSPropertyOp12
 70
     1
102
RTVSPropertyOp13
 70
     1
102
RTVSPropertyOp14
 70
     1
102
RTVSPropertyOp15
 70
     1
102
RTVSPropertyOp16
 70
     1
102
RTVSPropertyOp17
 70
     1
102
RTVSPropertyOp18
 70
     1
102
RTVSPropertyOp19
 70
     1
102
RTVSPropertyOp20
 70
     1
102
RTVSPropertyOp21
 70
     1
102
RTVSPropertyOp22
 70
     1
102
RTVSPropertyOp23
 70
     1
102
RTVSPropertyOp24
 70
     1
102
RTVSPropertyOp25
 70
     1
102
RTVSPropertyOp26
 70
     1
102
RTVSPropertyOp27
 70
     1
102
RTVSPropertyOp28
 70
     1
102
RTVSPropertyOp29
 70
     1
102
RTVSPropertyOp30
 70
     1
102
RTVSPropertyOp31
 70
     1
102
RTVSPropertyOp32
 70
     1
102
RTVSPropertyOp33
 70
     1
102
RTVSPropertyOp34
 70
     1
102
RTVSPropertyOp35
 70
     1
102
RTVSPropertyOp36
 70
     1
102
RTVSPropertyOp37
 70
     1
102
RTVSPropertyOp38
 70
     1
102
RTVSPropertyOp39
 70
     1
102
RTVSPropertyOp40
 70
     1
102
RTVSPropertyOp41
 70
     1
102
RTVSPropertyOp42
 70
     1
102
RTVSPropertyOp43
 70
     1
102
RTVSPropertyOp44
 70
     1
102
RTVSPropertyOp45
 70
     1
102
RTVSPropertyOp46
 70
     1
102
RTVSPropertyOp47
 70
     1
102
RTVSPropertyOp48
 70
     1
102
RTVSPropertyOp49
 70
     1
102
RTVSPropertyOp50
 70
     1
102
RTVSPropertyOp51
 70
     0
102
RTVSPropertyOp52
 70
     0
102
RTVSPropertyOp53
 70
     1
102
RTVSPropertyOp54
 70
     1
102
RTVSPropertyOp55
 70
     1
102
RTVSPropertyOp56
 70
     1
102
RTVSPropertyOp57
 70
     1
102
RTVSPropertyOp58
 70
     1
102
RTVSPropertyOp59
 70
     1
102
RTVSPropertyOp60
 70
     1
102
RTVSPropertyOp61
 70
     1
102
RTVSPropertyOp62
 70
     1
  0
XRECORD
  5
E709E
102
{ACAD_REACTORS
330
E709D
102
}
330
E709D
100
AcDbXrecord
280
     1
102
RTVSPost2010Prop28
280
     0
102
RTVSPost2010PropOp28
 70
     1
102
RTVSPost2010Prop29
280
     1
102
RTVSPost2010PropOp29
 70
     1
102
RTVSPost2010Prop30
280
     1
102
RTVSPost2010PropOp30
 70
     1
102
RTVSPost2010Prop31
280
     0
102
RTVSPost2010PropOp31
 70
     1
102
RTVSPost2010Prop32
280
     0
102
RTVSPost2010PropOp32
 70
     1
102
RTVSPost2010Prop33
280
     0
102
RTVSPost2010PropOp33
 70
     1
102
RTVSPost2010Prop34
280
     0
102
RTVSPost2010PropOp34
 70
     1
102
RTVSPost2010Prop35
280
     0
102
RTVSPost2010PropOp35
 70
     1
102
RTVSPost2010Prop36
280
     0
102
RTVSPost2010PropOp36
 70
     1
102
RTVSPost2010Prop37
 90
       50
102
RTVSPost2010PropOp37
 70
     1
102
RTVSPost2010Prop38
140
0.0
102
RTVSPost2010PropOp38
 70
     1
102
RTVSPost2010Prop39
140
1.0
102
RTVSPost2010PropOp39
 70
     1
102
RTVSPost2010Prop40
 90
        0
102
RTVSPost2010PropOp40
 70
     1
102
RTVSPost2010Prop41ColorIndex
 90
       18
102
RTVSPost2010Prop41ColorRGB
 90
        0
102
RTVSPost2010PropOp41
 70
     1
102
RTVSPost2010Prop42
 90
       50
102
RTVSPost2010PropOp42
 70
     1
102
RTVSPost2010Prop43
 90
        3
102
RTVSPost2010PropOp43
 70
     1
102
RTVSPost2010Prop44ColorIndex
 90
        5
102
RTVSPost2010Prop44ColorRGB
 90
      255
102
RTVSPost2010PropOp44
 70
     1
102
RTVSPost2010Prop45
280
     0
102
RTVSPost2010PropOp45
 70
     1
102
RTVSPost2010Prop46
 90
       50
102
RTVSPost2010PropOp46
 70
     1
102
RTVSPost2010Prop47
 90
       50
102
RTVSPost2010PropOp47
 70
     1
102
RTVSPost2010Prop48
 90
       50
102
RTVSPost2010PropOp48
 70
     1
102
RTVSPost2010Prop49
280
     0
102
RTVSPost2010PropOp49
 70
     1
102
RTVSPost2010Prop50
 90
       50
102
RTVSPost2010PropOp50
 70
     1
102
RTVSPost2010Prop51ColorIndex
 90
      256
102
RTVSPost2010Prop51ColorRGB
 90
-16777216
102
RTVSPost2010PropOp51
 70
     0
102
RTVSPost2010Prop52
140
1.0
102
RTVSPost2010PropOp52
 70
     0
102
RTVSPost2010Prop53
 90
        2
102
RTVSPost2010PropOp53
 70
     1
102
RTVSPost2010Prop54
  1
strokes_ogs.tif
102
RTVSPost2010PropOp54
 70
     1
102
RTVSPost2010Prop55
280
     0
102
RTVSPost2010PropOp55
 70
     1
102
RTVSPost2010Prop56
140
1.0
102
RTVSPost2010PropOp56
 70
     1
102
RTVSPost2010Prop57
140
1.0
102
RTVSPost2010PropOp57
 70
     1
102
RTVSPropertyOp0
 70
     1
102
RTVSPropertyOp1
 70
     1
102
RTVSPropertyOp2
 70
     1
102
RTVSPropertyOp3
 70
     1
102
RTVSPropertyOp4
 70
     1
102
RTVSPropertyOp5
 70
     1
102
RTVSPropertyOp6
 70
     1
102
RTVSPropertyOp7
 70
     1
102
RTVSPropertyOp8
 70
     1
102
RTVSPropertyOp9
 70
     1
102
RTVSPropertyOp10
 70
     1
102
RTVSPropertyOp11
 70
     1
102
RTVSPropertyOp12
 70
     1
102
RTVSPropertyOp13
 70
     1
102
RTVSPropertyOp14
 70
     1
102
RTVSPropertyOp15
 70
     1
102
RTVSPropertyOp16
 70
     1
102
RTVSPropertyOp17
 70
     1
102
RTVSPropertyOp18
 70
     1
102
RTVSPropertyOp19
 70
     1
102
RTVSPropertyOp20
 70
     1
102
RTVSPropertyOp21
 70
     1
102
RTVSPropertyOp22
 70
     1
102
RTVSPropertyOp23
 70
     1
102
RTVSPropertyOp24
 70
     1
102
RTVSPropertyOp25
 70
     1
102
RTVSPropertyOp26
 70
     1
102
RTVSPropertyOp27
 70
     1
102
RTVSPropertyOp28
 70
     1
102
RTVSPropertyOp29
 70
     1
102
RTVSPropertyOp30
 70
     1
102
RTVSPropertyOp31
 70
     1
102
RTVSPropertyOp32
 70
     1
102
RTVSPropertyOp33
 70
     1
102
RTVSPropertyOp34
 70
     1
102
RTVSPropertyOp35
 70
     1
102
RTVSPropertyOp36
 70
     1
102
RTVSPropertyOp37
 70
     1
102
RTVSPropertyOp38
 70
     1
102
RTVSPropertyOp39
 70
     1
102
RTVSPropertyOp40
 70
     1
102
RTVSPropertyOp41
 70
     1
102
RTVSPropertyOp42
 70
     1
102
RTVSPropertyOp43
 70
     1
102
RTVSPropertyOp44
 70
     1
102
RTVSPropertyOp45
 70
     1
102
RTVSPropertyOp46
 70
     1
102
RTVSPropertyOp47
 70
     1
102
RTVSPropertyOp48
 70
     1
102
RTVSPropertyOp49
 70
     1
102
RTVSPropertyOp50
 70
     1
102
RTVSPropertyOp51
 70
     0
102
RTVSPropertyOp52
 70
     0
102
RTVSPropertyOp53
 70
     1
102
RTVSPropertyOp54
 70
     1
102
RTVSPropertyOp55
 70
     1
102
RTVSPropertyOp56
 70
     1
102
RTVSPropertyOp57
 70
     1
102
RTVSPropertyOp58
 70
     1
102
RTVSPropertyOp59
 70
     1
102
RTVSPropertyOp60
 70
     1
102
RTVSPropertyOp61
 70
     1
102
RTVSPropertyOp62
 70
     1
  0
XRECORD
  5
E709C
102
{ACAD_REACTORS
330
E709B
102
}
330
E709B
100
AcDbXrecord
280
     1
102
RTVSPost2010Prop28
280
     0
102
RTVSPost2010PropOp28
 70
     1
102
RTVSPost2010Prop29
280
     1
102
RTVSPost2010PropOp29
 70
     1
102
RTVSPost2010Prop30
280
     1
102
RTVSPost2010PropOp30
 70
     1
102
RTVSPost2010Prop31
280
     0
102
RTVSPost2010PropOp31
 70
     1
102
RTVSPost2010Prop32
280
     0
102
RTVSPost2010PropOp32
 70
     1
102
RTVSPost2010Prop33
280
     0
102
RTVSPost2010PropOp33
 70
     1
102
RTVSPost2010Prop34
280
     0
102
RTVSPost2010PropOp34
 70
     1
102
RTVSPost2010Prop35
280
     0
102
RTVSPost2010PropOp35
 70
     1
102
RTVSPost2010Prop36
280
     0
102
RTVSPost2010PropOp36
 70
     1
102
RTVSPost2010Prop37
 90
       50
102
RTVSPost2010PropOp37
 70
     1
102
RTVSPost2010Prop38
140
0.0
102
RTVSPost2010PropOp38
 70
     1
102
RTVSPost2010Prop39
140
1.0
102
RTVSPost2010PropOp39
 70
     1
102
RTVSPost2010Prop40
 90
        0
102
RTVSPost2010PropOp40
 70
     1
102
RTVSPost2010Prop41ColorIndex
 90
       18
102
RTVSPost2010Prop41ColorRGB
 90
        0
102
RTVSPost2010PropOp41
 70
     1
102
RTVSPost2010Prop42
 90
       50
102
RTVSPost2010PropOp42
 70
     1
102
RTVSPost2010Prop43
 90
        3
102
RTVSPost2010PropOp43
 70
     1
102
RTVSPost2010Prop44ColorIndex
 90
        5
102
RTVSPost2010Prop44ColorRGB
 90
      255
102
RTVSPost2010PropOp44
 70
     1
102
RTVSPost2010Prop45
280
     0
102
RTVSPost2010PropOp45
 70
     1
102
RTVSPost2010Prop46
 90
       50
102
RTVSPost2010PropOp46
 70
     1
102
RTVSPost2010Prop47
 90
       50
102
RTVSPost2010PropOp47
 70
     1
102
RTVSPost2010Prop48
 90
       50
102
RTVSPost2010PropOp48
 70
     1
102
RTVSPost2010Prop49
280
     0
102
RTVSPost2010PropOp49
 70
     1
102
RTVSPost2010Prop50
 90
       50
102
RTVSPost2010PropOp50
 70
     1
102
RTVSPost2010Prop51ColorIndex
 90
      256
102
RTVSPost2010Prop51ColorRGB
 90
-16777216
102
RTVSPost2010PropOp51
 70
     0
102
RTVSPost2010Prop52
140
1.0
102
RTVSPost2010PropOp52
 70
     0
102
RTVSPost2010Prop53
 90
        2
102
RTVSPost2010PropOp53
 70
     1
102
RTVSPost2010Prop54
  1
strokes_ogs.tif
102
RTVSPost2010PropOp54
 70
     1
102
RTVSPost2010Prop55
280
     0
102
RTVSPost2010PropOp55
 70
     1
102
RTVSPost2010Prop56
140
1.0
102
RTVSPost2010PropOp56
 70
     1
102
RTVSPost2010Prop57
140
1.0
102
RTVSPost2010PropOp57
 70
     1
102
RTVSPropertyOp0
 70
     1
102
RTVSPropertyOp1
 70
     1
102
RTVSPropertyOp2
 70
     1
102
RTVSPropertyOp3
 70
     1
102
RTVSPropertyOp4
 70
     1
102
RTVSPropertyOp5
 70
     1
102
RTVSPropertyOp6
 70
     1
102
RTVSPropertyOp7
 70
     1
102
RTVSPropertyOp8
 70
     1
102
RTVSPropertyOp9
 70
     1
102
RTVSPropertyOp10
 70
     1
102
RTVSPropertyOp11
 70
     1
102
RTVSPropertyOp12
 70
     1
102
RTVSPropertyOp13
 70
     1
102
RTVSPropertyOp14
 70
     1
102
RTVSPropertyOp15
 70
     1
102
RTVSPropertyOp16
 70
     1
102
RTVSPropertyOp17
 70
     1
102
RTVSPropertyOp18
 70
     1
102
RTVSPropertyOp19
 70
     1
102
RTVSPropertyOp20
 70
     1
102
RTVSPropertyOp21
 70
     1
102
RTVSPropertyOp22
 70
     1
102
RTVSPropertyOp23
 70
     1
102
RTVSPropertyOp24
 70
     1
102
RTVSPropertyOp25
 70
     1
102
RTVSPropertyOp26
 70
     1
102
RTVSPropertyOp27
 70
     1
102
RTVSPropertyOp28
 70
     1
102
RTVSPropertyOp29
 70
     1
102
RTVSPropertyOp30
 70
     1
102
RTVSPropertyOp31
 70
     1
102
RTVSPropertyOp32
 70
     1
102
RTVSPropertyOp33
 70
     1
102
RTVSPropertyOp34
 70
     1
102
RTVSPropertyOp35
 70
     1
102
RTVSPropertyOp36
 70
     1
102
RTVSPropertyOp37
 70
     1
102
RTVSPropertyOp38
 70
     1
102
RTVSPropertyOp39
 70
     1
102
RTVSPropertyOp40
 70
     1
102
RTVSPropertyOp41
 70
     1
102
RTVSPropertyOp42
 70
     1
102
RTVSPropertyOp43
 70
     1
102
RTVSPropertyOp44
 70
     1
102
RTVSPropertyOp45
 70
     1
102
RTVSPropertyOp46
 70
     1
102
RTVSPropertyOp47
 70
     1
102
RTVSPropertyOp48
 70
     1
102
RTVSPropertyOp49
 70
     1
102
RTVSPropertyOp50
 70
     1
102
RTVSPropertyOp51
 70
     0
102
RTVSPropertyOp52
 70
     0
102
RTVSPropertyOp53
 70
     1
102
RTVSPropertyOp54
 70
     1
102
RTVSPropertyOp55
 70
     1
102
RTVSPropertyOp56
 70
     1
102
RTVSPropertyOp57
 70
     1
102
RTVSPropertyOp58
 70
     1
102
RTVSPropertyOp59
 70
     1
102
RTVSPropertyOp60
 70
     1
102
RTVSPropertyOp61
 70
     1
102
RTVSPropertyOp62
 70
     1
  0
XRECORD
  5
E7098
102
{ACAD_REACTORS
330
E7097
102
}
330
E7097
100
AcDbXrecord
280
     1
102
RTVSPost2010Prop28
280
     0
102
RTVSPost2010PropOp28
 70
     1
102
RTVSPost2010Prop29
280
     1
102
RTVSPost2010PropOp29
 70
     1
102
RTVSPost2010Prop30
280
     1
102
RTVSPost2010PropOp30
 70
     1
102
RTVSPost2010Prop31
280
     0
102
RTVSPost2010PropOp31
 70
     1
102
RTVSPost2010Prop32
280
     0
102
RTVSPost2010PropOp32
 70
     1
102
RTVSPost2010Prop33
280
     0
102
RTVSPost2010PropOp33
 70
     1
102
RTVSPost2010Prop34
280
     0
102
RTVSPost2010PropOp34
 70
     1
102
RTVSPost2010Prop35
280
     0
102
RTVSPost2010PropOp35
 70
     1
102
RTVSPost2010Prop36
280
     0
102
RTVSPost2010PropOp36
 70
     1
102
RTVSPost2010Prop37
 90
       50
102
RTVSPost2010PropOp37
 70
     1
102
RTVSPost2010Prop38
140
0.0
102
RTVSPost2010PropOp38
 70
     1
102
RTVSPost2010Prop39
140
1.0
102
RTVSPost2010PropOp39
 70
     1
102
RTVSPost2010Prop40
 90
        0
102
RTVSPost2010PropOp40
 70
     1
102
RTVSPost2010Prop41ColorIndex
 90
       18
102
RTVSPost2010Prop41ColorRGB
 90
        0
102
RTVSPost2010PropOp41
 70
     1
102
RTVSPost2010Prop42
 90
       50
102
RTVSPost2010PropOp42
 70
     1
102
RTVSPost2010Prop43
 90
        3
102
RTVSPost2010PropOp43
 70
     1
102
RTVSPost2010Prop44ColorIndex
 90
        5
102
RTVSPost2010Prop44ColorRGB
 90
      255
102
RTVSPost2010PropOp44
 70
     1
102
RTVSPost2010Prop45
280
     0
102
RTVSPost2010PropOp45
 70
     1
102
RTVSPost2010Prop46
 90
       50
102
RTVSPost2010PropOp46
 70
     1
102
RTVSPost2010Prop47
 90
       50
102
RTVSPost2010PropOp47
 70
     1
102
RTVSPost2010Prop48
 90
       50
102
RTVSPost2010PropOp48
 70
     1
102
RTVSPost2010Prop49
280
     0
102
RTVSPost2010PropOp49
 70
     1
102
RTVSPost2010Prop50
 90
       50
102
RTVSPost2010PropOp50
 70
     1
102
RTVSPost2010Prop51ColorIndex
 90
      256
102
RTVSPost2010Prop51ColorRGB
 90
-16777216
102
RTVSPost2010PropOp51
 70
     0
102
RTVSPost2010Prop52
140
1.0
102
RTVSPost2010PropOp52
 70
     0
102
RTVSPost2010Prop53
 90
        2
102
RTVSPost2010PropOp53
 70
     1
102
RTVSPost2010Prop54
  1
strokes_ogs.tif
102
RTVSPost2010PropOp54
 70
     1
102
RTVSPost2010Prop55
280
     0
102
RTVSPost2010PropOp55
 70
     1
102
RTVSPost2010Prop56
140
1.0
102
RTVSPost2010PropOp56
 70
     1
102
RTVSPost2010Prop57
140
1.0
102
RTVSPost2010PropOp57
 70
     1
102
RTVSPropertyOp0
 70
     1
102
RTVSPropertyOp1
 70
     1
102
RTVSPropertyOp2
 70
     1
102
RTVSPropertyOp3
 70
     1
102
RTVSPropertyOp4
 70
     1
102
RTVSPropertyOp5
 70
     1
102
RTVSPropertyOp6
 70
     1
102
RTVSPropertyOp7
 70
     1
102
RTVSPropertyOp8
 70
     1
102
RTVSPropertyOp9
 70
     1
102
RTVSPropertyOp10
 70
     1
102
RTVSPropertyOp11
 70
     1
102
RTVSPropertyOp12
 70
     1
102
RTVSPropertyOp13
 70
     1
102
RTVSPropertyOp14
 70
     1
102
RTVSPropertyOp15
 70
     1
102
RTVSPropertyOp16
 70
     1
102
RTVSPropertyOp17
 70
     1
102
RTVSPropertyOp18
 70
     1
102
RTVSPropertyOp19
 70
     1
102
RTVSPropertyOp20
 70
     1
102
RTVSPropertyOp21
 70
     1
102
RTVSPropertyOp22
 70
     1
102
RTVSPropertyOp23
 70
     1
102
RTVSPropertyOp24
 70
     1
102
RTVSPropertyOp25
 70
     1
102
RTVSPropertyOp26
 70
     1
102
RTVSPropertyOp27
 70
     1
102
RTVSPropertyOp28
 70
     1
102
RTVSPropertyOp29
 70
     1
102
RTVSPropertyOp30
 70
     1
102
RTVSPropertyOp31
 70
     1
102
RTVSPropertyOp32
 70
     1
102
RTVSPropertyOp33
 70
     1
102
RTVSPropertyOp34
 70
     1
102
RTVSPropertyOp35
 70
     1
102
RTVSPropertyOp36
 70
     1
102
RTVSPropertyOp37
 70
     1
102
RTVSPropertyOp38
 70
     1
102
RTVSPropertyOp39
 70
     1
102
RTVSPropertyOp40
 70
     1
102
RTVSPropertyOp41
 70
     1
102
RTVSPropertyOp42
 70
     1
102
RTVSPropertyOp43
 70
     1
102
RTVSPropertyOp44
 70
     1
102
RTVSPropertyOp45
 70
     1
102
RTVSPropertyOp46
 70
     1
102
RTVSPropertyOp47
 70
     1
102
RTVSPropertyOp48
 70
     1
102
RTVSPropertyOp49
 70
     1
102
RTVSPropertyOp50
 70
     1
102
RTVSPropertyOp51
 70
     0
102
RTVSPropertyOp52
 70
     0
102
RTVSPropertyOp53
 70
     1
102
RTVSPropertyOp54
 70
     1
102
RTVSPropertyOp55
 70
     1
102
RTVSPropertyOp56
 70
     1
102
RTVSPropertyOp57
 70
     1
102
RTVSPropertyOp58
 70
     1
102
RTVSPropertyOp59
 70
     1
102
RTVSPropertyOp60
 70
     1
102
RTVSPropertyOp61
 70
     1
102
RTVSPropertyOp62
 70
     1
  0
XRECORD
  5
E70A6
102
{ACAD_REACTORS
330
E70A5
102
}
330
E70A5
100
AcDbXrecord
280
     1
102
RTVSPost2010Prop28
280
     0
102
RTVSPost2010PropOp28
 70
     1
102
RTVSPost2010Prop29
280
     1
102
RTVSPost2010PropOp29
 70
     1
102
RTVSPost2010Prop30
280
     1
102
RTVSPost2010PropOp30
 70
     1
102
RTVSPost2010Prop31
280
     0
102
RTVSPost2010PropOp31
 70
     1
102
RTVSPost2010Prop32
280
     0
102
RTVSPost2010PropOp32
 70
     1
102
RTVSPost2010Prop33
280
     0
102
RTVSPost2010PropOp33
 70
     1
102
RTVSPost2010Prop34
280
     0
102
RTVSPost2010PropOp34
 70
     1
102
RTVSPost2010Prop35
280
     0
102
RTVSPost2010PropOp35
 70
     1
102
RTVSPost2010Prop36
280
     0
102
RTVSPost2010PropOp36
 70
     1
102
RTVSPost2010Prop37
 90
       50
102
RTVSPost2010PropOp37
 70
     1
102
RTVSPost2010Prop38
140
0.0
102
RTVSPost2010PropOp38
 70
     1
102
RTVSPost2010Prop39
140
1.0
102
RTVSPost2010PropOp39
 70
     1
102
RTVSPost2010Prop40
 90
        0
102
RTVSPost2010PropOp40
 70
     1
102
RTVSPost2010Prop41ColorIndex
 90
       18
102
RTVSPost2010Prop41ColorRGB
 90
        0
102
RTVSPost2010PropOp41
 70
     1
102
RTVSPost2010Prop42
 90
       50
102
RTVSPost2010PropOp42
 70
     1
102
RTVSPost2010Prop43
 90
        3
102
RTVSPost2010PropOp43
 70
     1
102
RTVSPost2010Prop44ColorIndex
 90
        5
102
RTVSPost2010Prop44ColorRGB
 90
      255
102
RTVSPost2010PropOp44
 70
     1
102
RTVSPost2010Prop45
280
     0
102
RTVSPost2010PropOp45
 70
     1
102
RTVSPost2010Prop46
 90
       50
102
RTVSPost2010PropOp46
 70
     1
102
RTVSPost2010Prop47
 90
       50
102
RTVSPost2010PropOp47
 70
     1
102
RTVSPost2010Prop48
 90
       50
102
RTVSPost2010PropOp48
 70
     1
102
RTVSPost2010Prop49
280
     0
102
RTVSPost2010PropOp49
 70
     1
102
RTVSPost2010Prop50
 90
       50
102
RTVSPost2010PropOp50
 70
     1
102
RTVSPost2010Prop51ColorIndex
 90
      256
102
RTVSPost2010Prop51ColorRGB
 90
-16777216
102
RTVSPost2010PropOp51
 70
     0
102
RTVSPost2010Prop52
140
1.0
102
RTVSPost2010PropOp52
 70
     0
102
RTVSPost2010Prop53
 90
        2
102
RTVSPost2010PropOp53
 70
     1
102
RTVSPost2010Prop54
  1
strokes_ogs.tif
102
RTVSPost2010PropOp54
 70
     1
102
RTVSPost2010Prop55
280
     0
102
RTVSPost2010PropOp55
 70
     1
102
RTVSPost2010Prop56
140
1.0
102
RTVSPost2010PropOp56
 70
     1
102
RTVSPost2010Prop57
140
1.0
102
RTVSPost2010PropOp57
 70
     1
102
RTVSPropertyOp0
 70
     1
102
RTVSPropertyOp1
 70
     1
102
RTVSPropertyOp2
 70
     1
102
RTVSPropertyOp3
 70
     1
102
RTVSPropertyOp4
 70
     1
102
RTVSPropertyOp5
 70
     1
102
RTVSPropertyOp6
 70
     1
102
RTVSPropertyOp7
 70
     1
102
RTVSPropertyOp8
 70
     1
102
RTVSPropertyOp9
 70
     1
102
RTVSPropertyOp10
 70
     1
102
RTVSPropertyOp11
 70
     1
102
RTVSPropertyOp12
 70
     1
102
RTVSPropertyOp13
 70
     1
102
RTVSPropertyOp14
 70
     1
102
RTVSPropertyOp15
 70
     1
102
RTVSPropertyOp16
 70
     1
102
RTVSPropertyOp17
 70
     1
102
RTVSPropertyOp18
 70
     1
102
RTVSPropertyOp19
 70
     1
102
RTVSPropertyOp20
 70
     1
102
RTVSPropertyOp21
 70
     1
102
RTVSPropertyOp22
 70
     1
102
RTVSPropertyOp23
 70
     1
102
RTVSPropertyOp24
 70
     1
102
RTVSPropertyOp25
 70
     1
102
RTVSPropertyOp26
 70
     1
102
RTVSPropertyOp27
 70
     1
102
RTVSPropertyOp28
 70
     1
102
RTVSPropertyOp29
 70
     1
102
RTVSPropertyOp30
 70
     1
102
RTVSPropertyOp31
 70
     1
102
RTVSPropertyOp32
 70
     1
102
RTVSPropertyOp33
 70
     1
102
RTVSPropertyOp34
 70
     1
102
RTVSPropertyOp35
 70
     1
102
RTVSPropertyOp36
 70
     1
102
RTVSPropertyOp37
 70
     1
102
RTVSPropertyOp38
 70
     1
102
RTVSPropertyOp39
 70
     1
102
RTVSPropertyOp40
 70
     1
102
RTVSPropertyOp41
 70
     1
102
RTVSPropertyOp42
 70
     1
102
RTVSPropertyOp43
 70
     1
102
RTVSPropertyOp44
 70
     1
102
RTVSPropertyOp45
 70
     1
102
RTVSPropertyOp46
 70
     1
102
RTVSPropertyOp47
 70
     1
102
RTVSPropertyOp48
 70
     1
102
RTVSPropertyOp49
 70
     1
102
RTVSPropertyOp50
 70
     1
102
RTVSPropertyOp51
 70
     0
102
RTVSPropertyOp52
 70
     0
102
RTVSPropertyOp53
 70
     1
102
RTVSPropertyOp54
 70
     1
102
RTVSPropertyOp55
 70
     1
102
RTVSPropertyOp56
 70
     1
102
RTVSPropertyOp57
 70
     1
102
RTVSPropertyOp58
 70
     1
102
RTVSPropertyOp59
 70
     1
102
RTVSPropertyOp60
 70
     1
102
RTVSPropertyOp61
 70
     1
102
RTVSPropertyOp62
 70
     1
  0
XRECORD
  5
E70AE
102
{ACAD_REACTORS
330
E70AD
102
}
330
E70AD
100
AcDbXrecord
280
     1
102
RTVSPost2010Prop28
280
     0
102
RTVSPost2010PropOp28
 70
     1
102
RTVSPost2010Prop29
280
     1
102
RTVSPost2010PropOp29
 70
     1
102
RTVSPost2010Prop30
280
     1
102
RTVSPost2010PropOp30
 70
     1
102
RTVSPost2010Prop31
280
     0
102
RTVSPost2010PropOp31
 70
     1
102
RTVSPost2010Prop32
280
     0
102
RTVSPost2010PropOp32
 70
     1
102
RTVSPost2010Prop33
280
     0
102
RTVSPost2010PropOp33
 70
     1
102
RTVSPost2010Prop34
280
     0
102
RTVSPost2010PropOp34
 70
     1
102
RTVSPost2010Prop35
280
     0
102
RTVSPost2010PropOp35
 70
     1
102
RTVSPost2010Prop36
280
     0
102
RTVSPost2010PropOp36
 70
     1
102
RTVSPost2010Prop37
 90
       50
102
RTVSPost2010PropOp37
 70
     1
102
RTVSPost2010Prop38
140
0.0
102
RTVSPost2010PropOp38
 70
     1
102
RTVSPost2010Prop39
140
1.0
102
RTVSPost2010PropOp39
 70
     1
102
RTVSPost2010Prop40
 90
        0
102
RTVSPost2010PropOp40
 70
     1
102
RTVSPost2010Prop41ColorIndex
 90
       18
102
RTVSPost2010Prop41ColorRGB
 90
        0
102
RTVSPost2010PropOp41
 70
     1
102
RTVSPost2010Prop42
 90
       50
102
RTVSPost2010PropOp42
 70
     1
102
RTVSPost2010Prop43
 90
        3
102
RTVSPost2010PropOp43
 70
     1
102
RTVSPost2010Prop44ColorIndex
 90
        5
102
RTVSPost2010Prop44ColorRGB
 90
      255
102
RTVSPost2010PropOp44
 70
     1
102
RTVSPost2010Prop45
280
     0
102
RTVSPost2010PropOp45
 70
     1
102
RTVSPost2010Prop46
 90
       50
102
RTVSPost2010PropOp46
 70
     1
102
RTVSPost2010Prop47
 90
       50
102
RTVSPost2010PropOp47
 70
     1
102
RTVSPost2010Prop48
 90
       50
102
RTVSPost2010PropOp48
 70
     1
102
RTVSPost2010Prop49
280
     0
102
RTVSPost2010PropOp49
 70
     1
102
RTVSPost2010Prop50
 90
       50
102
RTVSPost2010PropOp50
 70
     1
102
RTVSPost2010Prop51ColorIndex
 90
      256
102
RTVSPost2010Prop51ColorRGB
 90
-16777216
102
RTVSPost2010PropOp51
 70
     0
102
RTVSPost2010Prop52
140
1.0
102
RTVSPost2010PropOp52
 70
     0
102
RTVSPost2010Prop53
 90
        2
102
RTVSPost2010PropOp53
 70
     1
102
RTVSPost2010Prop54
  1
strokes_ogs.tif
102
RTVSPost2010PropOp54
 70
     1
102
RTVSPost2010Prop55
280
     0
102
RTVSPost2010PropOp55
 70
     1
102
RTVSPost2010Prop56
140
1.0
102
RTVSPost2010PropOp56
 70
     1
102
RTVSPost2010Prop57
140
1.0
102
RTVSPost2010PropOp57
 70
     1
102
RTVSPropertyOp0
 70
     1
102
RTVSPropertyOp1
 70
     1
102
RTVSPropertyOp2
 70
     1
102
RTVSPropertyOp3
 70
     1
102
RTVSPropertyOp4
 70
     1
102
RTVSPropertyOp5
 70
     1
102
RTVSPropertyOp6
 70
     1
102
RTVSPropertyOp7
 70
     1
102
RTVSPropertyOp8
 70
     1
102
RTVSPropertyOp9
 70
     1
102
RTVSPropertyOp10
 70
     1
102
RTVSPropertyOp11
 70
     1
102
RTVSPropertyOp12
 70
     1
102
RTVSPropertyOp13
 70
     1
102
RTVSPropertyOp14
 70
     1
102
RTVSPropertyOp15
 70
     1
102
RTVSPropertyOp16
 70
     1
102
RTVSPropertyOp17
 70
     1
102
RTVSPropertyOp18
 70
     1
102
RTVSPropertyOp19
 70
     1
102
RTVSPropertyOp20
 70
     1
102
RTVSPropertyOp21
 70
     1
102
RTVSPropertyOp22
 70
     1
102
RTVSPropertyOp23
 70
     1
102
RTVSPropertyOp24
 70
     1
102
RTVSPropertyOp25
 70
     1
102
RTVSPropertyOp26
 70
     1
102
RTVSPropertyOp27
 70
     1
102
RTVSPropertyOp28
 70
     1
102
RTVSPropertyOp29
 70
     1
102
RTVSPropertyOp30
 70
     1
102
RTVSPropertyOp31
 70
     1
102
RTVSPropertyOp32
 70
     1
102
RTVSPropertyOp33
 70
     1
102
RTVSPropertyOp34
 70
     1
102
RTVSPropertyOp35
 70
     1
102
RTVSPropertyOp36
 70
     1
102
RTVSPropertyOp37
 70
     1
102
RTVSPropertyOp38
 70
     1
102
RTVSPropertyOp39
 70
     1
102
RTVSPropertyOp40
 70
     1
102
RTVSPropertyOp41
 70
     1
102
RTVSPropertyOp42
 70
     1
102
RTVSPropertyOp43
 70
     1
102
RTVSPropertyOp44
 70
     1
102
RTVSPropertyOp45
 70
     1
102
RTVSPropertyOp46
 70
     1
102
RTVSPropertyOp47
 70
     1
102
RTVSPropertyOp48
 70
     1
102
RTVSPropertyOp49
 70
     1
102
RTVSPropertyOp50
 70
     1
102
RTVSPropertyOp51
 70
     0
102
RTVSPropertyOp52
 70
     0
102
RTVSPropertyOp53
 70
     1
102
RTVSPropertyOp54
 70
     1
102
RTVSPropertyOp55
 70
     1
102
RTVSPropertyOp56
 70
     1
102
RTVSPropertyOp57
 70
     1
102
RTVSPropertyOp58
 70
     1
102
RTVSPropertyOp59
 70
     1
102
RTVSPropertyOp60
 70
     1
102
RTVSPropertyOp61
 70
     1
102
RTVSPropertyOp62
 70
     1
  0
XRECORD
  5
E70A0
102
{ACAD_REACTORS
330
E709F
102
}
330
E709F
100
AcDbXrecord
280
     1
102
RTVSPost2010Prop28
280
     0
102
RTVSPost2010PropOp28
 70
     1
102
RTVSPost2010Prop29
280
     1
102
RTVSPost2010PropOp29
 70
     1
102
RTVSPost2010Prop30
280
     1
102
RTVSPost2010PropOp30
 70
     1
102
RTVSPost2010Prop31
280
     0
102
RTVSPost2010PropOp31
 70
     1
102
RTVSPost2010Prop32
280
     0
102
RTVSPost2010PropOp32
 70
     1
102
RTVSPost2010Prop33
280
     0
102
RTVSPost2010PropOp33
 70
     1
102
RTVSPost2010Prop34
280
     0
102
RTVSPost2010PropOp34
 70
     1
102
RTVSPost2010Prop35
280
     0
102
RTVSPost2010PropOp35
 70
     1
102
RTVSPost2010Prop36
280
     0
102
RTVSPost2010PropOp36
 70
     1
102
RTVSPost2010Prop37
 90
       50
102
RTVSPost2010PropOp37
 70
     1
102
RTVSPost2010Prop38
140
0.0
102
RTVSPost2010PropOp38
 70
     1
102
RTVSPost2010Prop39
140
1.0
102
RTVSPost2010PropOp39
 70
     1
102
RTVSPost2010Prop40
 90
        0
102
RTVSPost2010PropOp40
 70
     1
102
RTVSPost2010Prop41ColorIndex
 90
       18
102
RTVSPost2010Prop41ColorRGB
 90
        0
102
RTVSPost2010PropOp41
 70
     1
102
RTVSPost2010Prop42
 90
       50
102
RTVSPost2010PropOp42
 70
     1
102
RTVSPost2010Prop43
 90
        3
102
RTVSPost2010PropOp43
 70
     1
102
RTVSPost2010Prop44ColorIndex
 90
        5
102
RTVSPost2010Prop44ColorRGB
 90
      255
102
RTVSPost2010PropOp44
 70
     1
102
RTVSPost2010Prop45
280
     0
102
RTVSPost2010PropOp45
 70
     1
102
RTVSPost2010Prop46
 90
       50
102
RTVSPost2010PropOp46
 70
     1
102
RTVSPost2010Prop47
 90
       50
102
RTVSPost2010PropOp47
 70
     1
102
RTVSPost2010Prop48
 90
       50
102
RTVSPost2010PropOp48
 70
     1
102
RTVSPost2010Prop49
280
     0
102
RTVSPost2010PropOp49
 70
     1
102
RTVSPost2010Prop50
 90
       50
102
RTVSPost2010PropOp50
 70
     1
102
RTVSPost2010Prop51ColorIndex
 90
      256
102
RTVSPost2010Prop51ColorRGB
 90
-16777216
102
RTVSPost2010PropOp51
 70
     0
102
RTVSPost2010Prop52
140
1.0
102
RTVSPost2010PropOp52
 70
     0
102
RTVSPost2010Prop53
 90
        2
102
RTVSPost2010PropOp53
 70
     1
102
RTVSPost2010Prop54
  1
strokes_ogs.tif
102
RTVSPost2010PropOp54
 70
     1
102
RTVSPost2010Prop55
280
     0
102
RTVSPost2010PropOp55
 70
     1
102
RTVSPost2010Prop56
140
1.0
102
RTVSPost2010PropOp56
 70
     1
102
RTVSPost2010Prop57
140
1.0
102
RTVSPost2010PropOp57
 70
     1
102
RTVSPropertyOp0
 70
     1
102
RTVSPropertyOp1
 70
     1
102
RTVSPropertyOp2
 70
     1
102
RTVSPropertyOp3
 70
     1
102
RTVSPropertyOp4
 70
     1
102
RTVSPropertyOp5
 70
     1
102
RTVSPropertyOp6
 70
     1
102
RTVSPropertyOp7
 70
     1
102
RTVSPropertyOp8
 70
     1
102
RTVSPropertyOp9
 70
     1
102
RTVSPropertyOp10
 70
     1
102
RTVSPropertyOp11
 70
     1
102
RTVSPropertyOp12
 70
     1
102
RTVSPropertyOp13
 70
     1
102
RTVSPropertyOp14
 70
     1
102
RTVSPropertyOp15
 70
     1
102
RTVSPropertyOp16
 70
     1
102
RTVSPropertyOp17
 70
     1
102
RTVSPropertyOp18
 70
     1
102
RTVSPropertyOp19
 70
     1
102
RTVSPropertyOp20
 70
     1
102
RTVSPropertyOp21
 70
     1
102
RTVSPropertyOp22
 70
     1
102
RTVSPropertyOp23
 70
     1
102
RTVSPropertyOp24
 70
     1
102
RTVSPropertyOp25
 70
     1
102
RTVSPropertyOp26
 70
     1
102
RTVSPropertyOp27
 70
     1
102
RTVSPropertyOp28
 70
     1
102
RTVSPropertyOp29
 70
     1
102
RTVSPropertyOp30
 70
     1
102
RTVSPropertyOp31
 70
     1
102
RTVSPropertyOp32
 70
     1
102
RTVSPropertyOp33
 70
     1
102
RTVSPropertyOp34
 70
     1
102
RTVSPropertyOp35
 70
     1
102
RTVSPropertyOp36
 70
     1
102
RTVSPropertyOp37
 70
     1
102
RTVSPropertyOp38
 70
     1
102
RTVSPropertyOp39
 70
     1
102
RTVSPropertyOp40
 70
     1
102
RTVSPropertyOp41
 70
     1
102
RTVSPropertyOp42
 70
     1
102
RTVSPropertyOp43
 70
     1
102
RTVSPropertyOp44
 70
     1
102
RTVSPropertyOp45
 70
     1
102
RTVSPropertyOp46
 70
     1
102
RTVSPropertyOp47
 70
     1
102
RTVSPropertyOp48
 70
     1
102
RTVSPropertyOp49
 70
     1
102
RTVSPropertyOp50
 70
     1
102
RTVSPropertyOp51
 70
     0
102
RTVSPropertyOp52
 70
     0
102
RTVSPropertyOp53
 70
     1
102
RTVSPropertyOp54
 70
     1
102
RTVSPropertyOp55
 70
     1
102
RTVSPropertyOp56
 70
     1
102
RTVSPropertyOp57
 70
     1
102
RTVSPropertyOp58
 70
     1
102
RTVSPropertyOp59
 70
     1
102
RTVSPropertyOp60
 70
     1
102
RTVSPropertyOp61
 70
     1
102
RTVSPropertyOp62
 70
     1
  0
XRECORD
  5
E70A4
102
{ACAD_REACTORS
330
E70A3
102
}
330
E70A3
100
AcDbXrecord
280
     1
102
RTVSPost2010Prop28
280
     0
102
RTVSPost2010PropOp28
 70
     1
102
RTVSPost2010Prop29
280
     1
102
RTVSPost2010PropOp29
 70
     1
102
RTVSPost2010Prop30
280
     1
102
RTVSPost2010PropOp30
 70
     1
102
RTVSPost2010Prop31
280
     0
102
RTVSPost2010PropOp31
 70
     1
102
RTVSPost2010Prop32
280
     0
102
RTVSPost2010PropOp32
 70
     1
102
RTVSPost2010Prop33
280
     0
102
RTVSPost2010PropOp33
 70
     1
102
RTVSPost2010Prop34
280
     0
102
RTVSPost2010PropOp34
 70
     1
102
RTVSPost2010Prop35
280
     0
102
RTVSPost2010PropOp35
 70
     1
102
RTVSPost2010Prop36
280
     0
102
RTVSPost2010PropOp36
 70
     1
102
RTVSPost2010Prop37
 90
       50
102
RTVSPost2010PropOp37
 70
     1
102
RTVSPost2010Prop38
140
0.0
102
RTVSPost2010PropOp38
 70
     1
102
RTVSPost2010Prop39
140
1.0
102
RTVSPost2010PropOp39
 70
     1
102
RTVSPost2010Prop40
 90
        0
102
RTVSPost2010PropOp40
 70
     1
102
RTVSPost2010Prop41ColorIndex
 90
       18
102
RTVSPost2010Prop41ColorRGB
 90
        0
102
RTVSPost2010PropOp41
 70
     1
102
RTVSPost2010Prop42
 90
       50
102
RTVSPost2010PropOp42
 70
     1
102
RTVSPost2010Prop43
 90
        3
102
RTVSPost2010PropOp43
 70
     1
102
RTVSPost2010Prop44ColorIndex
 90
        5
102
RTVSPost2010Prop44ColorRGB
 90
      255
102
RTVSPost2010PropOp44
 70
     1
102
RTVSPost2010Prop45
280
     0
102
RTVSPost2010PropOp45
 70
     1
102
RTVSPost2010Prop46
 90
       50
102
RTVSPost2010PropOp46
 70
     1
102
RTVSPost2010Prop47
 90
       50
102
RTVSPost2010PropOp47
 70
     1
102
RTVSPost2010Prop48
 90
       50
102
RTVSPost2010PropOp48
 70
     1
102
RTVSPost2010Prop49
280
     0
102
RTVSPost2010PropOp49
 70
     1
102
RTVSPost2010Prop50
 90
       50
102
RTVSPost2010PropOp50
 70
     1
102
RTVSPost2010Prop51ColorIndex
 90
      256
102
RTVSPost2010Prop51ColorRGB
 90
-16777216
102
RTVSPost2010PropOp51
 70
     0
102
RTVSPost2010Prop52
140
1.0
102
RTVSPost2010PropOp52
 70
     0
102
RTVSPost2010Prop53
 90
        2
102
RTVSPost2010PropOp53
 70
     1
102
RTVSPost2010Prop54
  1
strokes_ogs.tif
102
RTVSPost2010PropOp54
 70
     1
102
RTVSPost2010Prop55
280
     0
102
RTVSPost2010PropOp55
 70
     1
102
RTVSPost2010Prop56
140
1.0
102
RTVSPost2010PropOp56
 70
     1
102
RTVSPost2010Prop57
140
1.0
102
RTVSPost2010PropOp57
 70
     1
102
RTVSPropertyOp0
 70
     1
102
RTVSPropertyOp1
 70
     1
102
RTVSPropertyOp2
 70
     1
102
RTVSPropertyOp3
 70
     1
102
RTVSPropertyOp4
 70
     1
102
RTVSPropertyOp5
 70
     1
102
RTVSPropertyOp6
 70
     1
102
RTVSPropertyOp7
 70
     1
102
RTVSPropertyOp8
 70
     1
102
RTVSPropertyOp9
 70
     1
102
RTVSPropertyOp10
 70
     1
102
RTVSPropertyOp11
 70
     1
102
RTVSPropertyOp12
 70
     1
102
RTVSPropertyOp13
 70
     1
102
RTVSPropertyOp14
 70
     1
102
RTVSPropertyOp15
 70
     1
102
RTVSPropertyOp16
 70
     1
102
RTVSPropertyOp17
 70
     1
102
RTVSPropertyOp18
 70
     1
102
RTVSPropertyOp19
 70
     1
102
RTVSPropertyOp20
 70
     1
102
RTVSPropertyOp21
 70
     1
102
RTVSPropertyOp22
 70
     1
102
RTVSPropertyOp23
 70
     1
102
RTVSPropertyOp24
 70
     1
102
RTVSPropertyOp25
 70
     1
102
RTVSPropertyOp26
 70
     1
102
RTVSPropertyOp27
 70
     1
102
RTVSPropertyOp28
 70
     1
102
RTVSPropertyOp29
 70
     1
102
RTVSPropertyOp30
 70
     1
102
RTVSPropertyOp31
 70
     1
102
RTVSPropertyOp32
 70
     1
102
RTVSPropertyOp33
 70
     1
102
RTVSPropertyOp34
 70
     1
102
RTVSPropertyOp35
 70
     1
102
RTVSPropertyOp36
 70
     1
102
RTVSPropertyOp37
 70
     1
102
RTVSPropertyOp38
 70
     1
102
RTVSPropertyOp39
 70
     1
102
RTVSPropertyOp40
 70
     1
102
RTVSPropertyOp41
 70
     1
102
RTVSPropertyOp42
 70
     1
102
RTVSPropertyOp43
 70
     1
102
RTVSPropertyOp44
 70
     1
102
RTVSPropertyOp45
 70
     1
102
RTVSPropertyOp46
 70
     1
102
RTVSPropertyOp47
 70
     1
102
RTVSPropertyOp48
 70
     1
102
RTVSPropertyOp49
 70
     1
102
RTVSPropertyOp50
 70
     1
102
RTVSPropertyOp51
 70
     0
102
RTVSPropertyOp52
 70
     0
102
RTVSPropertyOp53
 70
     1
102
RTVSPropertyOp54
 70
     1
102
RTVSPropertyOp55
 70
     1
102
RTVSPropertyOp56
 70
     1
102
RTVSPropertyOp57
 70
     1
102
RTVSPropertyOp58
 70
     1
102
RTVSPropertyOp59
 70
     1
102
RTVSPropertyOp60
 70
     1
102
RTVSPropertyOp61
 70
     1
102
RTVSPropertyOp62
 70
     1
  0
XRECORD
  5
E70B4
102
{ACAD_REACTORS
330
E70B3
102
}
330
E70B3
100
AcDbXrecord
280
     1
102
RTVSPost2010Prop28
280
     0
102
RTVSPost2010PropOp28
 70
     1
102
RTVSPost2010Prop29
280
     1
102
RTVSPost2010PropOp29
 70
     1
102
RTVSPost2010Prop30
280
     1
102
RTVSPost2010PropOp30
 70
     1
102
RTVSPost2010Prop31
280
     0
102
RTVSPost2010PropOp31
 70
     1
102
RTVSPost2010Prop32
280
     0
102
RTVSPost2010PropOp32
 70
     1
102
RTVSPost2010Prop33
280
     0
102
RTVSPost2010PropOp33
 70
     1
102
RTVSPost2010Prop34
280
     0
102
RTVSPost2010PropOp34
 70
     1
102
RTVSPost2010Prop35
280
     0
102
RTVSPost2010PropOp35
 70
     1
102
RTVSPost2010Prop36
280
     0
102
RTVSPost2010PropOp36
 70
     1
102
RTVSPost2010Prop37
 90
       50
102
RTVSPost2010PropOp37
 70
     1
102
RTVSPost2010Prop38
140
0.0
102
RTVSPost2010PropOp38
 70
     1
102
RTVSPost2010Prop39
140
1.0
102
RTVSPost2010PropOp39
 70
     1
102
RTVSPost2010Prop40
 90
        0
102
RTVSPost2010PropOp40
 70
     1
102
RTVSPost2010Prop41ColorIndex
 90
       18
102
RTVSPost2010Prop41ColorRGB
 90
        0
102
RTVSPost2010PropOp41
 70
     1
102
RTVSPost2010Prop42
 90
       50
102
RTVSPost2010PropOp42
 70
     1
102
RTVSPost2010Prop43
 90
        3
102
RTVSPost2010PropOp43
 70
     1
102
RTVSPost2010Prop44ColorIndex
 90
        5
102
RTVSPost2010Prop44ColorRGB
 90
      255
102
RTVSPost2010PropOp44
 70
     1
102
RTVSPost2010Prop45
280
     0
102
RTVSPost2010PropOp45
 70
     1
102
RTVSPost2010Prop46
 90
       50
102
RTVSPost2010PropOp46
 70
     1
102
RTVSPost2010Prop47
 90
       50
102
RTVSPost2010PropOp47
 70
     1
102
RTVSPost2010Prop48
 90
       50
102
RTVSPost2010PropOp48
 70
     1
102
RTVSPost2010Prop49
280
     0
102
RTVSPost2010PropOp49
 70
     1
102
RTVSPost2010Prop50
 90
       50
102
RTVSPost2010PropOp50
 70
     1
102
RTVSPost2010Prop51ColorIndex
 90
      256
102
RTVSPost2010Prop51ColorRGB
 90
-16777216
102
RTVSPost2010PropOp51
 70
     0
102
RTVSPost2010Prop52
140
1.0
102
RTVSPost2010PropOp52
 70
     0
102
RTVSPost2010Prop53
 90
        2
102
RTVSPost2010PropOp53
 70
     1
102
RTVSPost2010Prop54
  1
strokes_ogs.tif
102
RTVSPost2010PropOp54
 70
     1
102
RTVSPost2010Prop55
280
     0
102
RTVSPost2010PropOp55
 70
     1
102
RTVSPost2010Prop56
140
1.0
102
RTVSPost2010PropOp56
 70
     1
102
RTVSPost2010Prop57
140
1.0
102
RTVSPost2010PropOp57
 70
     1
102
RTVSPropertyOp0
 70
     0
102
RTVSPropertyOp1
 70
     0
102
RTVSPropertyOp2
 70
     0
102
RTVSPropertyOp3
 70
     0
102
RTVSPropertyOp4
 70
     0
102
RTVSPropertyOp5
 70
     0
102
RTVSPropertyOp6
 70
     0
102
RTVSPropertyOp7
 70
     0
102
RTVSPropertyOp8
 70
     0
102
RTVSPropertyOp9
 70
     0
102
RTVSPropertyOp10
 70
     0
102
RTVSPropertyOp11
 70
     0
102
RTVSPropertyOp12
 70
     0
102
RTVSPropertyOp13
 70
     0
102
RTVSPropertyOp14
 70
     2
102
RTVSPropertyOp15
 70
     0
102
RTVSPropertyOp16
 70
     0
102
RTVSPropertyOp17
 70
     0
102
RTVSPropertyOp18
 70
     0
102
RTVSPropertyOp19
 70
     0
102
RTVSPropertyOp20
 70
     0
102
RTVSPropertyOp21
 70
     0
102
RTVSPropertyOp22
 70
     0
102
RTVSPropertyOp23
 70
     0
102
RTVSPropertyOp24
 70
     0
102
RTVSPropertyOp25
 70
     0
102
RTVSPropertyOp26
 70
     0
102
RTVSPropertyOp27
 70
     0
102
RTVSPropertyOp28
 70
     1
102
RTVSPropertyOp29
 70
     1
102
RTVSPropertyOp30
 70
     1
102
RTVSPropertyOp31
 70
     1
102
RTVSPropertyOp32
 70
     1
102
RTVSPropertyOp33
 70
     1
102
RTVSPropertyOp34
 70
     1
102
RTVSPropertyOp35
 70
     1
102
RTVSPropertyOp36
 70
     1
102
RTVSPropertyOp37
 70
     1
102
RTVSPropertyOp38
 70
     1
102
RTVSPropertyOp39
 70
     1
102
RTVSPropertyOp40
 70
     1
102
RTVSPropertyOp41
 70
     1
102
RTVSPropertyOp42
 70
     1
102
RTVSPropertyOp43
 70
     1
102
RTVSPropertyOp44
 70
     1
102
RTVSPropertyOp45
 70
     1
102
RTVSPropertyOp46
 70
     1
102
RTVSPropertyOp47
 70
     1
102
RTVSPropertyOp48
 70
     1
102
RTVSPropertyOp49
 70
     1
102
RTVSPropertyOp50
 70
     1
102
RTVSPropertyOp51
 70
     0
102
RTVSPropertyOp52
 70
     0
102
RTVSPropertyOp53
 70
     1
102
RTVSPropertyOp54
 70
     1
102
RTVSPropertyOp55
 70
     1
102
RTVSPropertyOp56
 70
     1
102
RTVSPropertyOp57
 70
     1
102
RTVSPropertyOp58
 70
     1
102
RTVSPropertyOp59
 70
     1
102
RTVSPropertyOp60
 70
     1
102
RTVSPropertyOp61
 70
     1
102
RTVSPropertyOp62
 70
     1
  0
XRECORD
  5
E70AC
102
{ACAD_REACTORS
330
E70AB
102
}
330
E70AB
100
AcDbXrecord
280
     1
102
RTVSPost2010Prop28
280
     0
102
RTVSPost2010PropOp28
 70
     1
102
RTVSPost2010Prop29
280
     1
102
RTVSPost2010PropOp29
 70
     1
102
RTVSPost2010Prop30
280
     1
102
RTVSPost2010PropOp30
 70
     1
102
RTVSPost2010Prop31
280
     0
102
RTVSPost2010PropOp31
 70
     1
102
RTVSPost2010Prop32
280
     0
102
RTVSPost2010PropOp32
 70
     1
102
RTVSPost2010Prop33
280
     0
102
RTVSPost2010PropOp33
 70
     1
102
RTVSPost2010Prop34
280
     0
102
RTVSPost2010PropOp34
 70
     1
102
RTVSPost2010Prop35
280
     0
102
RTVSPost2010PropOp35
 70
     1
102
RTVSPost2010Prop36
280
     0
102
RTVSPost2010PropOp36
 70
     1
102
RTVSPost2010Prop37
 90
       50
102
RTVSPost2010PropOp37
 70
     1
102
RTVSPost2010Prop38
140
0.0
102
RTVSPost2010PropOp38
 70
     1
102
RTVSPost2010Prop39
140
1.0
102
RTVSPost2010PropOp39
 70
     1
102
RTVSPost2010Prop40
 90
        0
102
RTVSPost2010PropOp40
 70
     1
102
RTVSPost2010Prop41ColorIndex
 90
       18
102
RTVSPost2010Prop41ColorRGB
 90
        0
102
RTVSPost2010PropOp41
 70
     1
102
RTVSPost2010Prop42
 90
       50
102
RTVSPost2010PropOp42
 70
     1
102
RTVSPost2010Prop43
 90
        3
102
RTVSPost2010PropOp43
 70
     1
102
RTVSPost2010Prop44ColorIndex
 90
        5
102
RTVSPost2010Prop44ColorRGB
 90
      255
102
RTVSPost2010PropOp44
 70
     1
102
RTVSPost2010Prop45
280
     0
102
RTVSPost2010PropOp45
 70
     1
102
RTVSPost2010Prop46
 90
       50
102
RTVSPost2010PropOp46
 70
     1
102
RTVSPost2010Prop47
 90
       50
102
RTVSPost2010PropOp47
 70
     1
102
RTVSPost2010Prop48
 90
       50
102
RTVSPost2010PropOp48
 70
     1
102
RTVSPost2010Prop49
280
     0
102
RTVSPost2010PropOp49
 70
     1
102
RTVSPost2010Prop50
 90
       50
102
RTVSPost2010PropOp50
 70
     1
102
RTVSPost2010Prop51ColorIndex
 90
      256
102
RTVSPost2010Prop51ColorRGB
 90
-16777216
102
RTVSPost2010PropOp51
 70
     0
102
RTVSPost2010Prop52
140
1.0
102
RTVSPost2010PropOp52
 70
     0
102
RTVSPost2010Prop53
 90
        2
102
RTVSPost2010PropOp53
 70
     1
102
RTVSPost2010Prop54
  1
strokes_ogs.tif
102
RTVSPost2010PropOp54
 70
     1
102
RTVSPost2010Prop55
280
     0
102
RTVSPost2010PropOp55
 70
     1
102
RTVSPost2010Prop56
140
1.0
102
RTVSPost2010PropOp56
 70
     1
102
RTVSPost2010Prop57
140
1.0
102
RTVSPost2010PropOp57
 70
     1
102
RTVSPropertyOp0
 70
     1
102
RTVSPropertyOp1
 70
     1
102
RTVSPropertyOp2
 70
     1
102
RTVSPropertyOp3
 70
     1
102
RTVSPropertyOp4
 70
     1
102
RTVSPropertyOp5
 70
     1
102
RTVSPropertyOp6
 70
     1
102
RTVSPropertyOp7
 70
     1
102
RTVSPropertyOp8
 70
     1
102
RTVSPropertyOp9
 70
     1
102
RTVSPropertyOp10
 70
     1
102
RTVSPropertyOp11
 70
     1
102
RTVSPropertyOp12
 70
     1
102
RTVSPropertyOp13
 70
     1
102
RTVSPropertyOp14
 70
     1
102
RTVSPropertyOp15
 70
     1
102
RTVSPropertyOp16
 70
     1
102
RTVSPropertyOp17
 70
     1
102
RTVSPropertyOp18
 70
     1
102
RTVSPropertyOp19
 70
     1
102
RTVSPropertyOp20
 70
     1
102
RTVSPropertyOp21
 70
     1
102
RTVSPropertyOp22
 70
     1
102
RTVSPropertyOp23
 70
     1
102
RTVSPropertyOp24
 70
     1
102
RTVSPropertyOp25
 70
     1
102
RTVSPropertyOp26
 70
     1
102
RTVSPropertyOp27
 70
     1
102
RTVSPropertyOp28
 70
     1
102
RTVSPropertyOp29
 70
     1
102
RTVSPropertyOp30
 70
     1
102
RTVSPropertyOp31
 70
     1
102
RTVSPropertyOp32
 70
     1
102
RTVSPropertyOp33
 70
     1
102
RTVSPropertyOp34
 70
     1
102
RTVSPropertyOp35
 70
     1
102
RTVSPropertyOp36
 70
     1
102
RTVSPropertyOp37
 70
     1
102
RTVSPropertyOp38
 70
     1
102
RTVSPropertyOp39
 70
     1
102
RTVSPropertyOp40
 70
     1
102
RTVSPropertyOp41
 70
     1
102
RTVSPropertyOp42
 70
     1
102
RTVSPropertyOp43
 70
     1
102
RTVSPropertyOp44
 70
     1
102
RTVSPropertyOp45
 70
     1
102
RTVSPropertyOp46
 70
     1
102
RTVSPropertyOp47
 70
     1
102
RTVSPropertyOp48
 70
     1
102
RTVSPropertyOp49
 70
     1
102
RTVSPropertyOp50
 70
     1
102
RTVSPropertyOp51
 70
     0
102
RTVSPropertyOp52
 70
     0
102
RTVSPropertyOp53
 70
     1
102
RTVSPropertyOp54
 70
     1
102
RTVSPropertyOp55
 70
     1
102
RTVSPropertyOp56
 70
     1
102
RTVSPropertyOp57
 70
     1
102
RTVSPropertyOp58
 70
     1
102
RTVSPropertyOp59
 70
     1
102
RTVSPropertyOp60
 70
     1
102
RTVSPropertyOp61
 70
     1
102
RTVSPropertyOp62
 70
     1
  0
XRECORD
  5
E7090
102
{ACAD_REACTORS
330
E708F
102
}
330
E708F
100
AcDbXrecord
280
     1
102
RTVSPost2010Prop28
280
     0
102
RTVSPost2010PropOp28
 70
     1
102
RTVSPost2010Prop29
280
     1
102
RTVSPost2010PropOp29
 70
     1
102
RTVSPost2010Prop30
280
     1
102
RTVSPost2010PropOp30
 70
     1
102
RTVSPost2010Prop31
280
     0
102
RTVSPost2010PropOp31
 70
     1
102
RTVSPost2010Prop32
280
     0
102
RTVSPost2010PropOp32
 70
     1
102
RTVSPost2010Prop33
280
     0
102
RTVSPost2010PropOp33
 70
     1
102
RTVSPost2010Prop34
280
     0
102
RTVSPost2010PropOp34
 70
     1
102
RTVSPost2010Prop35
280
     0
102
RTVSPost2010PropOp35
 70
     1
102
RTVSPost2010Prop36
280
     0
102
RTVSPost2010PropOp36
 70
     1
102
RTVSPost2010Prop37
 90
       50
102
RTVSPost2010PropOp37
 70
     1
102
RTVSPost2010Prop38
140
0.0
102
RTVSPost2010PropOp38
 70
     1
102
RTVSPost2010Prop39
140
1.0
102
RTVSPost2010PropOp39
 70
     1
102
RTVSPost2010Prop40
 90
        0
102
RTVSPost2010PropOp40
 70
     1
102
RTVSPost2010Prop41ColorIndex
 90
       18
102
RTVSPost2010Prop41ColorRGB
 90
        0
102
RTVSPost2010PropOp41
 70
     1
102
RTVSPost2010Prop42
 90
       50
102
RTVSPost2010PropOp42
 70
     1
102
RTVSPost2010Prop43
 90
        3
102
RTVSPost2010PropOp43
 70
     1
102
RTVSPost2010Prop44ColorIndex
 90
        5
102
RTVSPost2010Prop44ColorRGB
 90
      255
102
RTVSPost2010PropOp44
 70
     1
102
RTVSPost2010Prop45
280
     0
102
RTVSPost2010PropOp45
 70
     1
102
RTVSPost2010Prop46
 90
       50
102
RTVSPost2010PropOp46
 70
     1
102
RTVSPost2010Prop47
 90
       50
102
RTVSPost2010PropOp47
 70
     1
102
RTVSPost2010Prop48
 90
       50
102
RTVSPost2010PropOp48
 70
     1
102
RTVSPost2010Prop49
280
     0
102
RTVSPost2010PropOp49
 70
     1
102
RTVSPost2010Prop50
 90
       50
102
RTVSPost2010PropOp50
 70
     1
102
RTVSPost2010Prop51ColorIndex
 90
      256
102
RTVSPost2010Prop51ColorRGB
 90
-16777216
102
RTVSPost2010PropOp51
 70
     0
102
RTVSPost2010Prop52
140
1.0
102
RTVSPost2010PropOp52
 70
     0
102
RTVSPost2010Prop53
 90
        2
102
RTVSPost2010PropOp53
 70
     1
102
RTVSPost2010Prop54
  1
strokes_ogs.tif
102
RTVSPost2010PropOp54
 70
     1
102
RTVSPost2010Prop55
280
     0
102
RTVSPost2010PropOp55
 70
     1
102
RTVSPost2010Prop56
140
1.0
102
RTVSPost2010PropOp56
 70
     1
102
RTVSPost2010Prop57
140
1.0
102
RTVSPost2010PropOp57
 70
     1
102
RTVSPropertyOp0
 70
     1
102
RTVSPropertyOp1
 70
     1
102
RTVSPropertyOp2
 70
     1
102
RTVSPropertyOp3
 70
     1
102
RTVSPropertyOp4
 70
     1
102
RTVSPropertyOp5
 70
     1
102
RTVSPropertyOp6
 70
     1
102
RTVSPropertyOp7
 70
     1
102
RTVSPropertyOp8
 70
     1
102
RTVSPropertyOp9
 70
     1
102
RTVSPropertyOp10
 70
     1
102
RTVSPropertyOp11
 70
     1
102
RTVSPropertyOp12
 70
     1
102
RTVSPropertyOp13
 70
     1
102
RTVSPropertyOp14
 70
     1
102
RTVSPropertyOp15
 70
     1
102
RTVSPropertyOp16
 70
     1
102
RTVSPropertyOp17
 70
     1
102
RTVSPropertyOp18
 70
     1
102
RTVSPropertyOp19
 70
     1
102
RTVSPropertyOp20
 70
     1
102
RTVSPropertyOp21
 70
     1
102
RTVSPropertyOp22
 70
     1
102
RTVSPropertyOp23
 70
     1
102
RTVSPropertyOp24
 70
     1
102
RTVSPropertyOp25
 70
     1
102
RTVSPropertyOp26
 70
     1
102
RTVSPropertyOp27
 70
     1
102
RTVSPropertyOp28
 70
     1
102
RTVSPropertyOp29
 70
     1
102
RTVSPropertyOp30
 70
     1
102
RTVSPropertyOp31
 70
     1
102
RTVSPropertyOp32
 70
     1
102
RTVSPropertyOp33
 70
     1
102
RTVSPropertyOp34
 70
     1
102
RTVSPropertyOp35
 70
     1
102
RTVSPropertyOp36
 70
     1
102
RTVSPropertyOp37
 70
     1
102
RTVSPropertyOp38
 70
     1
102
RTVSPropertyOp39
 70
     1
102
RTVSPropertyOp40
 70
     1
102
RTVSPropertyOp41
 70
     1
102
RTVSPropertyOp42
 70
     1
102
RTVSPropertyOp43
 70
     1
102
RTVSPropertyOp44
 70
     1
102
RTVSPropertyOp45
 70
     1
102
RTVSPropertyOp46
 70
     1
102
RTVSPropertyOp47
 70
     1
102
RTVSPropertyOp48
 70
     1
102
RTVSPropertyOp49
 70
     1
102
RTVSPropertyOp50
 70
     1
102
RTVSPropertyOp51
 70
     0
102
RTVSPropertyOp52
 70
     0
102
RTVSPropertyOp53
 70
     1
102
RTVSPropertyOp54
 70
     1
102
RTVSPropertyOp55
 70
     1
102
RTVSPropertyOp56
 70
     1
102
RTVSPropertyOp57
 70
     1
102
RTVSPropertyOp58
 70
     1
102
RTVSPropertyOp59
 70
     1
102
RTVSPropertyOp60
 70
     1
102
RTVSPropertyOp61
 70
     1
102
RTVSPropertyOp62
 70
     1
  0
XRECORD
  5
E7092
102
{ACAD_REACTORS
330
E7091
102
}
330
E7091
100
AcDbXrecord
280
     1
102
RTVSPost2010Prop28
280
     0
102
RTVSPost2010PropOp28
 70
     1
102
RTVSPost2010Prop29
280
     1
102
RTVSPost2010PropOp29
 70
     1
102
RTVSPost2010Prop30
280
     1
102
RTVSPost2010PropOp30
 70
     1
102
RTVSPost2010Prop31
280
     0
102
RTVSPost2010PropOp31
 70
     1
102
RTVSPost2010Prop32
280
     0
102
RTVSPost2010PropOp32
 70
     1
102
RTVSPost2010Prop33
280
     0
102
RTVSPost2010PropOp33
 70
     1
102
RTVSPost2010Prop34
280
     0
102
RTVSPost2010PropOp34
 70
     1
102
RTVSPost2010Prop35
280
     0
102
RTVSPost2010PropOp35
 70
     1
102
RTVSPost2010Prop36
280
     0
102
RTVSPost2010PropOp36
 70
     1
102
RTVSPost2010Prop37
 90
       50
102
RTVSPost2010PropOp37
 70
     1
102
RTVSPost2010Prop38
140
0.0
102
RTVSPost2010PropOp38
 70
     1
102
RTVSPost2010Prop39
140
1.0
102
RTVSPost2010PropOp39
 70
     1
102
RTVSPost2010Prop40
 90
        0
102
RTVSPost2010PropOp40
 70
     1
102
RTVSPost2010Prop41ColorIndex
 90
       18
102
RTVSPost2010Prop41ColorRGB
 90
        0
102
RTVSPost2010PropOp41
 70
     1
102
RTVSPost2010Prop42
 90
       50
102
RTVSPost2010PropOp42
 70
     1
102
RTVSPost2010Prop43
 90
        3
102
RTVSPost2010PropOp43
 70
     1
102
RTVSPost2010Prop44ColorIndex
 90
        5
102
RTVSPost2010Prop44ColorRGB
 90
      255
102
RTVSPost2010PropOp44
 70
     1
102
RTVSPost2010Prop45
280
     0
102
RTVSPost2010PropOp45
 70
     1
102
RTVSPost2010Prop46
 90
       50
102
RTVSPost2010PropOp46
 70
     1
102
RTVSPost2010Prop47
 90
       50
102
RTVSPost2010PropOp47
 70
     1
102
RTVSPost2010Prop48
 90
       50
102
RTVSPost2010PropOp48
 70
     1
102
RTVSPost2010Prop49
280
     0
102
RTVSPost2010PropOp49
 70
     1
102
RTVSPost2010Prop50
 90
       50
102
RTVSPost2010PropOp50
 70
     1
102
RTVSPost2010Prop51ColorIndex
 90
      256
102
RTVSPost2010Prop51ColorRGB
 90
-16777216
102
RTVSPost2010PropOp51
 70
     0
102
RTVSPost2010Prop52
140
1.0
102
RTVSPost2010PropOp52
 70
     0
102
RTVSPost2010Prop53
 90
        2
102
RTVSPost2010PropOp53
 70
     1
102
RTVSPost2010Prop54
  1
strokes_ogs.tif
102
RTVSPost2010PropOp54
 70
     1
102
RTVSPost2010Prop55
280
     0
102
RTVSPost2010PropOp55
 70
     1
102
RTVSPost2010Prop56
140
1.0
102
RTVSPost2010PropOp56
 70
     1
102
RTVSPost2010Prop57
140
1.0
102
RTVSPost2010PropOp57
 70
     1
102
RTVSPropertyOp0
 70
     1
102
RTVSPropertyOp1
 70
     1
102
RTVSPropertyOp2
 70
     1
102
RTVSPropertyOp3
 70
     1
102
RTVSPropertyOp4
 70
     1
102
RTVSPropertyOp5
 70
     1
102
RTVSPropertyOp6
 70
     1
102
RTVSPropertyOp7
 70
     1
102
RTVSPropertyOp8
 70
     1
102
RTVSPropertyOp9
 70
     1
102
RTVSPropertyOp10
 70
     1
102
RTVSPropertyOp11
 70
     1
102
RTVSPropertyOp12
 70
     1
102
RTVSPropertyOp13
 70
     1
102
RTVSPropertyOp14
 70
     1
102
RTVSPropertyOp15
 70
     1
102
RTVSPropertyOp16
 70
     1
102
RTVSPropertyOp17
 70
     1
102
RTVSPropertyOp18
 70
     1
102
RTVSPropertyOp19
 70
     1
102
RTVSPropertyOp20
 70
     1
102
RTVSPropertyOp21
 70
     1
102
RTVSPropertyOp22
 70
     1
102
RTVSPropertyOp23
 70
     1
102
RTVSPropertyOp24
 70
     1
102
RTVSPropertyOp25
 70
     1
102
RTVSPropertyOp26
 70
     1
102
RTVSPropertyOp27
 70
     1
102
RTVSPropertyOp28
 70
     1
102
RTVSPropertyOp29
 70
     1
102
RTVSPropertyOp30
 70
     1
102
RTVSPropertyOp31
 70
     1
102
RTVSPropertyOp32
 70
     1
102
RTVSPropertyOp33
 70
     1
102
RTVSPropertyOp34
 70
     1
102
RTVSPropertyOp35
 70
     1
102
RTVSPropertyOp36
 70
     1
102
RTVSPropertyOp37
 70
     1
102
RTVSPropertyOp38
 70
     1
102
RTVSPropertyOp39
 70
     1
102
RTVSPropertyOp40
 70
     1
102
RTVSPropertyOp41
 70
     1
102
RTVSPropertyOp42
 70
     1
102
RTVSPropertyOp43
 70
     1
102
RTVSPropertyOp44
 70
     1
102
RTVSPropertyOp45
 70
     1
102
RTVSPropertyOp46
 70
     1
102
RTVSPropertyOp47
 70
     1
102
RTVSPropertyOp48
 70
     1
102
RTVSPropertyOp49
 70
     1
102
RTVSPropertyOp50
 70
     1
102
RTVSPropertyOp51
 70
     0
102
RTVSPropertyOp52
 70
     0
102
RTVSPropertyOp53
 70
     1
102
RTVSPropertyOp54
 70
     1
102
RTVSPropertyOp55
 70
     1
102
RTVSPropertyOp56
 70
     1
102
RTVSPropertyOp57
 70
     1
102
RTVSPropertyOp58
 70
     1
102
RTVSPropertyOp59
 70
     1
102
RTVSPropertyOp60
 70
     1
102
RTVSPropertyOp61
 70
     1
102
RTVSPropertyOp62
 70
     1
  0
XRECORD
  5
E7094
102
{ACAD_REACTORS
330
E7093
102
}
330
E7093
100
AcDbXrecord
280
     1
102
RTVSPost2010Prop28
280
     0
102
RTVSPost2010PropOp28
 70
     1
102
RTVSPost2010Prop29
280
     1
102
RTVSPost2010PropOp29
 70
     1
102
RTVSPost2010Prop30
280
     1
102
RTVSPost2010PropOp30
 70
     1
102
RTVSPost2010Prop31
280
     0
102
RTVSPost2010PropOp31
 70
     1
102
RTVSPost2010Prop32
280
     0
102
RTVSPost2010PropOp32
 70
     1
102
RTVSPost2010Prop33
280
     0
102
RTVSPost2010PropOp33
 70
     1
102
RTVSPost2010Prop34
280
     0
102
RTVSPost2010PropOp34
 70
     1
102
RTVSPost2010Prop35
280
     0
102
RTVSPost2010PropOp35
 70
     1
102
RTVSPost2010Prop36
280
     0
102
RTVSPost2010PropOp36
 70
     1
102
RTVSPost2010Prop37
 90
       50
102
RTVSPost2010PropOp37
 70
     1
102
RTVSPost2010Prop38
140
0.0
102
RTVSPost2010PropOp38
 70
     1
102
RTVSPost2010Prop39
140
1.0
102
RTVSPost2010PropOp39
 70
     1
102
RTVSPost2010Prop40
 90
        0
102
RTVSPost2010PropOp40
 70
     1
102
RTVSPost2010Prop41ColorIndex
 90
       18
102
RTVSPost2010Prop41ColorRGB
 90
        0
102
RTVSPost2010PropOp41
 70
     1
102
RTVSPost2010Prop42
 90
       50
102
RTVSPost2010PropOp42
 70
     1
102
RTVSPost2010Prop43
 90
        3
102
RTVSPost2010PropOp43
 70
     1
102
RTVSPost2010Prop44ColorIndex
 90
        5
102
RTVSPost2010Prop44ColorRGB
 90
      255
102
RTVSPost2010PropOp44
 70
     1
102
RTVSPost2010Prop45
280
     0
102
RTVSPost2010PropOp45
 70
     1
102
RTVSPost2010Prop46
 90
       50
102
RTVSPost2010PropOp46
 70
     1
102
RTVSPost2010Prop47
 90
       50
102
RTVSPost2010PropOp47
 70
     1
102
RTVSPost2010Prop48
 90
       50
102
RTVSPost2010PropOp48
 70
     1
102
RTVSPost2010Prop49
280
     0
102
RTVSPost2010PropOp49
 70
     1
102
RTVSPost2010Prop50
 90
       50
102
RTVSPost2010PropOp50
 70
     1
102
RTVSPost2010Prop51ColorIndex
 90
      256
102
RTVSPost2010Prop51ColorRGB
 90
-16777216
102
RTVSPost2010PropOp51
 70
     0
102
RTVSPost2010Prop52
140
1.0
102
RTVSPost2010PropOp52
 70
     0
102
RTVSPost2010Prop53
 90
        2
102
RTVSPost2010PropOp53
 70
     1
102
RTVSPost2010Prop54
  1
strokes_ogs.tif
102
RTVSPost2010PropOp54
 70
     1
102
RTVSPost2010Prop55
280
     0
102
RTVSPost2010PropOp55
 70
     1
102
RTVSPost2010Prop56
140
1.0
102
RTVSPost2010PropOp56
 70
     1
102
RTVSPost2010Prop57
140
1.0
102
RTVSPost2010PropOp57
 70
     1
102
RTVSPropertyOp0
 70
     1
102
RTVSPropertyOp1
 70
     1
102
RTVSPropertyOp2
 70
     1
102
RTVSPropertyOp3
 70
     1
102
RTVSPropertyOp4
 70
     1
102
RTVSPropertyOp5
 70
     1
102
RTVSPropertyOp6
 70
     1
102
RTVSPropertyOp7
 70
     1
102
RTVSPropertyOp8
 70
     1
102
RTVSPropertyOp9
 70
     1
102
RTVSPropertyOp10
 70
     1
102
RTVSPropertyOp11
 70
     1
102
RTVSPropertyOp12
 70
     1
102
RTVSPropertyOp13
 70
     1
102
RTVSPropertyOp14
 70
     1
102
RTVSPropertyOp15
 70
     1
102
RTVSPropertyOp16
 70
     1
102
RTVSPropertyOp17
 70
     1
102
RTVSPropertyOp18
 70
     1
102
RTVSPropertyOp19
 70
     1
102
RTVSPropertyOp20
 70
     1
102
RTVSPropertyOp21
 70
     1
102
RTVSPropertyOp22
 70
     1
102
RTVSPropertyOp23
 70
     1
102
RTVSPropertyOp24
 70
     1
102
RTVSPropertyOp25
 70
     1
102
RTVSPropertyOp26
 70
     1
102
RTVSPropertyOp27
 70
     1
102
RTVSPropertyOp28
 70
     1
102
RTVSPropertyOp29
 70
     1
102
RTVSPropertyOp30
 70
     1
102
RTVSPropertyOp31
 70
     1
102
RTVSPropertyOp32
 70
     1
102
RTVSPropertyOp33
 70
     1
102
RTVSPropertyOp34
 70
     1
102
RTVSPropertyOp35
 70
     1
102
RTVSPropertyOp36
 70
     1
102
RTVSPropertyOp37
 70
     1
102
RTVSPropertyOp38
 70
     1
102
RTVSPropertyOp39
 70
     1
102
RTVSPropertyOp40
 70
     1
102
RTVSPropertyOp41
 70
     1
102
RTVSPropertyOp42
 70
     1
102
RTVSPropertyOp43
 70
     1
102
RTVSPropertyOp44
 70
     1
102
RTVSPropertyOp45
 70
     1
102
RTVSPropertyOp46
 70
     1
102
RTVSPropertyOp47
 70
     1
102
RTVSPropertyOp48
 70
     1
102
RTVSPropertyOp49
 70
     1
102
RTVSPropertyOp50
 70
     1
102
RTVSPropertyOp51
 70
     0
102
RTVSPropertyOp52
 70
     0
102
RTVSPropertyOp53
 70
     1
102
RTVSPropertyOp54
 70
     1
102
RTVSPropertyOp55
 70
     1
102
RTVSPropertyOp56
 70
     1
102
RTVSPropertyOp57
 70
     1
102
RTVSPropertyOp58
 70
     1
102
RTVSPropertyOp59
 70
     1
102
RTVSPropertyOp60
 70
     1
102
RTVSPropertyOp61
 70
     1
102
RTVSPropertyOp62
 70
     1
  0
XRECORD
  5
E7096
102
{ACAD_REACTORS
330
E7095
102
}
330
E7095
100
AcDbXrecord
280
     1
102
RTVSPost2010Prop28
280
     0
102
RTVSPost2010PropOp28
 70
     1
102
RTVSPost2010Prop29
280
     1
102
RTVSPost2010PropOp29
 70
     1
102
RTVSPost2010Prop30
280
     1
102
RTVSPost2010PropOp30
 70
     1
102
RTVSPost2010Prop31
280
     0
102
RTVSPost2010PropOp31
 70
     1
102
RTVSPost2010Prop32
280
     0
102
RTVSPost2010PropOp32
 70
     1
102
RTVSPost2010Prop33
280
     0
102
RTVSPost2010PropOp33
 70
     1
102
RTVSPost2010Prop34
280
     0
102
RTVSPost2010PropOp34
 70
     1
102
RTVSPost2010Prop35
280
     0
102
RTVSPost2010PropOp35
 70
     1
102
RTVSPost2010Prop36
280
     0
102
RTVSPost2010PropOp36
 70
     1
102
RTVSPost2010Prop37
 90
       50
102
RTVSPost2010PropOp37
 70
     1
102
RTVSPost2010Prop38
140
0.0
102
RTVSPost2010PropOp38
 70
     1
102
RTVSPost2010Prop39
140
1.0
102
RTVSPost2010PropOp39
 70
     1
102
RTVSPost2010Prop40
 90
        0
102
RTVSPost2010PropOp40
 70
     1
102
RTVSPost2010Prop41ColorIndex
 90
       18
102
RTVSPost2010Prop41ColorRGB
 90
        0
102
RTVSPost2010PropOp41
 70
     1
102
RTVSPost2010Prop42
 90
       50
102
RTVSPost2010PropOp42
 70
     1
102
RTVSPost2010Prop43
 90
        3
102
RTVSPost2010PropOp43
 70
     1
102
RTVSPost2010Prop44ColorIndex
 90
        5
102
RTVSPost2010Prop44ColorRGB
 90
      255
102
RTVSPost2010PropOp44
 70
     1
102
RTVSPost2010Prop45
280
     0
102
RTVSPost2010PropOp45
 70
     1
102
RTVSPost2010Prop46
 90
       50
102
RTVSPost2010PropOp46
 70
     1
102
RTVSPost2010Prop47
 90
       50
102
RTVSPost2010PropOp47
 70
     1
102
RTVSPost2010Prop48
 90
       50
102
RTVSPost2010PropOp48
 70
     1
102
RTVSPost2010Prop49
280
     0
102
RTVSPost2010PropOp49
 70
     1
102
RTVSPost2010Prop50
 90
       50
102
RTVSPost2010PropOp50
 70
     1
102
RTVSPost2010Prop51ColorIndex
 90
      256
102
RTVSPost2010Prop51ColorRGB
 90
-16777216
102
RTVSPost2010PropOp51
 70
     0
102
RTVSPost2010Prop52
140
1.0
102
RTVSPost2010PropOp52
 70
     0
102
RTVSPost2010Prop53
 90
        2
102
RTVSPost2010PropOp53
 70
     1
102
RTVSPost2010Prop54
  1
strokes_ogs.tif
102
RTVSPost2010PropOp54
 70
     1
102
RTVSPost2010Prop55
280
     0
102
RTVSPost2010PropOp55
 70
     1
102
RTVSPost2010Prop56
140
1.0
102
RTVSPost2010PropOp56
 70
     1
102
RTVSPost2010Prop57
140
1.0
102
RTVSPost2010PropOp57
 70
     1
102
RTVSPropertyOp0
 70
     1
102
RTVSPropertyOp1
 70
     1
102
RTVSPropertyOp2
 70
     1
102
RTVSPropertyOp3
 70
     1
102
RTVSPropertyOp4
 70
     1
102
RTVSPropertyOp5
 70
     1
102
RTVSPropertyOp6
 70
     1
102
RTVSPropertyOp7
 70
     1
102
RTVSPropertyOp8
 70
     1
102
RTVSPropertyOp9
 70
     1
102
RTVSPropertyOp10
 70
     1
102
RTVSPropertyOp11
 70
     1
102
RTVSPropertyOp12
 70
     1
102
RTVSPropertyOp13
 70
     1
102
RTVSPropertyOp14
 70
     1
102
RTVSPropertyOp15
 70
     1
102
RTVSPropertyOp16
 70
     1
102
RTVSPropertyOp17
 70
     1
102
RTVSPropertyOp18
 70
     1
102
RTVSPropertyOp19
 70
     1
102
RTVSPropertyOp20
 70
     1
102
RTVSPropertyOp21
 70
     1
102
RTVSPropertyOp22
 70
     1
102
RTVSPropertyOp23
 70
     1
102
RTVSPropertyOp24
 70
     1
102
RTVSPropertyOp25
 70
     1
102
RTVSPropertyOp26
 70
     1
102
RTVSPropertyOp27
 70
     1
102
RTVSPropertyOp28
 70
     1
102
RTVSPropertyOp29
 70
     1
102
RTVSPropertyOp30
 70
     1
102
RTVSPropertyOp31
 70
     1
102
RTVSPropertyOp32
 70
     1
102
RTVSPropertyOp33
 70
     1
102
RTVSPropertyOp34
 70
     1
102
RTVSPropertyOp35
 70
     1
102
RTVSPropertyOp36
 70
     1
102
RTVSPropertyOp37
 70
     1
102
RTVSPropertyOp38
 70
     1
102
RTVSPropertyOp39
 70
     1
102
RTVSPropertyOp40
 70
     1
102
RTVSPropertyOp41
 70
     1
102
RTVSPropertyOp42
 70
     1
102
RTVSPropertyOp43
 70
     1
102
RTVSPropertyOp44
 70
     1
102
RTVSPropertyOp45
 70
     1
102
RTVSPropertyOp46
 70
     1
102
RTVSPropertyOp47
 70
     1
102
RTVSPropertyOp48
 70
     1
102
RTVSPropertyOp49
 70
     1
102
RTVSPropertyOp50
 70
     1
102
RTVSPropertyOp51
 70
     0
102
RTVSPropertyOp52
 70
     0
102
RTVSPropertyOp53
 70
     1
102
RTVSPropertyOp54
 70
     1
102
RTVSPropertyOp55
 70
     1
102
RTVSPropertyOp56
 70
     1
102
RTVSPropertyOp57
 70
     1
102
RTVSPropertyOp58
 70
     1
102
RTVSPropertyOp59
 70
     1
102
RTVSPropertyOp60
 70
     1
102
RTVSPropertyOp61
 70
     1
102
RTVSPropertyOp62
 70
     1
  0
XRECORD
  5
E70B9
102
{ACAD_REACTORS
330
E70B8
102
}
330
E70B8
100
AcDbXrecord
280
     1
102
RTVSPost2010Prop28
280
     0
102
RTVSPost2010PropOp28
 70
     1
102
RTVSPost2010Prop29
280
     1
102
RTVSPost2010PropOp29
 70
     1
102
RTVSPost2010Prop30
280
     1
102
RTVSPost2010PropOp30
 70
     1
102
RTVSPost2010Prop31
280
     0
102
RTVSPost2010PropOp31
 70
     1
102
RTVSPost2010Prop32
280
     0
102
RTVSPost2010PropOp32
 70
     1
102
RTVSPost2010Prop33
280
     0
102
RTVSPost2010PropOp33
 70
     1
102
RTVSPost2010Prop34
280
     0
102
RTVSPost2010PropOp34
 70
     1
102
RTVSPost2010Prop35
280
     0
102
RTVSPost2010PropOp35
 70
     1
102
RTVSPost2010Prop36
280
     0
102
RTVSPost2010PropOp36
 70
     1
102
RTVSPost2010Prop37
 90
       50
102
RTVSPost2010PropOp37
 70
     1
102
RTVSPost2010Prop38
140
0.0
102
RTVSPost2010PropOp38
 70
     1
102
RTVSPost2010Prop39
140
1.0
102
RTVSPost2010PropOp39
 70
     1
102
RTVSPost2010Prop40
 90
        0
102
RTVSPost2010PropOp40
 70
     1
102
RTVSPost2010Prop41ColorIndex
 90
       18
102
RTVSPost2010Prop41ColorRGB
 90
        0
102
RTVSPost2010PropOp41
 70
     1
102
RTVSPost2010Prop42
 90
       50
102
RTVSPost2010PropOp42
 70
     1
102
RTVSPost2010Prop43
 90
        3
102
RTVSPost2010PropOp43
 70
     1
102
RTVSPost2010Prop44ColorIndex
 90
        5
102
RTVSPost2010Prop44ColorRGB
 90
      255
102
RTVSPost2010PropOp44
 70
     1
102
RTVSPost2010Prop45
280
     0
102
RTVSPost2010PropOp45
 70
     1
102
RTVSPost2010Prop46
 90
       50
102
RTVSPost2010PropOp46
 70
     1
102
RTVSPost2010Prop47
 90
       50
102
RTVSPost2010PropOp47
 70
     1
102
RTVSPost2010Prop48
 90
       50
102
RTVSPost2010PropOp48
 70
     1
102
RTVSPost2010Prop49
280
     0
102
RTVSPost2010PropOp49
 70
     1
102
RTVSPost2010Prop50
 90
       50
102
RTVSPost2010PropOp50
 70
     1
102
RTVSPost2010Prop51ColorIndex
 90
      256
102
RTVSPost2010Prop51ColorRGB
 90
-16777216
102
RTVSPost2010PropOp51
 70
     0
102
RTVSPost2010Prop52
140
1.0
102
RTVSPost2010PropOp52
 70
     0
102
RTVSPost2010Prop53
 90
        2
102
RTVSPost2010PropOp53
 70
     1
102
RTVSPost2010Prop54
  1
strokes_ogs.tif
102
RTVSPost2010PropOp54
 70
     1
102
RTVSPost2010Prop55
280
     0
102
RTVSPost2010PropOp55
 70
     1
102
RTVSPost2010Prop56
140
1.0
102
RTVSPost2010PropOp56
 70
     1
102
RTVSPost2010Prop57
140
1.0
102
RTVSPost2010PropOp57
 70
     1
102
RTVSPropertyOp0
 70
     1
102
RTVSPropertyOp1
 70
     1
102
RTVSPropertyOp2
 70
     1
102
RTVSPropertyOp3
 70
     1
102
RTVSPropertyOp4
 70
     1
102
RTVSPropertyOp5
 70
     1
102
RTVSPropertyOp6
 70
     1
102
RTVSPropertyOp7
 70
     1
102
RTVSPropertyOp8
 70
     1
102
RTVSPropertyOp9
 70
     1
102
RTVSPropertyOp10
 70
     1
102
RTVSPropertyOp11
 70
     1
102
RTVSPropertyOp12
 70
     1
102
RTVSPropertyOp13
 70
     1
102
RTVSPropertyOp14
 70
     1
102
RTVSPropertyOp15
 70
     1
102
RTVSPropertyOp16
 70
     1
102
RTVSPropertyOp17
 70
     1
102
RTVSPropertyOp18
 70
     1
102
RTVSPropertyOp19
 70
     1
102
RTVSPropertyOp20
 70
     1
102
RTVSPropertyOp21
 70
     1
102
RTVSPropertyOp22
 70
     1
102
RTVSPropertyOp23
 70
     1
102
RTVSPropertyOp24
 70
     1
102
RTVSPropertyOp25
 70
     1
102
RTVSPropertyOp26
 70
     1
102
RTVSPropertyOp27
 70
     1
102
RTVSPropertyOp28
 70
     1
102
RTVSPropertyOp29
 70
     1
102
RTVSPropertyOp30
 70
     1
102
RTVSPropertyOp31
 70
     1
102
RTVSPropertyOp32
 70
     1
102
RTVSPropertyOp33
 70
     1
102
RTVSPropertyOp34
 70
     1
102
RTVSPropertyOp35
 70
     1
102
RTVSPropertyOp36
 70
     1
102
RTVSPropertyOp37
 70
     1
102
RTVSPropertyOp38
 70
     1
102
RTVSPropertyOp39
 70
     1
102
RTVSPropertyOp40
 70
     1
102
RTVSPropertyOp41
 70
     1
102
RTVSPropertyOp42
 70
     1
102
RTVSPropertyOp43
 70
     1
102
RTVSPropertyOp44
 70
     1
102
RTVSPropertyOp45
 70
     1
102
RTVSPropertyOp46
 70
     1
102
RTVSPropertyOp47
 70
     1
102
RTVSPropertyOp48
 70
     1
102
RTVSPropertyOp49
 70
     1
102
RTVSPropertyOp50
 70
     1
102
RTVSPropertyOp51
 70
     0
102
RTVSPropertyOp52
 70
     0
102
RTVSPropertyOp53
 70
     1
102
RTVSPropertyOp54
 70
     1
102
RTVSPropertyOp55
 70
     1
102
RTVSPropertyOp56
 70
     1
102
RTVSPropertyOp57
 70
     1
102
RTVSPropertyOp58
 70
     1
102
RTVSPropertyOp59
 70
     1
102
RTVSPropertyOp60
 70
     1
102
RTVSPropertyOp61
 70
     1
102
RTVSPropertyOp62
 70
     1
  0
XRECORD
  5
E70B0
102
{ACAD_REACTORS
330
E70AF
102
}
330
E70AF
100
AcDbXrecord
280
     1
102
RTVSPost2010Prop28
280
     0
102
RTVSPost2010PropOp28
 70
     1
102
RTVSPost2010Prop29
280
     1
102
RTVSPost2010PropOp29
 70
     1
102
RTVSPost2010Prop30
280
     1
102
RTVSPost2010PropOp30
 70
     1
102
RTVSPost2010Prop31
280
     0
102
RTVSPost2010PropOp31
 70
     1
102
RTVSPost2010Prop32
280
     0
102
RTVSPost2010PropOp32
 70
     1
102
RTVSPost2010Prop33
280
     0
102
RTVSPost2010PropOp33
 70
     1
102
RTVSPost2010Prop34
280
     0
102
RTVSPost2010PropOp34
 70
     1
102
RTVSPost2010Prop35
280
     0
102
RTVSPost2010PropOp35
 70
     1
102
RTVSPost2010Prop36
280
     0
102
RTVSPost2010PropOp36
 70
     1
102
RTVSPost2010Prop37
 90
       50
102
RTVSPost2010PropOp37
 70
     1
102
RTVSPost2010Prop38
140
0.0
102
RTVSPost2010PropOp38
 70
     1
102
RTVSPost2010Prop39
140
1.0
102
RTVSPost2010PropOp39
 70
     1
102
RTVSPost2010Prop40
 90
        0
102
RTVSPost2010PropOp40
 70
     1
102
RTVSPost2010Prop41ColorIndex
 90
       18
102
RTVSPost2010Prop41ColorRGB
 90
        0
102
RTVSPost2010PropOp41
 70
     1
102
RTVSPost2010Prop42
 90
       50
102
RTVSPost2010PropOp42
 70
     1
102
RTVSPost2010Prop43
 90
        3
102
RTVSPost2010PropOp43
 70
     1
102
RTVSPost2010Prop44ColorIndex
 90
        5
102
RTVSPost2010Prop44ColorRGB
 90
      255
102
RTVSPost2010PropOp44
 70
     1
102
RTVSPost2010Prop45
280
     0
102
RTVSPost2010PropOp45
 70
     1
102
RTVSPost2010Prop46
 90
       50
102
RTVSPost2010PropOp46
 70
     1
102
RTVSPost2010Prop47
 90
       50
102
RTVSPost2010PropOp47
 70
     1
102
RTVSPost2010Prop48
 90
       50
102
RTVSPost2010PropOp48
 70
     1
102
RTVSPost2010Prop49
280
     0
102
RTVSPost2010PropOp49
 70
     1
102
RTVSPost2010Prop50
 90
       50
102
RTVSPost2010PropOp50
 70
     1
102
RTVSPost2010Prop51ColorIndex
 90
      256
102
RTVSPost2010Prop51ColorRGB
 90
-16777216
102
RTVSPost2010PropOp51
 70
     0
102
RTVSPost2010Prop52
140
1.0
102
RTVSPost2010PropOp52
 70
     0
102
RTVSPost2010Prop53
 90
        2
102
RTVSPost2010PropOp53
 70
     1
102
RTVSPost2010Prop54
  1
strokes_ogs.tif
102
RTVSPost2010PropOp54
 70
     1
102
RTVSPost2010Prop55
280
     0
102
RTVSPost2010PropOp55
 70
     1
102
RTVSPost2010Prop56
140
1.0
102
RTVSPost2010PropOp56
 70
     1
102
RTVSPost2010Prop57
140
1.0
102
RTVSPost2010PropOp57
 70
     1
102
RTVSPropertyOp0
 70
     0
102
RTVSPropertyOp1
 70
     0
102
RTVSPropertyOp2
 70
     0
102
RTVSPropertyOp3
 70
     0
102
RTVSPropertyOp4
 70
     0
102
RTVSPropertyOp5
 70
     0
102
RTVSPropertyOp6
 70
     0
102
RTVSPropertyOp7
 70
     0
102
RTVSPropertyOp8
 70
     0
102
RTVSPropertyOp9
 70
     0
102
RTVSPropertyOp10
 70
     0
102
RTVSPropertyOp11
 70
     0
102
RTVSPropertyOp12
 70
     0
102
RTVSPropertyOp13
 70
     0
102
RTVSPropertyOp14
 70
     2
102
RTVSPropertyOp15
 70
     0
102
RTVSPropertyOp16
 70
     0
102
RTVSPropertyOp17
 70
     0
102
RTVSPropertyOp18
 70
     0
102
RTVSPropertyOp19
 70
     0
102
RTVSPropertyOp20
 70
     0
102
RTVSPropertyOp21
 70
     0
102
RTVSPropertyOp22
 70
     0
102
RTVSPropertyOp23
 70
     0
102
RTVSPropertyOp24
 70
     0
102
RTVSPropertyOp25
 70
     0
102
RTVSPropertyOp26
 70
     0
102
RTVSPropertyOp27
 70
     0
102
RTVSPropertyOp28
 70
     1
102
RTVSPropertyOp29
 70
     1
102
RTVSPropertyOp30
 70
     1
102
RTVSPropertyOp31
 70
     1
102
RTVSPropertyOp32
 70
     1
102
RTVSPropertyOp33
 70
     1
102
RTVSPropertyOp34
 70
     1
102
RTVSPropertyOp35
 70
     1
102
RTVSPropertyOp36
 70
     1
102
RTVSPropertyOp37
 70
     1
102
RTVSPropertyOp38
 70
     1
102
RTVSPropertyOp39
 70
     1
102
RTVSPropertyOp40
 70
     1
102
RTVSPropertyOp41
 70
     1
102
RTVSPropertyOp42
 70
     1
102
RTVSPropertyOp43
 70
     1
102
RTVSPropertyOp44
 70
     1
102
RTVSPropertyOp45
 70
     1
102
RTVSPropertyOp46
 70
     1
102
RTVSPropertyOp47
 70
     1
102
RTVSPropertyOp48
 70
     1
102
RTVSPropertyOp49
 70
     1
102
RTVSPropertyOp50
 70
     1
102
RTVSPropertyOp51
 70
     0
102
RTVSPropertyOp52
 70
     0
102
RTVSPropertyOp53
 70
     1
102
RTVSPropertyOp54
 70
     1
102
RTVSPropertyOp55
 70
     1
102
RTVSPropertyOp56
 70
     1
102
RTVSPropertyOp57
 70
     1
102
RTVSPropertyOp58
 70
     1
102
RTVSPropertyOp59
 70
     1
102
RTVSPropertyOp60
 70
     1
102
RTVSPropertyOp61
 70
     1
102
RTVSPropertyOp62
 70
     1
  0
XRECORD
  5
E70AA
102
{ACAD_REACTORS
330
E70A9
102
}
330
E70A9
100
AcDbXrecord
280
     1
102
RTVSPost2010Prop28
280
     0
102
RTVSPost2010PropOp28
 70
     1
102
RTVSPost2010Prop29
280
     1
102
RTVSPost2010PropOp29
 70
     1
102
RTVSPost2010Prop30
280
     1
102
RTVSPost2010PropOp30
 70
     1
102
RTVSPost2010Prop31
280
     0
102
RTVSPost2010PropOp31
 70
     1
102
RTVSPost2010Prop32
280
     0
102
RTVSPost2010PropOp32
 70
     1
102
RTVSPost2010Prop33
280
     0
102
RTVSPost2010PropOp33
 70
     1
102
RTVSPost2010Prop34
280
     0
102
RTVSPost2010PropOp34
 70
     1
102
RTVSPost2010Prop35
280
     0
102
RTVSPost2010PropOp35
 70
     1
102
RTVSPost2010Prop36
280
     0
102
RTVSPost2010PropOp36
 70
     1
102
RTVSPost2010Prop37
 90
       50
102
RTVSPost2010PropOp37
 70
     1
102
RTVSPost2010Prop38
140
0.0
102
RTVSPost2010PropOp38
 70
     1
102
RTVSPost2010Prop39
140
1.0
102
RTVSPost2010PropOp39
 70
     1
102
RTVSPost2010Prop40
 90
        0
102
RTVSPost2010PropOp40
 70
     1
102
RTVSPost2010Prop41ColorIndex
 90
       18
102
RTVSPost2010Prop41ColorRGB
 90
        0
102
RTVSPost2010PropOp41
 70
     1
102
RTVSPost2010Prop42
 90
       50
102
RTVSPost2010PropOp42
 70
     1
102
RTVSPost2010Prop43
 90
        3
102
RTVSPost2010PropOp43
 70
     1
102
RTVSPost2010Prop44ColorIndex
 90
        5
102
RTVSPost2010Prop44ColorRGB
 90
      255
102
RTVSPost2010PropOp44
 70
     1
102
RTVSPost2010Prop45
280
     0
102
RTVSPost2010PropOp45
 70
     1
102
RTVSPost2010Prop46
 90
       50
102
RTVSPost2010PropOp46
 70
     1
102
RTVSPost2010Prop47
 90
       50
102
RTVSPost2010PropOp47
 70
     1
102
RTVSPost2010Prop48
 90
       50
102
RTVSPost2010PropOp48
 70
     1
102
RTVSPost2010Prop49
280
     0
102
RTVSPost2010PropOp49
 70
     1
102
RTVSPost2010Prop50
 90
       50
102
RTVSPost2010PropOp50
 70
     1
102
RTVSPost2010Prop51ColorIndex
 90
      256
102
RTVSPost2010Prop51ColorRGB
 90
-16777216
102
RTVSPost2010PropOp51
 70
     0
102
RTVSPost2010Prop52
140
1.0
102
RTVSPost2010PropOp52
 70
     0
102
RTVSPost2010Prop53
 90
        2
102
RTVSPost2010PropOp53
 70
     1
102
RTVSPost2010Prop54
  1
strokes_ogs.tif
102
RTVSPost2010PropOp54
 70
     1
102
RTVSPost2010Prop55
280
     0
102
RTVSPost2010PropOp55
 70
     1
102
RTVSPost2010Prop56
140
1.0
102
RTVSPost2010PropOp56
 70
     1
102
RTVSPost2010Prop57
140
1.0
102
RTVSPost2010PropOp57
 70
     1
102
RTVSPropertyOp0
 70
     1
102
RTVSPropertyOp1
 70
     1
102
RTVSPropertyOp2
 70
     1
102
RTVSPropertyOp3
 70
     1
102
RTVSPropertyOp4
 70
     1
102
RTVSPropertyOp5
 70
     1
102
RTVSPropertyOp6
 70
     1
102
RTVSPropertyOp7
 70
     1
102
RTVSPropertyOp8
 70
     1
102
RTVSPropertyOp9
 70
     1
102
RTVSPropertyOp10
 70
     1
102
RTVSPropertyOp11
 70
     1
102
RTVSPropertyOp12
 70
     1
102
RTVSPropertyOp13
 70
     1
102
RTVSPropertyOp14
 70
     1
102
RTVSPropertyOp15
 70
     1
102
RTVSPropertyOp16
 70
     1
102
RTVSPropertyOp17
 70
     1
102
RTVSPropertyOp18
 70
     1
102
RTVSPropertyOp19
 70
     1
102
RTVSPropertyOp20
 70
     1
102
RTVSPropertyOp21
 70
     1
102
RTVSPropertyOp22
 70
     1
102
RTVSPropertyOp23
 70
     1
102
RTVSPropertyOp24
 70
     1
102
RTVSPropertyOp25
 70
     1
102
RTVSPropertyOp26
 70
     1
102
RTVSPropertyOp27
 70
     1
102
RTVSPropertyOp28
 70
     1
102
RTVSPropertyOp29
 70
     1
102
RTVSPropertyOp30
 70
     1
102
RTVSPropertyOp31
 70
     1
102
RTVSPropertyOp32
 70
     1
102
RTVSPropertyOp33
 70
     1
102
RTVSPropertyOp34
 70
     1
102
RTVSPropertyOp35
 70
     1
102
RTVSPropertyOp36
 70
     1
102
RTVSPropertyOp37
 70
     1
102
RTVSPropertyOp38
 70
     1
102
RTVSPropertyOp39
 70
     1
102
RTVSPropertyOp40
 70
     1
102
RTVSPropertyOp41
 70
     1
102
RTVSPropertyOp42
 70
     1
102
RTVSPropertyOp43
 70
     1
102
RTVSPropertyOp44
 70
     1
102
RTVSPropertyOp45
 70
     1
102
RTVSPropertyOp46
 70
     1
102
RTVSPropertyOp47
 70
     1
102
RTVSPropertyOp48
 70
     1
102
RTVSPropertyOp49
 70
     1
102
RTVSPropertyOp50
 70
     1
102
RTVSPropertyOp51
 70
     0
102
RTVSPropertyOp52
 70
     0
102
RTVSPropertyOp53
 70
     1
102
RTVSPropertyOp54
 70
     1
102
RTVSPropertyOp55
 70
     1
102
RTVSPropertyOp56
 70
     1
102
RTVSPropertyOp57
 70
     1
102
RTVSPropertyOp58
 70
     1
102
RTVSPropertyOp59
 70
     1
102
RTVSPropertyOp60
 70
     1
102
RTVSPropertyOp61
 70
     1
102
RTVSPropertyOp62
 70
     1
  0
XRECORD
  5
E70B2
102
{ACAD_REACTORS
330
E70B1
102
}
330
E70B1
100
AcDbXrecord
280
     1
102
RTVSPost2010Prop28
280
     0
102
RTVSPost2010PropOp28
 70
     1
102
RTVSPost2010Prop29
280
     1
102
RTVSPost2010PropOp29
 70
     1
102
RTVSPost2010Prop30
280
     1
102
RTVSPost2010PropOp30
 70
     1
102
RTVSPost2010Prop31
280
     0
102
RTVSPost2010PropOp31
 70
     1
102
RTVSPost2010Prop32
280
     0
102
RTVSPost2010PropOp32
 70
     1
102
RTVSPost2010Prop33
280
     0
102
RTVSPost2010PropOp33
 70
     1
102
RTVSPost2010Prop34
280
     0
102
RTVSPost2010PropOp34
 70
     1
102
RTVSPost2010Prop35
280
     0
102
RTVSPost2010PropOp35
 70
     1
102
RTVSPost2010Prop36
280
     0
102
RTVSPost2010PropOp36
 70
     1
102
RTVSPost2010Prop37
 90
       50
102
RTVSPost2010PropOp37
 70
     1
102
RTVSPost2010Prop38
140
0.0
102
RTVSPost2010PropOp38
 70
     1
102
RTVSPost2010Prop39
140
1.0
102
RTVSPost2010PropOp39
 70
     1
102
RTVSPost2010Prop40
 90
        0
102
RTVSPost2010PropOp40
 70
     1
102
RTVSPost2010Prop41ColorIndex
 90
       18
102
RTVSPost2010Prop41ColorRGB
 90
        0
102
RTVSPost2010PropOp41
 70
     1
102
RTVSPost2010Prop42
 90
       50
102
RTVSPost2010PropOp42
 70
     1
102
RTVSPost2010Prop43
 90
        3
102
RTVSPost2010PropOp43
 70
     1
102
RTVSPost2010Prop44ColorIndex
 90
        5
102
RTVSPost2010Prop44ColorRGB
 90
      255
102
RTVSPost2010PropOp44
 70
     1
102
RTVSPost2010Prop45
280
     0
102
RTVSPost2010PropOp45
 70
     1
102
RTVSPost2010Prop46
 90
       50
102
RTVSPost2010PropOp46
 70
     1
102
RTVSPost2010Prop47
 90
       50
102
RTVSPost2010PropOp47
 70
     1
102
RTVSPost2010Prop48
 90
       50
102
RTVSPost2010PropOp48
 70
     1
102
RTVSPost2010Prop49
280
     0
102
RTVSPost2010PropOp49
 70
     1
102
RTVSPost2010Prop50
 90
       50
102
RTVSPost2010PropOp50
 70
     1
102
RTVSPost2010Prop51ColorIndex
 90
      256
102
RTVSPost2010Prop51ColorRGB
 90
-16777216
102
RTVSPost2010PropOp51
 70
     0
102
RTVSPost2010Prop52
140
1.0
102
RTVSPost2010PropOp52
 70
     0
102
RTVSPost2010Prop53
 90
        2
102
RTVSPost2010PropOp53
 70
     1
102
RTVSPost2010Prop54
  1
strokes_ogs.tif
102
RTVSPost2010PropOp54
 70
     1
102
RTVSPost2010Prop55
280
     0
102
RTVSPost2010PropOp55
 70
     1
102
RTVSPost2010Prop56
140
1.0
102
RTVSPost2010PropOp56
 70
     1
102
RTVSPost2010Prop57
140
1.0
102
RTVSPost2010PropOp57
 70
     1
102
RTVSPropertyOp0
 70
     0
102
RTVSPropertyOp1
 70
     0
102
RTVSPropertyOp2
 70
     0
102
RTVSPropertyOp3
 70
     0
102
RTVSPropertyOp4
 70
     0
102
RTVSPropertyOp5
 70
     0
102
RTVSPropertyOp6
 70
     0
102
RTVSPropertyOp7
 70
     0
102
RTVSPropertyOp8
 70
     0
102
RTVSPropertyOp9
 70
     0
102
RTVSPropertyOp10
 70
     0
102
RTVSPropertyOp11
 70
     0
102
RTVSPropertyOp12
 70
     0
102
RTVSPropertyOp13
 70
     0
102
RTVSPropertyOp14
 70
     2
102
RTVSPropertyOp15
 70
     0
102
RTVSPropertyOp16
 70
     0
102
RTVSPropertyOp17
 70
     0
102
RTVSPropertyOp18
 70
     0
102
RTVSPropertyOp19
 70
     0
102
RTVSPropertyOp20
 70
     0
102
RTVSPropertyOp21
 70
     0
102
RTVSPropertyOp22
 70
     0
102
RTVSPropertyOp23
 70
     0
102
RTVSPropertyOp24
 70
     0
102
RTVSPropertyOp25
 70
     0
102
RTVSPropertyOp26
 70
     0
102
RTVSPropertyOp27
 70
     0
102
RTVSPropertyOp28
 70
     1
102
RTVSPropertyOp29
 70
     1
102
RTVSPropertyOp30
 70
     1
102
RTVSPropertyOp31
 70
     1
102
RTVSPropertyOp32
 70
     1
102
RTVSPropertyOp33
 70
     1
102
RTVSPropertyOp34
 70
     1
102
RTVSPropertyOp35
 70
     1
102
RTVSPropertyOp36
 70
     1
102
RTVSPropertyOp37
 70
     1
102
RTVSPropertyOp38
 70
     1
102
RTVSPropertyOp39
 70
     1
102
RTVSPropertyOp40
 70
     1
102
RTVSPropertyOp41
 70
     1
102
RTVSPropertyOp42
 70
     1
102
RTVSPropertyOp43
 70
     1
102
RTVSPropertyOp44
 70
     1
102
RTVSPropertyOp45
 70
     1
102
RTVSPropertyOp46
 70
     1
102
RTVSPropertyOp47
 70
     1
102
RTVSPropertyOp48
 70
     1
102
RTVSPropertyOp49
 70
     1
102
RTVSPropertyOp50
 70
     1
102
RTVSPropertyOp51
 70
     0
102
RTVSPropertyOp52
 70
     0
102
RTVSPropertyOp53
 70
     1
102
RTVSPropertyOp54
 70
     1
102
RTVSPropertyOp55
 70
     1
102
RTVSPropertyOp56
 70
     1
102
RTVSPropertyOp57
 70
     1
102
RTVSPropertyOp58
 70
     1
102
RTVSPropertyOp59
 70
     1
102
RTVSPropertyOp60
 70
     1
102
RTVSPropertyOp61
 70
     1
102
RTVSPropertyOp62
 70
     1
  0
XRECORD
  5
E70A2
102
{ACAD_REACTORS
330
E70A1
102
}
330
E70A1
100
AcDbXrecord
280
     1
102
RTVSPost2010Prop28
280
     0
102
RTVSPost2010PropOp28
 70
     1
102
RTVSPost2010Prop29
280
     1
102
RTVSPost2010PropOp29
 70
     1
102
RTVSPost2010Prop30
280
     1
102
RTVSPost2010PropOp30
 70
     1
102
RTVSPost2010Prop31
280
     0
102
RTVSPost2010PropOp31
 70
     1
102
RTVSPost2010Prop32
280
     0
102
RTVSPost2010PropOp32
 70
     1
102
RTVSPost2010Prop33
280
     0
102
RTVSPost2010PropOp33
 70
     1
102
RTVSPost2010Prop34
280
     0
102
RTVSPost2010PropOp34
 70
     1
102
RTVSPost2010Prop35
280
     0
102
RTVSPost2010PropOp35
 70
     1
102
RTVSPost2010Prop36
280
     0
102
RTVSPost2010PropOp36
 70
     1
102
RTVSPost2010Prop37
 90
       50
102
RTVSPost2010PropOp37
 70
     1
102
RTVSPost2010Prop38
140
0.0
102
RTVSPost2010PropOp38
 70
     1
102
RTVSPost2010Prop39
140
1.0
102
RTVSPost2010PropOp39
 70
     1
102
RTVSPost2010Prop40
 90
        0
102
RTVSPost2010PropOp40
 70
     1
102
RTVSPost2010Prop41ColorIndex
 90
       18
102
RTVSPost2010Prop41ColorRGB
 90
        0
102
RTVSPost2010PropOp41
 70
     1
102
RTVSPost2010Prop42
 90
       50
102
RTVSPost2010PropOp42
 70
     1
102
RTVSPost2010Prop43
 90
        3
102
RTVSPost2010PropOp43
 70
     1
102
RTVSPost2010Prop44ColorIndex
 90
        5
102
RTVSPost2010Prop44ColorRGB
 90
      255
102
RTVSPost2010PropOp44
 70
     1
102
RTVSPost2010Prop45
280
     0
102
RTVSPost2010PropOp45
 70
     1
102
RTVSPost2010Prop46
 90
       50
102
RTVSPost2010PropOp46
 70
     1
102
RTVSPost2010Prop47
 90
       50
102
RTVSPost2010PropOp47
 70
     1
102
RTVSPost2010Prop48
 90
       50
102
RTVSPost2010PropOp48
 70
     1
102
RTVSPost2010Prop49
280
     0
102
RTVSPost2010PropOp49
 70
     1
102
RTVSPost2010Prop50
 90
       50
102
RTVSPost2010PropOp50
 70
     1
102
RTVSPost2010Prop51ColorIndex
 90
      256
102
RTVSPost2010Prop51ColorRGB
 90
-16777216
102
RTVSPost2010PropOp51
 70
     0
102
RTVSPost2010Prop52
140
1.0
102
RTVSPost2010PropOp52
 70
     0
102
RTVSPost2010Prop53
 90
        2
102
RTVSPost2010PropOp53
 70
     1
102
RTVSPost2010Prop54
  1
strokes_ogs.tif
102
RTVSPost2010PropOp54
 70
     1
102
RTVSPost2010Prop55
280
     0
102
RTVSPost2010PropOp55
 70
     1
102
RTVSPost2010Prop56
140
1.0
102
RTVSPost2010PropOp56
 70
     1
102
RTVSPost2010Prop57
140
1.0
102
RTVSPost2010PropOp57
 70
     1
102
RTVSPropertyOp0
 70
     1
102
RTVSPropertyOp1
 70
     1
102
RTVSPropertyOp2
 70
     1
102
RTVSPropertyOp3
 70
     1
102
RTVSPropertyOp4
 70
     1
102
RTVSPropertyOp5
 70
     1
102
RTVSPropertyOp6
 70
     1
102
RTVSPropertyOp7
 70
     1
102
RTVSPropertyOp8
 70
     1
102
RTVSPropertyOp9
 70
     1
102
RTVSPropertyOp10
 70
     1
102
RTVSPropertyOp11
 70
     1
102
RTVSPropertyOp12
 70
     1
102
RTVSPropertyOp13
 70
     1
102
RTVSPropertyOp14
 70
     1
102
RTVSPropertyOp15
 70
     1
102
RTVSPropertyOp16
 70
     1
102
RTVSPropertyOp17
 70
     1
102
RTVSPropertyOp18
 70
     1
102
RTVSPropertyOp19
 70
     1
102
RTVSPropertyOp20
 70
     1
102
RTVSPropertyOp21
 70
     1
102
RTVSPropertyOp22
 70
     1
102
RTVSPropertyOp23
 70
     1
102
RTVSPropertyOp24
 70
     1
102
RTVSPropertyOp25
 70
     1
102
RTVSPropertyOp26
 70
     1
102
RTVSPropertyOp27
 70
     1
102
RTVSPropertyOp28
 70
     1
102
RTVSPropertyOp29
 70
     1
102
RTVSPropertyOp30
 70
     1
102
RTVSPropertyOp31
 70
     1
102
RTVSPropertyOp32
 70
     1
102
RTVSPropertyOp33
 70
     1
102
RTVSPropertyOp34
 70
     1
102
RTVSPropertyOp35
 70
     1
102
RTVSPropertyOp36
 70
     1
102
RTVSPropertyOp37
 70
     1
102
RTVSPropertyOp38
 70
     1
102
RTVSPropertyOp39
 70
     1
102
RTVSPropertyOp40
 70
     1
102
RTVSPropertyOp41
 70
     1
102
RTVSPropertyOp42
 70
     1
102
RTVSPropertyOp43
 70
     1
102
RTVSPropertyOp44
 70
     1
102
RTVSPropertyOp45
 70
     1
102
RTVSPropertyOp46
 70
     1
102
RTVSPropertyOp47
 70
     1
102
RTVSPropertyOp48
 70
     1
102
RTVSPropertyOp49
 70
     1
102
RTVSPropertyOp50
 70
     1
102
RTVSPropertyOp51
 70
     0
102
RTVSPropertyOp52
 70
     0
102
RTVSPropertyOp53
 70
     1
102
RTVSPropertyOp54
 70
     1
102
RTVSPropertyOp55
 70
     1
102
RTVSPropertyOp56
 70
     1
102
RTVSPropertyOp57
 70
     1
102
RTVSPropertyOp58
 70
     1
102
RTVSPropertyOp59
 70
     1
102
RTVSPropertyOp60
 70
     1
102
RTVSPropertyOp61
 70
     1
102
RTVSPropertyOp62
 70
     1
  0
XRECORD
  5
E70C3
102
{ACAD_REACTORS
330
E70C2
102
}
330
E70C2
100
AcDbXrecord
280
     1
102
RTVSPost2010Prop28
280
     0
102
RTVSPost2010PropOp28
 70
     1
102
RTVSPost2010Prop29
280
     1
102
RTVSPost2010PropOp29
 70
     1
102
RTVSPost2010Prop30
280
     1
102
RTVSPost2010PropOp30
 70
     1
102
RTVSPost2010Prop31
280
     0
102
RTVSPost2010PropOp31
 70
     1
102
RTVSPost2010Prop32
280
     0
102
RTVSPost2010PropOp32
 70
     1
102
RTVSPost2010Prop33
280
     0
102
RTVSPost2010PropOp33
 70
     1
102
RTVSPost2010Prop34
280
     0
102
RTVSPost2010PropOp34
 70
     1
102
RTVSPost2010Prop35
280
     0
102
RTVSPost2010PropOp35
 70
     1
102
RTVSPost2010Prop36
280
     0
102
RTVSPost2010PropOp36
 70
     1
102
RTVSPost2010Prop37
 90
       50
102
RTVSPost2010PropOp37
 70
     1
102
RTVSPost2010Prop38
140
0.0
102
RTVSPost2010PropOp38
 70
     1
102
RTVSPost2010Prop39
140
1.0
102
RTVSPost2010PropOp39
 70
     1
102
RTVSPost2010Prop40
 90
        0
102
RTVSPost2010PropOp40
 70
     1
102
RTVSPost2010Prop41ColorIndex
 90
       18
102
RTVSPost2010Prop41ColorRGB
 90
        0
102
RTVSPost2010PropOp41
 70
     1
102
RTVSPost2010Prop42
 90
       50
102
RTVSPost2010PropOp42
 70
     1
102
RTVSPost2010Prop43
 90
        3
102
RTVSPost2010PropOp43
 70
     1
102
RTVSPost2010Prop44ColorIndex
 90
        5
102
RTVSPost2010Prop44ColorRGB
 90
      255
102
RTVSPost2010PropOp44
 70
     1
102
RTVSPost2010Prop45
280
     0
102
RTVSPost2010PropOp45
 70
     1
102
RTVSPost2010Prop46
 90
       50
102
RTVSPost2010PropOp46
 70
     1
102
RTVSPost2010Prop47
 90
       50
102
RTVSPost2010PropOp47
 70
     1
102
RTVSPost2010Prop48
 90
       50
102
RTVSPost2010PropOp48
 70
     1
102
RTVSPost2010Prop49
280
     0
102
RTVSPost2010PropOp49
 70
     1
102
RTVSPost2010Prop50
 90
       50
102
RTVSPost2010PropOp50
 70
     1
102
RTVSPost2010Prop51ColorIndex
 90
      256
102
RTVSPost2010Prop51ColorRGB
 90
-16777216
102
RTVSPost2010PropOp51
 70
     0
102
RTVSPost2010Prop52
140
1.0
102
RTVSPost2010PropOp52
 70
     0
102
RTVSPost2010Prop53
 90
        2
102
RTVSPost2010PropOp53
 70
     1
102
RTVSPost2010Prop54
  1
strokes_ogs.tif
102
RTVSPost2010PropOp54
 70
     1
102
RTVSPost2010Prop55
280
     0
102
RTVSPost2010PropOp55
 70
     1
102
RTVSPost2010Prop56
140
1.0
102
RTVSPost2010PropOp56
 70
     1
102
RTVSPost2010Prop57
140
1.0
102
RTVSPost2010PropOp57
 70
     1
102
RTVSPropertyOp0
 70
     1
102
RTVSPropertyOp1
 70
     1
102
RTVSPropertyOp2
 70
     1
102
RTVSPropertyOp3
 70
     1
102
RTVSPropertyOp4
 70
     1
102
RTVSPropertyOp5
 70
     1
102
RTVSPropertyOp6
 70
     1
102
RTVSPropertyOp7
 70
     1
102
RTVSPropertyOp8
 70
     1
102
RTVSPropertyOp9
 70
     1
102
RTVSPropertyOp10
 70
     1
102
RTVSPropertyOp11
 70
     1
102
RTVSPropertyOp12
 70
     1
102
RTVSPropertyOp13
 70
     1
102
RTVSPropertyOp14
 70
     1
102
RTVSPropertyOp15
 70
     1
102
RTVSPropertyOp16
 70
     1
102
RTVSPropertyOp17
 70
     1
102
RTVSPropertyOp18
 70
     1
102
RTVSPropertyOp19
 70
     1
102
RTVSPropertyOp20
 70
     1
102
RTVSPropertyOp21
 70
     1
102
RTVSPropertyOp22
 70
     1
102
RTVSPropertyOp23
 70
     1
102
RTVSPropertyOp24
 70
     1
102
RTVSPropertyOp25
 70
     1
102
RTVSPropertyOp26
 70
     1
102
RTVSPropertyOp27
 70
     1
102
RTVSPropertyOp28
 70
     1
102
RTVSPropertyOp29
 70
     1
102
RTVSPropertyOp30
 70
     1
102
RTVSPropertyOp31
 70
     1
102
RTVSPropertyOp32
 70
     1
102
RTVSPropertyOp33
 70
     1
102
RTVSPropertyOp34
 70
     1
102
RTVSPropertyOp35
 70
     1
102
RTVSPropertyOp36
 70
     1
102
RTVSPropertyOp37
 70
     1
102
RTVSPropertyOp38
 70
     1
102
RTVSPropertyOp39
 70
     1
102
RTVSPropertyOp40
 70
     1
102
RTVSPropertyOp41
 70
     1
102
RTVSPropertyOp42
 70
     1
102
RTVSPropertyOp43
 70
     1
102
RTVSPropertyOp44
 70
     1
102
RTVSPropertyOp45
 70
     1
102
RTVSPropertyOp46
 70
     1
102
RTVSPropertyOp47
 70
     1
102
RTVSPropertyOp48
 70
     1
102
RTVSPropertyOp49
 70
     1
102
RTVSPropertyOp50
 70
     1
102
RTVSPropertyOp51
 70
     0
102
RTVSPropertyOp52
 70
     0
102
RTVSPropertyOp53
 70
     1
102
RTVSPropertyOp54
 70
     1
102
RTVSPropertyOp55
 70
     1
102
RTVSPropertyOp56
 70
     1
102
RTVSPropertyOp57
 70
     1
102
RTVSPropertyOp58
 70
     1
102
RTVSPropertyOp59
 70
     1
102
RTVSPropertyOp60
 70
     1
102
RTVSPropertyOp61
 70
     1
102
RTVSPropertyOp62
 70
     1
  0
XRECORD
  5
E70C1
102
{ACAD_REACTORS
330
E70C0
102
}
330
E70C0
100
AcDbXrecord
280
     1
102
RTVSPost2010Prop28
280
     0
102
RTVSPost2010PropOp28
 70
     1
102
RTVSPost2010Prop29
280
     1
102
RTVSPost2010PropOp29
 70
     1
102
RTVSPost2010Prop30
280
     1
102
RTVSPost2010PropOp30
 70
     1
102
RTVSPost2010Prop31
280
     0
102
RTVSPost2010PropOp31
 70
     1
102
RTVSPost2010Prop32
280
     0
102
RTVSPost2010PropOp32
 70
     1
102
RTVSPost2010Prop33
280
     0
102
RTVSPost2010PropOp33
 70
     1
102
RTVSPost2010Prop34
280
     0
102
RTVSPost2010PropOp34
 70
     1
102
RTVSPost2010Prop35
280
     0
102
RTVSPost2010PropOp35
 70
     1
102
RTVSPost2010Prop36
280
     0
102
RTVSPost2010PropOp36
 70
     1
102
RTVSPost2010Prop37
 90
       50
102
RTVSPost2010PropOp37
 70
     1
102
RTVSPost2010Prop38
140
0.0
102
RTVSPost2010PropOp38
 70
     1
102
RTVSPost2010Prop39
140
1.0
102
RTVSPost2010PropOp39
 70
     1
102
RTVSPost2010Prop40
 90
        0
102
RTVSPost2010PropOp40
 70
     1
102
RTVSPost2010Prop41ColorIndex
 90
       18
102
RTVSPost2010Prop41ColorRGB
 90
        0
102
RTVSPost2010PropOp41
 70
     1
102
RTVSPost2010Prop42
 90
       50
102
RTVSPost2010PropOp42
 70
     1
102
RTVSPost2010Prop43
 90
        3
102
RTVSPost2010PropOp43
 70
     1
102
RTVSPost2010Prop44ColorIndex
 90
        5
102
RTVSPost2010Prop44ColorRGB
 90
      255
102
RTVSPost2010PropOp44
 70
     1
102
RTVSPost2010Prop45
280
     0
102
RTVSPost2010PropOp45
 70
     1
102
RTVSPost2010Prop46
 90
       50
102
RTVSPost2010PropOp46
 70
     1
102
RTVSPost2010Prop47
 90
       50
102
RTVSPost2010PropOp47
 70
     1
102
RTVSPost2010Prop48
 90
       50
102
RTVSPost2010PropOp48
 70
     1
102
RTVSPost2010Prop49
280
     0
102
RTVSPost2010PropOp49
 70
     1
102
RTVSPost2010Prop50
 90
       50
102
RTVSPost2010PropOp50
 70
     1
102
RTVSPost2010Prop51ColorIndex
 90
      256
102
RTVSPost2010Prop51ColorRGB
 90
-16777216
102
RTVSPost2010PropOp51
 70
     0
102
RTVSPost2010Prop52
140
1.0
102
RTVSPost2010PropOp52
 70
     0
102
RTVSPost2010Prop53
 90
        2
102
RTVSPost2010PropOp53
 70
     1
102
RTVSPost2010Prop54
  1
strokes_ogs.tif
102
RTVSPost2010PropOp54
 70
     1
102
RTVSPost2010Prop55
280
     0
102
RTVSPost2010PropOp55
 70
     1
102
RTVSPost2010Prop56
140
1.0
102
RTVSPost2010PropOp56
 70
     1
102
RTVSPost2010Prop57
140
1.0
102
RTVSPost2010PropOp57
 70
     1
102
RTVSPropertyOp0
 70
     1
102
RTVSPropertyOp1
 70
     1
102
RTVSPropertyOp2
 70
     1
102
RTVSPropertyOp3
 70
     1
102
RTVSPropertyOp4
 70
     1
102
RTVSPropertyOp5
 70
     1
102
RTVSPropertyOp6
 70
     1
102
RTVSPropertyOp7
 70
     1
102
RTVSPropertyOp8
 70
     1
102
RTVSPropertyOp9
 70
     1
102
RTVSPropertyOp10
 70
     1
102
RTVSPropertyOp11
 70
     1
102
RTVSPropertyOp12
 70
     1
102
RTVSPropertyOp13
 70
     1
102
RTVSPropertyOp14
 70
     1
102
RTVSPropertyOp15
 70
     1
102
RTVSPropertyOp16
 70
     1
102
RTVSPropertyOp17
 70
     1
102
RTVSPropertyOp18
 70
     1
102
RTVSPropertyOp19
 70
     1
102
RTVSPropertyOp20
 70
     1
102
RTVSPropertyOp21
 70
     1
102
RTVSPropertyOp22
 70
     1
102
RTVSPropertyOp23
 70
     1
102
RTVSPropertyOp24
 70
     1
102
RTVSPropertyOp25
 70
     1
102
RTVSPropertyOp26
 70
     1
102
RTVSPropertyOp27
 70
     1
102
RTVSPropertyOp28
 70
     1
102
RTVSPropertyOp29
 70
     1
102
RTVSPropertyOp30
 70
     1
102
RTVSPropertyOp31
 70
     1
102
RTVSPropertyOp32
 70
     1
102
RTVSPropertyOp33
 70
     1
102
RTVSPropertyOp34
 70
     1
102
RTVSPropertyOp35
 70
     1
102
RTVSPropertyOp36
 70
     1
102
RTVSPropertyOp37
 70
     1
102
RTVSPropertyOp38
 70
     1
102
RTVSPropertyOp39
 70
     1
102
RTVSPropertyOp40
 70
     1
102
RTVSPropertyOp41
 70
     1
102
RTVSPropertyOp42
 70
     1
102
RTVSPropertyOp43
 70
     1
102
RTVSPropertyOp44
 70
     1
102
RTVSPropertyOp45
 70
     1
102
RTVSPropertyOp46
 70
     1
102
RTVSPropertyOp47
 70
     1
102
RTVSPropertyOp48
 70
     1
102
RTVSPropertyOp49
 70
     1
102
RTVSPropertyOp50
 70
     1
102
RTVSPropertyOp51
 70
     0
102
RTVSPropertyOp52
 70
     0
102
RTVSPropertyOp53
 70
     1
102
RTVSPropertyOp54
 70
     1
102
RTVSPropertyOp55
 70
     1
102
RTVSPropertyOp56
 70
     1
102
RTVSPropertyOp57
 70
     1
102
RTVSPropertyOp58
 70
     1
102
RTVSPropertyOp59
 70
     1
102
RTVSPropertyOp60
 70
     1
102
RTVSPropertyOp61
 70
     1
102
RTVSPropertyOp62
 70
     1
  0
XRECORD
  5
E70BB
102
{ACAD_REACTORS
330
E70BA
102
}
330
E70BA
100
AcDbXrecord
280
     1
102
RTVSPost2010Prop28
280
     0
102
RTVSPost2010PropOp28
 70
     1
102
RTVSPost2010Prop29
280
     1
102
RTVSPost2010PropOp29
 70
     1
102
RTVSPost2010Prop30
280
     1
102
RTVSPost2010PropOp30
 70
     1
102
RTVSPost2010Prop31
280
     0
102
RTVSPost2010PropOp31
 70
     1
102
RTVSPost2010Prop32
280
     0
102
RTVSPost2010PropOp32
 70
     1
102
RTVSPost2010Prop33
280
     0
102
RTVSPost2010PropOp33
 70
     1
102
RTVSPost2010Prop34
280
     0
102
RTVSPost2010PropOp34
 70
     1
102
RTVSPost2010Prop35
280
     0
102
RTVSPost2010PropOp35
 70
     1
102
RTVSPost2010Prop36
280
     0
102
RTVSPost2010PropOp36
 70
     1
102
RTVSPost2010Prop37
 90
       50
102
RTVSPost2010PropOp37
 70
     1
102
RTVSPost2010Prop38
140
0.0
102
RTVSPost2010PropOp38
 70
     1
102
RTVSPost2010Prop39
140
1.0
102
RTVSPost2010PropOp39
 70
     1
102
RTVSPost2010Prop40
 90
        0
102
RTVSPost2010PropOp40
 70
     1
102
RTVSPost2010Prop41ColorIndex
 90
       18
102
RTVSPost2010Prop41ColorRGB
 90
        0
102
RTVSPost2010PropOp41
 70
     1
102
RTVSPost2010Prop42
 90
       50
102
RTVSPost2010PropOp42
 70
     1
102
RTVSPost2010Prop43
 90
        3
102
RTVSPost2010PropOp43
 70
     1
102
RTVSPost2010Prop44ColorIndex
 90
        5
102
RTVSPost2010Prop44ColorRGB
 90
      255
102
RTVSPost2010PropOp44
 70
     1
102
RTVSPost2010Prop45
280
     0
102
RTVSPost2010PropOp45
 70
     1
102
RTVSPost2010Prop46
 90
       50
102
RTVSPost2010PropOp46
 70
     1
102
RTVSPost2010Prop47
 90
       50
102
RTVSPost2010PropOp47
 70
     1
102
RTVSPost2010Prop48
 90
       50
102
RTVSPost2010PropOp48
 70
     1
102
RTVSPost2010Prop49
280
     0
102
RTVSPost2010PropOp49
 70
     1
102
RTVSPost2010Prop50
 90
       50
102
RTVSPost2010PropOp50
 70
     1
102
RTVSPost2010Prop51ColorIndex
 90
      256
102
RTVSPost2010Prop51ColorRGB
 90
-16777216
102
RTVSPost2010PropOp51
 70
     0
102
RTVSPost2010Prop52
140
1.0
102
RTVSPost2010PropOp52
 70
     0
102
RTVSPost2010Prop53
 90
        2
102
RTVSPost2010PropOp53
 70
     1
102
RTVSPost2010Prop54
  1
strokes_ogs.tif
102
RTVSPost2010PropOp54
 70
     1
102
RTVSPost2010Prop55
280
     0
102
RTVSPost2010PropOp55
 70
     1
102
RTVSPost2010Prop56
140
1.0
102
RTVSPost2010PropOp56
 70
     1
102
RTVSPost2010Prop57
140
1.0
102
RTVSPost2010PropOp57
 70
     1
102
RTVSPropertyOp0
 70
     1
102
RTVSPropertyOp1
 70
     1
102
RTVSPropertyOp2
 70
     1
102
RTVSPropertyOp3
 70
     1
102
RTVSPropertyOp4
 70
     1
102
RTVSPropertyOp5
 70
     1
102
RTVSPropertyOp6
 70
     1
102
RTVSPropertyOp7
 70
     1
102
RTVSPropertyOp8
 70
     1
102
RTVSPropertyOp9
 70
     1
102
RTVSPropertyOp10
 70
     1
102
RTVSPropertyOp11
 70
     1
102
RTVSPropertyOp12
 70
     1
102
RTVSPropertyOp13
 70
     1
102
RTVSPropertyOp14
 70
     1
102
RTVSPropertyOp15
 70
     1
102
RTVSPropertyOp16
 70
     1
102
RTVSPropertyOp17
 70
     1
102
RTVSPropertyOp18
 70
     1
102
RTVSPropertyOp19
 70
     1
102
RTVSPropertyOp20
 70
     1
102
RTVSPropertyOp21
 70
     1
102
RTVSPropertyOp22
 70
     1
102
RTVSPropertyOp23
 70
     1
102
RTVSPropertyOp24
 70
     1
102
RTVSPropertyOp25
 70
     1
102
RTVSPropertyOp26
 70
     1
102
RTVSPropertyOp27
 70
     1
102
RTVSPropertyOp28
 70
     1
102
RTVSPropertyOp29
 70
     1
102
RTVSPropertyOp30
 70
     1
102
RTVSPropertyOp31
 70
     1
102
RTVSPropertyOp32
 70
     1
102
RTVSPropertyOp33
 70
     1
102
RTVSPropertyOp34
 70
     1
102
RTVSPropertyOp35
 70
     1
102
RTVSPropertyOp36
 70
     1
102
RTVSPropertyOp37
 70
     1
102
RTVSPropertyOp38
 70
     1
102
RTVSPropertyOp39
 70
     1
102
RTVSPropertyOp40
 70
     1
102
RTVSPropertyOp41
 70
     1
102
RTVSPropertyOp42
 70
     1
102
RTVSPropertyOp43
 70
     1
102
RTVSPropertyOp44
 70
     1
102
RTVSPropertyOp45
 70
     1
102
RTVSPropertyOp46
 70
     1
102
RTVSPropertyOp47
 70
     1
102
RTVSPropertyOp48
 70
     1
102
RTVSPropertyOp49
 70
     1
102
RTVSPropertyOp50
 70
     1
102
RTVSPropertyOp51
 70
     0
102
RTVSPropertyOp52
 70
     0
102
RTVSPropertyOp53
 70
     1
102
RTVSPropertyOp54
 70
     1
102
RTVSPropertyOp55
 70
     1
102
RTVSPropertyOp56
 70
     1
102
RTVSPropertyOp57
 70
     1
102
RTVSPropertyOp58
 70
     1
102
RTVSPropertyOp59
 70
     1
102
RTVSPropertyOp60
 70
     1
102
RTVSPropertyOp61
 70
     1
102
RTVSPropertyOp62
 70
     1
  0
XRECORD
  5
E70BD
102
{ACAD_REACTORS
330
E70BC
102
}
330
E70BC
100
AcDbXrecord
280
     1
102
RTVSPost2010Prop28
280
     0
102
RTVSPost2010PropOp28
 70
     1
102
RTVSPost2010Prop29
280
     1
102
RTVSPost2010PropOp29
 70
     1
102
RTVSPost2010Prop30
280
     1
102
RTVSPost2010PropOp30
 70
     1
102
RTVSPost2010Prop31
280
     0
102
RTVSPost2010PropOp31
 70
     1
102
RTVSPost2010Prop32
280
     0
102
RTVSPost2010PropOp32
 70
     1
102
RTVSPost2010Prop33
280
     0
102
RTVSPost2010PropOp33
 70
     1
102
RTVSPost2010Prop34
280
     0
102
RTVSPost2010PropOp34
 70
     1
102
RTVSPost2010Prop35
280
     0
102
RTVSPost2010PropOp35
 70
     1
102
RTVSPost2010Prop36
280
     0
102
RTVSPost2010PropOp36
 70
     1
102
RTVSPost2010Prop37
 90
       50
102
RTVSPost2010PropOp37
 70
     1
102
RTVSPost2010Prop38
140
0.0
102
RTVSPost2010PropOp38
 70
     1
102
RTVSPost2010Prop39
140
1.0
102
RTVSPost2010PropOp39
 70
     1
102
RTVSPost2010Prop40
 90
        0
102
RTVSPost2010PropOp40
 70
     1
102
RTVSPost2010Prop41ColorIndex
 90
       18
102
RTVSPost2010Prop41ColorRGB
 90
        0
102
RTVSPost2010PropOp41
 70
     1
102
RTVSPost2010Prop42
 90
       50
102
RTVSPost2010PropOp42
 70
     1
102
RTVSPost2010Prop43
 90
        3
102
RTVSPost2010PropOp43
 70
     1
102
RTVSPost2010Prop44ColorIndex
 90
        5
102
RTVSPost2010Prop44ColorRGB
 90
      255
102
RTVSPost2010PropOp44
 70
     1
102
RTVSPost2010Prop45
280
     0
102
RTVSPost2010PropOp45
 70
     1
102
RTVSPost2010Prop46
 90
       50
102
RTVSPost2010PropOp46
 70
     1
102
RTVSPost2010Prop47
 90
       50
102
RTVSPost2010PropOp47
 70
     1
102
RTVSPost2010Prop48
 90
       50
102
RTVSPost2010PropOp48
 70
     1
102
RTVSPost2010Prop49
280
     0
102
RTVSPost2010PropOp49
 70
     1
102
RTVSPost2010Prop50
 90
       50
102
RTVSPost2010PropOp50
 70
     1
102
RTVSPost2010Prop51ColorIndex
 90
      256
102
RTVSPost2010Prop51ColorRGB
 90
-16777216
102
RTVSPost2010PropOp51
 70
     0
102
RTVSPost2010Prop52
140
1.0
102
RTVSPost2010PropOp52
 70
     0
102
RTVSPost2010Prop53
 90
        2
102
RTVSPost2010PropOp53
 70
     1
102
RTVSPost2010Prop54
  1
strokes_ogs.tif
102
RTVSPost2010PropOp54
 70
     1
102
RTVSPost2010Prop55
280
     0
102
RTVSPost2010PropOp55
 70
     1
102
RTVSPost2010Prop56
140
1.0
102
RTVSPost2010PropOp56
 70
     1
102
RTVSPost2010Prop57
140
1.0
102
RTVSPost2010PropOp57
 70
     1
102
RTVSPropertyOp0
 70
     1
102
RTVSPropertyOp1
 70
     1
102
RTVSPropertyOp2
 70
     1
102
RTVSPropertyOp3
 70
     1
102
RTVSPropertyOp4
 70
     1
102
RTVSPropertyOp5
 70
     1
102
RTVSPropertyOp6
 70
     1
102
RTVSPropertyOp7
 70
     1
102
RTVSPropertyOp8
 70
     1
102
RTVSPropertyOp9
 70
     1
102
RTVSPropertyOp10
 70
     1
102
RTVSPropertyOp11
 70
     1
102
RTVSPropertyOp12
 70
     1
102
RTVSPropertyOp13
 70
     1
102
RTVSPropertyOp14
 70
     1
102
RTVSPropertyOp15
 70
     1
102
RTVSPropertyOp16
 70
     1
102
RTVSPropertyOp17
 70
     1
102
RTVSPropertyOp18
 70
     1
102
RTVSPropertyOp19
 70
     1
102
RTVSPropertyOp20
 70
     1
102
RTVSPropertyOp21
 70
     1
102
RTVSPropertyOp22
 70
     1
102
RTVSPropertyOp23
 70
     1
102
RTVSPropertyOp24
 70
     1
102
RTVSPropertyOp25
 70
     1
102
RTVSPropertyOp26
 70
     1
102
RTVSPropertyOp27
 70
     1
102
RTVSPropertyOp28
 70
     1
102
RTVSPropertyOp29
 70
     1
102
RTVSPropertyOp30
 70
     1
102
RTVSPropertyOp31
 70
     1
102
RTVSPropertyOp32
 70
     1
102
RTVSPropertyOp33
 70
     1
102
RTVSPropertyOp34
 70
     1
102
RTVSPropertyOp35
 70
     1
102
RTVSPropertyOp36
 70
     1
102
RTVSPropertyOp37
 70
     1
102
RTVSPropertyOp38
 70
     1
102
RTVSPropertyOp39
 70
     1
102
RTVSPropertyOp40
 70
     1
102
RTVSPropertyOp41
 70
     1
102
RTVSPropertyOp42
 70
     1
102
RTVSPropertyOp43
 70
     1
102
RTVSPropertyOp44
 70
     1
102
RTVSPropertyOp45
 70
     1
102
RTVSPropertyOp46
 70
     1
102
RTVSPropertyOp47
 70
     1
102
RTVSPropertyOp48
 70
     1
102
RTVSPropertyOp49
 70
     1
102
RTVSPropertyOp50
 70
     1
102
RTVSPropertyOp51
 70
     0
102
RTVSPropertyOp52
 70
     0
102
RTVSPropertyOp53
 70
     1
102
RTVSPropertyOp54
 70
     1
102
RTVSPropertyOp55
 70
     1
102
RTVSPropertyOp56
 70
     1
102
RTVSPropertyOp57
 70
     1
102
RTVSPropertyOp58
 70
     1
102
RTVSPropertyOp59
 70
     1
102
RTVSPropertyOp60
 70
     1
102
RTVSPropertyOp61
 70
     1
102
RTVSPropertyOp62
 70
     1
  0
XRECORD
  5
E70A8
102
{ACAD_REACTORS
330
E70A7
102
}
330
E70A7
100
AcDbXrecord
280
     1
102
RTVSPost2010Prop28
280
     0
102
RTVSPost2010PropOp28
 70
     1
102
RTVSPost2010Prop29
280
     1
102
RTVSPost2010PropOp29
 70
     1
102
RTVSPost2010Prop30
280
     1
102
RTVSPost2010PropOp30
 70
     1
102
RTVSPost2010Prop31
280
     0
102
RTVSPost2010PropOp31
 70
     1
102
RTVSPost2010Prop32
280
     0
102
RTVSPost2010PropOp32
 70
     1
102
RTVSPost2010Prop33
280
     0
102
RTVSPost2010PropOp33
 70
     1
102
RTVSPost2010Prop34
280
     0
102
RTVSPost2010PropOp34
 70
     1
102
RTVSPost2010Prop35
280
     0
102
RTVSPost2010PropOp35
 70
     1
102
RTVSPost2010Prop36
280
     0
102
RTVSPost2010PropOp36
 70
     1
102
RTVSPost2010Prop37
 90
       50
102
RTVSPost2010PropOp37
 70
     1
102
RTVSPost2010Prop38
140
0.0
102
RTVSPost2010PropOp38
 70
     1
102
RTVSPost2010Prop39
140
1.0
102
RTVSPost2010PropOp39
 70
     1
102
RTVSPost2010Prop40
 90
        0
102
RTVSPost2010PropOp40
 70
     1
102
RTVSPost2010Prop41ColorIndex
 90
       18
102
RTVSPost2010Prop41ColorRGB
 90
        0
102
RTVSPost2010PropOp41
 70
     1
102
RTVSPost2010Prop42
 90
       50
102
RTVSPost2010PropOp42
 70
     1
102
RTVSPost2010Prop43
 90
        3
102
RTVSPost2010PropOp43
 70
     1
102
RTVSPost2010Prop44ColorIndex
 90
        5
102
RTVSPost2010Prop44ColorRGB
 90
      255
102
RTVSPost2010PropOp44
 70
     1
102
RTVSPost2010Prop45
280
     0
102
RTVSPost2010PropOp45
 70
     1
102
RTVSPost2010Prop46
 90
       50
102
RTVSPost2010PropOp46
 70
     1
102
RTVSPost2010Prop47
 90
       50
102
RTVSPost2010PropOp47
 70
     1
102
RTVSPost2010Prop48
 90
       50
102
RTVSPost2010PropOp48
 70
     1
102
RTVSPost2010Prop49
280
     0
102
RTVSPost2010PropOp49
 70
     1
102
RTVSPost2010Prop50
 90
       50
102
RTVSPost2010PropOp50
 70
     1
102
RTVSPost2010Prop51ColorIndex
 90
      256
102
RTVSPost2010Prop51ColorRGB
 90
-16777216
102
RTVSPost2010PropOp51
 70
     0
102
RTVSPost2010Prop52
140
1.0
102
RTVSPost2010PropOp52
 70
     0
102
RTVSPost2010Prop53
 90
        2
102
RTVSPost2010PropOp53
 70
     1
102
RTVSPost2010Prop54
  1
strokes_ogs.tif
102
RTVSPost2010PropOp54
 70
     1
102
RTVSPost2010Prop55
280
     0
102
RTVSPost2010PropOp55
 70
     1
102
RTVSPost2010Prop56
140
1.0
102
RTVSPost2010PropOp56
 70
     1
102
RTVSPost2010Prop57
140
1.0
102
RTVSPost2010PropOp57
 70
     1
102
RTVSPropertyOp0
 70
     1
102
RTVSPropertyOp1
 70
     1
102
RTVSPropertyOp2
 70
     1
102
RTVSPropertyOp3
 70
     1
102
RTVSPropertyOp4
 70
     1
102
RTVSPropertyOp5
 70
     1
102
RTVSPropertyOp6
 70
     1
102
RTVSPropertyOp7
 70
     1
102
RTVSPropertyOp8
 70
     1
102
RTVSPropertyOp9
 70
     1
102
RTVSPropertyOp10
 70
     1
102
RTVSPropertyOp11
 70
     1
102
RTVSPropertyOp12
 70
     1
102
RTVSPropertyOp13
 70
     1
102
RTVSPropertyOp14
 70
     1
102
RTVSPropertyOp15
 70
     1
102
RTVSPropertyOp16
 70
     1
102
RTVSPropertyOp17
 70
     1
102
RTVSPropertyOp18
 70
     1
102
RTVSPropertyOp19
 70
     1
102
RTVSPropertyOp20
 70
     1
102
RTVSPropertyOp21
 70
     1
102
RTVSPropertyOp22
 70
     1
102
RTVSPropertyOp23
 70
     1
102
RTVSPropertyOp24
 70
     1
102
RTVSPropertyOp25
 70
     1
102
RTVSPropertyOp26
 70
     1
102
RTVSPropertyOp27
 70
     1
102
RTVSPropertyOp28
 70
     1
102
RTVSPropertyOp29
 70
     1
102
RTVSPropertyOp30
 70
     1
102
RTVSPropertyOp31
 70
     1
102
RTVSPropertyOp32
 70
     1
102
RTVSPropertyOp33
 70
     1
102
RTVSPropertyOp34
 70
     1
102
RTVSPropertyOp35
 70
     1
102
RTVSPropertyOp36
 70
     1
102
RTVSPropertyOp37
 70
     1
102
RTVSPropertyOp38
 70
     1
102
RTVSPropertyOp39
 70
     1
102
RTVSPropertyOp40
 70
     1
102
RTVSPropertyOp41
 70
     1
102
RTVSPropertyOp42
 70
     1
102
RTVSPropertyOp43
 70
     1
102
RTVSPropertyOp44
 70
     1
102
RTVSPropertyOp45
 70
     1
102
RTVSPropertyOp46
 70
     1
102
RTVSPropertyOp47
 70
     1
102
RTVSPropertyOp48
 70
     1
102
RTVSPropertyOp49
 70
     1
102
RTVSPropertyOp50
 70
     1
102
RTVSPropertyOp51
 70
     0
102
RTVSPropertyOp52
 70
     0
102
RTVSPropertyOp53
 70
     1
102
RTVSPropertyOp54
 70
     1
102
RTVSPropertyOp55
 70
     1
102
RTVSPropertyOp56
 70
     1
102
RTVSPropertyOp57
 70
     1
102
RTVSPropertyOp58
 70
     1
102
RTVSPropertyOp59
 70
     1
102
RTVSPropertyOp60
 70
     1
102
RTVSPropertyOp61
 70
     1
102
RTVSPropertyOp62
 70
     1
  0
XRECORD
  5
E70B7
102
{ACAD_REACTORS
330
E70B6
102
}
330
E70B6
100
AcDbXrecord
280
     1
102
RTVSPost2010Prop28
280
     0
102
RTVSPost2010PropOp28
 70
     1
102
RTVSPost2010Prop29
280
     1
102
RTVSPost2010PropOp29
 70
     1
102
RTVSPost2010Prop30
280
     1
102
RTVSPost2010PropOp30
 70
     1
102
RTVSPost2010Prop31
280
     0
102
RTVSPost2010PropOp31
 70
     1
102
RTVSPost2010Prop32
280
     0
102
RTVSPost2010PropOp32
 70
     1
102
RTVSPost2010Prop33
280
     0
102
RTVSPost2010PropOp33
 70
     1
102
RTVSPost2010Prop34
280
     0
102
RTVSPost2010PropOp34
 70
     1
102
RTVSPost2010Prop35
280
     0
102
RTVSPost2010PropOp35
 70
     1
102
RTVSPost2010Prop36
280
     0
102
RTVSPost2010PropOp36
 70
     1
102
RTVSPost2010Prop37
 90
       50
102
RTVSPost2010PropOp37
 70
     1
102
RTVSPost2010Prop38
140
0.0
102
RTVSPost2010PropOp38
 70
     1
102
RTVSPost2010Prop39
140
1.0
102
RTVSPost2010PropOp39
 70
     1
102
RTVSPost2010Prop40
 90
        0
102
RTVSPost2010PropOp40
 70
     1
102
RTVSPost2010Prop41ColorIndex
 90
       18
102
RTVSPost2010Prop41ColorRGB
 90
        0
102
RTVSPost2010PropOp41
 70
     1
102
RTVSPost2010Prop42
 90
       50
102
RTVSPost2010PropOp42
 70
     1
102
RTVSPost2010Prop43
 90
        3
102
RTVSPost2010PropOp43
 70
     1
102
RTVSPost2010Prop44ColorIndex
 90
        5
102
RTVSPost2010Prop44ColorRGB
 90
      255
102
RTVSPost2010PropOp44
 70
     1
102
RTVSPost2010Prop45
280
     0
102
RTVSPost2010PropOp45
 70
     1
102
RTVSPost2010Prop46
 90
       50
102
RTVSPost2010PropOp46
 70
     1
102
RTVSPost2010Prop47
 90
       50
102
RTVSPost2010PropOp47
 70
     1
102
RTVSPost2010Prop48
 90
       50
102
RTVSPost2010PropOp48
 70
     1
102
RTVSPost2010Prop49
280
     0
102
RTVSPost2010PropOp49
 70
     1
102
RTVSPost2010Prop50
 90
       50
102
RTVSPost2010PropOp50
 70
     1
102
RTVSPost2010Prop51ColorIndex
 90
      256
102
RTVSPost2010Prop51ColorRGB
 90
-16777216
102
RTVSPost2010PropOp51
 70
     0
102
RTVSPost2010Prop52
140
1.0
102
RTVSPost2010PropOp52
 70
     0
102
RTVSPost2010Prop53
 90
        2
102
RTVSPost2010PropOp53
 70
     1
102
RTVSPost2010Prop54
  1
strokes_ogs.tif
102
RTVSPost2010PropOp54
 70
     1
102
RTVSPost2010Prop55
280
     0
102
RTVSPost2010PropOp55
 70
     1
102
RTVSPost2010Prop56
140
1.0
102
RTVSPost2010PropOp56
 70
     1
102
RTVSPost2010Prop57
140
1.0
102
RTVSPost2010PropOp57
 70
     1
102
RTVSPropertyOp0
 70
     1
102
RTVSPropertyOp1
 70
     1
102
RTVSPropertyOp2
 70
     1
102
RTVSPropertyOp3
 70
     1
102
RTVSPropertyOp4
 70
     1
102
RTVSPropertyOp5
 70
     1
102
RTVSPropertyOp6
 70
     1
102
RTVSPropertyOp7
 70
     1
102
RTVSPropertyOp8
 70
     1
102
RTVSPropertyOp9
 70
     1
102
RTVSPropertyOp10
 70
     1
102
RTVSPropertyOp11
 70
     1
102
RTVSPropertyOp12
 70
     1
102
RTVSPropertyOp13
 70
     1
102
RTVSPropertyOp14
 70
     1
102
RTVSPropertyOp15
 70
     1
102
RTVSPropertyOp16
 70
     1
102
RTVSPropertyOp17
 70
     1
102
RTVSPropertyOp18
 70
     1
102
RTVSPropertyOp19
 70
     1
102
RTVSPropertyOp20
 70
     1
102
RTVSPropertyOp21
 70
     1
102
RTVSPropertyOp22
 70
     1
102
RTVSPropertyOp23
 70
     1
102
RTVSPropertyOp24
 70
     1
102
RTVSPropertyOp25
 70
     1
102
RTVSPropertyOp26
 70
     1
102
RTVSPropertyOp27
 70
     1
102
RTVSPropertyOp28
 70
     1
102
RTVSPropertyOp29
 70
     1
102
RTVSPropertyOp30
 70
     1
102
RTVSPropertyOp31
 70
     1
102
RTVSPropertyOp32
 70
     1
102
RTVSPropertyOp33
 70
     1
102
RTVSPropertyOp34
 70
     1
102
RTVSPropertyOp35
 70
     1
102
RTVSPropertyOp36
 70
     1
102
RTVSPropertyOp37
 70
     1
102
RTVSPropertyOp38
 70
     1
102
RTVSPropertyOp39
 70
     1
102
RTVSPropertyOp40
 70
     1
102
RTVSPropertyOp41
 70
     1
102
RTVSPropertyOp42
 70
     1
102
RTVSPropertyOp43
 70
     1
102
RTVSPropertyOp44
 70
     1
102
RTVSPropertyOp45
 70
     1
102
RTVSPropertyOp46
 70
     1
102
RTVSPropertyOp47
 70
     1
102
RTVSPropertyOp48
 70
     1
102
RTVSPropertyOp49
 70
     1
102
RTVSPropertyOp50
 70
     1
102
RTVSPropertyOp51
 70
     0
102
RTVSPropertyOp52
 70
     0
102
RTVSPropertyOp53
 70
     1
102
RTVSPropertyOp54
 70
     1
102
RTVSPropertyOp55
 70
     1
102
RTVSPropertyOp56
 70
     1
102
RTVSPropertyOp57
 70
     1
102
RTVSPropertyOp58
 70
     1
102
RTVSPropertyOp59
 70
     1
102
RTVSPropertyOp60
 70
     1
102
RTVSPropertyOp61
 70
     1
102
RTVSPropertyOp62
 70
     1
  0
XRECORD
  5
E70BF
102
{ACAD_REACTORS
330
E70BE
102
}
330
E70BE
100
AcDbXrecord
280
     1
102
RTVSPost2010Prop28
280
     0
102
RTVSPost2010PropOp28
 70
     1
102
RTVSPost2010Prop29
280
     1
102
RTVSPost2010PropOp29
 70
     1
102
RTVSPost2010Prop30
280
     1
102
RTVSPost2010PropOp30
 70
     1
102
RTVSPost2010Prop31
280
     0
102
RTVSPost2010PropOp31
 70
     1
102
RTVSPost2010Prop32
280
     0
102
RTVSPost2010PropOp32
 70
     1
102
RTVSPost2010Prop33
280
     0
102
RTVSPost2010PropOp33
 70
     1
102
RTVSPost2010Prop34
280
     0
102
RTVSPost2010PropOp34
 70
     1
102
RTVSPost2010Prop35
280
     0
102
RTVSPost2010PropOp35
 70
     1
102
RTVSPost2010Prop36
280
     0
102
RTVSPost2010PropOp36
 70
     1
102
RTVSPost2010Prop37
 90
       50
102
RTVSPost2010PropOp37
 70
     1
102
RTVSPost2010Prop38
140
0.0
102
RTVSPost2010PropOp38
 70
     1
102
RTVSPost2010Prop39
140
1.0
102
RTVSPost2010PropOp39
 70
     1
102
RTVSPost2010Prop40
 90
        0
102
RTVSPost2010PropOp40
 70
     1
102
RTVSPost2010Prop41ColorIndex
 90
       18
102
RTVSPost2010Prop41ColorRGB
 90
        0
102
RTVSPost2010PropOp41
 70
     1
102
RTVSPost2010Prop42
 90
       50
102
RTVSPost2010PropOp42
 70
     1
102
RTVSPost2010Prop43
 90
        3
102
RTVSPost2010PropOp43
 70
     1
102
RTVSPost2010Prop44ColorIndex
 90
        5
102
RTVSPost2010Prop44ColorRGB
 90
      255
102
RTVSPost2010PropOp44
 70
     1
102
RTVSPost2010Prop45
280
     0
102
RTVSPost2010PropOp45
 70
     1
102
RTVSPost2010Prop46
 90
       50
102
RTVSPost2010PropOp46
 70
     1
102
RTVSPost2010Prop47
 90
       50
102
RTVSPost2010PropOp47
 70
     1
102
RTVSPost2010Prop48
 90
       50
102
RTVSPost2010PropOp48
 70
     1
102
RTVSPost2010Prop49
280
     0
102
RTVSPost2010PropOp49
 70
     1
102
RTVSPost2010Prop50
 90
       50
102
RTVSPost2010PropOp50
 70
     1
102
RTVSPost2010Prop51ColorIndex
 90
      256
102
RTVSPost2010Prop51ColorRGB
 90
-16777216
102
RTVSPost2010PropOp51
 70
     0
102
RTVSPost2010Prop52
140
1.0
102
RTVSPost2010PropOp52
 70
     0
102
RTVSPost2010Prop53
 90
        2
102
RTVSPost2010PropOp53
 70
     1
102
RTVSPost2010Prop54
  1
strokes_ogs.tif
102
RTVSPost2010PropOp54
 70
     1
102
RTVSPost2010Prop55
280
     0
102
RTVSPost2010PropOp55
 70
     1
102
RTVSPost2010Prop56
140
1.0
102
RTVSPost2010PropOp56
 70
     1
102
RTVSPost2010Prop57
140
1.0
102
RTVSPost2010PropOp57
 70
     1
102
RTVSPropertyOp0
 70
     1
102
RTVSPropertyOp1
 70
     1
102
RTVSPropertyOp2
 70
     1
102
RTVSPropertyOp3
 70
     1
102
RTVSPropertyOp4
 70
     1
102
RTVSPropertyOp5
 70
     1
102
RTVSPropertyOp6
 70
     1
102
RTVSPropertyOp7
 70
     1
102
RTVSPropertyOp8
 70
     1
102
RTVSPropertyOp9
 70
     1
102
RTVSPropertyOp10
 70
     1
102
RTVSPropertyOp11
 70
     1
102
RTVSPropertyOp12
 70
     1
102
RTVSPropertyOp13
 70
     1
102
RTVSPropertyOp14
 70
     1
102
RTVSPropertyOp15
 70
     1
102
RTVSPropertyOp16
 70
     1
102
RTVSPropertyOp17
 70
     1
102
RTVSPropertyOp18
 70
     1
102
RTVSPropertyOp19
 70
     1
102
RTVSPropertyOp20
 70
     1
102
RTVSPropertyOp21
 70
     1
102
RTVSPropertyOp22
 70
     1
102
RTVSPropertyOp23
 70
     1
102
RTVSPropertyOp24
 70
     1
102
RTVSPropertyOp25
 70
     1
102
RTVSPropertyOp26
 70
     1
102
RTVSPropertyOp27
 70
     1
102
RTVSPropertyOp28
 70
     1
102
RTVSPropertyOp29
 70
     1
102
RTVSPropertyOp30
 70
     1
102
RTVSPropertyOp31
 70
     1
102
RTVSPropertyOp32
 70
     1
102
RTVSPropertyOp33
 70
     1
102
RTVSPropertyOp34
 70
     1
102
RTVSPropertyOp35
 70
     1
102
RTVSPropertyOp36
 70
     1
102
RTVSPropertyOp37
 70
     1
102
RTVSPropertyOp38
 70
     1
102
RTVSPropertyOp39
 70
     1
102
RTVSPropertyOp40
 70
     1
102
RTVSPropertyOp41
 70
     1
102
RTVSPropertyOp42
 70
     1
102
RTVSPropertyOp43
 70
     1
102
RTVSPropertyOp44
 70
     1
102
RTVSPropertyOp45
 70
     1
102
RTVSPropertyOp46
 70
     1
102
RTVSPropertyOp47
 70
     1
102
RTVSPropertyOp48
 70
     1
102
RTVSPropertyOp49
 70
     1
102
RTVSPropertyOp50
 70
     1
102
RTVSPropertyOp51
 70
     0
102
RTVSPropertyOp52
 70
     0
102
RTVSPropertyOp53
 70
     1
102
RTVSPropertyOp54
 70
     1
102
RTVSPropertyOp55
 70
     1
102
RTVSPropertyOp56
 70
     1
102
RTVSPropertyOp57
 70
     1
102
RTVSPropertyOp58
 70
     1
102
RTVSPropertyOp59
 70
     1
102
RTVSPropertyOp60
 70
     1
102
RTVSPropertyOp61
 70
     1
102
RTVSPropertyOp62
 70
     1
  0
ENDSEC
  0
EOF
