0
SECTION
2
HEADER
9
$ACADVER
1
AC1015
9
$DWGCODEPAGE
3
ANSI_1252
9
$HANDSEED
5
20d
9
$ANGBASE
50
0
9
$ANGDIR
70
0
9
$ATTMODE
70
1
9
$AUNITS
70
0
9
$AUPREC
70
0
9
$CECOLOR
62
256
9
$CELTSCALE
40
1
9
$CELTYPE
6
ByLayer
9
$CELWEIGHT
370
18
9
$CLAYER
8
0
9
$CMLJUST
70
0
9
$CMLSCALE
40
1
9
$CMLSTYLE
2
Standard
9
$DIMSTYLE
2
Standard
9
$TEXTSIZE
40
0.2
9
$TEXTSTYLE
7
Standard
9
$LUNITS
70
2
9
$LUPREC
70
4
9
$EXTNAMES
290
1
9
$INSUNITS
70
4
9
$LTSCALE
40
1
9
$LWDISPLAY
290
1
9
$PDMODE
70
0
9
$PDSIZE
40
0
9
$PLINEGEN
70
0
0
ENDSEC
0
SECTION
2
CLASSES
0
CLASS
1
RASTERVARIABLES
2
AcDbRasterVariables
3
ISM
90
0
280
0
281
0
0
ENDSEC
0
SECTION
2
TABLES
0
TABLE
2
VPORT
5
203
100
AcDbSymbolTable
0
VPORT
5
1
100
AcDbSymbolTableRecord
100
AcDbViewportTableRecord
2
*Active
70
0
10
0
20
0
11
1
21
1
12
-1
22
1
13
0
23
0
14
0.5
24
0.5
15
10
25
10
16
0
26
0
36
1
17
0
27
0
37
0
0
ENDTAB
0
TABLE
2
LTYPE
5
204
100
AcDbSymbolTable
0
LTYPE
5
14
100
AcDbSymbolTableRecord
100
AcDbLinetypeTableRecord
70
0
2
ByBlock
3

72
65
73
0
40
0
0
LTYPE
5
15
100
AcDbSymbolTableRecord
100
AcDbLinetypeTableRecord
70
0
2
ByLayer
3

72
65
73
0
40
0
0
LTYPE
5
16
100
AcDbSymbolTableRecord
100
AcDbLinetypeTableRecord
70
0
2
CONTINUOUS
3
Solid line
72
65
73
0
40
0
0
LTYPE
5
6A
100
AcDbSymbolTableRecord
100
AcDbLinetypeTableRecord
70
0
2
CENTER
3
____ _ ____ _ ____ _ ____
72
65
73
4
40
47.5
49
22
74
0
49
-8.5
74
0
49
8.5
74
0
49
-8.5
74
0
0
LTYPE
5
6B
100
AcDbSymbolTableRecord
100
AcDbLinetypeTableRecord
70
0
2
DASHED
3
__ __ __ __ __ __ __ __ __
72
65
73
2
40
25.72
49
12.86
74
0
49
-12.86
74
0
0
ENDTAB
0
TABLE
2
LAYER
5
205
100
AcDbSymbolTable
0
LAYER
5
10
100
AcDbSymbolTableRecord
100
AcDbLayerTableRecord
2
0
70
0
62
7
6
CONTINUOUS
290
1
370
-3
390
0
0
LAYER
5
6F
100
AcDbSymbolTableRecord
100
AcDbLayerTableRecord
2
80
70
0
62
-6
6
CONTINUOUS
290
1
370
-3
390
0
0
LAYER
5
71
100
AcDbSymbolTableRecord
100
AcDbLayerTableRecord
2
2
70
0
62
7
6
CONTINUOUS
290
1
370
-3
390
0
0
LAYER
5
73
100
AcDbSymbolTableRecord
100
AcDbLayerTableRecord
2
81
70
0
62
-3
6
CONTINUOUS
290
1
370
-3
390
0
0
LAYER
5
78
100
AcDbSymbolTableRecord
100
AcDbLayerTableRecord
2
1
70
0
62
4
6
CONTINUOUS
290
1
370
-3
390
0
0
LAYER
5
7D
100
AcDbSymbolTableRecord
100
AcDbLayerTableRecord
2
4
70
0
62
-2
6
CENTER
290
1
370
-3
390
0
0
LAYER
5
BF
100
AcDbSymbolTableRecord
100
AcDbLayerTableRecord
2
62
70
0
62
-5
6
CONTINUOUS
290
1
370
-3
390
0
0
LAYER
5
1ee
100
AcDbSymbolTableRecord
100
AcDbLayerTableRecord
2
CUT
70
0
62
-1
6
CONTINUOUS
290
1
370
-3
390
0
0
LAYER
5
1ef
100
AcDbSymbolTableRecord
100
AcDbLayerTableRecord
2
SK2
70
0
62
7
6
CONTINUOUS
290
1
370
-3
390
0
0
LAYER
5
1f0
100
AcDbSymbolTableRecord
100
AcDbLayerTableRecord
2
SK4
70
0
62
2
6
CENTER
290
1
370
-3
390
0
0
LAYER
5
1f1
100
AcDbSymbolTableRecord
100
AcDbLayerTableRecord
2
SK1
70
0
62
4
6
CONTINUOUS
290
1
370
-3
390
0
0
LAYER
5
1f2
100
AcDbSymbolTableRecord
100
AcDbLayerTableRecord
2
SK6
70
0
62
5
6
CONTINUOUS
290
1
370
-3
390
0
0
ENDTAB
0
TABLE
2
STYLE
5
206
100
AcDbSymbolTable
0
STYLE
5
11
100
AcDbSymbolTableRecord
100
AcDbTextStyleTableRecord
2
Standard
3
txt
70
0
71
0
40
0
41
1
42
0
50
0
0
STYLE
5
144
100
AcDbSymbolTableRecord
100
AcDbTextStyleTableRecord
2
iso_b_vert
3
simplex.shx
70
0
71
0
40
0
41
1
42
0
50
0
0
STYLE
5
145
100
AcDbSymbolTableRecord
100
AcDbTextStyleTableRecord
2
DWGDirectTextStyle
3
simplex
70
0
71
0
40
0
41
1
42
0
50
0
0
ENDTAB
0
TABLE
2
DIMSTYLE
5
207
100
AcDbSymbolTable
100
AcDbDimStyleTable
0
DIMSTYLE
105
27
100
AcDbSymbolTableRecord
100
AcDbDimStyleTableRecord
2
Standard
70
0
3
<>
41
0.18
42
0.0625
44
0.18
140
0.18
147
0.09
73
0
74
0
77
1
271
2
275
0
278
52
280
0
340
11
0
ENDTAB
0
TABLE
2
VIEW
5
208
100
AcDbSymbolTable
0
ENDTAB
0
TABLE
2
UCS
5
209
100
AcDbSymbolTable
0
ENDTAB
0
TABLE
2
APPID
5
20a
100
AcDbSymbolTable
0
APPID
5
12
100
AcDbSymbolTableRecord
100
AcDbRegAppTableRecord
2
ACAD
70
0
0
ENDTAB
0
TABLE
2
BLOCK_RECORD
5
20b
100
AcDbSymbolTable
0
BLOCK_RECORD
5
1F
100
AcDbSymbolTableRecord
100
AcDbBlockTableRecord
2
*Model_Space
340
0
70
0
0
BLOCK_RECORD
5
1B
100
AcDbSymbolTableRecord
100
AcDbBlockTableRecord
2
*Paper_Space
340
0
70
0
0
BLOCK_RECORD
5
23
100
AcDbSymbolTableRecord
100
AcDbBlockTableRecord
2
*Paper_Space0
340
0
70
0
0
BLOCK_RECORD
5
147
100
AcDbSymbolTableRecord
100
AcDbBlockTableRecord
2
DimnDraft3D11
340
0
70
0
0
BLOCK_RECORD
5
155
100
AcDbSymbolTableRecord
100
AcDbBlockTableRecord
2
DimnDraft3D2
340
0
70
0
0
BLOCK_RECORD
5
163
100
AcDbSymbolTableRecord
100
AcDbBlockTableRecord
2
_CLOSED
340
0
70
0
0
BLOCK_RECORD
5
16A
100
AcDbSymbolTableRecord
100
AcDbBlockTableRecord
2
DimnDraft3D3
340
0
70
0
0
BLOCK_RECORD
5
178
100
AcDbSymbolTableRecord
100
AcDbBlockTableRecord
2
DimnDraft3D4
340
0
70
0
0
BLOCK_RECORD
5
186
100
AcDbSymbolTableRecord
100
AcDbBlockTableRecord
2
DimnDraft3D5
340
0
70
0
0
ENDTAB
0
ENDSEC
0
SECTION
2
BLOCKS
0
BLOCK
5
20
100
AcDbEntity
8
0
100
AcDbBlockBegin
2
*Model_Space
70
0
10
0
20
0
30
0
3
*Model_Space
0
ENDBLK
5
21
100
AcDbEntity
8
0
100
AcDbBlockEnd
0
BLOCK
5
1C
100
AcDbEntity
8
0
100
AcDbBlockBegin
2
*Paper_Space
70
0
10
0
20
0
30
0
3
*Paper_Space
0
ENDBLK
5
1D
100
AcDbEntity
8
0
100
AcDbBlockEnd
0
BLOCK
5
24
100
AcDbEntity
8
0
100
AcDbBlockBegin
2
*Paper_Space0
70
0
10
0
20
0
30
0
3
*Paper_Space0
0
ENDBLK
5
25
100
AcDbEntity
8
0
100
AcDbBlockEnd
0
BLOCK
5
148
100
AcDbEntity
8
0
100
AcDbBlockBegin
2
DimnDraft3D11
70
0
10
0
20
0
30
0
3
DimnDraft3D11
0
LINE
5
14A
100
AcDbEntity
8
2
62
256
6
ByLayer
370
25
48
1
60
0
100
AcDbLine
10
40
20
-29.5
30
0
11
40
21
-11.25
31
0
39
0
210
0
220
0
230
1
0
LINE
5
14B
100
AcDbEntity
8
2
62
256
6
ByLayer
370
25
48
1
60
0
100
AcDbLine
10
60
20
-32
30
0
11
60
21
-11.25
31
0
39
0
210
0
220
0
230
1
0
LINE
5
14C
100
AcDbEntity
8
2
62
256
6
ByLayer
370
25
48
1
60
0
100
AcDbLine
10
40
20
-14.25
30
0
11
60
21
-14.25
31
0
39
0
210
0
220
0
230
1
0
LINE
5
14D
100
AcDbEntity
8
2
62
256
6
ByLayer
370
25
48
1
60
0
100
AcDbLine
10
40
20
-14.25
30
0
11
42.999999
21
-13.855043
31
0
39
0
210
0
220
0
230
1
0
LINE
5
14E
100
AcDbEntity
8
2
62
256
6
ByLayer
370
25
48
1
60
0
100
AcDbLine
10
40
20
-14.25
30
0
11
43.000001
21
-14.644957
31
0
39
0
210
0
220
0
230
1
0
LINE
5
14F
100
AcDbEntity
8
2
62
256
6
ByLayer
370
25
48
1
60
0
100
AcDbLine
10
42.999999
20
-13.855043
30
0
11
43.000001
21
-14.644957
31
0
39
0
210
0
220
0
230
1
0
LINE
5
150
100
AcDbEntity
8
2
62
256
6
ByLayer
370
25
48
1
60
0
100
AcDbLine
10
60
20
-14.25
30
0
11
57.000001
21
-14.644957
31
0
39
0
210
0
220
0
230
1
0
LINE
5
151
100
AcDbEntity
8
2
62
256
6
ByLayer
370
25
48
1
60
0
100
AcDbLine
10
60
20
-14.25
30
0
11
56.999999
21
-13.855043
31
0
39
0
210
0
220
0
230
1
0
LINE
5
152
100
AcDbEntity
8
2
62
256
6
ByLayer
370
25
48
1
60
0
100
AcDbLine
10
57.000001
20
-14.644957
30
0
11
56.999999
21
-13.855043
31
0
39
0
210
0
220
0
230
1
0
MTEXT
5
153
100
AcDbEntity
8
2
62
256
6
ByLayer
370
18
48
1
60
0
100
AcDbMText
10
48.436842
20
-13.125
30
0
210
0
220
0
230
1
1
\W0.6740;20
40
4.5
41
0
44
1.084337
50
0
71
7
72
5
7
iso_b_vert
0
ENDBLK
5
149
100
AcDbEntity
8
0
100
AcDbBlockEnd
0
BLOCK
5
160
100
AcDbEntity
8
0
100
AcDbBlockBegin
2
DimnDraft3D2
70
0
10
0
20
0
30
0
3
DimnDraft3D2
0
MTEXT
5
156
100
AcDbEntity
8
2
62
256
6
ByLayer
370
18
48
1
60
0
100
AcDbMText
10
73.125
20
-26.375
30
0
210
0
220
0
230
1
1
\W0.5404;3
40
4.5
41
0
44
1.084337
50
90
71
7
72
5
7
iso_b_vert
0
LINE
5
157
100
AcDbEntity
8
2
62
256
6
ByLayer
370
13
48
1
60
0
100
AcDbLine
10
61.5
20
-32
30
0
11
77.25
21
-32
31
0
39
0
210
0
220
0
230
1
0
LINE
5
158
100
AcDbEntity
8
2
62
256
6
ByLayer
370
13
48
1
60
0
100
AcDbLine
10
61.5
20
-35
30
0
11
77.25
21
-35
31
0
39
0
210
0
220
0
230
1
0
LINE
5
159
100
AcDbEntity
8
2
62
256
6
ByLayer
370
13
48
1
60
0
100
AcDbLine
10
74.25
20
-46.25
30
0
11
74.25
21
-25.486842
31
0
39
0
210
0
220
0
230
1
0
LINE
5
15A
100
AcDbEntity
8
2
62
256
6
ByLayer
370
13
48
1
60
0
100
AcDbLine
10
74.25
20
-32
30
0
11
73.855043
21
-29.000001
31
0
39
0
210
0
220
0
230
1
0
LINE
5
15B
100
AcDbEntity
8
2
62
256
6
ByLayer
370
13
48
1
60
0
100
AcDbLine
10
74.25
20
-32
30
0
11
74.644957
21
-28.999999
31
0
39
0
210
0
220
0
230
1
0
LINE
5
15C
100
AcDbEntity
8
2
62
256
6
ByLayer
370
13
48
1
60
0
100
AcDbLine
10
73.855043
20
-29.000001
30
0
11
74.644957
21
-28.999999
31
0
39
0
210
0
220
0
230
1
0
LINE
5
15D
100
AcDbEntity
8
2
62
256
6
ByLayer
370
13
48
1
60
0
100
AcDbLine
10
74.25
20
-35
30
0
11
74.644957
21
-37.999999
31
0
39
0
210
0
220
0
230
1
0
LINE
5
15E
100
AcDbEntity
8
2
62
256
6
ByLayer
370
13
48
1
60
0
100
AcDbLine
10
74.25
20
-35
30
0
11
73.855043
21
-38.000001
31
0
39
0
210
0
220
0
230
1
0
LINE
5
15F
100
AcDbEntity
8
2
62
256
6
ByLayer
370
13
48
1
60
0
100
AcDbLine
10
74.644957
20
-37.999999
30
0
11
73.855043
21
-38.000001
31
0
39
0
210
0
220
0
230
1
0
ENDBLK
5
161
100
AcDbEntity
8
0
100
AcDbBlockEnd
0
BLOCK
5
164
100
AcDbEntity
8
0
100
AcDbBlockBegin
2
_CLOSED
70
0
10
0
20
0
30
0
3
_CLOSED
0
LINE
5
166
100
AcDbEntity
8
0
62
256
6
ByLayer
370
-2
48
1
60
0
100
AcDbLine
10
-1
20
0.166667
30
0
11
0
21
0
31
0
39
0
210
0
220
0
230
1
0
LINE
5
167
100
AcDbEntity
8
0
62
256
6
ByLayer
370
-2
48
1
60
0
100
AcDbLine
10
0
20
0
30
0
11
-1
21
-0.166667
31
0
39
0
210
0
220
0
230
1
0
LINE
5
168
100
AcDbEntity
8
0
62
256
6
ByLayer
370
-2
48
1
60
0
100
AcDbLine
10
-1
20
0.166667
30
0
11
-1
21
-0.166667
31
0
39
0
210
0
220
0
230
1
0
LINE
5
169
100
AcDbEntity
8
0
62
256
6
ByLayer
370
-2
48
1
60
0
100
AcDbLine
10
0
20
0
30
0
11
-1
21
0
31
0
39
0
210
0
220
0
230
1
0
ENDBLK
5
165
100
AcDbEntity
8
0
100
AcDbBlockEnd
0
BLOCK
5
175
100
AcDbEntity
8
0
100
AcDbBlockBegin
2
DimnDraft3D3
70
0
10
0
20
0
30
0
3
DimnDraft3D3
0
MTEXT
5
16B
100
AcDbEntity
8
2
62
256
6
ByLayer
370
18
48
1
60
0
100
AcDbMText
10
83.125
20
-19.063158
30
0
210
0
220
0
230
1
1
\W0.6740;35
40
4.5
41
0
44
1.084337
50
90
71
7
72
5
7
iso_b_vert
0
LINE
5
16C
100
AcDbEntity
8
2
62
256
6
ByLayer
370
13
48
1
60
0
100
AcDbLine
10
61.5
20
-35
30
0
11
87.25
21
-35
31
0
39
0
210
0
220
0
230
1
0
LINE
5
16D
100
AcDbEntity
8
2
62
256
6
ByLayer
370
13
48
1
60
0
100
AcDbLine
10
16.5
20
0
30
0
11
87.25
21
0
31
0
39
0
210
0
220
0
230
1
0
LINE
5
16E
100
AcDbEntity
8
2
62
256
6
ByLayer
370
13
48
1
60
0
100
AcDbLine
10
84.25
20
-35
30
0
11
84.25
21
0
31
0
39
0
210
0
220
0
230
1
0
LINE
5
16F
100
AcDbEntity
8
2
62
256
6
ByLayer
370
13
48
1
60
0
100
AcDbLine
10
84.25
20
-35
30
0
11
83.855043
21
-32.000001
31
0
39
0
210
0
220
0
230
1
0
LINE
5
170
100
AcDbEntity
8
2
62
256
6
ByLayer
370
13
48
1
60
0
100
AcDbLine
10
84.25
20
-35
30
0
11
84.644957
21
-31.999999
31
0
39
0
210
0
220
0
230
1
0
LINE
5
171
100
AcDbEntity
8
2
62
256
6
ByLayer
370
13
48
1
60
0
100
AcDbLine
10
83.855043
20
-32.000001
30
0
11
84.644957
21
-31.999999
31
0
39
0
210
0
220
0
230
1
0
LINE
5
172
100
AcDbEntity
8
2
62
256
6
ByLayer
370
13
48
1
60
0
100
AcDbLine
10
84.25
20
0
30
0
11
84.644957
21
-2.999999
31
0
39
0
210
0
220
0
230
1
0
LINE
5
173
100
AcDbEntity
8
2
62
256
6
ByLayer
370
13
48
1
60
0
100
AcDbLine
10
84.25
20
0
30
0
11
83.855043
21
-3.000001
31
0
39
0
210
0
220
0
230
1
0
LINE
5
174
100
AcDbEntity
8
2
62
256
6
ByLayer
370
13
48
1
60
0
100
AcDbLine
10
84.644957
20
-2.999999
30
0
11
83.855043
21
-3.000001
31
0
39
0
210
0
220
0
230
1
0
ENDBLK
5
176
100
AcDbEntity
8
0
100
AcDbBlockEnd
0
BLOCK
5
183
100
AcDbEntity
8
0
100
AcDbBlockBegin
2
DimnDraft3D4
70
0
10
0
20
0
30
0
3
DimnDraft3D4
0
MTEXT
5
179
100
AcDbEntity
8
2
62
256
6
ByLayer
370
18
48
1
60
0
100
AcDbMText
10
28.436842
20
45.875
30
0
210
0
220
0
230
1
1
\W0.6740;60
40
4.5
41
0
44
1.084337
50
0
71
7
72
5
7
iso_b_vert
0
LINE
5
17A
100
AcDbEntity
8
2
62
256
6
ByLayer
370
13
48
1
60
0
100
AcDbLine
10
0
20
25.5
30
0
11
0
21
47.75
31
0
39
0
210
0
220
0
230
1
0
LINE
5
17B
100
AcDbEntity
8
2
62
256
6
ByLayer
370
13
48
1
60
0
100
AcDbLine
10
60
20
-30.5
30
0
11
60
21
47.75
31
0
39
0
210
0
220
0
230
1
0
LINE
5
17C
100
AcDbEntity
8
2
62
256
6
ByLayer
370
13
48
1
60
0
100
AcDbLine
10
0
20
44.75
30
0
11
60
21
44.75
31
0
39
0
210
0
220
0
230
1
0
LINE
5
17D
100
AcDbEntity
8
2
62
256
6
ByLayer
370
13
48
1
60
0
100
AcDbLine
10
0
20
44.75
30
0
11
2.999999
21
45.144957
31
0
39
0
210
0
220
0
230
1
0
LINE
5
17E
100
AcDbEntity
8
2
62
256
6
ByLayer
370
13
48
1
60
0
100
AcDbLine
10
0
20
44.75
30
0
11
3.000001
21
44.355043
31
0
39
0
210
0
220
0
230
1
0
LINE
5
17F
100
AcDbEntity
8
2
62
256
6
ByLayer
370
13
48
1
60
0
100
AcDbLine
10
2.999999
20
45.144957
30
0
11
3.000001
21
44.355043
31
0
39
0
210
0
220
0
230
1
0
LINE
5
180
100
AcDbEntity
8
2
62
256
6
ByLayer
370
13
48
1
60
0
100
AcDbLine
10
60
20
44.75
30
0
11
57.000001
21
44.355043
31
0
39
0
210
0
220
0
230
1
0
LINE
5
181
100
AcDbEntity
8
2
62
256
6
ByLayer
370
13
48
1
60
0
100
AcDbLine
10
60
20
44.75
30
0
11
56.999999
21
45.144957
31
0
39
0
210
0
220
0
230
1
0
LINE
5
182
100
AcDbEntity
8
2
62
256
6
ByLayer
370
13
48
1
60
0
100
AcDbLine
10
57.000001
20
44.355043
30
0
11
56.999999
21
45.144957
31
0
39
0
210
0
220
0
230
1
0
ENDBLK
5
184
100
AcDbEntity
8
0
100
AcDbBlockEnd
0
BLOCK
5
192
100
AcDbEntity
8
0
100
AcDbBlockBegin
2
DimnDraft3D5
70
0
10
0
20
0
30
0
3
DimnDraft3D5
0
MTEXT
5
187
100
AcDbEntity
8
SK2
62
256
6
ByLayer
370
18
48
1
60
0
100
AcDbMText
10
-43.625
20
5.186842
30
0
210
0
220
0
230
1
1
\W0.6740;50
40
4.5
41
0
44
1.084337
50
90
71
7
72
5
7
iso_b_vert
0
MTEXT
5
188
100
AcDbEntity
8
SK2
62
256
6
ByLayer
370
18
48
1
60
0
100
AcDbMText
10
-43.625
20
-6.028002
30
0
210
0
220
0
230
1
1
%%c
40
4.5
41
0
44
1.084337
50
90
71
7
72
5
7
iso_b_vert
0
LINE
5
189
100
AcDbEntity
8
SK2
62
256
6
ByLayer
370
13
48
1
60
0
100
AcDbLine
10
-1.5
20
-25
30
0
11
-44.375
21
-25
31
0
39
0
210
0
220
0
230
1
0
LINE
5
18A
100
AcDbEntity
8
SK2
62
256
6
ByLayer
370
13
48
1
60
0
100
AcDbLine
10
-1.5
20
25
30
0
11
-44.375
21
25
31
0
39
0
210
0
220
0
230
1
0
LINE
5
18B
100
AcDbEntity
8
SK2
62
256
6
ByLayer
370
13
48
1
60
0
100
AcDbLine
10
-41.375
20
-25
30
0
11
-41.375
21
25
31
0
39
0
210
0
220
0
230
1
0
LINE
5
18C
100
AcDbEntity
8
SK2
62
256
6
ByLayer
370
13
48
1
60
0
100
AcDbLine
10
-41.375
20
-25
30
0
11
-41.769957
21
-22.000001
31
0
39
0
210
0
220
0
230
1
0
LINE
5
18D
100
AcDbEntity
8
SK2
62
256
6
ByLayer
370
13
48
1
60
0
100
AcDbLine
10
-41.375
20
-25
30
0
11
-40.980043
21
-21.999999
31
0
39
0
210
0
220
0
230
1
0
LINE
5
18E
100
AcDbEntity
8
SK2
62
256
6
ByLayer
370
13
48
1
60
0
100
AcDbLine
10
-41.769957
20
-22.000001
30
0
11
-40.980043
21
-21.999999
31
0
39
0
210
0
220
0
230
1
0
LINE
5
18F
100
AcDbEntity
8
SK2
62
256
6
ByLayer
370
13
48
1
60
0
100
AcDbLine
10
-41.375
20
25
30
0
11
-40.980043
21
22.000001
31
0
39
0
210
0
220
0
230
1
0
LINE
5
190
100
AcDbEntity
8
SK2
62
256
6
ByLayer
370
13
48
1
60
0
100
AcDbLine
10
-41.375
20
25
30
0
11
-41.769957
21
21.999999
31
0
39
0
210
0
220
0
230
1
0
LINE
5
191
100
AcDbEntity
8
SK2
62
256
6
ByLayer
370
13
48
1
60
0
100
AcDbLine
10
-40.980043
20
22.000001
30
0
11
-41.769957
21
21.999999
31
0
39
0
210
0
220
0
230
1
0
ENDBLK
5
193
100
AcDbEntity
8
0
100
AcDbBlockEnd
0
ENDSEC
0
SECTION
2
ENTITIES
0
ARC
5
C0
100
AcDbEntity
8
SK1
62
256
6
ByLayer
370
18
48
1
60
0
100
AcDbCircle
39
0
10
0.6
20
-18.75
30
0
40
1.00000000000001
210
0
220
0
230
-1
100
AcDbArc
50
113.578178
51
126.869898
0
ARC
5
C1
100
AcDbEntity
8
SK1
62
256
6
ByLayer
370
18
48
1
60
0
100
AcDbCircle
39
0
10
0.6
20
18.75
30
0
40
1.00000000000001
210
0
220
0
230
-1
100
AcDbArc
50
233.130102
51
246.421822
0
ARC
5
C3
100
AcDbEntity
8
1
62
256
6
ByLayer
370
18
48
1
60
0
100
AcDbCircle
39
0
10
-40.1
20
-30.725
30
0
40
1.6
210
0
220
0
230
-1
100
AcDbArc
50
270
51
0
0
ARC
5
C6
100
AcDbEntity
8
1
62
256
6
ByLayer
370
18
48
1
60
0
100
AcDbCircle
39
0
10
32.5
20
-28.175
30
0
40
1.416
210
0
220
0
230
1
100
AcDbArc
50
96.192438
51
150.190711
0
ARC
5
C7
100
AcDbEntity
8
1
62
256
6
ByLayer
370
18
48
1
60
0
100
AcDbCircle
39
0
10
32.5
20
-28.175
30
0
40
1.416
210
0
220
0
230
1
100
AcDbArc
50
263.807562
51
276.192438
0
ARC
5
C8
100
AcDbEntity
8
1
62
256
6
ByLayer
370
18
48
1
60
0
100
AcDbCircle
39
0
10
32.5
20
-28.175
30
0
40
1.9685
210
0
220
0
230
1
100
AcDbArc
50
120.381422
51
180
0
ARC
5
C9
100
AcDbEntity
8
1
62
256
6
ByLayer
370
18
48
1
60
0
100
AcDbCircle
39
0
10
32.5
20
-28.175
30
0
40
1.416
210
0
220
0
230
1
100
AcDbArc
50
29.809289
51
83.807562
0
ARC
5
CA
100
AcDbEntity
8
1
62
256
6
ByLayer
370
18
48
1
60
0
100
AcDbCircle
39
0
10
32.5
20
-28.175
30
0
40
1.416
210
0
220
0
230
1
100
AcDbArc
50
330.190711
51
29.809289
0
ARC
5
CB
100
AcDbEntity
8
1
62
256
6
ByLayer
370
18
48
1
60
0
100
AcDbCircle
39
0
10
32.5
20
-28.175
30
0
40
1.9685
210
0
220
0
230
1
100
AcDbArc
50
239.618578
51
300.381422
0
ARC
5
CC
100
AcDbEntity
8
1
62
256
6
ByLayer
370
18
48
1
60
0
100
AcDbCircle
39
0
10
32.5
20
-28.175
30
0
40
1.9685
210
0
220
0
230
1
100
AcDbArc
50
180
51
239.618578
0
ARC
5
CD
100
AcDbEntity
8
1
62
256
6
ByLayer
370
18
48
1
60
0
100
AcDbCircle
39
0
10
32.5
20
-28.175
30
0
40
1.416
210
0
220
0
230
1
100
AcDbArc
50
83.807562
51
96.192438
0
ARC
5
CE
100
AcDbEntity
8
1
62
256
6
ByLayer
370
18
48
1
60
0
100
AcDbCircle
39
0
10
32.5
20
-28.175
30
0
40
1.416
210
0
220
0
230
1
100
AcDbArc
50
276.192438
51
330.190711
0
ARC
5
CF
100
AcDbEntity
8
1
62
256
6
ByLayer
370
18
48
1
60
0
100
AcDbCircle
39
0
10
32.5
20
-28.175
30
0
40
1.9685
210
0
220
0
230
1
100
AcDbArc
50
59.618578
51
120.381422
0
ARC
5
D0
100
AcDbEntity
8
1
62
256
6
ByLayer
370
18
48
1
60
0
100
AcDbCircle
39
0
10
32.5
20
-28.175
30
0
40
1.9685
210
0
220
0
230
1
100
AcDbArc
50
0
51
59.618578
0
ARC
5
D1
100
AcDbEntity
8
1
62
256
6
ByLayer
370
18
48
1
60
0
100
AcDbCircle
39
0
10
32.5
20
-28.175
30
0
40
1.416
210
0
220
0
230
1
100
AcDbArc
50
209.809289
51
263.807562
0
ARC
5
D2
100
AcDbEntity
8
1
62
256
6
ByLayer
370
18
48
1
60
0
100
AcDbCircle
39
0
10
32.5
20
-28.175
30
0
40
1.416
210
0
220
0
230
1
100
AcDbArc
50
150.190711
51
209.809289
0
ARC
5
D3
100
AcDbEntity
8
1
62
256
6
ByLayer
370
18
48
1
60
0
100
AcDbCircle
39
0
10
32.5
20
-28.175
30
0
40
1.9685
210
0
220
0
230
1
100
AcDbArc
50
300.381422
51
0
0
CIRCLE
5
BE
100
AcDbEntity
8
62
62
256
6
ByLayer
370
18
48
1
60
0
100
AcDbCircle
10
32.5
20
28.175
30
0
40
5
39
0
210
0
220
0
230
1
0
CIRCLE
5
C2
100
AcDbEntity
8
62
62
256
6
ByLayer
370
18
48
1
60
0
100
AcDbCircle
10
32.5
20
28.175
30
0
40
5
39
0
210
0
220
0
230
1
0
CIRCLE
5
C4
100
AcDbEntity
8
1
62
256
6
ByLayer
370
18
48
1
60
0
100
AcDbCircle
10
7.5
20
0
30
0
40
2
39
0
210
0
220
0
230
1
0
CIRCLE
5
C5
100
AcDbEntity
8
1
62
256
6
ByLayer
370
18
48
1
60
0
100
AcDbCircle
10
32.5
20
-28.175
30
0
40
4.99999999999999
39
0
210
0
220
0
230
1
0
CIRCLE
5
D4
100
AcDbEntity
8
1
62
256
6
ByLayer
370
18
48
1
60
0
100
AcDbCircle
10
-32.5
20
-28.175
30
0
40
3.75
39
0
210
0
220
0
230
-1
0
CIRCLE
5
D5
100
AcDbEntity
8
1
62
256
6
ByLayer
370
18
48
1
60
0
100
AcDbCircle
10
-32.5
20
-28.175
30
0
40
4.25
39
0
210
0
220
0
230
-1
0
ELLIPSE
5
D6
100
AcDbEntity
8
1
62
256
6
ByLayer
370
18
48
1
60
0
100
AcDbEllipse
10
55.034302
20
-34.058476
30
0
11
-5.39543115905061E-09
21
-0.499999986496657
31
0
210
0
220
0
230
1
40
0.493963
41
1.13446402619196
42
1.22173049085704
0
ELLIPSE
5
D7
100
AcDbEntity
8
1
62
256
6
ByLayer
370
18
48
1
60
0
100
AcDbEllipse
10
16.612421
20
-1.606766
30
0
11
-0.00803358549023607
21
6.09326268614812
31
0
210
0
220
0
230
1
40
0.086139
41
-1.11581152226314
42
-2.05639042703738
0
ELLIPSE
5
D8
100
AcDbEntity
8
1
62
256
6
ByLayer
370
18
48
1
60
0
100
AcDbEllipse
10
-1.056258
20
0
30
0
11
-11.7092723497277
21
-24.677186440938
31
0
210
0
220
0
230
1
40
0.341999
41
2.05975995310053
42
2.97437958168082
0
ELLIPSE
5
D9
100
AcDbEntity
8
1
62
256
6
ByLayer
370
18
48
1
60
0
100
AcDbEllipse
10
18.187217
20
0
30
0
11
2.92863335579069E-14
21
25
31
0
210
0
220
0
230
1
40
0.087489
41
0.530604807801556
42
2.61098784578824
0
ELLIPSE
5
DA
100
AcDbEntity
8
1
62
256
6
ByLayer
370
18
48
1
60
0
100
AcDbEllipse
10
21.056258
20
0
30
0
11
-11.7092723497277
21
24.6771864409381
31
0
210
0
220
0
230
1
40
0.341999
41
0.167213071908976
42
1.08183270048926
0
ELLIPSE
5
DB
100
AcDbEntity
8
1
62
256
6
ByLayer
370
18
48
1
60
0
100
AcDbEllipse
10
21.056258
20
0
30
0
11
-11.7092723497276
21
-24.6771864409377
31
0
210
0
220
0
230
1
40
0.341999
41
-1.08183270048927
42
-0.167213071908978
0
ELLIPSE
5
DC
100
AcDbEntity
8
1
62
256
6
ByLayer
370
18
48
1
60
0
100
AcDbEllipse
10
-1.056258
20
0
30
0
11
-11.7092723497269
21
24.677186440937
31
0
210
0
220
0
230
1
40
0.341999
41
-2.97437958168081
42
-2.0597599531005
0
ELLIPSE
5
DD
100
AcDbEntity
8
1
62
256
6
ByLayer
370
18
48
1
60
0
100
AcDbEllipse
10
55.034302
20
-32.941524
30
0
11
-9.6787019514906E-09
21
-0.500000023957054
31
0
210
0
220
0
230
1
40
0.493963
41
1.91986220343039
42
2.00712866238333
0
POINT
5
6C
100
AcDbEntity
8
CUT
62
256
6
ByLayer
370
18
48
1
60
0
100
AcDbPoint
10
12
20
0
30
0
39
0
210
0
220
0
230
1
50
360
0
POINT
5
6E
100
AcDbEntity
8
80
62
256
6
ByLayer
370
18
48
1
60
0
100
AcDbPoint
10
0
20
0
30
0
39
0
210
0
220
0
230
1
50
360
0
POINT
5
70
100
AcDbEntity
8
2
62
256
6
ByLayer
370
18
48
1
60
0
100
AcDbPoint
10
60
20
35
30
0
39
0
210
0
220
0
230
1
50
360
0
POINT
5
72
100
AcDbEntity
8
81
62
256
6
ByLayer
370
18
48
1
60
0
100
AcDbPoint
10
60
20
-35
30
0
39
0
210
0
220
0
230
1
50
360
0
POINT
5
74
100
AcDbEntity
8
SK2
62
256
6
ByLayer
370
18
48
1
60
1
100
AcDbPoint
10
0
20
-25
30
0
39
0
210
0
220
0
230
1
50
360
0
POINT
5
76
100
AcDbEntity
8
SK2
62
256
6
ByLayer
370
18
48
1
60
1
100
AcDbPoint
10
0
20
25
30
0
39
0
210
0
220
0
230
1
50
360
0
SPLINE
5
DE
100
AcDbEntity
8
SK1
62
256
6
ByLayer
370
18
48
1
60
0
100
AcDbSpline
70
4
71
2
72
6
73
3
40
0
40
0
40
0
40
1
40
1
40
1
41
1
10
-28.5
20
-16.854272429841
30
0
41
1
10
-15.3499999999294
20
-17.1845422725478
30
0
41
1
10
-2.20000000000002
20
-17.5148117187522
30
0
0
SPLINE
5
DF
100
AcDbEntity
8
SK1
62
256
6
ByLayer
370
18
48
1
60
0
100
AcDbSpline
70
4
71
2
72
6
73
3
40
0
40
0
40
0
40
1
40
1
40
1
41
1
10
-2.19999999999999
20
17.5148116792767
30
0
41
1
10
-15.3499999999286
20
17.1845422635703
30
0
41
1
10
-28.5
20
16.8542724489282
30
0
0
SPLINE
5
E0
100
AcDbEntity
8
SK1
62
256
6
ByLayer
370
18
48
1
60
0
100
AcDbSpline
70
4
71
3
72
13
73
9
40
0
40
0
40
0
40
0
40
0.239456135686852
40
0.368359721835155
40
0.499998983918667
40
0.631638415195385
40
0.7605424677172
40
1
40
1
40
1
40
1
41
1
10
-2.20000000000002
20
-17.5200987347078
30
0
41
1
10
-2.19909198642128
20
-17.4940412586114
30
0
41
1
10
-2.19103284106791
20
-17.4566686743027
30
0
41
1
10
-2.16563592203161
20
-17.4104495005037
30
0
41
1
10
-2.1388637867905
20
-17.3791679466684
30
0
41
1
10
-2.10627712749667
20
-17.3540005764861
30
0
41
1
10
-2.05884064233984
20
-17.3309567740351
30
0
41
1
10
-2.02111030872967
20
-17.324784519015
30
0
41
1
10
-1.99503997793931
20
-17.3251861589552
30
0
0
SPLINE
5
E1
100
AcDbEntity
8
SK1
62
256
6
ByLayer
370
18
48
1
60
0
100
AcDbSpline
70
4
71
3
72
13
73
9
40
0
40
0
40
0
40
0
40
0.239457532237385
40
0.368361584743632
40
0.500001016014352
40
0.631640278103004
40
0.760543864266449
40
1
40
1
40
1
40
1
41
1
10
-1.99503997793928
20
17.3251859759625
30
0
41
1
10
-2.02111030873058
20
17.3247843360228
30
0
41
1
10
-2.05884064234166
20
17.3309565910454
30
0
41
1
10
-2.10627712749797
20
17.3540003935063
30
0
41
1
10
-2.13886378679172
20
17.3791677636994
30
0
41
1
10
-2.16563592203252
20
17.4104493175479
30
0
41
1
10
-2.19103284106859
20
17.4566684913667
30
0
41
1
10
-2.19909198642196
20
17.4940410756898
30
0
41
1
10
-2.19999999999999
20
17.520098551796
30
0
0
SPLINE
5
E2
100
AcDbEntity
8
SK1
62
256
6
ByLayer
370
18
48
1
60
0
100
AcDbSpline
70
4
71
2
72
6
73
3
40
0
40
0
40
0
40
1
40
1
40
1
41
1
10
-1.99503997793931
20
-17.3199593319919
30
0
41
1
10
-1.19500843340705
20
-17.3400525762132
30
0
41
1
10
-0.394976888875306
20
-17.3601458189993
30
0
0
SPLINE
5
E3
100
AcDbEntity
8
SK1
62
256
6
ByLayer
370
18
48
1
60
0
100
AcDbSpline
70
4
71
2
72
6
73
3
40
0
40
0
40
0
40
1
40
1
40
1
41
1
10
-0.394976888875277
20
17.3601457933935
30
0
41
1
10
-1.19500843340703
20
17.340052552406
30
0
41
1
10
-1.99503997793928
20
17.3199593099743
30
0
0
SPLINE
5
E4
100
AcDbEntity
8
SK1
62
256
6
ByLayer
370
18
48
1
60
0
100
AcDbSpline
70
4
71
2
72
6
73
3
40
0
40
0
40
0
40
1
40
1
40
1
41
1
10
-28.5
20
16.8584504491482
30
0
41
1
10
-29.2499999991495
20
16.4254650261934
30
0
41
1
10
-30
20
15.9924794145163
30
0
0
SPLINE
5
E5
100
AcDbEntity
8
SK1
62
256
6
ByLayer
370
18
48
1
60
0
100
AcDbSpline
70
4
71
2
72
6
73
3
40
0
40
0
40
0
40
1
40
1
40
1
41
1
10
-30
20
-15.99247954079
30
0
41
1
10
-29.2499999991496
20
-16.4254651505506
30
0
41
1
10
-28.5
20
-16.8584505716142
30
0
0
SPLINE
5
E6
100
AcDbEntity
8
SK1
62
256
6
ByLayer
370
18
48
1
60
0
100
AcDbSpline
70
4
71
2
72
6
73
3
40
0
40
0
40
0
40
1
40
1
40
1
41
1
10
-0.258658740615658
20
17.4310145299902
30
0
41
1
10
-0.305277226309727
20
17.3671842624703
30
0
41
1
10
-0.394976888875277
20
17.359696795897
30
0
0
SPLINE
5
E7
100
AcDbEntity
8
SK1
62
256
6
ByLayer
370
18
48
1
60
0
100
AcDbSpline
70
4
71
2
72
6
73
3
40
0
40
0
40
0
40
1
40
1
40
1
41
1
10
-0.394976888875306
20
-17.3596982935394
30
0
41
1
10
-0.305123774552612
20
-17.3672404580573
30
0
41
1
10
-0.258442643302459
20
-17.4312381196178
30
0
0
SPLINE
5
E8
100
AcDbEntity
8
1
62
256
6
ByLayer
370
18
48
1
60
0
100
AcDbSpline
70
4
71
3
72
10
73
6
40
0
40
0
40
0
40
0
40
0.5
40
0.5
40
1
40
1
40
1
40
1
41
1
10
17.0803645201175
20
1.07153213843566
30
0
41
1
10
17.1178257654472
20
0.20959780080392
30
0
41
1
10
17.1913554645008
20
-0.739893229886832
30
0
41
1
10
17.1929476018296
20
-2.63787656697892
30
0
41
1
10
17.11829231991
20
-3.59079188052891
30
0
41
1
10
17.0803645201175
20
-4.45008563827327
30
0
0
SPLINE
5
E9
100
AcDbEntity
8
1
62
256
6
ByLayer
370
18
48
1
60
0
100
AcDbSpline
70
4
71
3
72
8
73
4
40
0
40
0
40
0
40
0
40
1
40
1
40
1
40
1
41
1
10
21.8480302767878
20
27
30
0
41
1
10
21.5930772162299
20
26.9999999999999
30
0
41
1
10
21.4586068227289
20
26.9999999999999
30
0
41
1
10
21.4588680364632
20
26.9999999999999
30
0
0
SPLINE
5
EA
100
AcDbEntity
8
1
62
256
6
ByLayer
370
18
48
1
60
0
100
AcDbSpline
70
4
71
3
72
8
73
4
40
0
40
0
40
0
40
0
40
1
40
1
40
1
40
1
41
1
10
21.0651433124845
20
-23.900344670077
30
0
41
1
10
21.966822582314
20
-27.4961376526015
30
0
41
1
10
22.8903558931726
20
-31.0864656553082
30
0
41
1
10
23.8210619067963
20
-34.675
30
0
0
SPLINE
5
EB
100
AcDbEntity
8
1
62
256
6
ByLayer
370
18
48
1
60
0
100
AcDbSpline
70
4
71
3
72
16
73
12
40
0
40
0
40
0
40
0
40
0.111430279628047
40
0.111430279628047
40
0.248747543515467
40
0.248747543515467
40
0.465535329195252
40
0.465535329195252
40
0.883855351867553
40
0.883855351867553
40
1
40
1
40
1
40
1
41
1
10
8.53867513459483
20
7.52966679426501
30
0
41
1
10
8.51081528400579
20
7.52966679426501
30
0
41
1
10
8.48260885722448
20
7.53471706780857
30
0
41
1
10
8.42415079676073
20
7.55489210221029
30
0
41
1
10
8.39395861076946
20
7.57218953888446
30
0
41
1
10
8.32484624564245
20
7.62460019394089
30
0
41
1
10
8.28921459142956
20
7.66489294253907
30
0
41
1
10
8.201006109254
20
7.78941367630352
30
0
41
1
10
8.16026799314912
20
7.88247511004147
30
0
41
1
10
8.1207082984732
20
8.00269269538006
30
0
41
1
10
8.1128384014269
20
8.02920008991578
30
0
41
1
10
8.10566243270245
20
8.05584836782771
30
0
0
SPLINE
5
EC
100
AcDbEntity
8
1
62
256
6
ByLayer
370
18
48
1
60
0
100
AcDbSpline
70
4
71
3
72
16
73
12
40
0
40
0
40
0
40
0
40
0.11143027962805
40
0.11143027962805
40
0.248747543515472
40
0.248747543515472
40
0.465535329195252
40
0.465535329195252
40
0.88385535186756
40
0.88385535186756
40
1
40
1
40
1
40
1
41
1
10
8.5386751345948
20
-23.8391299750503
30
0
41
1
10
8.51081528400576
20
-23.8391299750503
30
0
41
1
10
8.48260885722445
20
-23.8375361275706
30
0
41
1
10
8.4241507967607
20
-23.831150658589
30
0
41
1
10
8.3939586107694
20
-23.825666877018
30
0
41
1
10
8.32484624564242
20
-23.8089605749788
30
0
41
1
10
8.28921459142953
20
-23.796037970776
30
0
41
1
10
8.20100610925397
20
-23.7556824246832
30
0
41
1
10
8.16026799314909
20
-23.7250165399981
30
0
41
1
10
8.12070829847318
20
-23.6845451449633
30
0
41
1
10
8.11283840142684
20
-23.6755726082078
30
0
41
1
10
8.10566243270242
20
-23.6665017920809
30
0
0
SPLINE
5
ED
100
AcDbEntity
8
1
62
256
6
ByLayer
370
18
48
1
60
0
100
AcDbSpline
70
4
71
3
72
8
73
4
40
0
40
0
40
0
40
0
40
1
40
1
40
1
40
1
41
1
10
21.2413597721783
20
-25.5
30
0
41
1
10
21.1188431845517
20
-25.5
30
0
41
1
10
21.0549958715302
20
-25.5
30
0
41
1
10
21.0548437721783
20
-25.5
30
0
0
SPLINE
5
EE
100
AcDbEntity
8
1
62
256
6
ByLayer
370
18
48
1
60
0
100
AcDbSpline
70
4
71
3
72
16
73
12
40
0
40
0
40
0
40
0
40
0.111430279628052
40
0.111430279628052
40
0.248747543515474
40
0.248747543515474
40
0.465535329195271
40
0.465535329195271
40
0.883855351867598
40
0.883855351867598
40
1
40
1
40
1
40
1
41
1
10
11.4613248654052
20
23.8391299750503
30
0
41
1
10
11.4891847159942
20
23.8391299750503
30
0
41
1
10
11.5173911427755
20
23.8375361275706
30
0
41
1
10
11.5758492032393
20
23.831150658589
30
0
41
1
10
11.6060413892306
20
23.825666877018
30
0
41
1
10
11.6751537543576
20
23.8089605749788
30
0
41
1
10
11.7107854085705
20
23.796037970776
30
0
41
1
10
11.7989938907461
20
23.7556824246832
30
0
41
1
10
11.8397320068509
20
23.7250165399981
30
0
41
1
10
11.8792917015268
20
23.6845451449633
30
0
41
1
10
11.8871615985732
20
23.6755726082077
30
0
41
1
10
11.8943375672976
20
23.6665017920809
30
0
0
SPLINE
5
EF
100
AcDbEntity
8
1
62
256
6
ByLayer
370
18
48
1
60
0
100
AcDbSpline
70
4
71
3
72
8
73
4
40
0
40
0
40
0
40
0
40
1
40
1
40
1
40
1
41
1
10
23.6512689857318
20
-34.675
30
0
41
1
10
22.8440620604804
20
-31.6176958377652
30
0
41
1
10
22.0394085336872
20
-28.5596938514732
30
0
41
1
10
21.2413597721783
20
-25.5
30
0
0
SPLINE
5
F0
100
AcDbEntity
8
1
62
256
6
ByLayer
370
18
48
1
60
0
100
AcDbSpline
70
4
71
3
72
16
73
12
40
0
40
0
40
0
40
0
40
0.461208588217066
40
0.461208588217066
40
0.643534962278522
40
0.643534962278522
40
0.828408472975271
40
0.828408472975271
40
0.943003644159981
40
0.943003644159981
40
1
40
1
40
1
40
1
41
1
10
11.8943375672974
20
8.05584836782774
30
0
41
1
10
11.8660503915152
20
7.95080268681443
30
0
41
1
10
11.8273339192908
20
7.84628670970798
30
0
41
1
10
11.7473160248315
20
7.71442469145123
30
0
41
1
10
11.7212784637477
20
7.67825379650725
30
0
41
1
10
11.6606543989164
20
7.61290523367225
30
0
41
1
10
11.6251722226874
20
7.58305923051407
30
0
41
1
10
11.5599225851958
20
7.54855881865589
30
0
41
1
10
11.5324782774944
20
7.53852018102288
30
0
41
1
10
11.49016847477
20
7.53097042135255
30
0
41
1
10
11.4757173930754
20
7.5296667942647
30
0
41
1
10
11.4613248654053
20
7.5296667942647
30
0
0
SPLINE
5
F1
100
AcDbEntity
8
1
62
256
6
ByLayer
370
18
48
1
60
0
100
AcDbSpline
70
2053
71
3
72
44
73
40
40
0
40
0
40
0
40
0
40
0.053520481921805
40
0.053520481921805
40
0.107029469469776
40
0.107029469469776
40
0.160710726271113
40
0.160710726271113
40
0.214510713411772
40
0.214510713411772
40
0.268125647321841
40
0.268125647321841
40
0.321541968617733
40
0.321541968617733
40
0.375052899709309
40
0.375052899709309
40
0.428805328379091
40
0.428805328379091
40
0.482571685298716
40
0.482571685298716
40
0.536099239177903
40
0.536099239177903
40
0.589508921329073
40
0.589508921329073
40
0.643104479317492
40
0.643104479317492
40
0.696900183372663
40
0.696900183372663
40
0.750598739637034
40
0.750598739637034
40
0.804055770534044
40
0.804055770534044
40
0.857502155334759
40
0.857502155334759
40
0.911183921684973
40
0.911183921684973
40
0.964983854981701
40
0.964983854981701
40
1
40
1
40
1
40
1
41
1
10
7.50090522816779
20
2.50749999999999
30
0
41
1
10
7.22013800657996
20
2.50749999999999
30
0
41
1
10
6.93641987815403
20
2.45930464342027
30
0
41
1
10
6.40835546013881
20
2.27466370464074
30
0
41
1
10
6.15673041029817
20
2.13571976202391
30
0
41
1
10
5.7187428627827
20
1.78697809996353
30
0
41
1
10
5.5265380663526
20
1.57214616476753
30
0
41
1
10
5.22768338805756
20
1.09685924585202
30
0
41
1
10
5.11709308472552
20
0.829700098199339
30
0
41
1
10
4.99271004289272
20
0.282145425962199
30
0
41
1
10
4.97688633741998
20
-0.0057686604632181
30
0
41
1
10
5.04033447646694
20
-0.56180299072156
30
0
41
1
10
5.12011501551919
20
-0.837624213265684
30
0
41
1
10
5.36279103727307
20
-1.34092749061858
30
0
41
1
10
5.5291475255043
20
-1.57524994038138
30
0
41
1
10
5.92523721524202
20
-1.97141594978328
30
0
41
1
10
6.16073543106003
20
-2.13841210607146
30
0
41
1
10
6.66705899760953
20
-2.3817370018688
30
0
41
1
10
6.94492544811499
20
-2.46139523440175
30
0
41
1
10
7.50250377634913
20
-2.52306983579405
30
0
41
1
10
7.78988464571978
20
-2.50635712588365
30
0
41
1
10
8.33470584158044
20
-2.38092448780554
30
0
41
1
10
8.59968650406645
20
-2.27070525537522
30
0
41
1
10
9.07277531873331
20
-1.97289860609627
30
0
41
1
10
9.28720924607609
20
-1.78095697383111
30
0
41
1
10
9.63659750252236
20
-1.3421771266637
30
0
41
1
10
9.77608868978746
20
-1.08904605206317
30
0
41
1
10
9.96058366810411
20
-0.558424810162876
30
0
41
1
10
10.0082893700105
20
-0.273625661432732
30
0
41
1
10
10.0066937896275
20
0.286679924682261
30
0
41
1
10
9.95780571030059
20
0.56992365124546
30
0
41
1
10
9.77208076883883
20
1.0969293402828
30
0
41
1
10
9.63273468147202
20
1.34793833435046
30
0
41
1
10
9.28328238411683
20
1.78495757768718
30
0
41
1
10
9.06804983606409
20
1.97671875753562
30
0
41
1
10
8.59214089874439
20
2.27458816987817
30
0
41
1
10
8.32475216388659
20
2.38462406950265
30
0
41
1
10
7.87032195579951
20
2.48686124870454
30
0
41
1
10
7.68459912243929
20
2.50749999999999
30
0
41
1
10
7.50090522816779
20
2.50749999999999
30
0
0
SPLINE
5
F2
100
AcDbEntity
8
1
62
256
6
ByLayer
370
18
48
1
60
0
100
AcDbSpline
70
4
71
3
72
16
73
12
40
0
40
0
40
0
40
0
40
0.111430279628047
40
0.111430279628047
40
0.248747543515475
40
0.248747543515475
40
0.465535329195272
40
0.465535329195272
40
0.883855351867603
40
0.883855351867603
40
1
40
1
40
1
40
1
41
1
10
11.4613248654052
20
-7.52966679426504
30
0
41
1
10
11.4891847159942
20
-7.52966679426504
30
0
41
1
10
11.5173911427755
20
-7.53471706780857
30
0
41
1
10
11.5758492032393
20
-7.55489210221029
30
0
41
1
10
11.6060413892306
20
-7.57218953888446
30
0
41
1
10
11.6751537543576
20
-7.62460019394092
30
0
41
1
10
11.7107854085705
20
-7.6648929425391
30
0
41
1
10
11.798993890746
20
-7.78941367630355
30
0
41
1
10
11.8397320068509
20
-7.8824751100415
30
0
41
1
10
11.8792917015268
20
-8.00269269538012
30
0
41
1
10
11.8871615985731
20
-8.0292000899158
30
0
41
1
10
11.8943375672975
20
-8.05584836782771
30
0
0
SPLINE
5
F3
100
AcDbEntity
8
1
62
256
6
ByLayer
370
18
48
1
60
0
100
AcDbSpline
70
4
71
3
72
16
73
12
40
0
40
0
40
0
40
0
40
0.461208588217094
40
0.461208588217094
40
0.643534962278546
40
0.643534962278546
40
0.828408472975285
40
0.828408472975285
40
0.943003644159988
40
0.943003644159988
40
1
40
1
40
1
40
1
41
1
10
8.10566243270264
20
23.6665017920809
30
0
41
1
10
8.1339496084849
20
23.7022583261632
30
0
41
1
10
8.17266608070926
20
23.7370095736338
30
0
41
1
10
8.25268397516851
20
23.7800170858174
30
0
41
1
10
8.27872153625233
20
23.7917125768793
30
0
41
1
10
8.33934560108364
20
23.8127037684951
30
0
41
1
10
8.37482777731265
20
23.8222104320954
30
0
41
1
10
8.44007741480425
20
23.8331586856493
30
0
41
1
10
8.46752172250567
20
23.836332378473
30
0
41
1
10
8.50983152523008
20
23.8387183279986
30
0
41
1
10
8.52428260692463
20
23.8391299750505
30
0
41
1
10
8.53867513459477
20
23.8391299750505
30
0
0
SPLINE
5
F4
100
AcDbEntity
8
1
62
256
6
ByLayer
370
18
48
1
60
0
100
AcDbSpline
70
4
71
3
72
8
73
4
40
0
40
0
40
0
40
0
40
1
40
1
40
1
40
1
41
1
10
20.92079238
20
-23.3228020241061
30
0
41
1
10
20.9687571522789
20
-23.5153503851202
30
0
41
1
10
21.0168769246772
20
-23.7078638796491
30
0
41
1
10
21.0651433124845
20
-23.900344670077
30
0
0
SPLINE
5
F5
100
AcDbEntity
8
1
62
256
6
ByLayer
370
18
48
1
60
0
100
AcDbSpline
70
4
71
3
72
16
73
12
40
0
40
0
40
0
40
0
40
0.461208588217085
40
0.461208588217085
40
0.643534962278541
40
0.643534962278541
40
0.828408472975291
40
0.828408472975291
40
0.943003644159993
40
0.943003644159993
40
1
40
1
40
1
40
1
41
1
10
11.8943375672974
20
-23.6665017920809
30
0
41
1
10
11.8660503915151
20
-23.7022583261632
30
0
41
1
10
11.8273339192908
20
-23.7370095736338
30
0
41
1
10
11.7473160248315
20
-23.7800170858174
30
0
41
1
10
11.7212784637477
20
-23.7917125768793
30
0
41
1
10
11.6606543989164
20
-23.8127037684951
30
0
41
1
10
11.6251722226874
20
-23.8222104320954
30
0
41
1
10
11.5599225851957
20
-23.8331586856493
30
0
41
1
10
11.5324782774943
20
-23.836332378473
30
0
41
1
10
11.4901684747699
20
-23.8387183279986
30
0
41
1
10
11.4757173930754
20
-23.8391299750505
30
0
41
1
10
11.4613248654052
20
-23.8391299750505
30
0
0
SPLINE
5
F6
100
AcDbEntity
8
1
62
256
6
ByLayer
370
18
48
1
60
0
100
AcDbSpline
70
4
71
3
72
16
73
12
40
0
40
0
40
0
40
0
40
0.208837031364086
40
0.208837031364086
40
0.417387146658523
40
0.417387146658523
40
0.630288823127018
40
0.630288823127018
40
0.857029968210337
40
0.857029968210337
40
1
40
1
40
1
40
1
41
1
10
20.92079238
20
-23.3228020241061
30
0
41
1
10
20.4973067269473
20
-23.3168990785424
30
0
41
1
10
20.0708590662338
20
-23.2843808676172
30
0
41
1
10
19.2837032396046
20
-23.1684106850105
30
0
41
1
10
18.9123426476746
20
-23.0833178688456
30
0
41
1
10
18.2622516614482
20
-22.8637211883867
30
0
41
1
10
17.977183773547
20
-22.7252823375169
30
0
41
1
10
17.5117234312505
20
-22.3971578224397
30
0
41
1
10
17.3331621287379
20
-22.2006339878331
30
0
41
1
10
17.1487644926198
20
-21.853055294812
30
0
41
1
10
17.1023826994691
20
-21.7101907077476
30
0
41
1
10
17.0803645201175
20
-21.5625290555133
30
0
0
SPLINE
5
F7
100
AcDbEntity
8
1
62
256
6
ByLayer
370
18
48
1
60
0
100
AcDbSpline
70
4
71
3
72
16
73
12
40
0
40
0
40
0
40
0
40
0.461208588217088
40
0.461208588217088
40
0.643534962278544
40
0.643534962278544
40
0.82840847297529
40
0.82840847297529
40
0.943003644159989
40
0.943003644159989
40
1
40
1
40
1
40
1
41
1
10
8.10566243270259
20
-8.05584836782776
30
0
41
1
10
8.13394960848487
20
-7.95080268681445
30
0
41
1
10
8.17266608070921
20
-7.84628670970801
30
0
41
1
10
8.25268397516848
20
-7.71442469145126
30
0
41
1
10
8.27872153625231
20
-7.67825379650728
30
0
41
1
10
8.33934560108361
20
-7.61290523367228
30
0
41
1
10
8.37482777731262
20
-7.5830592305141
30
0
41
1
10
8.44007741480419
20
-7.54855881865592
30
0
41
1
10
8.46752172250564
20
-7.5385201810229
30
0
41
1
10
8.50983152523006
20
-7.53097042135258
30
0
41
1
10
8.52428260692457
20
-7.52966679426473
30
0
41
1
10
8.53867513459474
20
-7.52966679426473
30
0
0
SPLINE
5
F8
100
AcDbEntity
8
1
62
256
6
ByLayer
370
18
48
1
60
0
100
AcDbSpline
70
4
71
3
72
8
73
4
40
0
40
0
40
0
40
0
40
1
40
1
40
1
40
1
41
1
10
23.8210619067963
20
-34.675
30
0
41
1
10
23.7537255655266
20
-34.675
30
0
41
1
10
23.6969410543433
20
-34.675
30
0
41
1
10
23.6512689857318
20
-34.675
30
0
0
SPLINE
5
F9
100
AcDbEntity
8
1
62
256
6
ByLayer
370
18
48
1
60
0
100
AcDbSpline
70
4
71
3
72
8
73
4
40
0
40
0
40
0
40
0
40
1
40
1
40
1
40
1
41
1
10
21.8480302767878
20
27
30
0
41
1
10
21.5854867092956
20
25.967172780321
30
0
41
1
10
21.3243420724839
20
24.9339994445304
30
0
41
1
10
21.0651433124845
20
23.900344670077
30
0
0
SPLINE
5
FA
100
AcDbEntity
8
1
62
256
6
ByLayer
370
18
48
1
60
0
100
AcDbSpline
70
4
71
3
72
10
73
6
40
0
40
0
40
0
40
0
40
0.861267042517917
40
0.861267042517917
40
1
40
1
40
1
40
1
41
1
10
23.517063736774
20
-34.675
30
0
41
1
10
22.8115747656074
20
-32.0409846420176
30
0
41
1
10
22.106142707687
20
-29.4069540375114
30
0
41
1
10
21.2872285669115
20
-26.3485937069383
30
0
41
1
10
21.1736216885462
20
-25.9242973960922
30
0
41
1
10
21.0600188635451
20
-25.5
30
0
0
SPLINE
5
FB
100
AcDbEntity
8
1
62
256
6
ByLayer
370
18
48
1
60
0
100
AcDbSpline
70
4
71
3
72
8
73
4
40
0
40
0
40
0
40
0
40
1
40
1
40
1
40
1
41
1
10
21.0651433124845
20
23.900344670077
30
0
41
1
10
21.0168769246772
20
23.707863879649
30
0
41
1
10
20.968757152279
20
23.5153503851202
30
0
41
1
10
20.92079238
20
23.3228020241061
30
0
0
SPLINE
5
FC
100
AcDbEntity
8
1
62
256
6
ByLayer
370
18
48
1
60
0
100
AcDbSpline
70
4
71
3
72
10
73
6
40
0
40
0
40
0
40
0
40
0.5
40
0.5
40
1
40
1
40
1
40
1
41
1
10
17.0803645201175
20
21.5625290555133
30
0
41
1
10
17.1578562364855
20
22.082215751248
30
0
41
1
10
17.5370220577902
20
22.5226936224984
30
0
41
1
10
18.9138434069417
20
23.1416695743813
30
0
41
1
10
19.8879855024681
20
23.3084057801437
30
0
41
1
10
20.92079238
20
23.3228020241061
30
0
0
SPLINE
5
FD
100
AcDbEntity
8
SK1
62
256
6
ByLayer
370
18
48
1
60
0
100
AcDbSpline
70
4
71
3
72
24
73
20
40
0
40
0
40
0
40
0
40
0.469770575826712
40
0.469770575826712
40
0.663612078687295
40
0.663612078687295
40
0.860454184613411
40
0.860454184613411
40
0.903064590395674
40
0.903064590395674
40
0.923089343972159
40
0.923089343972159
40
0.943389594779288
40
0.943389594779288
40
0.961332284531898
40
0.961332284531898
40
0.988068136377815
40
0.988068136377815
40
1
40
1
40
1
40
1
41
1
10
-0.199999999999989
20
6.10344849123027
30
0
41
1
10
-0.199999999999989
20
5.97798788494984
30
0
41
1
10
-0.204016575726513
20
5.8509635670122
30
0
41
1
10
-0.223752631922082
20
5.67079358995508
30
0
41
1
10
-0.231244965282201
20
5.61789623093799
30
0
41
1
10
-0.253819137983129
20
5.51250015101135
30
0
41
1
10
-0.267096215270385
20
5.45724004647028
30
0
41
1
10
-0.303692478692511
20
5.40035311573845
30
0
41
1
10
-0.311479622041333
20
5.39039941672755
30
0
41
1
10
-0.325477757614351
20
5.37891036834915
30
0
41
1
10
-0.330455622185014
20
5.3756771312581
30
0
41
1
10
-0.341078704143143
20
5.37102422840917
30
0
41
1
10
-0.346883276538136
20
5.36960762575521
30
0
41
1
10
-0.357630415747764
20
5.36914354197148
30
0
41
1
10
-0.362713068049572
20
5.36981917830482
30
0
41
1
10
-0.37458340180882
20
5.37316903610403
30
0
41
1
10
-0.3812109954861
20
5.37664910167555
30
0
41
1
10
-0.38989246528871
20
5.38265091141974
30
0
41
1
10
-0.392483363308571
20
5.38466360919151
30
0
41
1
10
-0.394976888875334
20
5.38678189578178
30
0
0
SPLINE
5
FE
100
AcDbEntity
8
SK1
62
256
6
ByLayer
370
18
48
1
60
0
100
AcDbSpline
70
4
71
3
72
10
73
6
40
0
40
0
40
0
40
0
40
0.295383442210171
40
0.295383442210171
40
1
40
1
40
1
40
1
41
1
10
-0.250212864896298
20
17.4295557568192
30
0
41
1
10
-0.244629356509591
20
17.4363378171173
30
0
41
1
10
-0.240106825952324
20
17.4428331253785
30
0
41
1
10
-0.226088909486748
20
17.4640249159873
30
0
41
1
10
-0.218864007205866
20
17.4778644622021
30
0
41
1
10
-0.213599210553042
20
17.4907845547572
30
0
0
SPLINE
5
FF
100
AcDbEntity
8
SK1
62
256
6
ByLayer
370
18
48
1
60
0
100
AcDbSpline
70
4
71
3
72
12
73
8
40
0
40
0
40
0
40
0
40
0.0424565470147491
40
0.0424565470147491
40
0.819696601450944
40
0.819696601450944
40
1
40
1
40
1
40
1
41
1
10
-0.217053600941313
20
-17.4841220385392
30
0
41
1
10
-0.217358356598879
20
-17.4834150223831
30
0
41
1
10
-0.217668099171647
20
-17.4827054666708
30
0
41
1
10
-0.223753032740944
20
-17.4689405317318
30
0
41
1
10
-0.231245471836843
20
-17.4549872015732
30
0
41
1
10
-0.245076166281024
20
-17.436263079892
30
0
41
1
10
-0.247766500863292
20
-17.432675478957
30
0
41
1
10
-0.250734160279592
20
-17.4289983664888
30
0
0
SPLINE
5
100
100
AcDbEntity
8
SK1
62
256
6
ByLayer
370
18
48
1
60
0
100
AcDbSpline
70
4
71
3
72
22
73
18
40
0
40
0
40
0
40
0
40
0.0260455644157247
40
0.0260455644157247
40
0.0526262165848557
40
0.0526262165848557
40
0.0706056579866929
40
0.0706056579866929
40
0.0884949509195805
40
0.0884949509195805
40
0.11748921873202
40
0.11748921873202
40
0.17459086731972
40
0.17459086731972
40
0.37652425293745
40
0.37652425293745
40
1
40
1
40
1
40
1
41
1
10
-0.394976888872947
20
-5.38678223324206
30
0
41
1
10
-0.389612432086437
20
-5.38222504185003
30
0
41
1
10
-0.383763200778986
20
-5.37811700449893
30
0
41
1
10
-0.3709728888754
20
-5.37184824531644
30
0
41
1
10
-0.363785592650913
20
-5.36968256852501
30
0
41
1
10
-0.351475656346565
20
-5.3691458249703
30
0
41
1
10
-0.346317238365032
20
-5.36979468027801
30
0
41
1
10
-0.336550133197363
20
-5.3727304206256
30
0
41
1
10
-0.331829865964124
20
-5.3750241182685
30
0
41
1
10
-0.32051111143835
20
-5.38234306083376
30
0
41
1
10
-0.314321448136184
20
-5.3882440687963
30
0
41
1
10
-0.298260159254539
20
-5.40702817233921
30
0
41
1
10
-0.290032841564681
20
-5.42147709180324
30
0
41
1
10
-0.258449669573651
20
-5.48745345024415
30
0
41
1
10
-0.24608390551893
20
-5.5434138926733
30
0
41
1
10
-0.204764795451922
20
-5.7670899064446
30
0
41
1
10
-0.200000000000358
20
-5.93709576978202
30
0
41
1
10
-0.200000000000358
20
-6.10344667966001
30
0
0
SPLINE
5
101
100
AcDbEntity
8
SK1
62
256
6
ByLayer
370
18
48
1
60
0
100
AcDbSpline
70
4
71
3
72
10
73
6
40
0
40
0
40
0
40
0
40
0.5
40
0.5
40
1
40
1
40
1
40
1
41
1
10
-1.30710678118655
20
-3.91806548153784
30
0
41
1
10
-1.53227959010835
20
-2.67440369212437
30
0
41
1
10
-1.71681589069692
20
-1.34075776539186
30
0
41
1
10
-1.71598271729604
20
1.35050010337164
30
0
41
1
10
-1.53230696904973
20
2.67425240209695
30
0
41
1
10
-1.30710678118655
20
3.91806548057698
30
0
0
SPLINE
5
102
100
AcDbEntity
8
SK1
62
256
6
ByLayer
370
18
48
1
60
0
100
AcDbSpline
70
4
71
3
72
22
73
18
40
0
40
0
40
0
40
0
40
0.359503326352592
40
0.359503326352592
40
0.722215553677066
40
0.722215553677066
40
0.826527133697721
40
0.826527133697721
40
0.863141914878009
40
0.863141914878009
40
0.900378805007221
40
0.900378805007221
40
0.933500873078508
40
0.933500873078508
40
0.972947835056124
40
0.972947835056124
40
1
40
1
40
1
40
1
41
1
10
-1.30710678118655
20
-3.91806548153781
30
0
41
1
10
-1.26486058419175
20
-4.15139729989579
30
0
41
1
10
-1.21446435132796
20
-4.38143232555947
30
0
41
1
10
-1.08204001032738
20
-4.82987250608483
30
0
41
1
10
-1.00537527699572
20
-5.05527264511531
30
0
41
1
10
-0.832356114396674
20
-5.30654108347395
30
0
41
1
10
-0.78723829488635
20
-5.36152992388779
30
0
41
1
10
-0.709490490588593
20
-5.41877880440924
30
0
41
1
10
-0.687203973712826
20
-5.43218986569767
30
0
41
1
10
-0.639076749164047
20
-5.45244590583036
30
0
41
1
10
-0.612446414061708
20
-5.45928056674788
30
0
41
1
10
-0.562058433231044
20
-5.46233960302246
30
0
41
1
10
-0.537713914852588
20
-5.45964677314575
30
0
41
1
10
-0.488053852696964
20
-5.44628701250068
30
0
41
1
10
-0.462609559288779
20
-5.43420976008088
30
0
41
1
10
-0.423860760477339
20
-5.40985221311715
30
0
41
1
10
-0.408979654247759
20
-5.39867780521598
30
0
41
1
10
-0.394976888875419
20
-5.38678223323953
30
0
0
SPLINE
5
103
100
AcDbEntity
8
SK1
62
256
6
ByLayer
370
18
48
1
60
0
100
AcDbSpline
70
4
71
3
72
22
73
18
40
0
40
0
40
0
40
0
40
0.0394331151890913
40
0.0394331151890913
40
0.0795339708694829
40
0.0795339708694829
40
0.109637917244288
40
0.109637917244288
40
0.13957706301322
40
0.13957706301322
40
0.189266399657458
40
0.189266399657458
40
0.289571152403382
40
0.289571152403382
40
0.658284396834382
40
0.658284396834382
40
1
40
1
40
1
40
1
41
1
10
-0.394976888875277
20
5.38678189578292
30
0
41
1
10
-0.415237014773368
20
5.40399317028476
30
0
41
1
10
-0.437419275645453
20
5.41977813092004
30
0
41
1
10
-0.486103141154984
20
5.44521655864725
30
0
41
1
10
-0.51341298093098
20
5.45496005292577
30
0
41
1
10
-0.562874322366525
20
5.46212264681108
30
0
41
1
10
-0.585106616517606
20
5.46199323188387
30
0
41
1
10
-0.627692822126733
20
5.45533455005088
30
0
41
1
10
-0.648523068172722
20
5.44883772858989
30
0
41
1
10
-0.699826196362125
20
5.42613682765011
30
0
41
1
10
-0.728695564403438
20
5.40623396070797
30
0
41
1
10
-0.806075449923839
20
5.34007786619352
30
0
41
1
10
-0.847522380016557
20
5.28655870152033
30
0
41
1
10
-1.01570466784384
20
5.03084699030376
30
0
41
1
10
-1.09210771407481
20
4.80149729085088
30
0
41
1
10
-1.21929875138233
20
4.35887826398974
30
0
41
1
10
-1.26692602208388
20
4.13998960128646
30
0
41
1
10
-1.30710678118655
20
3.91806548057696
30
0
0
SPLINE
5
104
100
AcDbEntity
8
SK1
62
256
6
ByLayer
370
18
48
1
60
0
100
AcDbSpline
70
4
71
3
72
288
73
284
40
0
40
0
40
0
40
0
40
0.002285132255446
40
0.0057901728560435
40
0.0092952134566409
40
0.0128002540572383
40
0.0163052946578358
40
0.0198103352584332
40
0.0233153758590306
40
0.0268204164596281
40
0.0303254570602255
40
0.0338304976608229
40
0.0373355382614204
40
0.0408405788620178
40
0.0443456194626153
40
0.0513557006638101
40
0.0548607412644075
40
0.058365781865005
40
0.0618708224656024
40
0.0653758630661998
40
0.0723859442673947
40
0.0758909848679921
40
0.0793960254685896
40
0.0864061066697844
40
0.0899111472703819
40
0.0934161878709793
40
0.100426269072174
40
0.103931309672772
40
0.107436350273369
40
0.110941390873966
40
0.114446431474564
40
0.117951472075161
40
0.121456512675759
40
0.124961553276356
40
0.128466593876954
40
0.135476675078149
40
0.138981715678746
40
0.142486756279343
40
0.145991796879941
40
0.149496837480538
40
0.156506918681733
40
0.160011959282331
40
0.163516999882928
40
0.167022040483526
40
0.170527081084123
40
0.177537162285318
40
0.181042202885915
40
0.184547243486513
40
0.18805228408711
40
0.191557324687708
40
0.198567405888902
40
0.2020724464895
40
0.205577487090097
40
0.209082527690695
40
0.212587568291292
40
0.219597649492487
40
0.223102690093084
40
0.226607730693682
40
0.230112771294279
40
0.233617811894877
40
0.240627893096071
40
0.244132933696669
40
0.247637974297266
40
0.251143014897864
40
0.254648055498461
40
0.261658136699656
40
0.265163177300254
40
0.268668217900851
40
0.275678299102046
40
0.282688380303241
40
0.286193420903838
40
0.289698461504436
40
0.296708542705631
40
0.300213583306228
40
0.303718623906825
40
0.307223664507423
40
0.31072870510802
40
0.314233745708618
40
0.317738786309215
40
0.32474886751041
40
0.331758948711605
40
0.335263989312202
40
0.3387690299128
40
0.342274070513397
40
0.345779111113995
40
0.349284151714592
40
0.352789192315189
40
0.359799273516384
40
0.366809354717579
40
0.373819435918774
40
0.377324476519372
40
0.380829517119969
40
0.384334557720566
40
0.387839598321164
40
0.391344638921761
40
0.394849679522359
40
0.398354720122956
40
0.401859760723554
40
0.405364801324151
40
0.408869841924748
40
0.412374882525346
40
0.415879923125943
40
0.419384963726541
40
0.422890004327138
40
0.426395044927736
40
0.429900085528333
40
0.43340512612893
40
0.435157646429229
40
0.436910166729528
40
0.438662687029827
40
0.440415207330125
40
0.443920247930723
40
0.44742528853132
40
0.449177808831619
40
0.450930329131918
40
0.452682849432216
40
0.454435369732515
40
0.456187890032814
40
0.457940410333112
40
0.46144545093371
40
0.463197971234009
40
0.464950491534307
40
0.466703011834606
40
0.468455532134905
40
0.470208052435203
40
0.471960572735502
40
0.473713093035801
40
0.4754656133361
40
0.477218133636398
40
0.478970653936697
40
0.480723174236996
40
0.482475694537294
40
0.484228214837593
40
0.485980735137892
40
0.487733255438191
40
0.489485775738489
40
0.491238296038788
40
0.492990816339087
40
0.494743336639385
40
0.496495856939684
40
0.498248377239983
40
0.500000897540282
40
0.50175341784058
40
0.503505938140879
40
0.505258458441178
40
0.507010978741477
40
0.508763499041775
40
0.510516019342074
40
0.512268539642373
40
0.514021059942671
40
0.51577358024297
40
0.517526100543269
40
0.519278620843567
40
0.521031141143866
40
0.522783661444165
40
0.524536181744464
40
0.526288702044762
40
0.528041222345061
40
0.52979374264536
40
0.531546262945658
40
0.533298783245957
40
0.535051303546256
40
0.536803823846555
40
0.538556344146853
40
0.540308864447152
40
0.542061384747451
40
0.54381390504775
40
0.545566425348048
40
0.549071465948646
40
0.550823986248944
40
0.552576506549243
40
0.556081547149841
40
0.559586587750438
40
0.561339108050737
40
0.563091628351035
40
0.564844148651334
40
0.566596668951633
40
0.57010170955223
40
0.573606750152828
40
0.577111790753425
40
0.580616831354023
40
0.58412187195462
40
0.587626912555217
40
0.591131953155815
40
0.594636993756412
40
0.59814203435701
40
0.601647074957607
40
0.605152115558205
40
0.608657156158802
40
0.6121621967594
40
0.615667237359997
40
0.619172277960594
40
0.622677318561192
40
0.626182359161789
40
0.633192440362984
40
0.640202521564179
40
0.647212602765374
40
0.650717643365971
40
0.654222683966569
40
0.657727724567166
40
0.661232765167764
40
0.664737805768361
40
0.668242846368958
40
0.675252927570153
40
0.682263008771348
40
0.685768049371945
40
0.689273089972543
40
0.692778130573141
40
0.696283171173738
40
0.699788211774335
40
0.703293252374933
40
0.710303333576128
40
0.713808374176725
40
0.717313414777322
40
0.724323495978517
40
0.731333577179712
40
0.73483861778031
40
0.738343658380907
40
0.745353739582102
40
0.748858780182699
40
0.752363820783297
40
0.755868861383894
40
0.759373901984492
40
0.766383983185687
40
0.769889023786284
40
0.773394064386881
40
0.776899104987479
40
0.780404145588076
40
0.787414226789271
40
0.790919267389869
40
0.794424307990466
40
0.797929348591063
40
0.801434389191661
40
0.808444470392856
40
0.811949510993453
40
0.81545455159405
40
0.818959592194648
40
0.822464632795245
40
0.82947471399644
40
0.832979754597038
40
0.836484795197635
40
0.838237315497934
40
0.839989835798233
40
0.84349487639883
40
0.850504957600025
40
0.854009998200622
40
0.85751503880122
40
0.861020079401817
40
0.864525120002415
40
0.87153520120361
40
0.875040241804207
40
0.878545282404804
40
0.882050323005402
40
0.885555363605999
40
0.889060404206597
40
0.892565444807194
40
0.896070485407792
40
0.899575526008389
40
0.906585607209584
40
0.910090647810181
40
0.913595688410779
40
0.920605769611974
40
0.924110810212571
40
0.927615850813168
40
0.934625932014363
40
0.938130972614961
40
0.941636013215558
40
0.945141053816155
40
0.948646094416753
40
0.955656175617948
40
0.959161216218545
40
0.962666256819143
40
0.96617129741974
40
0.969676338020338
40
0.973181378620935
40
0.976686419221532
40
0.98019145982213
40
0.983696500422727
40
0.987201541023325
40
0.990706581623922
40
0.99421162222452
40
0.997716662825117
40
1
40
1
40
1
40
1
41
1
10
-30
20
-15.9926656704526
30
0
41
1
10
-30
20
-15.993057502184
30
0
41
1
10
-30
20
-15.9936130023012
30
0
41
1
10
-30
20
-15.9927436963339
30
0
41
1
10
-30
20
-15.9893850921089
30
0
41
1
10
-30
20
-15.9836860314145
30
0
41
1
10
-30
20
-15.9756808210229
30
0
41
1
10
-30
20
-15.9654018084481
30
0
41
1
10
-30
20
-15.952881126494
30
0
41
1
10
-30
20
-15.9381491278438
30
0
41
1
10
-30
20
-15.9212355486335
30
0
41
1
10
-30
20
-15.9021692443494
30
0
41
1
10
-30
20
-15.8809772874923
30
0
41
1
10
-30
20
-15.85768719628
30
0
41
1
10
-30
20
-15.8237020449634
30
0
41
1
10
-30
20
-15.786151572388
30
0
41
1
10
-30
20
-15.7440467976174
30
0
41
1
10
-30
20
-15.7106366986067
30
0
41
1
10
-30
20
-15.6752710038507
30
0
41
1
10
-30
20
-15.6253102414823
30
0
41
1
10
-30
20
-15.5722298833996
30
0
41
1
10
-30
20
-15.5146768571487
30
0
41
1
10
-30
20
-15.4546351558669
30
0
41
1
10
-30
20
-15.3917322415494
30
0
41
1
10
-30
20
-15.3243986601424
30
0
41
1
10
-30
20
-15.2546726017926
30
0
41
1
10
-30
20
-15.1823145630235
30
0
41
1
10
-30
20
-15.1055630554725
30
0
41
1
10
-30
20
-15.0465122402175
30
0
41
1
10
-30
20
-14.985753516587
30
0
41
1
10
-30
20
-14.9233034368069
30
0
41
1
10
-30
20
-14.8591738020485
30
0
41
1
10
-30
20
-14.7933781380804
30
0
41
1
10
-30
20
-14.7259318150055
30
0
41
1
10
-30
20
-14.6334478809413
30
0
41
1
10
-30
20
-14.5388306139923
30
0
41
1
10
-30
20
-14.4398724968665
30
0
41
1
10
-30
20
-14.3643499358607
30
0
41
1
10
-30
20
-14.2872489988171
30
0
41
1
10
-30
20
-14.1819460940193
30
0
41
1
10
-30
20
-14.0747689624993
30
0
41
1
10
-30
20
-13.9632604256821
30
0
41
1
10
-30
20
-13.8784200007502
30
0
41
1
10
-30
20
-13.7920640526128
30
0
41
1
10
-30
20
-13.674463030797
30
0
41
1
10
-30
20
-13.5552283874056
30
0
41
1
10
-30
20
-13.4316550911984
30
0
41
1
10
-30
20
-13.337853067095
30
0
41
1
10
-30
20
-13.2425907988595
30
0
41
1
10
-30
20
-13.1131460860381
30
0
41
1
10
-30
20
-12.9822967545723
30
0
41
1
10
-30
20
-12.8470846830039
30
0
41
1
10
-30
20
-12.7446351532221
30
0
41
1
10
-30
20
-12.6407746180398
30
0
41
1
10
-30
20
-12.499887311655
30
0
41
1
10
-30
20
-12.3578191289812
30
0
41
1
10
-30
20
-12.2113468162577
30
0
41
1
10
-30
20
-12.1005306675729
30
0
41
1
10
-30
20
-11.9883478761207
30
0
41
1
10
-30
20
-11.8363772491739
30
0
41
1
10
-30
20
-11.6834503922585
30
0
41
1
10
-30
20
-11.5260594948948
30
0
41
1
10
-30
20
-11.4071324366749
30
0
41
1
10
-30
20
-11.286879488698
30
0
41
1
10
-30
20
-11.1241532157817
30
0
41
1
10
-30
20
-10.9607029988618
30
0
41
1
10
-30
20
-10.7927086404325
30
0
41
1
10
-30
20
-10.6229844866849
30
0
41
1
10
-30
20
-10.4091173939315
30
0
41
1
10
-30
20
-10.1909959678346
30
0
41
1
10
-30
20
-10.0126979588286
30
0
41
1
10
-30
20
-9.83272430289381
30
0
41
1
10
-30
20
-9.65245023276194
30
0
41
1
10
-30
20
-9.46744871362006
30
0
41
1
10
-30
20
-9.32804093460689
30
0
41
1
10
-30
20
-9.18740563851222
30
0
41
1
10
-30
20
-9.04555437859207
30
0
41
1
10
-30
20
-8.90249044231976
30
0
41
1
10
-30
20
-8.70931958714516
30
0
41
1
10
-30
20
-8.4667461660348
30
0
41
1
10
-30
20
-8.22021686294164
30
0
41
1
10
-30
20
-8.01906836645574
30
0
41
1
10
-30
20
-7.86773085832664
30
0
41
1
10
-30
20
-7.71524241280139
30
0
41
1
10
-30
20
-7.56161298420642
30
0
41
1
10
-30
20
-7.40685260452795
30
0
41
1
10
-30
20
-7.19804202206518
30
0
41
1
10
-30
20
-6.93651252502829
30
0
41
1
10
-30
20
-6.61705894701069
30
0
41
1
10
-30
20
-6.34834996432812
30
0
41
1
10
-30
20
-6.12929373929512
30
0
41
1
10
-30
20
-5.96484945115361
30
0
41
1
10
-30
20
-5.79939743818977
30
0
41
1
10
-30
20
-5.6329554281462
30
0
41
1
10
-30
20
-5.46554083189744
30
0
41
1
10
-30
20
-5.29717335727494
30
0
41
1
10
-30
20
-5.12787591307324
30
0
41
1
10
-30
20
-4.95767063849854
30
0
41
1
10
-30
20
-4.78658071628456
30
0
41
1
10
-30
20
-4.61463355062477
30
0
41
1
10
-30
20
-4.44186113006063
30
0
41
1
10
-30
20
-4.26829321973946
30
0
41
1
10
-30
20
-4.09396155182318
30
0
41
1
10
-30
20
-3.91890592173863
30
0
41
1
10
-30
20
-3.74316620306934
30
0
41
1
10
-30
20
-3.56678705857647
30
0
41
1
10
-30
20
-3.42015123791833
30
0
41
1
10
-30
20
-3.30098109847944
30
0
41
1
10
-30
20
-3.2121632747783
30
0
41
1
10
-30
20
-3.12322377081887
30
0
41
1
10
-30
20
-3.00356413190346
30
0
41
1
10
-30
20
-2.85589664232995
30
0
41
1
10
-30
20
-2.70788037697054
30
0
41
1
10
-30
20
-2.58749550859631
30
0
41
1
10
-30
20
-2.49793822974363
30
0
41
1
10
-30
20
-2.408330001319
30
0
41
1
10
-30
20
-2.31867596083521
30
0
41
1
10
-30
20
-2.22899146909498
30
0
41
1
10
-30
20
-2.10827328924753
30
0
41
1
10
-30
20
-1.99097459417118
30
0
41
1
10
-30
20
-1.87012467714982
30
0
41
1
10
-30
20
-1.78043031683032
30
0
41
1
10
-30
20
-1.6907625124405
30
0
41
1
10
-30
20
-1.60113247848602
30
0
41
1
10
-30
20
-1.51155313609777
30
0
41
1
10
-30
20
-1.42202575772697
30
0
41
1
10
-30
20
-1.33256776537954
30
0
41
1
10
-30
20
-1.24317741509071
30
0
41
1
10
-30
20
-1.15386860885187
30
0
41
1
10
-30
20
-1.06464013673644
30
0
41
1
10
-30
20
-0.975500136218216
30
0
41
1
10
-30
20
-0.88644798892679
30
0
41
1
10
-30
20
-0.7974857766811
30
0
41
1
10
-30
20
-0.708610852102595
30
0
41
1
10
-30
20
-0.619820737442723
30
0
41
1
10
-30
20
-0.531109764951196
30
0
41
1
10
-30
20
-0.442471434007615
30
0
41
1
10
-30
20
-0.353896007963442
30
0
41
1
10
-30
20
-0.265373879214195
30
0
41
1
10
-30
20
-0.176892371692105
30
0
41
1
10
-30
20
-0.0884392148653603
30
0
41
1
10
-30
20
-2.04973674E-08
30
0
41
1
10
-30
20
0.0884392031953212
30
0
41
1
10
-30
20
0.176892414719958
30
0
41
1
10
-30
20
0.265373915570166
30
0
41
1
10
-30
20
0.353895962579543
30
0
41
1
10
-30
20
0.442471374506852
30
0
41
1
10
-30
20
0.531109813902674
30
0
41
1
10
-30
20
0.619820822982149
30
0
41
1
10
-30
20
0.708610806550126
30
0
41
1
10
-30
20
0.797485667180183
30
0
41
1
10
-30
20
0.88644802600686
30
0
41
1
10
-30
20
0.975500272783819
30
0
41
1
10
-30
20
1.06464012636252
30
0
41
1
10
-30
20
1.15386845800873
30
0
41
1
10
-30
20
1.24317738635412
30
0
41
1
10
-30
20
1.33256791795029
30
0
41
1
10
-30
20
1.42202585063248
30
0
41
1
10
-30
20
1.51155302070472
30
0
41
1
10
-30
20
1.60113232466119
30
0
41
1
10
-30
20
1.6907625625216
30
0
41
1
10
-30
20
1.78043050963592
30
0
41
1
10
-30
20
1.8701247319346
30
0
41
1
10
-30
20
1.95984062320628
30
0
41
1
10
-30
20
2.0495612184074
30
0
41
1
10
-30
20
2.13928298465072
30
0
41
1
10
-30
20
2.22899154181991
30
0
41
1
10
-30
20
2.34971237639817
30
0
41
1
10
-30
20
2.46705810448165
30
0
41
1
10
-30
20
2.58749567267546
30
0
41
1
10
-30
20
2.70788056755168
30
0
41
1
10
-30
20
2.85589666602101
30
0
41
1
10
-30
20
3.00356394920905
30
0
41
1
10
-30
20
3.12322374659237
30
0
41
1
10
-30
20
3.21216341650847
30
0
41
1
10
-30
20
3.30098129392073
30
0
41
1
10
-30
20
3.42015124315623
30
0
41
1
10
-30
20
3.56678672363682
30
0
41
1
10
-30
20
3.74316585626104
30
0
41
1
10
-30
20
3.9189058475738
30
0
41
1
10
-30
20
4.09396100129447
30
0
41
1
10
-30
20
4.26829259541555
30
0
41
1
10
-30
20
4.4418618308207
30
0
41
1
10
-30
20
4.61463414914385
30
0
41
1
10
-30
20
4.78658021025495
30
0
41
1
10
-30
20
4.95767123056285
30
0
41
1
10
-30
20
5.12787786255663
30
0
41
1
10
-30
20
5.29717415068046
30
0
41
1
10
-30
20
5.46553992297882
30
0
41
1
10
-30
20
5.63295448869494
30
0
41
1
10
-30
20
5.79939725011729
30
0
41
1
10
-30
20
5.96484950556564
30
0
41
1
10
-30
20
6.12929365354833
30
0
41
1
10
-30
20
6.34834993475857
30
0
41
1
10
-30
20
6.61705901965075
30
0
41
1
10
-30
20
6.93651248001385
30
0
41
1
10
-30
20
7.19804203228611
30
0
41
1
10
-30
20
7.40685270744598
30
0
41
1
10
-30
20
7.56161297986858
30
0
41
1
10
-30
20
7.71524232371237
30
0
41
1
10
-30
20
7.86773082006818
30
0
41
1
10
-30
20
8.01906843480594
30
0
41
1
10
-30
20
8.22021692135618
30
0
41
1
10
-30
20
8.46674612315113
30
0
41
1
10
-30
20
8.70931957903716
30
0
41
1
10
-30
20
8.90249052457443
30
0
41
1
10
-30
20
9.04555441784285
30
0
41
1
10
-30
20
9.18740560593946
30
0
41
1
10
-30
20
9.32804088163155
30
0
41
1
10
-30
20
9.46744870809567
30
0
41
1
10
-30
20
9.65245029192158
30
0
41
1
10
-30
20
9.83272433616034
30
0
41
1
10
-30
20
10.0126979221093
30
0
41
1
10
-30
20
10.1909959517429
30
0
41
1
10
-30
20
10.4091174330405
30
0
41
1
10
-30
20
10.6229845090751
30
0
41
1
10
-30
20
10.7927086151923
30
0
41
1
10
-30
20
10.9607029915804
30
0
41
1
10
-30
20
11.1241532476502
30
0
41
1
10
-30
20
11.286879520772
30
0
41
1
10
-30
20
11.4071324437642
30
0
41
1
10
-30
20
11.526059483736
30
0
41
1
10
-30
20
11.6834503898541
30
0
41
1
10
-30
20
11.8363772717575
30
0
41
1
10
-30
20
11.9883479026383
30
0
41
1
10
-30
20
12.100530681097
30
0
41
1
10
-30
20
12.211346817793
30
0
41
1
10
-30
20
12.3578191303265
30
0
41
1
10
-30
20
12.4998873251014
30
0
41
1
10
-30
20
12.640774639564
30
0
41
1
10
-30
20
12.7446351726738
30
0
41
1
10
-30
20
12.8470846962099
30
0
41
1
10
-30
20
12.9822967603461
30
0
41
1
10
-30
20
13.1131460918652
30
0
41
1
10
-30
20
13.2425908150844
30
0
41
1
10
-30
20
13.3378530905647
30
0
41
1
10
-30
20
13.431655102243
30
0
41
1
10
-30
20
13.5552284439381
30
0
41
1
10
-30
20
13.6744629632362
30
0
41
1
10
-30
20
13.7920640428987
30
0
41
1
10
-30
20
13.8638084100541
30
0
41
1
10
-30
20
13.9208384799596
30
0
41
1
10
-30
20
13.9773600368974
30
0
41
1
10
-30
20
14.0747689786766
30
0
41
1
10
-30
20
14.1819460903518
30
0
41
1
10
-30
20
14.2872490063531
30
0
41
1
10
-30
20
14.3643499644422
30
0
41
1
10
-30
20
14.4398725346097
30
0
41
1
10
-30
20
14.5388306330265
30
0
41
1
10
-30
20
14.6334478734244
30
0
41
1
10
-30
20
14.7259318226357
30
0
41
1
10
-30
20
14.793378171537
30
0
41
1
10
-30
20
14.8591738437125
30
0
41
1
10
-30
20
14.9233034607296
30
0
41
1
10
-30
20
14.9857535133679
30
0
41
1
10
-30
20
15.046512232164
30
0
41
1
10
-30
20
15.1055630695376
30
0
41
1
10
-30
20
15.1823146060513
30
0
41
1
10
-30
20
15.2546726312332
30
0
41
1
10
-30
20
15.3243986497297
30
0
41
1
10
-30
20
15.3917322452796
30
0
41
1
10
-30
20
15.4546352005829
30
0
41
1
10
-30
20
15.5146768877911
30
0
41
1
10
-30
20
15.5722298782128
30
0
41
1
10
-30
20
15.6253102421944
30
0
41
1
10
-30
20
15.6752710489662
30
0
41
1
10
-30
20
15.7106367362118
30
0
41
1
10
-30
20
15.7440468008705
30
0
41
1
10
-30
20
15.7861515665346
30
0
41
1
10
-30
20
15.8237020814766
30
0
41
1
10
-30
20
15.8576872273509
30
0
41
1
10
-30
20
15.8809772969169
30
0
41
1
10
-30
20
15.9021692417173
30
0
41
1
10
-30
20
15.921235563756
30
0
41
1
10
-30
20
15.9381491696966
30
0
41
1
10
-30
20
15.9528811556008
30
0
41
1
10
-30
20
15.9654018081648
30
0
41
1
10
-30
20
15.9756808201301
30
0
41
1
10
-30
20
15.9836860510365
30
0
41
1
10
-30
20
15.989385071505
30
0
41
1
10
-30
20
15.9927435470391
30
0
41
1
10
-30
20
15.9936126279638
30
0
41
1
10
-30
20
15.9930576936118
30
0
41
1
10
-30
20
15.9926664714091
30
0
0
SPLINE
5
105
100
AcDbEntity
8
SK1
62
256
6
ByLayer
370
18
48
1
60
0
100
AcDbSpline
70
4
71
3
72
290
73
286
40
0
40
0
40
0
40
0
40
0.0008596802184181
40
0.0043501754019274
40
0.0078406705854367
40
0.0113311657689459
40
0.0148216609524552
40
0.0183121561359645
40
0.0218026513194737
40
0.025293146502983
40
0.0287836416864923
40
0.0322741368700015
40
0.0357646320535108
40
0.0392551272370201
40
0.0427456224205294
40
0.0462361176040386
40
0.0532171079710572
40
0.0567076031545664
40
0.0601980983380757
40
0.063688593521585
40
0.0671790887050943
40
0.0741600790721128
40
0.0776505742556221
40
0.0811410694391313
40
0.0881220598061498
40
0.0916125549896591
40
0.0951030501731684
40
0.102084040540187
40
0.105574535723696
40
0.109065030907205
40
0.112555526090715
40
0.116046021274224
40
0.119536516457733
40
0.123027011641243
40
0.126517506824752
40
0.130008002008261
40
0.13698899237528
40
0.140479487558789
40
0.143969982742298
40
0.147460477925807
40
0.150950973109317
40
0.157931963476335
40
0.161422458659845
40
0.164912953843354
40
0.168403449026863
40
0.171893944210372
40
0.178874934577391
40
0.1823654297609
40
0.18585592494441
40
0.189346420127919
40
0.192836915311428
40
0.199817905678447
40
0.203308400861956
40
0.206798896045465
40
0.210289391228974
40
0.213779886412484
40
0.220760876779502
40
0.224251371963012
40
0.227741867146521
40
0.23123236233003
40
0.234722857513539
40
0.241703847880558
40
0.245194343064067
40
0.248684838247576
40
0.252175333431086
40
0.255665828614595
40
0.262646818981614
40
0.266137314165123
40
0.269627809348632
40
0.276608799715651
40
0.283589790082669
40
0.287080285266178
40
0.290570780449687
40
0.297551770816706
40
0.301042266000215
40
0.304532761183725
40
0.308023256367234
40
0.311513751550743
40
0.315004246734252
40
0.318494741917762
40
0.32547573228478
40
0.332456722651799
40
0.335947217835308
40
0.339437713018817
40
0.342928208202327
40
0.346418703385836
40
0.349909198569345
40
0.353399693752855
40
0.360380684119873
40
0.367361674486892
40
0.37434266485391
40
0.377833160037419
40
0.381323655220929
40
0.384814150404438
40
0.388304645587947
40
0.391795140771456
40
0.395285635954966
40
0.398776131138475
40
0.402266626321984
40
0.405757121505493
40
0.409247616689003
40
0.412738111872512
40
0.416228607056021
40
0.419719102239531
40
0.42320959742304
40
0.426700092606549
40
0.430190587790058
40
0.433681082973568
40
0.435426330565322
40
0.437171578157077
40
0.438916825748832
40
0.440662073340586
40
0.444152568524096
40
0.447643063707605
40
0.44938831129936
40
0.451133558891114
40
0.452878806482869
40
0.454624054074623
40
0.456369301666378
40
0.458114549258133
40
0.461605044441642
40
0.463350292033397
40
0.465095539625151
40
0.466840787216906
40
0.46858603480866
40
0.470331282400415
40
0.47207652999217
40
0.473821777583924
40
0.475567025175679
40
0.477312272767433
40
0.479057520359188
40
0.480802767950943
40
0.482548015542697
40
0.484293263134452
40
0.486038510726207
40
0.487783758317961
40
0.489529005909716
40
0.491274253501471
40
0.493019501093225
40
0.49476474868498
40
0.496509996276735
40
0.498255243868489
40
0.500000491460244
40
0.501745739051998
40
0.503490986643753
40
0.505236234235508
40
0.506981481827262
40
0.508726729419017
40
0.510471977010772
40
0.512217224602526
40
0.513962472194281
40
0.515707719786036
40
0.51745296737779
40
0.519198214969545
40
0.520943462561299
40
0.522688710153054
40
0.524433957744809
40
0.526179205336563
40
0.527924452928318
40
0.529669700520073
40
0.531414948111827
40
0.533160195703582
40
0.534905443295337
40
0.536650690887091
40
0.538395938478846
40
0.5401411860706
40
0.541886433662355
40
0.54363168125411
40
0.545376928845864
40
0.548867424029374
40
0.550612671621128
40
0.552357919212883
40
0.555848414396392
40
0.559338909579902
40
0.561084157171656
40
0.56282940476341
40
0.564574652355165
40
0.56631989994692
40
0.569810395130429
40
0.573300890313938
40
0.576791385497448
40
0.580281880680957
40
0.583772375864466
40
0.587262871047976
40
0.590753366231485
40
0.594243861414994
40
0.597734356598503
40
0.601224851782013
40
0.604715346965522
40
0.608205842149031
40
0.61169633733254
40
0.61518683251605
40
0.618677327699559
40
0.622167822883068
40
0.625658318066578
40
0.632639308433596
40
0.639620298800615
40
0.646601289167633
40
0.650091784351142
40
0.653582279534652
40
0.657072774718161
40
0.66056326990167
40
0.66405376508518
40
0.667544260268689
40
0.674525250635707
40
0.681506241002726
40
0.684996736186235
40
0.688487231369744
40
0.691977726553253
40
0.695468221736763
40
0.698958716920272
40
0.702449212103781
40
0.7094302024708
40
0.712920697654309
40
0.716411192837819
40
0.723392183204837
40
0.730373173571855
40
0.733863668755365
40
0.737354163938874
40
0.744335154305893
40
0.747825649489402
40
0.751316144672911
40
0.75480663985642
40
0.75829713503993
40
0.765278125406948
40
0.768768620590457
40
0.772259115773967
40
0.775749610957476
40
0.779240106140985
40
0.786221096508004
40
0.789711591691513
40
0.793202086875022
40
0.796692582058532
40
0.800183077242041
40
0.807164067609059
40
0.810654562792569
40
0.814145057976078
40
0.817635553159587
40
0.821126048343097
40
0.828107038710115
40
0.831597533893624
40
0.835088029077134
40
0.836833276668888
40
0.838578524260643
40
0.842069019444152
40
0.849050009811171
40
0.85254050499468
40
0.856031000178189
40
0.859521495361699
40
0.863011990545208
40
0.869992980912226
40
0.873483476095736
40
0.876973971279245
40
0.880464466462754
40
0.883954961646264
40
0.887445456829773
40
0.890935952013282
40
0.894426447196791
40
0.897916942380301
40
0.904897932747319
40
0.908388427930828
40
0.911878923114338
40
0.918859913481356
40
0.922350408664866
40
0.925840903848375
40
0.932821894215393
40
0.936312389398903
40
0.939802884582412
40
0.943293379765921
40
0.94678387494943
40
0.953764865316449
40
0.957255360499958
40
0.960745855683467
40
0.964236350866977
40
0.967726846050486
40
0.971217341233995
40
0.974707836417504
40
0.978198331601014
40
0.981688826784523
40
0.985179321968032
40
0.988669817151542
40
0.992160312335051
40
0.99565080751856
40
0.999141302702069
40
1
40
1
40
1
40
1
41
1
10
-28.5
20
-16.857061516216
30
0
41
1
10
-28.5
20
-16.8573439330517
30
0
41
1
10
-28.5
20
-16.8586400096474
30
0
41
1
10
-28.5
20
-16.8597682913315
30
0
41
1
10
-28.5
20
-16.8587320876464
30
0
41
1
10
-28.5
20
-16.8551966776123
30
0
41
1
10
-28.5
20
-16.8492032887544
30
0
41
1
10
-28.5
20
-16.8407921788659
30
0
41
1
10
-28.5
20
-16.8300011209595
30
0
41
1
10
-28.5
20
-16.8168672741155
30
0
41
1
10
-28.5
20
-16.8014255225769
30
0
41
1
10
-28.5
20
-16.7837098835209
30
0
41
1
10
-28.5
20
-16.7637529731541
30
0
41
1
10
-28.5
20
-16.7415855338906
30
0
41
1
10
-28.5
20
-16.7172383450784
30
0
41
1
10
-28.5
20
-16.6818353810986
30
0
41
1
10
-28.5
20
-16.642411510514
30
0
41
1
10
-28.5
20
-16.5986105790194
30
0
41
1
10
-28.5
20
-16.5637763020886
30
0
41
1
10
-28.5
20
-16.5269199075572
30
0
41
1
10
-28.5
20
-16.4750169305147
30
0
41
1
10
-28.5
20
-16.4194622625481
30
0
41
1
10
-28.5
20
-16.3597331913305
30
0
41
1
10
-28.5
20
-16.2974462059125
30
0
41
1
10
-28.5
20
-16.2317181614776
30
0
41
1
10
-28.5
20
-16.1619255301562
30
0
41
1
10
-28.5
20
-16.0896767577217
30
0
41
1
10
-28.5
20
-16.0141701499497
30
0
41
1
10
-28.5
20
-15.934697072035
30
0
41
1
10
-28.5
20
-15.8734193498834
30
0
41
1
10
-28.5
20
-15.8103844132607
30
0
41
1
10
-28.5
20
-15.7456081661669
30
0
41
1
10
-28.5
20
-15.6791035033831
30
0
41
1
10
-28.5
20
-15.6108850520675
30
0
41
1
10
-28.5
20
-15.5409672008415
30
0
41
1
10
-28.5
20
-15.4453363897877
30
0
41
1
10
-28.5
20
-15.3468344295442
30
0
41
1
10
-28.5
20
-15.2445501023872
30
0
41
1
10
-28.5
20
-15.1663215412447
30
0
41
1
10
-28.5
20
-15.0864673138636
30
0
41
1
10
-28.5
20
-14.9776668598204
30
0
41
1
10
-28.5
20
-14.8661866472663
30
0
41
1
10
-28.5
20
-14.7510047173632
30
0
41
1
10
-28.5
20
-14.6631805593238
30
0
41
1
10
-28.5
20
-14.5737935545692
30
0
41
1
10
-28.5
20
-14.4523474056541
30
0
41
1
10
-28.5
20
-14.3283920102608
30
0
41
1
10
-28.5
20
-14.2007962111625
30
0
41
1
10
-28.5
20
-14.1037299196573
30
0
41
1
10
-28.5
20
-14.0051547121625
30
0
41
1
10
-28.5
20
-13.8715103774192
30
0
41
1
10
-28.5
20
-13.735511602734
30
0
41
1
10
-28.5
20
-13.5959164295663
30
0
41
1
10
-28.5
20
-13.4899116400767
30
0
41
1
10
-28.5
20
-13.3824445287113
30
0
41
1
10
-28.5
20
-13.2369867267196
30
0
41
1
10
-28.5
20
-13.0893180063072
30
0
41
1
10
-28.5
20
-12.9380809359595
30
0
41
1
10
-28.5
20
-12.8234002792818
30
0
41
1
10
-28.5
20
-12.7072977235968
30
0
41
1
10
-28.5
20
-12.5503594035539
30
0
41
1
10
-28.5
20
-12.3913462445321
30
0
41
1
10
-28.5
20
-12.2287775158425
30
0
41
1
10
-28.5
20
-12.105649828898
30
0
41
1
10
-28.5
20
-11.9811355431936
30
0
41
1
10
-28.5
20
-11.8130068133241
30
0
41
1
10
-28.5
20
-11.6429357680779
30
0
41
1
10
-28.5
20
-11.4693068645233
30
0
41
1
10
-28.5
20
-11.2938625434425
30
0
41
1
10
-28.5
20
-11.0718089327864
30
0
41
1
10
-28.5
20
-10.8452681360071
30
0
41
1
10
-28.5
20
-10.6608198079832
30
0
41
1
10
-28.5
20
-10.4745957683653
30
0
41
1
10
-28.5
20
-10.2866518533399
30
0
41
1
10
-28.5
20
-10.0951135357909
30
0
41
1
10
-28.5
20
-9.95038954775907
30
0
41
1
10
-28.5
20
-9.80435457760407
30
0
41
1
10
-28.5
20
-9.6570150361182
30
0
41
1
10
-28.5
20
-9.50837340526905
30
0
41
1
10
-28.5
20
-9.30810992365673
30
0
41
1
10
-28.5
20
-9.05534970701538
30
0
41
1
10
-28.5
20
-8.79830464348919
30
0
41
1
10
-28.5
20
-8.58944232029052
30
0
41
1
10
-28.5
20
-8.43181572672975
30
0
41
1
10
-28.5
20
-8.27292311790586
30
0
41
1
10
-28.5
20
-8.11277014047181
30
0
41
1
10
-28.5
20
-7.95136171184487
30
0
41
1
10
-28.5
20
-7.73407184255305
30
0
41
1
10
-28.5
20
-7.46030866767526
30
0
41
1
10
-28.5
20
-7.12632140637368
30
0
41
1
10
-28.5
20
-6.84437402550566
30
0
41
1
10
-28.5
20
-6.61554359890366
30
0
41
1
10
-28.5
20
-6.44309029411602
30
0
41
1
10
-28.5
20
-6.26944364545886
30
0
41
1
10
-28.5
20
-6.09461246091766
30
0
41
1
10
-28.5
20
-5.91860523667606
30
0
41
1
10
-28.5
20
-5.74143189937951
30
0
41
1
10
-28.5
20
-5.56310357371999
30
0
41
1
10
-28.5
20
-5.3836313473316
30
0
41
1
10
-28.5
20
-5.20302692387259
30
0
41
1
10
-28.5
20
-5.02130422324714
30
0
41
1
10
-28.5
20
-4.83847919931259
30
0
41
1
10
-28.5
20
-4.65456716028001
30
0
41
1
10
-28.5
20
-4.46958486845946
30
0
41
1
10
-28.5
20
-4.28355302808063
30
0
41
1
10
-28.5
20
-4.09649275318176
30
0
41
1
10
-28.5
20
-3.90842813226229
30
0
41
1
10
-28.5
20
-3.75124940963559
30
0
41
1
10
-28.5
20
-3.62435497964387
30
0
41
1
10
-28.5
20
-3.52924315934178
30
0
41
1
10
-28.5
20
-3.43390158445516
30
0
41
1
10
-28.5
20
-3.30608717079295
30
0
41
1
10
-28.5
20
-3.14669072023418
30
0
41
1
10
-28.5
20
-2.98656939879118
30
0
41
1
10
-28.5
20
-2.85729421649609
30
0
41
1
10
-28.5
20
-2.76048089001321
30
0
41
1
10
-28.5
20
-2.66347976206251
30
0
41
1
10
-28.5
20
-2.56629526768586
30
0
41
1
10
-28.5
20
-2.46893611478748
30
0
41
1
10
-28.5
20
-2.33842740009584
30
0
41
1
10
-28.5
20
-2.20905952740139
30
0
41
1
10
-28.5
20
-2.07788039572895
30
0
41
1
10
-28.5
20
-1.97974994874613
30
0
41
1
10
-28.5
20
-1.88148715614119
30
0
41
1
10
-28.5
20
-1.78310090101274
30
0
41
1
10
-28.5
20
-1.68460072925302
30
0
41
1
10
-28.5
20
-1.58599184128093
30
0
41
1
10
-28.5
20
-1.48728649469353
30
0
41
1
10
-28.5
20
-1.38848914320585
30
0
41
1
10
-28.5
20
-1.28961139997079
30
0
41
1
10
-28.5
20
-1.19065859360984
30
0
41
1
10
-28.5
20
-1.09164071478045
30
0
41
1
10
-28.5
20
-0.99256409078842
30
0
41
1
10
-28.5
20
-0.893436923932484
30
0
41
1
10
-28.5
20
-0.794265471937109
30
0
41
1
10
-28.5
20
-0.695056741362805
30
0
41
1
10
-28.5
20
-0.595816468507223
30
0
41
1
10
-28.5
20
-0.496550613209962
30
0
41
1
10
-28.5
20
-0.397263853181784
30
0
41
1
10
-28.5
20
-0.297961366795079
30
0
41
1
10
-28.5
20
-0.198647102840681
30
0
41
1
10
-28.5
20
-0.0993254669347152
30
0
41
1
10
-28.5
20
-5.4724865E-09
30
0
41
1
10
-28.5
20
0.0993254684406111
30
0
41
1
10
-28.5
20
0.198647127601277
30
0
41
1
10
-28.5
20
0.29796138879172
30
0
41
1
10
-28.5
20
0.397263840424046
30
0
41
1
10
-28.5
20
0.496550594205587
30
0
41
1
10
-28.5
20
0.595816495504124
30
0
41
1
10
-28.5
20
0.695056784277057
30
0
41
1
10
-28.5
20
0.794265459276232
30
0
41
1
10
-28.5
20
0.893436883433537
30
0
41
1
10
-28.5
20
0.99256411216993
30
0
41
1
10
-28.5
20
1.09164077920426
30
0
41
1
10
-28.5
20
1.19065859620269
30
0
41
1
10
-28.5
20
1.28961134189757
30
0
41
1
10
-28.5
20
1.38848913588995
30
0
41
1
10
-28.5
20
1.48728656512981
30
0
41
1
10
-28.5
20
1.58599188781935
30
0
41
1
10
-28.5
20
1.68460068701253
30
0
41
1
10
-28.5
20
1.78310084050702
30
0
41
1
10
-28.5
20
1.88148718140704
30
0
41
1
10
-28.5
20
1.97975003643623
30
0
41
1
10
-28.5
20
2.07788042653632
30
0
41
1
10
-28.5
20
2.17587292609088
30
0
41
1
10
-28.5
20
2.27371679621322
30
0
41
1
10
-28.5
20
2.37140757120358
30
0
41
1
10
-28.5
20
2.46893613943036
30
0
41
1
10
-28.5
20
2.59923374131702
30
0
41
1
10
-28.5
20
2.72777279716709
30
0
41
1
10
-28.5
20
2.85729428823933
30
0
41
1
10
-28.5
20
2.98656948332391
30
0
41
1
10
-28.5
20
3.14669074057872
30
0
41
1
10
-28.5
20
3.30608709676804
30
0
41
1
10
-28.5
20
3.43390157548939
30
0
41
1
10
-28.5
20
3.52924322184194
30
0
41
1
10
-28.5
20
3.62435506854837
30
0
41
1
10
-28.5
20
3.75124942106061
30
0
41
1
10
-28.5
20
3.90842799420631
30
0
41
1
10
-28.5
20
4.09649259176149
30
0
41
1
10
-28.5
20
4.28355297730508
30
0
41
1
10
-28.5
20
4.46958461745552
30
0
41
1
10
-28.5
20
4.65456683421041
30
0
41
1
10
-28.5
20
4.83847943804497
30
0
41
1
10
-28.5
20
5.02130448518983
30
0
41
1
10
-28.5
20
5.20302670033016
30
0
41
1
10
-28.5
20
5.3836315623424
30
0
41
1
10
-28.5
20
5.56310445504445
30
0
41
1
10
-28.5
20
5.74143237747987
30
0
41
1
10
-28.5
20
5.91860495448574
30
0
41
1
10
-28.5
20
6.0946120882553
30
0
41
1
10
-28.5
20
6.26944357118302
30
0
41
1
10
-28.5
20
6.44309032655633
30
0
41
1
10
-28.5
20
6.61554357091575
30
0
41
1
10
-28.5
20
6.84437400802864
30
0
41
1
10
-28.5
20
7.12632144512304
30
0
41
1
10
-28.5
20
7.46030865505765
30
0
41
1
10
-28.5
20
7.73407184285284
30
0
41
1
10
-28.5
20
7.95136176299607
30
0
41
1
10
-28.5
20
8.11277014937087
30
0
41
1
10
-28.5
20
8.27292308432652
30
0
41
1
10
-28.5
20
8.43181570788792
30
0
41
1
10
-28.5
20
8.58944234887986
30
0
41
1
10
-28.5
20
8.79830467826935
30
0
41
1
10
-28.5
20
9.05534969583795
30
0
41
1
10
-28.5
20
9.3081099162269
30
0
41
1
10
-28.5
20
9.50837344479854
30
0
41
1
10
-28.5
20
9.65701506287496
30
0
41
1
10
-28.5
20
9.80435457188477
30
0
41
1
10
-28.5
20
9.95038952754791
30
0
41
1
10
-28.5
20
10.095113531911
30
0
41
1
10
-28.5
20
10.2866518813937
30
0
41
1
10
-28.5
20
10.4745957936974
30
0
41
1
10
-28.5
20
10.6608197986608
30
0
41
1
10
-28.5
20
10.8452681286138
30
0
41
1
10
-28.5
20
11.0718089525805
30
0
41
1
10
-28.5
20
11.293862563293
30
0
41
1
10
-28.5
20
11.4693068596265
30
0
41
1
10
-28.5
20
11.6429357656381
30
0
41
1
10
-28.5
20
11.8130068303033
30
0
41
1
10
-28.5
20
11.9811355648908
30
0
41
1
10
-28.5
20
12.1056498404809
30
0
41
1
10
-28.5
20
12.2287775174239
30
0
41
1
10
-28.5
20
12.3913462461042
30
0
41
1
10
-28.5
20
12.5503594172971
30
0
41
1
10
-28.5
20
12.7072977423404
30
0
41
1
10
-28.5
20
12.8234002933142
30
0
41
1
10
-28.5
20
12.9380809438717
30
0
41
1
10
-28.5
20
13.0893180117675
30
0
41
1
10
-28.5
20
13.2369867372074
30
0
41
1
10
-28.5
20
13.3824445445543
30
0
41
1
10
-28.5
20
13.4899116562855
30
0
41
1
10
-28.5
20
13.5959164434404
30
0
41
1
10
-28.5
20
13.7355116125921
30
0
41
1
10
-28.5
20
13.8715103854275
30
0
41
1
10
-28.5
20
14.0051547249398
30
0
41
1
10
-28.5
20
14.1037299370702
30
0
41
1
10
-28.5
20
14.2007962250069
30
0
41
1
10
-28.5
20
14.328392039309
30
0
41
1
10
-28.5
20
14.452347405446
30
0
41
1
10
-28.5
20
14.5737935062701
30
0
41
1
10
-28.5
20
14.6481896525931
30
0
41
1
10
-28.5
20
14.7070919001429
30
0
41
1
10
-28.5
20
14.7654709460418
30
0
41
1
10
-28.5
20
14.8661866667289
30
0
41
1
10
-28.5
20
14.9776668655465
30
0
41
1
10
-28.5
20
15.086467321316
30
0
41
1
10
-28.5
20
15.1663215599361
30
0
41
1
10
-28.5
20
15.2445501295777
30
0
41
1
10
-28.5
20
15.3468344527492
30
0
41
1
10
-28.5
20
15.4453363938053
30
0
41
1
10
-28.5
20
15.540967207333
30
0
41
1
10
-28.5
20
15.6108850733398
30
0
41
1
10
-28.5
20
15.679103534252
30
0
41
1
10
-28.5
20
15.7456081924763
30
0
41
1
10
-28.5
20
15.8103844230871
30
0
41
1
10
-28.5
20
15.8734193510279
30
0
41
1
10
-28.5
20
15.9346970807191
30
0
41
1
10
-28.5
20
16.0141701800502
30
0
41
1
10
-28.5
20
16.0896767899468
30
0
41
1
10
-28.5
20
16.1619255341458
30
0
41
1
10
-28.5
20
16.2317181619347
30
0
41
1
10
-28.5
20
16.2974462376793
30
0
41
1
10
-28.5
20
16.3597332242326
30
0
41
1
10
-28.5
20
16.4194622696319
30
0
41
1
10
-28.5
20
16.4750169286961
30
0
41
1
10
-28.5
20
16.5269199399481
30
0
41
1
10
-28.5
20
16.5637763395248
30
0
41
1
10
-28.5
20
16.5986105943248
30
0
41
1
10
-28.5
20
16.642411504334
30
0
41
1
10
-28.5
20
16.6818354096897
30
0
41
1
10
-28.5
20
16.7172383773105
30
0
41
1
10
-28.5
20
16.7415855502291
30
0
41
1
10
-28.5
20
16.7637529737167
30
0
41
1
10
-28.5
20
16.7837098927271
30
0
41
1
10
-28.5
20
16.8014255596809
30
0
41
1
10
-28.5
20
16.8168673072081
30
0
41
1
10
-28.5
20
16.8300011251081
30
0
41
1
10
-28.5
20
16.8407921763224
30
0
41
1
10
-28.5
20
16.8492033090471
30
0
41
1
10
-28.5
20
16.8551966659016
30
0
41
1
10
-28.5
20
16.8587319423622
30
0
41
1
10
-28.5
20
16.8597680746869
30
0
41
1
10
-28.5
20
16.8586400424074
30
0
41
1
10
-28.5
20
16.8573444981728
30
0
41
1
10
-28.5
20
16.8570624825136
30
0
0
SPLINE
5
106
100
AcDbEntity
8
SK1
62
256
6
ByLayer
370
18
48
1
60
0
100
AcDbSpline
70
4
71
3
72
282
73
278
40
0
40
0
40
0
40
0
40
0.0031454830659641
40
0.0067198723049843
40
0.0102942615440045
40
0.0138686507830247
40
0.0174430400220448
40
0.021017429261065
40
0.0245918185000852
40
0.0281662077391054
40
0.0317405969781256
40
0.0353149862171458
40
0.0424637646951862
40
0.0460381539342064
40
0.0496125431732266
40
0.0531869324122468
40
0.056761321651267
40
0.0639101001293074
40
0.0674844893683276
40
0.0710588786073478
40
0.0782076570853882
40
0.0817820463244083
40
0.0853564355634285
40
0.0925052140414689
40
0.0960796032804891
40
0.0996539925195093
40
0.103228381758529
40
0.10680277099755
40
0.11037716023657
40
0.11395154947559
40
0.11752593871461
40
0.121100327953631
40
0.128249106431671
40
0.131823495670691
40
0.135397884909711
40
0.138972274148732
40
0.142546663387752
40
0.149695441865792
40
0.153269831104812
40
0.156844220343832
40
0.160418609582853
40
0.163992998821873
40
0.171141777299913
40
0.174716166538933
40
0.178290555777954
40
0.181864945016974
40
0.185439334255994
40
0.192588112734034
40
0.196162501973055
40
0.199736891212075
40
0.203311280451095
40
0.206885669690115
40
0.214034448168156
40
0.217608837407176
40
0.221183226646196
40
0.224757615885216
40
0.228332005124236
40
0.235480783602277
40
0.239055172841297
40
0.242629562080317
40
0.246203951319337
40
0.249778340558357
40
0.256927119036398
40
0.260501508275418
40
0.264075897514438
40
0.271224675992479
40
0.278373454470519
40
0.281947843709539
40
0.285522232948559
40
0.2926710114266
40
0.29624540066562
40
0.29981978990464
40
0.30339417914366
40
0.306968568382681
40
0.310542957621701
40
0.314117346860721
40
0.321266125338761
40
0.328414903816802
40
0.331989293055822
40
0.335563682294842
40
0.339138071533862
40
0.342712460772882
40
0.346286850011903
40
0.349861239250923
40
0.357010017728963
40
0.364158796207004
40
0.371307574685044
40
0.374881963924064
40
0.378456353163085
40
0.382030742402105
40
0.385605131641125
40
0.389179520880145
40
0.392753910119165
40
0.396328299358185
40
0.399902688597206
40
0.403477077836226
40
0.407051467075246
40
0.410625856314266
40
0.414200245553286
40
0.417774634792307
40
0.421349024031327
40
0.424923413270347
40
0.428497802509367
40
0.432072191748388
40
0.433859386367898
40
0.435646580987408
40
0.437433775606918
40
0.439220970226428
40
0.442795359465448
40
0.446369748704468
40
0.448156943323978
40
0.449944137943488
40
0.451731332562999
40
0.453518527182509
40
0.455305721802019
40
0.457092916421529
40
0.460667305660549
40
0.462454500280059
40
0.464241694899569
40
0.466028889519079
40
0.467816084138589
40
0.469603278758099
40
0.47139047337761
40
0.47317766799712
40
0.47496486261663
40
0.47675205723614
40
0.47853925185565
40
0.48032644647516
40
0.48211364109467
40
0.48390083571418
40
0.48568803033369
40
0.4874752249532
40
0.48926241957271
40
0.491049614192221
40
0.492836808811731
40
0.494624003431241
40
0.496411198050751
40
0.498198392670261
40
0.499985587289771
40
0.501772781909281
40
0.503559976528791
40
0.505347171148301
40
0.507134365767812
40
0.508921560387322
40
0.510708755006832
40
0.512495949626342
40
0.514283144245852
40
0.516070338865362
40
0.517857533484872
40
0.519644728104382
40
0.521431922723892
40
0.523219117343402
40
0.525006311962912
40
0.526793506582423
40
0.528580701201933
40
0.530367895821443
40
0.532155090440953
40
0.533942285060463
40
0.535729479679973
40
0.537516674299483
40
0.539303868918993
40
0.541091063538503
40
0.542878258158013
40
0.544665452777524
40
0.546452647397034
40
0.550027036636054
40
0.551814231255564
40
0.553601425875074
40
0.557175815114094
40
0.560750204353114
40
0.562537398972625
40
0.564324593592135
40
0.566111788211645
40
0.567898982831155
40
0.571473372070175
40
0.575047761309195
40
0.578622150548215
40
0.582196539787236
40
0.585770929026256
40
0.589345318265276
40
0.592919707504296
40
0.596494096743316
40
0.600068485982337
40
0.603642875221357
40
0.607217264460377
40
0.610791653699397
40
0.614366042938417
40
0.617940432177438
40
0.621514821416458
40
0.625089210655478
40
0.628663599894498
40
0.635812378372539
40
0.642961156850579
40
0.650109935328619
40
0.653684324567639
40
0.65725871380666
40
0.66083310304568
40
0.6644074922847
40
0.66798188152372
40
0.67155627076274
40
0.678705049240781
40
0.685853827718821
40
0.689428216957841
40
0.693002606196862
40
0.696576995435882
40
0.700151384674902
40
0.703725773913922
40
0.707300163152942
40
0.714448941630983
40
0.718023330870003
40
0.721597720109023
40
0.728746498587064
40
0.735895277065104
40
0.739469666304124
40
0.743044055543144
40
0.750192834021185
40
0.753767223260205
40
0.757341612499225
40
0.760916001738245
40
0.764490390977266
40
0.771639169455306
40
0.775213558694326
40
0.778787947933346
40
0.782362337172366
40
0.785936726411387
40
0.793085504889427
40
0.796659894128447
40
0.800234283367467
40
0.803808672606488
40
0.807383061845508
40
0.814531840323548
40
0.818106229562568
40
0.821680618801589
40
0.825255008040609
40
0.828829397279629
40
0.835978175757669
40
0.83955256499669
40
0.84312695423571
40
0.84491414885522
40
0.84670134347473
40
0.85027573271375
40
0.857424511191791
40
0.860998900430811
40
0.864573289669831
40
0.868147678908851
40
0.871722068147871
40
0.878870846625912
40
0.882445235864932
40
0.886019625103952
40
0.889594014342972
40
0.893168403581993
40
0.896742792821013
40
0.900317182060033
40
0.903891571299053
40
0.907465960538073
40
0.914614739016114
40
0.918189128255134
40
0.921763517494154
40
0.928912295972194
40
0.932486685211215
40
0.936061074450235
40
0.943209852928275
40
0.946784242167295
40
0.950358631406316
40
0.953933020645336
40
0.957507409884356
40
0.964656188362396
40
0.968230577601417
40
0.971804966840437
40
0.975379356079457
40
0.978953745318477
40
0.982528134557497
40
0.986102523796518
40
0.989676913035538
40
0.993251302274558
40
0.996825691513578
40
1
40
1
40
1
40
1
41
1
10
-2.20000000000002
20
-17.5147448814113
30
0
41
1
10
-2.20000000000002
20
-17.5132050153535
30
0
41
1
10
-2.20000000000002
20
-17.5092143179573
30
0
41
1
10
-2.20000000000002
20
-17.5008423359265
30
0
41
1
10
-2.20000000000002
20
-17.4896606050755
30
0
41
1
10
-2.20000000000002
20
-17.4760589345483
30
0
41
1
10
-2.20000000000002
20
-17.4600756660116
30
0
41
1
10
-2.20000000000002
20
-17.4417480829298
30
0
41
1
10
-2.20000000000002
20
-17.4211116708093
30
0
41
1
10
-2.20000000000002
20
-17.3981999720817
30
0
41
1
10
-2.20000000000002
20
-17.373046254225
30
0
41
1
10
-2.20000000000002
20
-17.3365615480365
30
0
41
1
10
-2.20000000000002
20
-17.2957083393221
30
0
41
1
10
-2.20000000000002
20
-17.2506132986913
30
0
41
1
10
-2.20000000000002
20
-17.2146924230801
30
0
41
1
10
-2.20000000000002
20
-17.1766986759847
30
0
41
1
10
-2.20000000000002
20
-17.1233138560685
30
0
41
1
10
-2.20000000000002
20
-17.0658713749173
30
0
41
1
10
-2.20000000000002
20
-17.0044820563696
30
0
41
1
10
-2.20000000000002
20
-16.9404819965209
30
0
41
1
10
-2.20000000000002
20
-16.8725984751516
30
0
41
1
10
-2.20000000000002
20
-16.8009296734765
30
0
41
1
10
-2.20000000000002
20
-16.72675615712
30
0
41
1
10
-2.20000000000002
20
-16.6488472996884
30
0
41
1
10
-2.20000000000002
20
-16.5672977573629
30
0
41
1
10
-2.20000000000002
20
-16.5043209819811
30
0
41
1
10
-2.20000000000002
20
-16.4395493732765
30
0
41
1
10
-2.20000000000002
20
-16.3729983406747
30
0
41
1
10
-2.20000000000002
20
-16.3046816133433
30
0
41
1
10
-2.20000000000002
20
-16.234614658763
30
0
41
1
10
-2.20000000000002
20
-16.1628111167189
30
0
41
1
10
-2.20000000000002
20
-16.0647793469533
30
0
41
1
10
-2.20000000000002
20
-15.9633134995801
30
0
41
1
10
-2.20000000000002
20
-15.8584913887799
30
0
41
1
10
-2.20000000000002
20
-15.7781982427732
30
0
41
1
10
-2.20000000000002
20
-15.6962433497342
30
0
41
1
10
-2.20000000000002
20
-15.5847743861311
30
0
41
1
10
-2.20000000000002
20
-15.4700110710185
30
0
41
1
10
-2.20000000000002
20
-15.3520264687641
30
0
41
1
10
-2.20000000000002
20
-15.2619258251736
30
0
41
1
10
-2.20000000000002
20
-15.1702262286607
30
0
41
1
10
-2.20000000000002
20
-15.0458463802595
30
0
41
1
10
-2.20000000000002
20
-14.9182892137509
30
0
41
1
10
-2.20000000000002
20
-14.7876243835494
30
0
41
1
10
-2.20000000000002
20
-14.6880675684927
30
0
41
1
10
-2.20000000000002
20
-14.5869647024964
30
0
41
1
10
-2.20000000000002
20
-14.4501162009323
30
0
41
1
10
-2.20000000000002
20
-14.310188578504
30
0
41
1
10
-2.20000000000002
20
-14.1672492498436
30
0
41
1
10
-2.20000000000002
20
-14.0585319196999
30
0
41
1
10
-2.20000000000002
20
-13.9483131149779
30
0
41
1
10
-2.20000000000002
20
-13.7993681823229
30
0
41
1
10
-2.20000000000002
20
-13.6474264445925
30
0
41
1
10
-2.20000000000002
20
-13.4925540283558
30
0
41
1
10
-2.20000000000002
20
-13.3749248852381
30
0
41
1
10
-2.20000000000002
20
-13.2558316845062
30
0
41
1
10
-2.20000000000002
20
-13.0951031858018
30
0
41
1
10
-2.20000000000002
20
-12.9314463879873
30
0
41
1
10
-2.20000000000002
20
-12.7649271524075
30
0
41
1
10
-2.20000000000002
20
-12.6385945304865
30
0
41
1
10
-2.20000000000002
20
-12.510828990928
30
0
41
1
10
-2.20000000000002
20
-12.3385783725546
30
0
41
1
10
-2.20000000000002
20
-12.1634558634281
30
0
41
1
10
-2.20000000000002
20
-11.9855279960913
30
0
41
1
10
-2.20000000000002
20
-11.8057193844339
30
0
41
1
10
-2.20000000000002
20
-11.5774197426994
30
0
41
1
10
-2.20000000000002
20
-11.3444552561941
30
0
41
1
10
-2.20000000000002
20
-11.1553144466797
30
0
41
1
10
-2.20000000000002
20
-10.96432157968
30
0
41
1
10
-2.20000000000002
20
-10.7705258372791
30
0
41
1
10
-2.20000000000002
20
-10.5740001677826
30
0
41
1
10
-2.20000000000002
20
-10.4252200954492
30
0
41
1
10
-2.20000000000002
20
-10.2750653600417
30
0
41
1
10
-2.20000000000002
20
-10.1235384488298
30
0
41
1
10
-2.20000000000002
20
-9.97064122920807
30
0
41
1
10
-2.20000000000002
20
-9.76496631801302
30
0
41
1
10
-2.20000000000002
20
-9.50443392738597
30
0
41
1
10
-2.20000000000002
20
-9.23936570098883
30
0
41
1
10
-2.20000000000002
20
-9.02461799380217
30
0
41
1
10
-2.20000000000002
20
-8.86219304475887
30
0
41
1
10
-2.20000000000002
20
-8.69841428000512
30
0
41
1
10
-2.20000000000002
20
-8.53328405958746
30
0
41
1
10
-2.20000000000002
20
-8.36680339868337
30
0
41
1
10
-2.20000000000002
20
-8.14304412571011
30
0
41
1
10
-2.20000000000002
20
-7.85994707617317
30
0
41
1
10
-2.20000000000002
20
-7.51487111531026
30
0
41
1
10
-2.20000000000002
20
-7.22282329277962
30
0
41
1
10
-2.20000000000002
20
-6.98653548716825
30
0
41
1
10
-2.20000000000002
20
-6.80797157864473
30
0
41
1
10
-2.20000000000002
20
-6.62807270531451
30
0
41
1
10
-2.20000000000002
20
-6.44684086969582
30
0
41
1
10
-2.20000000000002
20
-6.26427776637016
30
0
41
1
10
-2.20000000000002
20
-6.0803858592752
30
0
41
1
10
-2.20000000000002
20
-5.89516728223867
30
0
41
1
10
-2.19999999999999
20
-5.708624690926
30
0
41
1
10
-2.19999999999999
20
-5.52076103085633
30
0
41
1
10
-2.19999999999999
20
-5.33157993388585
30
0
41
1
10
-2.19999999999999
20
-5.14108511996025
30
0
41
1
10
-2.19999999999999
20
-4.94928086714646
30
0
41
1
10
-2.19999999999999
20
-4.75617251627347
30
0
41
1
10
-2.19999999999999
20
-4.56176620564526
30
0
41
1
10
-2.19999999999999
20
-4.36606873641344
30
0
41
1
10
-2.19999999999999
20
-4.16908849962459
30
0
41
1
10
-2.19999999999999
20
-4.00386590607064
30
0
41
1
10
-2.19999999999999
20
-3.87107810854147
30
0
41
1
10
-2.19999999999999
20
-3.77116418570387
30
0
41
1
10
-2.19999999999999
20
-3.67093805129474
30
0
41
1
10
-2.19999999999999
20
-3.5369018254882
30
0
41
1
10
-2.19999999999999
20
-3.36855658184018
30
0
41
1
10
-2.19999999999999
20
-3.19919951970695
30
0
41
1
10
-2.19999999999999
20
-3.06314133422208
30
0
41
1
10
-2.19999999999999
20
-2.96079189341756
30
0
41
1
10
-2.19999999999999
20
-2.85815023786418
30
0
41
1
10
-2.19999999999999
20
-2.75522026664268
30
0
41
1
10
-2.19999999999999
20
-2.65200561172494
30
0
41
1
10
-2.19999999999999
20
-2.51402705629772
30
0
41
1
10
-2.19999999999999
20
-2.375450816946
30
0
41
1
10
-2.19999999999999
20
-2.23639085040648
30
0
41
1
10
-2.19999999999999
20
-2.13182395998015
30
0
41
1
10
-2.19999999999999
20
-2.0270034875229
30
0
41
1
10
-2.19999999999999
20
-1.92193653735015
30
0
41
1
10
-2.19999999999999
20
-1.81663008016324
30
0
41
1
10
-2.19999999999999
20
-1.71109231328518
30
0
41
1
10
-2.19999999999999
20
-1.60533155404698
30
0
41
1
10
-2.19999999999999
20
-1.49935698477981
30
0
41
1
10
-2.19999999999999
20
-1.39317847233161
30
0
41
1
10
-2.19999999999999
20
-1.28680633401083
30
0
41
1
10
-2.19999999999999
20
-1.18025197439016
30
0
41
1
10
-2.19999999999999
20
-1.073527020087
30
0
41
1
10
-2.19999999999999
20
-0.96664434311532
30
0
41
1
10
-2.19999999999999
20
-0.859616995486334
30
0
41
1
10
-2.19999999999999
20
-0.752459219961509
30
0
41
1
10
-2.19999999999999
20
-0.645185453734172
30
0
41
1
10
-2.19999999999999
20
-0.537811163545598
30
0
41
1
10
-2.19999999999999
20
-0.430352024765995
30
0
41
1
10
-2.19999999999999
20
-0.322824496958589
30
0
41
1
10
-2.19999999999999
20
-0.215245213108545
30
0
41
1
10
-2.19999999999999
20
-0.107631302158183
30
0
41
1
10
-2.19999999999999
20
5.9909553E-09
30
0
41
1
10
-2.19999999999999
20
0.107631313716837
30
0
41
1
10
-2.19999999999999
20
0.215245223931788
30
0
41
1
10
-2.19999999999999
20
0.322824507999513
30
0
41
1
10
-2.19999999999999
20
0.430352036900842
30
0
41
1
10
-2.19999999999999
20
0.537811175438549
30
0
41
1
10
-2.19999999999999
20
0.645185463980482
30
0
41
1
10
-2.19999999999999
20
0.752459230354134
30
0
41
1
10
-2.19999999999999
20
0.859617007920519
30
0
41
1
10
-2.19999999999999
20
0.966644355262389
30
0
41
1
10
-2.19999999999999
20
1.07352702949097
30
0
41
1
10
-2.19999999999999
20
1.18025198377217
30
0
41
1
10
-2.19999999999999
20
1.2868063464968
30
0
41
1
10
-2.19999999999999
20
1.39317848503859
30
0
41
1
10
-2.19999999999999
20
1.49935699380708
30
0
41
1
10
-2.19999999999999
20
1.60533156181745
30
0
41
1
10
-2.19999999999999
20
1.71109232444707
30
0
41
1
10
-2.19999999999999
20
1.8166300937356
30
0
41
1
10
-2.19999999999999
20
1.92193654804362
30
0
41
1
10
-2.19999999999999
20
2.02700349385552
30
0
41
1
10
-2.19999999999999
20
2.13182396747069
30
0
41
1
10
-2.19999999999999
20
2.23639086291988
30
0
41
1
10
-2.19999999999999
20
2.34069812940876
30
0
41
1
10
-2.19999999999999
20
2.44473977839391
30
0
41
1
10
-2.19999999999999
20
2.54851063247165
30
0
41
1
10
-2.19999999999999
20
2.65200559968281
30
0
41
1
10
-2.19999999999999
20
2.78960994504098
30
0
41
1
10
-2.19999999999999
20
2.92668912429065
30
0
41
1
10
-2.19999999999999
20
3.06314133551615
30
0
41
1
10
-2.19999999999999
20
3.19919952332836
30
0
41
1
10
-2.19999999999999
20
3.36855659963138
30
0
41
1
10
-2.19999999999999
20
3.53690183437428
30
0
41
1
10
-2.19999999999999
20
3.67093805397229
30
0
41
1
10
-2.19999999999999
20
3.77116418775421
30
0
41
1
10
-2.19999999999999
20
3.87107811616198
30
0
41
1
10
-2.19999999999999
20
4.00386592221614
30
0
41
1
10
-2.19999999999999
20
4.169088511784
30
0
41
1
10
-2.19999999999999
20
4.36606871643775
30
0
41
1
10
-2.19999999999999
20
4.56176617271484
30
0
41
1
10
-2.19999999999999
20
4.75617249379653
30
0
41
1
10
-2.19999999999999
20
4.94928076863457
30
0
41
1
10
-2.19999999999999
20
5.14108500618136
30
0
41
1
10
-2.19999999999999
20
5.33157993903225
30
0
41
1
10
-2.19999999999999
20
5.52076102284181
30
0
41
1
10
-2.19999999999999
20
5.70862461825791
30
0
41
1
10
-2.19999999999999
20
5.89516734859464
30
0
41
1
10
-2.19999999999999
20
6.0803860968085
30
0
41
1
10
-2.19999999999999
20
6.26427796235188
30
0
41
1
10
-2.19999999999999
20
6.44684092947378
30
0
41
1
10
-2.19999999999999
20
6.62807271786153
30
0
41
1
10
-2.19999999999999
20
6.80797159432129
30
0
41
1
10
-2.19999999999999
20
6.98653550324826
30
0
41
1
10
-2.19999999999999
20
7.22282328452872
30
0
41
1
10
-2.19999999999999
20
7.51487112820209
30
0
41
1
10
-2.19999999999999
20
7.85994708827315
30
0
41
1
10
-2.19999999999999
20
8.14304411844034
30
0
41
1
10
-2.19999999999999
20
8.36680341033821
30
0
41
1
10
-2.19999999999999
20
8.53328407858575
30
0
41
1
10
-2.19999999999999
20
8.69841428877766
30
0
41
1
10
-2.19999999999999
20
8.86219304073114
30
0
41
1
10
-2.19999999999999
20
9.02461799205523
30
0
41
1
10
-2.19999999999999
20
9.23936571773675
30
0
41
1
10
-2.19999999999999
20
9.50443394039922
30
0
41
1
10
-2.19999999999999
20
9.76496631110049
30
0
41
1
10
-2.19999999999999
20
9.97064123613964
30
0
41
1
10
-2.19999999999999
20
10.123538466054
30
0
41
1
10
-2.19999999999999
20
10.2750653748105
30
0
41
1
10
-2.19999999999999
20
10.4252201002359
30
0
41
1
10
-2.19999999999999
20
10.5740001651574
30
0
41
1
10
-2.19999999999999
20
10.7705258416001
30
0
41
1
10
-2.19999999999999
20
10.9643215989582
30
0
41
1
10
-2.19999999999999
20
11.1553144582602
30
0
41
1
10
-2.19999999999999
20
11.3444552554371
30
0
41
1
10
-2.19999999999999
20
11.5774197477568
30
0
41
1
10
-2.19999999999999
20
11.8057194023465
30
0
41
1
10
-2.19999999999999
20
11.9855280067157
30
0
41
1
10
-2.19999999999999
20
12.1634558646822
30
0
41
1
10
-2.19999999999999
20
12.3385783781737
30
0
41
1
10
-2.19999999999999
20
12.510829004708
30
0
41
1
10
-2.19999999999999
20
12.6385945454976
30
0
41
1
10
-2.19999999999999
20
12.7649271637091
30
0
41
1
10
-2.19999999999999
20
12.9314463925932
30
0
41
1
10
-2.19999999999999
20
13.0951031927999
30
0
41
1
10
-2.19999999999999
20
13.2558316973182
30
0
41
1
10
-2.19999999999999
20
13.3749248996582
30
0
41
1
10
-2.19999999999999
20
13.4925540411334
30
0
41
1
10
-2.19999999999999
20
13.6474264531923
30
0
41
1
10
-2.19999999999999
20
13.7993681905533
30
0
41
1
10
-2.19999999999999
20
13.9483131264862
30
0
41
1
10
-2.19999999999999
20
14.0585319334344
30
0
41
1
10
-2.19999999999999
20
14.1672492642274
30
0
41
1
10
-2.19999999999999
20
14.3101885914782
30
0
41
1
10
-2.19999999999999
20
14.4501162106047
30
0
41
1
10
-2.19999999999999
20
14.5869647126432
30
0
41
1
10
-2.19999999999999
20
14.6880675812844
30
0
41
1
10
-2.19999999999999
20
14.7876243995297
30
0
41
1
10
-2.19999999999999
20
14.9182892218295
30
0
41
1
10
-2.19999999999999
20
15.0458464314392
30
0
41
1
10
-2.19999999999999
20
15.1702261509224
30
0
41
1
10
-2.19999999999999
20
15.2466455133785
30
0
41
1
10
-2.19999999999999
20
15.3069761679616
30
0
41
1
10
-2.19999999999999
20
15.3667724139347
30
0
41
1
10
-2.19999999999999
20
15.4700110929875
30
0
41
1
10
-2.19999999999999
20
15.5847743990242
30
0
41
1
10
-2.19999999999999
20
15.6962433571227
30
0
41
1
10
-2.19999999999999
20
15.7781982539187
30
0
41
1
10
-2.19999999999999
20
15.8584914079188
30
0
41
1
10
-2.19999999999999
20
15.9633135259672
30
0
41
1
10
-2.19999999999999
20
16.0647793597711
30
0
41
1
10
-2.19999999999999
20
16.1628111223414
30
0
41
1
10
-2.19999999999999
20
16.2346146707391
30
0
41
1
10
-2.19999999999999
20
16.3046816359758
30
0
41
1
10
-2.19999999999999
20
16.3729983688048
30
0
41
1
10
-2.19999999999999
20
16.439549393056
30
0
41
1
10
-2.19999999999999
20
16.5043209901434
30
0
41
1
10
-2.19999999999999
20
16.5672977619412
30
0
41
1
10
-2.19999999999999
20
16.6488473199257
30
0
41
1
10
-2.19999999999999
20
16.7267561914694
30
0
41
1
10
-2.19999999999999
20
16.8009296884544
30
0
41
1
10
-2.19999999999999
20
16.8725984731113
30
0
41
1
10
-2.19999999999999
20
16.9404820184079
30
0
41
1
10
-2.19999999999999
20
17.0044820909957
30
0
41
1
10
-2.19999999999999
20
17.0658713913631
30
0
41
1
10
-2.19999999999999
20
17.123313852319
30
0
41
1
10
-2.19999999999999
20
17.1766986986672
30
0
41
1
10
-2.19999999999999
20
17.2146924603873
30
0
41
1
10
-2.19999999999999
20
17.250613323192
30
0
41
1
10
-2.19999999999999
20
17.2957083328928
30
0
41
1
10
-2.19999999999999
20
17.3365615705832
30
0
41
1
10
-2.19999999999999
20
17.3730462873428
30
0
41
1
10
-2.19999999999999
20
17.398199993695
30
0
41
1
10
-2.19999999999999
20
17.4211116738093
30
0
41
1
10
-2.19999999999999
20
17.4417480876219
30
0
41
1
10
-2.19999999999999
20
17.4600756994924
30
0
41
1
10
-2.19999999999999
20
17.4760589706817
30
0
41
1
10
-2.19999999999999
20
17.4896606126055
30
0
41
1
10
-2.19999999999999
20
17.5008423321234
30
0
41
1
10
-2.19999999999999
20
17.5092377806036
30
0
41
1
10
-2.19999999999999
20
17.513239230511
30
0
41
1
10
-2.19999999999999
20
17.5147871179694
30
0
0
SPLINE
5
107
100
AcDbEntity
8
SK1
62
256
6
ByLayer
370
18
48
1
60
0
100
AcDbSpline
70
4
71
3
72
284
73
280
40
0
40
0
40
0
40
0
40
0.0001140901884272
40
0.0036846012692254
40
0.0072551123500236
40
0.0108256234308218
40
0.01439613451162
40
0.0179666455924181
40
0.0215371566732163
40
0.0251076677540145
40
0.0286781788348127
40
0.0322486899156109
40
0.035819200996409
40
0.0429602231580054
40
0.0465307342388036
40
0.0501012453196018
40
0.0536717564003999
40
0.0572422674811981
40
0.0643832896427945
40
0.0679538007235927
40
0.0715243118043908
40
0.0786653339659872
40
0.0822358450467854
40
0.0858063561275835
40
0.0929473782891799
40
0.0965178893699781
40
0.100088400450776
40
0.103658911531574
40
0.107229422612373
40
0.110799933693171
40
0.114370444773969
40
0.117940955854767
40
0.121511466935565
40
0.128652489097162
40
0.13222300017796
40
0.135793511258758
40
0.139364022339556
40
0.142934533420354
40
0.150075555581951
40
0.153646066662749
40
0.157216577743547
40
0.160787088824345
40
0.164357599905144
40
0.17149862206674
40
0.175069133147538
40
0.178639644228336
40
0.182210155309134
40
0.185780666389933
40
0.192921688551529
40
0.196492199632327
40
0.200062710713125
40
0.203633221793924
40
0.207203732874722
40
0.214344755036318
40
0.217915266117116
40
0.221485777197914
40
0.225056288278713
40
0.228626799359511
40
0.235767821521107
40
0.239338332601905
40
0.242908843682703
40
0.246479354763502
40
0.2500498658443
40
0.257190888005896
40
0.260761399086694
40
0.264331910167493
40
0.271472932329089
40
0.278613954490685
40
0.282184465571483
40
0.285754976652282
40
0.292895998813878
40
0.296466509894676
40
0.300037020975474
40
0.303607532056273
40
0.307178043137071
40
0.310748554217869
40
0.314319065298667
40
0.321460087460263
40
0.32860110962186
40
0.332171620702658
40
0.335742131783456
40
0.339312642864254
40
0.342883153945052
40
0.346453665025851
40
0.350024176106649
40
0.357165198268245
40
0.364306220429842
40
0.371447242591438
40
0.375017753672236
40
0.378588264753034
40
0.382158775833833
40
0.385729286914631
40
0.389299797995429
40
0.392870309076227
40
0.396440820157025
40
0.400011331237823
40
0.403581842318621
40
0.40715235339942
40
0.410722864480218
40
0.414293375561016
40
0.417863886641814
40
0.421434397722612
40
0.425004908803411
40
0.428575419884209
40
0.432145930965007
40
0.433931186505406
40
0.435716442045805
40
0.437501697586204
40
0.439286953126603
40
0.442857464207402
40
0.4464279752882
40
0.448213230828599
40
0.449998486368998
40
0.451783741909397
40
0.453568997449796
40
0.455354252990195
40
0.457139508530594
40
0.460710019611392
40
0.462495275151792
40
0.464280530692191
40
0.46606578623259
40
0.467851041772989
40
0.469636297313388
40
0.471421552853787
40
0.473206808394186
40
0.474992063934585
40
0.476777319474984
40
0.478562575015383
40
0.480347830555782
40
0.482133086096182
40
0.483918341636581
40
0.48570359717698
40
0.487488852717379
40
0.489274108257778
40
0.491059363798177
40
0.492844619338576
40
0.494629874878975
40
0.496415130419374
40
0.498200385959773
40
0.499985641500172
40
0.501770897040572
40
0.503556152580971
40
0.50534140812137
40
0.507126663661769
40
0.508911919202168
40
0.510697174742567
40
0.512482430282966
40
0.514267685823365
40
0.516052941363764
40
0.517838196904163
40
0.519623452444562
40
0.521408707984962
40
0.523193963525361
40
0.52497921906576
40
0.526764474606159
40
0.528549730146558
40
0.530334985686957
40
0.532120241227356
40
0.533905496767755
40
0.535690752308154
40
0.537476007848553
40
0.539261263388952
40
0.541046518929352
40
0.542831774469751
40
0.54461703001015
40
0.546402285550549
40
0.549972796631347
40
0.551758052171746
40
0.553543307712145
40
0.557113818792943
40
0.560684329873741
40
0.56246958541414
40
0.56425484095454
40
0.566040096494939
40
0.567825352035338
40
0.571395863116136
40
0.574966374196934
40
0.578536885277732
40
0.58210739635853
40
0.585677907439329
40
0.589248418520127
40
0.592818929600925
40
0.596389440681723
40
0.599959951762521
40
0.60353046284332
40
0.607100973924118
40
0.610671485004916
40
0.614241996085714
40
0.617812507166512
40
0.621383018247311
40
0.624953529328109
40
0.628524040408907
40
0.635665062570503
40
0.6428060847321
40
0.649947106893696
40
0.653517617974494
40
0.657088129055292
40
0.66065864013609
40
0.664229151216889
40
0.667799662297687
40
0.671370173378485
40
0.678511195540081
40
0.685652217701678
40
0.689222728782476
40
0.692793239863274
40
0.696363750944072
40
0.69993426202487
40
0.703504773105669
40
0.707075284186467
40
0.714216306348063
40
0.717786817428861
40
0.72135732850966
40
0.728498350671256
40
0.735639372832852
40
0.739209883913651
40
0.742780394994449
40
0.749921417156045
40
0.753491928236843
40
0.757062439317641
40
0.760632950398439
40
0.764203461479238
40
0.771344483640834
40
0.774914994721632
40
0.77848550580243
40
0.782056016883229
40
0.785626527964027
40
0.792767550125623
40
0.796338061206421
40
0.799908572287219
40
0.803479083368018
40
0.807049594448816
40
0.814190616610412
40
0.81776112769121
40
0.821331638772009
40
0.824902149852807
40
0.828472660933605
40
0.835613683095201
40
0.839184194175999
40
0.842754705256798
40
0.844539960797197
40
0.846325216337596
40
0.849895727418394
40
0.85703674957999
40
0.860607260660789
40
0.864177771741587
40
0.867748282822385
40
0.871318793903183
40
0.878459816064779
40
0.882030327145578
40
0.885600838226376
40
0.889171349307174
40
0.892741860387972
40
0.89631237146877
40
0.899882882549569
40
0.903453393630367
40
0.907023904711165
40
0.914164926872761
40
0.91773543795356
40
0.921305949034358
40
0.928446971195954
40
0.932017482276752
40
0.93558799335755
40
0.942729015519147
40
0.946299526599945
40
0.949870037680743
40
0.953440548761541
40
0.957011059842339
40
0.964152082003936
40
0.967722593084734
40
0.971293104165532
40
0.97486361524633
40
0.978434126327128
40
0.982004637407927
40
0.985575148488725
40
0.989145659569523
40
0.992716170650321
40
0.996286681731119
40
0.999857192811918
40
1
40
1
40
1
40
1
41
1
10
-1.99503997793931
20
-17.3206502094772
30
0
41
1
10
-1.99503997793931
20
-17.3205989718155
30
0
41
1
10
-1.99503997793931
20
-17.3189303615002
30
0
41
1
10
-1.99503997793931
20
-17.3147637003649
30
0
41
1
10
-1.99503997793931
20
-17.3061342577567
30
0
41
1
10
-1.99503997793931
20
-17.295067771448
30
0
41
1
10
-1.99503997793931
20
-17.2816041041457
30
0
41
1
10
-1.99503997793931
20
-17.2657805776118
30
0
41
1
10
-1.99503997793931
20
-17.2476335117891
30
0
41
1
10
-1.99503997793931
20
-17.2271975457697
30
0
41
1
10
-1.99503997793931
20
-17.2045053960087
30
0
41
1
10
-1.99503997793931
20
-17.1795895960111
30
0
41
1
10
-1.99503997793931
20
-17.143423992764
30
0
41
1
10
-1.99503997793931
20
-17.1029924242496
30
0
41
1
10
-1.99503997793931
20
-17.0582791326422
30
0
41
1
10
-1.99503997793931
20
-17.0226787925821
30
0
41
1
10
-1.99503997793931
20
-16.9850205529168
30
0
41
1
10
-1.99503997793931
20
-16.9320728615657
30
0
41
1
10
-1.99503997793931
20
-16.8751872660894
30
0
41
1
10
-1.99503997793931
20
-16.8142877036056
30
0
41
1
10
-1.99503997793931
20
-16.7507929832779
30
0
41
1
10
-1.99503997793931
20
-16.6835453056651
30
0
41
1
10
-1.99503997793931
20
-16.6124299551482
30
0
41
1
10
-1.99503997793931
20
-16.5388242186582
30
0
41
1
10
-1.99503997793931
20
-16.4616240004255
30
0
41
1
10
-1.99503997793931
20
-16.3806869939664
30
0
41
1
10
-1.99503997793931
20
-16.3182114219941
30
0
41
1
10
-1.99503997793931
20
-16.2539521138773
30
0
41
1
10
-1.99503997793931
20
-16.1879246249361
30
0
41
1
10
-1.99503997793931
20
-16.1201424382026
30
0
41
1
10
-1.99503997793931
20
-16.0506207732709
30
0
41
1
10
-1.99503997793931
20
-15.979373490825
30
0
41
1
10
-1.99503997793931
20
-15.8820499794418
30
0
41
1
10
-1.99503997793931
20
-15.7814584486047
30
0
41
1
10
-1.99503997793931
20
-15.677384958149
30
0
41
1
10
-1.99503997793931
20
-15.5977008436634
30
0
41
1
10
-1.99503997793931
20
-15.5163656256123
30
0
41
1
10
-1.99503997793931
20
-15.4056838451686
30
0
41
1
10
-1.99503997793931
20
-15.2918890118945
30
0
41
1
10
-1.99503997793931
20
-15.1747311694574
30
0
41
1
10
-1.99503997793931
20
-15.0853020659337
30
0
41
1
10
-1.99503997793931
20
-14.9942846604514
30
0
41
1
10
-1.99503997793931
20
-14.8707702235387
30
0
41
1
10
-1.99503997793931
20
-14.7442755428493
30
0
41
1
10
-1.99503997793931
20
-14.6145160455858
30
0
41
1
10
-1.99503997793931
20
-14.5156939096276
30
0
41
1
10
-1.99503997793931
20
-14.4153366771621
30
0
41
1
10
-1.99503997793931
20
-14.2794333721973
30
0
41
1
10
-1.99503997793931
20
-14.1406647198644
30
0
41
1
10
-1.99503997793931
20
-13.9987118830366
30
0
41
1
10
-1.99503997793931
20
-13.8907947247769
30
0
41
1
10
-1.99503997793931
20
-13.7813876415877
30
0
41
1
10
-1.99503997793931
20
-13.6334713769854
30
0
41
1
10
-1.99503997793931
20
-13.482790135872
30
0
41
1
10
-1.99503997793931
20
-13.328990109671
30
0
41
1
10
-1.99503997793931
20
-13.2122307400427
30
0
41
1
10
-1.99503997793931
20
-13.09401974916
30
0
41
1
10
-1.99503997793931
20
-12.9344093145834
30
0
41
1
10
-1.99503997793931
20
-12.7721223429484
30
0
41
1
10
-1.99503997793931
20
-12.606768466692
30
0
41
1
10
-1.99503997793931
20
-12.4813812679684
30
0
41
1
10
-1.99503997793931
20
-12.3545748152048
30
0
41
1
10
-1.99503997793931
20
-12.1835401119863
30
0
41
1
10
-1.99503997793931
20
-12.0099077332894
30
0
41
1
10
-1.99503997793931
20
-11.8332480165124
30
0
41
1
10
-1.99503997793931
20
-11.6547268261542
30
0
41
1
10
-1.99503997793931
20
-11.4282697000141
30
0
41
1
10
-1.99503997793931
20
-11.1972001365959
30
0
41
1
10
-1.99503997793931
20
-11.00944356136
30
0
41
1
10
-1.99503997793931
20
-10.8198574498995
30
0
41
1
10
-1.99503997793931
20
-10.627787937013
30
0
41
1
10
-1.99503997793931
20
-10.4327334855784
30
0
41
1
10
-1.99503997793931
20
-10.2851499168301
30
0
41
1
10
-1.99503997793931
20
-10.13621047024
30
0
41
1
10
-1.99503997793931
20
-9.98591879047714
30
0
41
1
10
-1.99503997793931
20
-9.83427692622885
30
0
41
1
10
-1.99503997793931
20
-9.63019833168175
30
0
41
1
10
-1.99503997793931
20
-9.37195865327325
30
0
41
1
10
-1.99503997793931
20
-9.1092571782612
30
0
41
1
10
-1.99503997793931
20
-8.89624559944801
30
0
41
1
10
-1.99503997793931
20
-8.73523611643316
30
0
41
1
10
-1.99503997793931
20
-8.57289871794615
30
0
41
1
10
-1.99503997793931
20
-8.40923673354897
30
0
41
1
10
-1.99503997793931
20
-8.24425232954013
30
0
41
1
10
-1.99503997793931
20
-8.0224014648056
30
0
41
1
10
-1.99503997793931
20
-7.7420578132905
30
0
41
1
10
-1.99503997793931
20
-7.40025290593451
30
0
41
1
10
-1.99503997793931
20
-7.11118461088938
30
0
41
1
10
-1.99503997793931
20
-6.87709665618266
30
0
41
1
10
-1.99503997793931
20
-6.70033531356589
30
0
41
1
10
-1.99503997793931
20
-6.52228078287743
30
0
41
1
10
-1.99503997793931
20
-6.3429370741791
30
0
41
1
10
-1.99503997793931
20
-6.16230788845579
30
0
41
1
10
-1.99503997793931
20
-5.98039789106801
30
0
41
1
10
-1.99503997793928
20
-5.79721186805691
30
0
41
1
10
-1.99503997793928
20
-5.61275496243289
30
0
41
1
10
-1.99503997793928
20
-5.42703270327695
30
0
41
1
10
-1.99503997793928
20
-5.24005175731475
30
0
41
1
10
-1.99503997793928
20
-5.05181945337139
30
0
41
1
10
-1.99503997793928
20
-4.86234332329403
30
0
41
1
10
-1.99503997793928
20
-4.67163207713236
30
0
41
1
10
-1.99503997793928
20
-4.47969614999016
30
0
41
1
10
-1.99503997793928
20
-4.28654656517494
30
0
41
1
10
-1.99503997793928
20
-4.09219634432211
30
0
41
1
10
-1.99503997793928
20
-3.92934661081907
30
0
41
1
10
-1.99503997793928
20
-3.7982972967292
30
0
41
1
10
-1.99503997793928
20
-3.69979994526253
30
0
41
1
10
-1.99503997793928
20
-3.6010147061962
30
0
41
1
10
-1.99503997793928
20
-3.46881385164499
30
0
41
1
10
-1.99503997793928
20
-3.30310841087518
30
0
41
1
10
-1.99503997793928
20
-3.13647579824178
30
0
41
1
10
-1.99503997793928
20
-3.00241852965868
30
0
41
1
10
-1.99503997793928
20
-2.90170218623106
30
0
41
1
10
-1.99503997793928
20
-2.80072442890969
30
0
41
1
10
-1.99503997793928
20
-2.69948931487846
30
0
41
1
10
-1.99503997793928
20
-2.5980019734576
30
0
41
1
10
-1.99503997793928
20
-2.46222694501739
30
0
41
1
10
-1.99503997793928
20
-2.3263670801044
30
0
41
1
10
-1.99503997793928
20
-2.18963187963746
30
0
41
1
10
-1.99503997793928
20
-2.08696367451515
30
0
41
1
10
-1.99503997793928
20
-1.98407765086858
30
0
41
1
10
-1.99503997793928
20
-1.88098143773604
30
0
41
1
10
-1.99503997793928
20
-1.77768276547397
30
0
41
1
10
-1.99503997793928
20
-1.67418894734925
30
0
41
1
10
-1.99503997793928
20
-1.57050946303119
30
0
41
1
10
-1.99503997793928
20
-1.46665209995737
30
0
41
1
10
-1.99503997793928
20
-1.36262724011792
30
0
41
1
10
-1.99503997793928
20
-1.25844372920938
30
0
41
1
10
-1.99503997793928
20
-1.15411255471386
30
0
41
1
10
-1.99503997793928
20
-1.04964378000579
30
0
41
1
10
-1.99503997793928
20
-0.945048899580655
30
0
41
1
10
-1.99503997793928
20
-0.840338961204225
30
0
41
1
10
-1.99503997793928
20
-0.735526073032332
30
0
41
1
10
-1.99503997793928
20
-0.63062210558266
30
0
41
1
10
-1.99503997793928
20
-0.525639721157262
30
0
41
1
10
-1.99503997793928
20
-0.420591350928703
30
0
41
1
10
-1.99503997793928
20
-0.315490126623814
30
0
41
1
10
-1.99503997793928
20
-0.210348939519435
30
0
41
1
10
-1.99503997793928
20
-0.105181165306249
30
0
41
1
10
-1.99503997793928
20
2.6093687E-09
30
0
41
1
10
-1.99503997793928
20
0.10518117389941
30
0
41
1
10
-1.99503997793928
20
0.21034895445402
30
0
41
1
10
-1.99503997793928
20
0.315490140896543
30
0
41
1
10
-1.99503997793928
20
0.420591355720489
30
0
41
1
10
-1.99503997793928
20
0.525639723935825
30
0
41
1
10
-1.99503997793928
20
0.630622120770227
30
0
41
1
10
-1.99503997793928
20
0.735526093018507
30
0
41
1
10
-1.99503997793928
20
0.840338966235578
30
0
41
1
10
-1.99503997793928
20
0.945048896197648
30
0
41
1
10
-1.99503997793928
20
1.04964379294299
30
0
41
1
10
-1.99503997793928
20
1.15411258033262
30
0
41
1
10
-1.99503997793928
20
1.25844373877697
30
0
41
1
10
-1.99503997793928
20
1.36262723194542
30
0
41
1
10
-1.99503997793928
20
1.46665210416356
30
0
41
1
10
-1.99503997793928
20
1.57050948928742
30
0
41
1
10
-1.99503997793928
20
1.67418896894682
30
0
41
1
10
-1.99503997793928
20
1.77768276258209
30
0
41
1
10
-1.99503997793928
20
1.88098142742643
30
0
41
1
10
-1.99503997793928
20
1.98407766278629
30
0
41
1
10
-1.99503997793928
20
2.08696370566375
30
0
41
1
10
-1.99503997793928
20
2.18963189754737
30
0
41
1
10
-1.99503997793928
20
2.29207637206397
30
0
41
1
10
-1.99503997793928
20
2.39428973936722
30
0
41
1
10
-1.99503997793928
20
2.49626703199883
30
0
41
1
10
-1.99503997793928
20
2.59800197223717
30
0
41
1
10
-1.99503997793928
20
2.73345090264118
30
0
41
1
10
-1.99503997793928
20
2.86801083241156
30
0
41
1
10
-1.99503997793928
20
3.00241855173454
30
0
41
1
10
-1.99503997793928
20
3.13647582573117
30
0
41
1
10
-1.99503997793928
20
3.30310842941955
30
0
41
1
10
-1.99503997793928
20
3.46881383607317
30
0
41
1
10
-1.99503997793928
20
3.60101470543907
30
0
41
1
10
-1.99503997793928
20
3.69979996514493
30
0
41
1
10
-1.99503997793928
20
3.79829732832764
30
0
41
1
10
-1.99503997793928
20
3.92934662557204
30
0
41
1
10
-1.99503997793928
20
4.09219631216948
30
0
41
1
10
-1.99503997793928
20
4.28654650347451
30
0
41
1
10
-1.99503997793928
20
4.47969611179559
30
0
41
1
10
-1.99503997793928
20
4.67163198724225
30
0
41
1
10
-1.99503997793928
20
4.86234315765492
30
0
41
1
10
-1.99503997793928
20
5.05181944357969
30
0
41
1
10
-1.99503997793928
20
5.24005183821342
30
0
41
1
10
-1.99503997793928
20
5.42703263168386
30
0
41
1
10
-1.99503997793928
20
5.61275497462714
30
0
41
1
10
-1.99503997793928
20
5.79721217482029
30
0
41
1
10
-1.99503997793928
20
5.98039819956611
30
0
41
1
10
-1.99503997793928
20
6.16230794338162
30
0
41
1
10
-1.99503997793928
20
6.34293700639157
30
0
41
1
10
-1.99503997793928
20
6.52228076981257
30
0
41
1
10
-1.99503997793928
20
6.70033533418757
30
0
41
1
10
-1.99503997793928
20
6.87709665926303
30
0
41
1
10
-1.99503997793928
20
7.11118459991687
30
0
41
1
10
-1.99503997793928
20
7.40025292645402
30
0
41
1
10
-1.99503997793928
20
7.74205781809903
30
0
41
1
10
-1.99503997793928
20
8.02240145976876
30
0
41
1
10
-1.99503997793928
20
8.24425235284596
30
0
41
1
10
-1.99503997793928
20
8.40923674956807
30
0
41
1
10
-1.99503997793928
20
8.57289871422529
30
0
41
1
10
-1.99503997793928
20
8.73523610803539
30
0
41
1
10
-1.99503997793928
20
8.89624560664996
30
0
41
1
10
-1.99503997793928
20
9.10925720032841
30
0
41
1
10
-1.99503997793928
20
9.37195865915049
30
0
41
1
10
-1.99503997793928
20
9.6301983246166
30
0
41
1
10
-1.99503997793928
20
9.83427694277646
30
0
41
1
10
-1.99503997793928
20
9.98591881051331
30
0
41
1
10
-1.99503997793928
20
10.1362104789651
30
0
41
1
10
-1.99503997793928
20
10.2851499142427
30
0
41
1
10
-1.99503997793928
20
10.432733482583
30
0
41
1
10
-1.99503997793928
20
10.6277879483349
30
0
41
1
10
-1.99503997793928
20
10.8198574709635
30
0
41
1
10
-1.99503997793928
20
11.0094435667743
30
0
41
1
10
-1.99503997793928
20
11.1972001338813
30
0
41
1
10
-1.99503997793928
20
11.4282697094187
30
0
41
1
10
-1.99503997793928
20
11.6547268446385
30
0
41
1
10
-1.99503997793928
20
11.8332480225582
30
0
41
1
10
-1.99503997793928
20
12.0099077334538
30
0
41
1
10
-1.99503997793928
20
12.1835401209566
30
0
41
1
10
-1.99503997793928
20
12.3545748313203
30
0
41
1
10
-1.99503997793928
20
12.4813812819682
30
0
41
1
10
-1.99503997793928
20
12.6067684751262
30
0
41
1
10
-1.99503997793928
20
12.7721223466594
30
0
41
1
10
-1.99503997793928
20
12.9344093235711
30
0
41
1
10
-1.99503997793928
20
13.0940197637218
30
0
41
1
10
-1.99503997793928
20
13.2122307543484
30
0
41
1
10
-1.99503997793928
20
13.3289901210133
30
0
41
1
10
-1.99503997793928
20
13.4827901435456
30
0
41
1
10
-1.99503997793928
20
13.6334713858817
30
0
41
1
10
-1.99503997793928
20
13.7813876543746
30
0
41
1
10
-1.99503997793928
20
13.8907947392413
30
0
41
1
10
-1.99503997793928
20
13.99871189727
30
0
41
1
10
-1.99503997793928
20
14.1406647319193
30
0
41
1
10
-1.99503997793928
20
14.2794333813788
30
0
41
1
10
-1.99503997793928
20
14.4153366880849
30
0
41
1
10
-1.99503997793928
20
14.5156939237825
30
0
41
1
10
-1.99503997793928
20
14.614516060936
30
0
41
1
10
-1.99503997793928
20
14.7442755571137
30
0
41
1
10
-1.99503997793928
20
14.8707702595594
30
0
41
1
10
-1.99503997793928
20
14.9942845913974
30
0
41
1
10
-1.99503997793928
20
15.070107125687
30
0
41
1
10
-1.99503997793928
20
15.130016414734
30
0
41
1
10
-1.99503997793928
20
15.1893946011099
30
0
41
1
10
-1.99503997793928
20
15.2918890331241
30
0
41
1
10
-1.99503997793928
20
15.4056838559475
30
0
41
1
10
-1.99503997793928
20
15.5163656330196
30
0
41
1
10
-1.99503997793928
20
15.5977008570348
30
0
41
1
10
-1.99503997793928
20
15.677384979663
30
0
41
1
10
-1.99503997793928
20
15.781458474053
30
0
41
1
10
-1.99503997793928
20
15.8820499896637
30
0
41
1
10
-1.99503997793928
20
15.9793734967038
30
0
41
1
10
-1.99503997793928
20
16.0506207879892
30
0
41
1
10
-1.99503997793928
20
16.1201424632647
30
0
41
1
10
-1.99503997793928
20
16.1879246525291
30
0
41
1
10
-1.99503997793928
20
16.2539521307207
30
0
41
1
10
-1.99503997793928
20
16.3182114280861
30
0
41
1
10
-1.99503997793928
20
16.3806869997558
30
0
41
1
10
-1.99503997793928
20
16.4616240235723
30
0
41
1
10
-1.99503997793928
20
16.538824252381
30
0
41
1
10
-1.99503997793928
20
16.6124299668847
30
0
41
1
10
-1.99503997793928
20
16.6835453043615
30
0
41
1
10
-1.99503997793928
20
16.7507930080793
30
0
41
1
10
-1.99503997793928
20
16.8142877377232
30
0
41
1
10
-1.99503997793928
20
16.8751872797734
30
0
41
1
10
-1.99503997793928
20
16.9320728583858
30
0
41
1
10
-1.99503997793928
20
16.9850205784632
30
0
41
1
10
-1.99503997793928
20
17.0226788299273
30
0
41
1
10
-1.99503997793928
20
17.0582791544304
30
0
41
1
10
-1.99503997793928
20
17.1029924178939
30
0
41
1
10
-1.99503997793928
20
17.1434240170936
30
0
41
1
10
-1.99503997793928
20
17.1795896288677
30
0
41
1
10
-1.99503997793928
20
17.204505416066
30
0
41
1
10
-1.99503997793928
20
17.2271975480507
30
0
41
1
10
-1.99503997793928
20
17.2476335178127
30
0
41
1
10
-1.99503997793928
20
17.2657806121613
30
0
41
1
10
-1.99503997793928
20
17.2816041393821
30
0
41
1
10
-1.99503997793928
20
17.2950677779805
30
0
41
1
10
-1.99503997793928
20
17.3061342543252
30
0
41
1
10
-1.99503997793928
20
17.3147637210185
30
0
41
1
10
-1.99503997793928
20
17.3189468557701
30
0
41
1
10
-1.99503997793928
20
17.3206249269799
30
0
41
1
10
-1.99503997793928
20
17.3206887897231
30
0
0
SPLINE
5
108
100
AcDbEntity
8
SK1
62
256
6
ByLayer
370
18
48
1
60
0
100
AcDbSpline
70
4
71
3
72
106
73
102
40
0
40
0
40
0
40
0
40
0.0075864940077691
40
0.0161184317388059
40
0.0246503694698427
40
0.0331823072008795
40
0.0417142449319163
40
0.0502461826629531
40
0.05877812039399
40
0.0673100581250268
40
0.0758419958560636
40
0.0843739335871004
40
0.0929058713181372
40
0.101437809049174
40
0.109969746780211
40
0.118501684511248
40
0.135565559973321
40
0.144097497704358
40
0.152629435435395
40
0.161161373166432
40
0.169693310897469
40
0.186757186359542
40
0.195289124090579
40
0.203821061821616
40
0.220884937283689
40
0.229416875014726
40
0.237948812745763
40
0.255012688207837
40
0.263544625938874
40
0.27207656366991
40
0.280608501400947
40
0.289140439131984
40
0.297672376863021
40
0.306204314594058
40
0.314736252325094
40
0.323268190056131
40
0.340332065518205
40
0.348864003249242
40
0.357395940980278
40
0.365927878711315
40
0.374459816442352
40
0.391523691904426
40
0.400055629635462
40
0.408587567366499
40
0.417119505097536
40
0.425651442828573
40
0.442715318290646
40
0.451247256021683
40
0.45977919375272
40
0.468311131483757
40
0.476843069214794
40
0.493906944676868
40
0.502438882407904
40
0.510970820138941
40
0.519502757869978
40
0.528034695601015
40
0.545098571063088
40
0.553630508794125
40
0.562162446525162
40
0.570694384256199
40
0.579226321987236
40
0.596290197449309
40
0.604822135180346
40
0.613354072911383
40
0.62188601064242
40
0.630417948373456
40
0.64748182383553
40
0.656013761566567
40
0.664545699297604
40
0.681609574759677
40
0.698673450221751
40
0.707205387952788
40
0.715737325683825
40
0.732801201145898
40
0.741333138876935
40
0.749865076607972
40
0.758397014339009
40
0.766928952070046
40
0.775460889801082
40
0.783992827532119
40
0.801056702994193
40
0.818120578456266
40
0.826652516187303
40
0.83518445391834
40
0.843716391649377
40
0.852248329380414
40
0.86078026711145
40
0.869312204842487
40
0.886376080304561
40
0.903439955766634
40
0.920503831228708
40
0.929035768959745
40
0.937567706690782
40
0.946099644421818
40
0.954631582152855
40
0.963163519883892
40
0.971695457614929
40
0.980227395345966
40
0.988759333077003
40
0.99729127080804
40
1
40
1
40
1
40
1
41
1
10
-0.39497688887522
20
-17.3601838880057
30
0
41
1
10
-0.394976888875334
20
-17.3617494125488
30
0
41
1
10
-0.394976888875306
20
-17.3643151423905
30
0
41
1
10
-0.394976888875306
20
-17.3658104187982
30
0
41
1
10
-0.394976888875306
20
-17.364743357607
30
0
41
1
10
-0.394976888875306
20
-17.3611046370287
30
0
41
1
10
-0.394976888875306
20
-17.3549392673806
30
0
41
1
10
-0.394976888875306
20
-17.3462909837355
30
0
41
1
10
-0.394976888875306
20
-17.3352007293143
30
0
41
1
10
-0.394976888875306
20
-17.3217086001335
30
0
41
1
10
-0.394976888875306
20
-17.3058521283006
30
0
41
1
10
-0.394976888875306
20
-17.2876678324761
30
0
41
1
10
-0.394976888875306
20
-17.267190526317
30
0
41
1
10
-0.394976888875306
20
-17.2444530966284
30
0
41
1
10
-0.394976888875306
20
-17.2194882282903
30
0
41
1
10
-0.394976888875306
20
-17.1832568130363
30
0
41
1
10
-0.394976888875306
20
-17.1427382851614
30
0
41
1
10
-0.394976888875306
20
-17.0979462613767
30
0
41
1
10
-0.394976888875306
20
-17.0622798138473
30
0
41
1
10
-0.394976888875306
20
-17.0245523789023
30
0
41
1
10
-0.394976888875306
20
-16.9715145338597
30
0
41
1
10
-0.394976888875306
20
-16.9145140859045
30
0
41
1
10
-0.394976888875306
20
-16.8535135157982
30
0
41
1
10
-0.394976888875306
20
-16.7899145739052
30
0
41
1
10
-0.394976888875306
20
-16.7225357594453
30
0
41
1
10
-0.394976888875306
20
-16.6513062647865
30
0
41
1
10
-0.394976888875306
20
-16.577583428992
30
0
41
1
10
-0.394976888875306
20
-16.5002370605308
30
0
41
1
10
-0.394976888875306
20
-16.4191737242595
30
0
41
1
10
-0.394976888875306
20
-16.3565947837564
30
0
41
1
10
-0.394976888875306
20
-16.2922298184193
30
0
41
1
10
-0.394976888875306
20
-16.2260943534788
30
0
41
1
10
-0.394976888875306
20
-16.1582019227301
30
0
41
1
10
-0.394976888875306
20
-16.0885677968918
30
0
41
1
10
-0.394976888875306
20
-16.0172057910894
30
0
41
1
10
-0.394976888875306
20
-15.9197362080175
30
0
41
1
10
-0.394976888875306
20
-15.8189643575456
30
0
41
1
10
-0.394976888875306
20
-15.7147364711228
30
0
41
1
10
-0.394976888875306
20
-15.6349267495635
30
0
41
1
10
-0.394976888875306
20
-15.553463729323
30
0
41
1
10
-0.394976888875306
20
-15.4426195996911
30
0
41
1
10
-0.394976888875306
20
-15.3286250260664
30
0
41
1
10
-0.394976888875306
20
-15.2112966721243
30
0
41
1
10
-0.394976888875306
20
-15.1217290697223
30
0
41
1
10
-0.394976888875306
20
-15.0305709686995
30
0
41
1
10
-0.394976888875306
20
-14.906878048735
30
0
41
1
10
-0.394976888875306
20
-14.7801642402503
30
0
41
1
10
-0.394976888875306
20
-14.6502180265082
30
0
41
1
10
-0.394976888875306
20
-14.5512443698349
30
0
41
1
10
-0.394976888875306
20
-14.4507333574048
30
0
41
1
10
-0.394976888875306
20
-14.3146351144528
30
0
41
1
10
-0.394976888875306
20
-14.1756274353422
30
0
41
1
10
-0.394976888875306
20
-14.0334711437704
30
0
41
1
10
-0.394976888875306
20
-13.9253889575191
30
0
41
1
10
-0.394976888875306
20
-13.8158144643309
30
0
41
1
10
-0.394976888875306
20
-13.6676860465324
30
0
41
1
10
-0.394976888875306
20
-13.5167448397425
30
0
41
1
10
-0.394976888875306
20
-13.3627236430939
30
0
41
1
10
-0.394976888875306
20
-13.2457848907918
30
0
41
1
10
-0.394976888875306
20
-13.127391952352
30
0
41
1
10
-0.394976888875306
20
-12.9675509274721
30
0
41
1
10
-0.394976888875306
20
-12.8049814419576
30
0
41
1
10
-0.394976888875306
20
-12.6393872212047
30
0
41
1
10
-0.394976888875306
20
-12.5138050377602
30
0
41
1
10
-0.394976888875306
20
-12.3868007822861
30
0
41
1
10
-0.394976888875306
20
-12.2155153079022
30
0
41
1
10
-0.394976888875306
20
-12.0415756036957
30
0
41
1
10
-0.394976888875306
20
-11.8646543426879
30
0
41
1
10
-0.394976888875306
20
-11.6858676336886
30
0
41
1
10
-0.394976888875306
20
-11.4590305058839
30
0
41
1
10
-0.394976888875306
20
-11.2275701322441
30
0
41
1
10
-0.394976888875306
20
-11.0395280715927
30
0
41
1
10
-0.394976888875306
20
-10.8496518299165
30
0
41
1
10
-0.394976888875306
20
-10.6572262982852
30
0
41
1
10
-0.394976888875306
20
-10.4618684218406
30
0
41
1
10
-0.394976888875306
20
-10.3140380853821
30
0
41
1
10
-0.394976888875306
20
-10.1648479968029
30
0
41
1
10
-0.394976888875306
20
-10.0143015620689
30
0
41
1
10
-0.394976888875306
20
-9.86240079247779
30
0
41
1
10
-0.394976888875306
20
-9.65799297250354
30
0
41
1
10
-0.394976888875306
20
-9.3992804435735
30
0
41
1
10
-0.394976888875306
20
-9.13609084815204
30
0
41
1
10
-0.394976888875306
20
-8.92272120904667
30
0
41
1
10
-0.394976888875306
20
-8.76141979935898
30
0
41
1
10
-0.394976888875306
20
-8.59878513251641
30
0
41
1
10
-0.394976888875306
20
-8.43482033812748
30
0
41
1
10
-0.394976888875306
20
-8.26952734508268
30
0
41
1
10
-0.394976888875306
20
-8.04728288893983
30
0
41
1
10
-0.394976888875306
20
-7.76637137475095
30
0
41
1
10
-0.394976888875306
20
-7.42389184310318
30
0
41
1
10
-0.394976888875306
20
-7.13420904829047
30
0
41
1
10
-0.394976888875306
20
-6.89966739484251
30
0
41
1
10
-0.394976888875306
20
-6.7225342898117
30
0
41
1
10
-0.394976888875306
20
-6.54409938064705
30
0
41
1
10
-0.394976888875306
20
-6.36436626337326
30
0
41
1
10
-0.394976888875306
20
-6.18333822517317
30
0
41
1
10
-0.394976888875306
20
-6.0010194773844
30
0
41
1
10
-0.394976888875306
20
-5.81741425905381
30
0
41
1
10
-0.394976888875306
20
-5.63252720020009
30
0
41
1
10
-0.394976888875306
20
-5.48871675629277
30
0
41
1
10
-0.394976888875306
20
-5.40659331253005
30
0
41
1
10
-0.394976888875306
20
-5.38678223324203
30
0
0
SPLINE
5
109
100
AcDbEntity
8
SK1
62
256
6
ByLayer
370
18
48
1
60
0
100
AcDbSpline
70
4
71
3
72
107
73
103
40
0
40
0
40
0
40
0
40
0.002708743177338
40
0.0112406780931106
40
0.0197726130088832
40
0.0283045479246557
40
0.0368364828404283
40
0.0453684177562009
40
0.0539003526719735
40
0.0624322875877461
40
0.0709642225035187
40
0.0794961574192912
40
0.0965600272508364
40
0.113623897082382
40
0.130687766913927
40
0.139219701829699
40
0.147751636745472
40
0.156283571661245
40
0.164815506577017
40
0.17334744149279
40
0.181879376408562
40
0.198943246240107
40
0.216007116071653
40
0.224539050987425
40
0.233070985903198
40
0.24160292081897
40
0.250134855734743
40
0.258666790650516
40
0.267198725566288
40
0.284262595397833
40
0.292794530313606
40
0.301326465229378
40
0.318390335060924
40
0.335454204892469
40
0.343986139808241
40
0.352518074724014
40
0.369581944555559
40
0.378113879471332
40
0.386645814387104
40
0.395177749302877
40
0.403709684218649
40
0.420773554050195
40
0.429305488965967
40
0.43783742388174
40
0.446369358797512
40
0.454901293713285
40
0.47196516354483
40
0.480497098460603
40
0.489029033376375
40
0.497560968292148
40
0.50609290320792
40
0.523156773039466
40
0.531688707955238
40
0.540220642871011
40
0.548752577786783
40
0.557284512702556
40
0.574348382534101
40
0.582880317449874
40
0.591412252365646
40
0.595678219823533
40
0.599944187281419
40
0.608476122197191
40
0.625539992028737
40
0.634071926944509
40
0.642603861860282
40
0.651135796776054
40
0.659667731691827
40
0.676731601523372
40
0.685263536439145
40
0.693795471354917
40
0.70232740627069
40
0.710859341186462
40
0.719391276102235
40
0.727923211018008
40
0.73645514593378
40
0.744987080849553
40
0.762050950681098
40
0.770582885596871
40
0.779114820512643
40
0.796178690344188
40
0.804710625259961
40
0.813242560175733
40
0.830306430007279
40
0.838838364923051
40
0.847370299838824
40
0.855902234754596
40
0.864434169670369
40
0.881498039501914
40
0.890029974417687
40
0.898561909333459
40
0.907093844249232
40
0.915625779165004
40
0.924157714080777
40
0.93268964899655
40
0.941221583912322
40
0.949753518828095
40
0.958285453743867
40
0.96681738865964
40
0.975349323575413
40
0.983881258491185
40
0.992413193406958
40
1
40
1
40
1
40
1
41
1
10
-0.394976888875277
20
5.38678189578289
30
0
41
1
10
-0.394976888875277
20
5.4065930765673
30
0
41
1
10
-0.394976888875277
20
5.48871660168982
30
0
41
1
10
-0.394976888875277
20
5.63252719489225
30
0
41
1
10
-0.394976888875277
20
5.8174145162354
30
0
41
1
10
-0.394976888875277
20
6.00101977124669
30
0
41
1
10
-0.394976888875277
20
6.18333830919048
30
0
41
1
10
-0.394976888875277
20
6.3643662218949
30
0
41
1
10
-0.394976888875277
20
6.54409937286439
30
0
41
1
10
-0.394976888875277
20
6.7225343094135
30
0
41
1
10
-0.394976888875277
20
6.89966740060396
30
0
41
1
10
-0.394976888875277
20
7.13420903787926
30
0
41
1
10
-0.394976888875277
20
7.42389186204957
30
0
41
1
10
-0.394976888875277
20
7.76637138106329
30
0
41
1
10
-0.394976888875277
20
8.04728288344245
30
0
41
1
10
-0.394976888875277
20
8.26952736598562
30
0
41
1
10
-0.394976888875277
20
8.434820354761
30
0
41
1
10
-0.394976888875277
20
8.59878513137221
30
0
41
1
10
-0.394976888875277
20
8.76141979186249
30
0
41
1
10
-0.394976888875277
20
8.922721214403
30
0
41
1
10
-0.394976888875277
20
9.1360908691222
30
0
41
1
10
-0.394976888875277
20
9.39928045092248
30
0
41
1
10
-0.394976888875277
20
9.65799296546987
30
0
41
1
10
-0.394976888875277
20
9.86240080704218
30
0
41
1
10
-0.394976888875277
20
10.0143015815252
30
0
41
1
10
-0.394976888875277
20
10.1648480067744
30
0
41
1
10
-0.394976888875277
20
10.3140380843155
30
0
41
1
10
-0.394976888875277
20
10.4618684189216
30
0
41
1
10
-0.394976888875277
20
10.6572263081632
30
0
41
1
10
-0.394976888875277
20
10.8496518506122
30
0
41
1
10
-0.394976888875277
20
11.0395280782787
30
0
41
1
10
-0.394976888875277
20
11.2275701299333
30
0
41
1
10
-0.394976888875277
20
11.4590305143918
30
0
41
1
10
-0.394976888875277
20
11.685867652055
30
0
41
1
10
-0.394976888875277
20
11.864654349678
30
0
41
1
10
-0.394976888875277
20
12.0415756040849
30
0
41
1
10
-0.394976888875277
20
12.2155153161813
30
0
41
1
10
-0.394976888875277
20
12.3868007979199
30
0
41
1
10
-0.394976888875277
20
12.5138050519686
30
0
41
1
10
-0.394976888875277
20
12.6393872302303
30
0
41
1
10
-0.394976888875277
20
12.8049814458532
30
0
41
1
10
-0.394976888875277
20
12.9675509360494
30
0
41
1
10
-0.394976888875277
20
13.1273919665529
30
0
41
1
10
-0.394976888875277
20
13.2457849051211
30
0
41
1
10
-0.394976888875277
20
13.3627236547323
30
0
41
1
10
-0.394976888875277
20
13.5167448476072
30
0
41
1
10
-0.394976888875277
20
13.6676860552913
30
0
41
1
10
-0.394976888875277
20
13.8158144768541
30
0
41
1
10
-0.394976888875277
20
13.9253889718329
30
0
41
1
10
-0.394976888875277
20
14.0334711580348
30
0
41
1
10
-0.394976888875277
20
14.1756274475866
30
0
41
1
10
-0.394976888875277
20
14.3146351237356
30
0
41
1
10
-0.394976888875277
20
14.4507333681675
30
0
41
1
10
-0.394976888875277
20
14.5512443837086
30
0
41
1
10
-0.394976888875277
20
14.6502180419884
30
0
41
1
10
-0.394976888875277
20
14.780164253239
30
0
41
1
10
-0.394976888875277
20
14.9068780878822
30
0
41
1
10
-0.394976888875277
20
15.0305708978545
30
0
41
1
10
-0.394976888875277
20
15.1065165223896
30
0
41
1
10
-0.394976888875277
20
15.1665127141503
30
0
41
1
10
-0.394976888875277
20
15.2259771214207
30
0
41
1
10
-0.394976888875277
20
15.3286250474485
30
0
41
1
10
-0.394976888875277
20
15.4426196109061
30
0
41
1
10
-0.394976888875277
20
15.5534637367265
30
0
41
1
10
-0.394976888875277
20
15.6349267624759
30
0
41
1
10
-0.394976888875277
20
15.7147364921469
30
0
41
1
10
-0.394976888875277
20
15.8189643831875
30
0
41
1
10
-0.394976888875277
20
15.9197362187748
30
0
41
1
10
-0.394976888875277
20
16.0172057969154
30
0
41
1
10
-0.394976888875277
20
16.0885678110446
30
0
41
1
10
-0.394976888875277
20
16.1582019472912
30
0
41
1
10
-0.394976888875277
20
16.2260943811825
30
0
41
1
10
-0.394976888875277
20
16.2922298358683
30
0
41
1
10
-0.394976888875277
20
16.3565947902754
30
0
41
1
10
-0.394976888875277
20
16.4191737297992
30
0
41
1
10
-0.394976888875277
20
16.5002370830775
30
0
41
1
10
-0.394976888875277
20
16.5775834628441
30
0
41
1
10
-0.394976888875277
20
16.6513062771915
30
0
41
1
10
-0.394976888875277
20
16.7225357579897
30
0
41
1
10
-0.394976888875277
20
16.7899145981056
30
0
41
1
10
-0.394976888875277
20
16.8535135500206
30
0
41
1
10
-0.394976888875277
20
16.9145141001581
30
0
41
1
10
-0.394976888875277
20
16.9715145305624
30
0
41
1
10
-0.394976888875277
20
17.024552403858
30
0
41
1
10
-0.394976888875277
20
17.0622798511847
30
0
41
1
10
-0.394976888875277
20
17.0979462837243
30
0
41
1
10
-0.394976888875277
20
17.1427382787905
30
0
41
1
10
-0.394976888875277
20
17.1832568369982
30
0
41
1
10
-0.394976888875277
20
17.2194882612007
30
0
41
1
10
-0.394976888875277
20
17.2444531170066
30
0
41
1
10
-0.394976888875277
20
17.2671905287463
30
0
41
1
10
-0.394976888875277
20
17.2876678382251
30
0
41
1
10
-0.394976888875277
20
17.3058521626298
30
0
41
1
10
-0.394976888875277
20
17.3217086355548
30
0
41
1
10
-0.394976888875277
20
17.3352007360526
30
0
41
1
10
-0.394976888875277
20
17.3462909802274
30
0
41
1
10
-0.394976888875277
20
17.3549392880652
30
0
41
1
10
-0.394976888875277
20
17.3611046305144
30
0
41
1
10
-0.394976888875277
20
17.3647432146661
30
0
41
1
10
-0.394976888875277
20
17.3658102005923
30
0
41
1
10
-0.394976888875277
20
17.3643150511131
30
0
41
1
10
-0.394976888875277
20
17.3617494021937
30
0
41
1
10
-0.394976888875277
20
17.3601838596119
30
0
0
SPLINE
5
10A
100
AcDbEntity
8
1
62
256
6
ByLayer
370
18
48
1
60
0
100
AcDbSpline
70
4
71
1
72
4
73
2
40
0
40
0
40
1
40
1
41
1
10
57.1129077215744
20
-32.0393392368669
30
0
41
1
10
57.1133671592981
20
-33.4999999800429
30
0
0
SPLINE
5
10B
100
AcDbEntity
8
1
62
256
6
ByLayer
370
18
48
1
60
0
100
AcDbSpline
70
4
71
3
72
9
73
5
40
0
40
0
40
0
40
0
40
0.0227701912519421
40
1
40
1
40
1
40
1
41
1
10
50.29840006294
20
-34.7625000000081
30
0
41
1
10
50.2975150397111
20
-34.7624973383403
30
0
41
1
10
50.2586474158492
20
-34.762380445701
30
0
41
1
10
50.218047210816
20
-34.7549881350056
30
0
41
1
10
50.1826941237784
20
-34.7400620645859
30
0
0
SPLINE
5
10C
100
AcDbEntity
8
1
62
256
6
ByLayer
370
18
48
1
60
0
100
AcDbSpline
70
4
71
5
72
15
73
9
40
0
40
0
40
0
40
0
40
0
40
0
40
0.415075833663082
40
0.415075833663082
40
0.415075833663082
40
1
40
1
40
1
40
1
40
1
40
1
41
1
10
55.1972285706841
20
-34.5499999872245
30
0
41
1
10
55.2228362048119
20
-34.5499999893655
30
0
41
1
10
55.2479341131486
20
-34.5499999913719
30
0
41
1
10
55.2720999563991
20
-34.5499999933046
30
0
41
1
10
55.3273114966673
20
-34.5499999974982
30
0
41
1
10
55.373216486543
20
-34.5499999999601
30
0
41
1
10
55.396007151547
20
-34.5500000005401
30
0
41
1
10
55.413557242093
20
-34.5500000000001
30
0
41
1
10
55.4261955706849
20
-34.5500000000001
30
0
0
SPLINE
5
10D
100
AcDbEntity
8
1
62
256
6
ByLayer
370
18
48
1
60
0
100
AcDbSpline
70
4
71
2
72
8
73
5
40
0
40
0
40
0
40
0.5
40
0.75
40
1
40
1
40
1
41
1
10
55.6250099581305
20
-32.2405725629669
30
0
41
1
10
55.6575153846893
20
-32.2405635862632
30
0
41
1
10
55.7721570850578
20
-32.240572781808
30
0
41
1
10
55.8601727059343
20
-32.2405858064466
30
0
41
1
10
55.9069077568682
20
-32.2405953134492
30
0
0
SPLINE
5
10E
100
AcDbEntity
8
1
62
256
6
ByLayer
370
18
48
1
60
0
100
AcDbSpline
70
4
71
9
72
20
73
10
40
0
40
0
40
0
40
0
40
0
40
0
40
0
40
0
40
0
40
0
40
1
40
1
40
1
40
1
40
1
40
1
40
1
40
1
40
1
40
1
41
1
10
55.9577848273695
20
-32.237499935484
30
0
41
1
10
55.9694025678012
20
-32.2374906379473
30
0
41
1
10
55.9810197003213
20
-32.2367221235225
30
0
41
1
10
55.9925795229593
20
-32.2351944371455
30
0
41
1
10
56.0040253370772
20
-32.2329125650293
30
0
41
1
10
56.015300964569
20
-32.2298864334722
30
0
41
1
10
56.0263512644551
20
-32.2261308410945
30
0
41
1
10
56.0371226376093
20
-32.2216653233704
30
0
41
1
10
56.0475635078672
20
-32.2165139528216
30
0
41
1
10
56.0576247694281
20
-32.2107050807501
30
0
0
SPLINE
5
10F
100
AcDbEntity
8
1
62
256
6
ByLayer
370
18
48
1
60
0
100
AcDbSpline
70
4
71
1
72
4
73
2
40
0
40
0
40
1
40
1
41
1
10
57.11333543497
20
-34.9606607631333
30
0
41
1
10
57.11333543497
20
-33.5000000199573
30
0
0
SPLINE
5
110
100
AcDbEntity
8
1
62
256
6
ByLayer
370
18
48
1
60
0
100
AcDbSpline
70
4
71
2
72
6
73
3
40
0
40
0
40
0
40
1
40
1
40
1
41
1
10
55.9577848274212
20
-34.7624999998801
30
0
41
1
10
56.011337204698
20
-34.7626394918169
30
0
41
1
10
56.0577846907831
20
-34.7892948404719
30
0
0
SPLINE
5
111
100
AcDbEntity
8
1
62
256
6
ByLayer
370
18
48
1
60
0
100
AcDbSpline
70
4
71
3
72
8
73
4
40
0
40
0
40
0
40
0
40
1
40
1
40
1
40
1
41
1
10
55.6250105919039
20
-34.76249999988
30
0
41
1
10
55.6668040812257
20
-34.76249999988
30
0
41
1
10
55.7847450754512
20
-34.76249999988
30
0
41
1
10
55.9069083875509
20
-34.76249999988
30
0
0
SPLINE
5
112
100
AcDbEntity
8
1
62
256
6
ByLayer
370
18
48
1
60
0
100
AcDbSpline
70
4
71
1
72
4
73
2
40
0
40
0
40
1
40
1
41
1
10
57.1154786711945
20
-34.9606871902605
30
0
41
1
10
56.3165439214467
20
-34.9141593352011
30
0
0
SPLINE
5
113
100
AcDbEntity
8
1
62
256
6
ByLayer
370
18
48
1
60
0
100
AcDbSpline
70
4
71
1
72
4
73
2
40
0
40
0
40
1
40
1
41
1
10
56.228174653204
20
-32.1123304689042
30
0
41
1
10
56.0577846908032
20
-32.2107051595635
30
0
0
SPLINE
5
114
100
AcDbEntity
8
1
62
256
6
ByLayer
370
18
48
1
60
0
100
AcDbSpline
70
4
71
5
72
12
73
6
40
0
40
0
40
0
40
0
40
0
40
0
40
1
40
1
40
1
40
1
40
1
40
1
41
1
10
55.1442878748749
20
-32.2406053082701
30
0
41
1
10
55.218426779174
20
-32.2406203668901
30
0
41
1
10
55.28930610867
20
-32.2406310783501
30
0
41
1
10
55.356396500423
20
-32.2406364920101
30
0
41
1
10
55.40058463237
20
-32.2406350655701
30
0
41
1
10
55.42619560394
20
-32.2406280559801
30
0
0
SPLINE
5
115
100
AcDbEntity
8
1
62
256
6
ByLayer
370
18
48
1
60
0
100
AcDbSpline
70
4
71
1
72
4
73
2
40
0
40
0
40
1
40
1
41
1
10
60
20
-33.5000000000001
30
0
41
1
10
60
20
-32.2436019729101
30
0
0
SPLINE
5
116
100
AcDbEntity
8
1
62
256
6
ByLayer
370
18
48
1
60
0
100
AcDbSpline
70
4
71
1
72
4
73
2
40
0
40
0
40
1
40
1
41
1
10
60.0022881798104
20
-33.5000027584918
30
0
41
1
10
60.0007966457468
20
-34.7563989874782
30
0
0
SPLINE
5
117
100
AcDbEntity
8
1
62
256
6
ByLayer
370
18
48
1
60
0
100
AcDbSpline
70
4
71
1
72
4
73
2
40
0
40
0
40
1
40
1
41
1
10
56.2281308533852
20
-34.8877453946059
30
0
41
1
10
56.0577442405064
20
-34.7893649024044
30
0
0
SPLINE
5
118
100
AcDbEntity
8
1
62
256
6
ByLayer
370
18
48
1
60
0
100
AcDbSpline
70
4
71
2
72
8
73
5
40
0
40
0
40
0
40
0.657489199843059
40
0.657489199843059
40
1
40
1
40
1
41
1
10
50.2983863642375
20
-32.237500000254
30
0
41
1
10
50.2970037970893
20
-32.2375036591155
30
0
41
1
10
50.2957305258115
20
-32.2375130893533
30
0
41
1
10
50.2423381032978
20
-32.2379085300177
30
0
41
1
10
50.1933068429328
20
-32.2564141036887
30
0
0
SPLINE
5
119
100
AcDbEntity
8
1
62
256
6
ByLayer
370
18
48
1
60
0
100
AcDbSpline
70
4
71
1
72
4
73
2
40
0
40
0
40
1
40
1
41
1
10
57.11333543497
20
-33.5000016701442
30
0
41
1
10
55.906908387419
20
-33.5000016754775
30
0
0
SPLINE
5
11A
100
AcDbEntity
8
1
62
256
6
ByLayer
370
18
48
1
60
0
100
AcDbSpline
70
4
71
1
72
4
73
2
40
0
40
0
40
1
40
1
41
1
10
57.6083376857316
20
-32.0649074705483
30
0
41
1
10
59.6825559451302
20
-31.9441186871863
30
0
0
SPLINE
5
11B
100
AcDbEntity
8
1
62
256
6
ByLayer
370
18
48
1
60
0
100
AcDbSpline
70
4
71
5
72
15
73
9
40
0
40
0
40
0
40
0
40
0
40
0
40
0.415075833663028
40
0.415075833663028
40
0.415075833663028
40
1
40
1
40
1
40
1
40
1
40
1
41
1
10
55.1972285706841
20
-32.4500000127756
30
0
41
1
10
55.2228362048119
20
-32.4500000106347
30
0
41
1
10
55.2479341131487
20
-32.4500000086283
30
0
41
1
10
55.272099956399
20
-32.4500000066955
30
0
41
1
10
55.3273114966673
20
-32.4500000025019
30
0
41
1
10
55.373216486543
20
-32.4500000000401
30
0
41
1
10
55.396007151547
20
-32.4499999994601
30
0
41
1
10
55.413557242093
20
-32.4500000000001
30
0
41
1
10
55.426195570685
20
-32.4500000000001
30
0
0
SPLINE
5
11C
100
AcDbEntity
8
1
62
256
6
ByLayer
370
18
48
1
60
0
100
AcDbSpline
70
4
71
5
72
12
73
6
40
0
40
0
40
0
40
0
40
0
40
0
40
1
40
1
40
1
40
1
40
1
40
1
41
1
10
55.298776763901
20
-33.5000002775622
30
0
41
1
10
55.2987689213579
20
-33.4859970682295
30
0
41
1
10
55.2992350368239
20
-33.4720102574403
30
0
41
1
10
55.30010524229
20
-33.4581584574244
30
0
41
1
10
55.3014413122109
20
-33.4446509835336
30
0
41
1
10
55.303166911475
20
-33.4315938852131
30
0
0
SPLINE
5
11D
100
AcDbEntity
8
1
62
256
6
ByLayer
370
18
48
1
60
0
100
AcDbSpline
70
4
71
2
72
6
73
3
40
0
40
0
40
0
40
1
40
1
40
1
41
1
10
56.3165458528726
20
-32.0858738318537
30
0
41
1
10
56.269263448129
20
-32.0887578107601
30
0
41
1
10
56.228174800562
20
-32.1123303838701
30
0
0
SPLINE
5
11E
100
AcDbEntity
8
1
62
256
6
ByLayer
370
18
48
1
60
0
100
AcDbSpline
70
4
71
5
72
12
73
6
40
0
40
0
40
0
40
0
40
0
40
0
40
1
40
1
40
1
40
1
40
1
40
1
41
1
10
55.1442878748749
20
-34.7593946917301
30
0
41
1
10
55.2184267791739
20
-34.7593796331101
30
0
41
1
10
55.28930610867
20
-34.7593689216501
30
0
41
1
10
55.356396500423
20
-34.7593635079901
30
0
41
1
10
55.40058463237
20
-34.7593649344301
30
0
41
1
10
55.42619560394
20
-34.7593719440201
30
0
0
SPLINE
5
11F
100
AcDbEntity
8
1
62
256
6
ByLayer
370
18
48
1
60
0
100
AcDbSpline
70
4
71
1
72
4
73
2
40
0
40
0
40
1
40
1
41
1
10
55.906908387552
20
-33.5000000399145
30
0
41
1
10
55.9069083875519
20
-34.7614677693959
30
0
0
SPLINE
5
120
100
AcDbEntity
8
1
62
256
6
ByLayer
370
18
48
1
60
0
100
AcDbSpline
70
4
71
1
72
4
73
2
40
0
40
0
40
1
40
1
41
1
10
57.1154803513947
20
-32.0393416626557
30
0
41
1
10
56.3165458528737
20
-32.0858738318595
30
0
0
SPLINE
5
121
100
AcDbEntity
8
1
62
256
6
ByLayer
370
18
48
1
60
0
100
AcDbSpline
70
4
71
1
72
4
73
2
40
0
40
0
40
1
40
1
41
1
10
55.9577841946541
20
-34.7593944487008
30
0
41
1
10
55.9069077568943
20
-34.759404814984
30
0
0
SPLINE
5
122
100
AcDbEntity
8
1
62
256
6
ByLayer
370
18
48
1
60
0
100
AcDbSpline
70
4
71
1
72
4
73
2
40
0
40
0
40
1
40
1
41
1
10
57.6083342106911
20
-34.9351522039197
30
0
41
1
10
59.682551340578
20
-35.0559603836041
30
0
0
SPLINE
5
123
100
AcDbEntity
8
1
62
256
6
ByLayer
370
18
48
1
60
0
100
AcDbSpline
70
4
71
1
72
4
73
2
40
0
40
0
40
1
40
1
41
1
10
55.957784827423
20
-32.2375000001158
30
0
41
1
10
55.9069083875509
20
-32.2375000001147
30
0
0
SPLINE
5
124
100
AcDbEntity
8
1
62
256
6
ByLayer
370
18
48
1
60
0
100
AcDbSpline
70
4
71
9
72
20
73
10
40
0
40
0
40
0
40
0
40
0
40
0
40
0
40
0
40
0
40
0
40
1
40
1
40
1
40
1
40
1
40
1
40
1
40
1
40
1
40
1
41
1
10
59.9999999992926
20
-34.7563980251587
30
0
41
1
10
59.9999996168939
20
-34.8106969027989
30
0
41
1
10
59.9889428562448
20
-34.8649957014389
30
0
41
1
10
59.9668297220471
20
-34.9167215015403
30
0
41
1
10
59.9343588134861
20
-34.9633013856468
30
0
41
1
10
59.892927089548
20
-35.0023899634431
30
0
41
1
10
59.8445377862918
20
-35.0320972348372
30
0
41
1
10
59.7916136221669
20
-35.0511650316397
30
0
41
1
10
59.7367637400978
20
-35.0590455367808
30
0
41
1
10
59.6825567255601
20
-35.0558883693602
30
0
0
SPLINE
5
125
100
AcDbEntity
8
1
62
256
6
ByLayer
370
18
48
1
60
0
100
AcDbSpline
70
4
71
1
72
4
73
2
40
0
40
0
40
1
40
1
41
1
10
55.6250105905679
20
-32.2375000000001
30
0
41
1
10
55.4261956227363
20
-32.2375000000001
30
0
0
SPLINE
5
126
100
AcDbEntity
8
1
62
256
6
ByLayer
370
18
48
1
60
0
100
AcDbSpline
70
4
71
1
72
4
73
2
40
0
40
0
40
1
40
1
41
1
10
57.6083393752422
20
-34.9350925712112
30
0
41
1
10
57.1141544711583
20
-34.9604282328421
30
0
0
SPLINE
5
127
100
AcDbEntity
8
1
62
256
6
ByLayer
370
18
48
1
60
0
100
AcDbSpline
70
4
71
3
72
8
73
4
40
0
40
0
40
0
40
0
40
1
40
1
40
1
40
1
41
1
10
56.3165193062369
20
-34.9142140281754
30
0
41
1
10
56.2855438648202
20
-34.9124093306707
30
0
41
1
10
56.2550196500515
20
-34.903270345916
30
0
41
1
10
56.2281486941037
20
-34.8877556976414
30
0
0
SPLINE
5
128
100
AcDbEntity
8
1
62
256
6
ByLayer
370
18
48
1
60
0
100
AcDbSpline
70
4
71
5
72
12
73
6
40
0
40
0
40
0
40
0
40
0
40
0
40
1
40
1
40
1
40
1
40
1
40
1
41
1
10
55.298776763901
20
-33.4999997224379
30
0
41
1
10
55.2987689213579
20
-33.5140029317707
30
0
41
1
10
55.2992350368239
20
-33.5279897425599
30
0
41
1
10
55.30010524229
20
-33.5418415425758
30
0
41
1
10
55.3014413122109
20
-33.5553490164666
30
0
41
1
10
55.303166911475
20
-33.5684061147871
30
0
0
SPLINE
5
129
100
AcDbEntity
8
1
62
256
6
ByLayer
370
18
48
1
60
0
100
AcDbSpline
70
4
71
2
72
9
73
6
40
0
40
0
40
0
40
0.25
40
0.5
40
0.75
40
1
40
1
40
1
41
1
10
59.9999999992924
20
-32.2436019748418
30
0
41
1
10
59.9998909876379
20
-32.1813761234516
30
0
41
1
10
59.9509729349281
20
-32.0679962753687
30
0
41
1
10
59.8614268354566
20
-31.9833352667106
30
0
41
1
10
59.7453307900117
20
-31.9405674652173
30
0
41
1
10
59.68255672556
20
-31.9441116306401
30
0
0
SPLINE
5
12A
100
AcDbEntity
8
1
62
256
6
ByLayer
370
18
48
1
60
0
100
AcDbSpline
70
4
71
11
72
24
73
12
40
0
40
0
40
0
40
0
40
0
40
0
40
0
40
0
40
0
40
0
40
0
40
0
40
1
40
1
40
1
40
1
40
1
40
1
40
1
40
1
40
1
40
1
40
1
40
1
41
1
10
53.5719499612259
20
-32.2402849379486
30
0
41
1
10
53.5529100420009
20
-32.2402810584973
30
0
41
1
10
53.5338701231053
20
-32.2402772491158
30
0
41
1
10
53.5148394842562
20
-32.2402735117141
30
0
41
1
10
53.4958274051701
20
-32.2402698481421
30
0
41
1
10
53.4768431583538
20
-32.2402662601898
30
0
41
1
10
53.457896001744
20
-32.2402627496173
30
0
41
1
10
53.4389951715376
20
-32.2402593181545
30
0
41
1
10
53.4201498748715
20
-32.2402559674413
30
0
41
1
10
53.4013692826731
20
-32.2402526991079
30
0
41
1
10
53.3826625224499
20
-32.2402495147042
30
0
41
1
10
53.36403867123
20
-32.2402464157501
30
0
0
SPLINE
5
12B
100
AcDbEntity
8
1
62
256
6
ByLayer
370
18
48
1
60
0
100
AcDbSpline
70
4
71
1
72
4
73
2
40
0
40
0
40
1
40
1
41
1
10
57.6083359002008
20
-32.0648477543062
30
0
41
1
10
57.1141507809929
20
-32.0395083984998
30
0
0
SPLINE
5
12C
100
AcDbEntity
8
1
62
256
6
ByLayer
370
18
48
1
60
0
100
AcDbSpline
70
4
71
1
72
4
73
2
40
0
40
0
40
1
40
1
41
1
10
55.6250099645211
20
-34.7594274370315
30
0
41
1
10
55.4261949853826
20
-34.7593719442497
30
0
0
SPLINE
5
12D
100
AcDbEntity
8
1
62
256
6
ByLayer
370
18
48
1
60
0
100
AcDbSpline
70
4
71
3
72
8
73
4
40
0
40
0
40
0
40
0
40
1
40
1
40
1
40
1
41
1
10
55.906908387552
20
-33.5000000000001
30
0
41
1
10
55.906908387552
20
-33.0795105904334
30
0
41
1
10
55.906908387552
20
-32.6590211808667
30
0
41
1
10
55.906908387552
20
-32.2385317713001
30
0
0
SPLINE
5
12E
100
AcDbEntity
8
1
62
256
6
ByLayer
370
18
48
1
60
0
100
AcDbSpline
70
4
71
11
72
24
73
12
40
0
40
0
40
0
40
0
40
0
40
0
40
0
40
0
40
0
40
0
40
0
40
0
40
1
40
1
40
1
40
1
40
1
40
1
40
1
40
1
40
1
40
1
40
1
40
1
41
1
10
53.5719499612259
20
-34.7597150620515
30
0
41
1
10
53.5529100420009
20
-34.7597189415028
30
0
41
1
10
53.5338701231053
20
-34.7597227508844
30
0
41
1
10
53.5148394842562
20
-34.759726488286
30
0
41
1
10
53.4958274051701
20
-34.759730151858
30
0
41
1
10
53.4768431583538
20
-34.7597337398103
30
0
41
1
10
53.457896001744
20
-34.7597372503829
30
0
41
1
10
53.4389951715376
20
-34.7597406818457
30
0
41
1
10
53.4201498748715
20
-34.7597440325588
30
0
41
1
10
53.4013692826731
20
-34.7597473008922
30
0
41
1
10
53.3826625224499
20
-34.759750485296
30
0
41
1
10
53.36403867123
20
-34.7597535842501
30
0
0
SPLINE
5
12F
100
AcDbEntity
8
1
62
256
6
ByLayer
370
18
48
1
60
0
100
AcDbSpline
70
4
71
3
72
14
73
10
40
0
40
0
40
0
40
0
40
0.281038222380469
40
0.281038222380469
40
0.564557857067115
40
0.564557857067115
40
0.820700196130123
40
0.820700196130123
40
1
40
1
40
1
40
1
41
1
10
31.9078822958328
20
-26.5314173719113
30
0
41
1
10
31.8813006245731
20
-26.5040876309301
30
0
41
1
10
31.849043969095
20
-26.4806344754641
30
0
41
1
10
31.7772351944889
20
-26.4464251395731
30
0
41
1
10
31.7364720760798
20
-26.4353152409552
30
0
41
1
10
31.6571729147491
20
-26.4296513144258
30
0
41
1
10
31.6175924873016
20
-26.433588274357
30
0
41
1
10
31.5539176730121
20
-26.4518845653544
30
0
41
1
10
31.5281706327857
20
-26.4628967015366
30
0
41
1
10
31.5044231104048
20
-26.4768189416603
30
0
0
SPLINE
5
130
100
AcDbEntity
8
1
62
256
6
ByLayer
370
18
48
1
60
0
100
AcDbSpline
70
4
71
3
72
16
73
12
40
0
40
0
40
0
40
0
40
0.0645965064171322
40
0.0645965064171322
40
0.282747320500281
40
0.282747320500281
40
0.503851581407205
40
0.503851581407205
40
0.739476498257792
40
0.739476498257792
40
1
40
1
40
1
40
1
41
1
10
31.5044231104048
20
-29.8731810583398
30
0
41
1
10
31.513014252084
20
-29.8782177074468
30
0
41
1
10
31.5218448367852
20
-29.8828706146447
30
0
41
1
10
31.5610594082809
20
-29.9013183132719
30
0
41
1
10
31.5937837130778
20
-29.9109369082357
30
0
41
1
10
31.6593454694517
20
-29.91995955
30
0
41
1
10
31.6930080641066
20
-29.9193653386228
30
0
41
1
10
31.7588630387573
20
-29.9085318857599
30
0
41
1
10
31.7916435993957
20
-29.8975623792864
30
0
41
1
10
31.8537963059871
20
-29.8658850535307
30
0
41
1
10
31.8832521428563
20
-29.8439059305478
30
0
41
1
10
31.9078822958328
20
-29.8185826280888
30
0
0
SPLINE
5
131
100
AcDbEntity
8
1
62
256
6
ByLayer
370
18
48
1
60
0
100
AcDbSpline
70
4
71
3
72
18
73
14
40
0
40
0
40
0
40
0
40
0.213081262000627
40
0.213081262000627
40
0.387160943926354
40
0.387160943926354
40
0.562948999942017
40
0.562948999942017
40
0.715638435810386
40
0.715638435810386
40
0.919170953808139
40
0.919170953808139
40
1
40
1
40
1
40
1
41
1
10
33.6474510335848
20
-26.8468476620215
30
0
41
1
10
33.6253499966635
20
-26.9293973966025
30
0
41
1
10
33.6155116663085
20
-27.0182036828123
30
0
41
1
10
33.625005262533
20
-27.1819408353003
30
0
41
1
10
33.6396283941553
20
-27.2582692825005
30
0
41
1
10
33.690791443592
20
-27.4054699908084
30
0
41
1
10
33.7285222509957
20
-27.4783885750108
30
0
41
1
10
33.814774512508
20
-27.5984312758051
30
0
41
1
10
33.8621656692504
20
-27.6491769366087
30
0
41
1
10
33.9803089305089
20
-27.7487907909973
30
0
41
1
10
34.0554527440064
20
-27.7933752282873
30
0
41
1
10
34.1631437334956
20
-27.8374807161782
30
0
41
1
10
34.1945032391402
20
-27.8481401563609
30
0
41
1
10
34.2260954401443
20
-27.8568380304532
30
0
0
SPLINE
5
132
100
AcDbEntity
8
1
62
256
6
ByLayer
370
18
48
1
60
0
100
AcDbSpline
70
4
71
3
72
18
73
14
40
0
40
0
40
0
40
0
40
0.213081026856103
40
0.213081026856103
40
0.38716075070475
40
0.38716075070475
40
0.562948851464647
40
0.562948851464647
40
0.715638295683692
40
0.715638295683692
40
0.919170771668922
40
0.919170771668922
40
1
40
1
40
1
40
1
41
1
10
30.7739045598557
20
-27.8568380304532
30
0
41
1
10
30.8562959735258
20
-27.8341542629532
30
0
41
1
10
30.9378828610424
20
-27.7977274869735
30
0
41
1
10
31.0743337817464
20
-27.7067269440963
30
0
41
1
10
31.1327849506205
20
-27.6555084832664
30
0
41
1
10
31.2338958570924
20
-27.5369239121139
30
0
41
1
10
31.2777186157693
20
-27.4674955103007
30
0
41
1
10
31.3376543890653
20
-27.3323755135935
30
0
41
1
10
31.3574632867376
20
-27.2658273926396
30
0
41
1
10
31.3836465356627
20
-27.1135277360789
30
0
41
1
10
31.3841042679143
20
-27.0261540963321
30
0
41
1
10
31.3676879551153
20
-26.9109448831483
30
0
41
1
10
31.3610234078263
20
-26.8785006062569
30
0
41
1
10
31.3525489664151
20
-26.8468476620215
30
0
0
SPLINE
5
133
100
AcDbEntity
8
1
62
256
6
ByLayer
370
18
48
1
60
0
100
AcDbSpline
70
4
71
3
72
14
73
10
40
0
40
0
40
0
40
0
40
0.285014780844619
40
0.285014780844619
40
0.572350605982617
40
0.572350605982617
40
0.832166772861826
40
0.832166772861826
40
1
40
1
40
1
40
1
41
1
10
31.3525489664151
20
-29.5031523379786
30
0
41
1
10
31.3427455383358
20
-29.5397691894328
30
0
41
1
10
31.3391008008659
20
-29.5792713920944
30
0
41
1
10
31.346306008759
20
-29.6580512387512
30
0
41
1
10
31.3574570886555
20
-29.6985402482586
30
0
41
1
10
31.392701250889
20
-29.769274641525
30
0
41
1
10
31.4160474129793
20
-29.8011679353044
30
0
41
1
10
31.4622449161042
20
-29.8450414375132
30
0
41
1
10
31.4826741516865
20
-29.8604304976347
30
0
41
1
10
31.5044231104048
20
-29.8731810583398
30
0
0
SPLINE
5
134
100
AcDbEntity
8
1
62
256
6
ByLayer
370
18
48
1
60
0
100
AcDbSpline
70
4
71
3
72
14
73
10
40
0
40
0
40
0
40
0
40
0.285013984727033
40
0.285013984727033
40
0.572349910643032
40
0.572349910643032
40
0.832166158509279
40
0.832166158509279
40
1
40
1
40
1
40
1
41
1
10
34.2260954401443
20
-28.4931619695469
30
0
41
1
10
34.2626420033309
20
-28.4831000746804
30
0
41
1
10
34.298562913688
20
-28.4662659758687
30
0
41
1
10
34.3628804284091
20
-28.420207102125
30
0
41
1
10
34.3921697265129
20
-28.3901098539692
30
0
41
1
10
34.4353659032993
20
-28.3239313177316
30
0
41
1
10
34.4510721564613
20
-28.2876609459343
30
0
41
1
10
34.4655563481768
20
-28.2256181015175
30
0
41
1
10
34.4685
20
-28.2002110816658
30
0
41
1
10
34.4685
20
-28.175
30
0
0
SPLINE
5
135
100
AcDbEntity
8
1
62
256
6
ByLayer
370
18
48
1
60
0
100
AcDbSpline
70
4
71
3
72
16
73
12
40
0
40
0
40
0
40
0
40
0.0645965064171484
40
0.0645965064171484
40
0.282747320500295
40
0.282747320500295
40
0.503851581407218
40
0.503851581407218
40
0.739476498257821
40
0.739476498257821
40
1
40
1
40
1
40
1
41
1
10
33.4955768895952
20
-26.4768189416603
30
0
41
1
10
33.486985747916
20
-26.4717822925533
30
0
41
1
10
33.4781551632148
20
-26.4671293853553
30
0
41
1
10
33.4389405917191
20
-26.4486816867282
30
0
41
1
10
33.4062162869221
20
-26.4390630917644
30
0
41
1
10
33.3406545305483
20
-26.43004045
30
0
41
1
10
33.3069919358934
20
-26.4306346613772
30
0
41
1
10
33.2411369612427
20
-26.4414681142402
30
0
41
1
10
33.2083564006042
20
-26.4524376207136
30
0
41
1
10
33.1462036940128
20
-26.4841149464694
30
0
41
1
10
33.1167478571437
20
-26.5060940694522
30
0
41
1
10
33.0921177041672
20
-26.5314173719113
30
0
0
SPLINE
5
136
100
AcDbEntity
8
1
62
256
6
ByLayer
370
18
48
1
60
0
100
AcDbSpline
70
4
71
3
72
16
73
12
40
0
40
0
40
0
40
0
40
0.0660777514108744
40
0.0660777514108744
40
0.28923285819986
40
0.28923285819986
40
0.515409129607263
40
0.515409129607263
40
0.756439127791316
40
0.756439127791316
40
1
40
1
40
1
40
1
41
1
10
30.5315
20
-28.175
30
0
41
1
10
30.5315
20
-28.1849586067442
30
0
41
1
10
30.5319521370926
20
-28.1949296962918
30
0
41
1
10
30.5358706069489
20
-28.2380891514988
30
0
41
1
10
30.5441232851387
20
-28.2711843324549
30
0
41
1
10
30.5694977332365
20
-28.332306256499
30
0
41
1
10
30.5870353182328
20
-28.3610457142543
30
0
41
1
10
30.6296874761397
20
-28.4123782985839
30
0
41
1
10
30.6557295062841
20
-28.4351095026044
30
0
41
1
10
30.7118903369798
20
-28.4710425393677
30
0
41
1
10
30.742638287392
20
-28.4845538291647
30
0
41
1
10
30.7739045598557
20
-28.4931619695469
30
0
0
SPLINE
5
137
100
AcDbEntity
8
1
62
256
6
ByLayer
370
18
48
1
60
0
100
AcDbSpline
70
4
71
3
72
10
73
6
40
0
40
0
40
0
40
0
40
0.479736826302624
40
0.479736826302624
40
1
40
1
40
1
40
1
41
1
10
32.3472587066235
20
-29.5827379362999
30
0
41
1
10
32.2634717620858
20
-29.5985034407687
30
0
41
1
10
32.1831344436618
20
-29.6274502191208
30
0
41
1
10
32.0347803935531
20
-29.7063736945175
30
0
41
1
10
31.9658766441957
20
-29.7589561846026
30
0
41
1
10
31.9078822958328
20
-29.8185826280888
30
0
0
SPLINE
5
138
100
AcDbEntity
8
1
62
256
6
ByLayer
370
18
48
1
60
0
100
AcDbSpline
70
4
71
3
72
14
73
10
40
0
40
0
40
0
40
0
40
0.281038222380464
40
0.281038222380464
40
0.564557857067113
40
0.564557857067113
40
0.820700196130124
40
0.820700196130124
40
1
40
1
40
1
40
1
41
1
10
33.0921177041672
20
-29.8185826280888
30
0
41
1
10
33.1186993754268
20
-29.84591236907
30
0
41
1
10
33.150956030905
20
-29.869365524536
30
0
41
1
10
33.222764805511
20
-29.903574860427
30
0
41
1
10
33.2635279239202
20
-29.9146847590449
30
0
41
1
10
33.3428270852508
20
-29.9203486855743
30
0
41
1
10
33.3824075126984
20
-29.9164117256431
30
0
41
1
10
33.4460823269878
20
-29.8981154346457
30
0
41
1
10
33.4718293672142
20
-29.8871032984634
30
0
41
1
10
33.4955768895951
20
-29.8731810583398
30
0
0
SPLINE
5
139
100
AcDbEntity
8
1
62
256
6
ByLayer
370
18
48
1
60
0
100
AcDbSpline
70
4
71
3
72
14
73
10
40
0
40
0
40
0
40
0
40
0.285014780844625
40
0.285014780844625
40
0.572350605982627
40
0.572350605982627
40
0.832166772861841
40
0.832166772861841
40
1
40
1
40
1
40
1
41
1
10
33.6474510335848
20
-26.8468476620215
30
0
41
1
10
33.6572544616641
20
-26.8102308105673
30
0
41
1
10
33.660899199134
20
-26.7707286079056
30
0
41
1
10
33.6536939912409
20
-26.6919487612489
30
0
41
1
10
33.6425429113445
20
-26.6514597517415
30
0
41
1
10
33.6072987491109
20
-26.580725358475
30
0
41
1
10
33.5839525870207
20
-26.5488320646956
30
0
41
1
10
33.5377550838958
20
-26.5049585624868
30
0
41
1
10
33.5173258483134
20
-26.4895695023654
30
0
41
1
10
33.4955768895952
20
-26.4768189416603
30
0
0
SPLINE
5
13A
100
AcDbEntity
8
1
62
256
6
ByLayer
370
18
48
1
60
0
100
AcDbSpline
70
4
71
3
72
10
73
6
40
0
40
0
40
0
40
0
40
0.541781546917769
40
0.541781546917769
40
1
40
1
40
1
40
1
41
1
10
33.0921177041672
20
-29.8185826280888
30
0
41
1
10
33.0317893524551
20
-29.7565564969999
30
0
41
1
10
32.9595938121994
20
-29.7021176776848
30
0
41
1
10
32.8098326867734
20
-29.6249222952413
30
0
41
1
10
32.7328667479517
20
-29.5978144881319
30
0
41
1
10
32.6527412933764
20
-29.5827379362999
30
0
0
SPLINE
5
13B
100
AcDbEntity
8
1
62
256
6
ByLayer
370
18
48
1
60
0
100
AcDbSpline
70
4
71
3
72
14
73
10
40
0
40
0
40
0
40
0
40
0.285013984727041
40
0.285013984727041
40
0.572349910643036
40
0.572349910643036
40
0.832166158509276
40
0.832166158509276
40
1
40
1
40
1
40
1
41
1
10
30.7739045598557
20
-27.8568380304532
30
0
41
1
10
30.7373579966691
20
-27.8668999253197
30
0
41
1
10
30.701437086312
20
-27.8837340241314
30
0
41
1
10
30.6371195715909
20
-27.929792897875
30
0
41
1
10
30.607830273487
20
-27.9598901460309
30
0
41
1
10
30.5646340967006
20
-28.0260686822685
30
0
41
1
10
30.5489278435386
20
-28.0623390540657
30
0
41
1
10
30.5344436518232
20
-28.1243818984826
30
0
41
1
10
30.5315
20
-28.1497889183342
30
0
41
1
10
30.5315
20
-28.175
30
0
0
SPLINE
5
13C
100
AcDbEntity
8
1
62
256
6
ByLayer
370
18
48
1
60
0
100
AcDbSpline
70
4
71
3
72
18
73
14
40
0
40
0
40
0
40
0
40
0.213081026856106
40
0.213081026856106
40
0.387160750704754
40
0.387160750704754
40
0.562948851464645
40
0.562948851464645
40
0.715638295683698
40
0.715638295683698
40
0.919170771668922
40
0.919170771668922
40
1
40
1
40
1
40
1
41
1
10
34.2260954401443
20
-28.4931619695469
30
0
41
1
10
34.1437040264741
20
-28.5158457370469
30
0
41
1
10
34.0621171389575
20
-28.5522725130266
30
0
41
1
10
33.9256662182535
20
-28.6432730559038
30
0
41
1
10
33.8672150493795
20
-28.6944915167336
30
0
41
1
10
33.7661041429076
20
-28.8130760878861
30
0
41
1
10
33.7222813842306
20
-28.8825044896993
30
0
41
1
10
33.6623456109346
20
-29.0176244864066
30
0
41
1
10
33.6425367132623
20
-29.0841726073604
30
0
41
1
10
33.6163534643372
20
-29.2364722639212
30
0
41
1
10
33.6158957320856
20
-29.323845903668
30
0
41
1
10
33.6323120448847
20
-29.4390551168518
30
0
41
1
10
33.6389765921736
20
-29.4714993937432
30
0
41
1
10
33.6474510335848
20
-29.5031523379786
30
0
0
SPLINE
5
13D
100
AcDbEntity
8
1
62
256
6
ByLayer
370
18
48
1
60
0
100
AcDbSpline
70
4
71
3
72
10
73
6
40
0
40
0
40
0
40
0
40
0.541781546918581
40
0.541781546918581
40
1
40
1
40
1
40
1
41
1
10
31.9078822958328
20
-26.5314173719113
30
0
41
1
10
31.9682106475449
20
-26.5934435030001
30
0
41
1
10
32.0404061878005
20
-26.6478823223153
30
0
41
1
10
32.1901673132265
20
-26.7250777047588
30
0
41
1
10
32.2671332520482
20
-26.7521855118681
30
0
41
1
10
32.3472587066235
20
-26.7672620637002
30
0
0
SPLINE
5
13E
100
AcDbEntity
8
1
62
256
6
ByLayer
370
18
48
1
60
0
100
AcDbSpline
70
4
71
3
72
18
73
14
40
0
40
0
40
0
40
0
40
0.213081262000623
40
0.213081262000623
40
0.387160943926348
40
0.387160943926348
40
0.562948999942007
40
0.562948999942007
40
0.715638435810381
40
0.715638435810381
40
0.919170953808131
40
0.919170953808131
40
1
40
1
40
1
40
1
41
1
10
31.3525489664151
20
-29.5031523379786
30
0
41
1
10
31.3746500033364
20
-29.4206026033976
30
0
41
1
10
31.3844883336914
20
-29.3317963171878
30
0
41
1
10
31.3749947374669
20
-29.1680591646997
30
0
41
1
10
31.3603716058447
20
-29.0917307174995
30
0
41
1
10
31.3092085564079
20
-28.9445300091917
30
0
41
1
10
31.2714777490042
20
-28.8716114249893
30
0
41
1
10
31.185225487492
20
-28.751568724195
30
0
41
1
10
31.1378343307496
20
-28.7008230633914
30
0
41
1
10
31.019691069491
20
-28.6012092090028
30
0
41
1
10
30.9445472559935
20
-28.5566247717127
30
0
41
1
10
30.8368562665044
20
-28.5125192838219
30
0
41
1
10
30.8054967608598
20
-28.5018598436392
30
0
41
1
10
30.7739045598557
20
-28.4931619695469
30
0
0
SPLINE
5
13F
100
AcDbEntity
8
1
62
256
6
ByLayer
370
18
48
1
60
0
100
AcDbSpline
70
4
71
3
72
16
73
12
40
0
40
0
40
0
40
0
40
0.0517235387679342
40
0.0517235387679342
40
0.275098677522084
40
0.275098677522084
40
0.500660612380099
40
0.500660612380099
40
0.740399911602677
40
0.740399911602677
40
1
40
1
40
1
40
1
41
1
10
33.4955768895951
20
-29.8731810583398
30
0
41
1
10
33.5023126525051
20
-29.8692321449692
30
0
41
1
10
33.5089132100843
20
-29.865040684688
30
0
41
1
10
33.5429215049886
20
-29.8417122985835
30
0
41
1
10
33.5678140662249
20
-29.8182779414417
30
0
41
1
10
33.6087337148404
20
-29.7661970908181
30
0
41
1
10
33.6252135093438
20
-29.7368551097041
30
0
41
1
10
33.6490799914639
20
-29.6746442273376
30
0
41
1
10
33.6561625753256
20
-29.6409038510298
30
0
41
1
10
33.6602113511053
20
-29.5721872076185
30
0
41
1
10
33.6563795299008
20
-29.5365012258031
30
0
41
1
10
33.6474510335848
20
-29.5031523379786
30
0
0
SPLINE
5
140
100
AcDbEntity
8
1
62
256
6
ByLayer
370
18
48
1
60
0
100
AcDbSpline
70
4
71
3
72
16
73
12
40
0
40
0
40
0
40
0
40
0.0660777514108822
40
0.0660777514108822
40
0.289232858199869
40
0.289232858199869
40
0.515409129607286
40
0.515409129607286
40
0.756439127791309
40
0.756439127791309
40
1
40
1
40
1
40
1
41
1
10
34.4685
20
-28.175
30
0
41
1
10
34.4685
20
-28.1650413932559
30
0
41
1
10
34.4680478629073
20
-28.1550703037083
30
0
41
1
10
34.464129393051
20
-28.1119108485012
30
0
41
1
10
34.4558767148612
20
-28.0788156675451
30
0
41
1
10
34.4305022667634
20
-28.0176937435011
30
0
41
1
10
34.4129646817671
20
-27.9889542857458
30
0
41
1
10
34.3703125238603
20
-27.9376217014162
30
0
41
1
10
34.3442704937158
20
-27.9148904973957
30
0
41
1
10
34.2881096630202
20
-27.8789574606323
30
0
41
1
10
34.257361712608
20
-27.8654461708354
30
0
41
1
10
34.2260954401443
20
-27.8568380304532
30
0
0
SPLINE
5
141
100
AcDbEntity
8
1
62
256
6
ByLayer
370
18
48
1
60
0
100
AcDbSpline
70
4
71
3
72
10
73
6
40
0
40
0
40
0
40
0
40
0.479736826236734
40
0.479736826236734
40
1
40
1
40
1
40
1
41
1
10
32.6527412933764
20
-26.7672620637002
30
0
41
1
10
32.7365282379028
20
-26.7514965592335
30
0
41
1
10
32.8168655563163
20
-26.7225497808872
30
0
41
1
10
32.9652196064295
20
-26.6436263054958
30
0
41
1
10
33.034123355797
20
-26.5910438154048
30
0
41
1
10
33.0921177041672
20
-26.5314173719113
30
0
0
SPLINE
5
142
100
AcDbEntity
8
1
62
256
6
ByLayer
370
18
48
1
60
0
100
AcDbSpline
70
4
71
3
72
16
73
12
40
0
40
0
40
0
40
0
40
0.0517235387679294
40
0.0517235387679294
40
0.275098677522074
40
0.275098677522074
40
0.500660612380082
40
0.500660612380082
40
0.740399911602654
40
0.740399911602654
40
1
40
1
40
1
40
1
41
1
10
31.5044231104048
20
-26.4768189416603
30
0
41
1
10
31.4976873474949
20
-26.4807678550309
30
0
41
1
10
31.4910867899156
20
-26.4849593153121
30
0
41
1
10
31.4570784950114
20
-26.5082877014165
30
0
41
1
10
31.432185933775
20
-26.5317220585584
30
0
41
1
10
31.3912662851596
20
-26.583802909182
30
0
41
1
10
31.3747864906561
20
-26.613144890296
30
0
41
1
10
31.3509200085361
20
-26.6753557726624
30
0
41
1
10
31.3438374246744
20
-26.7090961489703
30
0
41
1
10
31.3397886488946
20
-26.7778127923816
30
0
41
1
10
31.3436204700991
20
-26.813498774197
30
0
41
1
10
31.3525489664151
20
-26.8468476620215
30
0
0
INSERT
5
154
100
AcDbEntity
8
2
62
256
6
ByLayer
370
25
48
1
60
0
100
AcDbBlockReference
2
DimnDraft3D11
10
0
20
0
30
0
41
1
42
1
43
1
50
0
210
0
220
0
230
1
0
LINE
5
77
100
AcDbEntity
8
1
62
256
6
ByLayer
370
18
48
1
60
0
100
AcDbLine
10
0.3
20
25
30
0
11
0
21
24.7
31
0
39
0
210
0
220
0
230
1
0
LINE
5
79
100
AcDbEntity
8
1
62
256
6
ByLayer
370
18
48
1
60
0
100
AcDbLine
10
0
20
-24.7
30
0
11
0.3
21
-25
31
0
39
0
210
0
220
0
230
1
0
LINE
5
7A
100
AcDbEntity
8
80
62
256
6
ByLayer
370
18
48
1
60
0
100
AcDbLine
10
0
20
0
30
0
11
-5
21
0
31
0
39
0
210
0
220
0
230
1
0
LINE
5
7B
100
AcDbEntity
8
81
62
256
6
ByLayer
370
18
48
1
60
0
100
AcDbLine
10
60
20
-35
30
0
11
65
21
-35
31
0
39
0
210
0
220
0
230
1
0
LINE
5
7C
100
AcDbEntity
8
4
62
256
6
ByLayer
370
18
48
0.05
60
0
100
AcDbLine
10
0
20
0
30
0
11
45
21
0
31
0
39
0
210
0
220
0
230
1
0
LINE
5
7E
100
AcDbEntity
8
SK4
62
256
6
ByLayer
370
18
48
0.05
60
0
100
AcDbLine
10
-35
20
0
30
0
11
45
21
0
31
0
39
0
210
0
220
0
230
1
0
LINE
5
80
100
AcDbEntity
8
1
62
256
6
ByLayer
370
18
48
1
60
0
100
AcDbLine
10
0.3
20
-25
30
0
11
20.920792
21
-25
31
0
39
0
210
0
220
0
230
1
0
LINE
5
81
100
AcDbEntity
8
1
62
256
6
ByLayer
370
18
48
1
60
0
100
AcDbLine
10
20.920792
20
25
30
0
11
0.3
21
25
31
0
39
0
210
0
220
0
230
1
0
LINE
5
82
100
AcDbEntity
8
1
62
256
6
ByLayer
370
18
48
1
60
0
100
AcDbLine
10
21.456691
20
27
30
0
11
20.920792
21
25
31
0
39
0
210
0
220
0
230
1
0
LINE
5
83
100
AcDbEntity
8
1
62
256
6
ByLayer
370
18
48
1
60
0
100
AcDbLine
10
20.920792
20
-25
30
0
11
21.054897
21
-25.500485
31
0
39
0
210
0
220
0
230
1
0
LINE
5
84
100
AcDbEntity
8
1
62
256
6
ByLayer
370
18
48
1
60
0
100
AcDbLine
10
23.618307
20
-34.675
30
0
11
23.517064
21
-34.675
31
0
39
0
210
0
220
0
230
1
0
LINE
5
85
100
AcDbEntity
8
1
62
256
6
ByLayer
370
18
48
1
60
0
100
AcDbLine
10
11.461325
20
7.529667
30
0
11
8.538675
21
7.529667
31
0
39
0
210
0
220
0
230
1
0
LINE
5
86
100
AcDbEntity
8
1
62
256
6
ByLayer
370
18
48
1
60
0
100
AcDbLine
10
43.301749
20
-32.325
30
0
11
55.155454
21
-32.325
31
0
39
0
210
0
220
0
230
1
0
LINE
5
87
100
AcDbEntity
8
1
62
256
6
ByLayer
370
18
48
1
60
0
100
AcDbLine
10
11.461325
20
-7.529667
30
0
11
11.461325
21
-23.83913
31
0
39
0
210
0
220
0
230
1
0
LINE
5
88
100
AcDbEntity
8
1
62
256
6
ByLayer
370
18
48
1
60
0
100
AcDbLine
10
21.065143
20
-23.900345
30
0
11
21.065143
21
23.900345
31
0
39
0
210
0
220
0
230
1
0
LINE
5
89
100
AcDbEntity
8
1
62
256
6
ByLayer
370
18
48
1
60
0
100
AcDbLine
10
0
20
0
30
0
11
0
21
-24.7
31
0
39
0
210
0
220
0
230
1
0
LINE
5
8A
100
AcDbEntity
8
1
62
256
6
ByLayer
370
18
48
1
60
0
100
AcDbLine
10
0
20
24.7
30
0
11
0
21
0
31
0
39
0
210
0
220
0
230
1
0
LINE
5
8B
100
AcDbEntity
8
1
62
256
6
ByLayer
370
18
48
1
60
0
100
AcDbLine
10
8.538675
20
23.83913
30
0
11
11.461325
21
23.83913
31
0
39
0
210
0
220
0
230
1
0
LINE
5
8C
100
AcDbEntity
8
1
62
256
6
ByLayer
370
18
48
1
60
0
100
AcDbLine
10
55.155454
20
-34.675
30
0
11
43.301749
21
-34.675
31
0
39
0
210
0
220
0
230
1
0
LINE
5
8D
100
AcDbEntity
8
1
62
256
6
ByLayer
370
18
48
1
60
0
100
AcDbLine
10
11.894338
20
-8.055848
30
0
11
11.894338
21
-23.666502
31
0
39
0
210
0
220
0
230
1
0
LINE
5
8E
100
AcDbEntity
8
1
62
256
6
ByLayer
370
18
48
1
60
0
100
AcDbLine
10
17.080365
20
-21.562529
30
0
11
17.080365
21
-4.450086
31
0
39
0
210
0
220
0
230
1
0
LINE
5
8F
100
AcDbEntity
8
1
62
256
6
ByLayer
370
18
48
1
60
0
100
AcDbLine
10
55.266389
20
-34.229486
30
0
11
55.289552
21
-34.100647
31
0
39
0
210
0
220
0
230
1
0
LINE
5
90
100
AcDbEntity
8
1
62
256
6
ByLayer
370
18
48
1
60
0
100
AcDbLine
10
43.301749
20
-34.675
30
0
11
43.301749
21
-32.325
31
0
39
0
210
0
220
0
230
1
0
LINE
5
91
100
AcDbEntity
8
1
62
256
6
ByLayer
370
18
48
1
60
0
100
AcDbLine
10
40.1
20
-32.325
30
0
11
43.301749
21
-32.325
31
0
39
0
210
0
220
0
230
1
0
LINE
5
92
100
AcDbEntity
8
1
62
256
6
ByLayer
370
18
48
1
60
0
100
AcDbLine
10
8.538675
20
-7.529667
30
0
11
11.461325
21
-7.529667
31
0
39
0
210
0
220
0
230
1
0
LINE
5
93
100
AcDbEntity
8
1
62
256
6
ByLayer
370
18
48
1
60
0
100
AcDbLine
10
8.105662
20
23.666502
30
0
11
8.105662
21
8.055848
31
0
39
0
210
0
220
0
230
1
0
LINE
5
94
100
AcDbEntity
8
1
62
256
6
ByLayer
370
18
48
1
60
0
100
AcDbLine
10
17.080365
20
1.071532
30
0
11
17.080365
21
21.562529
31
0
39
0
210
0
220
0
230
1
0
LINE
5
95
100
AcDbEntity
8
1
62
256
6
ByLayer
370
18
48
1
60
0
100
AcDbLine
10
55.155454
20
-32.325
30
0
11
55.177854
21
-32.381645
31
0
39
0
210
0
220
0
230
1
0
LINE
5
96
100
AcDbEntity
8
1
62
256
6
ByLayer
370
18
48
1
60
0
100
AcDbLine
10
11.894338
20
23.666502
30
0
11
11.894338
21
8.055848
31
0
39
0
210
0
220
0
230
1
0
LINE
5
97
100
AcDbEntity
8
1
62
256
6
ByLayer
370
18
48
1
60
0
100
AcDbLine
10
38.5
20
-23.175
30
0
11
38.5
21
-30.725
31
0
39
0
210
0
220
0
230
1
0
LINE
5
98
100
AcDbEntity
8
1
62
256
6
ByLayer
370
18
48
1
60
0
100
AcDbLine
10
55.177854
20
-34.618355
30
0
11
55.258143
21
-34.269785
31
0
39
0
210
0
220
0
230
1
0
LINE
5
99
100
AcDbEntity
8
1
62
256
6
ByLayer
370
18
48
1
60
0
100
AcDbLine
10
8.105662
20
-8.055848
30
0
11
8.105662
21
-23.666502
31
0
39
0
210
0
220
0
230
1
0
LINE
5
9A
100
AcDbEntity
8
1
62
256
6
ByLayer
370
18
48
1
60
0
100
AcDbLine
10
8.538675
20
23.83913
30
0
11
8.538675
21
7.529667
31
0
39
0
210
0
220
0
230
1
0
LINE
5
9B
100
AcDbEntity
8
1
62
256
6
ByLayer
370
18
48
1
60
0
100
AcDbLine
10
38.5
20
-23.175
30
0
11
28.723467
21
27
31
0
39
0
210
0
220
0
230
1
0
LINE
5
9C
100
AcDbEntity
8
1
62
256
6
ByLayer
370
18
48
1
60
0
100
AcDbLine
10
0.3
20
0
30
0
11
0.3
21
-25
31
0
39
0
210
0
220
0
230
1
0
LINE
5
9D
100
AcDbEntity
8
1
62
256
6
ByLayer
370
18
48
1
60
0
100
AcDbLine
10
0.3
20
25
30
0
11
0.3
21
0
31
0
39
0
210
0
220
0
230
1
0
LINE
5
9E
100
AcDbEntity
8
1
62
256
6
ByLayer
370
18
48
1
60
0
100
AcDbLine
10
55.177854
20
-32.381645
30
0
11
55.177854
21
-34.618355
31
0
39
0
210
0
220
0
230
1
0
LINE
5
9F
100
AcDbEntity
8
1
62
256
6
ByLayer
370
18
48
1
60
0
100
AcDbLine
10
28.723467
20
27
30
0
11
21.84803
21
27
31
0
39
0
210
0
220
0
230
1
0
LINE
5
A0
100
AcDbEntity
8
1
62
256
6
ByLayer
370
18
48
1
60
0
100
AcDbLine
10
11.461325
20
23.83913
30
0
11
11.461325
21
7.529667
31
0
39
0
210
0
220
0
230
1
0
LINE
5
A1
100
AcDbEntity
8
1
62
256
6
ByLayer
370
18
48
1
60
0
100
AcDbLine
10
55.266389
20
-32.770514
30
0
11
55.289552
21
-32.899353
31
0
39
0
210
0
220
0
230
1
0
LINE
5
A2
100
AcDbEntity
8
1
62
256
6
ByLayer
370
18
48
1
60
0
100
AcDbLine
10
55.155454
20
-34.675
30
0
11
55.177854
21
-34.618355
31
0
39
0
210
0
220
0
230
1
0
LINE
5
A3
100
AcDbEntity
8
1
62
256
6
ByLayer
370
18
48
1
60
0
100
AcDbLine
10
55.289552
20
-34.100647
30
0
11
55.289552
21
-32.899353
31
0
39
0
210
0
220
0
230
1
0
LINE
5
A4
100
AcDbEntity
8
1
62
256
6
ByLayer
370
18
48
1
60
0
100
AcDbLine
10
8.538675
20
-7.529667
30
0
11
8.538675
21
-23.83913
31
0
39
0
210
0
220
0
230
1
0
LINE
5
A5
100
AcDbEntity
8
1
62
256
6
ByLayer
370
18
48
1
60
0
100
AcDbLine
10
55.177854
20
-32.381645
30
0
11
55.258143
21
-32.730215
31
0
39
0
210
0
220
0
230
1
0
LINE
5
A6
100
AcDbEntity
8
1
62
256
6
ByLayer
370
18
48
1
60
0
100
AcDbLine
10
43.301749
20
-34.675
30
0
11
23.821062
21
-34.675
31
0
39
0
210
0
220
0
230
1
0
LINE
5
A7
100
AcDbEntity
8
1
62
256
6
ByLayer
370
18
48
1
60
0
100
AcDbLine
10
20.920792
20
-25
30
0
11
20.920792
21
-23.322802
31
0
39
0
210
0
220
0
230
1
0
LINE
5
A8
100
AcDbEntity
8
1
62
256
6
ByLayer
370
18
48
1
60
0
100
AcDbLine
10
20.920792
20
23.322802
30
0
11
20.920792
21
25
31
0
39
0
210
0
220
0
230
1
0
LINE
5
A9
100
AcDbEntity
8
1
62
256
6
ByLayer
370
18
48
1
60
0
100
AcDbLine
10
11.461325
20
-23.83913
30
0
11
8.538675
21
-23.83913
31
0
39
0
210
0
220
0
230
1
0
LINE
5
AA
100
AcDbEntity
8
SK1
62
256
6
ByLayer
370
18
48
1
60
0
100
AcDbLine
10
-0.2
20
17.833485
30
0
11
-0.2
21
6.103448
31
0
39
0
210
0
220
0
230
1
0
LINE
5
AC
100
AcDbEntity
8
SK1
62
256
6
ByLayer
370
18
48
1
60
0
100
AcDbLine
10
-0.2
20
-6.103447
30
0
11
-0.2
21
-17.833485
31
0
39
0
210
0
220
0
230
1
0
LINE
5
AD
100
AcDbEntity
8
SK1
62
256
6
ByLayer
370
18
48
1
60
0
100
AcDbLine
10
-1.307107
20
3.918065
30
0
11
-1.307107
21
-3.918065
31
0
39
0
210
0
220
0
230
1
0
LINE
5
AE
100
AcDbEntity
8
1
62
256
6
ByLayer
370
18
48
1
60
0
100
AcDbLine
10
55.625001
20
-32.238524
30
0
11
55.625001
21
-34.761476
31
0
39
0
210
0
220
0
230
1
0
LINE
5
AF
100
AcDbEntity
8
1
62
256
6
ByLayer
370
18
48
1
60
0
100
AcDbLine
10
53.364603
20
-32.325002
30
0
11
53.364045
21
-32.238415
31
0
39
0
210
0
220
0
230
1
0
LINE
5
B0
100
AcDbEntity
8
1
62
256
6
ByLayer
370
18
48
1
60
0
100
AcDbLine
10
55.144288
20
-34.674999
30
0
11
55.144288
21
-34.761465
31
0
39
0
210
0
220
0
230
1
0
LINE
5
B1
100
AcDbEntity
8
1
62
256
6
ByLayer
370
18
48
1
60
0
100
AcDbLine
10
55.426196
20
-34.55
30
0
11
55.426196
21
-34.761457
31
0
39
0
210
0
220
0
230
1
0
LINE
5
B2
100
AcDbEntity
8
1
62
256
6
ByLayer
370
18
48
1
60
0
100
AcDbLine
10
53.364038
20
-34.759754
30
0
11
50.298398
21
-34.760264
31
0
39
0
210
0
220
0
230
1
0
LINE
5
B3
100
AcDbEntity
8
1
62
256
6
ByLayer
370
18
48
1
60
0
100
AcDbLine
10
55.303167
20
-33.568405
30
0
11
55.426196
21
-34.55
31
0
39
0
210
0
220
0
230
1
0
LINE
5
B4
100
AcDbEntity
8
1
62
256
6
ByLayer
370
18
48
1
60
0
100
AcDbLine
10
53.571374
20
-34.674997
30
0
11
53.571944
21
-34.761572
31
0
39
0
210
0
220
0
230
1
0
LINE
5
B5
100
AcDbEntity
8
1
62
256
6
ByLayer
370
18
48
1
60
0
100
AcDbLine
10
57.608335
20
-34.935132
30
0
11
57.608335
21
-32.064868
31
0
39
0
210
0
220
0
230
1
0
LINE
5
B6
100
AcDbEntity
8
1
62
256
6
ByLayer
370
18
48
1
60
0
100
AcDbLine
10
55.426196
20
-32.45
30
0
11
55.426196
21
-32.238543
31
0
39
0
210
0
220
0
230
1
0
LINE
5
B7
100
AcDbEntity
8
1
62
256
6
ByLayer
370
18
48
1
60
0
100
AcDbLine
10
55.303167
20
-33.431595
30
0
11
55.426196
21
-32.45
31
0
39
0
210
0
220
0
230
1
0
LINE
5
B8
100
AcDbEntity
8
1
62
256
6
ByLayer
370
18
48
1
60
0
100
AcDbLine
10
55.144288
20
-32.325001
30
0
11
55.144288
21
-32.238535
31
0
39
0
210
0
220
0
230
1
0
LINE
5
B9
100
AcDbEntity
8
1
62
256
6
ByLayer
370
18
48
1
60
0
100
AcDbLine
10
53.57195
20
-32.240285
30
0
11
55.144287
21
-32.240605
31
0
39
0
210
0
220
0
230
1
0
LINE
5
BA
100
AcDbEntity
8
1
62
256
6
ByLayer
370
18
48
1
60
0
100
AcDbLine
10
53.364038
20
-32.240246
30
0
11
50.298398
21
-32.239736
31
0
39
0
210
0
220
0
230
1
0
LINE
5
BB
100
AcDbEntity
8
1
62
256
6
ByLayer
370
18
48
1
60
0
100
AcDbLine
10
53.364603
20
-34.674998
30
0
11
53.364045
21
-34.761585
31
0
39
0
210
0
220
0
230
1
0
LINE
5
BC
100
AcDbEntity
8
1
62
256
6
ByLayer
370
18
48
1
60
0
100
AcDbLine
10
53.571374
20
-32.325003
30
0
11
53.571944
21
-32.238428
31
0
39
0
210
0
220
0
230
1
0
LINE
5
BD
100
AcDbEntity
8
1
62
256
6
ByLayer
370
18
48
1
60
0
100
AcDbLine
10
53.57195
20
-34.759715
30
0
11
55.144287
21
-34.759395
31
0
39
0
210
0
220
0
230
1
0
MTEXT
5
143
100
AcDbEntity
8
SK6
62
256
6
ByLayer
370
18
48
1
60
0
100
AcDbMText
10
-14.125
20
-44.919241
30
0
210
0
220
0
230
1
1
\W0.7225;C5-LF151.23-35060-30
40
3.5
41
0
44
1.084337
50
0
71
7
72
5
7
iso_b_vert
0
DIMENSION
5
162
100
AcDbEntity
8
2
62
256
6
ByLayer
370
13
48
1
60
0
100
AcDbDimension
2
DimnDraft3D2
10
74.25
20
-35
30
0
11
74.25
21
-27.5
31
0
70
32
71
5
72
1
41
1
210
0
220
0
230
1
3
Standard
100
AcDbAlignedDimension
13
61.5
23
-32
33
0
14
61.5
24
-35
34
0
50
90
100
AcDbRotatedDimension
1001
ACAD
1000
DSTYLE
1002
{
1070
    74
1070
     0
1070
   279
1070
     0
1070
   172
1070
     1
1070
   173
1070
     1
1070
   340
1005
144
1070
   271
1070
     3
1070
   272
1070
     3
1070
    77
1070
     1
1070
    73
1070
     0
1070
   171
1070
     4
1070
   274
1070
     4
1070
   177
1070
     2
1070
   176
1070
     2
1070
   178
1070
     7
1070
    78
1070
     8
1070
    41
1041
3.0
1070
   147
1041
2.25
1070
    42
1041
1.5
1070
    44
1041
3.0
1070
   140
1041
4.5
1070
   343
1005
163
1070
   344
1005
163
1002
}
0
DIMENSION
5
177
100
AcDbEntity
8
2
62
256
6
ByLayer
370
13
48
1
60
0
100
AcDbDimension
2
DimnDraft3D3
10
84.25
20
0
30
0
11
84.25
21
-20.188158
31
0
70
32
71
5
72
1
41
1
210
0
220
0
230
1
3
Standard
100
AcDbAlignedDimension
13
61.5
23
-35
33
0
14
16.5
24
0
34
0
50
90
100
AcDbRotatedDimension
1001
ACAD
1000
DSTYLE
1002
{
1070
    74
1070
     0
1070
   279
1070
     0
1070
   172
1070
     1
1070
   173
1070
     1
1070
   340
1005
144
1070
   271
1070
     3
1070
   272
1070
     3
1070
    77
1070
     1
1070
    73
1070
     0
1070
   171
1070
     4
1070
   274
1070
     4
1070
   177
1070
     2
1070
   176
1070
     2
1070
   178
1070
     7
1070
    78
1070
     8
1070
    41
1041
3.0
1070
   147
1041
2.25
1070
    42
1041
1.5
1070
    44
1041
3.0
1070
   140
1041
4.5
1070
   343
1005
163
1070
   344
1005
163
1002
}
0
DIMENSION
5
185
100
AcDbEntity
8
2
62
256
6
ByLayer
370
13
48
1
60
0
100
AcDbDimension
2
DimnDraft3D4
10
60
20
44.75
30
0
11
27.311842
21
44.75
31
0
70
32
71
5
72
1
41
1
210
0
220
0
230
1
3
Standard
100
AcDbAlignedDimension
13
0
23
25.5
33
0
14
60
24
-30.5
34
0
50
0
100
AcDbRotatedDimension
1001
ACAD
1000
DSTYLE
1002
{
1070
   279
1070
     0
1070
   172
1070
     1
1070
   173
1070
     1
1070
   340
1005
144
1070
   271
1070
     3
1070
   272
1070
     3
1070
    77
1070
     1
1070
    73
1070
     0
1070
   171
1070
     4
1070
   274
1070
     4
1070
   177
1070
     2
1070
   176
1070
     2
1070
   178
1070
     7
1070
    78
1070
     8
1070
    41
1041
3.0
1070
   147
1041
2.25
1070
    42
1041
1.5
1070
    44
1041
3.0
1070
   140
1041
4.5
1070
   343
1005
163
1070
   344
1005
163
1002
}
0
DIMENSION
5
194
100
AcDbEntity
8
SK2
62
256
6
ByLayer
370
13
48
1
60
0
100
AcDbDimension
2
DimnDraft3D5
10
-44.375
20
25
30
0
11
-44.75
21
4.061842
31
0
70
33
71
5
72
1
41
1
210
0
220
0
230
1
3
Standard
100
AcDbAlignedDimension
13
-1.5
23
-25
33
0
14
-1.5
24
25
34
0
1001
ACAD
1000
DSTYLE
1002
{
1070
   279
1070
     0
1070
    74
1070
     0
1070
   173
1070
     1
1070
   340
1005
144
1070
   271
1070
     3
1070
   272
1070
     3
1070
    77
1070
     1
1070
    73
1070
     0
1070
   171
1070
     4
1070
   274
1070
     4
1070
   177
1070
     2
1070
   176
1070
     2
1070
   178
1070
     7
1070
    78
1070
     8
1070
    41
1041
3.0
1070
   147
1041
2.25
1070
    42
1041
1.5
1070
    44
1041
3.0
1070
   140
1041
4.5
1070
   343
1005
163
1070
   344
1005
163
1002
}
0
ENDSEC
0
SECTION
2
OBJECTS
0
DICTIONARY
5
200
330
0
100
AcDbDictionary
280
0
281
1
3
ACAD_GROUP
350
201
3
ACAD_MLINESTYLE
350
202
0
DICTIONARY
5
201
330
0
100
AcDbDictionary
280
0
281
1
0
DICTIONARY
5
202
330
0
100
AcDbDictionary
280
0
281
1
3
Standard
350
18
0
MLINESTYLE
5
18
330
202
100
AcDbMlineStyle
2
Standard
70
0
3

62
256
51
90
52
90
71
2
49
-0.5
62
256
6
ByLayer
49
0.5
62
256
6
ByLayer
0
RASTERVARIABLES
5
1ed
330

100
AcDbRasterVariables
90
0
70
1
71
1
72
1
0
ENDSEC
0
EOF
