0
SECTION
2
HEADER
9
$ACADVER
1
AC1015
9
$DWGCODEPAGE
3
ANSI_1252
9
$HANDSEED
5
1be
9
$ANGBASE
50
0
9
$ANGDIR
70
0
9
$ATTMODE
70
1
9
$AUNITS
70
0
9
$AUPREC
70
0
9
$CECOLOR
62
256
9
$CELTSCALE
40
1
9
$CELTYPE
6
ByLayer
9
$CELWEIGHT
370
18
9
$CLAYER
8
0
9
$CMLJUST
70
0
9
$CMLSCALE
40
1
9
$CMLSTYLE
2
Standard
9
$DIMSTYLE
2
Standard
9
$TEXTSIZE
40
0.2
9
$TEXTSTYLE
7
Standard
9
$LUNITS
70
2
9
$LUPREC
70
4
9
$EXTNAMES
290
1
9
$INSUNITS
70
4
9
$LTSCALE
40
1
9
$LWDISPLAY
290
1
9
$PDMODE
70
0
9
$PDSIZE
40
0
9
$PLINEGEN
70
0
0
ENDSEC
0
SECTION
2
CLASSES
0
CLASS
1
RASTERVARIABLES
2
AcDbRasterVariables
3
ISM
90
0
280
0
281
0
0
ENDSEC
0
SECTION
2
TABLES
0
TABLE
2
VPORT
5
1b4
100
AcDbSymbolTable
0
VPORT
5
1
100
AcDbSymbolTableRecord
100
AcDbViewportTableRecord
2
*Active
70
0
10
0
20
0
11
1
21
1
12
-1
22
1
13
0
23
0
14
0.5
24
0.5
15
10
25
10
16
0
26
0
36
1
17
0
27
0
37
0
0
ENDTAB
0
TABLE
2
LTYPE
5
1b5
100
AcDbSymbolTable
0
LTYPE
5
14
100
AcDbSymbolTableRecord
100
AcDbLinetypeTableRecord
70
0
2
ByBlock
3

72
65
73
0
40
0
0
LTYPE
5
15
100
AcDbSymbolTableRecord
100
AcDbLinetypeTableRecord
70
0
2
ByLayer
3

72
65
73
0
40
0
0
LTYPE
5
16
100
AcDbSymbolTableRecord
100
AcDbLinetypeTableRecord
70
0
2
Continuous
3
Solid line
72
65
73
0
40
0
0
LTYPE
5
6E
100
AcDbSymbolTableRecord
100
AcDbLinetypeTableRecord
70
0
2
CENTER
3
____ _ ____ _ ____ _ ____
72
65
73
4
40
47.5
49
22
74
0
49
-8.5
74
0
49
8.5
74
0
49
-8.5
74
0
0
LTYPE
5
6F
100
AcDbSymbolTableRecord
100
AcDbLinetypeTableRecord
70
0
2
DASHED
3
__ __ __ __ __ __ __ __ __
72
65
73
2
40
25.72
49
12.86
74
0
49
-12.86
74
0
0
ENDTAB
0
TABLE
2
LAYER
5
1b6
100
AcDbSymbolTable
0
LAYER
5
10
100
AcDbSymbolTableRecord
100
AcDbLayerTableRecord
2
0
70
0
62
7
6
Continuous
290
1
370
-3
390
0
0
LAYER
5
71
100
AcDbSymbolTableRecord
100
AcDbLayerTableRecord
2
81
70
0
62
-3
6
Continuous
290
1
370
-3
390
0
0
LAYER
5
73
100
AcDbSymbolTableRecord
100
AcDbLayerTableRecord
2
80
70
0
62
-6
6
Continuous
290
1
370
-3
390
0
0
LAYER
5
7B
100
AcDbSymbolTableRecord
100
AcDbLayerTableRecord
2
4
70
0
62
-2
6
CENTER
290
1
370
-3
390
0
0
LAYER
5
81
100
AcDbSymbolTableRecord
100
AcDbLayerTableRecord
2
1
70
0
62
4
6
Continuous
290
1
370
-3
390
0
0
LAYER
5
C3
100
AcDbSymbolTableRecord
100
AcDbLayerTableRecord
2
Defpoints
70
0
62
7
6
Continuous
290
0
370
-3
390
0
0
LAYER
5
D0
100
AcDbSymbolTableRecord
100
AcDbLayerTableRecord
2
2
70
0
62
7
6
Continuous
290
1
370
-3
390
0
0
LAYER
5
19f
100
AcDbSymbolTableRecord
100
AcDbLayerTableRecord
2
SK4
70
0
62
2
6
CENTER
290
1
370
-3
390
0
0
LAYER
5
1a0
100
AcDbSymbolTableRecord
100
AcDbLayerTableRecord
2
SK1
70
0
62
4
6
Continuous
290
1
370
-3
390
0
0
LAYER
5
1a1
100
AcDbSymbolTableRecord
100
AcDbLayerTableRecord
2
SK3
70
0
62
1
6
DASHED
290
1
370
-3
390
0
0
LAYER
5
1a2
100
AcDbSymbolTableRecord
100
AcDbLayerTableRecord
2
SK6
70
0
62
5
6
Continuous
290
1
370
-3
390
0
0
LAYER
5
1a3
100
AcDbSymbolTableRecord
100
AcDbLayerTableRecord
2
SK2
70
0
62
7
6
Continuous
290
1
370
-3
390
0
0
ENDTAB
0
TABLE
2
STYLE
5
1b7
100
AcDbSymbolTable
0
STYLE
5
11
100
AcDbSymbolTableRecord
100
AcDbTextStyleTableRecord
2
Standard
3
txt
70
0
71
0
40
0
41
1
42
0
50
0
0
STYLE
5
BC
100
AcDbSymbolTableRecord
100
AcDbTextStyleTableRecord
2
AMGDT
3
AMGDT
70
0
71
0
40
0
41
1
42
0
50
0
0
STYLE
5
C0
100
AcDbSymbolTableRecord
100
AcDbTextStyleTableRecord
2
iso_b_vert
3
simplex.shx
70
0
71
0
40
0
41
1
42
0
50
0
0
STYLE
5
D3
100
AcDbSymbolTableRecord
100
AcDbTextStyleTableRecord
2
DWGDirectTextStyle
3
simplex
70
0
71
0
40
0
41
1
42
0
50
0
0
ENDTAB
0
TABLE
2
DIMSTYLE
5
1b8
100
AcDbSymbolTable
100
AcDbDimStyleTable
0
DIMSTYLE
105
27
100
AcDbSymbolTableRecord
100
AcDbDimStyleTableRecord
2
Standard
70
0
3
<>
41
0.18
42
0.0625
44
0.18
140
0.18
147
0.09
73
0
74
0
77
1
271
2
275
0
278
52
280
0
340
11
0
ENDTAB
0
TABLE
2
VIEW
5
1b9
100
AcDbSymbolTable
0
ENDTAB
0
TABLE
2
UCS
5
1ba
100
AcDbSymbolTable
0
ENDTAB
0
TABLE
2
APPID
5
1bb
100
AcDbSymbolTable
0
APPID
5
12
100
AcDbSymbolTableRecord
100
AcDbRegAppTableRecord
2
ACAD
70
0
0
APPID
5
BE
100
AcDbSymbolTableRecord
100
AcDbRegAppTableRecord
2
ACAD_DSTYLE_DIMBREAK
70
0
0
APPID
5
15E
100
AcDbSymbolTableRecord
100
AcDbRegAppTableRecord
2
ACAD_DSTYLE_DIM_LINETYPE
70
0
0
APPID
5
15F
100
AcDbSymbolTableRecord
100
AcDbRegAppTableRecord
2
ACAD_DSTYLE_DIM_EXT1_LINETYPE
70
0
0
APPID
5
160
100
AcDbSymbolTableRecord
100
AcDbRegAppTableRecord
2
ACAD_DSTYLE_DIM_EXT2_LINETYPE
70
0
0
APPID
5
19B
100
AcDbSymbolTableRecord
100
AcDbRegAppTableRecord
2
ACAD_MLEADERVER
70
0
0
ENDTAB
0
TABLE
2
BLOCK_RECORD
5
1bc
100
AcDbSymbolTable
0
BLOCK_RECORD
5
1F
100
AcDbSymbolTableRecord
100
AcDbBlockTableRecord
2
*Model_Space
340
0
70
0
0
BLOCK_RECORD
5
1B
100
AcDbSymbolTableRecord
100
AcDbBlockTableRecord
2
*Paper_Space
340
0
70
0
0
BLOCK_RECORD
5
23
100
AcDbSymbolTableRecord
100
AcDbBlockTableRecord
2
*Paper_Space0
340
0
70
0
0
BLOCK_RECORD
5
C4
100
AcDbSymbolTableRecord
100
AcDbBlockTableRecord
2
*D1
340
0
70
0
0
BLOCK_RECORD
5
D1
100
AcDbSymbolTableRecord
100
AcDbBlockTableRecord
2
_U0
340
0
70
0
0
BLOCK_RECORD
5
DE
100
AcDbSymbolTableRecord
100
AcDbBlockTableRecord
2
*D3
340
0
70
0
0
BLOCK_RECORD
5
EB
100
AcDbSymbolTableRecord
100
AcDbBlockTableRecord
2
_U1
340
0
70
0
0
BLOCK_RECORD
5
F7
100
AcDbSymbolTableRecord
100
AcDbBlockTableRecord
2
*D5
340
0
70
0
0
BLOCK_RECORD
5
105
100
AcDbSymbolTableRecord
100
AcDbBlockTableRecord
2
_U2
340
0
70
0
0
BLOCK_RECORD
5
112
100
AcDbSymbolTableRecord
100
AcDbBlockTableRecord
2
*D7
340
0
70
0
0
BLOCK_RECORD
5
11E
100
AcDbSymbolTableRecord
100
AcDbBlockTableRecord
2
_U3
340
0
70
0
0
BLOCK_RECORD
5
12A
100
AcDbSymbolTableRecord
100
AcDbBlockTableRecord
2
*D9
340
0
70
0
0
BLOCK_RECORD
5
137
100
AcDbSymbolTableRecord
100
AcDbBlockTableRecord
2
_U4
340
0
70
0
0
ENDTAB
0
ENDSEC
0
SECTION
2
BLOCKS
0
BLOCK
5
20
100
AcDbEntity
8
0
100
AcDbBlockBegin
2
*Model_Space
70
0
10
0
20
0
30
0
3
*Model_Space
0
ENDBLK
5
21
100
AcDbEntity
8
0
100
AcDbBlockEnd
0
BLOCK
5
1C
100
AcDbEntity
8
0
100
AcDbBlockBegin
2
*Paper_Space
70
0
10
0
20
0
30
0
3
*Paper_Space
0
ENDBLK
5
1D
100
AcDbEntity
8
0
100
AcDbBlockEnd
0
BLOCK
5
24
100
AcDbEntity
8
0
100
AcDbBlockBegin
2
*Paper_Space0
70
0
10
0
20
0
30
0
3
*Paper_Space0
0
ENDBLK
5
25
100
AcDbEntity
8
0
100
AcDbBlockEnd
0
BLOCK
5
C5
100
AcDbEntity
8
0
100
AcDbBlockBegin
2
*D1
70
1
10
0
20
0
30
0
3
*D1
0
LINE
5
C7
100
AcDbEntity
8
0
62
256
6
ByLayer
370
-2
48
1
60
0
100
AcDbLine
10
0
20
-51.5875
30
0
11
0
21
-100
31
0
39
0
210
0
220
0
230
1
0
LINE
5
C8
100
AcDbEntity
8
0
62
256
6
ByLayer
370
-2
48
1
60
0
100
AcDbLine
10
82
20
8.4125
30
0
11
82
21
-100
31
0
39
0
210
0
220
0
230
1
0
LINE
5
C9
100
AcDbEntity
8
0
62
256
6
ByLayer
370
-2
48
1
60
0
100
AcDbLine
10
14
20
-90
30
0
11
68
21
-90
31
0
39
0
210
0
220
0
230
1
0
SOLID
5
CA
100
AcDbEntity
8
0
62
256
6
ByLayer
370
-1
48
1
60
0
100
AcDbTrace
10
14
20
-87.666667
30
0
11
14
21
-92.333333
31
0
12
0
22
-90
32
0
13
0
23
-90
33
0
39
0
210
0
220
0
230
1
0
SOLID
5
CB
100
AcDbEntity
8
0
62
256
6
ByLayer
370
-1
48
1
60
0
100
AcDbTrace
10
68
20
-92.333333
30
0
11
68
21
-87.666667
31
0
12
82
22
-90
32
0
13
82
23
-90
33
0
39
0
210
0
220
0
230
1
0
MTEXT
5
CC
100
AcDbEntity
8
0
62
256
6
ByLayer
370
18
48
1
60
0
100
AcDbMText
10
41
20
-62
30
0
210
0
220
0
230
1
1
\A1;82
40
14
41
0
44
1
50
0
71
5
72
5
7
iso_b_vert
0
POINT
5
CD
100
AcDbEntity
8
Defpoints
62
0
6
ByLayer
370
-1
48
1
60
0
100
AcDbPoint
10
0
20
-50
30
0
39
0
210
0
220
0
230
1
50
360
0
POINT
5
CE
100
AcDbEntity
8
Defpoints
62
0
6
ByLayer
370
-1
48
1
60
0
100
AcDbPoint
10
82
20
10
30
0
39
0
210
0
220
0
230
1
50
360
0
POINT
5
CF
100
AcDbEntity
8
Defpoints
62
0
6
ByLayer
370
-1
48
1
60
0
100
AcDbPoint
10
82
20
-90
30
0
39
0
210
0
220
0
230
1
50
360
0
ENDBLK
5
C6
100
AcDbEntity
8
0
100
AcDbBlockEnd
0
BLOCK
5
D9
100
AcDbEntity
8
0
100
AcDbBlockBegin
2
_U0
70
0
10
0
20
0
30
0
3
_U0
0
MTEXT
5
D2
100
AcDbEntity
8
2
62
256
6
ByLayer
370
18
48
1
60
0
100
AcDbMText
10
33.380135
20
-85.869464
30
0
210
0
220
0
230
1
1
\W0.6337;82
40
14
41
0
44
1.084337
50
0
71
7
72
5
7
iso_b_vert
0
LINE
5
D4
100
AcDbEntity
8
2
62
256
6
ByLayer
370
35
48
1
60
0
100
AcDbLine
10
0
20
-51.5875
30
0
11
0
21
-100
31
0
39
0
210
0
220
0
230
1
0
LINE
5
D5
100
AcDbEntity
8
2
62
256
6
ByLayer
370
35
48
1
60
0
100
AcDbLine
10
82
20
8.4125
30
0
11
82
21
-100
31
0
39
0
210
0
220
0
230
1
0
LINE
5
D6
100
AcDbEntity
8
2
62
256
6
ByLayer
370
35
48
1
60
0
100
AcDbLine
10
0
20
-90
30
0
11
82
21
-90
31
0
39
0
210
0
220
0
230
1
0
SOLID
5
D7
100
AcDbEntity
8
2
62
256
6
ByLayer
370
18
48
1
60
0
100
AcDbTrace
10
0
20
-90
30
0
11
13.999991
21
-87.66725
31
0
12
14.000009
22
-92.33275
32
0
13
14.000009
23
-92.33275
33
0
39
0
210
0
220
0
230
1
0
SOLID
5
D8
100
AcDbEntity
8
2
62
256
6
ByLayer
370
18
48
1
60
0
100
AcDbTrace
10
82
20
-90
30
0
11
68.000009
21
-92.33275
31
0
12
67.999991
22
-87.66725
32
0
13
67.999991
23
-87.66725
33
0
39
0
210
0
220
0
230
1
0
ENDBLK
5
DA
100
AcDbEntity
8
0
100
AcDbBlockEnd
0
BLOCK
5
DF
100
AcDbEntity
8
0
100
AcDbBlockBegin
2
*D3
70
1
10
0
20
0
30
0
3
*D3
0
LINE
5
E1
100
AcDbEntity
8
0
62
256
6
ByLayer
370
-2
48
1
60
0
100
AcDbLine
10
0
20
123.5875
30
0
11
0
21
176.745683
31
0
39
0
210
0
220
0
230
1
0
LINE
5
E2
100
AcDbEntity
8
0
62
256
6
ByLayer
370
-2
48
1
60
0
100
AcDbLine
10
50
20
131.5875
30
0
11
50
21
176.745683
31
0
39
0
210
0
220
0
230
1
0
LINE
5
E3
100
AcDbEntity
8
0
62
256
6
ByLayer
370
-2
48
1
60
0
100
AcDbLine
10
-14
20
166.745683
30
0
11
-28
21
166.745683
31
0
39
0
210
0
220
0
230
1
0
LINE
5
E4
100
AcDbEntity
8
0
62
256
6
ByLayer
370
-2
48
1
60
0
100
AcDbLine
10
64
20
166.745683
30
0
11
78
21
166.745683
31
0
39
0
210
0
220
0
230
1
0
SOLID
5
E5
100
AcDbEntity
8
0
62
256
6
ByLayer
370
-1
48
1
60
0
100
AcDbTrace
10
-14
20
164.41235
30
0
11
-14
21
169.079016
31
0
12
0
22
166.745683
32
0
13
0
23
166.745683
33
0
39
0
210
0
220
0
230
1
0
SOLID
5
E6
100
AcDbEntity
8
0
62
256
6
ByLayer
370
-1
48
1
60
0
100
AcDbTrace
10
64
20
169.079016
30
0
11
64
21
164.41235
31
0
12
50
22
166.745683
32
0
13
50
23
166.745683
33
0
39
0
210
0
220
0
230
1
0
MTEXT
5
E7
100
AcDbEntity
8
0
62
256
6
ByLayer
370
18
48
1
60
0
100
AcDbMText
10
25
20
194.745683
30
0
210
0
220
0
230
1
1
\A1;50
40
14
41
0
44
1
50
0
71
5
72
5
7
iso_b_vert
0
POINT
5
E8
100
AcDbEntity
8
Defpoints
62
0
6
ByLayer
370
-1
48
1
60
0
100
AcDbPoint
10
0
20
122
30
0
39
0
210
0
220
0
230
1
50
360
0
POINT
5
E9
100
AcDbEntity
8
Defpoints
62
0
6
ByLayer
370
-1
48
1
60
0
100
AcDbPoint
10
50
20
130
30
0
39
0
210
0
220
0
230
1
50
360
0
POINT
5
EA
100
AcDbEntity
8
Defpoints
62
0
6
ByLayer
370
-1
48
1
60
0
100
AcDbPoint
10
50
20
166.745683
30
0
39
0
210
0
220
0
230
1
50
360
0
ENDBLK
5
E0
100
AcDbEntity
8
0
100
AcDbBlockEnd
0
BLOCK
5
F2
100
AcDbEntity
8
0
100
AcDbBlockBegin
2
_U1
70
0
10
0
20
0
30
0
3
_U1
0
MTEXT
5
EC
100
AcDbEntity
8
2
62
256
6
ByLayer
370
18
48
1
60
0
100
AcDbMText
10
17.380135
20
170.876219
30
0
210
0
220
0
230
1
1
\W0.6337;50
40
14
41
0
44
1.084337
50
0
71
7
72
5
7
iso_b_vert
0
LINE
5
ED
100
AcDbEntity
8
2
62
256
6
ByLayer
370
35
48
1
60
0
100
AcDbLine
10
0
20
123.5875
30
0
11
0
21
176.745683
31
0
39
0
210
0
220
0
230
1
0
LINE
5
EE
100
AcDbEntity
8
2
62
256
6
ByLayer
370
35
48
1
60
0
100
AcDbLine
10
50
20
151.5875
30
0
11
50
21
176.745683
31
0
39
0
210
0
220
0
230
1
0
LINE
5
EF
100
AcDbEntity
8
2
62
256
6
ByLayer
370
35
48
1
60
0
100
AcDbLine
10
0
20
166.745683
30
0
11
50
21
166.745683
31
0
39
0
210
0
220
0
230
1
0
SOLID
5
F0
100
AcDbEntity
8
2
62
256
6
ByLayer
370
18
48
1
60
0
100
AcDbTrace
10
0
20
166.745683
30
0
11
13.999991
21
169.078433
31
0
12
14.000009
22
164.412933
32
0
13
14.000009
23
164.412933
33
0
39
0
210
0
220
0
230
1
0
SOLID
5
F1
100
AcDbEntity
8
2
62
256
6
ByLayer
370
18
48
1
60
0
100
AcDbTrace
10
50
20
166.745683
30
0
11
36.000009
21
164.412933
31
0
12
35.999991
22
169.078433
32
0
13
35.999991
23
169.078433
33
0
39
0
210
0
220
0
230
1
0
ENDBLK
5
F3
100
AcDbEntity
8
0
100
AcDbBlockEnd
0
BLOCK
5
F8
100
AcDbEntity
8
0
100
AcDbBlockBegin
2
*D5
70
1
10
0
20
0
30
0
3
*D5
0
LINE
5
FA
100
AcDbEntity
8
0
62
256
6
ByLayer
370
-2
48
1
60
0
100
AcDbLine
10
75
20
131.5875
30
0
11
75
21
210
31
0
39
0
210
0
220
0
230
1
0
LINE
5
FB
100
AcDbEntity
8
0
62
256
6
ByLayer
370
-2
48
1
60
0
100
AcDbLine
10
25
20
131.5875
30
0
11
25
21
210
31
0
39
0
210
0
220
0
230
1
0
LINE
5
FC
100
AcDbEntity
8
0
62
256
6
ByLayer
370
-2
48
1
60
0
100
AcDbLine
10
75
20
200
30
0
11
167.666667
21
200
31
0
39
0
210
0
220
0
230
1
0
LINE
5
FD
100
AcDbEntity
8
0
62
256
6
ByLayer
370
-2
48
1
60
0
100
AcDbLine
10
89
20
200
30
0
11
103
21
200
31
0
39
0
210
0
220
0
230
1
0
LINE
5
FE
100
AcDbEntity
8
0
62
256
6
ByLayer
370
-2
48
1
60
0
100
AcDbLine
10
11
20
200
30
0
11
-3
21
200
31
0
39
0
210
0
220
0
230
1
0
SOLID
5
FF
100
AcDbEntity
8
0
62
256
6
ByLayer
370
-1
48
1
60
0
100
AcDbTrace
10
89
20
202.333333
30
0
11
89
21
197.666667
31
0
12
75
22
200
32
0
13
75
23
200
33
0
39
0
210
0
220
0
230
1
0
SOLID
5
100
100
AcDbEntity
8
0
62
256
6
ByLayer
370
-1
48
1
60
0
100
AcDbTrace
10
11
20
197.666667
30
0
11
11
21
202.333333
31
0
12
25
22
200
32
0
13
25
23
200
33
0
39
0
210
0
220
0
230
1
0
MTEXT
5
101
100
AcDbEntity
8
0
62
256
6
ByLayer
370
18
48
1
60
0
100
AcDbMText
10
135.333333
20
228
30
0
210
0
220
0
230
1
1
\A1;50
40
14
41
0
44
1
50
0
71
5
72
5
7
iso_b_vert
0
POINT
5
102
100
AcDbEntity
8
Defpoints
62
0
6
ByLayer
370
-1
48
1
60
0
100
AcDbPoint
10
75
20
130
30
0
39
0
210
0
220
0
230
1
50
360
0
POINT
5
103
100
AcDbEntity
8
Defpoints
62
0
6
ByLayer
370
-1
48
1
60
0
100
AcDbPoint
10
25
20
130
30
0
39
0
210
0
220
0
230
1
50
360
0
POINT
5
104
100
AcDbEntity
8
Defpoints
62
0
6
ByLayer
370
-1
48
1
60
0
100
AcDbPoint
10
25
20
200
30
0
39
0
210
0
220
0
230
1
50
360
0
ENDBLK
5
F9
100
AcDbEntity
8
0
100
AcDbBlockEnd
0
BLOCK
5
10D
100
AcDbEntity
8
0
100
AcDbBlockBegin
2
_U2
70
0
10
0
20
0
30
0
3
_U2
0
MTEXT
5
106
100
AcDbEntity
8
2
62
256
6
ByLayer
370
18
48
1
60
0
100
AcDbMText
10
134.071687
20
207.630536
30
0
210
0
220
0
230
1
1
\W0.6337;50
40
14
41
0
44
1.084337
50
0
71
7
72
5
7
iso_b_vert
0
MTEXT
5
107
100
AcDbEntity
8
2
62
256
6
ByLayer
370
18
48
1
60
0
100
AcDbMText
10
99.071687
20
207.630536
30
0
210
0
220
0
230
1
1
%%c
40
14
41
0
44
1.084337
50
0
71
7
72
5
7
iso_b_vert
0
LINE
5
108
100
AcDbEntity
8
2
62
256
6
ByLayer
370
35
48
1
60
0
100
AcDbLine
10
75
20
131.5875
30
0
11
75
21
210
31
0
39
0
210
0
220
0
230
1
0
LINE
5
109
100
AcDbEntity
8
2
62
256
6
ByLayer
370
35
48
1
60
0
100
AcDbLine
10
25
20
131.5875
30
0
11
25
21
210
31
0
39
0
210
0
220
0
230
1
0
LINE
5
10A
100
AcDbEntity
8
2
62
256
6
ByLayer
370
35
48
1
60
0
100
AcDbLine
10
25
20
200
30
0
11
150.053417
21
200
31
0
39
0
210
0
220
0
230
1
0
SOLID
5
10B
100
AcDbEntity
8
2
62
256
6
ByLayer
370
18
48
1
60
0
100
AcDbTrace
10
75
20
200
30
0
11
61.000009
21
197.66725
31
0
12
60.999991
22
202.33275
32
0
13
60.999991
23
202.33275
33
0
39
0
210
0
220
0
230
1
0
SOLID
5
10C
100
AcDbEntity
8
2
62
256
6
ByLayer
370
18
48
1
60
0
100
AcDbTrace
10
25
20
200
30
0
11
38.999991
21
202.33275
31
0
12
39.000009
22
197.66725
32
0
13
39.000009
23
197.66725
33
0
39
0
210
0
220
0
230
1
0
ENDBLK
5
10E
100
AcDbEntity
8
0
100
AcDbBlockEnd
0
BLOCK
5
113
100
AcDbEntity
8
0
100
AcDbBlockBegin
2
*D7
70
1
10
0
20
0
30
0
3
*D7
0
LINE
5
115
100
AcDbEntity
8
0
62
256
6
ByLayer
370
-2
48
1
60
0
100
AcDbLine
10
23.5875
20
-50
30
0
11
121.361392
21
-50
31
0
39
0
210
0
220
0
230
1
0
LINE
5
116
100
AcDbEntity
8
0
62
256
6
ByLayer
370
-2
48
1
60
0
100
AcDbLine
10
76.5875
20
130
30
0
11
121.361392
21
130
31
0
39
0
210
0
220
0
230
1
0
LINE
5
117
100
AcDbEntity
8
0
62
256
6
ByLayer
370
-2
48
1
60
0
100
AcDbLine
10
111.361392
20
-36
30
0
11
111.361392
21
116
31
0
39
0
210
0
220
0
230
1
0
SOLID
5
118
100
AcDbEntity
8
0
62
256
6
ByLayer
370
-1
48
1
60
0
100
AcDbTrace
10
109.028059
20
-36
30
0
11
113.694725
21
-36
31
0
12
111.361392
22
-50
32
0
13
111.361392
23
-50
33
0
39
0
210
0
220
0
230
1
0
SOLID
5
119
100
AcDbEntity
8
0
62
256
6
ByLayer
370
-1
48
1
60
0
100
AcDbTrace
10
113.694725
20
116
30
0
11
109.028059
21
116
31
0
12
111.361392
22
130
32
0
13
111.361392
23
130
33
0
39
0
210
0
220
0
230
1
0
MTEXT
5
11A
100
AcDbEntity
8
0
62
256
6
ByLayer
370
18
48
1
60
0
100
AcDbMText
10
83.361392
20
40
30
0
210
0
220
0
230
1
1
\A1;180
40
14
41
0
44
1
50
90
71
5
72
5
7
iso_b_vert
0
POINT
5
11B
100
AcDbEntity
8
Defpoints
62
0
6
ByLayer
370
-1
48
1
60
0
100
AcDbPoint
10
22
20
-50
30
0
39
0
210
0
220
0
230
1
50
360
0
POINT
5
11C
100
AcDbEntity
8
Defpoints
62
0
6
ByLayer
370
-1
48
1
60
0
100
AcDbPoint
10
75
20
130
30
0
39
0
210
0
220
0
230
1
50
360
0
POINT
5
11D
100
AcDbEntity
8
Defpoints
62
0
6
ByLayer
370
-1
48
1
60
0
100
AcDbPoint
10
111.361392
20
130
30
0
39
0
210
0
220
0
230
1
50
360
0
ENDBLK
5
114
100
AcDbEntity
8
0
100
AcDbBlockEnd
0
BLOCK
5
125
100
AcDbEntity
8
0
100
AcDbBlockBegin
2
_U3
70
0
10
0
20
0
30
0
3
_U3
0
MTEXT
5
11F
100
AcDbEntity
8
2
62
256
6
ByLayer
370
18
48
1
60
0
100
AcDbMText
10
108.602856
20
28.786936
30
0
210
0
220
0
230
1
1
\W0.6433;180
40
14
41
0
44
1.084337
50
90
71
7
72
5
7
iso_b_vert
0
LINE
5
120
100
AcDbEntity
8
2
62
256
6
ByLayer
370
35
48
1
60
0
100
AcDbLine
10
23.5875
20
-50
30
0
11
121.361392
21
-50
31
0
39
0
210
0
220
0
230
1
0
LINE
5
121
100
AcDbEntity
8
2
62
256
6
ByLayer
370
35
48
1
60
0
100
AcDbLine
10
76.5875
20
130
30
0
11
121.361392
21
130
31
0
39
0
210
0
220
0
230
1
0
LINE
5
122
100
AcDbEntity
8
2
62
256
6
ByLayer
370
35
48
1
60
0
100
AcDbLine
10
111.361392
20
-50
30
0
11
111.361392
21
130
31
0
39
0
210
0
220
0
230
1
0
SOLID
5
123
100
AcDbEntity
8
2
62
256
6
ByLayer
370
18
48
1
60
0
100
AcDbTrace
10
111.361392
20
-50
30
0
11
109.028642
21
-36.000009
31
0
12
113.694142
22
-35.999991
32
0
13
113.694142
23
-35.999991
33
0
39
0
210
0
220
0
230
1
0
SOLID
5
124
100
AcDbEntity
8
2
62
256
6
ByLayer
370
18
48
1
60
0
100
AcDbTrace
10
111.361392
20
130
30
0
11
113.694142
21
116.000009
31
0
12
109.028642
22
115.999991
32
0
13
109.028642
23
115.999991
33
0
39
0
210
0
220
0
230
1
0
ENDBLK
5
126
100
AcDbEntity
8
0
100
AcDbBlockEnd
0
BLOCK
5
12B
100
AcDbEntity
8
0
100
AcDbBlockBegin
2
*D9
70
1
10
0
20
0
30
0
3
*D9
0
LINE
5
12D
100
AcDbEntity
8
0
62
256
6
ByLayer
370
-2
48
1
60
0
100
AcDbLine
10
-7.5875
20
0
30
0
11
-33.674307
21
0
31
0
39
0
210
0
220
0
230
1
0
LINE
5
12E
100
AcDbEntity
8
0
62
256
6
ByLayer
370
-2
48
1
60
0
100
AcDbLine
10
23.4125
20
130
30
0
11
-33.674307
21
130
31
0
39
0
210
0
220
0
230
1
0
LINE
5
12F
100
AcDbEntity
8
0
62
256
6
ByLayer
370
-2
48
1
60
0
100
AcDbLine
10
-23.674307
20
14
30
0
11
-23.674307
21
116
31
0
39
0
210
0
220
0
230
1
0
SOLID
5
130
100
AcDbEntity
8
0
62
256
6
ByLayer
370
-1
48
1
60
0
100
AcDbTrace
10
-26.007641
20
14
30
0
11
-21.340974
21
14
31
0
12
-23.674307
22
0
32
0
13
-23.674307
23
0
33
0
39
0
210
0
220
0
230
1
0
SOLID
5
131
100
AcDbEntity
8
0
62
256
6
ByLayer
370
-1
48
1
60
0
100
AcDbTrace
10
-21.340974
20
116
30
0
11
-26.007641
21
116
31
0
12
-23.674307
22
130
32
0
13
-23.674307
23
130
33
0
39
0
210
0
220
0
230
1
0
MTEXT
5
132
100
AcDbEntity
8
0
62
256
6
ByLayer
370
18
48
1
60
0
100
AcDbMText
10
-51.674307
20
65
30
0
210
0
220
0
230
1
1
\A1;130
40
14
41
0
44
1
50
90
71
5
72
5
7
iso_b_vert
0
POINT
5
133
100
AcDbEntity
8
Defpoints
62
0
6
ByLayer
370
-1
48
1
60
0
100
AcDbPoint
10
-6
20
0
30
0
39
0
210
0
220
0
230
1
50
360
0
POINT
5
134
100
AcDbEntity
8
Defpoints
62
0
6
ByLayer
370
-1
48
1
60
0
100
AcDbPoint
10
25
20
130
30
0
39
0
210
0
220
0
230
1
50
360
0
POINT
5
135
100
AcDbEntity
8
Defpoints
62
0
6
ByLayer
370
-1
48
1
60
0
100
AcDbPoint
10
-23.674307
20
130
30
0
39
0
210
0
220
0
230
1
50
360
0
ENDBLK
5
12C
100
AcDbEntity
8
0
100
AcDbBlockEnd
0
BLOCK
5
13E
100
AcDbEntity
8
0
100
AcDbBlockBegin
2
_U4
70
0
10
0
20
0
30
0
3
_U4
0
MTEXT
5
138
100
AcDbEntity
8
SK2
62
256
6
ByLayer
370
18
48
1
60
0
100
AcDbMText
10
-26.432843
20
53.786936
30
0
210
0
220
0
230
1
1
\W0.6433;130
40
14
41
0
44
1.084337
50
90
71
7
72
5
7
iso_b_vert
0
LINE
5
139
100
AcDbEntity
8
SK2
62
256
6
ByLayer
370
35
48
1
60
0
100
AcDbLine
10
-7.5875
20
0
30
0
11
-33.674307
21
0
31
0
39
0
210
0
220
0
230
1
0
LINE
5
13A
100
AcDbEntity
8
SK2
62
256
6
ByLayer
370
35
48
1
60
0
100
AcDbLine
10
23.4125
20
130
30
0
11
-33.674307
21
130
31
0
39
0
210
0
220
0
230
1
0
LINE
5
13B
100
AcDbEntity
8
SK2
62
256
6
ByLayer
370
35
48
1
60
0
100
AcDbLine
10
-23.674307
20
0
30
0
11
-23.674307
21
130
31
0
39
0
210
0
220
0
230
1
0
SOLID
5
13C
100
AcDbEntity
8
SK2
62
256
6
ByLayer
370
18
48
1
60
0
100
AcDbTrace
10
-23.674307
20
0
30
0
11
-26.007057
21
13.999991
31
0
12
-21.341557
22
14.000009
32
0
13
-21.341557
23
14.000009
33
0
39
0
210
0
220
0
230
1
0
SOLID
5
13D
100
AcDbEntity
8
SK2
62
256
6
ByLayer
370
18
48
1
60
0
100
AcDbTrace
10
-23.674307
20
130
30
0
11
-21.341557
21
116.000009
31
0
12
-26.007057
22
115.999991
32
0
13
-26.007057
23
115.999991
33
0
39
0
210
0
220
0
230
1
0
ENDBLK
5
13F
100
AcDbEntity
8
0
100
AcDbBlockEnd
0
ENDSEC
0
SECTION
2
ENTITIES
0
ARC
5
AE
100
AcDbEntity
8
1
62
256
6
ByLayer
370
18
48
1
60
0
100
AcDbCircle
39
0
10
73
20
119.899931
30
0
40
10
210
0
220
0
230
1
100
AcDbArc
50
73.741116
51
76.11346
0
ARC
5
AF
100
AcDbEntity
8
1
62
256
6
ByLayer
370
18
48
1
60
0
100
AcDbCircle
39
0
10
73
20
119.899931
30
0
40
10
210
0
220
0
230
1
100
AcDbArc
50
103.88654
51
106.258884
0
ARC
5
B0
100
AcDbEntity
8
1
62
256
6
ByLayer
370
18
48
1
60
0
100
AcDbCircle
39
0
10
27
20
119.899931
30
0
40
10
210
0
220
0
230
1
100
AcDbArc
50
73.741116
51
76.11346
0
ARC
5
B1
100
AcDbEntity
8
1
62
256
6
ByLayer
370
18
48
1
60
0
100
AcDbCircle
39
0
10
27
20
119.899931
30
0
40
10
210
0
220
0
230
1
100
AcDbArc
50
103.88654
51
106.258884
0
ARC
5
B2
100
AcDbEntity
8
1
62
256
6
ByLayer
370
18
48
1
60
0
100
AcDbCircle
39
0
10
72.832945
20
73.5
30
0
40
10
210
0
220
0
230
1
100
AcDbArc
50
13.88654
51
23.550826
0
ARC
5
B3
100
AcDbEntity
8
1
62
256
6
ByLayer
370
18
48
1
60
0
100
AcDbCircle
39
0
10
72.832945
20
73.5
30
0
40
9.99999999999998
210
0
220
0
230
1
100
AcDbArc
50
336.449174
51
346.11346
0
CIRCLE
5
A9
100
AcDbEntity
8
1
62
256
6
ByLayer
370
18
48
1
60
0
100
AcDbCircle
10
37
20
0
30
0
40
5.025
39
0
210
0
220
0
230
1
0
CIRCLE
5
AA
100
AcDbEntity
8
1
62
256
6
ByLayer
370
18
48
1
60
0
100
AcDbCircle
10
37
20
0
30
0
40
5
39
0
210
0
220
0
230
1
0
CIRCLE
5
AB
100
AcDbEntity
8
1
62
256
6
ByLayer
370
18
48
1
60
0
100
AcDbCircle
10
37
20
0
30
0
40
4.87607037279951
39
0
210
0
220
0
230
1
0
CIRCLE
5
AC
100
AcDbEntity
8
1
62
256
6
ByLayer
370
18
48
1
60
0
100
AcDbCircle
10
37
20
0
30
0
40
3.6
39
0
210
0
220
0
230
1
0
CIRCLE
5
AD
100
AcDbEntity
8
1
62
256
6
ByLayer
370
18
48
1
60
0
100
AcDbCircle
10
37
20
0
30
0
40
4.44120807570045
39
0
210
0
220
0
230
1
0
POINT
5
70
100
AcDbEntity
8
81
62
256
6
ByLayer
370
18
48
1
60
0
100
AcDbPoint
10
50
20
130
30
0
39
0
210
0
220
0
230
1
50
360
0
POINT
5
72
100
AcDbEntity
8
80
62
256
6
ByLayer
370
18
48
1
60
0
100
AcDbPoint
10
0
20
0
30
0
39
0
210
0
220
0
230
1
50
360
0
SPLINE
5
B4
100
AcDbEntity
8
SK1
62
256
6
ByLayer
370
18
48
1
60
0
100
AcDbSpline
70
4
71
3
72
28
73
24
40
0
40
0
40
0
40
0
40
0.0500491666719004
40
0.0500491666719004
40
0.150132500002006
40
0.150132500002006
40
0.250195000002231
40
0.250195000002231
40
0.350237500002508
40
0.350237500002508
40
0.450258333336174
40
0.450258333336174
40
0.550259166669893
40
0.550259166669893
40
0.650238333336929
40
0.650238333336929
40
0.750196666667354
40
0.750196666667354
40
0.850134166667761
40
0.850134166667761
40
0.950050000001486
40
0.950050000001486
40
1
40
1
40
1
40
1
41
1
10
-5.40000000000001
20
12.49325
30
0
41
1
10
-5.41000966666664
20
12.48324
30
0
41
1
10
-5.42001933333333
20
12.47323
30
0
41
1
10
-5.45004533338053
20
12.4432030000527
30
0
41
1
10
-5.47006233333335
20
12.4231866666667
30
0
41
1
10
-5.5100915000007
20
12.3831574999993
30
0
41
1
10
-5.53010433333336
20
12.3631453333333
30
0
41
1
10
-5.57012566663335
20
12.3231246666334
30
0
41
1
10
-5.59013366666667
20
12.3031156666667
30
0
41
1
10
-5.63014600003609
20
12.2631026667028
30
0
41
1
10
-5.65015066666669
20
12.243099
30
0
41
1
10
-5.69015533329997
20
12.2030949999667
30
0
41
1
10
-5.71015499999999
20
12.1830943333333
30
0
41
1
10
-5.75015066670278
20
12.1430980000361
30
0
41
1
10
-5.77014699999998
20
12.1231026666667
30
0
41
1
10
-5.81013483329792
20
12.0831154999659
30
0
41
1
10
-5.83012633333331
20
12.0631236666667
30
0
41
1
10
-5.87010550000076
20
12.0231444999994
30
0
41
1
10
-5.89009266666665
20
12.0031566666667
30
0
41
1
10
-5.93006300003614
20
11.9631856667028
30
0
41
1
10
-5.95004666666668
20
11.943203
30
0
41
1
10
-5.98002008331974
20
11.9132300833205
30
0
41
1
10
-5.99001000000001
20
11.90324
30
0
41
1
10
-6
20
11.89325
30
0
0
SPLINE
5
B5
100
AcDbEntity
8
SK1
62
256
6
ByLayer
370
18
48
1
60
0
100
AcDbSpline
70
4
71
3
72
28
73
24
40
0
40
0
40
0
40
0
40
0.0499500000000391
40
0.0499500000000391
40
0.149866666666671
40
0.149866666666671
40
0.249803333333323
40
0.249803333333323
40
0.349761666666943
40
0.349761666666943
40
0.449741666667033
40
0.449741666667033
40
0.549741666667214
40
0.549741666667214
40
0.649763333333865
40
0.649763333333865
40
0.749805000000465
40
0.749805000000465
40
0.849868333333678
40
0.849868333333678
40
0.94995166666684
40
0.94995166666684
40
1
40
1
40
1
40
1
41
1
10
-6
20
-11.89325
30
0
41
1
10
-5.99000999999998
20
-11.90324
30
0
41
1
10
-5.98002
20
-11.91323
30
0
41
1
10
-5.95004666666662
20
-11.9432033333333
30
0
41
1
10
-5.93006333333335
20
-11.9631866666667
30
0
41
1
10
-5.89009266666662
20
-12.0031573333333
30
0
41
1
10
-5.87010533333333
20
-12.0231446666667
30
0
41
1
10
-5.83012633333337
20
-12.0631236666667
30
0
41
1
10
-5.8101346666667
20
-12.0831153333333
30
0
41
1
10
-5.77014699999995
20
-12.123103
30
0
41
1
10
-5.75015099999999
20
-12.143099
30
0
41
1
10
-5.71015499999999
20
-12.183095
30
0
41
1
10
-5.690155
20
-12.203095
30
0
41
1
10
-5.65015066666669
20
-12.2430993333333
30
0
41
1
10
-5.63014633333333
20
-12.2631036666667
30
0
41
1
10
-5.59013366666667
20
-12.3031163333333
30
0
41
1
10
-5.57012533333332
20
-12.3231246666667
30
0
41
1
10
-5.53010433333336
20
-12.3631456666666
30
0
41
1
10
-5.51009166666668
20
-12.3831583333333
30
0
41
1
10
-5.47006233333335
20
-12.4231876666666
30
0
41
1
10
-5.45004566666668
20
-12.4432043333333
30
0
41
1
10
-5.42001933333333
20
-12.4732306666667
30
0
41
1
10
-5.41000966666664
20
-12.4832403333334
30
0
41
1
10
-5.40000000000001
20
-12.49325
30
0
0
SPLINE
5
B6
100
AcDbEntity
8
1
62
256
6
ByLayer
370
18
48
1
60
0
100
AcDbSpline
70
4
71
3
72
28
73
24
40
0
40
0
40
0
40
0
40
0.0499899999994443
40
0.0499899999994443
40
0.149973999998323
40
0.149973999998323
40
0.249961000002365
40
0.249961000002365
40
0.349953000001394
40
0.349953000001394
40
0.449949000000583
40
0.449949000000583
40
0.549948999999762
40
0.549948999999762
40
0.649952999998931
40
0.649952999998931
40
0.749962000002916
40
0.749962000002916
40
0.849974000001894
40
0.849974000001894
40
0.949990000000692
40
0.949990000000692
40
1
40
1
40
1
40
1
41
1
10
18.825
20
129.5
30
0
41
1
10
18.8166683333333
20
129.491668333333
30
0
41
1
10
18.8083366666667
20
129.483336666667
30
0
41
1
10
18.783341
20
129.458341
30
0
41
1
10
18.766677
20
129.441677
30
0
41
1
10
18.7333484999991
20
129.408348499999
30
0
41
1
10
18.7166843333333
20
129.391683666667
30
0
41
1
10
18.6833548333425
20
129.358353499992
30
0
41
1
10
18.6666893333333
20
129.341688333333
30
0
41
1
10
18.6333579999999
20
129.308357
30
0
41
1
10
18.616692
20
129.291691
30
0
41
1
10
18.5833593333334
20
129.258358333333
30
0
41
1
10
18.5666926666667
20
129.241691666667
30
0
41
1
10
18.5333586666667
20
129.208357666667
30
0
41
1
10
18.5166913333334
20
129.191690333333
30
0
41
1
10
18.4833558333325
20
129.158354833333
30
0
41
1
10
18.4666873333334
20
129.141687
30
0
41
1
10
18.4333501666625
20
129.108350500006
30
0
41
1
10
18.4166816666667
20
129.091681666667
30
0
41
1
10
18.3833436666666
20
129.058343666667
30
0
41
1
10
18.3666743333333
20
129.041674333333
30
0
41
1
10
18.34167
20
129.01667
30
0
41
1
10
18.333335
20
129.008335
30
0
41
1
10
18.325
20
129
30
0
0
SPLINE
5
B7
100
AcDbEntity
8
1
62
256
6
ByLayer
370
18
48
1
60
0
100
AcDbSpline
70
4
71
3
72
28
73
24
40
0
40
0
40
0
40
0
40
0.0500099999999492
40
0.0500099999999492
40
0.150025999999858
40
0.150025999999858
40
0.250037999999947
40
0.250037999999947
40
0.350045999999875
40
0.350045999999875
40
0.450049999999814
40
0.450049999999814
40
0.550049999999763
40
0.550049999999763
40
0.650045999999893
40
0.650045999999893
40
0.750037999999862
40
0.750037999999862
40
0.850026000000011
40
0.850026000000011
40
0.95001
40
0.95001
40
1
40
1
40
1
40
1
41
1
10
81.675
20
129
30
0
41
1
10
81.666665
20
129.008335
30
0
41
1
10
81.65833
20
129.01667
30
0
41
1
10
81.6333256666667
20
129.041674333333
30
0
41
1
10
81.6166563333333
20
129.058343666667
30
0
41
1
10
81.5833183333333
20
129.091681666667
30
0
41
1
10
81.5666496666666
20
129.108350333333
30
0
41
1
10
81.533313
20
129.141687
30
0
41
1
10
81.516645
20
129.158355
30
0
41
1
10
81.4833096666666
20
129.191690333333
30
0
41
1
10
81.4666423333333
20
129.208357666667
30
0
41
1
10
81.4333083333333
20
129.241691666667
30
0
41
1
10
81.4166416666666
20
129.258358333333
30
0
41
1
10
81.3833089999999
20
129.291691
30
0
41
1
10
81.366643
20
129.308357
30
0
41
1
10
81.3333116666666
20
129.341688333333
30
0
41
1
10
81.3166463333333
20
129.358353666667
30
0
41
1
10
81.2833163333333
20
129.391683666667
30
0
41
1
10
81.2666516666667
20
129.408348333333
30
0
41
1
10
81.2333229999999
20
129.441677
30
0
41
1
10
81.216659
20
129.458341
30
0
41
1
10
81.1916633333333
20
129.483336666667
30
0
41
1
10
81.1833316666667
20
129.491668333333
30
0
41
1
10
81.175
20
129.5
30
0
0
SPLINE
5
B8
100
AcDbEntity
8
SK3
62
256
6
ByLayer
370
18
48
0.05
60
0
100
AcDbSpline
70
4
71
3
72
222
73
218
40
0
40
0
40
0
40
0
40
0.0069444217864594
40
0.0069444217864594
40
0.0138888797899797
40
0.0138888797899797
40
0.0243055491370332
40
0.0243055491370332
40
0.0347222184840835
40
0.0347222184840835
40
0.0451388878311307
40
0.0451388878311307
40
0.055555557178181
40
0.055555557178181
40
0.0624999789646363
40
0.0624999789646363
40
0.0694444369681525
40
0.0694444369681525
40
0.0755208156484614
40
0.0755208156484614
40
0.0815971943287673
40
0.0815971943287673
40
0.0922309018402889
40
0.0922309018402889
40
0.102864573134749
40
0.102864573134749
40
0.110839826830764
40
0.110839826830764
40
0.118815079626171
40
0.118815079626171
40
0.130777978729072
40
0.130777978729072
40
0.14274087693128
40
0.14274087693128
40
0.154703776034175
40
0.154703776034175
40
0.166666638920007
40
0.166666638920007
40
0.173611096923502
40
0.173611096923502
40
0.180555519610609
40
0.180555519610609
40
0.186631934507968
40
0.186631934507968
40
0.192708313188276
40
0.192708313188276
40
0.203341985383453
40
0.203341985383453
40
0.21397565757863
40
0.21397565757863
40
0.221950947491711
40
0.221950947491711
40
0.229926201187734
40
0.229926201187734
40
0.241889100290656
40
0.241889100290656
40
0.253851964077323
40
0.253851964077323
40
0.265814863180245
40
0.265814863180245
40
0.277777762283167
40
0.277777762283167
40
0.284722184970293
40
0.284722184970293
40
0.291666644775339
40
0.291666644775339
40
0.297743023455658
40
0.297743023455658
40
0.303819438353033
40
0.303819438353033
40
0.31445311144907
40
0.31445311144907
40
0.325086783644272
40
0.325086783644272
40
0.33306203824108
40
0.33306203824108
40
0.341037292837889
40
0.341037292837889
40
0.353000192841628
40
0.353000192841628
40
0.364963092845368
40
0.364963092845368
40
0.376925992849108
40
0.376925992849108
40
0.388888856635794
40
0.388888856635794
40
0.395833315539987
40
0.395833315539987
40
0.402777739127987
40
0.402777739127987
40
0.408854154926176
40
0.408854154926176
40
0.414930534507313
40
0.414930534507313
40
0.425564206702495
40
0.425564206702495
40
0.43619788069947
40
0.43619788069947
40
0.444173171513312
40
0.444173171513312
40
0.452148426110095
40
0.452148426110095
40
0.464111290797651
40
0.464111290797651
40
0.476074190801348
40
0.476074190801348
40
0.488037091705949
40
0.488037091705949
40
0.499999992610544
40
0.499999992610544
40
0.506944416198508
40
0.506944416198508
40
0.513888876003524
40
0.513888876003524
40
0.519965255584641
40
0.519965255584641
40
0.526041635165759
40
0.526041635165759
40
0.536675345379767
40
0.536675345379767
40
0.547309019376731
40
0.547309019376731
40
0.555284273973517
40
0.555284273973517
40
0.56325952947124
40
0.56325952947124
40
0.575222431276872
40
0.575222431276872
40
0.587185295964435
40
0.587185295964435
40
0.599148196869048
40
0.599148196869048
40
0.611111098674686
40
0.611111098674686
40
0.618055522262675
40
0.618055522262675
40
0.624999982968761
40
0.624999982968761
40
0.631076362549894
40
0.631076362549894
40
0.63715277924911
40
0.63715277924911
40
0.647786453246084
40
0.647786453246084
40
0.65842012814414
40
0.65842012814414
40
0.666395383641871
40
0.666395383641871
40
0.674370639139596
40
0.674370639139596
40
0.68633354094523
40
0.68633354094523
40
0.698296442750865
40
0.698296442750865
40
0.710259309240582
40
0.710259309240582
40
0.722222211046217
40
0.722222211046217
40
0.729166671752295
40
0.729166671752295
40
0.73611109624132
40
0.73611109624132
40
0.74218747582244
40
0.74218747582244
40
0.748263892521643
40
0.748263892521643
40
0.758897567419688
40
0.758897567419688
40
0.769531242317732
40
0.769531242317732
40
0.777506498716557
40
0.777506498716557
40
0.785481755115381
40
0.785481755115381
40
0.79744465782214
40
0.79744465782214
40
0.809407559627772
40
0.809407559627772
40
0.821370426117485
40
0.821370426117485
40
0.833333328824245
40
0.833333328824245
40
0.840277790431556
40
0.840277790431556
40
0.847222214920585
40
0.847222214920585
40
0.853298595402756
40
0.853298595402756
40
0.85937501210198
40
0.85937501210198
40
0.870008687901249
40
0.870008687901249
40
0.880642363700518
40
0.880642363700518
40
0.888617620099356
40
0.888617620099356
40
0.896592876498196
40
0.896592876498196
40
0.908555780106215
40
0.908555780106215
40
0.920518646595951
40
0.920518646595951
40
0.932481550203971
40
0.932481550203971
40
0.944444453811997
40
0.944444453811997
40
0.951388878301043
40
0.951388878301043
40
0.958333339908377
40
0.958333339908377
40
0.96875001376021
40
0.96875001376021
40
0.979166687612037
40
0.979166687612037
40
0.989583326148161
40
0.989583326148161
40
1
40
1
40
1
40
1
41
1
10
66.839945
20
100.6
30
0
41
1
10
66.8415333333333
20
100.663875333333
30
0
41
1
10
66.8431216666667
20
100.727750666667
30
0
41
1
10
66.846298341617
20
100.855501666461
30
0
41
1
10
66.8478866666667
20
100.919377333333
30
0
41
1
10
66.8518574959612
20
101.079066337578
30
0
41
1
10
66.8542403333333
20
101.174879666667
30
0
41
1
10
66.8590056666667
20
101.366506333333
30
0
41
1
10
66.8613883333333
20
101.462319666667
30
0
41
1
10
66.8661536666667
20
101.653946333333
30
0
41
1
10
66.8685363333333
20
101.749759666667
30
0
41
1
10
66.8733016666667
20
101.941386333333
30
0
41
1
10
66.8756843333334
20
102.037199666667
30
0
41
1
10
66.879655438853
20
102.196888330709
30
0
41
1
10
66.8812436666666
20
102.260763666667
30
0
41
1
10
66.884420341617
20
102.388514666461
30
0
41
1
10
66.8860086666667
20
102.452390333333
30
0
41
1
10
66.8889867866181
20
102.572157005306
30
0
41
1
10
66.890377
20
102.628048
30
0
41
1
10
66.893157
20
102.73983
30
0
41
1
10
66.894547
20
102.795721
30
0
41
1
10
66.898369510253
20
102.949421662267
30
0
41
1
10
66.9008016666667
20
103.047231333333
30
0
41
1
10
66.9056663250491
20
103.242850333539
30
0
41
1
10
66.9080986666667
20
103.340659666667
30
0
41
1
10
66.9123552500515
20
103.511826002071
30
0
41
1
10
66.9141796666667
20
103.585183
30
0
41
1
10
66.9178283331273
20
103.731896991716
30
0
41
1
10
66.919652
20
103.805254
30
0
41
1
10
66.9242120045535
20
103.988646683132
30
0
41
1
10
66.9269493333333
20
104.098682333333
30
0
41
1
10
66.9324226664606
20
104.318753658382
30
0
41
1
10
66.9351586666666
20
104.428789333333
30
0
41
1
10
66.9406313335393
20
104.648860674951
30
0
41
1
10
66.9433683333334
20
104.758896333333
30
0
41
1
10
66.9488416583815
20
104.978967333539
30
0
41
1
10
66.9515783333333
20
105.089002666667
30
0
41
1
10
66.9559036386827
20
105.262913659073
30
0
41
1
10
66.9574916666667
20
105.326789333333
30
0
41
1
10
66.9606683252557
20
105.454540341824
30
0
41
1
10
66.9622573333333
20
105.518415666667
30
0
41
1
10
66.9652360936385
20
105.638182331005
30
0
41
1
10
66.966626
20
105.694073666667
30
0
41
1
10
66.9694059917152
20
105.805856000206
30
0
41
1
10
66.970796
20
105.861747
30
0
41
1
10
66.9746185021743
20
106.015447337424
30
0
41
1
10
66.9770513333334
20
106.113256666667
30
0
41
1
10
66.9819166666667
20
106.308875333333
30
0
41
1
10
66.9843493333333
20
106.406684666667
30
0
41
1
10
66.9886065081823
20
106.577851328985
30
0
41
1
10
66.9904306666667
20
106.651208666667
30
0
41
1
10
66.9940793250487
20
106.797923000206
30
0
41
1
10
66.9959036666666
20
106.87128
30
0
41
1
10
67.0004645042454
20
107.054672670706
30
0
41
1
10
67.0032013333334
20
107.164708333333
30
0
41
1
10
67.0086746585876
20
107.384779341825
30
0
41
1
10
67.011412
20
107.494814666667
30
0
41
1
10
67.01688600808
20
107.714885658175
30
0
41
1
10
67.0196223333333
20
107.824921333333
30
0
41
1
10
67.0250956666667
20
108.044992666667
30
0
41
1
10
67.0278323333334
20
108.155028333333
30
0
41
1
10
67.0321576257941
20
108.32893933435
30
0
41
1
10
67.0337463333333
20
108.392814666667
30
0
41
1
10
67.0369236751581
20
108.520565674747
30
0
41
1
10
67.038513
20
108.584441333333
30
0
41
1
10
67.0414923695887
20
108.704207990807
30
0
41
1
10
67.042882
20
108.760099
30
0
41
1
10
67.0456620082848
20
108.871881333127
30
0
41
1
10
67.047052
20
108.927772666667
30
0
41
1
10
67.050874487882
20
109.081473346071
30
0
41
1
10
67.053308
20
109.179282666667
30
0
41
1
10
67.0581739997939
20
109.374901325047
30
0
41
1
10
67.0606063333333
20
109.472710666667
30
0
41
1
10
67.0648635001031
20
109.643877004143
30
0
41
1
10
67.0666883333334
20
109.717234
30
0
41
1
10
67.0703376666666
20
109.863948
30
0
41
1
10
67.0721623333333
20
109.937305
30
0
41
1
10
67.076724004143
20
110.120697666564
30
0
41
1
10
67.079461
20
110.230733333333
30
0
41
1
10
67.084935
20
110.450804666667
30
0
41
1
10
67.087672
20
110.560840333333
30
0
41
1
10
67.093146
20
110.780911666667
30
0
41
1
10
67.095883
20
110.890947333333
30
0
41
1
10
67.1013569917138
20
111.111018333539
30
0
41
1
10
67.104094
20
111.221053666667
30
0
41
1
10
67.1084198322696
20
111.394964662548
30
0
41
1
10
67.1100083333334
20
111.458840333333
30
0
41
1
10
67.1131856585874
20
111.586591341826
30
0
41
1
10
67.114775
20
111.650466666667
30
0
41
1
10
67.117754385333
20
111.77023333204
30
0
41
1
10
67.1191446666667
20
111.826124666667
30
0
41
1
10
67.1219253250466
20
111.937907000206
30
0
41
1
10
67.1233156666667
20
111.993798
30
0
41
1
10
67.1271390851474
20
112.147498322924
30
0
41
1
10
67.1295713333333
20
112.245307666667
30
0
41
1
10
67.1344366670788
20
112.440926349906
30
0
41
1
10
67.1368706666667
20
112.538735666667
30
0
41
1
10
67.1411290080815
20
112.70990232484
30
0
41
1
10
67.1429533333333
20
112.783259666667
30
0
41
1
10
67.1466026583805
20
112.929974000206
30
0
41
1
10
67.1484273333334
20
113.003331
30
0
41
1
10
67.1529889960631
20
113.186723341723
30
0
41
1
10
67.1557266666667
20
113.296758666667
30
0
41
1
10
67.1612013414143
20
113.516829658174
30
0
41
1
10
67.163938
20
113.626865333333
30
0
41
1
10
67.1694120002061
20
113.846936674953
30
0
41
1
10
67.1721496666667
20
113.956972333333
30
0
41
1
10
67.1776243333333
20
114.177043666667
30
0
41
1
10
67.1803616666667
20
114.287079333333
30
0
41
1
10
67.1846880127586
20
114.460990333016
30
0
41
1
10
67.186277
20
114.524865666667
30
0
41
1
10
67.1894550082871
20
114.652616666461
30
0
41
1
10
67.191044
20
114.716492333333
30
0
41
1
10
67.1940233697949
20
114.836258999093
30
0
41
1
10
67.1954136666667
20
114.89215
30
0
41
1
10
67.1981943333333
20
115.003932
30
0
41
1
10
67.1995846666666
20
115.059823
30
0
41
1
10
67.2034080938465
20
115.213523672624
30
0
41
1
10
67.2058416666667
20
115.311333333333
30
0
41
1
10
67.2107083250457
20
115.50695233354
30
0
41
1
10
67.2131416666667
20
115.604761666667
30
0
41
1
10
67.2173999997938
20
115.775927991713
30
0
41
1
10
67.2192243333333
20
115.849285
30
0
41
1
10
67.2228736668728
20
115.995999008287
30
0
41
1
10
67.224699
20
116.069356
30
0
41
1
10
67.2292615042469
20
116.252748670708
30
0
41
1
10
67.2319993333333
20
116.362784333333
30
0
41
1
10
67.2374746581723
20
116.582855325252
30
0
41
1
10
67.2402116666667
20
116.692890666667
30
0
41
1
10
67.2456863416205
20
116.912961666461
30
0
41
1
10
67.2484236666666
20
117.022997333333
30
0
41
1
10
67.2538983335395
20
117.243068674954
30
0
41
1
10
67.2566363333333
20
117.353104333333
30
0
41
1
10
67.2609632061378
20
117.527015328205
30
0
41
1
10
67.262552
20
117.590890666667
30
0
41
1
10
67.2657300084933
20
117.718641674748
30
0
41
1
10
67.2673196666667
20
117.782517333333
30
0
41
1
10
67.27029966128
20
117.902283991841
30
0
41
1
10
67.2716896666667
20
117.958175
30
0
41
1
10
67.2744703418263
20
118.069957341415
30
0
41
1
10
67.2758613333334
20
118.125848666667
30
0
41
1
10
67.2796856540272
20
118.279549325354
30
0
41
1
10
67.2821186666666
20
118.377358666667
30
0
41
1
10
67.2869853335396
20
118.572977341622
30
0
41
1
10
67.2894193333333
20
118.670786666667
30
0
41
1
10
67.2936782498454
20
118.841952993784
30
0
41
1
10
67.295503
20
118.91531
30
0
41
1
10
67.299153
20
119.062024
30
0
41
1
10
67.3009779999999
20
119.135381
30
0
41
1
10
67.305540504247
20
119.318773670708
30
0
41
1
10
67.3082783333333
20
119.428809333333
30
0
41
1
10
67.3137536666667
20
119.648880666667
30
0
41
1
10
67.3164913333334
20
119.758916333333
30
0
41
1
10
67.3219666585847
20
119.978987341828
30
0
41
1
10
67.3247050000001
20
120.089022666667
30
0
41
1
10
67.3301810080829
20
120.309093658172
30
0
41
1
10
67.3329183333333
20
120.419129333333
30
0
41
1
10
67.3372452146322
20
120.59304066962
30
0
41
1
10
67.3388346666666
20
120.656916333333
30
0
41
1
10
67.3420133250446
20
120.78466733354
30
0
41
1
10
67.3436026666666
20
120.848542666667
30
0
41
1
10
67.3465826685327
20
120.968308991661
30
0
41
1
10
67.3479726666666
20
121.0242
30
0
41
1
10
67.3507533418263
20
121.135982341415
30
0
41
1
10
67.3521443333333
20
121.191873666667
30
0
41
1
10
67.3559686542336
20
121.345574333643
30
0
41
1
10
67.3584023333333
20
121.443383666667
30
0
41
1
10
67.3632696666667
20
121.639002333333
30
0
41
1
10
67.3657033333333
20
121.736811666667
30
0
41
1
10
67.3699622500516
20
121.907978002072
30
0
41
1
10
67.3717876666666
20
121.981335
30
0
41
1
10
67.3754383333333
20
122.128049
30
0
41
1
10
67.3772636666667
20
122.201406
30
0
41
1
10
67.3818270041446
20
122.384798666563
30
0
41
1
10
67.384565
20
122.494834333333
30
0
41
1
10
67.3900409997937
20
122.714905658378
30
0
41
1
10
67.3927783333333
20
122.824941333333
30
0
41
1
10
67.3982536585847
20
123.045012341828
30
0
41
1
10
67.400992
20
123.155047666667
30
0
41
1
10
67.4064680082892
20
123.37511866646
30
0
41
1
10
67.409206
20
123.485154333333
30
0
41
1
10
67.4135334082187
20
123.659065673098
30
0
41
1
10
67.4151233333333
20
123.722941333333
30
0
41
1
10
67.4183026581699
20
123.85069232525
30
0
41
1
10
67.4198916666666
20
123.914567666667
30
0
41
1
10
67.4228716687389
20
124.034333999949
30
0
41
1
10
67.4242623333333
20
124.090225
30
0
41
1
10
67.4270436749555
20
124.202007333127
30
0
41
1
10
67.4284343333333
20
124.257898666667
30
0
41
1
10
67.4322586544398
20
124.411599341932
30
0
41
1
10
67.434693
20
124.509408666667
30
0
41
1
10
67.439561
20
124.705027333333
30
0
41
1
10
67.441995
20
124.802836666667
30
0
41
1
10
67.4462544998968
20
124.974002995855
30
0
41
1
10
67.4480796666667
20
125.04736
30
0
41
1
10
67.4517303333333
20
125.194074
30
0
41
1
10
67.4535556666667
20
125.267431
30
0
41
1
10
67.4581190043508
20
125.450823674853
30
0
41
1
10
67.4608576666666
20
125.560859333333
30
0
41
1
10
67.4663343248369
20
125.78093032525
30
0
41
1
10
67.469072
20
125.890965666667
30
0
41
1
10
67.4745480084954
20
126.11103667475
30
0
41
1
10
67.4772866666667
20
126.221072333333
30
0
41
1
10
67.4827633333334
20
126.441143666667
30
0
41
1
10
67.4855016666667
20
126.551179333333
30
0
41
1
10
67.4898295931023
20
126.725090326869
30
0
41
1
10
67.4914186666667
20
126.788965666667
30
0
41
1
10
67.4945973418284
20
126.91671667475
30
0
41
1
10
67.4961873333333
20
126.980592333333
30
0
41
1
10
67.5001614957516
20
127.140281329291
30
0
41
1
10
67.5025456666667
20
127.236094666667
30
0
41
1
10
67.5073143333333
20
127.427721333333
30
0
41
1
10
67.5096986666667
20
127.523534666667
30
0
41
1
10
67.5144673252497
20
127.715161008497
30
0
41
1
10
67.5168523333334
20
127.810974
30
0
41
1
10
67.5216216747514
20
128.002600324836
30
0
41
1
10
67.5240056666667
20
128.098413666667
30
0
41
1
10
67.52639
20
128.194227
30
0
0
SPLINE
5
BA
100
AcDbEntity
8
SK3
62
256
6
ByLayer
370
18
48
0.05
60
0
100
AcDbSpline
70
4
71
3
72
254
73
250
40
0
40
0
40
0
40
0
40
0.00694442526585
40
0.00694442526585
40
0.0138888867487228
40
0.0138888867487228
40
0.0243055613153783
40
0.0243055613153783
40
0.0347221996650065
40
0.0347221996650065
40
0.0451388733299411
40
0.0451388733299411
40
0.0555555478965842
40
0.0555555478965842
40
0.0625000093794426
40
0.0625000093794426
40
0.0694444346452784
40
0.0694444346452784
40
0.0755208152436113
40
0.0755208152436113
40
0.0815972329606422
40
0.0815972329606422
40
0.0922309085127656
40
0.0922309085127656
40
0.102864584966587
40
0.102864584966587
40
0.110839841856094
40
0.110839841856094
40
0.118815098745601
40
0.118815098745601
40
0.124796532133065
40
0.124796532133065
40
0.130778001737561
40
0.130778001737561
40
0.139750170378118
40
0.139750170378118
40
0.148722338117053
40
0.148722338117053
40
0.15769450675761
40
0.15769450675761
40
0.166666674496546
40
0.166666674496546
40
0.173611099762387
40
0.173611099762387
40
0.180555560343639
40
0.180555560343639
40
0.186631940941976
40
0.186631940941976
40
0.192708322442004
40
0.192708322442004
40
0.20334203330961
40
0.20334203330961
40
0.213975708861758
40
0.213975708861758
40
0.221950964849683
40
0.221950964849683
40
0.229926221739203
40
0.229926221739203
40
0.235907654225157
40
0.235907654225157
40
0.241889123829644
40
0.241889123829644
40
0.250861291568551
40
0.250861291568551
40
0.259833459307451
40
0.259833459307451
40
0.268805627046351
40
0.268805627046351
40
0.277777794785252
40
0.277777794785252
40
0.284722219149449
40
0.284722219149449
40
0.29166667973068
40
0.29166667973068
40
0.297743060329001
40
0.297743060329001
40
0.303819440927321
40
0.303819440927321
40
0.314453151794898
40
0.314453151794898
40
0.325086826445441
40
0.325086826445441
40
0.333062081531917
40
0.333062081531917
40
0.341037337519824
40
0.341037337519824
40
0.347018770907281
40
0.347018770907281
40
0.35300023961026
40
0.35300023961026
40
0.361972406447698
40
0.361972406447698
40
0.370944574186617
40
0.370944574186617
40
0.379916741024061
40
0.379916741024061
40
0.388888907861505
40
0.388888907861505
40
0.395833332225712
40
0.395833332225712
40
0.402777792806947
40
0.402777792806947
40
0.408854172503809
40
0.408854172503809
40
0.414930552200671
40
0.414930552200671
40
0.42556426216682
40
0.42556426216682
40
0.436197936817397
40
0.436197936817397
40
0.444173191903898
40
0.444173191903898
40
0.4521484469904
40
0.4521484469904
40
0.458129879476365
40
0.458129879476365
40
0.464111348179368
40
0.464111348179368
40
0.47308351501685
40
0.47308351501685
40
0.482055681854332
40
0.482055681854332
40
0.491027847790484
40
0.491027847790484
40
0.500000014627967
40
0.500000014627967
40
0.506944474307812
40
0.506944474307812
40
0.513888897770625
40
0.513888897770625
40
0.519965277467511
40
0.519965277467511
40
0.526041693381428
40
0.526041693381428
40
0.536675367130572
40
0.536675367130572
40
0.547309039978394
40
0.547309039978394
40
0.555284295064914
40
0.555284295064914
40
0.563259550151428
40
0.563259550151428
40
0.569241017953144
40
0.569241017953144
40
0.575222450439119
40
0.575222450439119
40
0.584194616375271
40
0.584194616375271
40
0.593166782311422
40
0.593166782311422
40
0.602138948247567
40
0.602138948247567
40
0.611111114183712
40
0.611111114183712
40
0.618055573863552
40
0.618055573863552
40
0.62500003264215
40
0.62500003264215
40
0.631076412339032
40
0.631076412339032
40
0.637152791134656
40
0.637152791134656
40
0.647786463982459
40
0.647786463982459
40
0.658420136830262
40
0.658420136830262
40
0.666395427232538
40
0.666395427232538
40
0.674370681417772
40
0.674370681417772
40
0.680352113002436
40
0.680352113002436
40
0.686333581705418
40
0.686333581705418
40
0.695305746740342
40
0.695305746740342
40
0.704277912676443
40
0.704277912676443
40
0.713250077711361
40
0.713250077711361
40
0.722222243647463
40
0.722222243647463
40
0.729166666208998
40
0.729166666208998
40
0.736111124987569
40
0.736111124987569
40
0.742187503783169
40
0.742187503783169
40
0.748263918795813
40
0.748263918795813
40
0.758897590742377
40
0.758897590742377
40
0.769531262688946
40
0.769531262688946
40
0.777506516874165
40
0.777506516874165
40
0.785481770158281
40
0.785481770158281
40
0.791463237959964
40
0.791463237959964
40
0.797444669544604
40
0.797444669544604
40
0.80641683457951
40
0.80641683457951
40
0.815388999614422
40
0.815388999614422
40
0.824361164649334
40
0.824361164649334
40
0.833333365901289
40
0.833333365901289
40
0.840277787561768
40
0.840277787561768
40
0.847222246340338
40
0.847222246340338
40
0.853298625135939
40
0.853298625135939
40
0.859375003030514
40
0.859375003030514
40
0.870008711194125
40
0.870008711194125
40
0.88064238223963
40
0.88064238223963
40
0.88861763552376
40
0.88861763552376
40
0.896592888807883
40
0.896592888807883
40
0.902574355708511
40
0.902574355708511
40
0.908555787293174
40
0.908555787293174
40
0.91752795142708
40
0.91752795142708
40
0.926500115560986
40
0.926500115560986
40
0.935472280595926
40
0.935472280595926
40
0.944444444729832
40
0.944444444729832
40
0.951388902607374
40
0.951388902607374
40
0.958333360484908
40
0.958333360484908
40
0.968749993426134
40
0.968749993426134
40
0.979166662584407
40
0.979166662584407
40
0.98958333084173
40
0.98958333084173
40
1
40
1
40
1
40
1
41
1
10
32.47504
20
128.194227
30
0
41
1
10
32.4766303333333
20
128.130351666667
30
0
41
1
10
32.4782206666667
20
128.066476333333
30
0
41
1
10
32.4814013416273
20
127.93872533354
30
0
41
1
10
32.4829916666666
20
127.874849666667
30
0
41
1
10
32.4869674959563
20
127.715160662416
30
0
41
1
10
32.4893533333333
20
127.619347333333
30
0
41
1
10
32.4941246583721
20
127.427720999793
30
0
41
1
10
32.4965103333333
20
127.331908
30
0
41
1
10
32.5012816747548
20
127.140281675167
30
0
41
1
10
32.5036666666667
20
127.044468333333
30
0
41
1
10
32.5084373335399
20
126.852841658373
30
0
41
1
10
32.5108233333333
20
126.757028333333
30
0
41
1
10
32.5147994471405
20
126.597339336167
30
0
41
1
10
32.5163896666667
20
126.533463666667
30
0
41
1
10
32.5195703250394
20
126.40571266646
30
0
41
1
10
32.5211606666667
20
126.341837333333
30
0
41
1
10
32.524142543611
20
126.222071005235
30
0
41
1
10
32.5255336666667
20
126.16618
30
0
41
1
10
32.5283163418326
20
126.054397658579
30
0
41
1
10
32.5297083333334
20
125.998506333333
30
0
41
1
10
32.5335354039664
20
125.844805676724
30
0
41
1
10
32.53597
20
125.746996333333
30
0
41
1
10
32.5408400002065
20
125.551377658373
30
0
41
1
10
32.5432756666667
20
125.453568333333
30
0
41
1
10
32.5475374998967
20
125.282402004147
30
0
41
1
10
32.5493636666667
20
125.209045
30
0
41
1
10
32.5530163333334
20
125.062331
30
0
41
1
10
32.5548426666666
20
124.988974
30
0
41
1
10
32.558038747875
20
124.860599335355
30
0
41
1
10
32.5594083333334
20
124.805581666667
30
0
41
1
10
32.5621476749598
20
124.695546000207
30
0
41
1
10
32.5635173333333
20
124.640528
30
0
41
1
10
32.5669414918101
20
124.50298332898
30
0
41
1
10
32.5689963333334
20
124.420456666667
30
0
41
1
10
32.5731056664602
20
124.255403341627
30
0
41
1
10
32.5751596666667
20
124.172876666667
30
0
41
1
10
32.5792683335397
20
124.00782332504
30
0
41
1
10
32.5813233333333
20
123.925296666667
30
0
41
1
10
32.5854326664602
20
123.760243341627
30
0
41
1
10
32.5874866666667
20
123.677716666667
30
0
41
1
10
32.5911310465439
20
123.531314659527
30
0
41
1
10
32.5927216666667
20
123.467439333333
30
0
41
1
10
32.5959023414208
20
123.339688341833
30
0
41
1
10
32.597492
20
123.275812666667
30
0
41
1
10
32.600473244869
20
123.156045997798
30
0
41
1
10
32.6018646666667
20
123.100155
30
0
41
1
10
32.6046473335397
20
122.988372991706
30
0
41
1
10
32.6060393333333
20
122.932482
30
0
41
1
10
32.6098664265705
20
122.778781352252
30
0
41
1
10
32.6123003333333
20
122.680971666667
30
0
41
1
10
32.6171696585809
20
122.485352658168
30
0
41
1
10
32.619605
20
122.387543333333
30
0
41
1
10
32.6238662498452
20
122.21637700622
30
0
41
1
10
32.625692
20
122.14302
30
0
41
1
10
32.6293440002065
20
121.996305991707
30
0
41
1
10
32.6311706666667
20
121.922949
30
0
41
1
10
32.6343667476685
20
121.794574343647
30
0
41
1
10
32.6357356666667
20
121.739556666667
30
0
41
1
10
32.6384743418309
20
121.629520991914
30
0
41
1
10
32.6398443333333
20
121.574503
30
0
41
1
10
32.6432684916036
20
121.436958337273
30
0
41
1
10
32.6453226666667
20
121.354431666667
30
0
41
1
10
32.6494313333333
20
121.189378333333
30
0
41
1
10
32.6514856666667
20
121.106851666667
30
0
41
1
10
32.6555943333333
20
120.941798333333
30
0
41
1
10
32.6576486666667
20
120.859271666667
30
0
41
1
10
32.6617573333333
20
120.694218333333
30
0
41
1
10
32.6638116666667
20
120.611691666667
30
0
41
1
10
32.6674560463374
20
120.46528966782
30
0
41
1
10
32.669046
20
120.401414333333
30
0
41
1
10
32.6722260082922
20
120.27366333354
30
0
41
1
10
32.673816
20
120.209787666667
30
0
41
1
10
32.676797244869
20
120.090020997798
30
0
41
1
10
32.6781886666667
20
120.03413
30
0
41
1
10
32.6809713333333
20
119.922348
30
0
41
1
10
32.6823626666667
20
119.866457
30
0
41
1
10
32.6861888435961
20
119.712756337738
30
0
41
1
10
32.6886233333333
20
119.614946666667
30
0
41
1
10
32.6934926583745
20
119.41932766646
30
0
41
1
10
32.6959273333333
20
119.321518333333
30
0
41
1
10
32.7001879997936
20
119.150352008291
30
0
41
1
10
32.7020133333333
20
119.076995
30
0
41
1
10
32.705664666873
20
118.930280991709
30
0
41
1
10
32.707491
20
118.856924
30
0
41
1
10
32.7106864980302
20
118.728549329135
30
0
41
1
10
32.7120563333334
20
118.673531666667
30
0
41
1
10
32.7147956747534
20
118.563496008499
30
0
41
1
10
32.7161646666667
20
118.508478
30
0
41
1
10
32.7195879917089
20
118.370933333127
30
0
41
1
10
32.721642
20
118.288406666667
30
0
41
1
10
32.7257500002064
20
118.123353325041
30
0
41
1
10
32.7278046666667
20
118.040826666667
30
0
41
1
10
32.7319133331269
20
117.875773341625
30
0
41
1
10
32.733967
20
117.793246666667
30
0
41
1
10
32.738075
20
117.628193333333
30
0
41
1
10
32.740129
20
117.545666666667
30
0
41
1
10
32.7437727884985
20
117.399264661402
30
0
41
1
10
32.745363
20
117.335389333333
30
0
41
1
10
32.7485430082922
20
117.20763833354
30
0
41
1
10
32.7501329999999
20
117.143762666667
30
0
41
1
10
32.7531142446625
20
117.02399600609
30
0
41
1
10
32.754505
20
116.968105
30
0
41
1
10
32.757287
20
116.856323
30
0
41
1
10
32.758678
20
116.800432
30
0
41
1
10
32.762503260415
20
116.646731331518
30
0
41
1
10
32.7649376666666
20
116.548921666667
30
0
41
1
10
32.7698063252487
20
116.353302658169
30
0
41
1
10
32.7722413333333
20
116.255493333333
30
0
41
1
10
32.7765019997936
20
116.084327008291
30
0
41
1
10
32.7783273333333
20
116.01097
30
0
41
1
10
32.7819786666667
20
115.864256
30
0
41
1
10
32.7838043333333
20
115.790899
30
0
41
1
10
32.7869992479789
20
115.662524331209
30
0
41
1
10
32.7883686666667
20
115.607506666667
30
0
41
1
10
32.7911073416245
20
115.497471000206
30
0
41
1
10
32.7924766666666
20
115.442453
30
0
41
1
10
32.7958999917088
20
115.304908333127
30
0
41
1
10
32.797954
20
115.222381666667
30
0
41
1
10
32.802062
20
115.057328333333
30
0
41
1
10
32.804116
20
114.974801666667
30
0
41
1
10
32.8082239997937
20
114.809748341624
30
0
41
1
10
32.8102773333333
20
114.727221666667
30
0
41
1
10
32.8143846668729
20
114.562168325043
30
0
41
1
10
32.816439
20
114.479641666667
30
0
41
1
10
32.8200827965832
20
114.333239336567
30
0
41
1
10
32.8216723333333
20
114.269363666667
30
0
41
1
10
32.8248516583762
20
114.14161266646
30
0
41
1
10
32.8264413333333
20
114.077737333333
30
0
41
1
10
32.8294219604318
20
113.957970999015
30
0
41
1
10
32.830813
20
113.90208
30
0
41
1
10
32.8335950082908
20
113.790297666873
30
0
41
1
10
32.834986
20
113.734406333333
30
0
41
1
10
32.8388112376155
20
113.580705664284
30
0
41
1
10
32.8412456666667
20
113.482896333333
30
0
41
1
10
32.846114333127
20
113.287277674957
30
0
41
1
10
32.848548
20
113.189468333333
30
0
41
1
10
32.8528075001031
20
113.018301995855
30
0
41
1
10
32.8546333333333
20
112.944945
30
0
41
1
10
32.8582846666666
20
112.798231
30
0
41
1
10
32.8601103333334
20
112.724874
30
0
41
1
10
32.8633052560633
20
112.596499006372
30
0
41
1
10
32.864674
20
112.541481
30
0
41
1
10
32.8674119919172
20
112.431445324837
30
0
41
1
10
32.8687816666667
20
112.376427666667
30
0
41
1
10
32.8722050039393
20
112.238883341727
30
0
41
1
10
32.8742583333333
20
112.156356666667
30
0
41
1
10
32.8783656666666
20
111.991303333333
30
0
41
1
10
32.8804193333334
20
111.908776666667
30
0
41
1
10
32.8845266666667
20
111.743723333333
30
0
41
1
10
32.8865803333334
20
111.661196666667
30
0
41
1
10
32.8906876666666
20
111.496143333333
30
0
41
1
10
32.8927413333333
20
111.413616666667
30
0
41
1
10
32.8963845387428
20
111.26721433015
30
0
41
1
10
32.8979743333333
20
111.203338666667
30
0
41
1
10
32.9011536664604
20
111.075587341623
30
0
41
1
10
32.9027426666667
20
111.011711666667
30
0
41
1
10
32.9057226616924
20
110.891944991581
30
0
41
1
10
32.907114
20
110.836054
30
0
41
1
10
32.9098959997937
20
110.72427200829
30
0
41
1
10
32.9112863333333
20
110.668381
30
0
41
1
10
32.9151106689451
20
110.514680658429
30
0
41
1
10
32.917545
20
110.416871333333
30
0
41
1
10
32.922413
20
110.221252666667
30
0
41
1
10
32.924847
20
110.123443333333
30
0
41
1
10
32.9291065081867
20
109.952276671018
30
0
41
1
10
32.9309316666667
20
109.878919333333
30
0
41
1
10
32.9345823250442
20
109.732204999794
30
0
41
1
10
32.9364076666666
20
109.658848
30
0
41
1
10
32.9396019979277
20
109.530473333282
30
0
41
1
10
32.9409709999999
20
109.475455666667
30
0
41
1
10
32.9437090084956
20
109.365419991916
30
0
41
1
10
32.9450786666667
20
109.310402
30
0
41
1
10
32.9485019912961
20
109.172857349707
30
0
41
1
10
32.9505546666666
20
109.090330666667
30
0
41
1
10
32.9546613335396
20
108.925277325044
30
0
41
1
10
32.9567153333334
20
108.842750666667
30
0
41
1
10
32.9608226664604
20
108.677697341623
30
0
41
1
10
32.9628756666667
20
108.595170666667
30
0
41
1
10
32.9669823335395
20
108.430117325044
30
0
41
1
10
32.9690363333333
20
108.347590666667
30
0
41
1
10
32.9726795302467
20
108.201188671566
30
0
41
1
10
32.9742686666667
20
108.137313333333
30
0
41
1
10
32.9774473416222
20
108.00956233354
30
0
41
1
10
32.9790366666667
20
107.945686666667
30
0
41
1
10
32.9820166614861
20
107.825919999871
30
0
41
1
10
32.9834073333333
20
107.770029
30
0
41
1
10
32.9861886749555
20
107.658246666873
30
0
41
1
10
32.9875793333334
20
107.602355333333
30
0
41
1
10
32.9914036542335
20
107.448654666357
30
0
41
1
10
32.9938373333333
20
107.350845333333
30
0
41
1
10
32.9987046666666
20
107.155226666667
30
0
41
1
10
33.0011383333334
20
107.057417333333
30
0
41
1
10
33.0053972500516
20
106.886250997928
30
0
41
1
10
33.0072226666667
20
106.812894
30
0
41
1
10
33.0108733331271
20
106.666180008288
30
0
41
1
10
33.0126979999999
20
106.592823
30
0
41
1
10
33.0158917563704
20
106.464447993938
30
0
41
1
10
33.017261
20
106.40943
30
0
41
1
10
33.0199989917108
20
106.299394333127
30
0
41
1
10
33.021368
20
106.244376666667
30
0
41
1
10
33.0247905040415
20
106.106832337581
30
0
41
1
10
33.0268436666667
20
106.024305666667
30
0
41
1
10
33.0309503333333
20
105.859252333333
30
0
41
1
10
33.0330036666666
20
105.776725666667
30
0
41
1
10
33.0371103333334
20
105.611672333333
30
0
41
1
10
33.0391636666667
20
105.529145666667
30
0
41
1
10
33.0432703416218
20
105.364092000206
30
0
41
1
10
33.0453236666667
20
105.281565
30
0
41
1
10
33.0489662657861
20
105.135162673279
30
0
41
1
10
33.050555
20
105.071287333333
30
0
41
1
10
33.0537330084933
20
104.943536325252
30
0
41
1
10
33.0553226666666
20
104.879660666667
30
0
41
1
10
33.0583026614862
20
104.759893999871
30
0
41
1
10
33.0596933333333
20
104.704003
30
0
41
1
10
33.0624746664605
20
104.592221008288
30
0
41
1
10
33.0638646666666
20
104.53633
30
0
41
1
10
33.0676880940526
20
104.382629319087
30
0
41
1
10
33.0701223333334
20
104.284819666667
30
0
41
1
10
33.0749896581717
20
104.089200674749
30
0
41
1
10
33.0774226666667
20
103.991391333333
30
0
41
1
10
33.081681
20
103.820225
30
0
41
1
10
33.083506
20
103.746868
30
0
41
1
10
33.087156
20
103.600154
30
0
41
1
10
33.088981
20
103.526797
30
0
41
1
10
33.0921747561642
20
103.398422002226
30
0
41
1
10
33.0935433333333
20
103.343404
30
0
41
1
10
33.0962806585858
20
103.233368324839
30
0
41
1
10
33.09765
20
103.178350666667
30
0
41
1
10
33.1010725038353
20
103.040806345869
30
0
41
1
10
33.103125
20
102.958279666667
30
0
41
1
10
33.107231
20
102.793226333333
30
0
41
1
10
33.109284
20
102.710699666667
30
0
41
1
10
33.1133900002062
20
102.545646325045
30
0
41
1
10
33.1154436666667
20
102.463119666667
30
0
41
1
10
33.1195503331271
20
102.298066341621
30
0
41
1
10
33.121603
20
102.215539666667
30
0
41
1
10
33.1252450226493
20
102.069137333897
30
0
41
1
10
33.126834
20
102.005261666667
30
0
41
1
10
33.130012
20
101.877510333333
30
0
41
1
10
33.131601
20
101.813634666667
30
0
41
1
10
33.1355734876726
20
101.653945995547
30
0
41
1
10
33.1379573333333
20
101.558133
30
0
41
1
10
33.1427246749543
20
101.366506666873
30
0
41
1
10
33.1451083333333
20
101.270693333333
30
0
41
1
10
33.1498756664605
20
101.079066674954
30
0
41
1
10
33.1522586666667
20
100.983253333333
30
0
41
1
10
33.1570253335394
20
100.79162665838
30
0
41
1
10
33.1594093333333
20
100.695813333333
30
0
41
1
10
33.161793
20
100.6
30
0
0
LINE
5
74
100
AcDbEntity
8
SK4
62
256
6
ByLayer
370
18
48
0.05
60
0
100
AcDbLine
10
152.8
20
12.962625
30
0
11
152.8
21
12.962487
31
0
39
0
210
0
220
0
230
1
0
LINE
5
76
100
AcDbEntity
8
SK4
62
256
6
ByLayer
370
18
48
0.05
60
0
100
AcDbLine
10
152.8
20
12.206583
30
0
11
152.8
21
12.18173
31
0
39
0
210
0
220
0
230
1
0
LINE
5
77
100
AcDbEntity
8
SK4
62
256
6
ByLayer
370
18
48
0.05
60
0
100
AcDbLine
10
152.8
20
12.824554
30
0
11
152.8
21
12.803614
31
0
39
0
210
0
220
0
230
1
0
LINE
5
78
100
AcDbEntity
8
SK4
62
256
6
ByLayer
370
35
48
0.05
60
0
100
AcDbLine
10
50
20
130
30
0
11
50
21
45
31
0
39
0
210
0
220
0
230
1
0
LINE
5
79
100
AcDbEntity
8
SK4
62
256
6
ByLayer
370
35
48
0.05
60
0
100
AcDbLine
10
-8
20
0
30
0
11
48
21
0
31
0
39
0
210
0
220
0
230
1
0
LINE
5
7A
100
AcDbEntity
8
4
62
256
6
ByLayer
370
35
48
0.05
60
0
100
AcDbLine
10
-8
20
0
30
0
11
20.315774
21
0
31
0
39
0
210
0
220
0
230
1
0
LINE
5
7C
100
AcDbEntity
8
4
62
256
6
ByLayer
370
35
48
0.05
60
0
100
AcDbLine
10
50
20
129
30
0
11
50
21
104
31
0
39
0
210
0
220
0
230
1
0
LINE
5
7D
100
AcDbEntity
8
80
62
256
6
ByLayer
370
50
48
1
60
0
100
AcDbLine
10
0
20
0
30
0
11
-32.646011
21
0
31
0
39
0
210
0
220
0
230
1
0
LINE
5
7E
100
AcDbEntity
8
81
62
256
6
ByLayer
370
50
48
1
60
0
100
AcDbLine
10
50
20
130
30
0
11
50
21
150
31
0
39
0
210
0
220
0
230
1
0
LINE
5
7F
100
AcDbEntity
8
4
62
256
6
ByLayer
370
18
48
0.05
60
0
100
AcDbLine
10
0
20
0
30
0
11
-8
21
0
31
0
39
0
210
0
220
0
230
1
0
LINE
5
80
100
AcDbEntity
8
1
62
256
6
ByLayer
370
18
48
1
60
1
100
AcDbLine
10
0
20
0
30
0
11
0
21
297
31
0
39
0
210
0
220
0
230
1
0
LINE
5
82
100
AcDbEntity
8
1
62
256
6
ByLayer
370
18
48
1
60
1
100
AcDbLine
10
420
20
297
30
0
11
0
21
297
31
0
39
0
210
0
220
0
230
1
0
LINE
5
83
100
AcDbEntity
8
1
62
256
6
ByLayer
370
18
48
1
60
1
100
AcDbLine
10
420
20
297
30
0
11
420
21
0
31
0
39
0
210
0
220
0
230
1
0
LINE
5
84
100
AcDbEntity
8
1
62
256
6
ByLayer
370
18
48
1
60
1
100
AcDbLine
10
0
20
0
30
0
11
420
21
0
31
0
39
0
210
0
220
0
230
1
0
LINE
5
85
100
AcDbEntity
8
1
62
256
6
ByLayer
370
18
48
1
60
0
100
AcDbLine
10
3.545631
20
-50
30
0
11
12
21
-50
31
0
39
0
210
0
220
0
230
1
0
LINE
5
86
100
AcDbEntity
8
1
62
256
6
ByLayer
370
18
48
1
60
0
100
AcDbLine
10
12
20
122
30
0
11
12
21
-50
31
0
39
0
210
0
220
0
230
1
0
LINE
5
87
100
AcDbEntity
8
1
62
256
6
ByLayer
370
18
48
1
60
0
100
AcDbLine
10
3.545631
20
122
30
0
11
3.545631
21
-50
31
0
39
0
210
0
220
0
230
1
0
LINE
5
88
100
AcDbEntity
8
1
62
256
6
ByLayer
370
18
48
1
60
0
100
AcDbLine
10
22
20
-50
30
0
11
23.631401
21
-48.368599
31
0
39
0
210
0
220
0
230
1
0
LINE
5
89
100
AcDbEntity
8
1
62
256
6
ByLayer
370
18
48
1
60
0
100
AcDbLine
10
17
20
-50
30
0
11
22
21
-50
31
0
39
0
210
0
220
0
230
1
0
LINE
5
8A
100
AcDbEntity
8
1
62
256
6
ByLayer
370
18
48
1
60
0
100
AcDbLine
10
23.631401
20
122
30
0
11
17
21
122
31
0
39
0
210
0
220
0
230
1
0
LINE
5
8B
100
AcDbEntity
8
1
62
256
6
ByLayer
370
18
48
1
60
0
100
AcDbLine
10
17
20
122
30
0
11
17
21
-50
31
0
39
0
210
0
220
0
230
1
0
LINE
5
8C
100
AcDbEntity
8
1
62
256
6
ByLayer
370
18
48
1
60
0
100
AcDbLine
10
67
20
-5
30
0
11
82
21
10
31
0
39
0
210
0
220
0
230
1
0
LINE
5
8D
100
AcDbEntity
8
1
62
256
6
ByLayer
370
18
48
1
60
0
100
AcDbLine
10
82
20
122
30
0
11
82
21
10
31
0
39
0
210
0
220
0
230
1
0
LINE
5
8E
100
AcDbEntity
8
1
62
256
6
ByLayer
370
18
48
1
60
0
100
AcDbLine
10
67
20
122
30
0
11
82
21
122
31
0
39
0
210
0
220
0
230
1
0
LINE
5
8F
100
AcDbEntity
8
1
62
256
6
ByLayer
370
18
48
1
60
0
100
AcDbLine
10
23.631401
20
-48.368599
30
0
11
67
21
-5
31
0
39
0
210
0
220
0
230
1
0
LINE
5
90
100
AcDbEntity
8
1
62
256
6
ByLayer
370
18
48
1
60
0
100
AcDbLine
10
23.631401
20
122
30
0
11
23.631401
21
-48.368599
31
0
39
0
210
0
220
0
230
1
0
LINE
5
91
100
AcDbEntity
8
1
62
256
6
ByLayer
370
18
48
1
60
0
100
AcDbLine
10
67
20
-5
30
0
11
67
21
122
31
0
39
0
210
0
220
0
230
1
0
LINE
5
92
100
AcDbEntity
8
1
62
256
6
ByLayer
370
18
48
1
60
0
100
AcDbLine
10
23.631401
20
122
30
0
11
67
21
122
31
0
39
0
210
0
220
0
230
1
0
LINE
5
93
100
AcDbEntity
8
SK1
62
256
6
ByLayer
370
18
48
1
60
0
100
AcDbLine
10
-6
20
-11.89325
30
0
11
-6
21
11.89325
31
0
39
0
210
0
220
0
230
1
0
LINE
5
95
100
AcDbEntity
8
SK1
62
256
6
ByLayer
370
18
48
1
60
0
100
AcDbLine
10
-5.4
20
12.49325
30
0
11
-5.6E-05
21
12.49325
31
0
39
0
210
0
220
0
230
1
0
LINE
5
96
100
AcDbEntity
8
SK1
62
256
6
ByLayer
370
18
48
1
60
0
100
AcDbLine
10
-5.4
20
12.49325
30
0
11
-5.4
21
-12.49325
31
0
39
0
210
0
220
0
230
1
0
LINE
5
97
100
AcDbEntity
8
SK1
62
256
6
ByLayer
370
18
48
1
60
0
100
AcDbLine
10
-5.6E-05
20
-12.49325
30
0
11
-5.4
21
-12.49325
31
0
39
0
210
0
220
0
230
1
0
LINE
5
98
100
AcDbEntity
8
1
62
256
6
ByLayer
370
18
48
1
60
0
100
AcDbLine
10
25
20
130
30
0
11
75
21
130
31
0
39
0
210
0
220
0
230
1
0
LINE
5
99
100
AcDbEntity
8
1
62
256
6
ByLayer
370
18
48
1
60
0
100
AcDbLine
10
75
20
129.607664
30
0
11
75
21
130
31
0
39
0
210
0
220
0
230
1
0
LINE
5
9A
100
AcDbEntity
8
1
62
256
6
ByLayer
370
18
48
1
60
0
100
AcDbLine
10
25
20
130
30
0
11
25
21
129.607664
31
0
39
0
210
0
220
0
230
1
0
LINE
5
9B
100
AcDbEntity
8
1
62
256
6
ByLayer
370
18
48
1
60
0
100
AcDbLine
10
18.825
20
129.5
30
0
11
81.175
21
129.5
31
0
39
0
210
0
220
0
230
1
0
LINE
5
9C
100
AcDbEntity
8
1
62
256
6
ByLayer
370
18
48
1
60
0
100
AcDbLine
10
81.675
20
129
30
0
11
81.675
21
122
31
0
39
0
210
0
220
0
230
1
0
LINE
5
9D
100
AcDbEntity
8
1
62
256
6
ByLayer
370
18
48
1
60
0
100
AcDbLine
10
81.675
20
129
30
0
11
18.325
21
129
31
0
39
0
210
0
220
0
230
1
0
LINE
5
9E
100
AcDbEntity
8
1
62
256
6
ByLayer
370
18
48
1
60
0
100
AcDbLine
10
18.325
20
129
30
0
11
18.325
21
122
31
0
39
0
210
0
220
0
230
1
0
LINE
5
9F
100
AcDbEntity
8
1
62
256
6
ByLayer
370
18
48
1
60
0
100
AcDbLine
10
17
20
122
30
0
11
12
21
122
31
0
39
0
210
0
220
0
230
1
0
LINE
5
A0
100
AcDbEntity
8
1
62
256
6
ByLayer
370
18
48
1
60
0
100
AcDbLine
10
12
20
-50
30
0
11
17
21
-50
31
0
39
0
210
0
220
0
230
1
0
LINE
5
A1
100
AcDbEntity
8
1
62
256
6
ByLayer
370
18
48
1
60
0
100
AcDbLine
10
3.545631
20
122
30
0
11
0
21
122
31
0
39
0
210
0
220
0
230
1
0
LINE
5
A2
100
AcDbEntity
8
1
62
256
6
ByLayer
370
18
48
1
60
0
100
AcDbLine
10
0
20
-50
30
0
11
3.545631
21
-50
31
0
39
0
210
0
220
0
230
1
0
LINE
5
A3
100
AcDbEntity
8
1
62
256
6
ByLayer
370
18
48
1
60
0
100
AcDbLine
10
0
20
122
30
0
11
0
21
-50
31
0
39
0
210
0
220
0
230
1
0
LINE
5
A4
100
AcDbEntity
8
1
62
256
6
ByLayer
370
18
48
1
60
0
100
AcDbLine
10
12
20
122
30
0
11
3.545631
21
122
31
0
39
0
210
0
220
0
230
1
0
LINE
5
A5
100
AcDbEntity
8
1
62
256
6
ByLayer
370
18
48
1
60
0
100
AcDbLine
10
75.4
20
129.60766
30
0
11
70.6
21
129.60766
31
0
39
0
210
0
220
0
230
1
0
LINE
5
A6
100
AcDbEntity
8
1
62
256
6
ByLayer
370
18
48
1
60
0
100
AcDbLine
10
29.4
20
129.60766
30
0
11
24.6
21
129.60766
31
0
39
0
210
0
220
0
230
1
0
LINE
5
A7
100
AcDbEntity
8
1
62
256
6
ByLayer
370
18
48
1
60
0
100
AcDbLine
10
82.540674
20
75.9
30
0
11
82.540674
21
73.5
31
0
39
0
210
0
220
0
230
1
0
LINE
5
A8
100
AcDbEntity
8
1
62
256
6
ByLayer
370
18
48
1
60
0
100
AcDbLine
10
82.540674
20
73.5
30
0
11
82.540674
21
71.1
31
0
39
0
210
0
220
0
230
1
0
MTEXT
5
BB
100
AcDbEntity
8
SK6
62
256
6
ByLayer
370
13
48
1
60
0
100
AcDbMText
10
-81.297792
20
14.97794
30
0
210
0
220
0
230
1
1
\fAMGDT|b0|i0;\W0.3281;C5-LC090-130L\P 
40
10
41
0
44
1
50
0
71
7
72
5
7
AMGDT
0
DIMENSION
5
BF
100
AcDbEntity
8
2
62
256
6
ByLayer
370
18
48
1
60
0
100
AcDbDimension
2
_U0
10
82
20
-90
30
0
11
41
21
-90
31
0
70
32
71
1
72
1
41
1
210
0
220
0
230
1
3
Standard
100
AcDbAlignedDimension
13
0
23
-50
33
0
14
82
24
10
34
0
50
0
100
AcDbRotatedDimension
1001
ACAD
1000
DSTYLE
1002
{
1070
   371
1070
    35
1070
   372
1070
    35
1070
   170
1070
     0
1070
   144
1040
1.0
1070
   277
1070
     2
1070
   284
1070
     8
1070
   278
1070
    46
1070
   146
1040
0.25
1070
   345
1005
16
1070
   347
1005
16
1070
   346
1005
16
1070
   344
1005
0
1070
   343
1005
0
1070
   172
1070
     1
1070
    76
1070
     0
1070
    75
1070
     0
1070
   282
1070
     0
1070
   281
1070
     0
1070
    71
1070
     0
1070
    74
1070
     0
1070
   279
1070
     0
1070
   173
1070
     1
1070
   340
1005
C0
1070
   271
1070
     2
1070
   272
1070
     2
1070
    77
1070
     1
1070
    73
1070
     1
1070
   171
1070
     3
1070
   274
1070
     4
1070
   177
1070
     7
1070
   176
1070
     7
1070
   178
1070
     7
1070
    78
1070
     8
1070
    48
1040
-0.1
1070
    41
1040
14.0
1070
   147
1040
7.000002
1070
    42
1040
1.5875
1070
    44
1040
10.0
1070
   140
1040
14.0
1002
}
1001
ACAD_DSTYLE_DIM_LINETYPE
1070
   380
1005
16
1001
ACAD_DSTYLE_DIM_EXT1_LINETYPE
1070
   381
1005
16
1001
ACAD_DSTYLE_DIM_EXT2_LINETYPE
1070
   382
1005
16
0
DIMENSION
5
DB
100
AcDbEntity
8
2
62
256
6
ByLayer
370
18
48
1
60
0
100
AcDbDimension
2
_U1
10
50
20
166.745683
30
0
11
25
21
166.745683
31
0
70
32
71
1
72
1
41
1
210
0
220
0
230
1
3
Standard
100
AcDbAlignedDimension
13
0
23
122
33
0
14
50
24
130
34
0
50
0
100
AcDbRotatedDimension
1001
ACAD
1000
DSTYLE
1002
{
1070
   371
1070
    35
1070
   372
1070
    35
1070
   170
1070
     0
1070
   144
1040
1.0
1070
   277
1070
     2
1070
   284
1070
     8
1070
   278
1070
    46
1070
   146
1040
0.25
1070
   345
1005
16
1070
   347
1005
16
1070
   346
1005
16
1070
   344
1005
0
1070
   343
1005
0
1070
   172
1070
     1
1070
    76
1070
     0
1070
    75
1070
     0
1070
   282
1070
     0
1070
   281
1070
     0
1070
    71
1070
     0
1070
    74
1070
     0
1070
   279
1070
     0
1070
   173
1070
     1
1070
   340
1005
C0
1070
   271
1070
     2
1070
   272
1070
     2
1070
    77
1070
     1
1070
    73
1070
     1
1070
   171
1070
     3
1070
   274
1070
     4
1070
   177
1070
     7
1070
   176
1070
     7
1070
   178
1070
     7
1070
    78
1070
     8
1070
    48
1040
-0.1
1070
    41
1040
14.0
1070
   147
1040
7.000002
1070
    42
1040
1.5875
1070
    44
1040
10.0
1070
   140
1040
14.0
1002
}
1001
ACAD_DSTYLE_DIM_LINETYPE
1070
   380
1005
16
1001
ACAD_DSTYLE_DIM_EXT1_LINETYPE
1070
   381
1005
16
1001
ACAD_DSTYLE_DIM_EXT2_LINETYPE
1070
   382
1005
16
0
DIMENSION
5
F4
100
AcDbEntity
8
2
62
256
6
ByLayer
370
18
48
1
60
0
100
AcDbDimension
2
_U2
10
25
20
200
30
0
11
135.333333
21
200
31
0
70
32
71
1
72
1
41
1
210
0
220
0
230
1
3
Standard
100
AcDbAlignedDimension
13
75
23
130
33
0
14
25
24
130
34
0
50
180
100
AcDbRotatedDimension
1001
ACAD
1000
DSTYLE
1002
{
1070
   371
1070
    35
1070
   372
1070
    35
1070
     3
1000
%%c<>
1070
   170
1070
     0
1070
   144
1040
1.0
1070
   277
1070
     2
1070
   284
1070
     8
1070
   278
1070
    46
1070
   146
1040
0.25
1070
   345
1005
16
1070
   347
1005
16
1070
   346
1005
16
1070
   344
1005
0
1070
   343
1005
0
1070
   172
1070
     1
1070
    76
1070
     0
1070
    75
1070
     0
1070
   282
1070
     0
1070
   281
1070
     0
1070
    71
1070
     0
1070
    74
1070
     0
1070
   279
1070
     0
1070
   173
1070
     1
1070
   340
1005
C0
1070
   271
1070
     2
1070
   272
1070
     2
1070
    77
1070
     1
1070
    73
1070
     0
1070
   171
1070
     3
1070
   274
1070
     4
1070
   177
1070
     7
1070
   176
1070
     7
1070
   178
1070
     7
1070
    78
1070
     8
1070
    48
1040
-0.1
1070
    41
1040
14.0
1070
   147
1040
7.000002
1070
    42
1040
1.5875
1070
    44
1040
10.0
1070
   140
1040
14.0
1002
}
1001
ACAD_DSTYLE_DIM_LINETYPE
1070
   380
1005
16
1001
ACAD_DSTYLE_DIM_EXT1_LINETYPE
1070
   381
1005
16
1001
ACAD_DSTYLE_DIM_EXT2_LINETYPE
1070
   382
1005
16
0
DIMENSION
5
10F
100
AcDbEntity
8
2
62
256
6
ByLayer
370
18
48
1
60
0
100
AcDbDimension
2
_U3
10
111.361392
20
130
30
0
11
111.361392
21
40
31
0
70
32
71
1
72
1
41
1
210
0
220
0
230
1
3
Standard
100
AcDbAlignedDimension
13
22
23
-50
33
0
14
75
24
130
34
0
50
90
100
AcDbRotatedDimension
1001
ACAD
1000
DSTYLE
1002
{
1070
   371
1070
    35
1070
   372
1070
    35
1070
   170
1070
     0
1070
   144
1040
1.0
1070
   277
1070
     2
1070
   284
1070
     8
1070
   278
1070
    46
1070
   146
1040
0.25
1070
   345
1005
16
1070
   347
1005
16
1070
   346
1005
16
1070
   344
1005
0
1070
   343
1005
0
1070
   172
1070
     1
1070
    76
1070
     0
1070
    75
1070
     0
1070
   282
1070
     0
1070
   281
1070
     0
1070
    71
1070
     0
1070
    74
1070
     0
1070
   279
1070
     0
1070
   173
1070
     1
1070
   340
1005
C0
1070
   271
1070
     2
1070
   272
1070
     2
1070
    77
1070
     1
1070
    73
1070
     0
1070
   171
1070
     3
1070
   274
1070
     4
1070
   177
1070
     7
1070
   176
1070
     7
1070
   178
1070
     7
1070
    78
1070
     8
1070
    48
1040
-0.1
1070
    41
1040
14.0
1070
   147
1040
7.000002
1070
    42
1040
1.5875
1070
    44
1040
10.0
1070
   140
1040
14.0
1002
}
1001
ACAD_DSTYLE_DIM_LINETYPE
1070
   380
1005
16
1001
ACAD_DSTYLE_DIM_EXT1_LINETYPE
1070
   381
1005
16
1001
ACAD_DSTYLE_DIM_EXT2_LINETYPE
1070
   382
1005
16
0
DIMENSION
5
127
100
AcDbEntity
8
SK2
62
256
6
ByLayer
370
18
48
1
60
0
100
AcDbDimension
2
_U4
10
-23.674307
20
130
30
0
11
-23.674307
21
65
31
0
70
32
71
1
72
1
41
1
210
0
220
0
230
1
3
Standard
100
AcDbAlignedDimension
13
-6
23
0
33
0
14
25
24
130
34
0
50
90
100
AcDbRotatedDimension
1001
ACAD
1000
DSTYLE
1002
{
1070
   371
1070
    35
1070
   372
1070
    35
1070
   170
1070
     0
1070
   144
1040
1.0
1070
   277
1070
     2
1070
   284
1070
     8
1070
   278
1070
    46
1070
   146
1040
0.25
1070
   345
1005
16
1070
   347
1005
16
1070
   346
1005
16
1070
   344
1005
0
1070
   343
1005
0
1070
   172
1070
     1
1070
    76
1070
     0
1070
    75
1070
     0
1070
   282
1070
     0
1070
   281
1070
     0
1070
    71
1070
     0
1070
    74
1070
     0
1070
   279
1070
     0
1070
   173
1070
     1
1070
   340
1005
C0
1070
   271
1070
     2
1070
   272
1070
     2
1070
    77
1070
     1
1070
    73
1070
     0
1070
   171
1070
     3
1070
   274
1070
     4
1070
   177
1070
     7
1070
   176
1070
     7
1070
   178
1070
     7
1070
    78
1070
     8
1070
    48
1040
-0.1
1070
    41
1040
14.0
1070
   147
1040
7.000002
1070
    42
1040
1.5875
1070
    44
1040
10.0
1070
   140
1040
14.0
1002
}
1001
ACAD_DSTYLE_DIM_LINETYPE
1070
   380
1005
16
1001
ACAD_DSTYLE_DIM_EXT1_LINETYPE
1070
   381
1005
16
1001
ACAD_DSTYLE_DIM_EXT2_LINETYPE
1070
   382
1005
16
0
ENDSEC
0
SECTION
2
OBJECTS
0
DICTIONARY
5
1b1
330
0
100
AcDbDictionary
280
0
281
1
3
ACAD_GROUP
350
1b2
3
ACAD_MLINESTYLE
350
1b3
0
DICTIONARY
5
1b2
330
0
100
AcDbDictionary
280
0
281
1
0
DICTIONARY
5
1b3
330
0
100
AcDbDictionary
280
0
281
1
3
Standard
350
18
0
MLINESTYLE
5
18
330
1b3
100
AcDbMlineStyle
2
Standard
70
0
3

62
256
51
90
52
90
71
2
49
-0.5
62
256
6
ByLayer
49
0.5
62
256
6
ByLayer
0
RASTERVARIABLES
5
19e
330

100
AcDbRasterVariables
90
0
70
1
71
1
72
1
0
ENDSEC
0
EOF
