0
SECTION
2
HEADER
9
$ACADVER
1
AC1015
9
$DWGCODEPAGE
3
ANSI_1252
9
$HANDSEED
5
2bd
9
$ANGBASE
50
0
9
$ANGDIR
70
0
9
$ATTMODE
70
1
9
$AUNITS
70
0
9
$AUPREC
70
0
9
$CECOLOR
62
256
9
$CELTSCALE
40
1
9
$CELTYPE
6
ByLayer
9
$CELWEIGHT
370
18
9
$CLAYER
8
0
9
$CMLJUST
70
0
9
$CMLSCALE
40
1
9
$CMLSTYLE
2
Standard
9
$DIMSTYLE
2
Standard
9
$TEXTSIZE
40
0.2
9
$TEXTSTYLE
7
Standard
9
$LUNITS
70
2
9
$LUPREC
70
4
9
$EXTNAMES
290
1
9
$INSUNITS
70
4
9
$LTSCALE
40
1
9
$LWDISPLAY
290
1
9
$PDMODE
70
0
9
$PDSIZE
40
0
9
$PLINEGEN
70
0
0
ENDSEC
0
SECTION
2
CLASSES
0
CLASS
1
RASTERVARIABLES
2
AcDbRasterVariables
3
ISM
90
0
280
0
281
0
0
ENDSEC
0
SECTION
2
TABLES
0
TABLE
2
VPORT
5
2b3
100
AcDbSymbolTable
0
VPORT
5
1
100
AcDbSymbolTableRecord
100
AcDbViewportTableRecord
2
*Active
70
0
10
0
20
0
11
1
21
1
12
-1
22
1
13
0
23
0
14
0.5
24
0.5
15
10
25
10
16
0
26
0
36
1
17
0
27
0
37
0
0
ENDTAB
0
TABLE
2
LTYPE
5
2b4
100
AcDbSymbolTable
0
LTYPE
5
14
100
AcDbSymbolTableRecord
100
AcDbLinetypeTableRecord
70
0
2
ByBlock
3

72
65
73
0
40
0
0
LTYPE
5
15
100
AcDbSymbolTableRecord
100
AcDbLinetypeTableRecord
70
0
2
ByLayer
3

72
65
73
0
40
0
0
LTYPE
5
16
100
AcDbSymbolTableRecord
100
AcDbLinetypeTableRecord
70
0
2
CONTINUOUS
3
Solid line
72
65
73
0
40
0
0
LTYPE
5
6A
100
AcDbSymbolTableRecord
100
AcDbLinetypeTableRecord
70
0
2
CENTER
3
____ _ ____ _ ____ _ ____
72
65
73
4
40
47.5
49
22
74
0
49
-8.5
74
0
49
8.5
74
0
49
-8.5
74
0
0
LTYPE
5
6B
100
AcDbSymbolTableRecord
100
AcDbLinetypeTableRecord
70
0
2
DASHED
3
__ __ __ __ __ __ __ __ __
72
65
73
2
40
25.72
49
12.86
74
0
49
-12.86
74
0
0
ENDTAB
0
TABLE
2
LAYER
5
2b5
100
AcDbSymbolTable
0
LAYER
5
10
100
AcDbSymbolTableRecord
100
AcDbLayerTableRecord
2
0
70
0
62
7
6
CONTINUOUS
290
1
370
-3
390
0
0
LAYER
5
6D
100
AcDbSymbolTableRecord
100
AcDbLayerTableRecord
2
2
70
0
62
7
6
CONTINUOUS
290
1
370
-3
390
0
0
LAYER
5
6F
100
AcDbSymbolTableRecord
100
AcDbLayerTableRecord
2
80
70
0
62
-6
6
CONTINUOUS
290
1
370
-3
390
0
0
LAYER
5
71
100
AcDbSymbolTableRecord
100
AcDbLayerTableRecord
2
81
70
0
62
-3
6
CONTINUOUS
290
1
370
-3
390
0
0
LAYER
5
74
100
AcDbSymbolTableRecord
100
AcDbLayerTableRecord
2
1
70
0
62
4
6
CONTINUOUS
290
1
370
-3
390
0
0
LAYER
5
8B
100
AcDbSymbolTableRecord
100
AcDbLayerTableRecord
2
4
70
0
62
-2
6
CENTER
290
1
370
-3
390
0
0
LAYER
5
29f
100
AcDbSymbolTableRecord
100
AcDbLayerTableRecord
2
SK4
70
0
62
2
6
CENTER
290
1
370
-3
390
0
0
LAYER
5
2a0
100
AcDbSymbolTableRecord
100
AcDbLayerTableRecord
2
SK1
70
0
62
4
6
CONTINUOUS
290
1
370
-3
390
0
0
LAYER
5
2a1
100
AcDbSymbolTableRecord
100
AcDbLayerTableRecord
2
SK6
70
0
62
5
6
CONTINUOUS
290
1
370
-3
390
0
0
LAYER
5
2a2
100
AcDbSymbolTableRecord
100
AcDbLayerTableRecord
2
SK2
70
0
62
7
6
CONTINUOUS
290
1
370
-3
390
0
0
ENDTAB
0
TABLE
2
STYLE
5
2b6
100
AcDbSymbolTable
0
STYLE
5
11
100
AcDbSymbolTableRecord
100
AcDbTextStyleTableRecord
2
Standard
3
txt
70
0
71
0
40
0
41
1
42
0
50
0
0
STYLE
5
203
100
AcDbSymbolTableRecord
100
AcDbTextStyleTableRecord
2
iso_b_vert
3
simplex.shx
70
0
71
0
40
0
41
1
42
0
50
0
0
STYLE
5
204
100
AcDbSymbolTableRecord
100
AcDbTextStyleTableRecord
2
DWGDirectTextStyle
3
simplex
70
0
71
0
40
0
41
1
42
0
50
0
0
ENDTAB
0
TABLE
2
DIMSTYLE
5
2b7
100
AcDbSymbolTable
100
AcDbDimStyleTable
0
DIMSTYLE
105
27
100
AcDbSymbolTableRecord
100
AcDbDimStyleTableRecord
2
Standard
70
0
3
<>
41
0.18
42
0.0625
44
0.18
140
0.18
147
0.09
73
0
74
0
77
1
271
2
275
0
278
52
280
0
340
11
0
ENDTAB
0
TABLE
2
VIEW
5
2b8
100
AcDbSymbolTable
0
ENDTAB
0
TABLE
2
UCS
5
2b9
100
AcDbSymbolTable
0
ENDTAB
0
TABLE
2
APPID
5
2ba
100
AcDbSymbolTable
0
APPID
5
12
100
AcDbSymbolTableRecord
100
AcDbRegAppTableRecord
2
ACAD
70
0
0
ENDTAB
0
TABLE
2
BLOCK_RECORD
5
2bb
100
AcDbSymbolTable
0
BLOCK_RECORD
5
1F
100
AcDbSymbolTableRecord
100
AcDbBlockTableRecord
2
*Model_Space
340
0
70
0
0
BLOCK_RECORD
5
1B
100
AcDbSymbolTableRecord
100
AcDbBlockTableRecord
2
*Paper_Space
340
0
70
0
0
BLOCK_RECORD
5
23
100
AcDbSymbolTableRecord
100
AcDbBlockTableRecord
2
*Paper_Space0
340
0
70
0
0
BLOCK_RECORD
5
206
100
AcDbSymbolTableRecord
100
AcDbBlockTableRecord
2
DimnDraft3D1
340
0
70
0
0
BLOCK_RECORD
5
214
100
AcDbSymbolTableRecord
100
AcDbBlockTableRecord
2
_CLOSED
340
0
70
0
0
BLOCK_RECORD
5
21B
100
AcDbSymbolTableRecord
100
AcDbBlockTableRecord
2
DimnDraft3D2
340
0
70
0
0
BLOCK_RECORD
5
229
100
AcDbSymbolTableRecord
100
AcDbBlockTableRecord
2
DimnDraft3D3
340
0
70
0
0
BLOCK_RECORD
5
238
100
AcDbSymbolTableRecord
100
AcDbBlockTableRecord
2
DimnDraft3D4
340
0
70
0
0
ENDTAB
0
ENDSEC
0
SECTION
2
BLOCKS
0
BLOCK
5
20
100
AcDbEntity
8
0
100
AcDbBlockBegin
2
*Model_Space
70
0
10
0
20
0
30
0
3
*Model_Space
0
ENDBLK
5
21
100
AcDbEntity
8
0
100
AcDbBlockEnd
0
BLOCK
5
1C
100
AcDbEntity
8
0
100
AcDbBlockBegin
2
*Paper_Space
70
0
10
0
20
0
30
0
3
*Paper_Space
0
ENDBLK
5
1D
100
AcDbEntity
8
0
100
AcDbBlockEnd
0
BLOCK
5
24
100
AcDbEntity
8
0
100
AcDbBlockBegin
2
*Paper_Space0
70
0
10
0
20
0
30
0
3
*Paper_Space0
0
ENDBLK
5
25
100
AcDbEntity
8
0
100
AcDbBlockEnd
0
BLOCK
5
211
100
AcDbEntity
8
0
100
AcDbBlockBegin
2
DimnDraft3D1
70
0
10
0
20
0
30
0
3
DimnDraft3D1
0
MTEXT
5
207
100
AcDbEntity
8
2
62
256
6
ByLayer
370
18
48
1
60
0
100
AcDbMText
10
43.254365
20
-46.909465
30
0
210
0
220
0
230
1
1
\W0.7399;93%%d
40
4.5
41
0
44
1.084337
50
313.5
71
7
72
5
7
iso_b_vert
0
LINE
5
208
100
AcDbEntity
8
2
62
256
6
ByLayer
370
13
48
1
60
0
100
AcDbLine
10
42.188006
20
-34.109201
30
0
11
36.59172
21
-33.815912
31
0
39
0
210
0
220
0
230
1
0
LINE
5
209
100
AcDbEntity
8
2
62
256
6
ByLayer
370
13
48
1
60
0
100
AcDbLine
10
60
20
-37
30
0
11
60
21
-58.483093
31
0
39
0
210
0
220
0
230
1
0
ARC
5
20A
100
AcDbEntity
8
2
62
256
6
ByLayer
370
13
48
1
60
0
100
AcDbCircle
39
0
10
60
20
-35.042688
30
0
40
21.440404684557
210
0
220
0
230
1
100
AcDbArc
50
177
51
270
0
LINE
5
20B
100
AcDbEntity
8
2
62
256
6
ByLayer
370
13
48
1
60
0
100
AcDbLine
10
38.588979
20
-33.920584
30
0
11
38.958013
21
-37.101645
31
0
39
0
210
0
220
0
230
1
0
LINE
5
20C
100
AcDbEntity
8
2
62
256
6
ByLayer
370
13
48
1
60
0
100
AcDbLine
10
38.588979
20
-33.920584
30
0
11
38.122119
21
-37.088769
31
0
39
0
210
0
220
0
230
1
0
LINE
5
20D
100
AcDbEntity
8
2
62
256
6
ByLayer
370
13
48
1
60
0
100
AcDbLine
10
38.958013
20
-37.101645
30
0
11
38.122119
21
-37.088769
31
0
39
0
210
0
220
0
230
1
0
LINE
5
20E
100
AcDbEntity
8
2
62
256
6
ByLayer
370
13
48
1
60
0
100
AcDbLine
10
60
20
-56.483093
30
0
11
56.811726
21
-56.783502
31
0
39
0
210
0
220
0
230
1
0
LINE
5
20F
100
AcDbEntity
8
2
62
256
6
ByLayer
370
13
48
1
60
0
100
AcDbLine
10
60
20
-56.483093
30
0
11
56.842609
21
-55.94808
31
0
39
0
210
0
220
0
230
1
0
LINE
5
210
100
AcDbEntity
8
2
62
256
6
ByLayer
370
13
48
1
60
0
100
AcDbLine
10
56.811726
20
-56.783502
30
0
11
56.842609
21
-55.94808
31
0
39
0
210
0
220
0
230
1
0
ENDBLK
5
212
100
AcDbEntity
8
0
100
AcDbBlockEnd
0
BLOCK
5
215
100
AcDbEntity
8
0
100
AcDbBlockBegin
2
_CLOSED
70
0
10
0
20
0
30
0
3
_CLOSED
0
LINE
5
217
100
AcDbEntity
8
0
62
256
6
ByLayer
370
-2
48
1
60
0
100
AcDbLine
10
-1
20
0.166667
30
0
11
0
21
0
31
0
39
0
210
0
220
0
230
1
0
LINE
5
218
100
AcDbEntity
8
0
62
256
6
ByLayer
370
-2
48
1
60
0
100
AcDbLine
10
0
20
0
30
0
11
-1
21
-0.166667
31
0
39
0
210
0
220
0
230
1
0
LINE
5
219
100
AcDbEntity
8
0
62
256
6
ByLayer
370
-2
48
1
60
0
100
AcDbLine
10
-1
20
0.166667
30
0
11
-1
21
-0.166667
31
0
39
0
210
0
220
0
230
1
0
LINE
5
21A
100
AcDbEntity
8
0
62
256
6
ByLayer
370
-2
48
1
60
0
100
AcDbLine
10
0
20
0
30
0
11
-1
21
0
31
0
39
0
210
0
220
0
230
1
0
ENDBLK
5
216
100
AcDbEntity
8
0
100
AcDbBlockEnd
0
BLOCK
5
226
100
AcDbEntity
8
0
100
AcDbBlockBegin
2
DimnDraft3D2
70
0
10
0
20
0
30
0
3
DimnDraft3D2
0
MTEXT
5
21C
100
AcDbEntity
8
2
62
256
6
ByLayer
370
18
48
1
60
0
100
AcDbMText
10
25.843421
20
-61.125
30
0
210
0
220
0
230
1
1
\W0.7346;60.0
40
4.5
41
0
44
1.084337
50
0
71
7
72
5
7
iso_b_vert
0
LINE
5
21D
100
AcDbEntity
8
2
62
256
6
ByLayer
370
13
48
1
60
0
100
AcDbLine
10
0
20
-27
30
0
11
0
21
-64.25
31
0
39
0
210
0
220
0
230
1
0
LINE
5
21E
100
AcDbEntity
8
2
62
256
6
ByLayer
370
13
48
1
60
0
100
AcDbLine
10
60
20
-37
30
0
11
60
21
-64.25
31
0
39
0
210
0
220
0
230
1
0
LINE
5
21F
100
AcDbEntity
8
2
62
256
6
ByLayer
370
13
48
1
60
0
100
AcDbLine
10
0
20
-62.25
30
0
11
60
21
-62.25
31
0
39
0
210
0
220
0
230
1
0
LINE
5
220
100
AcDbEntity
8
2
62
256
6
ByLayer
370
13
48
1
60
0
100
AcDbLine
10
0
20
-62.25
30
0
11
3.174998
21
-61.832003
31
0
39
0
210
0
220
0
230
1
0
LINE
5
221
100
AcDbEntity
8
2
62
256
6
ByLayer
370
13
48
1
60
0
100
AcDbLine
10
0
20
-62.25
30
0
11
3.175002
21
-62.667997
31
0
39
0
210
0
220
0
230
1
0
LINE
5
222
100
AcDbEntity
8
2
62
256
6
ByLayer
370
13
48
1
60
0
100
AcDbLine
10
3.174998
20
-61.832003
30
0
11
3.175002
21
-62.667997
31
0
39
0
210
0
220
0
230
1
0
LINE
5
223
100
AcDbEntity
8
2
62
256
6
ByLayer
370
13
48
1
60
0
100
AcDbLine
10
60
20
-62.25
30
0
11
56.825002
21
-62.667997
31
0
39
0
210
0
220
0
230
1
0
LINE
5
224
100
AcDbEntity
8
2
62
256
6
ByLayer
370
13
48
1
60
0
100
AcDbLine
10
60
20
-62.25
30
0
11
56.824998
21
-61.832003
31
0
39
0
210
0
220
0
230
1
0
LINE
5
225
100
AcDbEntity
8
2
62
256
6
ByLayer
370
13
48
1
60
0
100
AcDbLine
10
56.825002
20
-62.667997
30
0
11
56.824998
21
-61.832003
31
0
39
0
210
0
220
0
230
1
0
ENDBLK
5
227
100
AcDbEntity
8
0
100
AcDbBlockEnd
0
BLOCK
5
235
100
AcDbEntity
8
0
100
AcDbBlockBegin
2
DimnDraft3D3
70
0
10
0
20
0
30
0
3
DimnDraft3D3
0
MTEXT
5
22A
100
AcDbEntity
8
SK2
62
256
6
ByLayer
370
18
48
1
60
0
100
AcDbMText
10
-38.875
20
-1.563158
30
0
210
0
220
0
230
1
1
\W0.6740;50
40
4.5
41
0
44
1.084337
50
90
71
7
72
5
7
iso_b_vert
0
LINE
5
22C
100
AcDbEntity
8
SK2
62
256
6
ByLayer
370
13
48
1
60
0
100
AcDbLine
10
-2
20
-25
30
0
11
-39.75
21
-25
31
0
39
0
210
0
220
0
230
1
0
LINE
5
22D
100
AcDbEntity
8
SK2
62
256
6
ByLayer
370
13
48
1
60
0
100
AcDbLine
10
-2
20
25
30
0
11
-39.75
21
25
31
0
39
0
210
0
220
0
230
1
0
LINE
5
22E
100
AcDbEntity
8
SK2
62
256
6
ByLayer
370
13
48
1
60
0
100
AcDbLine
10
-37.75
20
-25
30
0
11
-37.75
21
25
31
0
39
0
210
0
220
0
230
1
0
LINE
5
22F
100
AcDbEntity
8
SK2
62
256
6
ByLayer
370
13
48
1
60
0
100
AcDbLine
10
-37.75
20
-25
30
0
11
-38.167997
21
-21.825002
31
0
39
0
210
0
220
0
230
1
0
LINE
5
230
100
AcDbEntity
8
SK2
62
256
6
ByLayer
370
13
48
1
60
0
100
AcDbLine
10
-37.75
20
-25
30
0
11
-37.332003
21
-21.824998
31
0
39
0
210
0
220
0
230
1
0
LINE
5
231
100
AcDbEntity
8
SK2
62
256
6
ByLayer
370
13
48
1
60
0
100
AcDbLine
10
-38.167997
20
-21.825002
30
0
11
-37.332003
21
-21.824998
31
0
39
0
210
0
220
0
230
1
0
LINE
5
232
100
AcDbEntity
8
SK2
62
256
6
ByLayer
370
13
48
1
60
0
100
AcDbLine
10
-37.75
20
25
30
0
11
-37.332003
21
21.825002
31
0
39
0
210
0
220
0
230
1
0
LINE
5
233
100
AcDbEntity
8
SK2
62
256
6
ByLayer
370
13
48
1
60
0
100
AcDbLine
10
-37.75
20
25
30
0
11
-38.167997
21
21.824998
31
0
39
0
210
0
220
0
230
1
0
LINE
5
234
100
AcDbEntity
8
SK2
62
256
6
ByLayer
370
13
48
1
60
0
100
AcDbLine
10
-37.332003
20
21.825002
30
0
11
-38.167997
21
21.824998
31
0
39
0
210
0
220
0
230
1
0
ENDBLK
5
236
100
AcDbEntity
8
0
100
AcDbBlockEnd
0
BLOCK
5
243
100
AcDbEntity
8
0
100
AcDbBlockBegin
2
DimnDraft3D4
70
0
10
0
20
0
30
0
3
DimnDraft3D4
0
MTEXT
5
239
100
AcDbEntity
8
2
62
256
6
ByLayer
370
18
48
1
60
0
100
AcDbMText
10
81.125
20
-21.656579
30
0
210
0
220
0
230
1
1
\W0.7346;35.0
40
4.5
41
0
44
1.084337
50
90
71
7
72
5
7
iso_b_vert
0
LINE
5
23A
100
AcDbEntity
8
2
62
256
6
ByLayer
370
13
48
1
60
0
100
AcDbLine
10
62
20
0
30
0
11
84.25
21
0
31
0
39
0
210
0
220
0
230
1
0
LINE
5
23B
100
AcDbEntity
8
2
62
256
6
ByLayer
370
13
48
1
60
0
100
AcDbLine
10
62
20
-35
30
0
11
84.25
21
-35
31
0
39
0
210
0
220
0
230
1
0
LINE
5
23C
100
AcDbEntity
8
2
62
256
6
ByLayer
370
13
48
1
60
0
100
AcDbLine
10
82.25
20
0
30
0
11
82.25
21
-35
31
0
39
0
210
0
220
0
230
1
0
LINE
5
23D
100
AcDbEntity
8
2
62
256
6
ByLayer
370
13
48
1
60
0
100
AcDbLine
10
82.25
20
0
30
0
11
82.667997
21
-3.174998
31
0
39
0
210
0
220
0
230
1
0
LINE
5
23E
100
AcDbEntity
8
2
62
256
6
ByLayer
370
13
48
1
60
0
100
AcDbLine
10
82.25
20
0
30
0
11
81.832003
21
-3.175002
31
0
39
0
210
0
220
0
230
1
0
LINE
5
23F
100
AcDbEntity
8
2
62
256
6
ByLayer
370
13
48
1
60
0
100
AcDbLine
10
82.667997
20
-3.174998
30
0
11
81.832003
21
-3.175002
31
0
39
0
210
0
220
0
230
1
0
LINE
5
240
100
AcDbEntity
8
2
62
256
6
ByLayer
370
13
48
1
60
0
100
AcDbLine
10
82.25
20
-35
30
0
11
81.832003
21
-31.825002
31
0
39
0
210
0
220
0
230
1
0
LINE
5
241
100
AcDbEntity
8
2
62
256
6
ByLayer
370
13
48
1
60
0
100
AcDbLine
10
82.25
20
-35
30
0
11
82.667997
21
-31.824998
31
0
39
0
210
0
220
0
230
1
0
LINE
5
242
100
AcDbEntity
8
2
62
256
6
ByLayer
370
13
48
1
60
0
100
AcDbLine
10
81.832003
20
-31.825002
30
0
11
82.667997
21
-31.824998
31
0
39
0
210
0
220
0
230
1
0
ENDBLK
5
244
100
AcDbEntity
8
0
100
AcDbBlockEnd
0
ENDSEC
0
SECTION
2
ENTITIES
0
ARC
5
124
100
AcDbEntity
8
SK1
62
256
6
ByLayer
370
18
48
1
60
0
100
AcDbCircle
39
0
10
0.6
20
-18.75
30
0
40
1.00000000000001
210
0
220
0
230
-1
100
AcDbArc
50
113.578178
51
126.869898
0
ARC
5
125
100
AcDbEntity
8
SK1
62
256
6
ByLayer
370
18
48
1
60
0
100
AcDbCircle
39
0
10
0.6
20
18.75
30
0
40
1.00000000000001
210
0
220
0
230
-1
100
AcDbArc
50
233.130102
51
246.421822
0
ELLIPSE
5
126
100
AcDbEntity
8
1
62
256
6
ByLayer
370
18
48
1
60
0
100
AcDbEllipse
10
34.436886
20
-25.581764
30
0
11
2.73274769807008
21
3.12323390393558
31
0
210
0
220
0
230
1
40
0.985051
41
-2.90094142426122
42
-2.63769971642131
0
ELLIPSE
5
127
100
AcDbEntity
8
1
62
256
6
ByLayer
370
18
48
1
60
0
100
AcDbEllipse
10
28.912718
20
-30.116531
30
0
11
1.97548026366512
21
2.25775944862813
31
0
210
0
220
0
230
1
40
0.985051
41
0.187717665000392
42
0.503892937168485
0
ELLIPSE
5
128
100
AcDbEntity
8
1
62
256
6
ByLayer
370
18
48
1
60
0
100
AcDbEllipse
10
36.419525
20
-26.001299
30
0
11
2.73274769807008
21
3.12323390393558
31
0
210
0
220
0
230
1
40
0.985051
41
-2.63769971642131
42
0.0694205677493212
0
ELLIPSE
5
129
100
AcDbEntity
8
1
62
256
6
ByLayer
370
18
48
1
60
0
100
AcDbEllipse
10
26.318104
20
-16.260255
30
0
11
-6.82934418825402
21
1.53624801329765
31
0
210
0
220
0
230
1
40
0.083175
41
-2.34385982263154
42
-2.33918532072528
0
ELLIPSE
5
12A
100
AcDbEntity
8
1
62
256
6
ByLayer
370
18
48
1
60
0
100
AcDbEllipse
10
44.861707
20
-32.630649
30
0
11
-0.553909113601406
21
-0.568527709412044
31
0
210
0
220
0
230
1
40
0.987534
41
-0.24612957527653
42
2.86680061301345E-06
0
ELLIPSE
5
12B
100
AcDbEntity
8
1
62
256
6
ByLayer
370
18
48
1
60
0
100
AcDbEllipse
10
36.552035
20
-24.968429
30
0
11
-0.265178536275319
21
-0.272177045135845
31
0
210
0
220
0
230
1
40
0.987534
41
1.75724481403985
42
2.65016371867173
0
ELLIPSE
5
12C
100
AcDbEntity
8
1
62
256
6
ByLayer
370
18
48
1
60
0
100
AcDbEllipse
10
10
20
14.427592
30
0
11
-1.99999999999999
21
2.44921270764474E-16
31
0
210
0
220
0
230
1
40
0.75471
41
-1.57079623541952
42
-0.166210030202421
0
ELLIPSE
5
12D
100
AcDbEntity
8
1
62
256
6
ByLayer
370
18
48
1
60
0
100
AcDbEllipse
10
10
20
14.427592
30
0
11
-1.99999999999999
21
2.44921270764474E-16
31
0
210
0
220
0
230
1
40
0.75471
41
-2.97528467615068
42
-1.57079623541954
0
ELLIPSE
5
12E
100
AcDbEntity
8
1
62
256
6
ByLayer
370
18
48
1
60
0
100
AcDbEllipse
10
10
20
14.427592
30
0
11
-1.65
21
2.02060048380692E-16
31
0
210
0
220
0
230
1
40
0.75471
41
-1.57079640208618
42
0
0
ELLIPSE
5
12F
100
AcDbEntity
8
1
62
256
6
ByLayer
370
18
48
1
60
0
100
AcDbEllipse
10
10
20
14.427592
30
0
11
-1.65
21
2.02060048380692E-16
31
0
210
0
220
0
230
1
40
0.75471
41
0
42
0.949546583286938
0
ELLIPSE
5
130
100
AcDbEntity
8
1
62
256
6
ByLayer
370
18
48
1
60
0
100
AcDbEllipse
10
10
20
14.427592
30
0
11
-1.65
21
2.02060048380692E-16
31
0
210
0
220
0
230
1
40
0.75471
41
2.19194820122988
42
-1.57079640208621
0
ELLIPSE
5
131
100
AcDbEntity
8
1
62
256
6
ByLayer
370
18
48
1
60
0
100
AcDbEllipse
10
21.415098
20
18.098886
30
0
11
-0.455755557534476
21
-41.4717745277765
31
0
210
0
220
0
230
1
40
0.095823
41
-1.18047521397057
42
-1.17695782192183
0
ELLIPSE
5
132
100
AcDbEntity
8
1
62
256
6
ByLayer
370
18
48
1
60
0
100
AcDbEllipse
10
39.319852
20
-19.860033
30
0
11
1.6531431960256
21
1.69677243339753
31
0
210
0
220
0
230
1
40
0.987534
41
1.32466675151839
42
1.6924786934658
0
ELLIPSE
5
133
100
AcDbEntity
8
1
62
256
6
ByLayer
370
18
48
1
60
0
100
AcDbEllipse
10
48.98594
20
-28.141341
30
0
11
-3.83811039345856
21
-3.93940460065038
31
0
210
0
220
0
230
1
40
0.987534
41
-2.14853845995035
42
-1.91297773110387
0
ELLIPSE
5
134
100
AcDbEntity
8
1
62
256
6
ByLayer
370
18
48
1
60
0
100
AcDbEllipse
10
49.290349
20
-28.437922
30
0
11
3.33325036308594
21
3.42122046250672
31
0
210
0
220
0
230
1
40
0.987534
41
1.08658207670532
42
1.1189487015444
0
ELLIPSE
5
135
100
AcDbEntity
8
1
62
256
6
ByLayer
370
18
48
1
60
0
100
AcDbEllipse
10
49.290349
20
-28.437922
30
0
11
3.33325036308594
21
3.42122046250672
31
0
210
0
220
0
230
1
40
0.987534
41
-3.14078690175957
42
-3.1147309690134
0
ELLIPSE
5
136
100
AcDbEntity
8
1
62
256
6
ByLayer
370
18
48
1
60
0
100
AcDbEllipse
10
48.98594
20
-28.141341
30
0
11
-3.83811039345856
21
-3.93940460065038
31
0
210
0
220
0
230
1
40
0.987534
41
-0.0239491959855054
42
0.120389567642278
0
ELLIPSE
5
137
100
AcDbEntity
8
1
62
256
6
ByLayer
370
18
48
1
60
0
100
AcDbEllipse
10
50.537386
20
-22.360755
30
0
11
1.10781822720282
21
1.13705541882408
31
0
210
0
220
0
230
1
40
0.987534
41
0.0698525862704967
42
0.713801513320353
0
ELLIPSE
5
138
100
AcDbEntity
8
1
62
256
6
ByLayer
370
18
48
1
60
0
100
AcDbEllipse
10
45.007678
20
-31.55751
30
0
11
1.10781822720282
21
1.13705541882408
31
0
210
0
220
0
230
1
40
0.987534
41
2.94465960979801
42
-3.14158956499137
0
ELLIPSE
5
139
100
AcDbEntity
8
1
62
256
6
ByLayer
370
18
48
1
60
0
100
AcDbEllipse
10
51.313033
20
-21.901102
30
0
11
-0.553909113601406
21
-0.568527709412044
31
0
210
0
220
0
230
1
40
0.987534
41
-3.14159020286453
42
-2.42779114026944
0
ELLIPSE
5
13A
100
AcDbEntity
8
1
62
256
6
ByLayer
370
18
48
1
60
0
100
AcDbEllipse
10
22.136098
20
1.349449
30
0
11
1.42905700374914
21
1.67266137638063
31
0
210
0
220
0
230
1
40
0.147798
41
-3.14153129165429
42
-2.19572827522664E-05
0
ELLIPSE
5
13B
100
AcDbEntity
8
1
62
256
6
ByLayer
370
18
48
1
60
0
100
AcDbEllipse
10
22.324086
20
1.188839
30
0
11
-1.26666416241403
21
-1.48258621997374
31
0
210
0
220
0
230
1
40
0.147798
41
0.150045002720969
42
2.99157261761998
0
ELLIPSE
5
13C
100
AcDbEntity
8
1
62
256
6
ByLayer
370
18
48
1
60
0
100
AcDbEllipse
10
36.054108
20
-24.348535
30
0
11
0.296581257676345
21
0.304408537322982
31
0
210
0
220
0
230
1
40
0.987534
41
2.96486387275289
42
-3.14158583862832
0
ELLIPSE
5
13D
100
AcDbEntity
8
1
62
256
6
ByLayer
370
18
48
1
60
0
100
AcDbEllipse
10
34.196555
20
-26.384267
30
0
11
0.296581257676345
21
0.304408537322982
31
0
210
0
220
0
230
1
40
0.987534
41
-1.8810542918947E-05
42
0.318982664743809
0
ELLIPSE
5
13E
100
AcDbEntity
8
1
62
256
6
ByLayer
370
18
48
1
60
0
100
AcDbEllipse
10
34.860217
20
-26.822527
30
0
11
-0.265178536275319
21
-0.272177045135845
31
0
210
0
220
0
230
1
40
0.987534
41
0.491408143513496
42
1.45059404963506
0
ELLIPSE
5
13F
100
AcDbEntity
8
1
62
256
6
ByLayer
370
18
48
1
60
0
100
AcDbEllipse
10
37.215698
20
-25.406689
30
0
11
0.296581257676345
21
0.304408537322982
31
0
210
0
220
0
230
1
40
0.987534
41
1.75724481403988
42
3.14157244993311
0
ELLIPSE
5
140
100
AcDbEntity
8
1
62
256
6
ByLayer
370
18
48
1
60
0
100
AcDbEllipse
10
35.358144
20
-27.442421
30
0
11
0.296581257676345
21
0.304408537322982
31
0
210
0
220
0
230
1
40
0.987534
41
6.81496145248127E-06
42
1.45059404963504
0
ELLIPSE
5
141
100
AcDbEntity
8
1
62
256
6
ByLayer
370
18
48
1
60
0
100
AcDbEllipse
10
36.922543
20
-26.154761
30
0
11
-0.265178536275319
21
-0.272177045135845
31
0
210
0
220
0
230
1
40
0.987534
41
0.710047262843311
42
2.66026584144793
0
ELLIPSE
5
142
100
AcDbEntity
8
1
62
256
6
ByLayer
370
18
48
1
60
0
100
AcDbEllipse
10
36.076634
20
-27.08181
30
0
11
-0.265178536275319
21
-0.272177045135845
31
0
210
0
220
0
230
1
40
0.987534
41
0.455261491284148
42
2.49779160083166
0
ELLIPSE
5
143
100
AcDbEntity
8
1
62
256
6
ByLayer
370
18
48
1
60
0
100
AcDbEllipse
10
35.706126
20
-25.895478
30
0
11
0.802513991359522
21
0.823693689226893
31
0
210
0
220
0
230
1
40
0.987534
41
0.778645720303558
42
1.21422098064055
0
ELLIPSE
5
144
100
AcDbEntity
8
1
62
256
6
ByLayer
370
18
48
1
60
0
100
AcDbEllipse
10
35.706126
20
-25.895478
30
0
11
0.802513991359522
21
0.823693689226893
31
0
210
0
220
0
230
1
40
0.987534
41
2.00639326481107
42
2.58847133294152
0
ELLIPSE
5
145
100
AcDbEntity
8
1
62
256
6
ByLayer
370
18
48
1
60
0
100
AcDbEllipse
10
35.706126
20
-25.895478
30
0
11
0.802513991359522
21
0.823693689226893
31
0
210
0
220
0
230
1
40
0.987534
41
3.08258535510242
42
0
0
ELLIPSE
5
146
100
AcDbEntity
8
1
62
256
6
ByLayer
370
18
48
1
60
0
100
AcDbEllipse
10
35.706126
20
-25.895478
30
0
11
0.802513991359522
21
0.823693689226893
31
0
210
0
220
0
230
1
40
0.987534
41
0
42
0.0962069311569865
0
ELLIPSE
5
147
100
AcDbEntity
8
1
62
256
6
ByLayer
370
18
48
1
60
0
100
AcDbEllipse
10
35.706126
20
-25.895478
30
0
11
0.802513991359522
21
0.823693689226893
31
0
210
0
220
0
230
1
40
0.987534
41
0.634989872114799
42
0.778645720303558
0
ELLIPSE
5
148
100
AcDbEntity
8
1
62
256
6
ByLayer
370
18
48
1
60
0
100
AcDbEllipse
10
35.610294
20
-25.80211
30
0
11
0.802513991359522
21
0.823693689226893
31
0
210
0
220
0
230
1
40
0.987534
41
-3.08269266772684
42
-0.0589100572534699
0
ELLIPSE
5
149
100
AcDbEntity
8
1
62
256
6
ByLayer
370
18
48
1
60
0
100
AcDbEllipse
10
35.587745
20
-25.780141
30
0
11
2.79135301342443
21
2.86502152774571
31
0
210
0
220
0
230
1
40
0.987534
41
0.78107410741534
42
3.1415882062199
0
ELLIPSE
5
14A
100
AcDbEntity
8
1
62
256
6
ByLayer
370
18
48
1
60
0
100
AcDbEllipse
10
35.587745
20
-25.780141
30
0
11
2.79135301342443
21
2.86502152774571
31
0
210
0
220
0
230
1
40
0.987534
41
9.36334057260089E-05
42
0.36834709965531
0
ELLIPSE
5
14B
100
AcDbEntity
8
1
62
256
6
ByLayer
370
18
48
1
60
0
100
AcDbEllipse
10
34.743384
20
-25.883347
30
0
11
-0.265178536275319
21
-0.272177045135845
31
0
210
0
220
0
230
1
40
0.987534
41
-2.4315453907465
42
0.403396498438467
0
ELLIPSE
5
14C
100
AcDbEntity
8
1
62
256
6
ByLayer
370
18
48
1
60
0
100
AcDbEllipse
10
35.9598
20
-26.14263
30
0
11
0.819959947693425
21
0.841600073775304
31
0
210
0
220
0
230
1
40
0.987534
41
-1.60091707345103
42
-1.47442937005363
0
ELLIPSE
5
14D
100
AcDbEntity
8
1
62
256
6
ByLayer
370
18
48
1
60
0
100
AcDbEllipse
10
35.611818
20
-27.689573
30
0
11
0.296581257676345
21
0.304408537322982
31
0
210
0
220
0
230
1
40
0.987534
41
0.732357599189287
42
1.45059404963506
0
ELLIPSE
5
14E
100
AcDbEntity
8
1
62
256
6
ByLayer
370
18
48
1
60
0
100
AcDbEllipse
10
36.307782
20
-24.595686
30
0
11
0.296581257676345
21
0.304408537322982
31
0
210
0
220
0
230
1
40
0.987534
41
-2.40923505440051
42
-1.69099860395473
0
ELLIPSE
5
14F
100
AcDbEntity
8
1
62
256
6
ByLayer
370
18
48
1
60
0
100
AcDbEllipse
10
35.9598
20
-26.14263
30
0
11
0.819959947693425
21
0.841600073775304
31
0
210
0
220
0
230
1
40
0.987534
41
-0.553719522254427
42
-0.427231818857037
0
ELLIPSE
5
150
100
AcDbEntity
8
1
62
256
6
ByLayer
370
18
48
1
60
0
100
AcDbEllipse
10
36.330308
20
-27.328961
30
0
11
-0.265178536275319
21
-0.272177045135845
31
0
210
0
220
0
230
1
40
0.987534
41
-0.337150288353332
42
2.49779160083166
0
ELLIPSE
5
151
100
AcDbEntity
8
1
62
256
6
ByLayer
370
18
48
1
60
0
100
AcDbEllipse
10
37.469372
20
-25.653841
30
0
11
0.296581257676345
21
0.304408537322982
31
0
210
0
220
0
230
1
40
0.987534
41
1.75724481403989
42
2.47548126448566
0
ELLIPSE
5
152
100
AcDbEntity
8
1
62
256
6
ByLayer
370
18
48
1
60
0
100
AcDbEllipse
10
35.9598
20
-26.14263
30
0
11
0.819959947693425
21
0.841600073775304
31
0
210
0
220
0
230
1
40
0.987534
41
0.493478028942164
42
0.619965732339555
0
ELLIPSE
5
153
100
AcDbEntity
8
1
62
256
6
ByLayer
370
18
48
1
60
0
100
AcDbEllipse
10
34.798211
20
-25.084475
30
0
11
0.296581257676345
21
0.304408537322982
31
0
210
0
220
0
230
1
40
0.987534
41
-2.43154539074653
42
-1.71330894030076
0
ELLIPSE
5
154
100
AcDbEntity
8
1
62
256
6
ByLayer
370
18
48
1
60
0
100
AcDbEllipse
10
37.469372
20
-25.653841
30
0
11
0.296581257676345
21
0.304408537322982
31
0
210
0
220
0
230
1
40
0.987534
41
2.82675270158252
42
-2.7381961551513
0
ELLIPSE
5
155
100
AcDbEntity
8
1
62
256
6
ByLayer
370
18
48
1
60
0
100
AcDbEllipse
10
35.9598
20
-26.14263
30
0
11
0.819959947693425
21
0.841600073775304
31
0
210
0
220
0
230
1
40
0.987534
41
-2.64811462464763
42
-2.52162692125022
0
ELLIPSE
5
156
100
AcDbEntity
8
1
62
256
6
ByLayer
370
18
48
1
60
0
100
AcDbEllipse
10
35.9598
20
-26.14263
30
0
11
-1.60502798271903
21
-1.64738737845379
31
0
210
0
220
0
230
1
40
0.987534
41
0
42
6.28318530717959
0
ELLIPSE
5
157
100
AcDbEntity
8
1
62
256
6
ByLayer
370
18
48
1
60
0
100
AcDbEllipse
10
34.450229
20
-26.631419
30
0
11
0.296581257676345
21
0.304408537322982
31
0
210
0
220
0
230
1
40
0.987534
41
-1.38434783954993
42
-0.666111389104171
0
ELLIPSE
5
158
100
AcDbEntity
8
1
62
256
6
ByLayer
370
18
48
1
60
0
100
AcDbEllipse
10
37.12139
20
-27.200784
30
0
11
0.296581257676345
21
0.304408537322982
31
0
210
0
220
0
230
1
40
0.987534
41
0.710047262843238
42
1.428283713289
0
ELLIPSE
5
159
100
AcDbEntity
8
1
62
256
6
ByLayer
370
18
48
1
60
0
100
AcDbEllipse
10
34.798211
20
-25.084475
30
0
11
0.296581257676345
21
0.304408537322982
31
0
210
0
220
0
230
1
40
0.987534
41
-1.36203750320387
42
-0.643801052758143
0
ELLIPSE
5
15A
100
AcDbEntity
8
1
62
256
6
ByLayer
370
18
48
1
60
0
100
AcDbEllipse
10
34.450229
20
-26.631419
30
0
11
0.296581257676345
21
0.304408537322982
31
0
210
0
220
0
230
1
40
0.987534
41
-0.314839952007274
42
0.403396498438462
0
ELLIPSE
5
15B
100
AcDbEntity
8
1
62
256
6
ByLayer
370
18
48
1
60
0
100
AcDbEllipse
10
36.805709
20
-25.21558
30
0
11
-0.265178536275319
21
-0.272177045135845
31
0
210
0
220
0
230
1
40
0.987534
41
1.75724481403985
42
-1.69099860395475
0
ELLIPSE
5
15C
100
AcDbEntity
8
1
62
256
6
ByLayer
370
18
48
1
60
0
100
AcDbEllipse
10
35.9598
20
-26.14263
30
0
11
0.819959947693425
21
0.841600073775304
31
0
210
0
220
0
230
1
40
0.987534
41
1.54067558013876
42
1.66716328353617
0
ELLIPSE
5
15D
100
AcDbEntity
8
1
62
256
6
ByLayer
370
18
48
1
60
0
100
AcDbEllipse
10
35.589293
20
-24.956298
30
0
11
-0.265178536275319
21
-0.272177045135845
31
0
210
0
220
0
230
1
40
0.987534
41
2.80444236523649
42
-0.643801052758146
0
ELLIPSE
5
15E
100
AcDbEntity
8
1
62
256
6
ByLayer
370
18
48
1
60
0
100
AcDbEllipse
10
37.12139
20
-27.200784
30
0
11
0.296581257676345
21
0.304408537322982
31
0
210
0
220
0
230
1
40
0.987534
41
1.7795551503859
42
2.49779160083165
0
ELLIPSE
5
15F
100
AcDbEntity
8
1
62
256
6
ByLayer
370
18
48
1
60
0
100
AcDbEllipse
10
35.611818
20
-27.689573
30
0
11
0.296581257676345
21
0.304408537322982
31
0
210
0
220
0
230
1
40
0.987534
41
-0.33715028835334
42
0.381086162092413
0
ELLIPSE
5
160
100
AcDbEntity
8
1
62
256
6
ByLayer
370
18
48
1
60
0
100
AcDbEllipse
10
35.113892
20
-27.069679
30
0
11
-0.265178536275319
21
-0.272177045135845
31
0
210
0
220
0
230
1
40
0.987534
41
-1.38434783954994
42
1.45059404963504
0
ELLIPSE
5
161
100
AcDbEntity
8
1
62
256
6
ByLayer
370
18
48
1
60
0
100
AcDbEllipse
10
35.862075
20
-26.047417
30
0
11
-2.79135301342441
21
-2.86502152774573
31
0
210
0
220
0
230
1
40
0.987534
41
0
42
6.28318530717959
0
ELLIPSE
5
162
100
AcDbEntity
8
1
62
256
6
ByLayer
370
18
48
1
60
0
100
AcDbEllipse
10
36.307782
20
-24.595686
30
0
11
0.296581257676345
21
0.304408537322982
31
0
210
0
220
0
230
1
40
0.987534
41
2.80444236523646
42
-2.76050649149738
0
ELLIPSE
5
163
100
AcDbEntity
8
1
62
256
6
ByLayer
370
18
48
1
60
0
100
AcDbEllipse
10
37.176217
20
-26.401912
30
0
11
-0.265178536275319
21
-0.272177045135845
31
0
210
0
220
0
230
1
40
0.987534
41
0.710047262843258
42
-2.73819615515136
0
ELLIPSE
5
164
100
AcDbEntity
8
1
62
256
6
ByLayer
370
18
48
1
60
0
100
AcDbEllipse
10
36.867716
20
-26.953632
30
0
11
0.296581257676345
21
0.304408537322982
31
0
210
0
220
0
230
1
40
0.987534
41
0.710047262843244
42
2.49779160083162
0
ELLIPSE
5
165
100
AcDbEntity
8
1
62
256
6
ByLayer
370
18
48
1
60
0
100
AcDbEllipse
10
35.9598
20
-26.14263
30
0
11
0.819959947693425
21
0.841600073775304
31
0
210
0
220
0
230
1
40
0.987534
41
2.58787313133536
42
2.71436083473276
0
ELLIPSE
5
166
100
AcDbEntity
8
1
62
256
6
ByLayer
370
18
48
1
60
0
100
AcDbEllipse
10
49.950824
20
-28.638774
30
0
11
2.27669814141909
21
2.33678404557731
31
0
210
0
220
0
230
1
40
0.987534
41
-1.62493968435206
42
-0.403209207956018
0
ELLIPSE
5
167
100
AcDbEntity
8
1
62
256
6
ByLayer
370
18
48
1
60
0
100
AcDbEllipse
10
49.567494
20
-28.2653
30
0
11
-3.14027214010246
21
-3.22314921871395
31
0
210
0
220
0
230
1
40
0.987534
41
2.73838344563377
42
-3.02120308594752
0
ELLIPSE
5
168
100
AcDbEntity
8
1
62
256
6
ByLayer
370
18
48
1
60
0
100
AcDbEllipse
10
49.950824
20
-28.638774
30
0
11
-2.5045224722258
21
-2.57062104475529
31
0
210
0
220
0
230
1
40
0.987534
41
0.993054193639443
42
1.0868186931974
0
ELLIPSE
5
169
100
AcDbEntity
8
1
62
256
6
ByLayer
370
18
48
1
60
0
100
AcDbEllipse
10
51.645982
20
-30.434511
30
0
11
-1.18002972418218
21
-1.30251822454605
31
0
210
0
220
0
230
1
40
0.817891
41
0.440255099983138
42
1.46121266042989
0
ELLIPSE
5
16A
100
AcDbEntity
8
1
62
256
6
ByLayer
370
18
48
1
60
0
100
AcDbEllipse
10
45.973358
20
-30.198138
30
0
11
-8.06038491397191
21
-2.1128838085861
31
0
210
0
220
0
230
1
40
0.734404
41
-2.05544723618304
42
-1.99187657640866
0
ELLIPSE
5
16B
100
AcDbEntity
8
1
62
256
6
ByLayer
370
18
48
1
60
0
100
AcDbEllipse
10
49.567494
20
-28.2653
30
0
11
-3.14027214010246
21
-3.22314921871395
31
0
210
0
220
0
230
1
40
0.987534
41
1.51665296923774
42
2.73838344563377
0
ELLIPSE
5
16C
100
AcDbEntity
8
1
62
256
6
ByLayer
370
18
48
1
60
0
100
AcDbEllipse
10
49.567494
20
-28.2653
30
0
11
-3.14027214010246
21
-3.22314921871395
31
0
210
0
220
0
230
1
40
0.987534
41
0.993054193639441
42
1.51665296923774
0
ELLIPSE
5
16D
100
AcDbEntity
8
1
62
256
6
ByLayer
370
18
48
1
60
0
100
AcDbEllipse
10
47.452773
20
-23.621443
30
0
11
-3.87493670827157
21
8.82516453350599
31
0
210
0
220
0
230
1
40
0.705728
41
2.39247928219121
42
2.45604994102245
0
ELLIPSE
5
16E
100
AcDbEntity
8
1
62
256
6
ByLayer
370
18
48
1
60
0
100
AcDbEllipse
10
49.950824
20
-28.638774
30
0
11
-2.5045224722258
21
-2.57062104475529
31
0
210
0
220
0
230
1
40
0.987534
41
-3.11496758550547
42
-3.02120308594752
0
ELLIPSE
5
16F
100
AcDbEntity
8
1
62
256
6
ByLayer
370
18
48
1
60
0
100
AcDbEllipse
10
49.36927
20
-28.514814
30
0
11
2.34065081979869
21
2.40242454301112
31
0
210
0
220
0
230
1
40
0.987534
41
-2.20962498377015
42
0.181476091462083
0
ELLIPSE
5
170
100
AcDbEntity
8
1
62
256
6
ByLayer
370
18
48
1
60
0
100
AcDbEllipse
10
52.1247
20
-28.306382
30
0
11
-1.11139394241221
21
-2.32089560889042
31
0
210
0
220
0
230
1
40
0.561537
41
2.67306477768119
42
-2.58916296905129
0
ELLIPSE
5
171
100
AcDbEntity
8
1
62
256
6
ByLayer
370
18
48
1
60
0
100
AcDbEllipse
10
10
20
12.665093
30
0
11
-1.86732139085278
21
2.63482006210088
31
0
210
0
220
0
230
1
40
0.271866
41
0.0397891263266403
42
0.69280105937829
0
ELLIPSE
5
172
100
AcDbEntity
8
1
62
256
6
ByLayer
370
18
48
1
60
0
100
AcDbEllipse
10
39.574596
20
-19.702005
30
0
11
1.6531431960256
21
1.69677243339753
31
0
210
0
220
0
230
1
40
0.987534
41
-0.2461295752765
42
1.32466675151838
0
ELLIPSE
5
173
100
AcDbEntity
8
1
62
256
6
ByLayer
370
18
48
1
60
0
100
AcDbEllipse
10
18.187217
20
0
30
0
11
1.53075794227798E-15
21
25.0000000000001
31
0
210
0
220
0
230
1
40
0.087489
41
0.353363115402329
42
2.78822953818746
0
ELLIPSE
5
174
100
AcDbEntity
8
1
62
256
6
ByLayer
370
18
48
1
60
0
100
AcDbEllipse
10
10
20
14.658522
30
0
11
-2.00000000000007
21
2.0212781101648E-15
31
0
210
0
220
0
230
1
40
0.708833
41
-2.39008803209745
42
-0.751504621492353
0
ELLIPSE
5
175
100
AcDbEntity
8
1
62
256
6
ByLayer
370
18
48
1
60
0
100
AcDbEllipse
10
-1.056258
20
0
30
0
11
-11.709272349727
21
24.677186440937
31
0
210
0
220
0
230
1
40
0.341999
41
-2.97437958168081
42
-2.0597599531005
0
ELLIPSE
5
176
100
AcDbEntity
8
1
62
256
6
ByLayer
370
18
48
1
60
0
100
AcDbEllipse
10
17.266848
20
6.922728
30
0
11
-0.0122915086797468
21
-3.25547409899561
31
0
210
0
220
0
230
1
40
0.056579
41
2.12057530926189
42
-2.92661741194284
0
ELLIPSE
5
177
100
AcDbEntity
8
1
62
256
6
ByLayer
370
18
48
1
60
0
100
AcDbEllipse
10
17.007264
20
5.936299
30
0
11
-0.0122915086798446
21
-3.25547409899624
31
0
210
0
220
0
230
1
40
0.056579
41
-2.92661741194299
42
-1.35582108514755
0
ELLIPSE
5
178
100
AcDbEntity
8
1
62
256
6
ByLayer
370
18
48
1
60
0
100
AcDbEllipse
10
21.056258
20
0
30
0
11
-11.7092723497275
21
-24.6771864409378
31
0
210
0
220
0
230
1
40
0.341999
41
-1.08183270048927
42
-0.167213071908978
0
ELLIPSE
5
179
100
AcDbEntity
8
1
62
256
6
ByLayer
370
18
48
1
60
0
100
AcDbEllipse
10
26.121336
20
-13.995927
30
0
11
-6.35840612243808
21
1.85959655303726
31
0
210
0
220
0
230
1
40
0.603796
41
-3.03706033273645
42
-2.80220191734523
0
ELLIPSE
5
17A
100
AcDbEntity
8
1
62
256
6
ByLayer
370
18
48
1
60
0
100
AcDbEllipse
10
10
20
14.658522
30
0
11
-1.99999999999996
21
2.02127811016469E-15
31
0
210
0
220
0
230
1
40
0.708833
41
0.7515046214923
42
2.3900880320975
0
ELLIPSE
5
17B
100
AcDbEntity
8
1
62
256
6
ByLayer
370
18
48
1
60
0
100
AcDbEllipse
10
10
20
12.665093
30
0
11
-1.86732139085312
21
-2.63482006210127
31
0
210
0
220
0
230
1
40
0.271866
41
2.44879159421155
42
3.10180352726319
0
ELLIPSE
5
17C
100
AcDbEntity
8
1
62
256
6
ByLayer
370
18
48
1
60
0
100
AcDbEllipse
10
21.056258
20
0
30
0
11
-11.7092723497278
21
24.6771864409381
31
0
210
0
220
0
230
1
40
0.341999
41
0.167213071908976
42
1.08183270048926
0
ELLIPSE
5
17D
100
AcDbEntity
8
1
62
256
6
ByLayer
370
18
48
1
60
0
100
AcDbEllipse
10
21.415098
20
-14.733923
30
0
11
-3.20165836275386
21
-17.4174406277637
31
0
210
0
220
0
230
1
40
0.137666
41
0.898481715211586
42
0.927986349608837
0
ELLIPSE
5
17E
100
AcDbEntity
8
1
62
256
6
ByLayer
370
18
48
1
60
0
100
AcDbEllipse
10
-1.056258
20
0
30
0
11
-11.7092723497277
21
-24.677186440938
31
0
210
0
220
0
230
1
40
0.341999
41
2.05975995310053
42
2.97437958168082
0
ELLIPSE
5
17F
100
AcDbEntity
8
1
62
256
6
ByLayer
370
18
48
1
60
0
100
AcDbEllipse
10
59.211311
20
-34.211053
30
0
11
-0.553909113601406
21
-0.568527709412044
31
0
210
0
220
0
230
1
40
0.987534
41
0.713801513320373
42
2.89546307831326
0
ELLIPSE
5
180
100
AcDbEntity
8
1
62
256
6
ByLayer
370
18
48
1
60
0
100
AcDbEllipse
10
45.760277
20
-33.506114
30
0
11
-0.553909113601406
21
-0.568527709412044
31
0
210
0
220
0
230
1
40
0.987534
41
-0.24612957527653
42
0.713801513320353
0
ELLIPSE
5
181
100
AcDbEntity
8
1
62
256
6
ByLayer
370
18
48
1
60
0
100
AcDbEllipse
10
52.211603
20
-22.776567
30
0
11
-0.553909113601406
21
-0.568527709412044
31
0
210
0
220
0
230
1
40
0.987534
41
2.89546307831328
42
-2.42779114026944
0
ELLIPSE
5
182
100
AcDbEntity
8
1
62
256
6
ByLayer
370
18
48
1
60
0
100
AcDbEllipse
10
33.096751
20
-23.314769
30
0
11
-1.86898624751258
21
5.50723322802671
31
0
210
0
220
0
230
1
40
0.061891
41
-1.40089888594413
42
-0.476582806388737
0
ELLIPSE
5
183
100
AcDbEntity
8
1
62
256
6
ByLayer
370
18
48
1
60
0
100
AcDbEllipse
10
32.145391
20
-27.544014
30
0
11
4.87810299161002
21
-1.09732000949831
31
0
210
0
220
0
230
1
40
0.083175
41
-2.50322075590716
42
-2.01002282198713
0
ELLIPSE
5
184
100
AcDbEntity
8
1
62
256
6
ByLayer
370
18
48
1
60
0
100
AcDbEllipse
10
32.331289
20
-26.71761
30
0
11
-5.52673361217494
21
-1.84611428617469
31
0
210
0
220
0
230
1
40
0.120283
41
0.417647112775383
42
1.28939799337073
0
ELLIPSE
5
185
100
AcDbEntity
8
1
62
256
6
ByLayer
370
18
48
1
60
0
100
AcDbEllipse
10
32.331289
20
-26.71761
30
0
11
-4.00002881858099
21
-4.24260640310966
31
0
210
0
220
0
230
1
40
0.134958
41
0.353496837347172
42
1.27781291690309
0
ELLIPSE
5
186
100
AcDbEntity
8
1
62
256
6
ByLayer
370
18
48
1
60
0
100
AcDbEllipse
10
29.108302
20
-28.985505
30
0
11
-0.601090469014155
21
1.90753512367672
31
0
210
0
220
0
230
1
40
0.85762
41
1.14889481180965
42
2.59810953553624
0
ELLIPSE
5
187
100
AcDbEntity
8
1
62
256
6
ByLayer
370
18
48
1
60
0
100
AcDbEllipse
10
33.486618
20
-21.592802
30
0
11
-2.42615365607855
21
3.84689580767764
31
0
210
0
220
0
230
1
40
0.531047
41
-0.477715293963092
42
-0.156372040986155
0
ELLIPSE
5
188
100
AcDbEntity
8
1
62
256
6
ByLayer
370
18
48
1
60
0
100
AcDbEllipse
10
31.299865
20
-31.728374
30
0
11
-2.9620572925141
21
0.500337236214269
31
0
210
0
220
0
230
1
40
0.282948
41
-0.505490555226276
42
0.03182340209886
0
ELLIPSE
5
189
100
AcDbEntity
8
1
62
256
6
ByLayer
370
18
48
1
60
0
100
AcDbEllipse
10
33.096751
20
-23.314769
30
0
11
-4.22791074141569
21
3.98771042233431
31
0
210
0
220
0
230
1
40
0.002215
41
0.491530130466044
42
1.36328101098744
0
ELLIPSE
5
18A
100
AcDbEntity
8
1
62
256
6
ByLayer
370
18
48
1
60
0
100
AcDbEllipse
10
46.667169
20
-31.64066
30
0
11
-1.06317309337123
21
-0.176011767040234
31
0
210
0
220
0
230
1
40
0.129407
41
0.860249538187871
42
1.38384831376576
0
ELLIPSE
5
18B
100
AcDbEntity
8
1
62
256
6
ByLayer
370
18
48
1
60
0
100
AcDbEllipse
10
34.28523
20
-18.457022
30
0
11
-2.88477964918654
21
0.840145193418287
31
0
210
0
220
0
230
1
40
0.448671
41
-0.0191915564832486
42
0.518122400842362
0
ELLIPSE
5
18C
100
AcDbEntity
8
1
62
256
6
ByLayer
370
18
48
1
60
0
100
AcDbEllipse
10
50.763613
20
-26.356609
30
0
11
-1.23084553580845
21
7.65207237919069
31
0
210
0
220
0
230
1
40
0.541677
41
0.975502599597744
42
1.05480503931642
0
ELLIPSE
5
18D
100
AcDbEntity
8
1
62
256
6
ByLayer
370
18
48
1
60
0
100
AcDbEllipse
10
48.245345
20
-24.624928
30
0
11
-0.874174793453965
21
0.639360654067198
31
0
210
0
220
0
230
1
40
0.269943
41
-1.31942814510012
42
-0.795829369499548
0
ELLIPSE
5
18E
100
AcDbEntity
8
1
62
256
6
ByLayer
370
18
48
1
60
0
100
AcDbEllipse
10
49.683428
20
-31.158538
30
0
11
-5.19742956070613
21
-2.28344742678228
31
0
210
0
220
0
230
1
40
0.479203
41
-0.459971646795821
42
-0.380669207479873
0
ELLIPSE
5
18F
100
AcDbEntity
8
1
62
256
6
ByLayer
370
18
48
1
60
0
100
AcDbEllipse
10
31.631362
20
-29.829111
30
0
11
-4.91137282484735
21
0.949223354783405
31
0
210
0
220
0
230
1
40
0.13683
41
-0.494371612991859
42
-0.388977937990532
0
ELLIPSE
5
190
100
AcDbEntity
8
1
62
256
6
ByLayer
370
18
48
1
60
0
100
AcDbEllipse
10
33.796677
20
-20.203268
30
0
11
-4.84186765956923
21
1.25727766092229
31
0
210
0
220
0
230
1
40
0.303008
41
0.394763554205315
42
0.500157229162228
0
ELLIPSE
5
191
100
AcDbEntity
8
1
62
256
6
ByLayer
370
18
48
1
60
0
100
AcDbEllipse
10
28.270843
20
-27.744407
30
0
11
-2.66344707802358
21
-1.40123612186505
31
0
210
0
220
0
230
1
40
0.988643
41
-0.699939923636876
42
0.352590980824656
0
ELLIPSE
5
192
100
AcDbEntity
8
1
62
256
6
ByLayer
370
18
48
1
60
0
100
AcDbEllipse
10
31.10384
20
-20.114401
30
0
11
1.62704693936932
21
1.16306416722765
31
0
210
0
220
0
230
1
40
0.802911
41
0.786293165216869
42
2.23550788894346
0
ELLIPSE
5
193
100
AcDbEntity
8
1
62
256
6
ByLayer
370
18
48
1
60
0
100
AcDbEllipse
10
31.658256
20
-29.720728
30
0
11
-3.84862770075427
21
-0.899939989674579
31
0
210
0
220
0
230
1
40
0.443257
41
0.434318692347529
42
0.755661945335343
0
ELLIPSE
5
194
100
AcDbEntity
8
1
62
256
6
ByLayer
370
18
48
1
60
0
100
AcDbEllipse
10
33.282649
20
-22.488365
30
0
11
4.87810299161002
21
-1.09732000949831
31
0
210
0
220
0
230
1
40
0.083175
41
-2.50322075590716
42
-2.01002282198714
0
ELLIPSE
5
195
100
AcDbEntity
8
1
62
256
6
ByLayer
370
18
48
1
60
0
100
AcDbEllipse
10
30.099205
20
-19.61648
30
0
11
-2.66344707802076
21
-1.40123612186947
31
0
210
0
220
0
230
1
40
0.988643
41
-1.75247082810022
42
-0.69993992363857
0
POINT
5
6C
100
AcDbEntity
8
2
62
256
6
ByLayer
370
18
48
1
60
0
100
AcDbPoint
10
60
20
35
30
0
39
0
210
0
220
0
230
1
50
360
0
POINT
5
6E
100
AcDbEntity
8
80
62
256
6
ByLayer
370
18
48
1
60
0
100
AcDbPoint
10
0
20
0
30
0
39
0
210
0
220
0
230
1
50
360
0
POINT
5
70
100
AcDbEntity
8
81
62
256
6
ByLayer
370
18
48
1
60
0
100
AcDbPoint
10
60
20
-35
30
0
39
0
210
0
220
0
230
1
50
360
0
SPLINE
5
196
100
AcDbEntity
8
SK1
62
256
6
ByLayer
370
18
48
1
60
0
100
AcDbSpline
70
4
71
3
72
13
73
9
40
0
40
0
40
0
40
0
40
0.239456135686852
40
0.368359721835155
40
0.499998983918667
40
0.631638415195385
40
0.7605424677172
40
1
40
1
40
1
40
1
41
1
10
-2.19999999999999
20
-17.5200987347078
30
0
41
1
10
-2.19909198642125
20
-17.4940412586114
30
0
41
1
10
-2.19103284106788
20
-17.4566686743027
30
0
41
1
10
-2.16563592203161
20
-17.4104495005037
30
0
41
1
10
-2.13886378679047
20
-17.3791679466684
30
0
41
1
10
-2.10627712749664
20
-17.3540005764861
30
0
41
1
10
-2.05884064233982
20
-17.3309567740351
30
0
41
1
10
-2.02111030872965
20
-17.324784519015
30
0
41
1
10
-1.99503997793928
20
-17.3251861589552
30
0
0
SPLINE
5
197
100
AcDbEntity
8
SK1
62
256
6
ByLayer
370
18
48
1
60
0
100
AcDbSpline
70
4
71
3
72
13
73
9
40
0
40
0
40
0
40
0
40
0.239457532237385
40
0.368361584743632
40
0.500001016014352
40
0.631640278103004
40
0.760543864266449
40
1
40
1
40
1
40
1
41
1
10
-1.99503997793928
20
17.3251859759625
30
0
41
1
10
-2.02111030873061
20
17.3247843360228
30
0
41
1
10
-2.05884064234166
20
17.3309565910454
30
0
41
1
10
-2.106277127498
20
17.3540003935063
30
0
41
1
10
-2.13886378679174
20
17.3791677636994
30
0
41
1
10
-2.16563592203255
20
17.4104493175479
30
0
41
1
10
-2.19103284106862
20
17.4566684913667
30
0
41
1
10
-2.19909198642199
20
17.4940410756898
30
0
41
1
10
-2.19999999999999
20
17.520098551796
30
0
0
SPLINE
5
198
100
AcDbEntity
8
SK1
62
256
6
ByLayer
370
18
48
1
60
0
100
AcDbSpline
70
4
71
2
72
6
73
3
40
0
40
0
40
0
40
1
40
1
40
1
41
1
10
-28.5
20
-16.854272429841
30
0
41
1
10
-15.3499999999294
20
-17.1845422725478
30
0
41
1
10
-2.19999999999999
20
-17.5148117187522
30
0
0
SPLINE
5
199
100
AcDbEntity
8
SK1
62
256
6
ByLayer
370
18
48
1
60
0
100
AcDbSpline
70
4
71
2
72
6
73
3
40
0
40
0
40
0
40
1
40
1
40
1
41
1
10
-2.19999999999999
20
17.5148116792767
30
0
41
1
10
-15.3499999999286
20
17.1845422635703
30
0
41
1
10
-28.5
20
16.8542724489282
30
0
0
SPLINE
5
19A
100
AcDbEntity
8
SK1
62
256
6
ByLayer
370
18
48
1
60
0
100
AcDbSpline
70
4
71
2
72
6
73
3
40
0
40
0
40
0
40
1
40
1
40
1
41
1
10
-1.99503997793928
20
-17.3199593319919
30
0
41
1
10
-1.19500843340703
20
-17.3400525762132
30
0
41
1
10
-0.394976888875277
20
-17.3601458189993
30
0
0
SPLINE
5
19B
100
AcDbEntity
8
SK1
62
256
6
ByLayer
370
18
48
1
60
0
100
AcDbSpline
70
4
71
2
72
6
73
3
40
0
40
0
40
0
40
1
40
1
40
1
41
1
10
-0.394976888875277
20
17.3601457933935
30
0
41
1
10
-1.19500843340703
20
17.340052552406
30
0
41
1
10
-1.99503997793928
20
17.3199593099743
30
0
0
SPLINE
5
19C
100
AcDbEntity
8
SK1
62
256
6
ByLayer
370
18
48
1
60
0
100
AcDbSpline
70
4
71
2
72
6
73
3
40
0
40
0
40
0
40
1
40
1
40
1
41
1
10
-28.5
20
16.8584504491481
30
0
41
1
10
-29.2499999991495
20
16.4254650261933
30
0
41
1
10
-30
20
15.9924794145163
30
0
0
SPLINE
5
19D
100
AcDbEntity
8
SK1
62
256
6
ByLayer
370
18
48
1
60
0
100
AcDbSpline
70
4
71
2
72
6
73
3
40
0
40
0
40
0
40
1
40
1
40
1
41
1
10
-30
20
-15.99247954079
30
0
41
1
10
-29.2499999991495
20
-16.4254651505507
30
0
41
1
10
-28.5
20
-16.8584505716142
30
0
0
SPLINE
5
19E
100
AcDbEntity
8
SK1
62
256
6
ByLayer
370
18
48
1
60
0
100
AcDbSpline
70
4
71
2
72
6
73
3
40
0
40
0
40
0
40
1
40
1
40
1
41
1
10
-0.258658740615658
20
17.4310145299902
30
0
41
1
10
-0.305277226309727
20
17.3671842624703
30
0
41
1
10
-0.394976888875277
20
17.359696795897
30
0
0
SPLINE
5
19F
100
AcDbEntity
8
SK1
62
256
6
ByLayer
370
18
48
1
60
0
100
AcDbSpline
70
4
71
2
72
6
73
3
40
0
40
0
40
0
40
1
40
1
40
1
41
1
10
-0.394976888875277
20
-17.3596982935394
30
0
41
1
10
-0.305123774552612
20
-17.3672404580573
30
0
41
1
10
-0.258442643302431
20
-17.4312381196178
30
0
0
SPLINE
5
1A0
100
AcDbEntity
8
1
62
256
6
ByLayer
370
18
48
1
60
0
100
AcDbSpline
70
4
71
3
72
8
73
4
40
0
40
0
40
0
40
0
40
1
40
1
40
1
40
1
41
1
10
29.2179041469515
20
-16.7734463882102
30
0
41
1
10
29.4381904234127
20
-16.7295110108209
30
0
41
1
10
29.6557605831728
20
-16.7100443752527
30
0
41
1
10
29.8673289709896
20
-16.7093005182817
30
0
0
SPLINE
5
1A1
100
AcDbEntity
8
1
62
256
6
ByLayer
370
18
48
1
60
0
100
AcDbSpline
70
4
71
3
72
8
73
4
40
0
40
0
40
0
40
0
40
1
40
1
40
1
40
1
41
1
10
26.2496424378759
20
-29.9687642513583
30
0
41
1
10
26.4396290645645
20
-30.1293938441939
30
0
41
1
10
26.638262458202
20
-30.265899663529
30
0
41
1
10
26.8388869255586
20
-30.3826071117003
30
0
0
SPLINE
5
1A2
100
AcDbEntity
8
SK1
62
256
6
ByLayer
370
18
48
1
60
0
100
AcDbSpline
70
4
71
3
72
282
73
278
40
0
40
0
40
0
40
0
40
0.0031455698452353
40
0.0067200615155442
40
0.0102945531858532
40
0.0138690448561622
40
0.0174435365264712
40
0.0210180281967801
40
0.0245925198670891
40
0.0281670115373981
40
0.031741503207707
40
0.035315994878016
40
0.0424649782186339
40
0.0460394698889429
40
0.0496139615592519
40
0.0531884532295608
40
0.0567629448998698
40
0.0639119282404877
40
0.0674864199107967
40
0.0710609115811057
40
0.0782098949217236
40
0.0817843865920326
40
0.0853588782623416
40
0.0925078616029595
40
0.0960823532732685
40
0.0996568449435774
40
0.103231336613886
40
0.106805828284195
40
0.110380319954504
40
0.113954811624813
40
0.117529303295122
40
0.121103794965431
40
0.128252778306049
40
0.131827269976358
40
0.135401761646667
40
0.138976253316976
40
0.142550744987285
40
0.149699728327903
40
0.153274219998212
40
0.156848711668521
40
0.16042320333883
40
0.163997695009139
40
0.171146678349757
40
0.174721170020066
40
0.178295661690375
40
0.181870153360684
40
0.185444645030993
40
0.192593628371611
40
0.19616812004192
40
0.199742611712229
40
0.203317103382538
40
0.206891595052846
40
0.214040578393464
40
0.217615070063773
40
0.221189561734082
40
0.224764053404391
40
0.2283385450747
40
0.235487528415318
40
0.239062020085627
40
0.242636511755936
40
0.246211003426245
40
0.249785495096554
40
0.256934478437172
40
0.260508970107481
40
0.26408346177779
40
0.271232445118408
40
0.278381428459026
40
0.281955920129335
40
0.285530411799644
40
0.292679395140262
40
0.296253886810571
40
0.29982837848088
40
0.303402870151189
40
0.306977361821498
40
0.310551853491807
40
0.314126345162116
40
0.321275328502733
40
0.328424311843351
40
0.33199880351366
40
0.335573295183969
40
0.339147786854278
40
0.342722278524587
40
0.346296770194896
40
0.349871261865205
40
0.357020245205823
40
0.364169228546441
40
0.371318211887059
40
0.374892703557368
40
0.378467195227677
40
0.382041686897986
40
0.385616178568295
40
0.389190670238604
40
0.392765161908913
40
0.396339653579222
40
0.399914145249531
40
0.40348863691984
40
0.407063128590149
40
0.410637620260458
40
0.414212111930767
40
0.417786603601076
40
0.421361095271385
40
0.424935586941693
40
0.428510078612003
40
0.432084570282312
40
0.433871816117466
40
0.435659061952621
40
0.437446307787775
40
0.439233553622929
40
0.442808045293238
40
0.446382536963547
40
0.448169782798702
40
0.449957028633856
40
0.451744274469011
40
0.453531520304165
40
0.45531876613932
40
0.457106011974474
40
0.460680503644783
40
0.462467749479938
40
0.464254995315092
40
0.466042241150247
40
0.467829486985401
40
0.469616732820556
40
0.47140397865571
40
0.473191224490865
40
0.474978470326019
40
0.476765716161174
40
0.478552961996328
40
0.480340207831483
40
0.482127453666637
40
0.483914699501792
40
0.485701945336946
40
0.4874891911721
40
0.489276437007255
40
0.491063682842409
40
0.492850928677564
40
0.494638174512718
40
0.496425420347873
40
0.498212666183028
40
0.499999912018182
40
0.501787157853336
40
0.503574403688491
40
0.505361649523645
40
0.5071488953588
40
0.508936141193954
40
0.510723387029109
40
0.512510632864263
40
0.514297878699418
40
0.516085124534572
40
0.517872370369727
40
0.519659616204881
40
0.521446862040036
40
0.52323410787519
40
0.525021353710345
40
0.526808599545499
40
0.528595845380654
40
0.530383091215808
40
0.532170337050963
40
0.533957582886117
40
0.535744828721272
40
0.537532074556426
40
0.539319320391581
40
0.541106566226735
40
0.542893812061889
40
0.544681057897044
40
0.546468303732198
40
0.550042795402507
40
0.551830041237662
40
0.553617287072816
40
0.557191778743125
40
0.560766270413434
40
0.562553516248589
40
0.564340762083743
40
0.566128007918898
40
0.567915253754052
40
0.571489745424361
40
0.57506423709467
40
0.578638728764979
40
0.582213220435288
40
0.585787712105597
40
0.589362203775906
40
0.592936695446215
40
0.596511187116524
40
0.600085678786833
40
0.603660170457142
40
0.607234662127451
40
0.61080915379776
40
0.614383645468069
40
0.617958137138378
40
0.621532628808687
40
0.625107120478996
40
0.628681612149305
40
0.635830595489923
40
0.642979578830541
40
0.650128562171159
40
0.653703053841468
40
0.657277545511777
40
0.660852037182086
40
0.664426528852395
40
0.668001020522703
40
0.671575512193012
40
0.67872449553363
40
0.685873478874248
40
0.689447970544557
40
0.693022462214866
40
0.696596953885175
40
0.700171445555484
40
0.703745937225793
40
0.707320428896102
40
0.71446941223672
40
0.718043903907029
40
0.721618395577338
40
0.728767378917956
40
0.735916362258574
40
0.739490853928883
40
0.743065345599192
40
0.75021432893981
40
0.753788820610119
40
0.757363312280428
40
0.760937803950737
40
0.764512295621046
40
0.771661278961663
40
0.775235770631973
40
0.778810262302281
40
0.78238475397259
40
0.785959245642899
40
0.793108228983517
40
0.796682720653826
40
0.800257212324135
40
0.803831703994444
40
0.807406195664753
40
0.814555179005371
40
0.81812967067568
40
0.821704162345989
40
0.825278654016298
40
0.828853145686607
40
0.836002129027225
40
0.839576620697534
40
0.843151112367843
40
0.844938358202997
40
0.846725604038152
40
0.850300095708461
40
0.857449079049079
40
0.861023570719388
40
0.864598062389697
40
0.868172554060006
40
0.871747045730315
40
0.878896029070933
40
0.882470520741242
40
0.886045012411551
40
0.88961950408186
40
0.893193995752168
40
0.896768487422477
40
0.900342979092786
40
0.903917470763095
40
0.907491962433404
40
0.914640945774022
40
0.918215437444331
40
0.92178992911464
40
0.928938912455258
40
0.932513404125567
40
0.936087895795876
40
0.943236879136494
40
0.946811370806803
40
0.950385862477112
40
0.953960354147421
40
0.95753484581773
40
0.964683829158348
40
0.968258320828657
40
0.971832812498966
40
0.975407304169275
40
0.978981795839584
40
0.982556287509893
40
0.986130779180202
40
0.989705270850511
40
0.99327976252082
40
0.996854254191129
40
1
40
1
40
1
40
1
41
1
10
-2.19999999999996
20
-17.5147448764755
30
0
41
1
10
-2.19999999999996
20
-17.5132050113619
30
0
41
1
10
-2.20000000000002
20
-17.5092143152241
30
0
41
1
10
-2.19999999999999
20
-17.5008423359265
30
0
41
1
10
-2.19999999999999
20
-17.4896606050755
30
0
41
1
10
-2.19999999999999
20
-17.4760589345483
30
0
41
1
10
-2.19999999999999
20
-17.4600756660116
30
0
41
1
10
-2.19999999999999
20
-17.4417480829298
30
0
41
1
10
-2.19999999999999
20
-17.4211116708093
30
0
41
1
10
-2.19999999999999
20
-17.3981999720817
30
0
41
1
10
-2.19999999999999
20
-17.373046254225
30
0
41
1
10
-2.19999999999999
20
-17.3365615480365
30
0
41
1
10
-2.19999999999999
20
-17.2957083393221
30
0
41
1
10
-2.19999999999999
20
-17.2506132986913
30
0
41
1
10
-2.19999999999999
20
-17.2146924230801
30
0
41
1
10
-2.19999999999999
20
-17.1766986759847
30
0
41
1
10
-2.19999999999999
20
-17.1233138560685
30
0
41
1
10
-2.19999999999999
20
-17.0658713749173
30
0
41
1
10
-2.19999999999999
20
-17.0044820563696
30
0
41
1
10
-2.19999999999999
20
-16.9404819965209
30
0
41
1
10
-2.19999999999999
20
-16.8725984751516
30
0
41
1
10
-2.19999999999999
20
-16.8009296734765
30
0
41
1
10
-2.19999999999999
20
-16.72675615712
30
0
41
1
10
-2.19999999999999
20
-16.6488472996884
30
0
41
1
10
-2.19999999999999
20
-16.5672977573629
30
0
41
1
10
-2.19999999999999
20
-16.5043209819811
30
0
41
1
10
-2.19999999999999
20
-16.4395493732765
30
0
41
1
10
-2.19999999999999
20
-16.3729983406747
30
0
41
1
10
-2.19999999999999
20
-16.3046816133433
30
0
41
1
10
-2.19999999999999
20
-16.2346146587631
30
0
41
1
10
-2.19999999999999
20
-16.1628111167189
30
0
41
1
10
-2.19999999999999
20
-16.0647793469533
30
0
41
1
10
-2.19999999999999
20
-15.9633134995801
30
0
41
1
10
-2.19999999999999
20
-15.8584913887799
30
0
41
1
10
-2.19999999999999
20
-15.7781982427732
30
0
41
1
10
-2.19999999999999
20
-15.6962433497342
30
0
41
1
10
-2.19999999999999
20
-15.5847743861311
30
0
41
1
10
-2.19999999999999
20
-15.4700110710185
30
0
41
1
10
-2.19999999999999
20
-15.3520264687641
30
0
41
1
10
-2.19999999999999
20
-15.2619258251736
30
0
41
1
10
-2.19999999999999
20
-15.1702262286607
30
0
41
1
10
-2.19999999999999
20
-15.0458463802595
30
0
41
1
10
-2.19999999999999
20
-14.9182892137509
30
0
41
1
10
-2.19999999999999
20
-14.7876243835494
30
0
41
1
10
-2.19999999999999
20
-14.6880675684927
30
0
41
1
10
-2.19999999999999
20
-14.5869647024964
30
0
41
1
10
-2.19999999999999
20
-14.4501162009323
30
0
41
1
10
-2.19999999999999
20
-14.310188578504
30
0
41
1
10
-2.19999999999999
20
-14.1672492498436
30
0
41
1
10
-2.19999999999999
20
-14.0585319196999
30
0
41
1
10
-2.19999999999999
20
-13.9483131149779
30
0
41
1
10
-2.19999999999999
20
-13.7993681823229
30
0
41
1
10
-2.19999999999999
20
-13.6474264445925
30
0
41
1
10
-2.19999999999999
20
-13.4925540283558
30
0
41
1
10
-2.19999999999999
20
-13.3749248852381
30
0
41
1
10
-2.19999999999999
20
-13.2558316845062
30
0
41
1
10
-2.19999999999999
20
-13.0951031858018
30
0
41
1
10
-2.19999999999999
20
-12.9314463879873
30
0
41
1
10
-2.19999999999999
20
-12.7649271524075
30
0
41
1
10
-2.19999999999999
20
-12.6385945304865
30
0
41
1
10
-2.19999999999999
20
-12.510828990928
30
0
41
1
10
-2.19999999999999
20
-12.3385783725546
30
0
41
1
10
-2.19999999999999
20
-12.1634558634281
30
0
41
1
10
-2.19999999999999
20
-11.9855279960913
30
0
41
1
10
-2.19999999999999
20
-11.8057193844339
30
0
41
1
10
-2.19999999999999
20
-11.5774197426994
30
0
41
1
10
-2.19999999999999
20
-11.3444552561941
30
0
41
1
10
-2.19999999999999
20
-11.1553144466797
30
0
41
1
10
-2.19999999999999
20
-10.96432157968
30
0
41
1
10
-2.19999999999999
20
-10.7705258372791
30
0
41
1
10
-2.19999999999999
20
-10.5740001677826
30
0
41
1
10
-2.19999999999999
20
-10.4252200954492
30
0
41
1
10
-2.19999999999999
20
-10.2750653600417
30
0
41
1
10
-2.19999999999999
20
-10.1235384488298
30
0
41
1
10
-2.19999999999999
20
-9.97064122920807
30
0
41
1
10
-2.19999999999999
20
-9.76496631801302
30
0
41
1
10
-2.19999999999999
20
-9.50443392738597
30
0
41
1
10
-2.19999999999999
20
-9.23936570098886
30
0
41
1
10
-2.19999999999999
20
-9.02461799380217
30
0
41
1
10
-2.19999999999999
20
-8.86219304475887
30
0
41
1
10
-2.19999999999999
20
-8.69841428000512
30
0
41
1
10
-2.19999999999999
20
-8.53328405958746
30
0
41
1
10
-2.19999999999999
20
-8.36680339868337
30
0
41
1
10
-2.19999999999999
20
-8.14304412571011
30
0
41
1
10
-2.19999999999999
20
-7.85994707617317
30
0
41
1
10
-2.19999999999999
20
-7.51487111531026
30
0
41
1
10
-2.19999999999999
20
-7.22282329277962
30
0
41
1
10
-2.19999999999999
20
-6.98653548716825
30
0
41
1
10
-2.19999999999999
20
-6.80797157864473
30
0
41
1
10
-2.19999999999999
20
-6.62807270531451
30
0
41
1
10
-2.19999999999999
20
-6.44684086969582
30
0
41
1
10
-2.19999999999999
20
-6.26427776637016
30
0
41
1
10
-2.19999999999999
20
-6.0803858592752
30
0
41
1
10
-2.19999999999999
20
-5.89516728223867
30
0
41
1
10
-2.19999999999999
20
-5.70862469092603
30
0
41
1
10
-2.19999999999999
20
-5.52076103085633
30
0
41
1
10
-2.19999999999999
20
-5.33157993388585
30
0
41
1
10
-2.19999999999999
20
-5.14108511996025
30
0
41
1
10
-2.19999999999999
20
-4.94928086714648
30
0
41
1
10
-2.19999999999999
20
-4.75617251627347
30
0
41
1
10
-2.19999999999999
20
-4.56176620564526
30
0
41
1
10
-2.19999999999999
20
-4.36606873641344
30
0
41
1
10
-2.19999999999999
20
-4.16908849962459
30
0
41
1
10
-2.19999999999999
20
-4.00386590607064
30
0
41
1
10
-2.19999999999999
20
-3.87107810854147
30
0
41
1
10
-2.19999999999999
20
-3.77116418570387
30
0
41
1
10
-2.19999999999999
20
-3.67093805129474
30
0
41
1
10
-2.19999999999999
20
-3.5369018254882
30
0
41
1
10
-2.19999999999999
20
-3.36855658184018
30
0
41
1
10
-2.19999999999999
20
-3.19919951970698
30
0
41
1
10
-2.19999999999999
20
-3.06314133422208
30
0
41
1
10
-2.19999999999999
20
-2.96079189341756
30
0
41
1
10
-2.19999999999999
20
-2.85815023786418
30
0
41
1
10
-2.19999999999999
20
-2.75522026664268
30
0
41
1
10
-2.19999999999999
20
-2.65200561172494
30
0
41
1
10
-2.19999999999999
20
-2.51402705629772
30
0
41
1
10
-2.19999999999999
20
-2.375450816946
30
0
41
1
10
-2.19999999999999
20
-2.23639085040648
30
0
41
1
10
-2.19999999999999
20
-2.13182395998015
30
0
41
1
10
-2.19999999999999
20
-2.02700348752293
30
0
41
1
10
-2.19999999999999
20
-1.92193653735015
30
0
41
1
10
-2.19999999999999
20
-1.81663008016324
30
0
41
1
10
-2.19999999999999
20
-1.71109231328518
30
0
41
1
10
-2.19999999999999
20
-1.60533155404698
30
0
41
1
10
-2.19999999999999
20
-1.49935698477981
30
0
41
1
10
-2.19999999999999
20
-1.39317847233161
30
0
41
1
10
-2.19999999999999
20
-1.28680633401083
30
0
41
1
10
-2.19999999999999
20
-1.18025197439016
30
0
41
1
10
-2.19999999999999
20
-1.073527020087
30
0
41
1
10
-2.19999999999999
20
-0.96664434311532
30
0
41
1
10
-2.19999999999999
20
-0.859616995486334
30
0
41
1
10
-2.19999999999999
20
-0.752459219961509
30
0
41
1
10
-2.19999999999999
20
-0.645185453734172
30
0
41
1
10
-2.19999999999999
20
-0.537811163545626
30
0
41
1
10
-2.19999999999999
20
-0.430352024765995
30
0
41
1
10
-2.19999999999999
20
-0.322824496958617
30
0
41
1
10
-2.19999999999999
20
-0.215245213108545
30
0
41
1
10
-2.19999999999999
20
-0.107631302158183
30
0
41
1
10
-2.19999999999999
20
5.9909553E-09
30
0
41
1
10
-2.19999999999999
20
0.107631313716837
30
0
41
1
10
-2.19999999999999
20
0.21524522393176
30
0
41
1
10
-2.19999999999999
20
0.322824507999513
30
0
41
1
10
-2.19999999999999
20
0.430352036900842
30
0
41
1
10
-2.19999999999999
20
0.537811175438549
30
0
41
1
10
-2.19999999999999
20
0.645185463980482
30
0
41
1
10
-2.19999999999999
20
0.752459230354134
30
0
41
1
10
-2.19999999999999
20
0.859617007920519
30
0
41
1
10
-2.19999999999999
20
0.966644355262389
30
0
41
1
10
-2.19999999999999
20
1.07352702949097
30
0
41
1
10
-2.19999999999999
20
1.18025198377217
30
0
41
1
10
-2.19999999999999
20
1.2868063464968
30
0
41
1
10
-2.19999999999999
20
1.39317848503856
30
0
41
1
10
-2.19999999999999
20
1.49935699380708
30
0
41
1
10
-2.19999999999999
20
1.60533156181745
30
0
41
1
10
-2.19999999999999
20
1.71109232444707
30
0
41
1
10
-2.19999999999999
20
1.81663009373557
30
0
41
1
10
-2.19999999999999
20
1.92193654804359
30
0
41
1
10
-2.19999999999999
20
2.02700349385552
30
0
41
1
10
-2.19999999999999
20
2.13182396747069
30
0
41
1
10
-2.19999999999999
20
2.23639086291988
30
0
41
1
10
-2.19999999999999
20
2.34069812940876
30
0
41
1
10
-2.19999999999999
20
2.44473977839391
30
0
41
1
10
-2.19999999999999
20
2.54851063247165
30
0
41
1
10
-2.19999999999999
20
2.65200559968281
30
0
41
1
10
-2.19999999999999
20
2.78960994504098
30
0
41
1
10
-2.19999999999999
20
2.92668912429065
30
0
41
1
10
-2.19999999999999
20
3.06314133551615
30
0
41
1
10
-2.19999999999999
20
3.19919952332836
30
0
41
1
10
-2.19999999999999
20
3.36855659963138
30
0
41
1
10
-2.19999999999999
20
3.53690183437428
30
0
41
1
10
-2.19999999999999
20
3.67093805397229
30
0
41
1
10
-2.19999999999999
20
3.77116418775421
30
0
41
1
10
-2.19999999999999
20
3.87107811616198
30
0
41
1
10
-2.19999999999999
20
4.00386592221614
30
0
41
1
10
-2.19999999999999
20
4.169088511784
30
0
41
1
10
-2.19999999999999
20
4.36606871643775
30
0
41
1
10
-2.19999999999999
20
4.56176617271484
30
0
41
1
10
-2.19999999999999
20
4.75617249379653
30
0
41
1
10
-2.19999999999999
20
4.94928076863457
30
0
41
1
10
-2.19999999999999
20
5.14108500618136
30
0
41
1
10
-2.19999999999999
20
5.33157993903225
30
0
41
1
10
-2.19999999999999
20
5.52076102284181
30
0
41
1
10
-2.19999999999999
20
5.70862461825791
30
0
41
1
10
-2.19999999999999
20
5.89516734859464
30
0
41
1
10
-2.19999999999999
20
6.0803860968085
30
0
41
1
10
-2.19999999999999
20
6.26427796235188
30
0
41
1
10
-2.19999999999999
20
6.44684092947378
30
0
41
1
10
-2.19999999999999
20
6.62807271786153
30
0
41
1
10
-2.19999999999999
20
6.80797159432129
30
0
41
1
10
-2.19999999999999
20
6.98653550324826
30
0
41
1
10
-2.19999999999999
20
7.22282328452872
30
0
41
1
10
-2.19999999999999
20
7.51487112820209
30
0
41
1
10
-2.19999999999999
20
7.85994708827315
30
0
41
1
10
-2.19999999999999
20
8.14304411844034
30
0
41
1
10
-2.19999999999999
20
8.36680341033821
30
0
41
1
10
-2.19999999999999
20
8.53328407858575
30
0
41
1
10
-2.19999999999999
20
8.69841428877766
30
0
41
1
10
-2.19999999999999
20
8.86219304073114
30
0
41
1
10
-2.19999999999999
20
9.02461799205523
30
0
41
1
10
-2.19999999999999
20
9.23936571773672
30
0
41
1
10
-2.19999999999999
20
9.50443394039922
30
0
41
1
10
-2.19999999999999
20
9.76496631110049
30
0
41
1
10
-2.19999999999999
20
9.97064123613964
30
0
41
1
10
-2.19999999999999
20
10.123538466054
30
0
41
1
10
-2.19999999999999
20
10.2750653748105
30
0
41
1
10
-2.19999999999999
20
10.4252201002359
30
0
41
1
10
-2.19999999999999
20
10.5740001651574
30
0
41
1
10
-2.19999999999999
20
10.7705258416001
30
0
41
1
10
-2.19999999999999
20
10.9643215989582
30
0
41
1
10
-2.19999999999999
20
11.1553144582602
30
0
41
1
10
-2.19999999999999
20
11.3444552554371
30
0
41
1
10
-2.19999999999999
20
11.5774197477568
30
0
41
1
10
-2.19999999999999
20
11.8057194023465
30
0
41
1
10
-2.19999999999999
20
11.9855280067157
30
0
41
1
10
-2.19999999999999
20
12.1634558646821
30
0
41
1
10
-2.19999999999999
20
12.3385783781737
30
0
41
1
10
-2.19999999999999
20
12.510829004708
30
0
41
1
10
-2.19999999999999
20
12.6385945454976
30
0
41
1
10
-2.19999999999999
20
12.7649271637091
30
0
41
1
10
-2.19999999999999
20
12.9314463925932
30
0
41
1
10
-2.19999999999999
20
13.0951031927999
30
0
41
1
10
-2.19999999999999
20
13.2558316973182
30
0
41
1
10
-2.19999999999999
20
13.3749248996582
30
0
41
1
10
-2.19999999999999
20
13.4925540411334
30
0
41
1
10
-2.19999999999999
20
13.6474264531923
30
0
41
1
10
-2.19999999999999
20
13.7993681905533
30
0
41
1
10
-2.19999999999999
20
13.9483131264862
30
0
41
1
10
-2.19999999999999
20
14.0585319334344
30
0
41
1
10
-2.19999999999999
20
14.1672492642274
30
0
41
1
10
-2.19999999999999
20
14.3101885914782
30
0
41
1
10
-2.19999999999999
20
14.4501162106047
30
0
41
1
10
-2.19999999999999
20
14.5869647126432
30
0
41
1
10
-2.19999999999999
20
14.6880675812844
30
0
41
1
10
-2.19999999999999
20
14.7876243995297
30
0
41
1
10
-2.19999999999999
20
14.9182892218295
30
0
41
1
10
-2.19999999999999
20
15.0458464314392
30
0
41
1
10
-2.19999999999999
20
15.1702261509224
30
0
41
1
10
-2.19999999999999
20
15.2466455133785
30
0
41
1
10
-2.19999999999999
20
15.3069761679616
30
0
41
1
10
-2.19999999999999
20
15.3667724139347
30
0
41
1
10
-2.19999999999999
20
15.4700110929875
30
0
41
1
10
-2.19999999999999
20
15.5847743990242
30
0
41
1
10
-2.19999999999999
20
15.6962433571227
30
0
41
1
10
-2.19999999999999
20
15.7781982539187
30
0
41
1
10
-2.19999999999999
20
15.8584914079188
30
0
41
1
10
-2.19999999999999
20
15.9633135259672
30
0
41
1
10
-2.19999999999999
20
16.0647793597711
30
0
41
1
10
-2.19999999999999
20
16.1628111223414
30
0
41
1
10
-2.19999999999999
20
16.2346146707391
30
0
41
1
10
-2.19999999999999
20
16.3046816359758
30
0
41
1
10
-2.19999999999999
20
16.3729983688048
30
0
41
1
10
-2.19999999999999
20
16.439549393056
30
0
41
1
10
-2.19999999999999
20
16.5043209901434
30
0
41
1
10
-2.19999999999999
20
16.5672977619412
30
0
41
1
10
-2.19999999999999
20
16.6488473199257
30
0
41
1
10
-2.19999999999999
20
16.7267561914694
30
0
41
1
10
-2.19999999999999
20
16.8009296884544
30
0
41
1
10
-2.19999999999999
20
16.8725984731112
30
0
41
1
10
-2.19999999999999
20
16.9404820184079
30
0
41
1
10
-2.19999999999999
20
17.0044820909957
30
0
41
1
10
-2.19999999999999
20
17.0658713913631
30
0
41
1
10
-2.19999999999999
20
17.123313852319
30
0
41
1
10
-2.19999999999999
20
17.1766986986672
30
0
41
1
10
-2.19999999999999
20
17.2146924603873
30
0
41
1
10
-2.19999999999999
20
17.250613323192
30
0
41
1
10
-2.19999999999999
20
17.2957083328928
30
0
41
1
10
-2.19999999999999
20
17.3365615705832
30
0
41
1
10
-2.19999999999999
20
17.3730462873428
30
0
41
1
10
-2.19999999999999
20
17.398199993695
30
0
41
1
10
-2.19999999999999
20
17.4211116738093
30
0
41
1
10
-2.19999999999999
20
17.4417480876219
30
0
41
1
10
-2.19999999999999
20
17.4600756994924
30
0
41
1
10
-2.19999999999999
20
17.4760589706817
30
0
41
1
10
-2.19999999999999
20
17.4896606126055
30
0
41
1
10
-2.19999999999999
20
17.5008423321234
30
0
41
1
10
-2.19999999999999
20
17.509214478146
30
0
41
1
10
-2.19999999999999
20
17.5132052259401
30
0
41
1
10
-2.19999999999999
20
17.5147451203652
30
0
0
SPLINE
5
1A3
100
AcDbEntity
8
SK1
62
256
6
ByLayer
370
18
48
1
60
0
100
AcDbSpline
70
4
71
3
72
287
73
283
40
0
40
0
40
0
40
0
40
0.0019139595487869
40
0.0054376985735024
40
0.0089614375982179
40
0.0124851766229333
40
0.0160089156476488
40
0.0195326546723643
40
0.0230563936970797
40
0.0265801327217952
40
0.0301038717465107
40
0.0336276107712262
40
0.0371513497959416
40
0.0441988278453726
40
0.047722566870088
40
0.0512463058948035
40
0.054770044919519
40
0.0582937839442345
40
0.0653412619936654
40
0.0688650010183809
40
0.0723887400430963
40
0.0794362180925272
40
0.0829599571172427
40
0.0864836961419583
40
0.0935311741913892
40
0.0970549132161047
40
0.10057865224082
40
0.104102391265536
40
0.107626130290251
40
0.111149869314967
40
0.114673608339682
40
0.118197347364398
40
0.121721086389113
40
0.128768564438544
40
0.132292303463259
40
0.135816042487975
40
0.13933978151269
40
0.142863520537406
40
0.149910998586837
40
0.153434737611552
40
0.156958476636268
40
0.160482215660983
40
0.164005954685699
40
0.171053432735129
40
0.174577171759845
40
0.178100910784561
40
0.181624649809276
40
0.185148388833991
40
0.192195866883422
40
0.195719605908138
40
0.199243344932853
40
0.202767083957569
40
0.206290822982284
40
0.213338301031715
40
0.216862040056431
40
0.220385779081146
40
0.223909518105862
40
0.227433257130577
40
0.234480735180008
40
0.238004474204724
40
0.241528213229439
40
0.245051952254154
40
0.24857569127887
40
0.255623169328301
40
0.259146908353016
40
0.262670647377732
40
0.269718125427163
40
0.276765603476594
40
0.280289342501309
40
0.283813081526025
40
0.290860559575456
40
0.294384298600171
40
0.297908037624886
40
0.301431776649602
40
0.304955515674317
40
0.308479254699033
40
0.312002993723748
40
0.319050471773179
40
0.32609794982261
40
0.329621688847326
40
0.333145427872041
40
0.336669166896757
40
0.340192905921472
40
0.343716644946188
40
0.347240383970903
40
0.354287862020334
40
0.361335340069765
40
0.368382818119196
40
0.371906557143911
40
0.375430296168627
40
0.378954035193342
40
0.382477774218058
40
0.386001513242773
40
0.389525252267489
40
0.393048991292204
40
0.39657273031692
40
0.400096469341635
40
0.403620208366351
40
0.407143947391066
40
0.410667686415782
40
0.414191425440497
40
0.417715164465213
40
0.421238903489928
40
0.424762642514644
40
0.428286381539359
40
0.430048251051717
40
0.431810120564074
40
0.433571990076432
40
0.43533385958879
40
0.438857598613505
40
0.442381337638221
40
0.444143207150579
40
0.445905076662936
40
0.447666946175294
40
0.449428815687652
40
0.451190685200009
40
0.452952554712367
40
0.456476293737083
40
0.45823816324944
40
0.460000032761798
40
0.461761902274156
40
0.463523771786514
40
0.465285641298871
40
0.467047510811229
40
0.468809380323587
40
0.470571249835945
40
0.472333119348302
40
0.47409498886066
40
0.475856858373018
40
0.477618727885376
40
0.479380597397733
40
0.481142466910091
40
0.482904336422449
40
0.484666205934807
40
0.486428075447164
40
0.488189944959522
40
0.48995181447188
40
0.491713683984237
40
0.493475553496595
40
0.495237423008953
40
0.496999292521311
40
0.498761162033668
40
0.500523031546026
40
0.502284901058384
40
0.504046770570741
40
0.505808640083099
40
0.507570509595457
40
0.509332379107815
40
0.511094248620173
40
0.51285611813253
40
0.514617987644888
40
0.516379857157246
40
0.518141726669603
40
0.519903596181961
40
0.521665465694319
40
0.523427335206677
40
0.525189204719034
40
0.526951074231392
40
0.52871294374375
40
0.530474813256108
40
0.532236682768465
40
0.533998552280823
40
0.535760421793181
40
0.537522291305539
40
0.539284160817896
40
0.541046030330254
40
0.544569769354969
40
0.546331638867327
40
0.548093508379685
40
0.551617247404401
40
0.555140986429116
40
0.556902855941473
40
0.558664725453831
40
0.560426594966189
40
0.562188464478547
40
0.565712203503262
40
0.569235942527978
40
0.572759681552693
40
0.576283420577409
40
0.579807159602124
40
0.58333089862684
40
0.586854637651555
40
0.59037837667627
40
0.593902115700986
40
0.597425854725701
40
0.600949593750417
40
0.604473332775132
40
0.607997071799848
40
0.611520810824563
40
0.615044549849279
40
0.618568288873994
40
0.62209202789871
40
0.629139505948141
40
0.636186983997572
40
0.643234462047003
40
0.646758201071718
40
0.650281940096433
40
0.653805679121149
40
0.657329418145864
40
0.66085315717058
40
0.664376896195295
40
0.671424374244726
40
0.678471852294157
40
0.681995591318873
40
0.685519330343588
40
0.689043069368304
40
0.692566808393019
40
0.696090547417735
40
0.69961428644245
40
0.706661764491881
40
0.710185503516596
40
0.713709242541312
40
0.720756720590743
40
0.727804198640174
40
0.731327937664889
40
0.734851676689605
40
0.741899154739036
40
0.745422893763751
40
0.748946632788467
40
0.752470371813182
40
0.755994110837898
40
0.763041588887329
40
0.766565327912044
40
0.770089066936759
40
0.773612805961475
40
0.77713654498619
40
0.784184023035621
40
0.787707762060337
40
0.791231501085052
40
0.794755240109768
40
0.798278979134483
40
0.805326457183914
40
0.80885019620863
40
0.812373935233345
40
0.81589767425806
40
0.819421413282776
40
0.826468891332207
40
0.829992630356923
40
0.833516369381638
40
0.835278238893996
40
0.837040108406353
40
0.840563847431069
40
0.8476113254805
40
0.851135064505215
40
0.854658803529931
40
0.858182542554646
40
0.861706281579362
40
0.868753759628793
40
0.872277498653508
40
0.875801237678224
40
0.879324976702939
40
0.882848715727655
40
0.88637245475237
40
0.889896193777086
40
0.893419932801801
40
0.896943671826516
40
0.903991149875947
40
0.907514888900663
40
0.911038627925378
40
0.918086105974809
40
0.921609844999525
40
0.92513358402424
40
0.932181062073671
40
0.935704801098387
40
0.939228540123102
40
0.942752279147817
40
0.946276018172533
40
0.953323496221964
40
0.95684723524668
40
0.960370974271395
40
0.96389471329611
40
0.967418452320826
40
0.970942191345541
40
0.974465930370257
40
0.977989669394972
40
0.981513408419688
40
0.985037147444403
40
0.988560886469119
40
0.992084625493834
40
0.99560836451855
40
0.999132103543265
40
1
40
1
40
1
40
1
41
1
10
-28.5
20
-16.8570111700216
30
0
41
1
10
-28.5
20
-16.8563913795493
30
0
41
1
10
-28.5
20
-16.8542840074527
30
0
41
1
10
-28.5
20
-16.8492032887544
30
0
41
1
10
-28.5
20
-16.8407921788659
30
0
41
1
10
-28.5
20
-16.8300011209595
30
0
41
1
10
-28.5
20
-16.8168672741156
30
0
41
1
10
-28.5
20
-16.8014255225769
30
0
41
1
10
-28.5
20
-16.783709883521
30
0
41
1
10
-28.5
20
-16.7637529731542
30
0
41
1
10
-28.5
20
-16.7415855338906
30
0
41
1
10
-28.5
20
-16.7172383450784
30
0
41
1
10
-28.5
20
-16.6818353810987
30
0
41
1
10
-28.5
20
-16.642411510514
30
0
41
1
10
-28.5
20
-16.5986105790194
30
0
41
1
10
-28.5
20
-16.5637763020887
30
0
41
1
10
-28.5
20
-16.5269199075572
30
0
41
1
10
-28.5
20
-16.4750169305147
30
0
41
1
10
-28.5
20
-16.4194622625482
30
0
41
1
10
-28.5
20
-16.3597331913305
30
0
41
1
10
-28.5
20
-16.2974462059125
30
0
41
1
10
-28.5
20
-16.2317181614777
30
0
41
1
10
-28.5
20
-16.1619255301562
30
0
41
1
10
-28.5
20
-16.0896767577218
30
0
41
1
10
-28.5
20
-16.0141701499498
30
0
41
1
10
-28.5
20
-15.9346970720351
30
0
41
1
10
-28.5
20
-15.8734193498834
30
0
41
1
10
-28.5
20
-15.8103844132608
30
0
41
1
10
-28.5
20
-15.745608166167
30
0
41
1
10
-28.5
20
-15.6791035033831
30
0
41
1
10
-28.5
20
-15.6108850520675
30
0
41
1
10
-28.5
20
-15.5409672008416
30
0
41
1
10
-28.5
20
-15.4453363897878
30
0
41
1
10
-28.5
20
-15.3468344295442
30
0
41
1
10
-28.5
20
-15.2445501023872
30
0
41
1
10
-28.5
20
-15.1663215412447
30
0
41
1
10
-28.5
20
-15.0864673138636
30
0
41
1
10
-28.5
20
-14.9776668598204
30
0
41
1
10
-28.5
20
-14.8661866472663
30
0
41
1
10
-28.5
20
-14.7510047173632
30
0
41
1
10
-28.5
20
-14.6631805593238
30
0
41
1
10
-28.5
20
-14.5737935545692
30
0
41
1
10
-28.5
20
-14.4523474056541
30
0
41
1
10
-28.5
20
-14.3283920102608
30
0
41
1
10
-28.5
20
-14.2007962111626
30
0
41
1
10
-28.5
20
-14.1037299196573
30
0
41
1
10
-28.5
20
-14.0051547121626
30
0
41
1
10
-28.5
20
-13.8715103774192
30
0
41
1
10
-28.5
20
-13.7355116027341
30
0
41
1
10
-28.5
20
-13.5959164295663
30
0
41
1
10
-28.5
20
-13.4899116400767
30
0
41
1
10
-28.5
20
-13.3824445287113
30
0
41
1
10
-28.5
20
-13.2369867267196
30
0
41
1
10
-28.5
20
-13.0893180063072
30
0
41
1
10
-28.5
20
-12.9380809359595
30
0
41
1
10
-28.5
20
-12.8234002792818
30
0
41
1
10
-28.5
20
-12.7072977235968
30
0
41
1
10
-28.5
20
-12.550359403554
30
0
41
1
10
-28.5
20
-12.3913462445321
30
0
41
1
10
-28.5
20
-12.2287775158425
30
0
41
1
10
-28.5
20
-12.1056498288981
30
0
41
1
10
-28.5
20
-11.9811355431936
30
0
41
1
10
-28.5
20
-11.8130068133241
30
0
41
1
10
-28.5
20
-11.642935768078
30
0
41
1
10
-28.5
20
-11.4693068645233
30
0
41
1
10
-28.5
20
-11.2938625434425
30
0
41
1
10
-28.5
20
-11.0718089327865
30
0
41
1
10
-28.5
20
-10.8452681360072
30
0
41
1
10
-28.5
20
-10.6608198079832
30
0
41
1
10
-28.5
20
-10.4745957683654
30
0
41
1
10
-28.5
20
-10.2866518533399
30
0
41
1
10
-28.5
20
-10.0951135357909
30
0
41
1
10
-28.5
20
-9.9503895477591
30
0
41
1
10
-28.5
20
-9.8043545776041
30
0
41
1
10
-28.5
20
-9.65701503611822
30
0
41
1
10
-28.5
20
-9.50837340526911
30
0
41
1
10
-28.5
20
-9.30810992365676
30
0
41
1
10
-28.5
20
-9.05534970701541
30
0
41
1
10
-28.5
20
-8.79830464348922
30
0
41
1
10
-28.5
20
-8.58944232029054
30
0
41
1
10
-28.5
20
-8.43181572672981
30
0
41
1
10
-28.5
20
-8.27292311790592
30
0
41
1
10
-28.5
20
-8.11277014047184
30
0
41
1
10
-28.5
20
-7.9513617118449
30
0
41
1
10
-28.5
20
-7.73407184255308
30
0
41
1
10
-28.5
20
-7.46030866767529
30
0
41
1
10
-28.5
20
-7.12632140637373
30
0
41
1
10
-28.5
20
-6.84437402550569
30
0
41
1
10
-28.5
20
-6.61554359890371
30
0
41
1
10
-28.5
20
-6.44309029411605
30
0
41
1
10
-28.5
20
-6.26944364545889
30
0
41
1
10
-28.5
20
-6.09461246091772
30
0
41
1
10
-28.5
20
-5.91860523667609
30
0
41
1
10
-28.5
20
-5.74143189937953
30
0
41
1
10
-28.5
20
-5.56310357372001
30
0
41
1
10
-28.5
20
-5.38363134733163
30
0
41
1
10
-28.5
20
-5.20302692387261
30
0
41
1
10
-28.5
20
-5.0213042232472
30
0
41
1
10
-28.5
20
-4.83847919931264
30
0
41
1
10
-28.5
20
-4.65456716028004
30
0
41
1
10
-28.5
20
-4.46958486845949
30
0
41
1
10
-28.5
20
-4.28355302808069
30
0
41
1
10
-28.5
20
-4.09649275318182
30
0
41
1
10
-28.5
20
-3.90842813226232
30
0
41
1
10
-28.5
20
-3.75124940963562
30
0
41
1
10
-28.5
20
-3.6243549796439
30
0
41
1
10
-28.5
20
-3.5292431593418
30
0
41
1
10
-28.5
20
-3.43390158445521
30
0
41
1
10
-28.5
20
-3.30608717079298
30
0
41
1
10
-28.5
20
-3.14669072023423
30
0
41
1
10
-28.5
20
-2.9865693987912
30
0
41
1
10
-28.5
20
-2.85729421649611
30
0
41
1
10
-28.5
20
-2.76048089001324
30
0
41
1
10
-28.5
20
-2.66347976206254
30
0
41
1
10
-28.5
20
-2.56629526768592
30
0
41
1
10
-28.5
20
-2.46893611478751
30
0
41
1
10
-28.5
20
-2.33842740009587
30
0
41
1
10
-28.5
20
-2.20905952740142
30
0
41
1
10
-28.5
20
-2.07788039572898
30
0
41
1
10
-28.5
20
-1.97974994874616
30
0
41
1
10
-28.5
20
-1.88148715614122
30
0
41
1
10
-28.5
20
-1.78310090101277
30
0
41
1
10
-28.5
20
-1.68460072925305
30
0
41
1
10
-28.5
20
-1.58599184128096
30
0
41
1
10
-28.5
20
-1.48728649469356
30
0
41
1
10
-28.5
20
-1.38848914320587
30
0
41
1
10
-28.5
20
-1.28961139997082
30
0
41
1
10
-28.5
20
-1.19065859360987
30
0
41
1
10
-28.5
20
-1.09164071478048
30
0
41
1
10
-28.5
20
-0.992564090788449
30
0
41
1
10
-28.5
20
-0.893436923932512
30
0
41
1
10
-28.5
20
-0.794265471937138
30
0
41
1
10
-28.5
20
-0.695056741362833
30
0
41
1
10
-28.5
20
-0.595816468507252
30
0
41
1
10
-28.5
20
-0.49655061320999
30
0
41
1
10
-28.5
20
-0.397263853181812
30
0
41
1
10
-28.5
20
-0.297961366795107
30
0
41
1
10
-28.5
20
-0.198647102840709
30
0
41
1
10
-28.5
20
-0.0993254669347436
30
0
41
1
10
-28.5
20
-5.4725149E-09
30
0
41
1
10
-28.5
20
0.0993254684405827
30
0
41
1
10
-28.5
20
0.198647127601248
30
0
41
1
10
-28.5
20
0.297961388791691
30
0
41
1
10
-28.5
20
0.397263840424017
30
0
41
1
10
-28.5
20
0.496550594205559
30
0
41
1
10
-28.5
20
0.595816495504096
30
0
41
1
10
-28.5
20
0.695056784277028
30
0
41
1
10
-28.5
20
0.794265459276176
30
0
41
1
10
-28.5
20
0.89343688343348
30
0
41
1
10
-28.5
20
0.992564112169902
30
0
41
1
10
-28.5
20
1.09164077920423
30
0
41
1
10
-28.5
20
1.19065859620264
30
0
41
1
10
-28.5
20
1.28961134189754
30
0
41
1
10
-28.5
20
1.38848913588993
30
0
41
1
10
-28.5
20
1.48728656512978
30
0
41
1
10
-28.5
20
1.58599188781932
30
0
41
1
10
-28.5
20
1.6846006870125
30
0
41
1
10
-28.5
20
1.78310084050699
30
0
41
1
10
-28.5
20
1.88148718140701
30
0
41
1
10
-28.5
20
1.9797500364362
30
0
41
1
10
-28.5
20
2.0778804265363
30
0
41
1
10
-28.5
20
2.17587292609085
30
0
41
1
10
-28.5
20
2.27371679621319
30
0
41
1
10
-28.5
20
2.37140757120355
30
0
41
1
10
-28.5
20
2.46893613943033
30
0
41
1
10
-28.5
20
2.59923374131699
30
0
41
1
10
-28.5
20
2.72777279716706
30
0
41
1
10
-28.5
20
2.8572942882393
30
0
41
1
10
-28.5
20
2.98656948332388
30
0
41
1
10
-28.5
20
3.14669074057869
30
0
41
1
10
-28.5
20
3.30608709676801
30
0
41
1
10
-28.5
20
3.43390157548936
30
0
41
1
10
-28.5
20
3.52924322184191
30
0
41
1
10
-28.5
20
3.62435506854831
30
0
41
1
10
-28.5
20
3.75124942106058
30
0
41
1
10
-28.5
20
3.90842799420628
30
0
41
1
10
-28.5
20
4.09649259176146
30
0
41
1
10
-28.5
20
4.28355297730505
30
0
41
1
10
-28.5
20
4.4695846174555
30
0
41
1
10
-28.5
20
4.65456683421039
30
0
41
1
10
-28.5
20
4.83847943804494
30
0
41
1
10
-28.5
20
5.0213044851898
30
0
41
1
10
-28.5
20
5.2030267003301
30
0
41
1
10
-28.5
20
5.38363156234237
30
0
41
1
10
-28.5
20
5.56310445504442
30
0
41
1
10
-28.5
20
5.74143237747984
30
0
41
1
10
-28.5
20
5.91860495448572
30
0
41
1
10
-28.5
20
6.09461208825527
30
0
41
1
10
-28.5
20
6.26944357118299
30
0
41
1
10
-28.5
20
6.4430903265563
30
0
41
1
10
-28.5
20
6.61554357091572
30
0
41
1
10
-28.5
20
6.84437400802861
30
0
41
1
10
-28.5
20
7.12632144512301
30
0
41
1
10
-28.5
20
7.46030865505762
30
0
41
1
10
-28.5
20
7.73407184285281
30
0
41
1
10
-28.5
20
7.95136176299604
30
0
41
1
10
-28.5
20
8.11277014937085
30
0
41
1
10
-28.5
20
8.27292308432649
30
0
41
1
10
-28.5
20
8.43181570788789
30
0
41
1
10
-28.5
20
8.5894423488798
30
0
41
1
10
-28.5
20
8.79830467826932
30
0
41
1
10
-28.5
20
9.05534969583792
30
0
41
1
10
-28.5
20
9.30810991622687
30
0
41
1
10
-28.5
20
9.50837344479851
30
0
41
1
10
-28.5
20
9.65701506287493
30
0
41
1
10
-28.5
20
9.80435457188474
30
0
41
1
10
-28.5
20
9.95038952754788
30
0
41
1
10
-28.5
20
10.095113531911
30
0
41
1
10
-28.5
20
10.2866518813937
30
0
41
1
10
-28.5
20
10.4745957936973
30
0
41
1
10
-28.5
20
10.6608197986608
30
0
41
1
10
-28.5
20
10.8452681286137
30
0
41
1
10
-28.5
20
11.0718089525805
30
0
41
1
10
-28.5
20
11.2938625632929
30
0
41
1
10
-28.5
20
11.4693068596265
30
0
41
1
10
-28.5
20
11.6429357656381
30
0
41
1
10
-28.5
20
11.8130068303033
30
0
41
1
10
-28.5
20
11.9811355648908
30
0
41
1
10
-28.5
20
12.1056498404809
30
0
41
1
10
-28.5
20
12.2287775174238
30
0
41
1
10
-28.5
20
12.3913462461042
30
0
41
1
10
-28.5
20
12.5503594172971
30
0
41
1
10
-28.5
20
12.7072977423403
30
0
41
1
10
-28.5
20
12.8234002933141
30
0
41
1
10
-28.5
20
12.9380809438717
30
0
41
1
10
-28.5
20
13.0893180117675
30
0
41
1
10
-28.5
20
13.2369867372074
30
0
41
1
10
-28.5
20
13.3824445445542
30
0
41
1
10
-28.5
20
13.4899116562855
30
0
41
1
10
-28.5
20
13.5959164434403
30
0
41
1
10
-28.5
20
13.7355116125921
30
0
41
1
10
-28.5
20
13.8715103854275
30
0
41
1
10
-28.5
20
14.0051547249398
30
0
41
1
10
-28.5
20
14.1037299370701
30
0
41
1
10
-28.5
20
14.2007962250068
30
0
41
1
10
-28.5
20
14.328392039309
30
0
41
1
10
-28.5
20
14.452347405446
30
0
41
1
10
-28.5
20
14.5737935062701
30
0
41
1
10
-28.5
20
14.6481896525931
30
0
41
1
10
-28.5
20
14.7070919001429
30
0
41
1
10
-28.5
20
14.7654709460418
30
0
41
1
10
-28.5
20
14.8661866667289
30
0
41
1
10
-28.5
20
14.9776668655465
30
0
41
1
10
-28.5
20
15.086467321316
30
0
41
1
10
-28.5
20
15.1663215599361
30
0
41
1
10
-28.5
20
15.2445501295776
30
0
41
1
10
-28.5
20
15.3468344527491
30
0
41
1
10
-28.5
20
15.4453363938053
30
0
41
1
10
-28.5
20
15.5409672073329
30
0
41
1
10
-28.5
20
15.6108850733398
30
0
41
1
10
-28.5
20
15.679103534252
30
0
41
1
10
-28.5
20
15.7456081924762
30
0
41
1
10
-28.5
20
15.810384423087
30
0
41
1
10
-28.5
20
15.8734193510279
30
0
41
1
10
-28.5
20
15.9346970807191
30
0
41
1
10
-28.5
20
16.0141701800502
30
0
41
1
10
-28.5
20
16.0896767899468
30
0
41
1
10
-28.5
20
16.1619255341458
30
0
41
1
10
-28.5
20
16.2317181619347
30
0
41
1
10
-28.5
20
16.2974462376793
30
0
41
1
10
-28.5
20
16.3597332242326
30
0
41
1
10
-28.5
20
16.4194622696319
30
0
41
1
10
-28.5
20
16.4750169286961
30
0
41
1
10
-28.5
20
16.5269199399481
30
0
41
1
10
-28.5
20
16.5637763395248
30
0
41
1
10
-28.5
20
16.5986105943247
30
0
41
1
10
-28.5
20
16.642411504334
30
0
41
1
10
-28.5
20
16.6818354096897
30
0
41
1
10
-28.5
20
16.7172383773105
30
0
41
1
10
-28.5
20
16.741585550229
30
0
41
1
10
-28.5
20
16.7637529737167
30
0
41
1
10
-28.5
20
16.7837098927271
30
0
41
1
10
-28.5
20
16.8014255596809
30
0
41
1
10
-28.5
20
16.816867307208
30
0
41
1
10
-28.5
20
16.8300011251081
30
0
41
1
10
-28.5
20
16.8407921763224
30
0
41
1
10
-28.5
20
16.8492033090471
30
0
41
1
10
-28.5
20
16.8551966659016
30
0
41
1
10
-28.5
20
16.8587319423621
30
0
41
1
10
-28.5
20
16.8597680746869
30
0
41
1
10
-28.5
20
16.8586398969077
30
0
41
1
10
-28.5
20
16.8573438956978
30
0
41
1
10
-28.5
20
16.8570614860964
30
0
0
SPLINE
5
1A4
100
AcDbEntity
8
SK1
62
256
6
ByLayer
370
18
48
1
60
0
100
AcDbSpline
70
4
71
3
72
284
73
280
40
0
40
0
40
0
40
0
40
0.00014312753642
40
0.0037135350398139
40
0.0072839425432077
40
0.0108543500466016
40
0.0144247575499955
40
0.0179951650533893
40
0.0215655725567832
40
0.025135980060177
40
0.0287063875635709
40
0.0322767950669648
40
0.0358472025703586
40
0.0429880175771463
40
0.0465584250805402
40
0.0501288325839341
40
0.0536992400873279
40
0.0572696475907218
40
0.0644104625975095
40
0.0679808701009034
40
0.0715512776042972
40
0.0786920926110849
40
0.0822625001144788
40
0.0858329076178727
40
0.0929737226246604
40
0.0965441301280542
40
0.100114537631448
40
0.103684945134842
40
0.107255352638236
40
0.11082576014163
40
0.114396167645024
40
0.117966575148417
40
0.121536982651811
40
0.128677797658599
40
0.132248205161993
40
0.135818612665387
40
0.139389020168781
40
0.142959427672174
40
0.150100242678962
40
0.153670650182356
40
0.15724105768575
40
0.160811465189144
40
0.164381872692538
40
0.171522687699325
40
0.175093095202719
40
0.178663502706113
40
0.182233910209507
40
0.185804317712901
40
0.192945132719688
40
0.196515540223082
40
0.200085947726476
40
0.20365635522987
40
0.207226762733264
40
0.214367577740052
40
0.217937985243445
40
0.221508392746839
40
0.225078800250233
40
0.228649207753627
40
0.235790022760415
40
0.239360430263809
40
0.242930837767203
40
0.246501245270596
40
0.25007165277399
40
0.257212467780778
40
0.260782875284172
40
0.264353282787566
40
0.271494097794353
40
0.278634912801141
40
0.282205320304535
40
0.285775727807929
40
0.292916542814717
40
0.29648695031811
40
0.300057357821504
40
0.303627765324898
40
0.307198172828292
40
0.310768580331686
40
0.31433898783508
40
0.321479802841867
40
0.328620617848655
40
0.332191025352049
40
0.335761432855443
40
0.339331840358837
40
0.342902247862231
40
0.346472655365624
40
0.350043062869018
40
0.357183877875806
40
0.364324692882594
40
0.371465507889381
40
0.375035915392775
40
0.378606322896169
40
0.382176730399563
40
0.385747137902957
40
0.389317545406351
40
0.392887952909745
40
0.396458360413138
40
0.400028767916532
40
0.403599175419926
40
0.40716958292332
40
0.410739990426714
40
0.414310397930108
40
0.417880805433502
40
0.421451212936896
40
0.425021620440289
40
0.428592027943683
40
0.432162435447077
40
0.433947639198774
40
0.435732842950471
40
0.437518046702168
40
0.439303250453865
40
0.442873657957259
40
0.446444065460653
40
0.44822926921235
40
0.450014472964047
40
0.451799676715743
40
0.45358488046744
40
0.455370084219137
40
0.457155287970834
40
0.460725695474228
40
0.462510899225925
40
0.464296102977622
40
0.466081306729319
40
0.467866510481016
40
0.469651714232713
40
0.47143691798441
40
0.473222121736107
40
0.475007325487803
40
0.4767925292395
40
0.478577732991197
40
0.480362936742894
40
0.482148140494591
40
0.483933344246288
40
0.485718547997985
40
0.487503751749682
40
0.489288955501379
40
0.491074159253076
40
0.492859363004773
40
0.49464456675647
40
0.496429770508167
40
0.498214974259864
40
0.50000017801156
40
0.501785381763257
40
0.503570585514954
40
0.505355789266651
40
0.507140993018348
40
0.508926196770045
40
0.510711400521742
40
0.512496604273439
40
0.514281808025136
40
0.516067011776833
40
0.51785221552853
40
0.519637419280227
40
0.521422623031924
40
0.523207826783621
40
0.524993030535317
40
0.526778234287014
40
0.528563438038711
40
0.530348641790408
40
0.532133845542105
40
0.533919049293802
40
0.535704253045499
40
0.537489456797196
40
0.539274660548893
40
0.54105986430059
40
0.542845068052287
40
0.544630271803984
40
0.546415475555681
40
0.549985883059074
40
0.551771086810771
40
0.553556290562468
40
0.557126698065862
40
0.560697105569256
40
0.562482309320953
40
0.56426751307265
40
0.566052716824347
40
0.567837920576044
40
0.571408328079438
40
0.574978735582832
40
0.578549143086225
40
0.582119550589619
40
0.585689958093013
40
0.589260365596407
40
0.592830773099801
40
0.596401180603195
40
0.599971588106589
40
0.603541995609982
40
0.607112403113376
40
0.61068281061677
40
0.614253218120164
40
0.617823625623558
40
0.621394033126952
40
0.624964440630346
40
0.62853484813374
40
0.635675663140527
40
0.642816478147315
40
0.649957293154103
40
0.653527700657496
40
0.65709810816089
40
0.660668515664284
40
0.664238923167678
40
0.667809330671072
40
0.671379738174466
40
0.678520553181253
40
0.685661368188041
40
0.689231775691435
40
0.692802183194829
40
0.696372590698223
40
0.699942998201617
40
0.703513405705011
40
0.707083813208404
40
0.714224628215192
40
0.717795035718586
40
0.72136544322198
40
0.728506258228767
40
0.735647073235555
40
0.739217480738949
40
0.742787888242343
40
0.749928703249131
40
0.753499110752524
40
0.757069518255918
40
0.760639925759312
40
0.764210333262706
40
0.771351148269494
40
0.774921555772888
40
0.778491963276282
40
0.782062370779675
40
0.785632778283069
40
0.792773593289857
40
0.796344000793251
40
0.799914408296645
40
0.803484815800039
40
0.807055223303432
40
0.81419603831022
40
0.817766445813614
40
0.821336853317008
40
0.824907260820402
40
0.828477668323796
40
0.835618483330583
40
0.839188890833977
40
0.842759298337371
40
0.844544502089068
40
0.846329705840765
40
0.849900113344159
40
0.857040928350946
40
0.86061133585434
40
0.864181743357734
40
0.867752150861128
40
0.871322558364522
40
0.87846337337131
40
0.882033780874704
40
0.885604188378097
40
0.889174595881491
40
0.892745003384885
40
0.896315410888279
40
0.899885818391673
40
0.903456225895067
40
0.90702663339846
40
0.914167448405248
40
0.917737855908642
40
0.921308263412036
40
0.928449078418824
40
0.932019485922218
40
0.935589893425611
40
0.942730708432399
40
0.946301115935793
40
0.949871523439187
40
0.953441930942581
40
0.957012338445975
40
0.964153153452762
40
0.967723560956156
40
0.97129396845955
40
0.974864375962944
40
0.978434783466338
40
0.982005190969732
40
0.985575598473125
40
0.989146005976519
40
0.992716413479913
40
0.996286820983307
40
0.999857228486701
40
1
40
1
40
1
40
1
41
1
10
-1.99503997793928
20
-17.3206892534567
30
0
41
1
10
-1.99503997793928
20
-17.3206252475119
30
0
41
1
10
-1.99503997793928
20
-17.3189470402343
30
0
41
1
10
-1.99503997793928
20
-17.3147637003649
30
0
41
1
10
-1.99503997793928
20
-17.3061342577567
30
0
41
1
10
-1.99503997793928
20
-17.295067771448
30
0
41
1
10
-1.99503997793928
20
-17.2816041041457
30
0
41
1
10
-1.99503997793928
20
-17.2657805776118
30
0
41
1
10
-1.99503997793928
20
-17.2476335117891
30
0
41
1
10
-1.99503997793928
20
-17.2271975457697
30
0
41
1
10
-1.99503997793928
20
-17.2045053960087
30
0
41
1
10
-1.99503997793928
20
-17.1795895960111
30
0
41
1
10
-1.99503997793928
20
-17.143423992764
30
0
41
1
10
-1.99503997793928
20
-17.1029924242496
30
0
41
1
10
-1.99503997793928
20
-17.0582791326422
30
0
41
1
10
-1.99503997793928
20
-17.0226787925821
30
0
41
1
10
-1.99503997793928
20
-16.9850205529168
30
0
41
1
10
-1.99503997793928
20
-16.9320728615657
30
0
41
1
10
-1.99503997793928
20
-16.8751872660894
30
0
41
1
10
-1.99503997793928
20
-16.8142877036056
30
0
41
1
10
-1.99503997793928
20
-16.7507929832779
30
0
41
1
10
-1.99503997793928
20
-16.6835453056651
30
0
41
1
10
-1.99503997793928
20
-16.6124299551482
30
0
41
1
10
-1.99503997793928
20
-16.5388242186582
30
0
41
1
10
-1.99503997793928
20
-16.4616240004255
30
0
41
1
10
-1.99503997793928
20
-16.3806869939664
30
0
41
1
10
-1.99503997793928
20
-16.3182114219941
30
0
41
1
10
-1.99503997793928
20
-16.2539521138773
30
0
41
1
10
-1.99503997793928
20
-16.1879246249361
30
0
41
1
10
-1.99503997793928
20
-16.1201424382026
30
0
41
1
10
-1.99503997793928
20
-16.0506207732709
30
0
41
1
10
-1.99503997793928
20
-15.979373490825
30
0
41
1
10
-1.99503997793928
20
-15.8820499794418
30
0
41
1
10
-1.99503997793928
20
-15.7814584486047
30
0
41
1
10
-1.99503997793928
20
-15.677384958149
30
0
41
1
10
-1.99503997793928
20
-15.5977008436634
30
0
41
1
10
-1.99503997793928
20
-15.5163656256123
30
0
41
1
10
-1.99503997793928
20
-15.4056838451686
30
0
41
1
10
-1.99503997793928
20
-15.2918890118945
30
0
41
1
10
-1.99503997793928
20
-15.1747311694574
30
0
41
1
10
-1.99503997793928
20
-15.0853020659337
30
0
41
1
10
-1.99503997793928
20
-14.9942846604514
30
0
41
1
10
-1.99503997793928
20
-14.8707702235387
30
0
41
1
10
-1.99503997793928
20
-14.7442755428493
30
0
41
1
10
-1.99503997793928
20
-14.6145160455858
30
0
41
1
10
-1.99503997793928
20
-14.5156939096276
30
0
41
1
10
-1.99503997793928
20
-14.4153366771621
30
0
41
1
10
-1.99503997793928
20
-14.2794333721973
30
0
41
1
10
-1.99503997793928
20
-14.1406647198644
30
0
41
1
10
-1.99503997793928
20
-13.9987118830366
30
0
41
1
10
-1.99503997793928
20
-13.8907947247769
30
0
41
1
10
-1.99503997793928
20
-13.7813876415877
30
0
41
1
10
-1.99503997793928
20
-13.6334713769854
30
0
41
1
10
-1.99503997793928
20
-13.482790135872
30
0
41
1
10
-1.99503997793928
20
-13.328990109671
30
0
41
1
10
-1.99503997793928
20
-13.2122307400427
30
0
41
1
10
-1.99503997793928
20
-13.09401974916
30
0
41
1
10
-1.99503997793928
20
-12.9344093145834
30
0
41
1
10
-1.99503997793928
20
-12.7721223429484
30
0
41
1
10
-1.99503997793928
20
-12.606768466692
30
0
41
1
10
-1.99503997793928
20
-12.4813812679684
30
0
41
1
10
-1.99503997793928
20
-12.3545748152048
30
0
41
1
10
-1.99503997793928
20
-12.1835401119863
30
0
41
1
10
-1.99503997793928
20
-12.0099077332894
30
0
41
1
10
-1.99503997793928
20
-11.8332480165124
30
0
41
1
10
-1.99503997793928
20
-11.6547268261542
30
0
41
1
10
-1.99503997793928
20
-11.4282697000141
30
0
41
1
10
-1.99503997793928
20
-11.1972001365959
30
0
41
1
10
-1.99503997793928
20
-11.00944356136
30
0
41
1
10
-1.99503997793928
20
-10.8198574498995
30
0
41
1
10
-1.99503997793928
20
-10.627787937013
30
0
41
1
10
-1.99503997793928
20
-10.4327334855784
30
0
41
1
10
-1.99503997793928
20
-10.2851499168301
30
0
41
1
10
-1.99503997793928
20
-10.13621047024
30
0
41
1
10
-1.99503997793928
20
-9.98591879047714
30
0
41
1
10
-1.99503997793928
20
-9.83427692622885
30
0
41
1
10
-1.99503997793928
20
-9.63019833168175
30
0
41
1
10
-1.99503997793928
20
-9.37195865327328
30
0
41
1
10
-1.99503997793928
20
-9.1092571782612
30
0
41
1
10
-1.99503997793928
20
-8.89624559944801
30
0
41
1
10
-1.99503997793928
20
-8.73523611643316
30
0
41
1
10
-1.99503997793928
20
-8.57289871794615
30
0
41
1
10
-1.99503997793928
20
-8.40923673354897
30
0
41
1
10
-1.99503997793928
20
-8.24425232954013
30
0
41
1
10
-1.99503997793928
20
-8.0224014648056
30
0
41
1
10
-1.99503997793928
20
-7.7420578132905
30
0
41
1
10
-1.99503997793928
20
-7.40025290593451
30
0
41
1
10
-1.99503997793928
20
-7.11118461088941
30
0
41
1
10
-1.99503997793928
20
-6.87709665618266
30
0
41
1
10
-1.99503997793928
20
-6.70033531356589
30
0
41
1
10
-1.99503997793928
20
-6.52228078287743
30
0
41
1
10
-1.99503997793928
20
-6.3429370741791
30
0
41
1
10
-1.99503997793928
20
-6.16230788845579
30
0
41
1
10
-1.99503997793928
20
-5.98039789106801
30
0
41
1
10
-1.99503997793928
20
-5.79721186805691
30
0
41
1
10
-1.99503997793928
20
-5.61275496243289
30
0
41
1
10
-1.99503997793928
20
-5.42703270327695
30
0
41
1
10
-1.99503997793928
20
-5.24005175731475
30
0
41
1
10
-1.99503997793928
20
-5.05181945337139
30
0
41
1
10
-1.99503997793928
20
-4.86234332329403
30
0
41
1
10
-1.99503997793928
20
-4.67163207713236
30
0
41
1
10
-1.99503997793928
20
-4.47969614999016
30
0
41
1
10
-1.99503997793928
20
-4.28654656517494
30
0
41
1
10
-1.99503997793928
20
-4.09219634432211
30
0
41
1
10
-1.99503997793928
20
-3.92934661081907
30
0
41
1
10
-1.99503997793928
20
-3.7982972967292
30
0
41
1
10
-1.99503997793928
20
-3.69979994526253
30
0
41
1
10
-1.99503997793928
20
-3.6010147061962
30
0
41
1
10
-1.99503997793928
20
-3.46881385164499
30
0
41
1
10
-1.99503997793928
20
-3.30310841087518
30
0
41
1
10
-1.99503997793928
20
-3.13647579824178
30
0
41
1
10
-1.99503997793928
20
-3.00241852965871
30
0
41
1
10
-1.99503997793928
20
-2.90170218623106
30
0
41
1
10
-1.99503997793928
20
-2.80072442890969
30
0
41
1
10
-1.99503997793928
20
-2.69948931487846
30
0
41
1
10
-1.99503997793928
20
-2.5980019734576
30
0
41
1
10
-1.99503997793928
20
-2.46222694501739
30
0
41
1
10
-1.99503997793928
20
-2.3263670801044
30
0
41
1
10
-1.99503997793928
20
-2.18963187963746
30
0
41
1
10
-1.99503997793928
20
-2.08696367451518
30
0
41
1
10
-1.99503997793928
20
-1.98407765086858
30
0
41
1
10
-1.99503997793928
20
-1.88098143773604
30
0
41
1
10
-1.99503997793928
20
-1.77768276547397
30
0
41
1
10
-1.99503997793928
20
-1.67418894734925
30
0
41
1
10
-1.99503997793928
20
-1.57050946303122
30
0
41
1
10
-1.99503997793928
20
-1.46665209995737
30
0
41
1
10
-1.99503997793928
20
-1.36262724011792
30
0
41
1
10
-1.99503997793928
20
-1.25844372920938
30
0
41
1
10
-1.99503997793928
20
-1.15411255471386
30
0
41
1
10
-1.99503997793928
20
-1.04964378000579
30
0
41
1
10
-1.99503997793928
20
-0.945048899580655
30
0
41
1
10
-1.99503997793928
20
-0.840338961204225
30
0
41
1
10
-1.99503997793928
20
-0.735526073032332
30
0
41
1
10
-1.99503997793928
20
-0.630622105582688
30
0
41
1
10
-1.99503997793928
20
-0.525639721157262
30
0
41
1
10
-1.99503997793928
20
-0.420591350928703
30
0
41
1
10
-1.99503997793928
20
-0.315490126623814
30
0
41
1
10
-1.99503997793928
20
-0.210348939519435
30
0
41
1
10
-1.99503997793928
20
-0.105181165306249
30
0
41
1
10
-1.99503997793928
20
2.6093687E-09
30
0
41
1
10
-1.99503997793928
20
0.10518117389941
30
0
41
1
10
-1.99503997793928
20
0.21034895445402
30
0
41
1
10
-1.99503997793928
20
0.315490140896543
30
0
41
1
10
-1.99503997793928
20
0.420591355720489
30
0
41
1
10
-1.99503997793928
20
0.525639723935797
30
0
41
1
10
-1.99503997793928
20
0.630622120770227
30
0
41
1
10
-1.99503997793928
20
0.735526093018507
30
0
41
1
10
-1.99503997793928
20
0.840338966235578
30
0
41
1
10
-1.99503997793928
20
0.945048896197648
30
0
41
1
10
-1.99503997793928
20
1.04964379294299
30
0
41
1
10
-1.99503997793928
20
1.15411258033262
30
0
41
1
10
-1.99503997793928
20
1.25844373877697
30
0
41
1
10
-1.99503997793928
20
1.36262723194542
30
0
41
1
10
-1.99503997793928
20
1.46665210416356
30
0
41
1
10
-1.99503997793928
20
1.57050948928742
30
0
41
1
10
-1.99503997793928
20
1.67418896894682
30
0
41
1
10
-1.99503997793928
20
1.77768276258209
30
0
41
1
10
-1.99503997793928
20
1.88098142742643
30
0
41
1
10
-1.99503997793928
20
1.98407766278629
30
0
41
1
10
-1.99503997793928
20
2.08696370566375
30
0
41
1
10
-1.99503997793928
20
2.18963189754737
30
0
41
1
10
-1.99503997793928
20
2.29207637206397
30
0
41
1
10
-1.99503997793928
20
2.39428973936722
30
0
41
1
10
-1.99503997793928
20
2.49626703199883
30
0
41
1
10
-1.99503997793928
20
2.59800197223717
30
0
41
1
10
-1.99503997793928
20
2.73345090264118
30
0
41
1
10
-1.99503997793928
20
2.86801083241156
30
0
41
1
10
-1.99503997793928
20
3.00241855173454
30
0
41
1
10
-1.99503997793928
20
3.13647582573117
30
0
41
1
10
-1.99503997793928
20
3.30310842941955
30
0
41
1
10
-1.99503997793928
20
3.46881383607317
30
0
41
1
10
-1.99503997793928
20
3.60101470543907
30
0
41
1
10
-1.99503997793928
20
3.69979996514493
30
0
41
1
10
-1.99503997793928
20
3.79829732832764
30
0
41
1
10
-1.99503997793928
20
3.92934662557204
30
0
41
1
10
-1.99503997793928
20
4.09219631216948
30
0
41
1
10
-1.99503997793928
20
4.28654650347451
30
0
41
1
10
-1.99503997793928
20
4.47969611179559
30
0
41
1
10
-1.99503997793928
20
4.67163198724225
30
0
41
1
10
-1.99503997793928
20
4.86234315765492
30
0
41
1
10
-1.99503997793928
20
5.05181944357969
30
0
41
1
10
-1.99503997793928
20
5.24005183821342
30
0
41
1
10
-1.99503997793928
20
5.42703263168386
30
0
41
1
10
-1.99503997793928
20
5.61275497462711
30
0
41
1
10
-1.99503997793928
20
5.79721217482029
30
0
41
1
10
-1.99503997793928
20
5.98039819956611
30
0
41
1
10
-1.99503997793928
20
6.16230794338162
30
0
41
1
10
-1.99503997793928
20
6.34293700639154
30
0
41
1
10
-1.99503997793928
20
6.52228076981257
30
0
41
1
10
-1.99503997793928
20
6.70033533418757
30
0
41
1
10
-1.99503997793928
20
6.87709665926303
30
0
41
1
10
-1.99503997793928
20
7.11118459991687
30
0
41
1
10
-1.99503997793928
20
7.40025292645402
30
0
41
1
10
-1.99503997793928
20
7.74205781809903
30
0
41
1
10
-1.99503997793928
20
8.02240145976876
30
0
41
1
10
-1.99503997793928
20
8.24425235284596
30
0
41
1
10
-1.99503997793928
20
8.40923674956807
30
0
41
1
10
-1.99503997793928
20
8.57289871422529
30
0
41
1
10
-1.99503997793928
20
8.73523610803539
30
0
41
1
10
-1.99503997793928
20
8.89624560664996
30
0
41
1
10
-1.99503997793928
20
9.10925720032841
30
0
41
1
10
-1.99503997793928
20
9.37195865915049
30
0
41
1
10
-1.99503997793928
20
9.6301983246166
30
0
41
1
10
-1.99503997793928
20
9.83427694277646
30
0
41
1
10
-1.99503997793928
20
9.98591881051331
30
0
41
1
10
-1.99503997793928
20
10.1362104789651
30
0
41
1
10
-1.99503997793928
20
10.2851499142426
30
0
41
1
10
-1.99503997793928
20
10.432733482583
30
0
41
1
10
-1.99503997793928
20
10.6277879483349
30
0
41
1
10
-1.99503997793928
20
10.8198574709635
30
0
41
1
10
-1.99503997793928
20
11.0094435667743
30
0
41
1
10
-1.99503997793928
20
11.1972001338813
30
0
41
1
10
-1.99503997793928
20
11.4282697094187
30
0
41
1
10
-1.99503997793928
20
11.6547268446385
30
0
41
1
10
-1.99503997793928
20
11.8332480225582
30
0
41
1
10
-1.99503997793928
20
12.0099077334538
30
0
41
1
10
-1.99503997793928
20
12.1835401209566
30
0
41
1
10
-1.99503997793928
20
12.3545748313203
30
0
41
1
10
-1.99503997793928
20
12.4813812819682
30
0
41
1
10
-1.99503997793928
20
12.6067684751262
30
0
41
1
10
-1.99503997793928
20
12.7721223466594
30
0
41
1
10
-1.99503997793928
20
12.9344093235711
30
0
41
1
10
-1.99503997793928
20
13.0940197637218
30
0
41
1
10
-1.99503997793928
20
13.2122307543484
30
0
41
1
10
-1.99503997793928
20
13.3289901210133
30
0
41
1
10
-1.99503997793928
20
13.4827901435456
30
0
41
1
10
-1.99503997793928
20
13.6334713858817
30
0
41
1
10
-1.99503997793928
20
13.7813876543746
30
0
41
1
10
-1.99503997793928
20
13.8907947392413
30
0
41
1
10
-1.99503997793928
20
13.99871189727
30
0
41
1
10
-1.99503997793928
20
14.1406647319193
30
0
41
1
10
-1.99503997793928
20
14.2794333813788
30
0
41
1
10
-1.99503997793928
20
14.4153366880849
30
0
41
1
10
-1.99503997793928
20
14.5156939237825
30
0
41
1
10
-1.99503997793928
20
14.614516060936
30
0
41
1
10
-1.99503997793928
20
14.7442755571137
30
0
41
1
10
-1.99503997793928
20
14.8707702595594
30
0
41
1
10
-1.99503997793928
20
14.9942845913974
30
0
41
1
10
-1.99503997793928
20
15.070107125687
30
0
41
1
10
-1.99503997793928
20
15.130016414734
30
0
41
1
10
-1.99503997793928
20
15.1893946011099
30
0
41
1
10
-1.99503997793928
20
15.2918890331241
30
0
41
1
10
-1.99503997793928
20
15.4056838559475
30
0
41
1
10
-1.99503997793928
20
15.5163656330196
30
0
41
1
10
-1.99503997793928
20
15.5977008570348
30
0
41
1
10
-1.99503997793928
20
15.677384979663
30
0
41
1
10
-1.99503997793928
20
15.781458474053
30
0
41
1
10
-1.99503997793928
20
15.8820499896637
30
0
41
1
10
-1.99503997793928
20
15.9793734967038
30
0
41
1
10
-1.99503997793928
20
16.0506207879892
30
0
41
1
10
-1.99503997793928
20
16.1201424632647
30
0
41
1
10
-1.99503997793928
20
16.1879246525291
30
0
41
1
10
-1.99503997793928
20
16.2539521307207
30
0
41
1
10
-1.99503997793928
20
16.3182114280861
30
0
41
1
10
-1.99503997793928
20
16.3806869997558
30
0
41
1
10
-1.99503997793928
20
16.4616240235723
30
0
41
1
10
-1.99503997793928
20
16.538824252381
30
0
41
1
10
-1.99503997793928
20
16.6124299668847
30
0
41
1
10
-1.99503997793928
20
16.6835453043615
30
0
41
1
10
-1.99503997793928
20
16.7507930080793
30
0
41
1
10
-1.99503997793928
20
16.8142877377232
30
0
41
1
10
-1.99503997793928
20
16.8751872797734
30
0
41
1
10
-1.99503997793928
20
16.9320728583858
30
0
41
1
10
-1.99503997793928
20
16.9850205784631
30
0
41
1
10
-1.99503997793928
20
17.0226788299273
30
0
41
1
10
-1.99503997793928
20
17.0582791544304
30
0
41
1
10
-1.99503997793928
20
17.1029924178939
30
0
41
1
10
-1.99503997793928
20
17.1434240170936
30
0
41
1
10
-1.99503997793928
20
17.1795896288677
30
0
41
1
10
-1.99503997793928
20
17.204505416066
30
0
41
1
10
-1.99503997793928
20
17.2271975480507
30
0
41
1
10
-1.99503997793928
20
17.2476335178127
30
0
41
1
10
-1.99503997793928
20
17.2657806121613
30
0
41
1
10
-1.99503997793928
20
17.2816041393821
30
0
41
1
10
-1.99503997793928
20
17.2950677779805
30
0
41
1
10
-1.99503997793928
20
17.3061342543252
30
0
41
1
10
-1.99503997793928
20
17.3147637210185
30
0
41
1
10
-1.99503997793926
20
17.3189468376606
30
0
41
1
10
-1.99503997793928
20
17.32062489848
30
0
41
1
10
-1.99503997793926
20
17.3206887474188
30
0
0
SPLINE
5
1A5
100
AcDbEntity
8
SK1
62
256
6
ByLayer
370
18
48
1
60
0
100
AcDbSpline
70
4
71
3
72
106
73
102
40
0
40
0
40
0
40
0
40
0.0075864942879589
40
0.0161184320165869
40
0.0246503697452149
40
0.0331823074738429
40
0.0417142452024708
40
0.0502461829310988
40
0.0587781206597268
40
0.0673100583883548
40
0.0758419961169828
40
0.0843739338456107
40
0.0929058715742387
40
0.101437809302867
40
0.109969747031495
40
0.118501684760123
40
0.135565560217379
40
0.144097497946007
40
0.152629435674635
40
0.161161373403263
40
0.169693311131891
40
0.186757186589146
40
0.195289124317774
40
0.203821062046402
40
0.220884937503658
40
0.229416875232286
40
0.237948812960914
40
0.25501268841817
40
0.263544626146798
40
0.272076563875426
40
0.280608501604054
40
0.289140439332682
40
0.29767237706131
40
0.306204314789938
40
0.314736252518566
40
0.323268190247194
40
0.34033206570445
40
0.348864003433078
40
0.357395941161706
40
0.365927878890334
40
0.374459816618962
40
0.391523692076218
40
0.400055629804846
40
0.408587567533474
40
0.417119505262102
40
0.42565144299073
40
0.442715318447986
40
0.451247256176614
40
0.459779193905242
40
0.46831113163387
40
0.476843069362498
40
0.493906944819754
40
0.502438882548382
40
0.510970820277009
40
0.519502758005638
40
0.528034695734265
40
0.545098571191522
40
0.553630508920149
40
0.562162446648777
40
0.570694384377405
40
0.579226322106033
40
0.596290197563289
40
0.604822135291917
40
0.613354073020545
40
0.621886010749173
40
0.630417948477801
40
0.647481823935057
40
0.656013761663685
40
0.664545699392313
40
0.681609574849569
40
0.698673450306825
40
0.707205388035453
40
0.715737325764081
40
0.732801201221337
40
0.741333138949965
40
0.749865076678593
40
0.758397014407221
40
0.766928952135849
40
0.775460889864477
40
0.783992827593105
40
0.801056703050361
40
0.818120578507617
40
0.826652516236245
40
0.835184453964873
40
0.843716391693501
40
0.852248329422128
40
0.860780267150757
40
0.869312204879384
40
0.88637608033664
40
0.903439955793896
40
0.920503831251152
40
0.92903576897978
40
0.937567706708408
40
0.946099644437036
40
0.954631582165664
40
0.963163519894292
40
0.97169545762292
40
0.980227395351548
40
0.988759333080176
40
0.997291270808804
40
1
40
1
40
1
40
1
41
1
10
-0.394976888875277
20
-17.3601838878309
30
0
41
1
10
-0.394976888875306
20
-17.3617494124589
30
0
41
1
10
-0.394976888875306
20
-17.3643151423734
30
0
41
1
10
-0.394976888875277
20
-17.3658104187982
30
0
41
1
10
-0.394976888875277
20
-17.364743357607
30
0
41
1
10
-0.394976888875277
20
-17.3611046370287
30
0
41
1
10
-0.394976888875277
20
-17.3549392673806
30
0
41
1
10
-0.394976888875277
20
-17.3462909837355
30
0
41
1
10
-0.394976888875277
20
-17.3352007293143
30
0
41
1
10
-0.394976888875277
20
-17.3217086001335
30
0
41
1
10
-0.394976888875277
20
-17.3058521283006
30
0
41
1
10
-0.394976888875277
20
-17.2876678324761
30
0
41
1
10
-0.394976888875277
20
-17.267190526317
30
0
41
1
10
-0.394976888875277
20
-17.2444530966284
30
0
41
1
10
-0.394976888875277
20
-17.2194882282903
30
0
41
1
10
-0.394976888875277
20
-17.1832568130363
30
0
41
1
10
-0.394976888875277
20
-17.1427382851614
30
0
41
1
10
-0.394976888875277
20
-17.0979462613767
30
0
41
1
10
-0.394976888875277
20
-17.0622798138473
30
0
41
1
10
-0.394976888875277
20
-17.0245523789023
30
0
41
1
10
-0.394976888875277
20
-16.9715145338597
30
0
41
1
10
-0.394976888875277
20
-16.9145140859045
30
0
41
1
10
-0.394976888875277
20
-16.8535135157982
30
0
41
1
10
-0.394976888875277
20
-16.7899145739052
30
0
41
1
10
-0.394976888875277
20
-16.7225357594453
30
0
41
1
10
-0.394976888875277
20
-16.6513062647865
30
0
41
1
10
-0.394976888875277
20
-16.577583428992
30
0
41
1
10
-0.394976888875277
20
-16.5002370605308
30
0
41
1
10
-0.394976888875277
20
-16.4191737242595
30
0
41
1
10
-0.394976888875277
20
-16.3565947837564
30
0
41
1
10
-0.394976888875277
20
-16.2922298184193
30
0
41
1
10
-0.394976888875277
20
-16.2260943534788
30
0
41
1
10
-0.394976888875277
20
-16.1582019227301
30
0
41
1
10
-0.394976888875277
20
-16.0885677968918
30
0
41
1
10
-0.394976888875277
20
-16.0172057910894
30
0
41
1
10
-0.394976888875277
20
-15.9197362080175
30
0
41
1
10
-0.394976888875277
20
-15.8189643575456
30
0
41
1
10
-0.394976888875277
20
-15.7147364711228
30
0
41
1
10
-0.394976888875277
20
-15.6349267495635
30
0
41
1
10
-0.394976888875277
20
-15.553463729323
30
0
41
1
10
-0.394976888875277
20
-15.4426195996911
30
0
41
1
10
-0.394976888875277
20
-15.3286250260664
30
0
41
1
10
-0.394976888875277
20
-15.2112966721243
30
0
41
1
10
-0.394976888875277
20
-15.1217290697223
30
0
41
1
10
-0.394976888875277
20
-15.0305709686995
30
0
41
1
10
-0.394976888875277
20
-14.906878048735
30
0
41
1
10
-0.394976888875277
20
-14.7801642402503
30
0
41
1
10
-0.394976888875277
20
-14.6502180265082
30
0
41
1
10
-0.394976888875277
20
-14.5512443698349
30
0
41
1
10
-0.394976888875277
20
-14.4507333574048
30
0
41
1
10
-0.394976888875277
20
-14.3146351144528
30
0
41
1
10
-0.394976888875277
20
-14.1756274353422
30
0
41
1
10
-0.394976888875277
20
-14.0334711437704
30
0
41
1
10
-0.394976888875277
20
-13.9253889575191
30
0
41
1
10
-0.394976888875277
20
-13.8158144643309
30
0
41
1
10
-0.394976888875277
20
-13.6676860465324
30
0
41
1
10
-0.394976888875277
20
-13.5167448397425
30
0
41
1
10
-0.394976888875277
20
-13.3627236430939
30
0
41
1
10
-0.394976888875277
20
-13.2457848907918
30
0
41
1
10
-0.394976888875277
20
-13.127391952352
30
0
41
1
10
-0.394976888875277
20
-12.9675509274721
30
0
41
1
10
-0.394976888875277
20
-12.8049814419576
30
0
41
1
10
-0.394976888875277
20
-12.6393872212047
30
0
41
1
10
-0.394976888875277
20
-12.5138050377602
30
0
41
1
10
-0.394976888875277
20
-12.3868007822861
30
0
41
1
10
-0.394976888875277
20
-12.2155153079022
30
0
41
1
10
-0.394976888875277
20
-12.0415756036957
30
0
41
1
10
-0.394976888875277
20
-11.8646543426879
30
0
41
1
10
-0.394976888875277
20
-11.6858676336886
30
0
41
1
10
-0.394976888875277
20
-11.4590305058839
30
0
41
1
10
-0.394976888875277
20
-11.2275701322441
30
0
41
1
10
-0.394976888875277
20
-11.0395280715927
30
0
41
1
10
-0.394976888875277
20
-10.8496518299165
30
0
41
1
10
-0.394976888875277
20
-10.6572262982852
30
0
41
1
10
-0.394976888875277
20
-10.4618684218406
30
0
41
1
10
-0.394976888875277
20
-10.3140380853821
30
0
41
1
10
-0.394976888875277
20
-10.1648479968029
30
0
41
1
10
-0.394976888875277
20
-10.0143015620689
30
0
41
1
10
-0.394976888875277
20
-9.86240079247779
30
0
41
1
10
-0.394976888875277
20
-9.65799297250354
30
0
41
1
10
-0.394976888875277
20
-9.3992804435735
30
0
41
1
10
-0.394976888875277
20
-9.13609084815204
30
0
41
1
10
-0.394976888875277
20
-8.92272120904667
30
0
41
1
10
-0.394976888875277
20
-8.76141979935898
30
0
41
1
10
-0.394976888875277
20
-8.59878513251641
30
0
41
1
10
-0.394976888875277
20
-8.43482033812748
30
0
41
1
10
-0.394976888875277
20
-8.26952734508268
30
0
41
1
10
-0.394976888875277
20
-8.04728288893983
30
0
41
1
10
-0.394976888875277
20
-7.76637137475095
30
0
41
1
10
-0.394976888875277
20
-7.42389184310318
30
0
41
1
10
-0.394976888875277
20
-7.13420904829047
30
0
41
1
10
-0.394976888875277
20
-6.89966739484251
30
0
41
1
10
-0.394976888875277
20
-6.7225342898117
30
0
41
1
10
-0.394976888875277
20
-6.54409938064705
30
0
41
1
10
-0.394976888875277
20
-6.36436626337326
30
0
41
1
10
-0.394976888875277
20
-6.18333822517317
30
0
41
1
10
-0.394976888875277
20
-6.0010194773844
30
0
41
1
10
-0.394976888875277
20
-5.81741425905383
30
0
41
1
10
-0.394976888875277
20
-5.63252720020009
30
0
41
1
10
-0.394976888875277
20
-5.48871675629277
30
0
41
1
10
-0.394976888875277
20
-5.40659331253005
30
0
41
1
10
-0.394976888875277
20
-5.38678223324203
30
0
0
SPLINE
5
1A6
100
AcDbEntity
8
SK1
62
256
6
ByLayer
370
18
48
1
60
0
100
AcDbSpline
70
4
71
3
72
107
73
103
40
0
40
0
40
0
40
0
40
0.0027087431769412
40
0.0112406780914638
40
0.0197726130059865
40
0.0283045479205092
40
0.0368364828350319
40
0.0453684177495546
40
0.0539003526640772
40
0.0624322875785999
40
0.0709642224931226
40
0.0794961574076452
40
0.0965600272366906
40
0.113623897065736
40
0.130687766894781
40
0.139219701809304
40
0.147751636723827
40
0.156283571638349
40
0.164815506552872
40
0.173347441467395
40
0.181879376381917
40
0.198943246210963
40
0.216007116040008
40
0.224539050954531
40
0.233070985869053
40
0.241602920783576
40
0.250134855698099
40
0.258666790612621
40
0.267198725527144
40
0.284262595356189
40
0.292794530270712
40
0.301326465185235
40
0.31839033501428
40
0.335454204843326
40
0.343986139757848
40
0.352518074672371
40
0.369581944501416
40
0.378113879415939
40
0.386645814330462
40
0.395177749244984
40
0.403709684159507
40
0.420773553988552
40
0.429305488903075
40
0.437837423817598
40
0.44636935873212
40
0.454901293646643
40
0.471965163475688
40
0.480497098390211
40
0.489029033304734
40
0.497560968219256
40
0.506092903133779
40
0.523156772962824
40
0.531688707877347
40
0.54022064279187
40
0.548752577706392
40
0.557284512620915
40
0.574348382449961
40
0.582880317364483
40
0.591412252279006
40
0.595678219736267
40
0.599944187193529
40
0.608476122108051
40
0.625539991937097
40
0.634071926851619
40
0.642603861766142
40
0.651135796680665
40
0.659667731595187
40
0.676731601424233
40
0.685263536338755
40
0.693795471253278
40
0.702327406167801
40
0.710859341082323
40
0.719391275996846
40
0.727923210911369
40
0.736455145825891
40
0.744987080740414
40
0.762050950569459
40
0.770582885483982
40
0.779114820398505
40
0.79617869022755
40
0.804710625142073
40
0.813242560056595
40
0.830306429885641
40
0.838838364800163
40
0.847370299714686
40
0.855902234629209
40
0.864434169543732
40
0.881498039372777
40
0.8900299742873
40
0.898561909201822
40
0.907093844116345
40
0.915625779030868
40
0.92415771394539
40
0.932689648859913
40
0.941221583774436
40
0.949753518688958
40
0.958285453603481
40
0.966817388518004
40
0.975349323432526
40
0.983881258347049
40
0.992413193261572
40
1
40
1
40
1
40
1
41
1
10
-0.394976888875277
20
5.38678189578289
30
0
41
1
10
-0.394976888875277
20
5.4065930765673
30
0
41
1
10
-0.394976888875277
20
5.48871660168982
30
0
41
1
10
-0.394976888875277
20
5.63252719489225
30
0
41
1
10
-0.394976888875277
20
5.8174145162354
30
0
41
1
10
-0.394976888875277
20
6.00101977124669
30
0
41
1
10
-0.394976888875277
20
6.18333830919048
30
0
41
1
10
-0.394976888875277
20
6.3643662218949
30
0
41
1
10
-0.394976888875277
20
6.54409937286439
30
0
41
1
10
-0.394976888875277
20
6.72253430941348
30
0
41
1
10
-0.394976888875277
20
6.89966740060396
30
0
41
1
10
-0.394976888875277
20
7.13420903787926
30
0
41
1
10
-0.394976888875277
20
7.42389186204957
30
0
41
1
10
-0.394976888875277
20
7.76637138106329
30
0
41
1
10
-0.394976888875277
20
8.04728288344245
30
0
41
1
10
-0.394976888875277
20
8.26952736598562
30
0
41
1
10
-0.394976888875277
20
8.434820354761
30
0
41
1
10
-0.394976888875277
20
8.59878513137221
30
0
41
1
10
-0.394976888875277
20
8.76141979186249
30
0
41
1
10
-0.394976888875277
20
8.922721214403
30
0
41
1
10
-0.394976888875277
20
9.1360908691222
30
0
41
1
10
-0.394976888875277
20
9.39928045092248
30
0
41
1
10
-0.394976888875277
20
9.65799296546987
30
0
41
1
10
-0.394976888875277
20
9.86240080704218
30
0
41
1
10
-0.394976888875277
20
10.0143015815252
30
0
41
1
10
-0.394976888875277
20
10.1648480067744
30
0
41
1
10
-0.394976888875277
20
10.3140380843155
30
0
41
1
10
-0.394976888875277
20
10.4618684189216
30
0
41
1
10
-0.394976888875277
20
10.6572263081632
30
0
41
1
10
-0.394976888875277
20
10.8496518506122
30
0
41
1
10
-0.394976888875277
20
11.0395280782787
30
0
41
1
10
-0.394976888875277
20
11.2275701299333
30
0
41
1
10
-0.394976888875277
20
11.4590305143918
30
0
41
1
10
-0.394976888875277
20
11.685867652055
30
0
41
1
10
-0.394976888875277
20
11.864654349678
30
0
41
1
10
-0.394976888875277
20
12.0415756040849
30
0
41
1
10
-0.394976888875277
20
12.2155153161813
30
0
41
1
10
-0.394976888875277
20
12.3868007979199
30
0
41
1
10
-0.394976888875277
20
12.5138050519686
30
0
41
1
10
-0.394976888875277
20
12.6393872302303
30
0
41
1
10
-0.394976888875277
20
12.8049814458532
30
0
41
1
10
-0.394976888875277
20
12.9675509360494
30
0
41
1
10
-0.394976888875277
20
13.1273919665529
30
0
41
1
10
-0.394976888875277
20
13.2457849051211
30
0
41
1
10
-0.394976888875277
20
13.3627236547323
30
0
41
1
10
-0.394976888875277
20
13.5167448476072
30
0
41
1
10
-0.394976888875277
20
13.6676860552913
30
0
41
1
10
-0.394976888875277
20
13.8158144768541
30
0
41
1
10
-0.394976888875277
20
13.9253889718329
30
0
41
1
10
-0.394976888875277
20
14.0334711580348
30
0
41
1
10
-0.394976888875277
20
14.1756274475866
30
0
41
1
10
-0.394976888875277
20
14.3146351237356
30
0
41
1
10
-0.394976888875277
20
14.4507333681675
30
0
41
1
10
-0.394976888875277
20
14.5512443837086
30
0
41
1
10
-0.394976888875277
20
14.6502180419884
30
0
41
1
10
-0.394976888875277
20
14.780164253239
30
0
41
1
10
-0.394976888875277
20
14.9068780878822
30
0
41
1
10
-0.394976888875277
20
15.0305708978545
30
0
41
1
10
-0.394976888875277
20
15.1065165223896
30
0
41
1
10
-0.394976888875277
20
15.1665127141503
30
0
41
1
10
-0.394976888875277
20
15.2259771214207
30
0
41
1
10
-0.394976888875277
20
15.3286250474485
30
0
41
1
10
-0.394976888875277
20
15.4426196109061
30
0
41
1
10
-0.394976888875277
20
15.5534637367265
30
0
41
1
10
-0.394976888875277
20
15.6349267624759
30
0
41
1
10
-0.394976888875277
20
15.7147364921469
30
0
41
1
10
-0.394976888875277
20
15.8189643831875
30
0
41
1
10
-0.394976888875277
20
15.9197362187748
30
0
41
1
10
-0.394976888875277
20
16.0172057969154
30
0
41
1
10
-0.394976888875277
20
16.0885678110446
30
0
41
1
10
-0.394976888875277
20
16.1582019472912
30
0
41
1
10
-0.394976888875277
20
16.2260943811825
30
0
41
1
10
-0.394976888875277
20
16.2922298358683
30
0
41
1
10
-0.394976888875277
20
16.3565947902754
30
0
41
1
10
-0.394976888875277
20
16.4191737297992
30
0
41
1
10
-0.394976888875277
20
16.5002370830775
30
0
41
1
10
-0.394976888875277
20
16.5775834628441
30
0
41
1
10
-0.394976888875277
20
16.6513062771915
30
0
41
1
10
-0.394976888875277
20
16.7225357579897
30
0
41
1
10
-0.394976888875277
20
16.7899145981056
30
0
41
1
10
-0.394976888875277
20
16.8535135500206
30
0
41
1
10
-0.394976888875277
20
16.9145141001581
30
0
41
1
10
-0.394976888875277
20
16.9715145305624
30
0
41
1
10
-0.394976888875277
20
17.024552403858
30
0
41
1
10
-0.394976888875277
20
17.0622798511847
30
0
41
1
10
-0.394976888875277
20
17.0979462837243
30
0
41
1
10
-0.394976888875277
20
17.1427382787905
30
0
41
1
10
-0.394976888875277
20
17.1832568369982
30
0
41
1
10
-0.394976888875277
20
17.2194882612007
30
0
41
1
10
-0.394976888875277
20
17.2444531170066
30
0
41
1
10
-0.394976888875277
20
17.2671905287463
30
0
41
1
10
-0.394976888875277
20
17.2876678382251
30
0
41
1
10
-0.394976888875277
20
17.3058521626298
30
0
41
1
10
-0.394976888875277
20
17.3217086355548
30
0
41
1
10
-0.394976888875277
20
17.3352007360526
30
0
41
1
10
-0.394976888875277
20
17.3462909802274
30
0
41
1
10
-0.394976888875277
20
17.3549392880652
30
0
41
1
10
-0.394976888875277
20
17.3611046305144
30
0
41
1
10
-0.394976888875277
20
17.3647432146661
30
0
41
1
10
-0.394976888875277
20
17.3658102005923
30
0
41
1
10
-0.394976888875306
20
17.3643150511042
30
0
41
1
10
-0.394976888875334
20
17.3617494021471
30
0
41
1
10
-0.39497688887522
20
17.3601838595212
30
0
0
SPLINE
5
1A7
100
AcDbEntity
8
SK1
62
256
6
ByLayer
370
18
48
1
60
0
100
AcDbSpline
70
4
71
3
72
288
73
284
40
0
40
0
40
0
40
0
40
0.0022851345829758
40
0.0057901751684557
40
0.0092952157539355
40
0.0128002563394154
40
0.0163052969248953
40
0.0198103375103752
40
0.0233153780958551
40
0.0268204186813349
40
0.0303254592668148
40
0.0338304998522947
40
0.0373355404377746
40
0.0408405810232545
40
0.0443456216087344
40
0.0513557027796941
40
0.054860743365174
40
0.0583657839506539
40
0.0618708245361338
40
0.0653758651216137
40
0.0723859462925734
40
0.0758909868780533
40
0.0793960274635333
40
0.086406108634493
40
0.0899111492199728
40
0.0934161898054527
40
0.100426270976412
40
0.103931311561892
40
0.107436352147372
40
0.110941392732852
40
0.114446433318332
40
0.117951473903812
40
0.121456514489292
40
0.124961555074772
40
0.128466595660252
40
0.135476676831211
40
0.138981717416691
40
0.142486758002171
40
0.145991798587651
40
0.149496839173131
40
0.156506920344091
40
0.160011960929571
40
0.16351700151505
40
0.16702204210053
40
0.17052708268601
40
0.17753716385697
40
0.18104220444245
40
0.18454724502793
40
0.18805228561341
40
0.191557326198889
40
0.198567407369849
40
0.202072447955329
40
0.205577488540809
40
0.209082529126289
40
0.212587569711769
40
0.219597650882729
40
0.223102691468208
40
0.226607732053688
40
0.230112772639168
40
0.233617813224648
40
0.240627894395608
40
0.244132934981088
40
0.247637975566568
40
0.251143016152047
40
0.254648056737527
40
0.261658137908487
40
0.265163178493967
40
0.268668219079447
40
0.275678300250407
40
0.282688381421366
40
0.286193422006846
40
0.289698462592326
40
0.296708543763286
40
0.300213584348766
40
0.303718624934246
40
0.307223665519726
40
0.310728706105205
40
0.314233746690685
40
0.317738787276165
40
0.324748868447125
40
0.331758949618085
40
0.335263990203565
40
0.338769030789045
40
0.342274071374524
40
0.345779111960004
40
0.349284152545484
40
0.352789193130964
40
0.359799274301924
40
0.366809355472884
40
0.373819436643843
40
0.377324477229323
40
0.380829517814803
40
0.384334558400283
40
0.387839598985763
40
0.391344639571243
40
0.394849680156723
40
0.398354720742203
40
0.401859761327683
40
0.405364801913162
40
0.408869842498642
40
0.412374883084122
40
0.415879923669602
40
0.419384964255082
40
0.422890004840562
40
0.426395045426042
40
0.429900086011522
40
0.433405126597001
40
0.435157646889741
40
0.436910167182481
40
0.438662687475221
40
0.440415207767961
40
0.443920248353441
40
0.447425288938921
40
0.449177809231661
40
0.450930329524401
40
0.452682849817141
40
0.454435370109881
40
0.456187890402621
40
0.457940410695361
40
0.461445451280841
40
0.463197971573581
40
0.46495049186632
40
0.46670301215906
40
0.4684555324518
40
0.47020805274454
40
0.47196057303728
40
0.47371309333002
40
0.47546561362276
40
0.4772181339155
40
0.47897065420824
40
0.48072317450098
40
0.48247569479372
40
0.48422821508646
40
0.4859807353792
40
0.48773325567194
40
0.48948577596468
40
0.491238296257419
40
0.49299081655016
40
0.494743336842899
40
0.496495857135639
40
0.498248377428379
40
0.500000897721119
40
0.501753418013859
40
0.503505938306599
40
0.505258458599339
40
0.507010978892079
40
0.508763499184819
40
0.510516019477559
40
0.512268539770299
40
0.514021060063039
40
0.515773580355779
40
0.517526100648519
40
0.519278620941259
40
0.521031141233999
40
0.522783661526739
40
0.524536181819479
40
0.526288702112219
40
0.528041222404958
40
0.529793742697698
40
0.531546262990438
40
0.533298783283178
40
0.535051303575918
40
0.536803823868658
40
0.538556344161398
40
0.540308864454138
40
0.542061384746878
40
0.543813905039618
40
0.545566425332358
40
0.549071465917838
40
0.550823986210578
40
0.552576506503318
40
0.556081547088797
40
0.559586587674277
40
0.561339107967017
40
0.563091628259757
40
0.564844148552497
40
0.566596668845237
40
0.570101709430717
40
0.573606750016197
40
0.577111790601677
40
0.580616831187157
40
0.584121871772636
40
0.587626912358116
40
0.591131952943596
40
0.594636993529076
40
0.598142034114556
40
0.601647074700036
40
0.605152115285516
40
0.608657155870996
40
0.612162196456476
40
0.615667237041955
40
0.619172277627435
40
0.622677318212915
40
0.626182358798395
40
0.633192439969355
40
0.640202521140315
40
0.647212602311274
40
0.650717642896754
40
0.654222683482234
40
0.657727724067714
40
0.661232764653194
40
0.664737805238674
40
0.668242845824154
40
0.675252926995113
40
0.682263008166073
40
0.685768048751553
40
0.689273089337033
40
0.692778129922513
40
0.696283170507993
40
0.699788211093473
40
0.703293251678953
40
0.710303332849912
40
0.713808373435392
40
0.717313414020872
40
0.724323495191832
40
0.731333576362792
40
0.734838616948271
40
0.738343657533751
40
0.745353738704711
40
0.748858779290191
40
0.752363819875671
40
0.755868860461151
40
0.759373901046631
40
0.766383982217591
40
0.76988902280307
40
0.77339406338855
40
0.77689910397403
40
0.78040414455951
40
0.78741422573047
40
0.79091926631595
40
0.79442430690143
40
0.797929347486909
40
0.801434388072389
40
0.808444469243349
40
0.811949509828829
40
0.815454550414309
40
0.818959590999789
40
0.822464631585269
40
0.829474712756228
40
0.832979753341708
40
0.836484793927188
40
0.838237314219928
40
0.839989834512668
40
0.843494875098148
40
0.850504956269107
40
0.854009996854587
40
0.857515037440067
40
0.861020078025547
40
0.864525118611027
40
0.871535199781987
40
0.875040240367467
40
0.878545280952947
40
0.882050321538427
40
0.885555362123907
40
0.889060402709386
40
0.892565443294866
40
0.896070483880346
40
0.899575524465826
40
0.906585605636786
40
0.910090646222266
40
0.913595686807746
40
0.920605767978705
40
0.924110808564185
40
0.927615849149665
40
0.934625930320625
40
0.938130970906105
40
0.941636011491585
40
0.945141052077064
40
0.948646092662545
40
0.955656173833504
40
0.959161214418984
40
0.962666255004464
40
0.966171295589944
40
0.969676336175424
40
0.973181376760904
40
0.976686417346383
40
0.980191457931863
40
0.983696498517343
40
0.987201539102823
40
0.990706579688303
40
0.994211620273783
40
0.997716660859263
40
1
40
1
40
1
40
1
41
1
10
-30
20
-15.9926656692503
30
0
41
1
10
-30
20
-15.9930575017355
30
0
41
1
10
-30
20
-15.9936130025199
30
0
41
1
10
-30
20
-15.992743696334
30
0
41
1
10
-30
20
-15.9893850921089
30
0
41
1
10
-30
20
-15.9836860314146
30
0
41
1
10
-30
20
-15.9756808210229
30
0
41
1
10
-30
20
-15.9654018084481
30
0
41
1
10
-30
20
-15.9528811264941
30
0
41
1
10
-30
20
-15.9381491278438
30
0
41
1
10
-30
20
-15.9212355486336
30
0
41
1
10
-30
20
-15.9021692443494
30
0
41
1
10
-30
20
-15.8809772874923
30
0
41
1
10
-30
20
-15.85768719628
30
0
41
1
10
-30
20
-15.8237020449635
30
0
41
1
10
-30
20
-15.786151572388
30
0
41
1
10
-30
20
-15.7440467976174
30
0
41
1
10
-30
20
-15.7106366986067
30
0
41
1
10
-30
20
-15.6752710038507
30
0
41
1
10
-30
20
-15.6253102414823
30
0
41
1
10
-30
20
-15.5722298833996
30
0
41
1
10
-30
20
-15.5146768571488
30
0
41
1
10
-30
20
-15.454635155867
30
0
41
1
10
-30
20
-15.3917322415494
30
0
41
1
10
-30
20
-15.3243986601424
30
0
41
1
10
-30
20
-15.2546726017927
30
0
41
1
10
-30
20
-15.1823145630236
30
0
41
1
10
-30
20
-15.1055630554725
30
0
41
1
10
-30
20
-15.0465122402176
30
0
41
1
10
-30
20
-14.985753516587
30
0
41
1
10
-30
20
-14.9233034368069
30
0
41
1
10
-30
20
-14.8591738020485
30
0
41
1
10
-30
20
-14.7933781380804
30
0
41
1
10
-30
20
-14.7259318150055
30
0
41
1
10
-30
20
-14.6334478809413
30
0
41
1
10
-30
20
-14.5388306139923
30
0
41
1
10
-30
20
-14.4398724968665
30
0
41
1
10
-30
20
-14.3643499358607
30
0
41
1
10
-30
20
-14.2872489988171
30
0
41
1
10
-30
20
-14.1819460940194
30
0
41
1
10
-30
20
-14.0747689624993
30
0
41
1
10
-30
20
-13.9632604256822
30
0
41
1
10
-30
20
-13.8784200007502
30
0
41
1
10
-30
20
-13.7920640526129
30
0
41
1
10
-30
20
-13.674463030797
30
0
41
1
10
-30
20
-13.5552283874056
30
0
41
1
10
-30
20
-13.4316550911985
30
0
41
1
10
-30
20
-13.337853067095
30
0
41
1
10
-30
20
-13.2425907988595
30
0
41
1
10
-30
20
-13.1131460860381
30
0
41
1
10
-30
20
-12.9822967545723
30
0
41
1
10
-30
20
-12.847084683004
30
0
41
1
10
-30
20
-12.7446351532221
30
0
41
1
10
-30
20
-12.6407746180398
30
0
41
1
10
-30
20
-12.499887311655
30
0
41
1
10
-30
20
-12.3578191289812
30
0
41
1
10
-30
20
-12.2113468162578
30
0
41
1
10
-30
20
-12.100530667573
30
0
41
1
10
-30
20
-11.9883478761207
30
0
41
1
10
-30
20
-11.836377249174
30
0
41
1
10
-30
20
-11.6834503922585
30
0
41
1
10
-30
20
-11.5260594948948
30
0
41
1
10
-30
20
-11.4071324366749
30
0
41
1
10
-30
20
-11.2868794886981
30
0
41
1
10
-30
20
-11.1241532157817
30
0
41
1
10
-30
20
-10.9607029988619
30
0
41
1
10
-30
20
-10.7927086404325
30
0
41
1
10
-30
20
-10.6229844866849
30
0
41
1
10
-30
20
-10.4091173939315
30
0
41
1
10
-30
20
-10.1909959678347
30
0
41
1
10
-30
20
-10.0126979588287
30
0
41
1
10
-30
20
-9.83272430289384
30
0
41
1
10
-30
20
-9.65245023276196
30
0
41
1
10
-30
20
-9.46744871362009
30
0
41
1
10
-30
20
-9.32804093460692
30
0
41
1
10
-30
20
-9.18740563851225
30
0
41
1
10
-30
20
-9.0455543785921
30
0
41
1
10
-30
20
-8.90249044231979
30
0
41
1
10
-30
20
-8.70931958714519
30
0
41
1
10
-30
20
-8.46674616603482
30
0
41
1
10
-30
20
-8.22021686294167
30
0
41
1
10
-30
20
-8.01906836645577
30
0
41
1
10
-30
20
-7.86773085832667
30
0
41
1
10
-30
20
-7.71524241280142
30
0
41
1
10
-30
20
-7.56161298420645
30
0
41
1
10
-30
20
-7.40685260452798
30
0
41
1
10
-30
20
-7.19804202206524
30
0
41
1
10
-30
20
-6.93651252502835
30
0
41
1
10
-30
20
-6.61705894701072
30
0
41
1
10
-30
20
-6.34834996432815
30
0
41
1
10
-30
20
-6.12929373929515
30
0
41
1
10
-30
20
-5.96484945115367
30
0
41
1
10
-30
20
-5.7993974381898
30
0
41
1
10
-30
20
-5.63295542814623
30
0
41
1
10
-30
20
-5.46554083189747
30
0
41
1
10
-30
20
-5.29717335727497
30
0
41
1
10
-30
20
-5.12787591307327
30
0
41
1
10
-30
20
-4.9576706384986
30
0
41
1
10
-30
20
-4.78658071628459
30
0
41
1
10
-30
20
-4.6146335506248
30
0
41
1
10
-30
20
-4.44186113006066
30
0
41
1
10
-30
20
-4.26829321973949
30
0
41
1
10
-30
20
-4.09396155182321
30
0
41
1
10
-30
20
-3.91890592173866
30
0
41
1
10
-30
20
-3.74316620306936
30
0
41
1
10
-30
20
-3.56678705857649
30
0
41
1
10
-30
20
-3.42015123791836
30
0
41
1
10
-30
20
-3.3009810984795
30
0
41
1
10
-30
20
-3.21216327477833
30
0
41
1
10
-30
20
-3.12322377081893
30
0
41
1
10
-30
20
-3.00356413190352
30
0
41
1
10
-30
20
-2.85589664233001
30
0
41
1
10
-30
20
-2.70788037697056
30
0
41
1
10
-30
20
-2.58749550859633
30
0
41
1
10
-30
20
-2.49793822974365
30
0
41
1
10
-30
20
-2.40833000131903
30
0
41
1
10
-30
20
-2.31867596083524
30
0
41
1
10
-30
20
-2.22899146909501
30
0
41
1
10
-30
20
-2.10827328924756
30
0
41
1
10
-30
20
-1.99097459417121
30
0
41
1
10
-30
20
-1.87012467714985
30
0
41
1
10
-30
20
-1.78043031683035
30
0
41
1
10
-30
20
-1.69076251244053
30
0
41
1
10
-30
20
-1.60113247848605
30
0
41
1
10
-30
20
-1.51155313609783
30
0
41
1
10
-30
20
-1.422025757727
30
0
41
1
10
-30
20
-1.33256776537959
30
0
41
1
10
-30
20
-1.24317741509074
30
0
41
1
10
-30
20
-1.15386860885192
30
0
41
1
10
-30
20
-1.06464013673647
30
0
41
1
10
-30
20
-0.975500136218244
30
0
41
1
10
-30
20
-0.886447988926847
30
0
41
1
10
-30
20
-0.797485776681128
30
0
41
1
10
-30
20
-0.708610852102623
30
0
41
1
10
-30
20
-0.61982073744278
30
0
41
1
10
-30
20
-0.531109764951225
30
0
41
1
10
-30
20
-0.442471434007643
30
0
41
1
10
-30
20
-0.35389600796347
30
0
41
1
10
-30
20
-0.265373879214224
30
0
41
1
10
-30
20
-0.176892371692162
30
0
41
1
10
-30
20
-0.0884392148653887
30
0
41
1
10
-30
20
-2.04973958E-08
30
0
41
1
10
-30
20
0.0884392031952927
30
0
41
1
10
-30
20
0.17689241471993
30
0
41
1
10
-30
20
0.265373915570137
30
0
41
1
10
-30
20
0.353895962579486
30
0
41
1
10
-30
20
0.442471374506823
30
0
41
1
10
-30
20
0.531109813902646
30
0
41
1
10
-30
20
0.61982082298212
30
0
41
1
10
-30
20
0.70861080655007
30
0
41
1
10
-30
20
0.797485667180155
30
0
41
1
10
-30
20
0.886448026006832
30
0
41
1
10
-30
20
0.97550027278379
30
0
41
1
10
-30
20
1.06464012636249
30
0
41
1
10
-30
20
1.1538684580087
30
0
41
1
10
-30
20
1.24317738635406
30
0
41
1
10
-30
20
1.33256791795026
30
0
41
1
10
-30
20
1.42202585063245
30
0
41
1
10
-30
20
1.5115530207047
30
0
41
1
10
-30
20
1.60113232466117
30
0
41
1
10
-30
20
1.69076256252157
30
0
41
1
10
-30
20
1.78043050963589
30
0
41
1
10
-30
20
1.87012473193457
30
0
41
1
10
-30
20
1.95984062320625
30
0
41
1
10
-30
20
2.04956121840738
30
0
41
1
10
-30
20
2.13928298465069
30
0
41
1
10
-30
20
2.22899154181988
30
0
41
1
10
-30
20
2.34971237639814
30
0
41
1
10
-30
20
2.4670581044816
30
0
41
1
10
-30
20
2.58749567267543
30
0
41
1
10
-30
20
2.70788056755165
30
0
41
1
10
-30
20
2.85589666602098
30
0
41
1
10
-30
20
3.00356394920902
30
0
41
1
10
-30
20
3.12322374659235
30
0
41
1
10
-30
20
3.21216341650842
30
0
41
1
10
-30
20
3.3009812939207
30
0
41
1
10
-30
20
3.4201512431562
30
0
41
1
10
-30
20
3.56678672363679
30
0
41
1
10
-30
20
3.74316585626101
30
0
41
1
10
-30
20
3.91890584757377
30
0
41
1
10
-30
20
4.09396100129445
30
0
41
1
10
-30
20
4.26829259541552
30
0
41
1
10
-30
20
4.44186183082067
30
0
41
1
10
-30
20
4.61463414914383
30
0
41
1
10
-30
20
4.78658021025493
30
0
41
1
10
-30
20
4.95767123056282
30
0
41
1
10
-30
20
5.1278778625566
30
0
41
1
10
-30
20
5.29717415068043
30
0
41
1
10
-30
20
5.46553992297879
30
0
41
1
10
-30
20
5.63295448869491
30
0
41
1
10
-30
20
5.79939725011727
30
0
41
1
10
-30
20
5.96484950556561
30
0
41
1
10
-30
20
6.1292936535483
30
0
41
1
10
-30
20
6.34834993475852
30
0
41
1
10
-30
20
6.6170590196507
30
0
41
1
10
-30
20
6.93651248001379
30
0
41
1
10
-30
20
7.19804203228608
30
0
41
1
10
-30
20
7.40685270744595
30
0
41
1
10
-30
20
7.56161297986856
30
0
41
1
10
-30
20
7.71524232371232
30
0
41
1
10
-30
20
7.86773082006812
30
0
41
1
10
-30
20
8.01906843480592
30
0
41
1
10
-30
20
8.22021692135615
30
0
41
1
10
-30
20
8.46674612315107
30
0
41
1
10
-30
20
8.7093195790371
30
0
41
1
10
-30
20
8.90249052457438
30
0
41
1
10
-30
20
9.04555441784282
30
0
41
1
10
-30
20
9.18740560593943
30
0
41
1
10
-30
20
9.32804088163152
30
0
41
1
10
-30
20
9.46744870809565
30
0
41
1
10
-30
20
9.65245029192155
30
0
41
1
10
-30
20
9.83272433616031
30
0
41
1
10
-30
20
10.0126979221092
30
0
41
1
10
-30
20
10.1909959517429
30
0
41
1
10
-30
20
10.4091174330404
30
0
41
1
10
-30
20
10.6229845090751
30
0
41
1
10
-30
20
10.7927086151923
30
0
41
1
10
-30
20
10.9607029915804
30
0
41
1
10
-30
20
11.1241532476502
30
0
41
1
10
-30
20
11.286879520772
30
0
41
1
10
-30
20
11.4071324437642
30
0
41
1
10
-30
20
11.526059483736
30
0
41
1
10
-30
20
11.6834503898541
30
0
41
1
10
-30
20
11.8363772717575
30
0
41
1
10
-30
20
11.9883479026383
30
0
41
1
10
-30
20
12.100530681097
30
0
41
1
10
-30
20
12.211346817793
30
0
41
1
10
-30
20
12.3578191303265
30
0
41
1
10
-30
20
12.4998873251013
30
0
41
1
10
-30
20
12.640774639564
30
0
41
1
10
-30
20
12.7446351726738
30
0
41
1
10
-30
20
12.8470846962099
30
0
41
1
10
-30
20
12.9822967603461
30
0
41
1
10
-30
20
13.1131460918651
30
0
41
1
10
-30
20
13.2425908150843
30
0
41
1
10
-30
20
13.3378530905647
30
0
41
1
10
-30
20
13.431655102243
30
0
41
1
10
-30
20
13.5552284439381
30
0
41
1
10
-30
20
13.6744629632361
30
0
41
1
10
-30
20
13.7920640428987
30
0
41
1
10
-30
20
13.8638084100541
30
0
41
1
10
-30
20
13.9208384799595
30
0
41
1
10
-30
20
13.9773600368974
30
0
41
1
10
-30
20
14.0747689786766
30
0
41
1
10
-30
20
14.1819460903518
30
0
41
1
10
-30
20
14.2872490063531
30
0
41
1
10
-30
20
14.3643499644422
30
0
41
1
10
-30
20
14.4398725346097
30
0
41
1
10
-30
20
14.5388306330265
30
0
41
1
10
-30
20
14.6334478734244
30
0
41
1
10
-30
20
14.7259318226356
30
0
41
1
10
-30
20
14.793378171537
30
0
41
1
10
-30
20
14.8591738437125
30
0
41
1
10
-30
20
14.9233034607296
30
0
41
1
10
-30
20
14.9857535133679
30
0
41
1
10
-30
20
15.0465122321639
30
0
41
1
10
-30
20
15.1055630695376
30
0
41
1
10
-30
20
15.1823146060513
30
0
41
1
10
-30
20
15.2546726312332
30
0
41
1
10
-30
20
15.3243986497297
30
0
41
1
10
-30
20
15.3917322452796
30
0
41
1
10
-30
20
15.4546352005829
30
0
41
1
10
-30
20
15.5146768877911
30
0
41
1
10
-30
20
15.5722298782127
30
0
41
1
10
-30
20
15.6253102421943
30
0
41
1
10
-30
20
15.6752710489662
30
0
41
1
10
-30
20
15.7106367362118
30
0
41
1
10
-30
20
15.7440468008705
30
0
41
1
10
-30
20
15.7861515665346
30
0
41
1
10
-30
20
15.8237020814765
30
0
41
1
10
-30
20
15.8576872273509
30
0
41
1
10
-30
20
15.8809772969169
30
0
41
1
10
-30
20
15.9021692417172
30
0
41
1
10
-30
20
15.921235563756
30
0
41
1
10
-30
20
15.9381491696965
30
0
41
1
10
-30
20
15.9528811556007
30
0
41
1
10
-30
20
15.9654018081648
30
0
41
1
10
-30
20
15.9756808201301
30
0
41
1
10
-30
20
15.9836860510364
30
0
41
1
10
-30
20
15.989385071505
30
0
41
1
10
-30
20
15.992743547039
30
0
41
1
10
-30
20
15.9936126281486
30
0
41
1
10
-30
20
15.9930576932329
30
0
41
1
10
-30
20
15.9926664703935
30
0
0
SPLINE
5
1A8
100
AcDbEntity
8
1
62
256
6
ByLayer
370
18
48
1
60
0
100
AcDbSpline
70
4
71
3
72
8
73
4
40
0
40
0
40
0
40
0
40
1
40
1
40
1
40
1
41
1
10
17.4303191742212
20
8.62311682175147
30
0
41
1
10
17.4340412547798
20
8.50262986578809
30
0
41
1
10
17.4378338799879
20
8.37975543747183
30
0
41
1
10
17.4413738879427
20
8.25534002414304
30
0
0
SPLINE
5
1A9
100
AcDbEntity
8
1
62
256
6
ByLayer
370
18
48
1
60
0
100
AcDbSpline
70
4
71
3
72
20
73
16
40
0
40
0
40
0
40
0
40
0.156071719784912
40
0.156071719784912
40
0.318979129246645
40
0.318979129246645
40
0.481831855502641
40
0.481831855502641
40
0.644750649209987
40
0.644750649209987
40
0.807602319252711
40
0.807602319252711
40
0.970476046459173
40
0.970476046459173
40
1
40
1
40
1
40
1
41
1
10
40.7645608531157
20
-29.7350494766472
30
0
41
1
10
40.6678741303556
20
-29.6785783691647
30
0
41
1
10
40.5799452934091
20
-29.6046364607222
30
0
41
1
10
40.4316060979824
20
-29.4290161535342
30
0
41
1
10
40.3705540246588
20
-29.3238236271036
30
0
41
1
10
40.2886816586121
20
-29.1004012338519
30
0
41
1
10
40.2667165808307
20
-28.979108047505
30
0
41
1
10
40.2642231027802
20
-28.7372655388046
30
0
41
1
10
40.2835707097662
20
-28.6132770828035
30
0
41
1
10
40.3608286687941
20
-28.3803145707166
30
0
41
1
10
40.4198249945894
20
-28.2681624060975
30
0
41
1
10
40.5689167037361
20
-28.0711443315357
30
0
41
1
10
40.6609981860217
20
-27.9834883914981
30
0
41
1
10
40.7815250638474
20
-27.9013982454183
30
0
41
1
10
40.8004426560663
20
-27.8893381255741
30
0
41
1
10
40.8197268071838
20
-27.8778417515806
30
0
0
SPLINE
5
1AA
100
AcDbEntity
8
1
62
256
6
ByLayer
370
18
48
1
60
0
100
AcDbSpline
70
4
71
3
72
12
73
8
40
0
40
0
40
0
40
0
40
0.392678099452531
40
0.392678099452531
40
0.791279335968732
40
0.791279335968732
40
1
40
1
40
1
40
1
41
1
10
35.631358608556
20
-27.2673851834768
30
0
41
1
10
35.6488469479089
20
-27.2671730395217
30
0
41
1
10
35.6678323616925
20
-27.2685113591707
30
0
41
1
10
35.7065324920863
20
-27.2748620929205
30
0
41
1
10
35.7267311050641
20
-27.2800351983634
30
0
41
1
10
35.7558682819801
20
-27.2900464733553
30
0
41
1
10
35.765768110091
20
-27.2939195887676
30
0
41
1
10
35.7753164073087
20
-27.2980701843939
30
0
0
SPLINE
5
1AB
100
AcDbEntity
8
1
62
256
6
ByLayer
370
18
48
1
60
0
100
AcDbSpline
70
4
71
3
72
14
73
10
40
0
40
0
40
0
40
0
40
0.082958601280308
40
0.082958601280308
40
0.459195015075142
40
0.459195015075142
40
0.835474799669043
40
0.835474799669043
40
1
40
1
40
1
40
1
41
1
10
34.8253212231568
20
-26.4326685974554
30
0
41
1
10
34.826936200562
20
-26.4359439468586
30
0
41
1
10
34.8285356504004
20
-26.439296622084
30
0
41
1
10
34.8372184614878
20
-26.4581405758953
30
0
41
1
10
34.8439999565865
20
-26.4753698626279
30
0
41
1
10
34.8556787733494
20
-26.5112196028562
30
0
41
1
10
34.860702215829
20
-26.530245116613
30
0
41
1
10
34.8663165397718
20
-26.5569296861331
30
0
41
1
10
34.8678374610726
20
-26.5650535924894
30
0
41
1
10
34.8691692579924
20
-26.5730660074136
30
0
0
SPLINE
5
1AC
100
AcDbEntity
8
1
62
256
6
ByLayer
370
18
48
1
60
0
100
AcDbSpline
70
4
71
3
72
14
73
10
40
0
40
0
40
0
40
0
40
0.0829586012802612
40
0.0829586012802612
40
0.45919501507516
40
0.45919501507516
40
0.835474799669134
40
0.835474799669134
40
1
40
1
40
1
40
1
41
1
10
37.0942796193077
20
-25.8525904853255
30
0
41
1
10
37.0923008647583
20
-25.8489607126072
30
0
41
1
10
37.0903614924011
20
-25.8452768553165
30
0
41
1
10
37.0799550795741
20
-25.8247536188668
30
0
41
1
10
37.072303835826
20
-25.8066769473974
30
0
41
1
10
37.0603258513686
20
-25.7705357319959
30
0
41
1
10
37.0558735401692
20
-25.7520666639776
30
0
41
1
10
37.0519385381639
20
-25.7270182358637
30
0
41
1
10
37.0510441170671
20
-25.7195047204645
30
0
41
1
10
37.0504315844719
20
-25.7121930753671
30
0
0
SPLINE
5
1AD
100
AcDbEntity
8
1
62
256
6
ByLayer
370
18
48
1
60
0
100
AcDbSpline
70
4
71
3
72
12
73
8
40
0
40
0
40
0
40
0
40
0.392678099449949
40
0.392678099449949
40
0.79127933596615
40
0.79127933596615
40
1
40
1
40
1
40
1
41
1
10
36.2882422339089
20
-25.0178738993045
30
0
41
1
10
36.2690461614379
20
-25.0164222212116
30
0
41
1
10
36.24887931009
20
-25.0139328423914
30
0
41
1
10
36.209351381468
20
-25.0067755956513
30
0
41
1
10
36.1895322237039
20
-25.0019721884617
30
0
41
1
10
36.1620492236191
20
-24.9935725563277
30
0
41
1
10
36.1529158269652
20
-24.9904461650627
30
0
41
1
10
36.1442844351562
20
-24.9871888983874
30
0
0
SPLINE
5
1AE
100
AcDbEntity
8
1
62
256
6
ByLayer
370
18
48
1
60
0
100
AcDbSpline
70
4
71
3
72
14
73
10
40
0
40
0
40
0
40
0
40
0.164525200330948
40
0.164525200330948
40
0.540804984924884
40
0.540804984924884
40
0.917041398719733
40
0.917041398719733
40
1
40
1
40
1
40
1
41
1
10
36.7658378066298
20
-26.9773461274106
30
0
41
1
10
36.7696507746729
20
-26.9704303332945
30
0
41
1
10
36.7737913451681
20
-26.9635131894926
30
0
41
1
10
36.7883942069764
20
-26.9411379687448
30
0
41
1
10
36.8004613867802
20
-26.9257553681541
30
0
41
1
10
36.826810237785
20
-26.898011329947
30
0
41
1
10
36.8413797453905
20
-26.8853330681901
30
0
41
1
10
36.8593631338301
20
-26.8721730881824
30
0
41
1
10
36.8626510212737
20
-26.8698621623466
30
0
41
1
10
36.8659475705499
20
-26.8676337183701
30
0
0
SPLINE
5
1AF
100
AcDbEntity
8
1
62
256
6
ByLayer
370
18
48
1
60
0
100
AcDbSpline
70
4
71
3
72
14
73
10
40
0
40
0
40
0
40
0
40
0.164525200330984
40
0.164525200330984
40
0.540804984924841
40
0.540804984924841
40
0.9170413987197
40
0.9170413987197
40
1
40
1
40
1
40
1
41
1
10
35.1537630358345
20
-25.3079129553701
30
0
41
1
10
35.1492308034669
20
-25.3141279796594
30
0
41
1
10
35.1444637327676
20
-25.3204347325042
30
0
41
1
10
35.1281815490217
20
-25.3411738118458
30
0
41
1
10
35.1155432379378
20
-25.3559999666981
30
0
41
1
10
35.0894935546276
20
-25.3840354800783
30
0
41
1
10
35.0757937956714
20
-25.397561126572
30
0
41
1
10
35.0595340089715
20
-25.4124003892181
30
0
41
1
10
35.0565860440466
20
-25.4150424971192
30
0
41
1
10
35.0536532719146
20
-25.4176253644108
30
0
0
SPLINE
5
1B0
100
AcDbEntity
8
1
62
256
6
ByLayer
370
18
48
1
60
0
100
AcDbSpline
70
4
71
3
72
16
73
12
40
0
40
0
40
0
40
0
40
0.461208588217066
40
0.461208588217066
40
0.643534962278522
40
0.643534962278522
40
0.828408472975271
40
0.828408472975271
40
0.943003644159981
40
0.943003644159981
40
1
40
1
40
1
40
1
41
1
10
11.8943375672974
20
8.05584836782774
30
0
41
1
10
11.8660503915152
20
7.95080268681445
30
0
41
1
10
11.8273339192908
20
7.84628670970801
30
0
41
1
10
11.7473160248315
20
7.71442469145123
30
0
41
1
10
11.7212784637477
20
7.67825379650728
30
0
41
1
10
11.6606543989164
20
7.61290523367228
30
0
41
1
10
11.6251722226874
20
7.58305923051407
30
0
41
1
10
11.5599225851958
20
7.54855881865589
30
0
41
1
10
11.5324782774944
20
7.5385201810229
30
0
41
1
10
11.4901684747699
20
7.53097042135255
30
0
41
1
10
11.4757173930754
20
7.5296667942647
30
0
41
1
10
11.4613248654053
20
7.5296667942647
30
0
0
SPLINE
5
1B1
100
AcDbEntity
8
1
62
256
6
ByLayer
370
18
48
1
60
0
100
AcDbSpline
70
4
71
3
72
10
73
6
40
0
40
0
40
0
40
0
40
0.402044102652639
40
0.402044102652639
40
1
40
1
40
1
40
1
41
1
10
8.53867513459483
20
15.6264181175896
30
0
41
1
10
8.45565130451817
20
15.5634371823532
30
0
41
1
10
8.38116512940178
20
15.5084417956534
30
0
41
1
10
8.22555738648487
20
15.3873530726881
30
0
41
1
10
8.1547844176815
20
15.3245036331396
30
0
41
1
10
8.10566243270253
20
15.2776332060812
30
0
0
SPLINE
5
1B2
100
AcDbEntity
8
1
62
256
6
ByLayer
370
18
48
1
60
0
100
AcDbSpline
70
4
71
2
72
6
73
3
40
0
40
0
40
0
40
1
40
1
40
1
41
1.02613459695995
10
24.903248828137
20
-15.7120875195043
30
0
41
0.864503226080213
10
25.9967348008405
20
-15.8356114366653
30
0
41
0.876719039568495
10
26.4239369972864
20
-17.2337626048802
30
0
0
SPLINE
5
1B3
100
AcDbEntity
8
1
62
256
6
ByLayer
370
18
48
1
60
0
100
AcDbSpline
70
4
71
3
72
8
73
4
40
0
40
0
40
0
40
0
40
1
40
1
40
1
40
1
41
1
10
20.9609847588647
20
24.6427113305059
30
0
41
1
10
20.9475812745097
20
24.5913467317342
30
0
41
1
10
20.934183755441
20
24.5399825588158
30
0
41
1
10
20.92079238
20
24.4886190390076
30
0
0
SPLINE
5
1B4
100
AcDbEntity
8
1
62
256
6
ByLayer
370
18
48
1
60
0
100
AcDbSpline
70
4
71
3
72
16
73
12
40
0
40
0
40
0
40
0
40
0.111430279628047
40
0.111430279628047
40
0.248747543515467
40
0.248747543515467
40
0.465535329195252
40
0.465535329195252
40
0.883855351867553
40
0.883855351867553
40
1
40
1
40
1
40
1
41
1
10
8.53867513459483
20
7.52966679426501
30
0
41
1
10
8.51081528400579
20
7.52966679426501
30
0
41
1
10
8.48260885722448
20
7.53471706780857
30
0
41
1
10
8.42415079676073
20
7.55489210221029
30
0
41
1
10
8.39395861076943
20
7.57218953888446
30
0
41
1
10
8.32484624564245
20
7.62460019394089
30
0
41
1
10
8.28921459142956
20
7.66489294253907
30
0
41
1
10
8.201006109254
20
7.78941367630352
30
0
41
1
10
8.16026799314912
20
7.88247511004147
30
0
41
1
10
8.12070829847318
20
8.00269269538009
30
0
41
1
10
8.11283840142687
20
8.02920008991578
30
0
41
1
10
8.10566243270245
20
8.05584836782771
30
0
0
SPLINE
5
1B5
100
AcDbEntity
8
1
62
256
6
ByLayer
370
18
48
1
60
0
100
AcDbSpline
70
4
71
3
72
16
73
12
40
0
40
0
40
0
40
0
40
0.11143027962805
40
0.11143027962805
40
0.248747543515472
40
0.248747543515472
40
0.465535329195252
40
0.465535329195252
40
0.88385535186756
40
0.88385535186756
40
1
40
1
40
1
40
1
41
1
10
8.5386751345948
20
-23.8391299750503
30
0
41
1
10
8.51081528400579
20
-23.8391299750503
30
0
41
1
10
8.48260885722448
20
-23.8375361275706
30
0
41
1
10
8.4241507967607
20
-23.831150658589
30
0
41
1
10
8.39395861076943
20
-23.825666877018
30
0
41
1
10
8.32484624564245
20
-23.8089605749788
30
0
41
1
10
8.28921459142956
20
-23.796037970776
30
0
41
1
10
8.201006109254
20
-23.7556824246832
30
0
41
1
10
8.16026799314912
20
-23.7250165399981
30
0
41
1
10
8.1207082984732
20
-23.6845451449633
30
0
41
1
10
8.11283840142687
20
-23.6755726082077
30
0
41
1
10
8.10566243270245
20
-23.6665017920809
30
0
0
SPLINE
5
1B6
100
AcDbEntity
8
1
62
256
6
ByLayer
370
18
48
1
60
0
100
AcDbSpline
70
4
71
2
72
6
73
3
40
0
40
0
40
0
40
1
40
1
40
1
41
1.02613459695995
10
32.3537762633776
20
-15.3838318149616
30
0
41
0.978328019367318
10
32.4569798203069
20
-14.9250435167044
30
0
41
0.94573012649331
10
32.4908437340413
20
-14.4713374040855
30
0
0
SPLINE
5
1B7
100
AcDbEntity
8
1
62
256
6
ByLayer
370
18
48
1
60
0
100
AcDbSpline
70
4
71
3
72
42
73
38
40
0
40
0
40
0
40
0
40
0.0001456803751381
40
0.0001456803751381
40
0.000193781716901
40
0.000193781716901
40
0.0002315129281038
40
0.0002315129281038
40
0.0002608511693533
40
0.0002608511693533
40
0.0002901055135365
40
0.0002901055135365
40
0.0003386249966115
40
0.0003386249966115
40
0.0004943094142831
40
0.0004943094142831
40
0.0012382907646918
40
0.0012382907646918
40
0.0042003726917821
40
0.0042003726917821
40
0.0160477675554605
40
0.0160477675554605
40
0.0634549815001299
40
0.0634549815001299
40
0.254713859428599
40
0.254713859428599
40
0.445727112012406
40
0.445727112012406
40
0.588325932073606
40
0.588325932073606
40
0.775840678014737
40
0.775840678014737
40
0.886032395606195
40
0.886032395606195
40
0.994826730393861
40
0.994826730393861
40
1
40
1
40
1
40
1
41
1
10
26.4239710614997
20
-17.2337014716757
30
0
41
1
10
26.4239745568269
20
-17.2337851108912
30
0
41
1
10
26.4239797520401
20
-17.2338689455656
30
0
41
1
10
26.4240003127053
20
-17.2339699337542
30
0
41
1
10
26.4240067380334
20
-17.2339942871004
30
0
41
1
10
26.4240225632732
20
-17.2340325282947
30
0
41
1
10
26.4240312245241
20
-17.2340477638815
30
0
41
1
10
26.4240503595814
20
-17.2340675661815
30
0
41
1
10
26.4240602280275
20
-17.2340738008696
30
0
41
1
10
26.4240815397764
20
-17.2340797898289
30
0
41
1
10
26.4240931778826
20
-17.2340796781774
30
0
41
1
10
26.4241241734343
20
-17.2340731870875
30
0
41
1
10
26.4241440844927
20
-17.2340630389095
30
0
41
1
10
26.4242246412556
20
-17.2340107587993
30
0
41
1
10
26.4242828520153
20
-17.2339494977713
30
0
41
1
10
26.4246081147305
20
-17.2335934938568
30
0
41
1
10
26.4248566347333
20
-17.23324875132
30
0
41
1
10
26.4261088976206
20
-17.2315815500905
30
0
41
1
10
26.4270963977602
20
-17.2302216495166
30
0
41
1
10
26.4320608527505
20
-17.2234633368271
30
0
41
1
10
26.4360556460003
20
-17.2180651331913
30
0
41
1
10
26.456187228854
20
-17.1911811863862
30
0
41
1
10
26.4727651194935
20
-17.1699749675787
30
0
41
1
10
26.5584101181827
20
-17.0653480920893
30
0
41
1
10
26.6353802363081
20
-16.9865963486499
30
0
41
1
10
26.8080474431173
20
-16.8484870613944
30
0
41
1
10
26.8923330637295
20
-16.7605112172091
30
0
41
1
10
27.0798154580225
20
-16.6915777560572
30
0
41
1
10
27.170238605966
20
-16.6904943738805
30
0
41
1
10
27.3743353968106
20
-16.6850511313888
30
0
41
1
10
27.4942288029128
20
-16.6789772266296
30
0
41
1
10
27.6715772987797
20
-16.7044475386974
30
0
41
1
10
27.7354039460267
20
-16.7235519167661
30
0
41
1
10
27.8471802740628
20
-16.7786911035675
30
0
41
1
10
27.8966877310306
20
-16.814945421304
30
0
41
1
10
27.9402598040475
20
-16.8579740470824
30
0
41
1
10
27.942211858401
20
-16.8599496408633
30
0
41
1
10
27.9441642180692
20
-16.8619118638755
30
0
0
SPLINE
5
1B8
100
AcDbEntity
8
1
62
256
6
ByLayer
370
18
48
1
60
0
100
AcDbSpline
70
4
71
3
72
16
73
12
40
0
40
0
40
0
40
0
40
0.461208588217085
40
0.461208588217085
40
0.643534962278541
40
0.643534962278541
40
0.828408472975291
40
0.828408472975291
40
0.943003644159993
40
0.943003644159993
40
1
40
1
40
1
40
1
41
1
10
11.8943375672974
20
-23.6665017920809
30
0
41
1
10
11.8660503915152
20
-23.7022583261632
30
0
41
1
10
11.8273339192908
20
-23.7370095736338
30
0
41
1
10
11.7473160248315
20
-23.7800170858174
30
0
41
1
10
11.7212784637477
20
-23.7917125768793
30
0
41
1
10
11.6606543989164
20
-23.8127037684951
30
0
41
1
10
11.6251722226874
20
-23.8222104320954
30
0
41
1
10
11.5599225851958
20
-23.8331586856493
30
0
41
1
10
11.5324782774944
20
-23.836332378473
30
0
41
1
10
11.4901684747699
20
-23.8387183279986
30
0
41
1
10
11.4757173930754
20
-23.8391299750505
30
0
41
1
10
11.4613248654053
20
-23.8391299750505
30
0
0
SPLINE
5
1B9
100
AcDbEntity
8
1
62
256
6
ByLayer
370
18
48
1
60
0
100
AcDbSpline
70
4
71
2
72
9
73
6
40
0
40
0
40
0
40
0.419655468653538
40
0.629483202980306
40
0.94422480447046
40
1
40
1
40
1
41
1.02613459695995
10
32.3537762633776
20
-15.3838318149616
30
0
41
1.02613459695995
10
31.4222438606092
20
-15.1128166909984
30
0
41
1.02613459695995
10
29.9709914102051
20
-15.4281136369939
30
0
41
1.02613459695995
10
28.7842648668125
20
-16.0168310006975
30
0
41
1.02613459695995
10
28.052725292464
20
-16.7366744852629
30
0
41
1.02613459695995
10
27.9441642180692
20
-16.8619118638755
30
0
0
SPLINE
5
1BA
100
AcDbEntity
8
1
62
256
6
ByLayer
370
18
48
1
60
0
100
AcDbSpline
70
4
71
3
72
8
73
4
40
0
40
0
40
0
40
0
40
1
40
1
40
1
40
1
41
1
10
20.92079238
20
-24.4886190390076
30
0
41
1
10
21.0457305138506
20
-24.9678276416715
30
0
41
1
10
21.1712090684418
20
-25.4471242044884
30
0
41
1
10
21.2970965362856
20
-25.9263225305986
30
0
0
SPLINE
5
1BB
100
AcDbEntity
8
1
62
256
6
ByLayer
370
18
48
1
60
0
100
AcDbSpline
70
4
71
3
72
16
73
12
40
0
40
0
40
0
40
0
40
0.238664520516886
40
0.238664520516886
40
0.477243676809563
40
0.477243676809563
40
0.717175962218134
40
0.717175962218134
40
0.962955965218023
40
0.962955965218023
40
1
40
1
40
1
40
1
41
1
10
20.92079238
20
-24.4886190390076
30
0
41
1
10
20.4840916723798
20
-24.4774472754172
30
0
41
1
10
20.0509926695775
20
-24.4509610891805
30
0
41
1
10
19.26391515033
20
-24.3656718780195
30
0
41
1
10
18.8991880574146
20
-24.3054862317241
30
0
41
1
10
18.2835116525487
20
-24.1494135952404
30
0
41
1
10
18.0249815792796
20
-24.0510028626091
30
0
41
1
10
17.6392199403027
20
-23.8174123097642
30
0
41
1
10
17.5100639463551
20
-23.6782359586606
30
0
41
1
10
17.4432353915025
20
-23.5027996833027
30
0
41
1
10
17.4359824174511
20
-23.4792306731536
30
0
41
1
10
17.4303191742212
20
-23.4553549429959
30
0
0
SPLINE
5
1BC
100
AcDbEntity
8
1
62
256
6
ByLayer
370
18
48
1
60
0
100
AcDbSpline
70
4
71
3
72
12
73
8
40
0
40
0
40
0
40
0
40
0.385054572748415
40
0.385054572748415
40
0.69247321978857
40
0.69247321978857
40
1
40
1
40
1
40
1
41
1
10
25.6944400809405
20
-13.3900396214014
30
0
41
1
10
25.7291410187114
20
-13.3540375452202
30
0
41
1
10
25.7642356833375
20
-13.3184104840345
30
0
41
1
10
25.8280659183553
20
-13.2550683141828
30
0
41
1
10
25.8566596821439
20
-13.2272036110046
30
0
41
1
10
25.9143736865377
20
-13.1720092736038
30
0
41
1
10
25.943496667496
20
-13.1446773894786
30
0
41
1
10
25.9728817263458
20
-13.1176328703128
30
0
0
SPLINE
5
1BD
100
AcDbEntity
8
1
62
256
6
ByLayer
370
18
48
1
60
0
100
AcDbSpline
70
4
71
2
72
6
73
3
40
0
40
0
40
0
40
1
40
1
40
1
41
0.876719220473387
10
23.9543640283284
20
-28.2122228676695
30
0
41
0.866242380717758
10
23.0818756236487
20
-29.2689540648205
30
0
41
0.983612958050895
10
22.1144246723663
20
-29.3298737590287
30
0
0
SPLINE
5
1BE
100
AcDbEntity
8
1
62
256
6
ByLayer
370
18
48
1
60
0
100
AcDbSpline
70
4
71
2
72
6
73
3
40
0
40
0
40
0
40
1
40
1
40
1
41
0.963038531579607
10
24.2884705008204
20
-15.7029827968499
30
0
41
0.990318346243227
10
24.51003126088
20
-15.6676683175972
30
0
41
1.02613459695995
10
24.7215551753257
20
-15.6915627827644
30
0
0
SPLINE
5
1BF
100
AcDbEntity
8
1
62
256
6
ByLayer
370
18
48
1
60
0
100
AcDbSpline
70
4
71
3
72
8
73
4
40
0
40
0
40
0
40
0
40
1
40
1
40
1
40
1
41
1
10
21.4150979665882
20
24.6479715189708
30
0
41
1
10
21.2634715016933
20
24.6479715189708
30
0
41
1
10
21.1115905576073
20
24.6462211497246
30
0
41
1
10
20.9609847588647
20
24.6427113305059
30
0
0
SPLINE
5
1C0
100
AcDbEntity
8
1
62
256
6
ByLayer
370
18
48
1
60
0
100
AcDbSpline
70
4
71
2
72
9
73
6
40
0
40
0
40
0
40
0.180556461280368
40
0.508333876768221
40
0.672222584512147
40
1
40
1
40
1
41
1
10
26.2473870320594
20
-12.8800721039472
30
0
41
1
10
26.0246441926076
20
-13.1637254117689
30
0
41
1
10
25.4164030258371
20
-14.1663660553916
30
0
41
1
10
25.2135187534091
20
-14.6805423368129
30
0
41
1
10
25.0000749637287
20
-15.2818404567253
30
0
41
1
10
24.903248828137
20
-15.7120875195043
30
0
0
SPLINE
5
1C1
100
AcDbEntity
8
1
62
256
6
ByLayer
370
18
48
1
60
0
100
AcDbSpline
70
4
71
3
72
10
73
6
40
0
40
0
40
0
40
0
40
0.557501663665875
40
0.557501663665875
40
1
40
1
40
1
40
1
41
1
10
11.8943375672974
20
15.2776332060815
30
0
41
1
10
11.8484634024225
20
15.3214046802911
30
0
41
1
10
11.7837991840743
20
15.3793044422495
30
0
41
1
10
11.633322851829
20
15.4976441747706
30
0
41
1
10
11.5524968190072
20
15.5572561083222
30
0
41
1
10
11.4613248654052
20
15.6264181175895
30
0
0
SPLINE
5
1C2
100
AcDbEntity
8
1
62
256
6
ByLayer
370
18
48
1
60
0
100
AcDbSpline
70
4
71
2
72
9
73
6
40
0
40
0
40
0
40
0.0332137447558848
40
0.419928246853531
40
0.613285497902354
40
1
40
1
40
1
41
1.02613459695995
10
25.6944400964881
20
-13.390039596705
30
0
41
1.02613459695995
10
25.6605924801645
20
-13.4438044688331
30
0
41
1.02613459695995
10
25.2347093730258
20
-14.1458413186516
30
0
41
1.02613459695995
10
25.0318251005978
20
-14.660017600073
30
0
41
1.02613459695995
10
24.8183813109174
20
-15.2613157199854
30
0
41
1.02613459695995
10
24.7215551753257
20
-15.6915627827644
30
0
0
SPLINE
5
1C3
100
AcDbEntity
8
1
62
256
6
ByLayer
370
18
48
1
60
0
100
AcDbSpline
70
4
71
3
72
8
73
4
40
0
40
0
40
0
40
0
40
1
40
1
40
1
40
1
41
1
10
24.2884131999234
20
-15.7029919309872
30
0
41
1
10
24.5456607136725
20
-14.8238758298092
30
0
41
1
10
25.0548285499766
20
-14.0536338651268
30
0
41
1
10
25.6944400964881
20
-13.390039596705
30
0
0
SPLINE
5
1C4
100
AcDbEntity
8
1
62
256
6
ByLayer
370
18
48
1
60
0
100
AcDbSpline
70
4
71
3
72
8
73
4
40
0
40
0
40
0
40
0
40
1
40
1
40
1
40
1
41
1
10
22.1144460407172
20
-29.3303463710567
30
0
41
1
10
21.8328936590704
20
-28.2037245265371
30
0
41
1
10
21.5595267539425
20
-27.0696819055106
30
0
41
1
10
21.2970965362856
20
-25.9263225305986
30
0
0
SPLINE
5
1C5
100
AcDbEntity
8
1
62
256
6
ByLayer
370
18
48
1
60
0
100
AcDbSpline
70
4
71
1
72
4
73
2
40
0
40
0
40
1
40
1
41
1
10
24.8124020017313
20
-15.7018251511343
30
0
41
1
10
24.7215551753257
20
-15.6915627827644
30
0
0
SPLINE
5
1C6
100
AcDbEntity
8
1
62
256
6
ByLayer
370
18
48
1
60
0
100
AcDbSpline
70
4
71
3
72
10
73
6
40
0
40
0
40
0
40
0
40
0.420519290906198
40
0.420519290906198
40
1
40
1
40
1
40
1
41
1
10
11.4613248654052
20
13.6906253919194
30
0
41
1
10
11.5453800896752
20
13.7543887310852
30
0
41
1
10
11.6221668639081
20
13.8387345203577
30
0
41
1
10
11.7759013620284
20
14.060958439368
30
0
41
1
10
11.8455749346608
20
14.2106220260311
30
0
41
1
10
11.8943375672975
20
14.3682408325643
30
0
0
SPLINE
5
1C7
100
AcDbEntity
8
1
62
256
6
ByLayer
370
18
48
1
60
0
100
AcDbSpline
70
4
71
3
72
8
73
4
40
0
40
0
40
0
40
0
40
1
40
1
40
1
40
1
41
1
10
22.6074666975557
20
-31.2311051812804
30
0
41
1
10
22.4249851196317
20
-30.5460909436235
30
0
41
1
10
22.2571122036982
20
-29.9012142413222
30
0
41
1
10
22.1143294296262
20
-29.3298797536063
30
0
0
SPLINE
5
1C8
100
AcDbEntity
8
1
62
256
6
ByLayer
370
18
48
1
60
0
100
AcDbSpline
70
4
71
3
72
16
73
12
40
0
40
0
40
0
40
0
40
0.111430279628047
40
0.111430279628047
40
0.248747543515475
40
0.248747543515475
40
0.465535329195272
40
0.465535329195272
40
0.883855351867603
40
0.883855351867603
40
1
40
1
40
1
40
1
41
1
10
11.4613248654052
20
-7.52966679426504
30
0
41
1
10
11.4891847159942
20
-7.52966679426504
30
0
41
1
10
11.5173911427755
20
-7.53471706780854
30
0
41
1
10
11.5758492032393
20
-7.55489210221029
30
0
41
1
10
11.6060413892306
20
-7.57218953888446
30
0
41
1
10
11.6751537543576
20
-7.62460019394089
30
0
41
1
10
11.7107854085705
20
-7.66489294253907
30
0
41
1
10
11.798993890746
20
-7.78941367630352
30
0
41
1
10
11.8397320068509
20
-7.8824751100415
30
0
41
1
10
11.8792917015268
20
-8.00269269538009
30
0
41
1
10
11.8871615985731
20
-8.02920008991578
30
0
41
1
10
11.8943375672975
20
-8.05584836782771
30
0
0
SPLINE
5
1C9
100
AcDbEntity
8
1
62
256
6
ByLayer
370
18
48
1
60
0
100
AcDbSpline
70
4
71
3
72
44
73
40
40
0
40
0
40
0
40
0
40
0.0051940145730222
40
0.0051940145730222
40
0.0199009640982233
40
0.0199009640982233
40
0.129752274717028
40
0.129752274717028
40
0.239839656979224
40
0.239839656979224
40
0.428838321513093
40
0.428838321513093
40
0.549631045694991
40
0.549631045694991
40
0.669783054496047
40
0.669783054496047
40
0.866798398410008
40
0.866798398410008
40
0.966549481292717
40
0.966549481292717
40
0.991441198883823
40
0.991441198883823
40
0.997663556199418
40
0.997663556199418
40
0.999220061839047
40
0.999220061839047
40
0.999613367446253
40
0.999613367446253
40
0.999703345392447
40
0.999703345392447
40
0.999741176073575
40
0.999741176073575
40
0.999773455084771
40
0.999773455084771
40
0.999805393863989
40
0.999805393863989
40
0.999853555589877
40
0.999853555589877
40
1
40
1
40
1
40
1
41
1
10
25.1758272900033
20
-29.1684701455901
30
0
41
1
10
25.1732876570254
20
-29.1691186283489
30
0
41
1
10
25.1707420569476
20
-29.1697816241529
30
0
41
1
10
25.1608285710071
20
-29.1722290894256
30
0
41
1
10
25.1533910157107
20
-29.1739099257355
30
0
41
1
10
25.090403645765
20
-29.1868027550614
30
0
41
1
10
25.029708372579
20
-29.1902163727272
30
0
41
1
10
24.9054270857074
20
-29.1771590005477
30
0
41
1
10
24.840402661502
20
-29.1603485474688
30
0
41
1
10
24.6707074224663
20
-29.0937630095841
30
0
41
1
10
24.5637406913509
20
-29.0366099795667
30
0
41
1
10
24.392914276587
20
-28.9520660610201
30
0
41
1
10
24.3250326536024
20
-28.919646870647
30
0
41
1
10
24.2197925362725
20
-28.8261766306334
30
0
41
1
10
24.1926985059659
20
-28.7574498910722
30
0
41
1
10
24.10374930019
20
-28.6024020576417
30
0
41
1
10
24.0508404344404
20
-28.5101579110826
30
0
41
1
10
23.9958962780431
20
-28.362959459512
30
0
41
1
10
23.9802399676211
20
-28.312759221965
30
0
41
1
10
23.9638116208401
20
-28.2497130228856
30
0
41
1
10
23.9606857308584
20
-28.237092099649
30
0
41
1
10
23.956960667934
20
-28.2213017198979
30
0
41
1
10
23.9562293487101
20
-28.2181390521157
30
0
41
1
10
23.9553064092032
20
-28.2142015793098
30
0
41
1
10
23.9551289990545
20
-28.2134071799152
30
0
41
1
10
23.9548665808309
20
-28.2124496410851
30
0
41
1
10
23.9548160200684
20
-28.212250966955
30
0
41
1
10
23.9547162326946
20
-28.2120522827797
30
0
41
1
10
23.9546952717838
20
-28.2120167488782
30
0
41
1
10
23.9546568226079
20
-28.2119835160689
30
0
41
1
10
23.9546439704511
20
-28.2119759443508
30
0
41
1
10
23.9546180601272
20
-28.2119705789917
30
0
41
1
10
23.9546049947302
20
-28.2119716485838
30
0
41
1
10
23.9545791934
20
-28.2119811594392
30
0
41
1
10
23.9545661674186
20
-28.2119895165224
30
0
41
1
10
23.9545352274391
20
-28.2120155186137
30
0
41
1
10
23.9545176196681
20
-28.2120358215685
30
0
41
1
10
23.9544513505214
20
-28.212123060352
30
0
41
1
10
23.9544088342966
20
-28.212201675952
30
0
41
1
10
23.9543682778594
20
-28.2122800258099
30
0
0
SPLINE
5
1CA
100
AcDbEntity
8
1
62
256
6
ByLayer
370
18
48
1
60
0
100
AcDbSpline
70
4
71
3
72
16
73
12
40
0
40
0
40
0
40
0
40
0.461208588217094
40
0.461208588217094
40
0.643534962278546
40
0.643534962278546
40
0.828408472975285
40
0.828408472975285
40
0.943003644159988
40
0.943003644159988
40
1
40
1
40
1
40
1
41
1
10
8.10566243270262
20
23.6665017920809
30
0
41
1
10
8.13394960848487
20
23.7022583261632
30
0
41
1
10
8.17266608070923
20
23.7370095736338
30
0
41
1
10
8.25268397516848
20
23.7800170858174
30
0
41
1
10
8.27872153625233
20
23.7917125768793
30
0
41
1
10
8.33934560108361
20
23.8127037684951
30
0
41
1
10
8.37482777731262
20
23.8222104320954
30
0
41
1
10
8.44007741480422
20
23.8331586856493
30
0
41
1
10
8.46752172250564
20
23.836332378473
30
0
41
1
10
8.50983152523006
20
23.8387183279986
30
0
41
1
10
8.5242826069246
20
23.8391299750505
30
0
41
1
10
8.53867513459474
20
23.8391299750505
30
0
0
SPLINE
5
1CB
100
AcDbEntity
8
1
62
256
6
ByLayer
370
18
48
1
60
0
100
AcDbSpline
70
4
71
3
72
10
73
6
40
0
40
0
40
0
40
0
40
0.5
40
0.5
40
1
40
1
40
1
40
1
41
1
10
26.2473870320594
20
-12.8800721039472
30
0
41
1
10
27.2510656736353
20
-12.0655579831435
30
0
41
1
10
28.5963309487779
20
-11.6685028653769
30
0
41
1
10
31.0904083350306
20
-12.2211333216066
30
0
41
1
10
32.176749612112
20
-13.2136925992491
30
0
41
1
10
32.4908437340408
20
-14.4713374040926
30
0
0
SPLINE
5
1CC
100
AcDbEntity
8
1
62
256
6
ByLayer
370
18
48
1
60
0
100
AcDbSpline
70
4
71
3
72
10
73
6
40
0
40
0
40
0
40
0
40
0.5
40
0.5
40
1
40
1
40
1
40
1
41
1
10
22.6074666975582
20
-31.2311051812898
30
0
41
1
10
23.0983621203241
20
-31.2568319202711
30
0
41
1
10
23.6505009567887
20
-31.2857682905618
30
0
41
1
10
25.0463785401002
20
-31.3589231348938
30
0
41
1
10
25.7284887642922
20
-31.3946710169893
30
0
41
1
10
26.2918750718851
20
-31.4241968422647
30
0
0
SPLINE
5
1CD
100
AcDbEntity
8
1
62
256
6
ByLayer
370
18
48
1
60
0
100
AcDbSpline
70
4
71
3
72
16
73
12
40
0
40
0
40
0
40
0
40
0.461208588217088
40
0.461208588217088
40
0.643534962278544
40
0.643534962278544
40
0.82840847297529
40
0.82840847297529
40
0.943003644159989
40
0.943003644159989
40
1
40
1
40
1
40
1
41
1
10
8.10566243270262
20
-8.05584836782774
30
0
41
1
10
8.13394960848487
20
-7.95080268681445
30
0
41
1
10
8.17266608070923
20
-7.84628670970801
30
0
41
1
10
8.25268397516848
20
-7.71442469145123
30
0
41
1
10
8.27872153625231
20
-7.67825379650728
30
0
41
1
10
8.33934560108361
20
-7.61290523367228
30
0
41
1
10
8.37482777731262
20
-7.5830592305141
30
0
41
1
10
8.44007741480422
20
-7.54855881865589
30
0
41
1
10
8.46752172250564
20
-7.5385201810229
30
0
41
1
10
8.50983152523006
20
-7.53097042135255
30
0
41
1
10
8.5242826069246
20
-7.52966679426473
30
0
41
1
10
8.53867513459474
20
-7.52966679426473
30
0
0
SPLINE
5
1CE
100
AcDbEntity
8
1
62
256
6
ByLayer
370
18
48
1
60
0
100
AcDbSpline
70
4
71
3
72
14
73
10
40
0
40
0
40
0
40
0
40
0.25714677776588
40
0.25714677776588
40
0.515043459777445
40
0.515043459777445
40
0.762218147059629
40
0.762218147059629
40
1
40
1
40
1
40
1
41
1
10
17.4303191742212
20
23.4553549429959
30
0
41
1
10
17.4691434490962
20
23.6190346355062
30
0
41
1
10
17.5852680371713
20
23.7696203769467
30
0
41
1
10
17.9643662295079
20
24.0254564367266
30
0
41
1
10
18.233500730627
20
24.1343161849438
30
0
41
1
10
18.8755030997166
20
24.301589819967
30
0
41
1
10
19.2526493539829
20
24.3645598084091
30
0
41
1
10
20.053239606227
20
24.4510990768829
30
0
41
1
10
20.4852178413433
20
24.4774760852936
30
0
41
1
10
20.92079238
20
24.4886190390076
30
0
0
SPLINE
5
1CF
100
AcDbEntity
8
1
62
256
6
ByLayer
370
18
48
1
60
0
100
AcDbSpline
70
4
71
3
72
16
73
12
40
0
40
0
40
0
40
0
40
0.111430279628052
40
0.111430279628052
40
0.248747543515474
40
0.248747543515474
40
0.465535329195271
40
0.465535329195271
40
0.883855351867598
40
0.883855351867598
40
1
40
1
40
1
40
1
41
1
10
11.4613248654052
20
23.8391299750503
30
0
41
1
10
11.4891847159942
20
23.8391299750503
30
0
41
1
10
11.5173911427755
20
23.8375361275706
30
0
41
1
10
11.5758492032393
20
23.831150658589
30
0
41
1
10
11.6060413892306
20
23.825666877018
30
0
41
1
10
11.6751537543576
20
23.8089605749788
30
0
41
1
10
11.7107854085705
20
23.796037970776
30
0
41
1
10
11.798993890746
20
23.7556824246832
30
0
41
1
10
11.8397320068509
20
23.7250165399981
30
0
41
1
10
11.8792917015268
20
23.6845451449633
30
0
41
1
10
11.8871615985731
20
23.6755726082078
30
0
41
1
10
11.8943375672975
20
23.6665017920809
30
0
0
SPLINE
5
1D0
100
AcDbEntity
8
1
62
256
6
ByLayer
370
18
48
1
60
0
100
AcDbSpline
70
4
71
1
72
4
73
2
40
0
40
0
40
1
40
1
41
1
10
24.903248828137
20
-15.7120875195043
30
0
41
1
10
24.8124020017313
20
-15.7018251511343
30
0
0
SPLINE
5
1D1
100
AcDbEntity
8
1
62
256
6
ByLayer
370
18
48
1
60
0
100
AcDbSpline
70
4
71
3
72
12
73
8
40
0
40
0
40
0
40
0
40
0.41317460702105
40
0.41317460702105
40
0.706536558487496
40
0.706536558487496
40
1
40
1
40
1
40
1
41
1
10
25.9728817257447
20
-13.1176328696842
30
0
41
1
10
26.0096746880928
20
-13.0837704915167
30
0
41
1
10
26.0468835541886
20
-13.0503540304894
30
0
41
1
10
26.111224809854
20
-12.9940338545938
30
0
41
1
10
26.1381532038694
20
-12.9708891129759
30
0
41
1
10
26.1924438021967
20
-12.9250995237124
30
0
41
1
10
26.219808517374
20
-12.9024528627943
30
0
41
1
10
26.2473870325204
20
-12.880072103573
30
0
0
SPLINE
5
1D2
100
AcDbEntity
8
1
62
256
6
ByLayer
370
18
48
1
60
0
100
AcDbSpline
70
4
71
2
72
8
73
5
40
0
40
0
40
0
40
0.183555182314985
40
0.877097692434598
40
1
40
1
40
1
41
1.02613459695995
10
26.2918750718851
20
-31.4241968422647
30
0
41
1.02613459695995
10
26.1562276003352
20
-31.2560555773161
30
0
41
1.02613459695995
10
25.555482816503
20
-30.3702841798412
30
0
41
1.02613459695995
10
25.2181200324349
20
-29.3378266371347
30
0
41
1.02613459695995
10
25.1758272900033
20
-29.1684701455902
30
0
0
SPLINE
5
1D3
100
AcDbEntity
8
1
62
256
6
ByLayer
370
18
48
1
60
0
100
AcDbSpline
70
4
71
2
72
9
73
6
40
0
40
0
40
0
40
0.114206451845832
40
0.468523871107499
40
0.645682580738333
40
1
40
1
40
1
41
1
10
25.9728817256054
20
-13.1176328698828
30
0
41
1
10
25.8441711145824
20
-13.3012053001202
30
0
41
1
10
25.3255561994315
20
-14.1561036870216
30
0
41
1
10
25.1226719270034
20
-14.670279968443
30
0
41
1
10
24.9092281373231
20
-15.2715780883553
30
0
41
1
10
24.8124020017313
20
-15.7018251511343
30
0
0
SPLINE
5
1D4
100
AcDbEntity
8
1
62
256
6
ByLayer
370
18
48
1
60
0
100
AcDbSpline
70
4
71
3
72
10
73
6
40
0
40
0
40
0
40
0
40
0.578104426482813
40
0.578104426482813
40
1
40
1
40
1
40
1
41
1
10
8.10566243270256
20
14.3682408325648
30
0
41
1
10
8.15431207153046
20
14.2109872636803
30
0
41
1
10
8.22377139565089
20
14.0616626119233
30
0
41
1
10
8.37734423169181
20
13.839273457025
30
0
41
1
10
8.45435152708336
20
13.7545923235662
30
0
41
1
10
8.53867513459483
20
13.6906253919194
30
0
0
SPLINE
5
1D5
100
AcDbEntity
8
SK1
62
256
6
ByLayer
370
18
48
1
60
0
100
AcDbSpline
70
4
71
3
72
10
73
6
40
0
40
0
40
0
40
0
40
0.5
40
0.5
40
1
40
1
40
1
40
1
41
1
10
-1.30710678118655
20
-3.91806548153784
30
0
41
1
10
-1.53227959010832
20
-2.67440369212437
30
0
41
1
10
-1.71681589069689
20
-1.34075776539186
30
0
41
1
10
-1.71598271729604
20
1.35050010337164
30
0
41
1
10
-1.53230696904976
20
2.67425240209695
30
0
41
1
10
-1.30710678118655
20
3.91806548057698
30
0
0
SPLINE
5
1D6
100
AcDbEntity
8
SK1
62
256
6
ByLayer
370
18
48
1
60
0
100
AcDbSpline
70
4
71
3
72
24
73
20
40
0
40
0
40
0
40
0
40
0.469770575826712
40
0.469770575826712
40
0.663612078687295
40
0.663612078687295
40
0.860454184613411
40
0.860454184613411
40
0.903064590395674
40
0.903064590395674
40
0.923089343972159
40
0.923089343972159
40
0.943389594779288
40
0.943389594779288
40
0.961332284531898
40
0.961332284531898
40
0.988068136377815
40
0.988068136377815
40
1
40
1
40
1
40
1
41
1
10
-0.199999999999989
20
6.10344849123027
30
0
41
1
10
-0.199999999999989
20
5.97798788494984
30
0
41
1
10
-0.204016575726513
20
5.8509635670122
30
0
41
1
10
-0.223752631922082
20
5.67079358995508
30
0
41
1
10
-0.231244965282229
20
5.61789623093799
30
0
41
1
10
-0.253819137983157
20
5.51250015101135
30
0
41
1
10
-0.267096215270385
20
5.45724004647028
30
0
41
1
10
-0.303692478692511
20
5.40035311573845
30
0
41
1
10
-0.311479622041333
20
5.39039941672755
30
0
41
1
10
-0.32547775761438
20
5.37891036834915
30
0
41
1
10
-0.330455622185014
20
5.3756771312581
30
0
41
1
10
-0.341078704143143
20
5.37102422840917
30
0
41
1
10
-0.346883276538165
20
5.36960762575521
30
0
41
1
10
-0.357630415747764
20
5.36914354197148
30
0
41
1
10
-0.362713068049572
20
5.36981917830482
30
0
41
1
10
-0.37458340180882
20
5.37316903610403
30
0
41
1
10
-0.3812109954861
20
5.37664910167555
30
0
41
1
10
-0.38989246528871
20
5.38265091141974
30
0
41
1
10
-0.392483363308571
20
5.38466360919151
30
0
41
1
10
-0.394976888875334
20
5.38678189578178
30
0
0
SPLINE
5
1D7
100
AcDbEntity
8
SK1
62
256
6
ByLayer
370
18
48
1
60
0
100
AcDbSpline
70
4
71
3
72
22
73
18
40
0
40
0
40
0
40
0
40
0.359503326352592
40
0.359503326352592
40
0.722215553677066
40
0.722215553677066
40
0.826527133697721
40
0.826527133697721
40
0.863141914878009
40
0.863141914878009
40
0.900378805007221
40
0.900378805007221
40
0.933500873078508
40
0.933500873078508
40
0.972947835056124
40
0.972947835056124
40
1
40
1
40
1
40
1
41
1
10
-1.30710678118655
20
-3.91806548153781
30
0
41
1
10
-1.26486058419175
20
-4.15139729989579
30
0
41
1
10
-1.21446435132796
20
-4.3814323255595
30
0
41
1
10
-1.08204001032738
20
-4.82987250608483
30
0
41
1
10
-1.00537527699572
20
-5.05527264511531
30
0
41
1
10
-0.832356114396674
20
-5.30654108347395
30
0
41
1
10
-0.78723829488635
20
-5.36152992388779
30
0
41
1
10
-0.709490490588593
20
-5.41877880440927
30
0
41
1
10
-0.687203973712826
20
-5.43218986569767
30
0
41
1
10
-0.639076749164047
20
-5.45244590583036
30
0
41
1
10
-0.612446414061708
20
-5.45928056674788
30
0
41
1
10
-0.562058433231044
20
-5.46233960302246
30
0
41
1
10
-0.537713914852588
20
-5.45964677314575
30
0
41
1
10
-0.488053852696936
20
-5.44628701250068
30
0
41
1
10
-0.462609559288751
20
-5.43420976008088
30
0
41
1
10
-0.423860760477311
20
-5.40985221311715
30
0
41
1
10
-0.408979654247759
20
-5.39867780521598
30
0
41
1
10
-0.394976888875391
20
-5.38678223323953
30
0
0
SPLINE
5
1D8
100
AcDbEntity
8
SK1
62
256
6
ByLayer
370
18
48
1
60
0
100
AcDbSpline
70
4
71
3
72
22
73
18
40
0
40
0
40
0
40
0
40
0.0394331151890913
40
0.0394331151890913
40
0.0795339708694829
40
0.0795339708694829
40
0.109637917244288
40
0.109637917244288
40
0.13957706301322
40
0.13957706301322
40
0.189266399657458
40
0.189266399657458
40
0.289571152403382
40
0.289571152403382
40
0.658284396834382
40
0.658284396834382
40
1
40
1
40
1
40
1
41
1
10
-0.394976888875306
20
5.38678189578292
30
0
41
1
10
-0.415237014773396
20
5.40399317028476
30
0
41
1
10
-0.437419275645453
20
5.41977813092004
30
0
41
1
10
-0.486103141154984
20
5.44521655864725
30
0
41
1
10
-0.51341298093098
20
5.45496005292577
30
0
41
1
10
-0.562874322366525
20
5.46212264681108
30
0
41
1
10
-0.585106616517606
20
5.46199323188387
30
0
41
1
10
-0.627692822126733
20
5.45533455005088
30
0
41
1
10
-0.648523068172722
20
5.44883772858989
30
0
41
1
10
-0.699826196362153
20
5.42613682765011
30
0
41
1
10
-0.728695564403438
20
5.40623396070797
30
0
41
1
10
-0.806075449923839
20
5.34007786619352
30
0
41
1
10
-0.847522380016557
20
5.28655870152033
30
0
41
1
10
-1.01570466784384
20
5.03084699030373
30
0
41
1
10
-1.09210771407481
20
4.80149729085085
30
0
41
1
10
-1.21929875138233
20
4.35887826398974
30
0
41
1
10
-1.26692602208391
20
4.13998960128646
30
0
41
1
10
-1.30710678118655
20
3.91806548057696
30
0
0
SPLINE
5
1D9
100
AcDbEntity
8
SK1
62
256
6
ByLayer
370
18
48
1
60
0
100
AcDbSpline
70
4
71
3
72
22
73
18
40
0
40
0
40
0
40
0
40
0.0260455644157247
40
0.0260455644157247
40
0.0526262165848557
40
0.0526262165848557
40
0.0706056579866929
40
0.0706056579866929
40
0.0884949509195805
40
0.0884949509195805
40
0.11748921873202
40
0.11748921873202
40
0.17459086731972
40
0.17459086731972
40
0.37652425293745
40
0.37652425293745
40
1
40
1
40
1
40
1
41
1
10
-0.394976888872947
20
-5.38678223324206
30
0
41
1
10
-0.389612432086437
20
-5.38222504185003
30
0
41
1
10
-0.383763200778958
20
-5.37811700449893
30
0
41
1
10
-0.3709728888754
20
-5.37184824531644
30
0
41
1
10
-0.363785592650885
20
-5.36968256852501
30
0
41
1
10
-0.351475656346565
20
-5.3691458249703
30
0
41
1
10
-0.346317238365032
20
-5.36979468027801
30
0
41
1
10
-0.336550133197363
20
-5.3727304206256
30
0
41
1
10
-0.331829865964124
20
-5.3750241182685
30
0
41
1
10
-0.32051111143835
20
-5.38234306083376
30
0
41
1
10
-0.314321448136184
20
-5.3882440687963
30
0
41
1
10
-0.298260159254511
20
-5.40702817233921
30
0
41
1
10
-0.290032841564653
20
-5.42147709180324
30
0
41
1
10
-0.258449669573651
20
-5.48745345024415
30
0
41
1
10
-0.24608390551893
20
-5.5434138926733
30
0
41
1
10
-0.204764795451922
20
-5.7670899064446
30
0
41
1
10
-0.200000000000358
20
-5.93709576978202
30
0
41
1
10
-0.200000000000358
20
-6.10344667966001
30
0
0
SPLINE
5
1DA
100
AcDbEntity
8
1
62
256
6
ByLayer
370
18
48
1
60
0
100
AcDbSpline
70
4
71
3
72
11
73
7
40
0
40
0
40
0
40
0
40
0.267973217480477
40
0.487581252236334
40
0.707189286992191
40
1
40
1
40
1
40
1
41
1.02490899992583
10
41.0649695708048
20
-25.4792583818659
30
0
41
1.02299818101095
10
42.3610699721372
20
-25.777446275105
30
0
41
1.01918124210004
10
44.61448861781
20
-26.317041284467
30
0
41
1.0133636309892
10
48.2686171034345
20
-27.3820508271602
30
0
41
1.01210337903089
10
50.2230546060218
20
-27.8169783898901
30
0
41
1.00942740489664
10
51.8750562993979
20
-28.3098638708159
30
0
41
1.00890738029382
10
52.5937753577355
20
-28.558151107377
30
0
0
SPLINE
5
1DB
100
AcDbEntity
8
1
62
256
6
ByLayer
370
18
48
1
60
0
100
AcDbSpline
70
4
71
3
72
8
73
4
40
0
40
0
40
0
40
0
40
1
40
1
40
1
40
1
41
1
10
28.8867434212808
20
-19.9938616680047
30
0
41
1
10
28.9717207528957
20
-19.8621962672771
30
0
41
1
10
29.0702436983967
20
-19.7322571424645
30
0
41
1
10
29.1806943950877
20
-19.6069317145577
30
0
0
SPLINE
5
1DC
100
AcDbEntity
8
1
62
256
6
ByLayer
370
18
48
1
60
0
100
AcDbSpline
70
4
71
3
72
12
73
8
40
0
40
0
40
0
40
0
40
0.5
40
0.5
40
0.75
40
0.75
40
1
40
1
40
1
40
1
41
1
10
31.4082155837749
20
-17.5921926793444
30
0
41
1
10
31.0133588898056
20
-17.7032075627746
30
0
41
1
10
30.6642023654995
20
-17.9169373110645
30
0
41
1
10
30.0627251144724
20
-18.4647978867275
30
0
41
1
10
29.8589370193873
20
-18.6866536037103
30
0
41
1
10
29.4794982330458
20
-19.1803991473402
30
0
41
1
10
29.3094504833319
20
-19.4608356523502
30
0
41
1
10
29.1806943950881
20
-19.6069317145596
30
0
0
SPLINE
5
1DD
100
AcDbEntity
8
1
62
256
6
ByLayer
370
18
48
1
60
0
100
AcDbSpline
70
4
71
3
72
18
73
14
40
0
40
0
40
0
40
0
40
0.0367931396620284
40
0.0367931396620284
40
0.291979817817017
40
0.291979817817017
40
0.505668143229403
40
0.505668143229403
40
0.721016338466078
40
0.721016338466078
40
0.911566759950597
40
0.911566759950597
40
1
40
1
40
1
40
1
41
1
10
44.862235724131
20
-32.0160507073105
30
0
41
1
10
44.856681522434
20
-32.0168311037563
30
0
41
1
10
44.851116965121
20
-32.0176294089145
30
0
41
1
10
44.8072767569856
20
-32.0240512965356
30
0
41
1
10
44.7682017407136
20
-32.0305876039573
30
0
41
1
10
44.7008179276844
20
-32.0436315857688
30
0
41
1
10
44.6710597606041
20
-32.0501237390947
30
0
41
1
10
44.6188975259671
20
-32.0632808477989
30
0
41
1
10
44.5958110401873
20
-32.0701482374902
30
0
41
1
10
44.5632711838794
20
-32.0822574126633
30
0
41
1
10
44.5521258099502
20
-32.0877571389624
30
0
41
1
10
44.5430977976735
20
-32.0948622355979
30
0
41
1
10
44.5412537920625
20
-32.0970126966965
30
0
41
1
10
44.5404370567681
20
-32.0990105568541
30
0
0
SPLINE
5
1DE
100
AcDbEntity
8
1
62
256
6
ByLayer
370
18
48
1
60
0
100
AcDbSpline
70
4
71
1
72
4
73
2
40
0
40
0
40
1
40
1
41
1
10
39.1358272653957
20
-19.9760590882206
30
0
41
1
10
39.0728434836378
20
-19.0339987276098
30
0
0
SPLINE
5
1DF
100
AcDbEntity
8
1
62
256
6
ByLayer
370
18
48
1
60
0
100
AcDbSpline
70
4
71
3
72
8
73
4
40
0
40
0
40
0
40
0
40
1
40
1
40
1
40
1
41
1
10
51.7148552440496
20
-30.5136945367727
30
0
41
1
10
51.8570532528605
20
-30.4089880051181
30
0
41
1
10
51.9873440451291
20
-30.2900464838347
30
0
41
1
10
52.0994830261434
20
-30.1659320826418
30
0
0
SPLINE
5
1E0
100
AcDbEntity
8
1
62
256
6
ByLayer
370
18
48
1
60
0
100
AcDbSpline
70
4
71
3
72
8
73
4
40
0
40
0
40
0
40
0
40
1
40
1
40
1
40
1
41
1
10
36.4237551499085
20
-33.0903391396627
30
0
41
1
10
36.2593719209878
20
-33.0584157801458
30
0
41
1
10
36.0953967030491
20
-33.0266950291852
30
0
41
1
10
35.9322605489569
20
-32.9953653995529
30
0
0
SPLINE
5
1E1
100
AcDbEntity
8
1
62
256
6
ByLayer
370
18
48
1
60
0
100
AcDbSpline
70
4
71
3
72
16
73
12
40
0
40
0
40
0
40
0
40
0.125
40
0.125
40
0.25
40
0.25
40
0.5
40
0.5
40
0.75
40
0.75
40
1
40
1
40
1
40
1
41
1
10
39.5643380845863
20
-19.1289724677194
30
0
41
1
10
39.8170759593411
20
-19.4961500279361
30
0
41
1
10
40.1463529224328
20
-19.8933590169378
30
0
41
1
10
41.0077402618792
20
-20.7368429815144
30
0
41
1
10
41.5202304190658
20
-21.1645862219087
30
0
41
1
10
43.1516154051459
20
-22.3904208495828
30
0
41
1
10
44.322307529592
20
-23.1097114885425
30
0
41
1
10
46.5607845695372
20
-24.3676926240368
30
0
41
1
10
47.6688745330625
20
-24.9578211640878
30
0
41
1
10
49.8837687945456
20
-26.1335966262209
30
0
41
1
10
50.9355594611541
20
-26.6134497976522
30
0
41
1
10
51.942944315398
20
-27.0296006439511
30
0
0
SPLINE
5
1E2
100
AcDbEntity
8
1
62
256
6
ByLayer
370
18
48
1
60
0
100
AcDbSpline
70
4
71
3
72
10
73
6
40
0
40
0
40
0
40
0
40
0.354797248100697
40
0.354797248100697
40
1
40
1
40
1
40
1
41
1
10
51.0420196827663
20
-26.0383690331392
30
0
41
1
10
51.1017644262029
20
-26.0764563601245
30
0
41
1
10
51.1614344322832
20
-26.1153424040871
30
0
41
1
10
51.3289280586763
20
-26.226940007441
30
0
41
1
10
51.4363905397324
20
-26.3014500294186
30
0
41
1
10
51.541932305173
20
-26.3774854530388
30
0
0
SPLINE
5
1E3
100
AcDbEntity
8
1
62
256
6
ByLayer
370
18
48
1
60
0
100
AcDbSpline
70
4
71
3
72
8
73
4
40
0
40
0
40
0
40
0
40
1
40
1
40
1
40
1
41
1
10
31.7898310561338
20
-28.5401327992669
30
0
41
1
10
31.7685805042302
20
-28.5129827600801
30
0
41
1
10
31.7466979725362
20
-28.486173433134
30
0
41
1
10
31.724216469236
20
-28.4597483327272
30
0
0
SPLINE
5
1E4
100
AcDbEntity
8
1
62
256
6
ByLayer
370
18
48
1
60
0
100
AcDbSpline
70
4
71
1
72
4
73
2
40
0
40
0
40
1
40
1
41
1
10
52.5937753577355
20
-28.558151107377
30
0
41
1
10
52.2875903919588
20
-29.9192871338896
30
0
0
SPLINE
5
1E5
100
AcDbEntity
8
1
62
256
6
ByLayer
370
18
48
1
60
0
100
AcDbSpline
70
4
71
3
72
12
73
8
40
0
40
0
40
0
40
0
40
0.412488217320849
40
0.412488217320849
40
0.702829232095135
40
0.702829232095135
40
1
40
1
40
1
40
1
41
1
10
52.0994830261434
20
-30.1659320826418
30
0
41
1
10
52.1259635410685
20
-30.1362649689329
30
0
41
1
10
52.1521872948376
20
-30.1038411711336
30
0
41
1
10
52.1943276350972
20
-30.0465485669718
30
0
41
1
10
52.2111768720658
20
-30.0220464160466
30
0
41
1
10
52.2435009400188
20
-29.9717799255561
30
0
41
1
10
52.2590305004286
20
-29.9458494722289
30
0
41
1
10
52.2735159656513
20
-29.919873116556
30
0
0
SPLINE
5
1E6
100
AcDbEntity
8
1
62
256
6
ByLayer
370
18
48
1
60
0
100
AcDbSpline
70
4
71
3
72
8
73
4
40
0
40
0
40
0
40
0
40
1
40
1
40
1
40
1
41
1
10
50.4480905134046
20
-31.2401261326512
30
0
41
1
10
50.2507295296141
20
-31.2737941133902
30
0
41
1
10
50.0497223269016
20
-31.3053054716277
30
0
41
1
10
49.8508336195216
20
-31.3337507343525
30
0
0
SPLINE
5
1E7
100
AcDbEntity
8
1
62
256
6
ByLayer
370
18
48
1
60
0
100
AcDbSpline
70
4
71
3
72
11
73
7
40
0
40
0
40
0
40
0
40
0.379837525225136
40
0.569756287837704
40
0.759675050450272
40
1
40
1
40
1
40
1
41
1.02830968163241
10
39.1358272653957
20
-19.9760590882207
30
0
41
1.02565532568264
10
41.3887075948799
20
-21.2111724261488
30
0
41
1.02058995167321
10
44.1541034955307
20
-23.0852494484898
30
0
41
1.0133636309892
10
48.3962037493853
20
-26.6651788955432
30
0
41
1.01212905948733
10
50.3037590164705
20
-27.0549501824936
30
0
41
1.0095816818588
10
51.8361585754156
20
-27.9632765431132
30
0
41
1.00899450091457
10
52.5286707583314
20
-28.2579909287866
30
0
0
SPLINE
5
1E8
100
AcDbEntity
8
1
62
256
6
ByLayer
370
18
48
1
60
0
100
AcDbSpline
70
4
71
3
72
8
73
4
40
0
40
0
40
0
40
0
40
1
40
1
40
1
40
1
41
1
10
31.7898310561338
20
-28.5401327992669
30
0
41
1
10
32.3300706864397
20
-29.2303514439213
30
0
41
1
10
33.1025137401574
20
-29.7036626098562
30
0
41
1
10
34.0101646979699
20
-29.8971309089976
30
0
0
SPLINE
5
1E9
100
AcDbEntity
8
1
62
256
6
ByLayer
370
18
48
1
60
0
100
AcDbSpline
70
4
71
3
72
18
73
14
40
0
40
0
40
0
40
0
40
0.0739908643221362
40
0.0739908643221362
40
0.163840977644155
40
0.163840977644155
40
0.285126848313323
40
0.285126848313323
40
0.44367096244091
40
0.44367096244091
40
0.655194408808953
40
0.655194408808953
40
1
40
1
40
1
40
1
41
1
10
27.1361397911874
20
-28.695937513659
30
0
41
1
10
27.1493189330762
20
-28.7612108757536
30
0
41
1
10
27.1609444654829
20
-28.8397347982606
30
0
41
1
10
27.1867648065969
20
-29.023441454537
30
0
41
1
10
27.2016387445587
20
-29.1334771882733
30
0
41
1
10
27.2428661637332
20
-29.3890681189447
30
0
41
1
10
27.2722245049243
20
-29.5383556966198
30
0
41
1
10
27.3536689957101
20
-29.8619142810114
30
0
41
1
10
27.411159270952
20
-30.0357906249998
30
0
41
1
10
27.5605687812896
20
-30.3951017622621
30
0
41
1
10
27.659185143318
20
-30.5714294242324
30
0
41
1
10
27.9297917685423
20
-30.9543589647509
30
0
41
1
10
28.1113641901624
20
-31.1231437847913
30
0
41
1
10
28.3348026066493
20
-31.2549573317666
30
0
0
SPLINE
5
1EA
100
AcDbEntity
8
1
62
256
6
ByLayer
370
18
48
1
60
0
100
AcDbSpline
70
4
71
3
72
13
73
9
40
0
40
0
40
0
40
0
40
0.287855605153641
40
0.287855605153641
40
0.605649284587146
40
0.605649284587146
40
0.605649284587146
40
1
40
1
40
1
40
1
41
1
10
40.3208211508972
20
-28.787347981171
30
0
41
1
10
40.1133886062161
20
-29.0714310002499
30
0
41
1
10
39.859953498059
20
-29.3262144792868
30
0
41
1
10
39.2738330948591
20
-29.7743796825694
30
0
41
1
10
38.9291758910285
20
-29.9647769187104
30
0
41
1
10
38.5688318813428
20
-30.1062723389081
30
0
41
1
10
38.1237857340015
20
-30.2810275448579
30
0
41
1
10
37.6418898716975
20
-30.3858752581828
30
0
41
1
10
37.1630093032098
20
-30.4135665439697
30
0
0
SPLINE
5
1EB
100
AcDbEntity
8
1
62
256
6
ByLayer
370
18
48
1
60
0
100
AcDbSpline
70
4
71
3
72
12
73
8
40
0
40
0
40
0
40
0
40
0.402184145094041
40
0.402184145094041
40
0.696777465474677
40
0.696777465474677
40
1
40
1
40
1
40
1
41
1
10
52.5808371025198
20
-28.5536862757379
30
0
41
1
10
52.5777908579282
20
-28.5153686354282
30
0
41
1
10
52.5731071317263
20
-28.4756645255912
30
0
41
1
10
52.5622316623513
20
-28.4065200600794
30
0
41
1
10
52.5567445890599
20
-28.376951307397
30
0
41
1
10
52.5440160037462
20
-28.3174624227922
30
0
41
1
10
52.5366750016127
20
-28.2873200874664
30
0
41
1
10
52.5286707666983
20
-28.2579909323474
30
0
0
SPLINE
5
1EC
100
AcDbEntity
8
1
62
256
6
ByLayer
370
18
48
1
60
0
100
AcDbSpline
70
4
71
3
72
8
73
4
40
0
40
0
40
0
40
0
40
1
40
1
40
1
40
1
41
1
10
39.5643380845863
20
-19.1289724677194
30
0
41
1
10
39.3999548556667
20
-19.0970491082026
30
0
41
1
10
39.235979637729
20
-19.065328357242
30
0
41
1
10
39.0728434836378
20
-19.0339987276098
30
0
0
SPLINE
5
1ED
100
AcDbEntity
8
1
62
256
6
ByLayer
370
18
48
1
60
0
100
AcDbSpline
70
4
71
3
72
8
73
4
40
0
40
0
40
0
40
0
40
1
40
1
40
1
40
1
41
1
10
31.009840334664
20
-27.8688972897272
30
0
41
1
10
30.6796925961277
20
-27.6713785189919
30
0
41
1
10
30.3284310884968
20
-27.5351820986361
30
0
41
1
10
29.9884219479239
20
-27.4446144321132
30
0
0
SPLINE
5
1EE
100
AcDbEntity
8
1
62
256
6
ByLayer
370
18
48
1
60
0
100
AcDbSpline
70
4
71
3
72
8
73
4
40
0
40
0
40
0
40
0
40
1
40
1
40
1
40
1
41
1
10
51.942944315398
20
-27.0296006439511
30
0
41
1
10
52.073205252073
20
-27.2733652751233
30
0
41
1
10
52.2036622325979
20
-27.5185258178719
30
0
41
1
10
52.3334069369093
20
-27.763941650389
30
0
0
SPLINE
5
1EF
100
AcDbEntity
8
1
62
256
6
ByLayer
370
18
48
1
60
0
100
AcDbSpline
70
4
71
3
72
8
73
4
40
0
40
0
40
0
40
0
40
1
40
1
40
1
40
1
41
1
10
36.3202390218428
20
-32.492671667168
30
0
41
1
10
36.5477069386529
20
-32.1979473355613
30
0
41
1
10
36.8552535929711
20
-31.4392330834216
30
0
41
1
10
37.1630092999709
20
-30.4135665547643
30
0
0
SPLINE
5
1F0
100
AcDbEntity
8
1
62
256
6
ByLayer
370
18
48
1
60
0
100
AcDbSpline
70
4
71
3
72
8
73
4
40
0
40
0
40
0
40
0
40
1
40
1
40
1
40
1
41
1
10
37.816334530036
20
-22.251911043118
30
0
41
1
10
38.1995052523672
20
-22.3335849369117
30
0
41
1
10
38.562975083865
20
-22.4697388228583
30
0
41
1
10
38.9083630956899
20
-22.654648911762
30
0
0
SPLINE
5
1F1
100
AcDbEntity
8
1
62
256
6
ByLayer
370
18
48
1
60
0
100
AcDbSpline
70
4
71
3
72
8
73
4
40
0
40
0
40
0
40
0
40
1
40
1
40
1
40
1
41
1
10
32.2170353807272
20
-22.5023481384455
30
0
41
1
10
31.8369348360997
20
-22.5268930599092
30
0
41
1
10
31.4656895328102
20
-22.4795340001609
30
0
41
1
10
31.1256803922373
20
-22.388966333638
30
0
0
SPLINE
5
1F2
100
AcDbEntity
8
1
62
256
6
ByLayer
370
18
48
1
60
0
100
AcDbSpline
70
4
71
3
72
8
73
4
40
0
40
0
40
0
40
0
40
1
40
1
40
1
40
1
41
1
10
33.1166804461224
20
-22.2695917397889
30
0
41
1
10
33.1486894248976
20
-22.2536627354546
30
0
41
1
10
33.1803309969961
20
-22.2370885427527
30
0
41
1
10
33.2115570510689
20
-22.2198927880477
30
0
0
SPLINE
5
1F3
100
AcDbEntity
8
1
62
256
6
ByLayer
370
18
48
1
60
0
100
AcDbSpline
70
4
71
3
72
10
73
6
40
0
40
0
40
0
40
0
40
0.560712447053345
40
0.560712447053345
40
1
40
1
40
1
40
1
41
1
10
32.2170353807272
20
-22.5023481384455
30
0
41
1
10
32.3877506917898
20
-22.4913242292143
30
0
41
1
10
32.5641672414181
20
-22.4633660497352
30
0
41
1
10
32.865941286584
20
-22.3790794334308
30
0
41
1
10
32.9965415197594
20
-22.3293778858009
30
0
41
1
10
33.1166804461224
20
-22.2695917397889
30
0
0
SPLINE
5
1F4
100
AcDbEntity
8
1
62
256
6
ByLayer
370
18
48
1
60
0
100
AcDbSpline
70
4
71
3
72
11
73
7
40
0
40
0
40
0
40
0
40
0.267973217054012
40
0.487581251937808
40
0.707189286821605
40
1
40
1
40
1
40
1
41
1.02490899991337
10
40.3208211048171
20
-28.7873479728684
30
0
41
1.02299818100183
10
41.6309001855943
20
-29.0233940541127
30
0
41
1.01918124209525
10
43.9241516417523
20
-29.3859134954285
30
0
41
1.0133636309892
10
47.7521901428867
20
-29.6778112975694
30
0
41
1.01210337903089
10
49.7534256058112
20
-29.9046999397104
30
0
41
1.00942740489664
10
51.5056023568011
20
-29.9522602246926
30
0
41
1.00890738029382
10
52.2875903919588
20
-29.9192871338896
30
0
0
SPLINE
5
1F5
100
AcDbEntity
8
1
62
256
6
ByLayer
370
18
48
1
60
0
100
AcDbSpline
70
4
71
3
72
13
73
9
40
0
40
0
40
0
40
0
40
0.250649945521669
40
0.250649945521669
40
0.250649945521669
40
0.653057935862512
40
0.653057935862512
40
1
40
1
40
1
40
1
41
1
10
41.0649696248296
20
-25.4792583942951
30
0
41
1
10
41.1207632411271
20
-25.7630223596339
30
0
41
1
10
41.1465631503914
20
-26.0551110086137
30
0
41
1
10
41.1417509227531
20
-26.3459139135116
30
0
41
1
10
41.1340919060633
20
-26.8087482741083
30
0
41
1
10
41.0474742163322
20
-27.2788409400905
30
0
41
1
10
40.7522593041693
20
-28.0967550669017
30
0
41
1
10
40.5589484495174
20
-28.4611235228651
30
0
41
1
10
40.3208211508972
20
-28.787347981171
30
0
0
SPLINE
5
1F6
100
AcDbEntity
8
1
62
256
6
ByLayer
370
18
48
1
60
0
100
AcDbSpline
70
4
71
3
72
8
73
4
40
0
40
0
40
0
40
0
40
1
40
1
40
1
40
1
41
1
10
38.9083631003509
20
-22.6546488990265
30
0
41
1
10
39.0897470172908
20
-21.5058599886986
30
0
41
1
10
39.1727540296942
20
-20.5283797002953
30
0
41
1
10
39.1358272653957
20
-19.9760590882206
30
0
0
SPLINE
5
1F7
100
AcDbEntity
8
1
62
256
6
ByLayer
370
18
48
1
60
0
100
AcDbSpline
70
4
71
3
72
11
73
7
40
0
40
0
40
0
40
0
40
0.379837525225133
40
0.569756287837699
40
0.759675050450266
40
1
40
1
40
1
40
1
41
1.02830968163241
10
36.3202390218428
20
-32.492671667168
30
0
41
1.02565532568264
10
38.8806575381539
20
-32.3606332751895
30
0
41
1.02058995167321
10
42.1744784367273
20
-31.8856129139861
30
0
41
1.0133636309892
10
47.5691241371778
20
-30.3419363552536
30
0
41
1.01212905948733
10
49.5122902551492
20
-30.5734006791251
30
0
41
1.0095816818588
10
51.3230736478619
20
-30.2441801066884
30
0
41
1.00899450091457
10
52.0994830167629
20
-30.1659320835872
30
0
0
SPLINE
5
1F8
100
AcDbEntity
8
1
62
256
6
ByLayer
370
18
48
1
60
0
100
AcDbSpline
70
4
71
3
72
8
73
4
40
0
40
0
40
0
40
0
40
1
40
1
40
1
40
1
41
1
10
51.0510220199918
20
-30.9946142952574
30
0
41
1
10
51.2715416299036
20
-30.8371367180254
30
0
41
1
10
51.4931879688555
20
-30.6769177194389
30
0
41
1
10
51.7148552440496
20
-30.5136945367727
30
0
0
SPLINE
5
1F9
100
AcDbEntity
8
1
62
256
6
ByLayer
370
18
48
1
60
0
100
AcDbSpline
70
4
71
3
72
8
73
4
40
0
40
0
40
0
40
0
40
1
40
1
40
1
40
1
41
1
10
36.0010950900742
20
-30.3215032002996
30
0
41
1
10
36.384265812531
20
-30.4031770941201
30
0
41
1
10
36.7717784068086
20
-30.4324496041624
30
0
41
1
10
37.1630093008269
20
-30.4135665440847
30
0
0
SPLINE
5
1FA
100
AcDbEntity
8
1
62
256
6
ByLayer
370
18
48
1
60
0
100
AcDbSpline
70
4
71
3
72
12
73
8
40
0
40
0
40
0
40
0
40
0.32311484206976
40
0.32311484206976
40
0.710369726849213
40
0.710369726849213
40
1
40
1
40
1
40
1
41
1
10
38.9083630981335
20
-22.6546489130703
30
0
41
1
10
39.255518275057
20
-22.8402185127146
30
0
41
1
10
39.5808149875959
20
-23.077495612086
30
0
41
1
10
40.2065169501687
20
-23.6768136861842
30
0
41
1
10
40.499205950083
20
-24.0633053488261
30
0
41
1
10
40.8763831615202
20
-24.7967404494319
30
0
41
1
10
40.997587671018
20
-25.136767484752
30
0
41
1
10
41.0649696248296
20
-25.4792583942951
30
0
0
SPLINE
5
1FB
100
AcDbEntity
8
1
62
256
6
ByLayer
370
18
48
1
60
0
100
AcDbSpline
70
4
71
3
72
18
73
14
40
0
40
0
40
0
40
0
40
0.15018645940063
40
0.15018645940063
40
0.339592137529987
40
0.339592137529987
40
0.523539642595952
40
0.523539642595952
40
0.716564624108254
40
0.716564624108254
40
0.935518218901367
40
0.935518218901367
40
1
40
1
40
1
40
1
41
1
10
46.5510226251554
20
-23.1610130801577
30
0
41
1
10
46.5500154926688
20
-23.1682316408323
30
0
41
1
10
46.5514798657302
20
-23.1770964202812
30
0
41
1
10
46.5605716461007
20
-23.2000245982754
30
0
41
1
10
46.569895410549
20
-23.215192278665
30
0
41
1
10
46.5950621263628
20
-23.2472098394203
30
0
41
1
10
46.6110066173011
20
-23.2643931510912
30
0
41
1
10
46.6479679173355
20
-23.2997133976363
30
0
41
1
10
46.6696119146833
20
-23.3182737855298
30
0
41
1
10
46.7180279129942
20
-23.3563758213984
30
0
41
1
10
46.7456511719565
20
-23.3761695509399
30
0
41
1
10
46.7815653104482
20
-23.3999191127803
30
0
41
1
10
46.7898066550621
20
-23.4052374571186
30
0
41
1
10
46.7980529574475
20
-23.4104336080936
30
0
0
SPLINE
5
1FC
100
AcDbEntity
8
1
62
256
6
ByLayer
370
18
48
1
60
0
100
AcDbSpline
70
4
71
3
72
8
73
4
40
0
40
0
40
0
40
0
40
1
40
1
40
1
40
1
41
1
10
52.5286707666983
20
-28.2579909323474
30
0
41
1
10
52.4822636158094
20
-28.0898964661152
30
0
41
1
10
52.4166372585281
20
-27.9213741928513
30
0
41
1
10
52.3334069369093
20
-27.763941650389
30
0
0
SPLINE
5
1FD
100
AcDbEntity
8
1
62
256
6
ByLayer
370
18
48
1
60
0
100
AcDbSpline
70
4
71
3
72
8
73
4
40
0
40
0
40
0
40
0
40
1
40
1
40
1
40
1
41
1
10
35.8254041379317
20
-21.827538751816
30
0
41
1
10
34.9356662468364
20
-21.6378886721348
30
0
41
1
10
33.9970670708935
20
-21.7873233193689
30
0
41
1
10
33.211557051069
20
-22.2198927880477
30
0
0
SPLINE
5
1FE
100
AcDbEntity
8
1
62
256
6
ByLayer
370
18
48
1
60
0
100
AcDbSpline
70
4
71
3
72
10
73
6
40
0
40
0
40
0
40
0
40
0.56071244705334
40
0.56071244705334
40
1
40
1
40
1
40
1
41
1
10
31.009840334664
20
-27.8688972897272
30
0
41
1
10
31.1581202429079
20
-27.9576092867589
30
0
41
1
10
31.3050112759128
20
-28.0609059005244
30
0
41
1
10
31.5422522184715
20
-28.2634992446336
30
0
41
1
10
31.639836905349
20
-28.3605673118576
30
0
41
1
10
31.7242164692359
20
-28.4597483327271
30
0
0
SPLINE
5
1FF
100
AcDbEntity
8
1
62
256
6
ByLayer
370
18
48
1
60
0
100
AcDbSpline
70
4
71
3
72
8
73
4
40
0
40
0
40
0
40
0
40
1
40
1
40
1
40
1
41
1
10
27.0583817685
20
-28.1217882263226
30
0
41
1
10
27.0712782161813
20
-28.3105562201532
30
0
41
1
10
27.0972304302179
20
-28.5032280923058
30
0
41
1
10
27.1361397911862
20
-28.6959375136605
30
0
0
SPLINE
5
200
100
AcDbEntity
8
1
62
256
6
ByLayer
370
18
48
1
60
0
100
AcDbSpline
70
4
71
2
72
6
73
3
40
0
40
0
40
0
40
1
40
1
40
1
41
1.02830968163241
10
36.3202390218428
20
-32.492671667168
30
0
41
1.02830968163241
10
36.1262497853998
20
-32.7440185333605
30
0
41
1.02830968163241
10
35.9322605489569
20
-32.9953653995529
30
0
0
SPLINE
5
201
100
AcDbEntity
8
1
62
256
6
ByLayer
370
18
48
1
60
0
100
AcDbSpline
70
4
71
3
72
16
73
12
40
0
40
0
40
0
40
0
40
0.25
40
0.25
40
0.5
40
0.5
40
0.75
40
0.75
40
0.875
40
0.875
40
1
40
1
40
1
40
1
41
1
10
51.0510220199918
20
-30.9946142952574
30
0
41
1
10
49.9331134606919
20
-31.0635653660513
30
0
41
1
10
48.7615188983642
20
-31.1549384789743
30
0
41
1
10
46.2106559848422
20
-31.4244199836729
30
0
41
1
10
44.9338126626082
20
-31.5600321814337
30
0
41
1
10
42.3295664876555
20
-31.864586967211
30
0
41
1
10
40.9426355959084
20
-32.0533443254158
30
0
41
1
10
38.9837997629365
20
-32.4078995727705
30
0
41
1
10
38.34357569158
20
-32.540461966394
30
0
41
1
10
37.2471003246412
20
-32.813779678496
30
0
41
1
10
36.7893347107826
20
-32.9553032645315
30
0
41
1
10
36.4237551499085
20
-33.0903391396627
30
0
0
LINE
5
72
100
AcDbEntity
8
80
62
256
6
ByLayer
370
18
48
1
60
0
100
AcDbLine
10
0
20
0
30
0
11
-5
21
0
31
0
39
0
210
0
220
0
230
1
0
LINE
5
73
100
AcDbEntity
8
1
62
256
6
ByLayer
370
18
48
1
60
0
100
AcDbLine
10
0.3
20
-25
30
0
11
20.920792
21
-25
31
0
39
0
210
0
220
0
230
1
0
LINE
5
75
100
AcDbEntity
8
1
62
256
6
ByLayer
370
18
48
1
60
0
100
AcDbLine
10
20.920792
20
25
30
0
11
0.3
21
25
31
0
39
0
210
0
220
0
230
1
0
LINE
5
76
100
AcDbEntity
8
1
62
256
6
ByLayer
370
18
48
1
60
0
100
AcDbLine
10
0.3
20
25
30
0
11
0
21
24.7
31
0
39
0
210
0
220
0
230
1
0
LINE
5
77
100
AcDbEntity
8
1
62
256
6
ByLayer
370
18
48
1
60
0
100
AcDbLine
10
0
20
-24.7
30
0
11
0.3
21
-25
31
0
39
0
210
0
220
0
230
1
0
LINE
5
78
100
AcDbEntity
8
1
62
256
6
ByLayer
370
18
48
1
60
0
100
AcDbLine
10
22.477193
20
25.15
30
0
11
20.960985
21
25.15
31
0
39
0
210
0
220
0
230
1
0
LINE
5
79
100
AcDbEntity
8
1
62
256
6
ByLayer
370
18
48
1
60
0
100
AcDbLine
10
20.960985
20
25.15
30
0
11
20.920792
21
25
31
0
39
0
210
0
220
0
230
1
0
LINE
5
7A
100
AcDbEntity
8
1
62
256
6
ByLayer
370
18
48
1
60
0
100
AcDbLine
10
20.920792
20
-25
30
0
11
22.591989
21
-31.236989
31
0
39
0
210
0
220
0
230
1
0
LINE
5
7B
100
AcDbEntity
8
1
62
256
6
ByLayer
370
18
48
1
60
0
100
AcDbLine
10
43.89986
20
-32.694566
30
0
11
44.075808
21
-32.865989
31
0
39
0
210
0
220
0
230
1
0
LINE
5
7C
100
AcDbEntity
8
1
62
256
6
ByLayer
370
18
48
1
60
0
100
AcDbLine
10
20.760032
20
-0.335993
30
0
11
21.104391
21
-0.305075
31
0
39
0
210
0
220
0
230
1
0
LINE
5
7D
100
AcDbEntity
8
1
62
256
6
ByLayer
370
18
48
1
60
0
100
AcDbLine
10
23.609273
20
2.626801
30
0
11
23.586052
21
2.971764
31
0
39
0
210
0
220
0
230
1
0
LINE
5
7E
100
AcDbEntity
8
1
62
256
6
ByLayer
370
18
48
1
60
0
100
AcDbLine
10
35.757527
20
-24.652943
30
0
11
36.011201
21
-24.900095
31
0
39
0
210
0
220
0
230
1
0
LINE
5
7F
100
AcDbEntity
8
1
62
256
6
ByLayer
370
18
48
1
60
0
100
AcDbLine
10
35.9084
20
-27.385164
30
0
11
35.654726
21
-27.138013
31
0
39
0
210
0
220
0
230
1
0
LINE
5
80
100
AcDbEntity
8
1
62
256
6
ByLayer
370
18
48
1
60
0
100
AcDbLine
10
32.796392
20
-28.645162
30
0
11
33.070722
21
-28.912438
31
0
39
0
210
0
220
0
230
1
0
LINE
5
81
100
AcDbEntity
8
1
62
256
6
ByLayer
370
18
48
1
60
0
100
AcDbLine
10
38.653428
20
-23.182395
30
0
11
38.379098
21
-22.915119
31
0
39
0
210
0
220
0
230
1
0
LINE
5
82
100
AcDbEntity
8
1
62
256
6
ByLayer
370
18
48
1
60
0
100
AcDbLine
10
26.835363
20
-30.380162
30
0
11
28.343379
21
-31.259985
31
0
39
0
210
0
220
0
230
1
0
LINE
5
83
100
AcDbEntity
8
1
62
256
6
ByLayer
370
18
48
1
60
0
100
AcDbLine
10
52.765512
20
-22.208039
30
0
11
51.866942
21
-21.332574
31
0
39
0
210
0
220
0
230
1
0
LINE
5
84
100
AcDbEntity
8
1
62
256
6
ByLayer
370
18
48
1
60
0
100
AcDbLine
10
44.307798
20
-33.199177
30
0
11
45.206368
21
-34.074642
31
0
39
0
210
0
220
0
230
1
0
LINE
5
85
100
AcDbEntity
8
1
62
256
6
ByLayer
370
18
48
1
60
0
100
AcDbLine
10
34.74681
20
-26.32701
30
0
11
34.493136
21
-26.079859
31
0
39
0
210
0
220
0
230
1
0
LINE
5
86
100
AcDbEntity
8
1
62
256
6
ByLayer
370
18
48
1
60
0
100
AcDbLine
10
36.919117
20
-25.711098
30
0
11
37.172791
21
-25.958249
31
0
39
0
210
0
220
0
230
1
0
LINE
5
87
100
AcDbEntity
8
1
62
256
6
ByLayer
370
18
48
1
60
0
100
AcDbLine
10
30.976292
20
-27.849077
30
0
11
30.4379
21
-27.534962
31
0
39
0
210
0
220
0
230
1
0
LINE
5
88
100
AcDbEntity
8
1
62
256
6
ByLayer
370
18
48
1
60
0
100
AcDbLine
10
23.565155
20
3.02211
30
0
11
16.92016
21
8.699336
31
0
39
0
210
0
220
0
230
1
0
LINE
5
89
100
AcDbEntity
8
1
62
256
6
ByLayer
370
18
48
1
60
0
100
AcDbLine
10
16.84397
20
2.977246
30
0
11
20.707041
21
-0.323213
31
0
39
0
210
0
220
0
230
1
0
LINE
5
8A
100
AcDbEntity
8
4
62
256
6
ByLayer
370
18
48
0.05
60
0
100
AcDbLine
10
0
20
0
30
0
11
60
21
0
31
0
39
0
210
0
220
0
230
1
0
LINE
5
8C
100
AcDbEntity
8
81
62
256
6
ByLayer
370
18
48
1
60
0
100
AcDbLine
10
60
20
-35
30
0
11
70
21
-35
31
0
39
0
210
0
220
0
230
1
0
LINE
5
8D
100
AcDbEntity
8
SK4
62
256
6
ByLayer
370
18
48
0.05
60
0
100
AcDbLine
10
-35
20
0
30
0
11
60
21
0
31
0
39
0
210
0
220
0
230
1
0
LINE
5
8F
100
AcDbEntity
8
1
62
256
6
ByLayer
370
18
48
1
60
0
100
AcDbLine
10
33.529266
20
-29.61656
30
0
11
34.706675
21
-29.865705
31
0
39
0
210
0
220
0
230
1
0
LINE
5
90
100
AcDbEntity
8
1
62
256
6
ByLayer
370
18
48
1
60
0
100
AcDbLine
10
31.10749
20
-16.90523
30
0
11
32.271296
21
-17.58423
31
0
39
0
210
0
220
0
230
1
0
LINE
5
91
100
AcDbEntity
8
1
62
256
6
ByLayer
370
18
48
1
60
0
100
AcDbLine
10
50.226731
20
-25.517521
30
0
11
48.195079
21
-24.237339
31
0
39
0
210
0
220
0
230
1
0
LINE
5
92
100
AcDbEntity
8
1
62
256
6
ByLayer
370
18
48
1
60
0
100
AcDbLine
10
51.942944
20
-27.029601
30
0
11
51.567346
21
-26.418813
31
0
39
0
210
0
220
0
230
1
0
LINE
5
93
100
AcDbEntity
8
1
62
256
6
ByLayer
370
18
48
1
60
0
100
AcDbLine
10
51.051022
20
-30.994614
30
0
11
50.486301
21
-31.224567
31
0
39
0
210
0
220
0
230
1
0
LINE
5
94
100
AcDbEntity
8
1
62
256
6
ByLayer
370
18
48
1
60
0
100
AcDbLine
10
46.491947
20
-31.808559
30
0
11
48.887282
21
-31.472001
31
0
39
0
210
0
220
0
230
1
0
LINE
5
95
100
AcDbEntity
8
1
62
256
6
ByLayer
370
18
48
1
60
0
100
AcDbLine
10
20.920792
20
-24.488619
30
0
11
20.920792
21
-25
31
0
39
0
210
0
220
0
230
1
0
LINE
5
96
100
AcDbEntity
8
1
62
256
6
ByLayer
370
18
48
1
60
0
100
AcDbLine
10
20.920792
20
25
30
0
11
20.920792
21
24.488619
31
0
39
0
210
0
220
0
230
1
0
LINE
5
97
100
AcDbEntity
8
1
62
256
6
ByLayer
370
18
48
1
60
0
100
AcDbLine
10
0.3
20
0
30
0
11
0.3
21
-25
31
0
39
0
210
0
220
0
230
1
0
LINE
5
98
100
AcDbEntity
8
1
62
256
6
ByLayer
370
18
48
1
60
0
100
AcDbLine
10
0.3
20
25
30
0
11
0.3
21
0
31
0
39
0
210
0
220
0
230
1
0
LINE
5
99
100
AcDbEntity
8
1
62
256
6
ByLayer
370
18
48
1
60
0
100
AcDbLine
10
0
20
0
30
0
11
0
21
-24.7
31
0
39
0
210
0
220
0
230
1
0
LINE
5
9A
100
AcDbEntity
8
1
62
256
6
ByLayer
370
18
48
1
60
0
100
AcDbLine
10
0
20
24.7
30
0
11
0
21
0
31
0
39
0
210
0
220
0
230
1
0
LINE
5
9B
100
AcDbEntity
8
1
62
256
6
ByLayer
370
18
48
1
60
0
100
AcDbLine
10
44.106915
20
-32.357844
30
0
11
42.77733
21
-30.185878
31
0
39
0
210
0
220
0
230
1
0
LINE
5
9C
100
AcDbEntity
8
SK1
62
256
6
ByLayer
370
18
48
1
60
0
100
AcDbLine
10
-0.2
20
17.833485
30
0
11
-0.2
21
6.103448
31
0
39
0
210
0
220
0
230
1
0
LINE
5
9E
100
AcDbEntity
8
SK1
62
256
6
ByLayer
370
18
48
1
60
0
100
AcDbLine
10
-0.2
20
-6.103447
30
0
11
-0.2
21
-17.833485
31
0
39
0
210
0
220
0
230
1
0
LINE
5
9F
100
AcDbEntity
8
1
62
256
6
ByLayer
370
18
48
1
60
0
100
AcDbLine
10
21.415098
20
-25.527545
30
0
11
21.415098
21
-0.130894
31
0
39
0
210
0
220
0
230
1
0
LINE
5
A0
100
AcDbEntity
8
1
62
256
6
ByLayer
370
18
48
1
60
0
100
AcDbLine
10
21.415098
20
4.858434
30
0
11
21.415098
21
24.647972
31
0
39
0
210
0
220
0
230
1
0
LINE
5
A1
100
AcDbEntity
8
1
62
256
6
ByLayer
370
18
48
1
60
0
100
AcDbLine
10
20.960985
20
25.15
30
0
11
20.960985
21
24.642711
31
0
39
0
210
0
220
0
230
1
0
LINE
5
A2
100
AcDbEntity
8
1
62
256
6
ByLayer
370
18
48
1
60
0
100
AcDbLine
10
22.477193
20
25.15
30
0
11
22.784513
21
24.647972
31
0
39
0
210
0
220
0
230
1
0
LINE
5
A3
100
AcDbEntity
8
1
62
256
6
ByLayer
370
18
48
1
60
0
100
AcDbLine
10
34.315997
20
-17.776204
30
0
11
43.18333
21
-8.674847
31
0
39
0
210
0
220
0
230
1
0
LINE
5
A4
100
AcDbEntity
8
1
62
256
6
ByLayer
370
18
48
1
60
0
100
AcDbLine
10
32.353433
20
-17.292808
30
0
11
32.562192
21
-15.444786
31
0
39
0
210
0
220
0
230
1
0
LINE
5
A5
100
AcDbEntity
8
1
62
256
6
ByLayer
370
18
48
1
60
0
100
AcDbLine
10
27.944164
20
-16.861912
30
0
11
27.732257
21
-17.80394
31
0
39
0
210
0
220
0
230
1
0
LINE
5
A6
100
AcDbEntity
8
1
62
256
6
ByLayer
370
18
48
1
60
0
100
AcDbLine
10
25.342317
20
-28.428346
30
0
11
25.175827
21
-29.16847
31
0
39
0
210
0
220
0
230
1
0
LINE
5
A7
100
AcDbEntity
8
1
62
256
6
ByLayer
370
18
48
1
60
0
100
AcDbLine
10
29.301016
20
-31.581899
30
0
11
26.291875
21
-31.424197
31
0
39
0
210
0
220
0
230
1
0
LINE
5
A8
100
AcDbEntity
8
1
62
256
6
ByLayer
370
18
48
1
60
0
100
AcDbLine
10
44.737475
20
-21.417953
30
0
11
51.20911
21
-21.785489
31
0
39
0
210
0
220
0
230
1
0
LINE
5
A9
100
AcDbEntity
8
1
62
256
6
ByLayer
370
18
48
1
60
0
100
AcDbLine
10
41.586186
20
-18.454139
30
0
11
42.560972
21
-20.046517
31
0
39
0
210
0
220
0
230
1
0
LINE
5
AA
100
AcDbEntity
8
1
62
256
6
ByLayer
370
18
48
1
60
0
100
AcDbLine
10
41.04814
20
-17.847513
30
0
11
41.586186
21
-18.454139
31
0
39
0
210
0
220
0
230
1
0
LINE
5
AB
100
AcDbEntity
8
1
62
256
6
ByLayer
370
18
48
1
60
0
100
AcDbLine
10
40.732073
20
-17.637401
30
0
11
41.984449
21
-19.68324
31
0
39
0
210
0
220
0
230
1
0
LINE
5
AC
100
AcDbEntity
8
1
62
256
6
ByLayer
370
18
48
1
60
0
100
AcDbLine
10
44.928217
20
-21.538124
30
0
11
49.357678
21
-21.789681
31
0
39
0
210
0
220
0
230
1
0
LINE
5
AD
100
AcDbEntity
8
1
62
256
6
ByLayer
370
18
48
1
60
0
100
AcDbLine
10
51.20911
20
-21.785489
30
0
11
51.275057
21
-21.893218
31
0
39
0
210
0
220
0
230
1
0
LINE
5
AE
100
AcDbEntity
8
1
62
256
6
ByLayer
370
18
48
1
60
0
100
AcDbLine
10
40.474727
20
-17.515243
30
0
11
41.687235
21
-19.495956
31
0
39
0
210
0
220
0
230
1
0
LINE
5
AF
100
AcDbEntity
8
1
62
256
6
ByLayer
370
18
48
1
60
0
100
AcDbLine
10
51.243295
20
-25.734663
30
0
11
50.950203
21
-25.982903
31
0
39
0
210
0
220
0
230
1
0
LINE
5
B0
100
AcDbEntity
8
1
62
256
6
ByLayer
370
18
48
1
60
0
100
AcDbLine
10
50.226744
20
-25.517529
30
0
11
47.851848
21
-23.932013
31
0
39
0
210
0
220
0
230
1
0
LINE
5
B1
100
AcDbEntity
8
1
62
256
6
ByLayer
370
18
48
1
60
0
100
AcDbLine
10
49.878255
20
-31.80291
30
0
11
49.743359
21
-31.34789
31
0
39
0
210
0
220
0
230
1
0
LINE
5
B2
100
AcDbEntity
8
1
62
256
6
ByLayer
370
18
48
1
60
0
100
AcDbLine
10
48.887297
20
-31.471999
30
0
11
46.049045
21
-31.946319
31
0
39
0
210
0
220
0
230
1
0
LINE
5
B3
100
AcDbEntity
8
1
62
256
6
ByLayer
370
18
48
1
60
0
100
AcDbLine
10
43.817851
20
-32.442183
30
0
11
43.978157
21
-32.704053
31
0
39
0
210
0
220
0
230
1
0
LINE
5
B4
100
AcDbEntity
8
1
62
256
6
ByLayer
370
18
48
1
60
0
100
AcDbLine
10
50.958101
20
-21.095332
30
0
11
50.780835
21
-21.086042
31
0
39
0
210
0
220
0
230
1
0
LINE
5
B5
100
AcDbEntity
8
1
62
256
6
ByLayer
370
18
48
1
60
0
100
AcDbLine
10
50.639599
20
-20.78502
30
0
11
50.595102
21
-20.782688
31
0
39
0
210
0
220
0
230
1
0
LINE
5
B6
100
AcDbEntity
8
1
62
256
6
ByLayer
370
18
48
1
60
0
100
AcDbLine
10
43.978157
20
-32.704053
30
0
11
43.723051
21
-32.455508
31
0
39
0
210
0
220
0
230
1
0
LINE
5
B7
100
AcDbEntity
8
1
62
256
6
ByLayer
370
18
48
1
60
0
100
AcDbLine
10
43.816383
20
-32.442201
30
0
11
44.187695
21
-33.048764
31
0
39
0
210
0
220
0
230
1
0
LINE
5
B8
100
AcDbEntity
8
1
62
256
6
ByLayer
370
18
48
1
60
0
100
AcDbLine
10
35.75063
20
-24.612818
30
0
11
35.928456
21
-24.786071
31
0
39
0
210
0
220
0
230
1
0
LINE
5
B9
100
AcDbEntity
8
1
62
256
6
ByLayer
370
18
48
1
60
0
100
AcDbLine
10
34.393983
20
-26.030883
30
0
11
34.605
21
-26.236474
31
0
39
0
210
0
220
0
230
1
0
LINE
5
BA
100
AcDbEntity
8
1
62
256
6
ByLayer
370
18
48
1
60
0
100
AcDbLine
10
51.364139
20
-21.113234
30
0
11
50.778599
21
-21.082547
31
0
39
0
210
0
220
0
230
1
0
LINE
5
BB
100
AcDbEntity
8
1
62
256
6
ByLayer
370
18
48
1
60
0
100
AcDbLine
10
44.150383
20
-32.395403
30
0
11
45.086266
21
-33.92423
31
0
39
0
210
0
220
0
230
1
0
LINE
5
BC
100
AcDbEntity
8
1
62
256
6
ByLayer
370
18
48
1
60
0
100
AcDbLine
10
52.262709
20
-21.988699
30
0
11
45.042867
21
-21.610323
31
0
39
0
210
0
220
0
230
1
0
LINE
5
BD
100
AcDbEntity
8
1
62
256
6
ByLayer
370
18
48
1
60
0
100
AcDbLine
10
36.865317
20
-25.175309
30
0
11
37.118991
21
-25.422461
31
0
39
0
210
0
220
0
230
1
0
LINE
5
BE
100
AcDbEntity
8
1
62
256
6
ByLayer
370
18
48
1
60
0
100
AcDbLine
10
36.450064
20
-27.021304
30
0
11
36.703738
21
-27.268455
31
0
39
0
210
0
220
0
230
1
0
LINE
5
BF
100
AcDbEntity
8
1
62
256
6
ByLayer
370
18
48
1
60
0
100
AcDbLine
10
35.095264
20
-27.115148
30
0
11
35.348938
21
-27.3623
31
0
39
0
210
0
220
0
230
1
0
LINE
5
C0
100
AcDbEntity
8
1
62
256
6
ByLayer
370
18
48
1
60
0
100
AcDbLine
10
36.896662
20
-26.531868
30
0
11
37.150336
21
-26.779019
31
0
39
0
210
0
220
0
230
1
0
LINE
5
C1
100
AcDbEntity
8
1
62
256
6
ByLayer
370
18
48
1
60
0
100
AcDbLine
10
52.132338
20
-25.789718
30
0
11
50.112035
21
-24.252342
31
0
39
0
210
0
220
0
230
1
0
LINE
5
C2
100
AcDbEntity
8
1
62
256
6
ByLayer
370
18
48
1
60
0
100
AcDbLine
10
50.709578
20
-32.114556
30
0
11
48.214137
21
-32.689388
31
0
39
0
210
0
220
0
230
1
0
LINE
5
C3
100
AcDbEntity
8
1
62
256
6
ByLayer
370
18
48
1
60
0
100
AcDbLine
10
45.642831
20
-32.507438
30
0
11
46.136268
21
-32.882926
31
0
39
0
210
0
220
0
230
1
0
LINE
5
C4
100
AcDbEntity
8
1
62
256
6
ByLayer
370
18
48
1
60
0
100
AcDbLine
10
48.432656
20
-22.674406
30
0
11
48.812501
21
-23.975343
31
0
39
0
210
0
220
0
230
1
0
LINE
5
C5
100
AcDbEntity
8
1
62
256
6
ByLayer
370
18
48
1
60
0
100
AcDbLine
10
52.950405
20
-27.371561
30
0
11
53.704845
21
-26.517422
31
0
39
0
210
0
220
0
230
1
0
LINE
5
C6
100
AcDbEntity
8
1
62
256
6
ByLayer
370
18
48
1
60
0
100
AcDbLine
10
48.355676
20
-23.97588
30
0
11
48.660508
21
-24.010355
31
0
39
0
210
0
220
0
230
1
0
LINE
5
C7
100
AcDbEntity
8
1
62
256
6
ByLayer
370
18
48
1
60
0
100
AcDbLine
10
50.709578
20
-32.114556
30
0
11
50.518851
21
-32.623377
31
0
39
0
210
0
220
0
230
1
0
LINE
5
C8
100
AcDbEntity
8
1
62
256
6
ByLayer
370
18
48
1
60
0
100
AcDbLine
10
47.827323
20
-33.243379
30
0
11
46.136268
21
-32.882926
31
0
39
0
210
0
220
0
230
1
0
LINE
5
C9
100
AcDbEntity
8
1
62
256
6
ByLayer
370
18
48
1
60
0
100
AcDbLine
10
51.032483
20
-32.024138
30
0
11
52.131887
21
-31.010255
31
0
39
0
210
0
220
0
230
1
0
LINE
5
CA
100
AcDbEntity
8
1
62
256
6
ByLayer
370
18
48
1
60
0
100
AcDbLine
10
46.914604
20
-32.412389
30
0
11
46.136268
21
-32.882926
31
0
39
0
210
0
220
0
230
1
0
LINE
5
CB
100
AcDbEntity
8
1
62
256
6
ByLayer
370
18
48
1
60
0
100
AcDbLine
10
48.214137
20
-32.689388
30
0
11
47.827323
21
-33.243379
31
0
39
0
210
0
220
0
230
1
0
LINE
5
CC
100
AcDbEntity
8
1
62
256
6
ByLayer
370
18
48
1
60
0
100
AcDbLine
10
52.386877
20
-26.00322
30
0
11
52.950405
21
-27.371561
31
0
39
0
210
0
220
0
230
1
0
LINE
5
CD
100
AcDbEntity
8
1
62
256
6
ByLayer
370
18
48
1
60
0
100
AcDbLine
10
47.823171
20
-22.814803
30
0
11
48.432656
21
-22.674406
31
0
39
0
210
0
220
0
230
1
0
LINE
5
CE
100
AcDbEntity
8
1
62
256
6
ByLayer
370
18
48
1
60
0
100
AcDbLine
10
52.131887
20
-31.010255
30
0
11
52.575856
21
-31.536308
31
0
39
0
210
0
220
0
230
1
0
LINE
5
CF
100
AcDbEntity
8
1
62
256
6
ByLayer
370
18
48
1
60
0
100
AcDbLine
10
52.132338
20
-25.789718
30
0
11
52.302765
21
-24.693039
31
0
39
0
210
0
220
0
230
1
0
LINE
5
D0
100
AcDbEntity
8
1
62
256
6
ByLayer
370
18
48
1
60
0
100
AcDbLine
10
48.812501
20
-23.975343
30
0
11
48.660508
21
-24.010355
31
0
39
0
210
0
220
0
230
1
0
LINE
5
D1
100
AcDbEntity
8
1
62
256
6
ByLayer
370
18
48
1
60
0
100
AcDbLine
10
48.660508
20
-24.010355
30
0
11
51.243295
21
-25.734663
31
0
39
0
210
0
220
0
230
1
0
LINE
5
D2
100
AcDbEntity
8
1
62
256
6
ByLayer
370
18
48
1
60
0
100
AcDbLine
10
46.914604
20
-32.412389
30
0
11
46.79155
21
-32.31875
31
0
39
0
210
0
220
0
230
1
0
LINE
5
D3
100
AcDbEntity
8
1
62
256
6
ByLayer
370
18
48
1
60
0
100
AcDbLine
10
52.302765
20
-24.693039
30
0
11
50.12371
21
-23.034859
31
0
39
0
210
0
220
0
230
1
0
LINE
5
D4
100
AcDbEntity
8
1
62
256
6
ByLayer
370
18
48
1
60
0
100
AcDbLine
10
50.12371
20
-23.034859
30
0
11
48.432656
21
-22.674406
31
0
39
0
210
0
220
0
230
1
0
LINE
5
D5
100
AcDbEntity
8
1
62
256
6
ByLayer
370
18
48
1
60
0
100
AcDbLine
10
46.509257
20
-32.184077
30
0
11
45.642831
21
-32.507438
31
0
39
0
210
0
220
0
230
1
0
LINE
5
D6
100
AcDbEntity
8
1
62
256
6
ByLayer
370
18
48
1
60
0
100
AcDbLine
10
50.112035
20
-24.252342
30
0
11
50.12371
21
-23.034859
31
0
39
0
210
0
220
0
230
1
0
LINE
5
D7
100
AcDbEntity
8
1
62
256
6
ByLayer
370
18
48
1
60
0
100
AcDbLine
10
46.79155
20
-32.31875
30
0
11
49.878255
21
-31.80291
31
0
39
0
210
0
220
0
230
1
0
LINE
5
D8
100
AcDbEntity
8
1
62
256
6
ByLayer
370
18
48
1
60
0
100
AcDbLine
10
50.112035
20
-24.252342
30
0
11
48.812501
21
-23.975343
31
0
39
0
210
0
220
0
230
1
0
LINE
5
D9
100
AcDbEntity
8
1
62
256
6
ByLayer
370
18
48
1
60
0
100
AcDbLine
10
48.214137
20
-32.689388
30
0
11
46.914604
21
-32.412389
31
0
39
0
210
0
220
0
230
1
0
LINE
5
DA
100
AcDbEntity
8
1
62
256
6
ByLayer
370
18
48
1
60
0
100
AcDbLine
10
48.355676
20
-23.97588
30
0
11
47.823171
21
-22.814803
31
0
39
0
210
0
220
0
230
1
0
LINE
5
DB
100
AcDbEntity
8
1
62
256
6
ByLayer
370
18
48
1
60
0
100
AcDbLine
10
50.518851
20
-32.623377
30
0
11
47.827323
21
-33.243379
31
0
39
0
210
0
220
0
230
1
0
LINE
5
DC
100
AcDbEntity
8
1
62
256
6
ByLayer
370
18
48
1
60
0
100
AcDbLine
10
46.79155
20
-32.31875
30
0
11
46.509257
21
-32.184077
31
0
39
0
210
0
220
0
230
1
0
LINE
5
DD
100
AcDbEntity
8
1
62
256
6
ByLayer
370
18
48
1
60
0
100
AcDbLine
10
17.570491
20
2.225007
30
0
11
17.430319
21
2.344765
31
0
39
0
210
0
220
0
230
1
0
LINE
5
DE
100
AcDbEntity
8
1
62
256
6
ByLayer
370
18
48
1
60
0
100
AcDbLine
10
8.538675
20
23.83913
30
0
11
11.461325
21
23.83913
31
0
39
0
210
0
220
0
230
1
0
LINE
5
DF
100
AcDbEntity
8
1
62
256
6
ByLayer
370
18
48
1
60
0
100
AcDbLine
10
22.784513
20
24.647972
30
0
11
21.415098
21
24.647972
31
0
39
0
210
0
220
0
230
1
0
LINE
5
E0
100
AcDbEntity
8
1
62
256
6
ByLayer
370
18
48
1
60
0
100
AcDbLine
10
38.352266
20
-17.705248
30
0
11
38.097522
21
-17.863276
31
0
39
0
210
0
220
0
230
1
0
LINE
5
E1
100
AcDbEntity
8
1
62
256
6
ByLayer
370
18
48
1
60
0
100
AcDbLine
10
21.415098
20
-25.527545
30
0
11
24.288597
21
-15.702362
31
0
39
0
210
0
220
0
230
1
0
LINE
5
E2
100
AcDbEntity
8
1
62
256
6
ByLayer
370
18
48
1
60
0
100
AcDbLine
10
32.562192
20
-15.444786
30
0
11
32.353776
21
-15.383832
31
0
39
0
210
0
220
0
230
1
0
LINE
5
E3
100
AcDbEntity
8
1
62
256
6
ByLayer
370
18
48
1
60
0
100
AcDbLine
10
8.538675
20
13.690625
30
0
11
8.538675
21
7.529667
31
0
39
0
210
0
220
0
230
1
0
LINE
5
E4
100
AcDbEntity
8
1
62
256
6
ByLayer
370
18
48
1
60
0
100
AcDbLine
10
11.461325
20
-7.529667
30
0
11
11.461325
21
-23.83913
31
0
39
0
210
0
220
0
230
1
0
LINE
5
E5
100
AcDbEntity
8
1
62
256
6
ByLayer
370
18
48
1
60
0
100
AcDbLine
10
11.894338
20
23.666502
30
0
11
11.894338
21
15.277633
31
0
39
0
210
0
220
0
230
1
0
LINE
5
E6
100
AcDbEntity
8
1
62
256
6
ByLayer
370
18
48
1
60
0
100
AcDbLine
10
8.538675
20
23.83913
30
0
11
8.538675
21
15.626418
31
0
39
0
210
0
220
0
230
1
0
LINE
5
E7
100
AcDbEntity
8
1
62
256
6
ByLayer
370
18
48
1
60
0
100
AcDbLine
10
23.954444
20
-28.212354
30
0
11
26.424084
21
-17.233645
31
0
39
0
210
0
220
0
230
1
0
LINE
5
E8
100
AcDbEntity
8
1
62
256
6
ByLayer
370
18
48
1
60
0
100
AcDbLine
10
8.105662
20
14.368241
30
0
11
8.105662
21
8.055848
31
0
39
0
210
0
220
0
230
1
0
LINE
5
E9
100
AcDbEntity
8
1
62
256
6
ByLayer
370
18
48
1
60
0
100
AcDbLine
10
11.461325
20
-23.83913
30
0
11
8.538675
21
-23.83913
31
0
39
0
210
0
220
0
230
1
0
LINE
5
EA
100
AcDbEntity
8
1
62
256
6
ByLayer
370
18
48
1
60
0
100
AcDbLine
10
11.461325
20
23.83913
30
0
11
11.461325
21
15.626418
31
0
39
0
210
0
220
0
230
1
0
LINE
5
EB
100
AcDbEntity
8
1
62
256
6
ByLayer
370
18
48
1
60
0
100
AcDbLine
10
11.461325
20
13.690625
30
0
11
11.461325
21
7.529667
31
0
39
0
210
0
220
0
230
1
0
LINE
5
EC
100
AcDbEntity
8
1
62
256
6
ByLayer
370
18
48
1
60
0
100
AcDbLine
10
11.894338
20
14.368241
30
0
11
11.894338
21
8.055848
31
0
39
0
210
0
220
0
230
1
0
LINE
5
ED
100
AcDbEntity
8
1
62
256
6
ByLayer
370
18
48
1
60
0
100
AcDbLine
10
11.894338
20
-8.055848
30
0
11
11.894338
21
-23.666502
31
0
39
0
210
0
220
0
230
1
0
LINE
5
EE
100
AcDbEntity
8
1
62
256
6
ByLayer
370
18
48
1
60
0
100
AcDbLine
10
43.18333
20
-8.674847
30
0
11
51.20911
21
-21.785489
31
0
39
0
210
0
220
0
230
1
0
LINE
5
EF
100
AcDbEntity
8
1
62
256
6
ByLayer
370
18
48
1
60
0
100
AcDbLine
10
17.430319
20
-23.455355
30
0
11
17.430319
21
2.344765
31
0
39
0
210
0
220
0
230
1
0
LINE
5
F0
100
AcDbEntity
8
1
62
256
6
ByLayer
370
18
48
1
60
0
100
AcDbLine
10
11.461325
20
7.529667
30
0
11
8.538675
21
7.529667
31
0
39
0
210
0
220
0
230
1
0
LINE
5
F1
100
AcDbEntity
8
1
62
256
6
ByLayer
370
18
48
1
60
0
100
AcDbLine
10
8.538675
20
-7.529667
30
0
11
11.461325
21
-7.529667
31
0
39
0
210
0
220
0
230
1
0
LINE
5
F2
100
AcDbEntity
8
1
62
256
6
ByLayer
370
18
48
1
60
0
100
AcDbLine
10
43.18333
20
-8.674847
30
0
11
22.784513
21
24.647972
31
0
39
0
210
0
220
0
230
1
0
LINE
5
F3
100
AcDbEntity
8
1
62
256
6
ByLayer
370
18
48
1
60
0
100
AcDbLine
10
8.538675
20
-7.529667
30
0
11
8.538675
21
-23.83913
31
0
39
0
210
0
220
0
230
1
0
LINE
5
F4
100
AcDbEntity
8
1
62
256
6
ByLayer
370
18
48
1
60
0
100
AcDbLine
10
8.105662
20
23.666502
30
0
11
8.105662
21
15.277633
31
0
39
0
210
0
220
0
230
1
0
LINE
5
F5
100
AcDbEntity
8
1
62
256
6
ByLayer
370
18
48
1
60
0
100
AcDbLine
10
8.105662
20
-8.055848
30
0
11
8.105662
21
-23.666502
31
0
39
0
210
0
220
0
230
1
0
LINE
5
F6
100
AcDbEntity
8
1
62
256
6
ByLayer
370
18
48
1
60
0
100
AcDbLine
10
17.430319
20
2.344765
30
0
11
16.84526
21
2.844617
31
0
39
0
210
0
220
0
230
1
0
LINE
5
F7
100
AcDbEntity
8
1
62
256
6
ByLayer
370
18
48
1
60
0
100
AcDbLine
10
17.430319
20
8.623117
30
0
11
17.430319
21
23.455355
31
0
39
0
210
0
220
0
230
1
0
LINE
5
F8
100
AcDbEntity
8
1
62
256
6
ByLayer
370
18
48
1
60
0
100
AcDbLine
10
16.84526
20
2.844617
30
0
11
16.824691
21
5.24251
31
0
39
0
210
0
220
0
230
1
0
LINE
5
F9
100
AcDbEntity
8
1
62
256
6
ByLayer
370
18
48
1
60
0
100
AcDbLine
10
16.979981
20
9.116986
30
0
11
17.239564
21
10.103415
31
0
39
0
210
0
220
0
230
1
0
LINE
5
FA
100
AcDbEntity
8
SK1
62
256
6
ByLayer
370
18
48
1
60
0
100
AcDbLine
10
-1.307107
20
3.918065
30
0
11
-1.307107
21
-3.918065
31
0
39
0
210
0
220
0
230
1
0
LINE
5
FB
100
AcDbEntity
8
1
62
256
6
ByLayer
370
18
48
1
60
0
100
AcDbLine
10
51.364139
20
-21.113234
30
0
11
52.262709
21
-21.988699
31
0
39
0
210
0
220
0
230
1
0
LINE
5
FC
100
AcDbEntity
8
1
62
256
6
ByLayer
370
18
48
1
60
0
100
AcDbLine
10
45.709171
20
-34.293982
30
0
11
59.160205
21
-34.998921
31
0
39
0
210
0
220
0
230
1
0
LINE
5
FD
100
AcDbEntity
8
1
62
256
6
ByLayer
370
18
48
1
60
0
100
AcDbLine
10
59.885323
20
-33.792938
30
0
11
52.885615
21
-22.358452
31
0
39
0
210
0
220
0
230
1
0
LINE
5
FE
100
AcDbEntity
8
1
62
256
6
ByLayer
370
18
48
1
60
0
100
AcDbLine
10
44.187695
20
-33.048764
30
0
11
45.086266
21
-33.92423
31
0
39
0
210
0
220
0
230
1
0
LINE
5
FF
100
AcDbEntity
8
1
62
256
6
ByLayer
370
18
48
1
60
0
100
AcDbLine
10
50.958101
20
-21.095332
30
0
11
50.639599
21
-20.78502
31
0
39
0
210
0
220
0
230
1
0
LINE
5
100
100
AcDbEntity
8
1
62
256
6
ByLayer
370
18
48
1
60
0
100
AcDbLine
10
26.308426
20
-26.001488
30
0
11
26.233492
21
-25.847032
31
0
39
0
210
0
220
0
230
1
0
LINE
5
101
100
AcDbEntity
8
1
62
256
6
ByLayer
370
18
48
1
60
0
100
AcDbLine
10
45.964676
20
-31.861152
30
0
11
45.990982
21
-31.859752
31
0
39
0
210
0
220
0
230
1
0
LINE
5
102
100
AcDbEntity
8
1
62
256
6
ByLayer
370
18
48
1
60
0
100
AcDbLine
10
36.423755
20
-33.090339
30
0
11
38.190418
21
-33.232873
31
0
39
0
210
0
220
0
230
1
0
LINE
5
103
100
AcDbEntity
8
1
62
256
6
ByLayer
370
18
48
1
60
0
100
AcDbLine
10
38.190418
20
-33.232873
30
0
11
44.451496
21
-32.353156
31
0
39
0
210
0
220
0
230
1
0
LINE
5
104
100
AcDbEntity
8
1
62
256
6
ByLayer
370
18
48
1
60
0
100
AcDbLine
10
47.756998
20
-24.008979
30
0
11
47.73311
21
-23.999631
31
0
39
0
210
0
220
0
230
1
0
LINE
5
105
100
AcDbEntity
8
1
62
256
6
ByLayer
370
18
48
1
60
0
100
AcDbLine
10
26.883492
20
-26.336999
30
0
11
26.73955
21
-26.142282
31
0
39
0
210
0
220
0
230
1
0
LINE
5
106
100
AcDbEntity
8
1
62
256
6
ByLayer
370
18
48
1
60
0
100
AcDbLine
10
27.467555
20
-20.848616
30
0
11
28.042621
21
-21.184127
31
0
39
0
210
0
220
0
230
1
0
LINE
5
107
100
AcDbEntity
8
1
62
256
6
ByLayer
370
18
48
1
60
0
100
AcDbLine
10
28.042621
20
-21.184127
30
0
11
27.833068
21
-21.281082
31
0
39
0
210
0
220
0
230
1
0
LINE
5
108
100
AcDbEntity
8
1
62
256
6
ByLayer
370
18
48
1
60
0
100
AcDbLine
10
27.32701
20
-20.985832
30
0
11
27.833068
21
-21.281082
31
0
39
0
210
0
220
0
230
1
0
LINE
5
109
100
AcDbEntity
8
1
62
256
6
ByLayer
370
18
48
1
60
0
100
AcDbLine
10
31.178709
20
-16.926482
30
0
11
33.014108
21
-17.498737
31
0
39
0
210
0
220
0
230
1
0
LINE
5
10A
100
AcDbEntity
8
1
62
256
6
ByLayer
370
18
48
1
60
0
100
AcDbLine
10
26.308426
20
-26.001488
30
0
11
26.883492
21
-26.336999
31
0
39
0
210
0
220
0
230
1
0
LINE
5
10B
100
AcDbEntity
8
1
62
256
6
ByLayer
370
18
48
1
60
0
100
AcDbLine
10
26.73955
20
-26.142282
30
0
11
27.833068
21
-21.281082
31
0
39
0
210
0
220
0
230
1
0
LINE
5
10C
100
AcDbEntity
8
1
62
256
6
ByLayer
370
18
48
1
60
0
100
AcDbLine
10
26.883492
20
-26.336999
30
0
11
28.042621
21
-21.184127
31
0
39
0
210
0
220
0
230
1
0
LINE
5
10D
100
AcDbEntity
8
1
62
256
6
ByLayer
370
18
48
1
60
0
100
AcDbLine
10
36.001095
20
-30.321503
30
0
11
35.511905
21
-30.036095
31
0
39
0
210
0
220
0
230
1
0
LINE
5
10E
100
AcDbEntity
8
1
62
256
6
ByLayer
370
18
48
1
60
0
100
AcDbLine
10
39.072843
20
-19.033999
30
0
11
32.271296
21
-17.58423
31
0
39
0
210
0
220
0
230
1
0
LINE
5
10F
100
AcDbEntity
8
1
62
256
6
ByLayer
370
18
48
1
60
0
100
AcDbLine
10
37.816335
20
-22.251911
30
0
11
35.825404
21
-21.827539
31
0
39
0
210
0
220
0
230
1
0
LINE
5
110
100
AcDbEntity
8
1
62
256
6
ByLayer
370
18
48
1
60
0
100
AcDbLine
10
41.331001
20
-19.271506
30
0
11
33.014108
21
-17.498737
31
0
39
0
210
0
220
0
230
1
0
LINE
5
111
100
AcDbEntity
8
1
62
256
6
ByLayer
370
18
48
1
60
0
100
AcDbLine
10
27.058382
20
-28.121788
30
0
11
28.886743
21
-19.993862
31
0
39
0
210
0
220
0
230
1
0
LINE
5
112
100
AcDbEntity
8
1
62
256
6
ByLayer
370
18
48
1
60
0
100
AcDbLine
10
26.233492
20
-25.847032
30
0
11
26.73955
21
-26.142282
31
0
39
0
210
0
220
0
230
1
0
LINE
5
113
100
AcDbEntity
8
1
62
256
6
ByLayer
370
18
48
1
60
0
100
AcDbLine
10
27.467555
20
-20.848616
30
0
11
27.32701
21
-20.985832
31
0
39
0
210
0
220
0
230
1
0
LINE
5
114
100
AcDbEntity
8
1
62
256
6
ByLayer
370
18
48
1
60
0
100
AcDbLine
10
28.776804
20
-30.884768
30
0
11
36.320239
21
-32.492672
31
0
39
0
210
0
220
0
230
1
0
LINE
5
115
100
AcDbEntity
8
1
62
256
6
ByLayer
370
18
48
1
60
0
100
AcDbLine
10
29.988422
20
-27.444614
30
0
11
29.568829
21
-27.199811
31
0
39
0
210
0
220
0
230
1
0
LINE
5
116
100
AcDbEntity
8
1
62
256
6
ByLayer
370
18
48
1
60
0
100
AcDbLine
10
34.010165
20
-29.897131
30
0
11
33.529266
21
-29.61656
31
0
39
0
210
0
220
0
230
1
0
LINE
5
117
100
AcDbEntity
8
1
62
256
6
ByLayer
370
18
48
1
60
0
100
AcDbLine
10
27.169599
20
-18.992027
30
0
11
25.341238
21
-27.119953
31
0
39
0
210
0
220
0
230
1
0
LINE
5
118
100
AcDbEntity
8
1
62
256
6
ByLayer
370
18
48
1
60
0
100
AcDbLine
10
47.73311
20
-23.999631
30
0
11
46.798053
21
-23.410434
31
0
39
0
210
0
220
0
230
1
0
LINE
5
119
100
AcDbEntity
8
1
62
256
6
ByLayer
370
18
48
1
60
0
100
AcDbLine
10
34.010165
20
-29.897131
30
0
11
36.001095
21
-30.321503
31
0
39
0
210
0
220
0
230
1
0
LINE
5
11A
100
AcDbEntity
8
1
62
256
6
ByLayer
370
18
48
1
60
0
100
AcDbLine
10
29.130713
20
-31.545597
30
0
11
35.932261
21
-32.995365
31
0
39
0
210
0
220
0
230
1
0
LINE
5
11B
100
AcDbEntity
8
1
62
256
6
ByLayer
370
18
48
1
60
0
100
AcDbLine
10
39.564338
20
-19.128972
30
0
11
41.331001
21
-19.271506
31
0
39
0
210
0
220
0
230
1
0
LINE
5
11C
100
AcDbEntity
8
1
62
256
6
ByLayer
370
18
48
1
60
0
100
AcDbLine
10
46.641462
20
-22.617728
30
0
11
41.331001
21
-19.271506
31
0
39
0
210
0
220
0
230
1
0
LINE
5
11D
100
AcDbEntity
8
1
62
256
6
ByLayer
370
18
48
1
60
0
100
AcDbLine
10
29.310819
20
-21.848918
30
0
11
28.17356
21
-26.904566
31
0
39
0
210
0
220
0
230
1
0
LINE
5
11E
100
AcDbEntity
8
1
62
256
6
ByLayer
370
18
48
1
60
0
100
AcDbLine
10
31.592392
20
-18.368155
30
0
11
39.135827
21
-19.976059
31
0
39
0
210
0
220
0
230
1
0
LINE
5
11F
100
AcDbEntity
8
1
62
256
6
ByLayer
370
18
48
1
60
0
100
AcDbLine
10
44.862236
20
-32.016051
30
0
11
45.964676
21
-31.861152
31
0
39
0
210
0
220
0
230
1
0
LINE
5
120
100
AcDbEntity
8
1
62
256
6
ByLayer
370
18
48
1
60
0
100
AcDbLine
10
27.169599
20
-18.992027
30
0
11
28.886743
21
-19.993862
31
0
39
0
210
0
220
0
230
1
0
LINE
5
121
100
AcDbEntity
8
1
62
256
6
ByLayer
370
18
48
1
60
0
100
AcDbLine
10
25.341238
20
-27.119953
30
0
11
27.058382
21
-28.121788
31
0
39
0
210
0
220
0
230
1
0
LINE
5
122
100
AcDbEntity
8
1
62
256
6
ByLayer
370
18
48
1
60
0
100
AcDbLine
10
26.233492
20
-25.847032
30
0
11
27.32701
21
-20.985832
31
0
39
0
210
0
220
0
230
1
0
LINE
5
123
100
AcDbEntity
8
1
62
256
6
ByLayer
370
18
48
1
60
0
100
AcDbLine
10
29.568829
20
-27.199811
30
0
11
28.17356
21
-26.904566
31
0
39
0
210
0
220
0
230
1
0
MTEXT
5
202
100
AcDbEntity
8
SK6
62
256
6
ByLayer
370
18
48
1
60
0
100
AcDbMText
10
-1.625
20
34.16153
30
0
210
0
220
0
230
1
1
\W0.7286;C5-DDJNL-35060-15-2
40
3.5
41
0
44
1.084337
50
0
71
7
72
5
7
iso_b_vert
0
DIMENSION
5
213
100
AcDbEntity
8
2
62
256
6
ByLayer
370
13
48
1
60
0
100
AcDbDimension
2
DimnDraft3D1
10
60
20
-33.4125
30
0
11
47.711865
21
-46.703693
31
0
70
34
71
5
72
1
41
1
210
0
220
0
230
1
3
Standard
100
AcDb2LineAngularDimension
13
44.185265
23
-34.213873
33
0
14
59.164708
24
-34.998912
34
0
15
60
25
-35
35
0
16
44.44768
26
-49.801289
36
0
40
0
0
DIMENSION
5
228
100
AcDbEntity
8
2
62
256
6
ByLayer
370
13
48
1
60
0
100
AcDbDimension
2
DimnDraft3D2
10
60
20
-62.25
30
0
11
24.718421
21
-62.25
31
0
70
32
71
5
72
1
41
1
210
0
220
0
230
1
3
Standard
100
AcDbAlignedDimension
13
0
23
-27
33
0
14
60
24
-37
34
0
50
0
100
AcDbRotatedDimension
1001
ACAD
1000
DSTYLE
1002
{
1070
   279
1070
     0
1070
   172
1070
     1
1070
   173
1070
     1
1070
   340
1005
203
1070
    77
1070
     1
1070
    73
1070
     0
1070
   171
1070
     3
1070
   274
1070
     4
1070
   177
1070
     2
1070
   176
1070
     2
1070
   178
1070
     7
1070
    78
1070
     8
1070
    41
1041
3.175
1070
   147
1041
2.25
1070
    42
1041
2.0
1070
    44
1041
2.0
1070
   140
1041
4.5
1070
   343
1005
214
1070
   344
1005
214
1002
}
0
DIMENSION
5
237
100
AcDbEntity
8
SK2
62
256
6
ByLayer
370
13
48
1
60
0
100
AcDbDimension
2
DimnDraft3D3
10
-37.75
20
25
30
0
11
-37.75
21
-2.688158
31
0
70
32
71
5
72
1
41
1
210
0
220
0
230
1
3
Standard
100
AcDbAlignedDimension
13
-2
23
-25
33
0
14
-2
24
25
34
0
50
90
100
AcDbRotatedDimension
1001
ACAD
1000
DSTYLE
1002
{
1070
    74
1070
     0
1070
   279
1070
     0
1070
   172
1070
     1
1070
   173
1070
     1
1070
   340
1005
203
1070
    77
1070
     1
1070
    73
1070
     0
1070
   171
1070
     3
1070
   274
1070
     4
1070
   177
1070
     2
1070
   176
1070
     2
1070
   178
1070
     7
1070
    78
1070
     8
1070
    41
1041
3.175
1070
   147
1041
2.25
1070
    42
1041
2.0
1070
    44
1041
2.0
1070
   140
1041
4.5
1070
   343
1005
214
1070
   344
1005
214
1002
}
0
DIMENSION
5
245
100
AcDbEntity
8
2
62
256
6
ByLayer
370
13
48
1
60
0
100
AcDbDimension
2
DimnDraft3D4
10
82.25
20
-35
30
0
11
82.25
21
-22.781579
31
0
70
32
71
5
72
1
41
1
210
0
220
0
230
1
3
Standard
100
AcDbAlignedDimension
13
62
23
0
33
0
14
62
24
-35
34
0
50
90
100
AcDbRotatedDimension
1001
ACAD
1000
DSTYLE
1002
{
1070
    74
1070
     0
1070
   279
1070
     0
1070
   172
1070
     1
1070
   173
1070
     1
1070
   340
1005
203
1070
    77
1070
     1
1070
    73
1070
     0
1070
   171
1070
     3
1070
   274
1070
     4
1070
   177
1070
     2
1070
   176
1070
     2
1070
   178
1070
     7
1070
    78
1070
     8
1070
    41
1041
3.175
1070
   147
1041
2.25
1070
    42
1041
2.0
1070
    44
1041
2.0
1070
   140
1041
4.5
1070
   343
1005
214
1070
   344
1005
214
1002
}
0
ENDSEC
0
SECTION
2
OBJECTS
0
DICTIONARY
5
2b0
330
0
100
AcDbDictionary
280
0
281
1
3
ACAD_GROUP
350
2b1
3
ACAD_MLINESTYLE
350
2b2
0
DICTIONARY
5
2b1
330
0
100
AcDbDictionary
280
0
281
1
0
DICTIONARY
5
2b2
330
0
100
AcDbDictionary
280
0
281
1
3
Standard
350
18
0
MLINESTYLE
5
18
330
2b2
100
AcDbMlineStyle
2
Standard
70
0
3

62
256
51
90
52
90
71
2
49
-0.5
62
256
6
ByLayer
49
0.5
62
256
6
ByLayer
0
RASTERVARIABLES
5
29e
330

100
AcDbRasterVariables
90
0
70
1
71
1
72
1
0
ENDSEC
0
EOF
