0
SECTION
2
HEADER
9
$ACADVER
1
AC1015
9
$DWGCODEPAGE
3
ANSI_1252
9
$HANDSEED
5
32b
9
$ANGBASE
50
0
9
$ANGDIR
70
0
9
$ATTMODE
70
1
9
$AUNITS
70
0
9
$AUPREC
70
0
9
$CECOLOR
62
256
9
$CELTSCALE
40
1
9
$CELTYPE
6
ByLayer
9
$CELWEIGHT
370
18
9
$CLAYER
8
0
9
$CMLJUST
70
0
9
$CMLSCALE
40
1
9
$CMLSTYLE
2
Standard
9
$DIMSTYLE
2
Standard
9
$TEXTSIZE
40
0.2
9
$TEXTSTYLE
7
Standard
9
$LUNITS
70
2
9
$LUPREC
70
4
9
$EXTNAMES
290
1
9
$INSUNITS
70
4
9
$LTSCALE
40
1
9
$LWDISPLAY
290
1
9
$PDMODE
70
0
9
$PDSIZE
40
0
9
$PLINEGEN
70
0
0
ENDSEC
0
SECTION
2
CLASSES
0
CLASS
1
RASTERVARIABLES
2
AcDbRasterVariables
3
ISM
90
0
280
0
281
0
0
ENDSEC
0
SECTION
2
TABLES
0
TABLE
2
VPORT
5
321
100
AcDbSymbolTable
0
VPORT
5
1
100
AcDbSymbolTableRecord
100
AcDbViewportTableRecord
2
*Active
70
0
10
0
20
0
11
1
21
1
12
-1
22
1
13
0
23
0
14
0.5
24
0.5
15
10
25
10
16
0
26
0
36
1
17
0
27
0
37
0
0
ENDTAB
0
TABLE
2
LTYPE
5
322
100
AcDbSymbolTable
0
LTYPE
5
14
100
AcDbSymbolTableRecord
100
AcDbLinetypeTableRecord
70
0
2
ByBlock
3

72
65
73
0
40
0
0
LTYPE
5
15
100
AcDbSymbolTableRecord
100
AcDbLinetypeTableRecord
70
0
2
ByLayer
3

72
65
73
0
40
0
0
LTYPE
5
16
100
AcDbSymbolTableRecord
100
AcDbLinetypeTableRecord
70
0
2
CONTINUOUS
3
Solid line
72
65
73
0
40
0
0
LTYPE
5
6A
100
AcDbSymbolTableRecord
100
AcDbLinetypeTableRecord
70
0
2
CENTER
3
____ _ ____ _ ____ _ ____
72
65
73
4
40
47.5
49
22
74
0
49
-8.5
74
0
49
8.5
74
0
49
-8.5
74
0
0
LTYPE
5
6B
100
AcDbSymbolTableRecord
100
AcDbLinetypeTableRecord
70
0
2
DASHED
3
__ __ __ __ __ __ __ __ __
72
65
73
2
40
25.72
49
12.86
74
0
49
-12.86
74
0
0
ENDTAB
0
TABLE
2
LAYER
5
323
100
AcDbSymbolTable
0
LAYER
5
10
100
AcDbSymbolTableRecord
100
AcDbLayerTableRecord
2
0
70
0
62
7
6
CONTINUOUS
290
1
370
-3
390
0
0
LAYER
5
6D
100
AcDbSymbolTableRecord
100
AcDbLayerTableRecord
2
80
70
0
62
-6
6
CONTINUOUS
290
1
370
-3
390
0
0
LAYER
5
6F
100
AcDbSymbolTableRecord
100
AcDbLayerTableRecord
2
81
70
0
62
-3
6
CONTINUOUS
290
1
370
-3
390
0
0
LAYER
5
71
100
AcDbSymbolTableRecord
100
AcDbLayerTableRecord
2
1
70
0
62
4
6
CONTINUOUS
290
1
370
-3
390
0
0
LAYER
5
E8
100
AcDbSymbolTableRecord
100
AcDbLayerTableRecord
2
4
70
0
62
-2
6
CENTER
290
1
370
-3
390
0
0
LAYER
5
299
100
AcDbSymbolTableRecord
100
AcDbLayerTableRecord
2
2
70
0
62
7
6
CONTINUOUS
290
1
370
-3
390
0
0
LAYER
5
30d
100
AcDbSymbolTableRecord
100
AcDbLayerTableRecord
2
SK1
70
0
62
4
6
CONTINUOUS
290
1
370
-3
390
0
0
LAYER
5
30e
100
AcDbSymbolTableRecord
100
AcDbLayerTableRecord
2
SK4
70
0
62
2
6
CENTER
290
1
370
-3
390
0
0
LAYER
5
30f
100
AcDbSymbolTableRecord
100
AcDbLayerTableRecord
2
SK6
70
0
62
5
6
CONTINUOUS
290
1
370
-3
390
0
0
LAYER
5
310
100
AcDbSymbolTableRecord
100
AcDbLayerTableRecord
2
SK2
70
0
62
7
6
CONTINUOUS
290
1
370
-3
390
0
0
ENDTAB
0
TABLE
2
STYLE
5
324
100
AcDbSymbolTable
0
STYLE
5
11
100
AcDbSymbolTableRecord
100
AcDbTextStyleTableRecord
2
Standard
3
txt
70
0
71
0
40
0
41
1
42
0
50
0
0
STYLE
5
27C
100
AcDbSymbolTableRecord
100
AcDbTextStyleTableRecord
2
iso_b_vert
3
simplex.shx
70
0
71
0
40
0
41
1
42
0
50
0
0
STYLE
5
27D
100
AcDbSymbolTableRecord
100
AcDbTextStyleTableRecord
2
DWGDirectTextStyle
3
simplex
70
0
71
0
40
0
41
1
42
0
50
0
0
STYLE
5
283
100
AcDbSymbolTableRecord
100
AcDbTextStyleTableRecord
2
blockfont
3
simplex.shx
70
0
71
0
40
0
41
1
42
0
50
0
0
ENDTAB
0
TABLE
2
DIMSTYLE
5
325
100
AcDbSymbolTable
100
AcDbDimStyleTable
0
DIMSTYLE
105
27
100
AcDbSymbolTableRecord
100
AcDbDimStyleTableRecord
2
Standard
70
0
3
<>
41
0.18
42
0.0625
44
0.18
140
0.18
147
0.09
73
0
74
0
77
1
271
2
275
0
278
52
280
0
340
11
0
ENDTAB
0
TABLE
2
VIEW
5
326
100
AcDbSymbolTable
0
ENDTAB
0
TABLE
2
UCS
5
327
100
AcDbSymbolTable
0
ENDTAB
0
TABLE
2
APPID
5
328
100
AcDbSymbolTable
0
APPID
5
12
100
AcDbSymbolTableRecord
100
AcDbRegAppTableRecord
2
ACAD
70
0
0
ENDTAB
0
TABLE
2
BLOCK_RECORD
5
329
100
AcDbSymbolTable
0
BLOCK_RECORD
5
1F
100
AcDbSymbolTableRecord
100
AcDbBlockTableRecord
2
*Model_Space
340
0
70
0
0
BLOCK_RECORD
5
1B
100
AcDbSymbolTableRecord
100
AcDbBlockTableRecord
2
*Paper_Space
340
0
70
0
0
BLOCK_RECORD
5
23
100
AcDbSymbolTableRecord
100
AcDbBlockTableRecord
2
*Paper_Space0
340
0
70
0
0
BLOCK_RECORD
5
27F
100
AcDbSymbolTableRecord
100
AcDbBlockTableRecord
2
DimnDraft3D1
340
0
70
0
0
BLOCK_RECORD
5
290
100
AcDbSymbolTableRecord
100
AcDbBlockTableRecord
2
_CLOSED
340
0
70
0
0
BLOCK_RECORD
5
297
100
AcDbSymbolTableRecord
100
AcDbBlockTableRecord
2
DimnDraft3D2
340
0
70
0
0
BLOCK_RECORD
5
2A6
100
AcDbSymbolTableRecord
100
AcDbBlockTableRecord
2
DimnDraft3D3
340
0
70
0
0
ENDTAB
0
ENDSEC
0
SECTION
2
BLOCKS
0
BLOCK
5
20
100
AcDbEntity
8
0
100
AcDbBlockBegin
2
*Model_Space
70
0
10
0
20
0
30
0
3
*Model_Space
0
ENDBLK
5
21
100
AcDbEntity
8
0
100
AcDbBlockEnd
0
BLOCK
5
1C
100
AcDbEntity
8
0
100
AcDbBlockBegin
2
*Paper_Space
70
0
10
0
20
0
30
0
3
*Paper_Space
0
ENDBLK
5
1D
100
AcDbEntity
8
0
100
AcDbBlockEnd
0
BLOCK
5
24
100
AcDbEntity
8
0
100
AcDbBlockBegin
2
*Paper_Space0
70
0
10
0
20
0
30
0
3
*Paper_Space0
0
ENDBLK
5
25
100
AcDbEntity
8
0
100
AcDbBlockEnd
0
BLOCK
5
28D
100
AcDbEntity
8
0
100
AcDbBlockBegin
2
DimnDraft3D1
70
0
10
0
20
0
30
0
3
DimnDraft3D1
0
MTEXT
5
280
100
AcDbEntity
8
SK2
62
256
6
ByLayer
370
18
48
1
60
0
100
AcDbMText
10
-57.53591
20
-4.789804
30
0
210
0
220
0
230
1
1
%%c
40
3
41
0
44
1.084337
50
90
71
7
72
5
7
iso_b_vert
0
MTEXT
5
282
100
AcDbEntity
8
SK2
62
256
6
ByLayer
370
18
48
1
60
0
100
AcDbMText
10
-57.31716
20
2.686758
30
0
210
0
220
0
230
1
1
\W1.1795;50
40
3
41
0
44
0.903614
50
90
71
7
72
5
7
blockfont
0
LINE
5
284
100
AcDbEntity
8
SK2
62
256
6
ByLayer
370
18
48
1
60
0
100
AcDbLine
10
-1.7
20
25
30
0
11
-58.03591
21
25
31
0
39
0
210
0
220
0
230
1
0
LINE
5
285
100
AcDbEntity
8
SK2
62
256
6
ByLayer
370
18
48
1
60
0
100
AcDbLine
10
-1.7
20
-25
30
0
11
-58.03591
21
-25
31
0
39
0
210
0
220
0
230
1
0
LINE
5
286
100
AcDbEntity
8
SK2
62
256
6
ByLayer
370
18
48
1
60
0
100
AcDbLine
10
-56.03591
20
25
30
0
11
-56.03591
21
-25
31
0
39
0
210
0
220
0
230
1
0
LINE
5
287
100
AcDbEntity
8
SK2
62
256
6
ByLayer
370
18
48
1
60
0
100
AcDbLine
10
-56.03591
20
25
30
0
11
-55.617913
21
21.825002
31
0
39
0
210
0
220
0
230
1
0
LINE
5
288
100
AcDbEntity
8
SK2
62
256
6
ByLayer
370
18
48
1
60
0
100
AcDbLine
10
-56.03591
20
25
30
0
11
-56.453907
21
21.824998
31
0
39
0
210
0
220
0
230
1
0
LINE
5
289
100
AcDbEntity
8
SK2
62
256
6
ByLayer
370
18
48
1
60
0
100
AcDbLine
10
-55.617913
20
21.825002
30
0
11
-56.453907
21
21.824998
31
0
39
0
210
0
220
0
230
1
0
LINE
5
28A
100
AcDbEntity
8
SK2
62
256
6
ByLayer
370
18
48
1
60
0
100
AcDbLine
10
-56.03591
20
-25
30
0
11
-56.453907
21
-21.825002
31
0
39
0
210
0
220
0
230
1
0
LINE
5
28B
100
AcDbEntity
8
SK2
62
256
6
ByLayer
370
18
48
1
60
0
100
AcDbLine
10
-56.03591
20
-25
30
0
11
-55.617913
21
-21.824998
31
0
39
0
210
0
220
0
230
1
0
LINE
5
28C
100
AcDbEntity
8
SK2
62
256
6
ByLayer
370
18
48
1
60
0
100
AcDbLine
10
-56.453907
20
-21.825002
30
0
11
-55.617913
21
-21.824998
31
0
39
0
210
0
220
0
230
1
0
ENDBLK
5
28E
100
AcDbEntity
8
0
100
AcDbBlockEnd
0
BLOCK
5
291
100
AcDbEntity
8
0
100
AcDbBlockBegin
2
_CLOSED
70
0
10
0
20
0
30
0
3
_CLOSED
0
LINE
5
293
100
AcDbEntity
8
0
62
256
6
ByLayer
370
-2
48
1
60
0
100
AcDbLine
10
-1
20
0.166667
30
0
11
0
21
0
31
0
39
0
210
0
220
0
230
1
0
LINE
5
294
100
AcDbEntity
8
0
62
256
6
ByLayer
370
-2
48
1
60
0
100
AcDbLine
10
0
20
0
30
0
11
-1
21
-0.166667
31
0
39
0
210
0
220
0
230
1
0
LINE
5
295
100
AcDbEntity
8
0
62
256
6
ByLayer
370
-2
48
1
60
0
100
AcDbLine
10
-1
20
0.166667
30
0
11
-1
21
-0.166667
31
0
39
0
210
0
220
0
230
1
0
LINE
5
296
100
AcDbEntity
8
0
62
256
6
ByLayer
370
-2
48
1
60
0
100
AcDbLine
10
0
20
0
30
0
11
-1
21
0
31
0
39
0
210
0
220
0
230
1
0
ENDBLK
5
292
100
AcDbEntity
8
0
100
AcDbBlockEnd
0
BLOCK
5
2A3
100
AcDbEntity
8
0
100
AcDbBlockBegin
2
DimnDraft3D2
70
0
10
0
20
0
30
0
3
DimnDraft3D2
0
MTEXT
5
298
100
AcDbEntity
8
2
62
256
6
ByLayer
370
18
48
1
60
0
100
AcDbMText
10
36.223517
20
-47.85411
30
0
210
0
220
0
230
1
1
\W1.1628;105
40
3
41
0
44
0.903614
50
0
71
7
72
5
7
blockfont
0
LINE
5
29A
100
AcDbEntity
8
2
62
256
6
ByLayer
370
18
48
1
60
0
100
AcDbLine
10
0
20
-26.7
30
0
11
0
21
-50.38536
31
0
39
0
210
0
220
0
230
1
0
LINE
5
29B
100
AcDbEntity
8
2
62
256
6
ByLayer
370
18
48
1
60
0
100
AcDbLine
10
104.999863
20
-2
30
0
11
104.999863
21
-50.38536
31
0
39
0
210
0
220
0
230
1
0
LINE
5
29C
100
AcDbEntity
8
2
62
256
6
ByLayer
370
18
48
1
60
0
100
AcDbLine
10
0
20
-48.38536
30
0
11
104.999863
21
-48.38536
31
0
39
0
210
0
220
0
230
1
0
LINE
5
29D
100
AcDbEntity
8
2
62
256
6
ByLayer
370
18
48
1
60
0
100
AcDbLine
10
0
20
-48.38536
30
0
11
3.174998
21
-47.967363
31
0
39
0
210
0
220
0
230
1
0
LINE
5
29E
100
AcDbEntity
8
2
62
256
6
ByLayer
370
18
48
1
60
0
100
AcDbLine
10
0
20
-48.38536
30
0
11
3.175002
21
-48.803356
31
0
39
0
210
0
220
0
230
1
0
LINE
5
29F
100
AcDbEntity
8
2
62
256
6
ByLayer
370
18
48
1
60
0
100
AcDbLine
10
3.174998
20
-47.967363
30
0
11
3.175002
21
-48.803356
31
0
39
0
210
0
220
0
230
1
0
LINE
5
2A0
100
AcDbEntity
8
2
62
256
6
ByLayer
370
18
48
1
60
0
100
AcDbLine
10
104.999863
20
-48.38536
30
0
11
101.824864
21
-48.803356
31
0
39
0
210
0
220
0
230
1
0
LINE
5
2A1
100
AcDbEntity
8
2
62
256
6
ByLayer
370
18
48
1
60
0
100
AcDbLine
10
104.999863
20
-48.38536
30
0
11
101.824861
21
-47.967363
31
0
39
0
210
0
220
0
230
1
0
LINE
5
2A2
100
AcDbEntity
8
2
62
256
6
ByLayer
370
18
48
1
60
0
100
AcDbLine
10
101.824864
20
-48.803356
30
0
11
101.824861
21
-47.967363
31
0
39
0
210
0
220
0
230
1
0
ENDBLK
5
2A4
100
AcDbEntity
8
0
100
AcDbBlockEnd
0
BLOCK
5
2B1
100
AcDbEntity
8
0
100
AcDbBlockBegin
2
DimnDraft3D3
70
0
10
0
20
0
30
0
3
DimnDraft3D3
0
MTEXT
5
2A7
100
AcDbEntity
8
2
62
256
6
ByLayer
370
18
48
1
60
0
100
AcDbMText
10
83.033604
20
-26.61367
30
0
210
0
220
0
230
1
1
\W1.4382;49%%d41'
40
3
41
0
44
0.903614
50
335.154276838649
71
7
72
5
7
blockfont
0
LINE
5
2A8
100
AcDbEntity
8
2
62
256
6
ByLayer
370
18
48
1
60
0
100
AcDbLine
10
94.644504
20
-9.154889
30
0
11
77.871107
21
-23.38407
31
0
39
0
210
0
220
0
230
1
0
LINE
5
2A9
100
AcDbEntity
8
2
62
256
6
ByLayer
370
18
48
1
60
0
100
AcDbLine
10
104.999863
20
-2
30
0
11
104.999863
21
-35.945596
31
0
39
0
210
0
220
0
230
1
0
ARC
5
2AA
100
AcDbEntity
8
2
62
256
6
ByLayer
370
18
48
1
60
0
100
AcDbCircle
39
0
10
104.999863
20
-0.370248
30
0
40
33.575348032795
210
0
220
0
230
1
100
AcDbArc
50
220.308554
51
270
0
LINE
5
2AB
100
AcDbEntity
8
2
62
256
6
ByLayer
370
18
48
1
60
0
100
AcDbLine
10
79.39625
20
-22.090263
30
0
11
81.819062
21
-24.184378
31
0
39
0
210
0
220
0
230
1
0
LINE
5
2AC
100
AcDbEntity
8
2
62
256
6
ByLayer
370
18
48
1
60
0
100
AcDbLine
10
79.39625
20
-22.090263
30
0
11
81.194511
21
-24.740095
31
0
39
0
210
0
220
0
230
1
0
LINE
5
2AD
100
AcDbEntity
8
2
62
256
6
ByLayer
370
18
48
1
60
0
100
AcDbLine
10
81.819062
20
-24.184378
30
0
11
81.194511
21
-24.740095
31
0
39
0
210
0
220
0
230
1
0
LINE
5
2AE
100
AcDbEntity
8
2
62
256
6
ByLayer
370
18
48
1
60
0
100
AcDbLine
10
104.999863
20
-33.945596
30
0
11
101.815876
21
-34.28848
31
0
39
0
210
0
220
0
230
1
0
LINE
5
2AF
100
AcDbEntity
8
2
62
256
6
ByLayer
370
18
48
1
60
0
100
AcDbLine
10
104.999863
20
-33.945596
30
0
11
101.83562
21
-33.452719
31
0
39
0
210
0
220
0
230
1
0
LINE
5
2B0
100
AcDbEntity
8
2
62
256
6
ByLayer
370
18
48
1
60
0
100
AcDbLine
10
101.815876
20
-34.28848
30
0
11
101.83562
21
-33.452719
31
0
39
0
210
0
220
0
230
1
0
ENDBLK
5
2B2
100
AcDbEntity
8
0
100
AcDbBlockEnd
0
ENDSEC
0
SECTION
2
ENTITIES
0
ARC
5
ED
100
AcDbEntity
8
1
62
256
6
ByLayer
370
18
48
1
60
0
100
AcDbCircle
39
0
10
-0.6
20
18.75
30
0
40
1
210
0
220
0
230
1
100
AcDbArc
50
323.130102
51
336.421822
0
ARC
5
EE
100
AcDbEntity
8
1
62
256
6
ByLayer
370
18
48
1
60
0
100
AcDbCircle
39
0
10
36.302192
20
-8.86362
30
0
40
0.25
210
0
220
0
230
1
100
AcDbArc
50
325
51
16.832694
0
ARC
5
EF
100
AcDbEntity
8
1
62
256
6
ByLayer
370
18
48
1
60
0
100
AcDbCircle
39
0
10
32.710274
20
-11.135321
30
0
40
3.99999999996621
210
0
220
0
230
1
100
AcDbArc
50
317.45415
51
337.688782
0
ARC
5
F0
100
AcDbEntity
8
1
62
256
6
ByLayer
370
18
48
1
60
0
100
AcDbCircle
39
0
10
36.6421
20
-12.748779
30
0
40
0.249999999999998
210
0
220
0
230
1
100
AcDbArc
50
65.000842
51
157.689624
0
ELLIPSE
5
F1
100
AcDbEntity
8
1
62
256
6
ByLayer
370
18
48
1
60
0
100
AcDbEllipse
10
75.539625
20
1.222709
30
0
11
0.623260732910714
21
-1.90040681402989
31
0
210
0
220
0
230
-1
40
0.766673
41
0.643188476859479
42
2.05586397111918
0
ELLIPSE
5
F2
100
AcDbEntity
8
1
62
256
6
ByLayer
370
18
48
1
60
0
100
AcDbEllipse
10
80.046307
20
6.986388
30
0
11
5.31644254381905
21
-1.4090559493753
31
0
210
0
220
0
230
-1
40
0.038053
41
-2.41668688980363
42
-1.97491915046425
0
ELLIPSE
5
F3
100
AcDbEntity
8
1
62
256
6
ByLayer
370
18
48
1
60
0
100
AcDbEllipse
10
78.715074
20
1.963574
30
0
11
5.31644254453308
21
-1.4090559495857
31
0
210
0
220
0
230
-1
40
0.038053
41
-2.41668688983115
42
-1.97491915053643
0
ELLIPSE
5
F4
100
AcDbEntity
8
1
62
256
6
ByLayer
370
18
48
1
60
0
100
AcDbEllipse
10
77.693421
20
9.349096
30
0
11
1.36862492693339
21
1.45837780063194
31
0
210
0
220
0
230
-1
40
0.791047
41
-1.95141721193958
42
-0.538741717679872
0
ELLIPSE
5
F5
100
AcDbEntity
8
1
62
256
6
ByLayer
370
18
48
1
60
0
100
AcDbEllipse
10
78.323717
20
10.678262
30
0
11
0.0827602963214819
21
2.99885823298152
31
0
210
0
220
0
230
-1
40
0.986504
41
-3.050770738294
42
-2.9070494290557
0
ELLIPSE
5
F6
100
AcDbEntity
8
1
62
256
6
ByLayer
370
18
48
1
60
0
100
AcDbEllipse
10
81.12539
20
4.118672
30
0
11
0.114485083975477
21
4.14842055728446
31
0
210
0
220
0
230
-1
40
0.986504
41
0.112956693877623
42
0.234543222734162
0
ELLIPSE
5
F7
100
AcDbEntity
8
1
62
256
6
ByLayer
370
18
48
1
60
0
100
AcDbEllipse
10
83.078461
20
3.588174
30
0
11
0.114485119744979
21
4.14842056177493
31
0
210
0
220
0
230
-1
40
0.986504
41
0.234543214109202
42
-3.08095102315426
0
ELLIPSE
5
F8
100
AcDbEntity
8
1
62
256
6
ByLayer
370
18
48
1
60
0
100
AcDbEllipse
10
185.909733
20
-764.985893
30
0
11
147.753055366883
21
-743.824047536091
31
0
210
0
220
0
230
-1
40
0.999974
41
3.13913585662502
42
-3.13918979600892
0
ELLIPSE
5
F9
100
AcDbEntity
8
1
62
256
6
ByLayer
370
18
48
1
60
0
100
AcDbEllipse
10
87.259808
20
-2.257384
30
0
11
-1.46672698235583E-16
21
2.39542605307855
31
0
210
0
220
0
230
-1
40
0.989133
41
-2.87326417716309
42
-2.4943909444901
0
ELLIPSE
5
FA
100
AcDbEntity
8
1
62
256
6
ByLayer
370
18
48
1
60
0
100
AcDbEllipse
10
87.313396
20
-2.300598
30
0
11
-1.4505327786523E-16
21
2.36897803792171
31
0
210
0
220
0
230
-1
40
0.989133
41
2.44346095279165
42
3.06322861112959
0
ELLIPSE
5
FB
100
AcDbEntity
8
1
62
256
6
ByLayer
370
18
48
1
60
0
100
AcDbEllipse
10
87.313396
20
-2.300598
30
0
11
-1.45053277867774E-16
21
2.36897803796326
31
0
210
0
220
0
230
-1
40
0.989133
41
3.06322861112991
42
-2.84637372806743
0
ELLIPSE
5
FC
100
AcDbEntity
8
1
62
256
6
ByLayer
370
18
48
1
60
0
100
AcDbEllipse
10
85.67996
20
-2.300598
30
0
11
-1.52968922328219E-16
21
2.4982545917838
31
0
210
0
220
0
230
-1
40
0.989133
41
2.44346095277389
42
2.72268201889877
0
ELLIPSE
5
FD
100
AcDbEntity
8
1
62
256
6
ByLayer
370
18
48
1
60
0
100
AcDbEllipse
10
85.657906
20
-2.300598
30
0
11
-1.43784374696353E-16
21
2.34825459213987
31
0
210
0
220
0
230
-1
40
0.989133
41
2.4850805211256
42
2.79388512643934
0
ELLIPSE
5
FE
100
AcDbEntity
8
1
62
256
6
ByLayer
370
18
48
1
60
0
100
AcDbEllipse
10
82.752075
20
3.778758
30
0
11
-1.40829730689573E-16
21
2.3
31
0
210
0
220
0
230
-1
40
0.989133
41
0
42
6.28318530717959
0
ELLIPSE
5
FF
100
AcDbEntity
8
1
62
256
6
ByLayer
370
18
48
1
60
0
100
AcDbEllipse
10
82.644153
20
3.778758
30
0
11
-2.44921270767362E-16
21
4.00000000004715
31
0
210
0
220
0
230
-1
40
0.989133
41
0
42
0.261799387799857
0
ELLIPSE
5
100
100
AcDbEntity
8
1
62
256
6
ByLayer
370
18
48
1
60
0
100
AcDbEllipse
10
83.15941
20
5.315655
30
0
11
-2.60228850188368E-17
21
0.425000000001818
31
0
210
0
220
0
230
-1
40
0.989133
41
2.50951987239843
42
3.14159265358979
0
ELLIPSE
5
101
100
AcDbEntity
8
1
62
256
6
ByLayer
370
18
48
1
60
0
100
AcDbEllipse
10
82.430787
20
4.990995
30
0
11
-2.32675207225642E-17
21
0.379999999999004
31
0
210
0
220
0
230
-1
40
0.989133
41
0
42
1.15567155679719
0
ELLIPSE
5
102
100
AcDbEntity
8
1
62
256
6
ByLayer
370
18
48
1
60
0
100
AcDbEllipse
10
81.639215
20
4.903845
30
0
11
-2.60228850187195E-17
21
0.424999999999901
31
0
210
0
220
0
230
-1
40
0.989133
41
1.46232232120025
42
3.14159265358979
0
ELLIPSE
5
103
100
AcDbEntity
8
1
62
256
6
ByLayer
370
18
48
1
60
0
100
AcDbEllipse
10
81.23188
20
3.366948
30
0
11
-2.60228850187292E-17
21
0.42500000000006
31
0
210
0
220
0
230
-1
40
0.989133
41
0.415124770004065
42
2.20286910799212
0
ELLIPSE
5
104
100
AcDbEntity
8
1
62
256
6
ByLayer
370
18
48
1
60
0
100
AcDbEllipse
10
81.8743
20
2.891339
30
0
11
-2.32675207226256E-17
21
0.380000000000007
31
0
210
0
220
0
230
-1
40
0.989133
41
3.14159265358979
42
-0.938723545597626
0
ELLIPSE
5
105
100
AcDbEntity
8
1
62
256
6
ByLayer
370
18
48
1
60
0
100
AcDbEllipse
10
82.34474
20
2.241861
30
0
11
-2.60228850184229E-17
21
0.424999999995057
31
0
210
0
220
0
230
-1
40
0.989133
41
-0.632072781196643
42
0
0
ELLIPSE
5
106
100
AcDbEntity
8
1
62
256
6
ByLayer
370
18
48
1
60
0
100
AcDbEllipse
10
83.073363
20
2.566521
30
0
11
-2.32675207226794E-17
21
0.380000000000885
31
0
210
0
220
0
230
-1
40
0.989133
41
3.14159265358979
42
-1.98592109679562
0
ELLIPSE
5
107
100
AcDbEntity
8
1
62
256
6
ByLayer
370
18
48
1
60
0
100
AcDbEllipse
10
83.864935
20
2.653672
30
0
11
-2.60228850187254E-17
21
0.424999999999998
31
0
210
0
220
0
230
-1
40
0.989133
41
-1.67927033238935
42
0
0
ELLIPSE
5
108
100
AcDbEntity
8
1
62
256
6
ByLayer
370
18
48
1
60
0
100
AcDbEllipse
10
84.27227
20
4.190568
30
0
11
-2.60228850187267E-17
21
0.425000000000019
31
0
210
0
220
0
230
-1
40
0.989133
41
-2.72646788358589
42
-0.938723545597612
0
ELLIPSE
5
109
100
AcDbEntity
8
1
62
256
6
ByLayer
370
18
48
1
60
0
100
AcDbEllipse
10
83.62985
20
4.666177
30
0
11
-2.32675207226255E-17
21
0.380000000000005
31
0
210
0
220
0
230
-1
40
0.989133
41
0
42
2.20286910799221
0
ELLIPSE
5
10A
100
AcDbEntity
8
1
62
256
6
ByLayer
370
18
48
1
60
0
100
AcDbEllipse
10
81.553012
20
4.103576
30
0
11
-2.32675207226252E-17
21
0.380000000000001
31
0
210
0
220
0
230
-1
40
0.989133
41
-2.72646788358593
42
0
0
ELLIPSE
5
10B
100
AcDbEntity
8
1
62
256
6
ByLayer
370
18
48
1
60
0
100
AcDbEllipse
10
82.430787
20
4.990995
30
0
11
-2.326752072263E-17
21
0.380000000000079
31
0
210
0
220
0
230
-1
40
0.989133
41
-1.67927033238922
42
0
0
ELLIPSE
5
10C
100
AcDbEntity
8
1
62
256
6
ByLayer
370
18
48
1
60
0
100
AcDbEllipse
10
82.195549
20
4.990995
30
0
11
-2.32675207229255E-17
21
0.380000000004905
31
0
210
0
220
0
230
-1
40
0.989133
41
0.318270834725185
42
1.15567155679005
0
ELLIPSE
5
10D
100
AcDbEntity
8
1
62
256
6
ByLayer
370
18
48
1
60
0
100
AcDbEllipse
10
82.34474
20
2.241861
30
0
11
-2.6022885018767E-17
21
0.425000000000677
31
0
210
0
220
0
230
-1
40
0.989133
41
0
42
1.15567155679462
0
ELLIPSE
5
10E
100
AcDbEntity
8
1
62
256
6
ByLayer
370
18
48
1
60
0
100
AcDbEllipse
10
82.109502
20
2.241861
30
0
11
-2.60228850195646E-17
21
0.425000000013703
31
0
210
0
220
0
230
-1
40
0.989133
41
-0.632072781182084
42
0
0
ELLIPSE
5
10F
100
AcDbEntity
8
1
62
256
6
ByLayer
370
18
48
1
60
0
100
AcDbEllipse
10
82.838125
20
2.566521
30
0
11
-2.32675207226325E-17
21
0.380000000000119
31
0
210
0
220
0
230
-1
40
0.989133
41
1.46232232120062
42
2.8233218199018
0
ELLIPSE
5
110
100
AcDbEntity
8
1
62
256
6
ByLayer
370
18
48
1
60
0
100
AcDbEllipse
10
83.073363
20
2.566521
30
0
11
-2.32675207226345E-17
21
0.380000000000152
31
0
210
0
220
0
230
-1
40
0.989133
41
1.46232232120071
42
3.14159265358979
0
ELLIPSE
5
111
100
AcDbEntity
8
1
62
256
6
ByLayer
370
18
48
1
60
0
100
AcDbEllipse
10
82.924172
20
5.315655
30
0
11
-2.60228850186808E-17
21
0.42499999999927
31
0
210
0
220
0
230
-1
40
0.989133
41
3.14159265358979
42
-1.98592109679313
0
ELLIPSE
5
112
100
AcDbEntity
8
1
62
256
6
ByLayer
370
18
48
1
60
0
100
AcDbEllipse
10
83.15941
20
5.315655
30
0
11
-2.60228850187982E-17
21
0.425000000001187
31
0
210
0
220
0
230
-1
40
0.989133
41
3.14159265358979
42
-1.98592109679586
0
ELLIPSE
5
113
100
AcDbEntity
8
1
62
256
6
ByLayer
370
18
48
1
60
0
100
AcDbEllipse
10
83.394612
20
4.666177
30
0
11
-2.32675207226239E-17
21
0.37999999999998
31
0
210
0
220
0
230
-1
40
0.989133
41
0.31827083471949
42
2.20286910799226
0
ELLIPSE
5
114
100
AcDbEntity
8
1
62
256
6
ByLayer
370
18
48
1
60
0
100
AcDbEllipse
10
83.629697
20
2.653672
30
0
11
-2.60228850187254E-17
21
0.424999999999998
31
0
210
0
220
0
230
-1
40
0.989133
41
-1.67927033238935
42
0
0
ELLIPSE
5
115
100
AcDbEntity
8
1
62
256
6
ByLayer
370
18
48
1
60
0
100
AcDbEllipse
10
82.399217
20
3.778758
30
0
11
-2.44921270764475E-16
21
4
31
0
210
0
220
0
230
-1
40
0.989133
41
3.14159265358979
42
-2.24484073350127E-16
0
ELLIPSE
5
116
100
AcDbEntity
8
1
62
256
6
ByLayer
370
18
48
1
60
0
100
AcDbEllipse
10
82.644153
20
3.778758
30
0
11
-2.44921270764475E-16
21
3.99999999999999
31
0
210
0
220
0
230
-1
40
0.989133
41
0.2617993878014
42
3.14159265358979
0
ELLIPSE
5
117
100
AcDbEntity
8
1
62
256
6
ByLayer
370
18
48
1
60
0
100
AcDbEllipse
10
82.644153
20
3.778758
30
0
11
-2.44921270764475E-16
21
4
31
0
210
0
220
0
230
-1
40
0.989133
41
3.14159265358979
42
-2.24484073350127E-16
0
ELLIPSE
5
118
100
AcDbEntity
8
1
62
256
6
ByLayer
370
18
48
1
60
0
100
AcDbEllipse
10
84.037032
20
4.190568
30
0
11
-2.60228850187196E-17
21
0.424999999999903
31
0
210
0
220
0
230
-1
40
0.989133
41
-2.72646788358636
42
-0.938723545597452
0
ELLIPSE
5
119
100
AcDbEntity
8
1
62
256
6
ByLayer
370
18
48
1
60
0
100
AcDbEllipse
10
83.7159
20
3.45394
30
0
11
-2.32675207226255E-17
21
0.380000000000006
31
0
210
0
220
0
230
-1
40
0.989133
41
0.415124770003882
42
2.98362414162868
0
ELLIPSE
5
11A
100
AcDbEntity
8
1
62
256
6
ByLayer
370
18
48
1
60
0
100
AcDbEllipse
10
83.951138
20
3.45394
30
0
11
-2.3267520722625E-17
21
0.379999999999997
31
0
210
0
220
0
230
-1
40
0.989133
41
0.415124770003749
42
3.14159265358979
0
ELLIPSE
5
11B
100
AcDbEntity
8
1
62
256
6
ByLayer
370
18
48
1
60
0
100
AcDbEllipse
10
82.516837
20
3.778758
30
0
11
-7.04148653450047E-17
21
1.15000000000356
31
0
210
0
220
0
230
-1
40
0.989133
41
-2.87979326578787
42
-2.17272155544735
0
ELLIPSE
5
11C
100
AcDbEntity
8
1
62
256
6
ByLayer
370
18
48
1
60
0
100
AcDbEllipse
10
82.516837
20
3.778758
30
0
11
-7.0414865344592E-17
21
1.14999999999682
31
0
210
0
220
0
230
-1
40
0.989133
41
-1.58141982899743
42
-0.916285976036965
0
ELLIPSE
5
11D
100
AcDbEntity
8
1
62
256
6
ByLayer
370
18
48
1
60
0
100
AcDbEllipse
10
82.516837
20
3.778758
30
0
11
-7.04148653449673E-17
21
1.15000000000295
31
0
210
0
220
0
230
-1
40
0.989133
41
-0.420015846368115
42
-3.90407084086177E-16
0
ELLIPSE
5
11E
100
AcDbEntity
8
1
62
256
6
ByLayer
370
18
48
1
60
0
100
AcDbEllipse
10
82.516837
20
3.778758
30
0
11
-7.04148653447867E-17
21
1.15
31
0
210
0
220
0
230
-1
40
0.989133
41
0
42
3.14159265358979
0
ELLIPSE
5
11F
100
AcDbEntity
8
1
62
256
6
ByLayer
370
18
48
1
60
0
100
AcDbEllipse
10
82.443325
20
3.778758
30
0
11
-7.04148653683714E-17
21
1.15000000038518
31
0
210
0
220
0
230
-1
40
0.989133
41
0.0323185030288934
42
0.261799387757314
0
ELLIPSE
5
120
100
AcDbEntity
8
1
62
256
6
ByLayer
370
18
48
1
60
0
100
AcDbEllipse
10
82.443325
20
3.778758
30
0
11
-7.04148653447873E-17
21
1.15000000000001
31
0
210
0
220
0
230
-1
40
0.989133
41
0.261799387801443
42
3.07957726690096
0
ELLIPSE
5
121
100
AcDbEntity
8
1
62
256
6
ByLayer
370
18
48
1
60
0
100
AcDbEllipse
10
95.66482
20
7.252843
30
0
11
-4.86168722462329E-17
21
0.793999999991581
31
0
210
0
220
0
230
-1
40
0.989133
41
0
42
0.698131700803893
0
ELLIPSE
5
122
100
AcDbEntity
8
1
62
256
6
ByLayer
370
18
48
1
60
0
100
AcDbEllipse
10
104.214491
20
0
30
0
11
-4.86168722467389E-17
21
0.793999999999845
31
0
210
0
220
0
230
-1
40
0.989133
41
0.698131700799781
42
2.44346095279455
0
ELLIPSE
5
123
100
AcDbEntity
8
1
62
256
6
ByLayer
370
18
48
1
60
0
100
AcDbEllipse
10
95.66482
20
-7.252843
30
0
11
-4.86168722468713E-17
21
0.794000000002007
31
0
210
0
220
0
230
-1
40
0.989133
41
3.14159265358979
42
-2.44346095279074
0
ELLIPSE
5
124
100
AcDbEntity
8
1
62
256
6
ByLayer
370
18
48
1
60
0
100
AcDbEllipse
10
95.66482
20
0
30
0
11
-1.57974219643087E-16
21
2.58000000000001
31
0
210
0
220
0
230
-1
40
0.989133
41
0.503875952577705
42
3.14159265358979
0
ELLIPSE
5
125
100
AcDbEntity
8
1
62
256
6
ByLayer
370
18
48
1
60
0
100
AcDbEllipse
10
95.66482
20
7.252843
30
0
11
-4.86168722467834E-17
21
0.794000000000572
31
0
210
0
220
0
230
-1
40
0.989133
41
-0.698131700795197
42
0
0
ELLIPSE
5
126
100
AcDbEntity
8
1
62
256
6
ByLayer
370
18
48
1
60
0
100
AcDbEllipse
10
95.66482
20
-7.252843
30
0
11
-4.8616872246859E-17
21
0.794000000001806
31
0
210
0
220
0
230
-1
40
0.989133
41
2.44346095279516
42
3.14159265358979
0
ELLIPSE
5
127
100
AcDbEntity
8
1
62
256
6
ByLayer
370
18
48
1
60
0
100
AcDbEllipse
10
75.539625
20
1.222709
30
0
11
0.623260732910714
21
-1.90040681402989
31
0
210
0
220
0
230
-1
40
0.766673
41
0.643188476859479
42
2.05586397111918
0
ELLIPSE
5
128
100
AcDbEntity
8
1
62
256
6
ByLayer
370
18
48
1
60
0
100
AcDbEllipse
10
80.046307
20
6.986388
30
0
11
5.31644254381905
21
-1.4090559493753
31
0
210
0
220
0
230
-1
40
0.038053
41
-2.41668688980363
42
-1.97491915046425
0
ELLIPSE
5
129
100
AcDbEntity
8
1
62
256
6
ByLayer
370
18
48
1
60
0
100
AcDbEllipse
10
78.715074
20
1.963574
30
0
11
5.31644254453308
21
-1.4090559495857
31
0
210
0
220
0
230
-1
40
0.038053
41
-2.41668688983115
42
-1.97491915053643
0
ELLIPSE
5
12A
100
AcDbEntity
8
1
62
256
6
ByLayer
370
18
48
1
60
0
100
AcDbEllipse
10
77.693421
20
9.349096
30
0
11
1.36862492693339
21
1.45837780063194
31
0
210
0
220
0
230
-1
40
0.791047
41
-1.95141721193958
42
-0.538741717679872
0
ELLIPSE
5
12B
100
AcDbEntity
8
1
62
256
6
ByLayer
370
18
48
1
60
0
100
AcDbEllipse
10
78.323717
20
10.678262
30
0
11
0.0827602963214819
21
2.99885823298152
31
0
210
0
220
0
230
-1
40
0.986504
41
-3.050770738294
42
-2.9070494290557
0
ELLIPSE
5
12C
100
AcDbEntity
8
1
62
256
6
ByLayer
370
18
48
1
60
0
100
AcDbEllipse
10
81.12539
20
4.118672
30
0
11
0.114485083975477
21
4.14842055728446
31
0
210
0
220
0
230
-1
40
0.986504
41
0.112956693877623
42
0.234543222734162
0
ELLIPSE
5
12D
100
AcDbEntity
8
1
62
256
6
ByLayer
370
18
48
1
60
0
100
AcDbEllipse
10
83.078461
20
3.588174
30
0
11
0.114485119744979
21
4.14842056177493
31
0
210
0
220
0
230
-1
40
0.986504
41
0.234543214109202
42
-3.08095102315426
0
ELLIPSE
5
12E
100
AcDbEntity
8
1
62
256
6
ByLayer
370
18
48
1
60
0
100
AcDbEllipse
10
185.909733
20
-764.985893
30
0
11
147.753055366883
21
-743.824047536091
31
0
210
0
220
0
230
-1
40
0.999974
41
3.13913585662502
42
-3.13918979600892
0
ELLIPSE
5
12F
100
AcDbEntity
8
1
62
256
6
ByLayer
370
18
48
1
60
0
100
AcDbEllipse
10
87.259808
20
-2.257384
30
0
11
-1.46672698235583E-16
21
2.39542605307855
31
0
210
0
220
0
230
-1
40
0.989133
41
-2.87326417716309
42
-2.4943909444901
0
ELLIPSE
5
130
100
AcDbEntity
8
1
62
256
6
ByLayer
370
18
48
1
60
0
100
AcDbEllipse
10
87.313396
20
-2.300598
30
0
11
-1.4505327786523E-16
21
2.36897803792171
31
0
210
0
220
0
230
-1
40
0.989133
41
2.44346095279165
42
3.06322861112959
0
ELLIPSE
5
131
100
AcDbEntity
8
1
62
256
6
ByLayer
370
18
48
1
60
0
100
AcDbEllipse
10
87.313396
20
-2.300598
30
0
11
-1.45053277867774E-16
21
2.36897803796326
31
0
210
0
220
0
230
-1
40
0.989133
41
3.06322861112991
42
-2.84637372806743
0
ELLIPSE
5
132
100
AcDbEntity
8
1
62
256
6
ByLayer
370
18
48
1
60
0
100
AcDbEllipse
10
85.67996
20
-2.300598
30
0
11
-1.52968922328219E-16
21
2.4982545917838
31
0
210
0
220
0
230
-1
40
0.989133
41
2.44346095277389
42
2.72268201889877
0
ELLIPSE
5
133
100
AcDbEntity
8
1
62
256
6
ByLayer
370
18
48
1
60
0
100
AcDbEllipse
10
85.657906
20
-2.300598
30
0
11
-1.43784374696353E-16
21
2.34825459213987
31
0
210
0
220
0
230
-1
40
0.989133
41
2.4850805211256
42
2.79388512643934
0
ELLIPSE
5
134
100
AcDbEntity
8
1
62
256
6
ByLayer
370
18
48
1
60
0
100
AcDbEllipse
10
82.752075
20
3.778758
30
0
11
-1.40829730689573E-16
21
2.3
31
0
210
0
220
0
230
-1
40
0.989133
41
0
42
6.28318530717959
0
ELLIPSE
5
135
100
AcDbEntity
8
1
62
256
6
ByLayer
370
18
48
1
60
0
100
AcDbEllipse
10
82.644153
20
3.778758
30
0
11
-2.44921270767362E-16
21
4.00000000004715
31
0
210
0
220
0
230
-1
40
0.989133
41
0
42
0.261799387799857
0
ELLIPSE
5
136
100
AcDbEntity
8
1
62
256
6
ByLayer
370
18
48
1
60
0
100
AcDbEllipse
10
83.15941
20
5.315655
30
0
11
-2.60228850188368E-17
21
0.425000000001818
31
0
210
0
220
0
230
-1
40
0.989133
41
2.50951987239843
42
3.14159265358979
0
ELLIPSE
5
137
100
AcDbEntity
8
1
62
256
6
ByLayer
370
18
48
1
60
0
100
AcDbEllipse
10
82.430787
20
4.990995
30
0
11
-2.32675207225642E-17
21
0.379999999999004
31
0
210
0
220
0
230
-1
40
0.989133
41
0
42
1.15567155679719
0
ELLIPSE
5
138
100
AcDbEntity
8
1
62
256
6
ByLayer
370
18
48
1
60
0
100
AcDbEllipse
10
81.639215
20
4.903845
30
0
11
-2.60228850187195E-17
21
0.424999999999901
31
0
210
0
220
0
230
-1
40
0.989133
41
1.46232232120025
42
3.14159265358979
0
ELLIPSE
5
139
100
AcDbEntity
8
1
62
256
6
ByLayer
370
18
48
1
60
0
100
AcDbEllipse
10
81.23188
20
3.366948
30
0
11
-2.60228850187292E-17
21
0.42500000000006
31
0
210
0
220
0
230
-1
40
0.989133
41
0.415124770004065
42
2.20286910799212
0
ELLIPSE
5
13A
100
AcDbEntity
8
1
62
256
6
ByLayer
370
18
48
1
60
0
100
AcDbEllipse
10
81.8743
20
2.891339
30
0
11
-2.32675207226256E-17
21
0.380000000000007
31
0
210
0
220
0
230
-1
40
0.989133
41
3.14159265358979
42
-0.938723545597626
0
ELLIPSE
5
13B
100
AcDbEntity
8
1
62
256
6
ByLayer
370
18
48
1
60
0
100
AcDbEllipse
10
82.34474
20
2.241861
30
0
11
-2.60228850184229E-17
21
0.424999999995057
31
0
210
0
220
0
230
-1
40
0.989133
41
-0.632072781196643
42
0
0
ELLIPSE
5
13C
100
AcDbEntity
8
1
62
256
6
ByLayer
370
18
48
1
60
0
100
AcDbEllipse
10
83.073363
20
2.566521
30
0
11
-2.32675207226794E-17
21
0.380000000000885
31
0
210
0
220
0
230
-1
40
0.989133
41
3.14159265358979
42
-1.98592109679562
0
ELLIPSE
5
13D
100
AcDbEntity
8
1
62
256
6
ByLayer
370
18
48
1
60
0
100
AcDbEllipse
10
83.864935
20
2.653672
30
0
11
-2.60228850187254E-17
21
0.424999999999998
31
0
210
0
220
0
230
-1
40
0.989133
41
-1.67927033238935
42
0
0
ELLIPSE
5
13E
100
AcDbEntity
8
1
62
256
6
ByLayer
370
18
48
1
60
0
100
AcDbEllipse
10
84.27227
20
4.190568
30
0
11
-2.60228850187267E-17
21
0.425000000000019
31
0
210
0
220
0
230
-1
40
0.989133
41
-2.72646788358589
42
-0.938723545597612
0
ELLIPSE
5
13F
100
AcDbEntity
8
1
62
256
6
ByLayer
370
18
48
1
60
0
100
AcDbEllipse
10
83.62985
20
4.666177
30
0
11
-2.32675207226255E-17
21
0.380000000000005
31
0
210
0
220
0
230
-1
40
0.989133
41
0
42
2.20286910799221
0
ELLIPSE
5
140
100
AcDbEntity
8
1
62
256
6
ByLayer
370
18
48
1
60
0
100
AcDbEllipse
10
81.553012
20
4.103576
30
0
11
-2.32675207226252E-17
21
0.380000000000001
31
0
210
0
220
0
230
-1
40
0.989133
41
-2.72646788358593
42
0
0
ELLIPSE
5
141
100
AcDbEntity
8
1
62
256
6
ByLayer
370
18
48
1
60
0
100
AcDbEllipse
10
82.430787
20
4.990995
30
0
11
-2.326752072263E-17
21
0.380000000000079
31
0
210
0
220
0
230
-1
40
0.989133
41
-1.67927033238922
42
0
0
ELLIPSE
5
142
100
AcDbEntity
8
1
62
256
6
ByLayer
370
18
48
1
60
0
100
AcDbEllipse
10
82.195549
20
4.990995
30
0
11
-2.32675207229255E-17
21
0.380000000004905
31
0
210
0
220
0
230
-1
40
0.989133
41
0.318270834725185
42
1.15567155679005
0
ELLIPSE
5
143
100
AcDbEntity
8
1
62
256
6
ByLayer
370
18
48
1
60
0
100
AcDbEllipse
10
82.34474
20
2.241861
30
0
11
-2.6022885018767E-17
21
0.425000000000677
31
0
210
0
220
0
230
-1
40
0.989133
41
0
42
1.15567155679462
0
ELLIPSE
5
144
100
AcDbEntity
8
1
62
256
6
ByLayer
370
18
48
1
60
0
100
AcDbEllipse
10
82.109502
20
2.241861
30
0
11
-2.60228850195646E-17
21
0.425000000013703
31
0
210
0
220
0
230
-1
40
0.989133
41
-0.632072781182084
42
0
0
ELLIPSE
5
145
100
AcDbEntity
8
1
62
256
6
ByLayer
370
18
48
1
60
0
100
AcDbEllipse
10
82.838125
20
2.566521
30
0
11
-2.32675207226325E-17
21
0.380000000000119
31
0
210
0
220
0
230
-1
40
0.989133
41
1.46232232120062
42
2.8233218199018
0
ELLIPSE
5
146
100
AcDbEntity
8
1
62
256
6
ByLayer
370
18
48
1
60
0
100
AcDbEllipse
10
83.073363
20
2.566521
30
0
11
-2.32675207226345E-17
21
0.380000000000152
31
0
210
0
220
0
230
-1
40
0.989133
41
1.46232232120071
42
3.14159265358979
0
ELLIPSE
5
147
100
AcDbEntity
8
1
62
256
6
ByLayer
370
18
48
1
60
0
100
AcDbEllipse
10
82.924172
20
5.315655
30
0
11
-2.60228850186808E-17
21
0.42499999999927
31
0
210
0
220
0
230
-1
40
0.989133
41
3.14159265358979
42
-1.98592109679313
0
ELLIPSE
5
148
100
AcDbEntity
8
1
62
256
6
ByLayer
370
18
48
1
60
0
100
AcDbEllipse
10
83.15941
20
5.315655
30
0
11
-2.60228850187982E-17
21
0.425000000001187
31
0
210
0
220
0
230
-1
40
0.989133
41
3.14159265358979
42
-1.98592109679586
0
ELLIPSE
5
149
100
AcDbEntity
8
1
62
256
6
ByLayer
370
18
48
1
60
0
100
AcDbEllipse
10
83.394612
20
4.666177
30
0
11
-2.32675207226239E-17
21
0.37999999999998
31
0
210
0
220
0
230
-1
40
0.989133
41
0.31827083471949
42
2.20286910799226
0
ELLIPSE
5
14A
100
AcDbEntity
8
1
62
256
6
ByLayer
370
18
48
1
60
0
100
AcDbEllipse
10
83.629697
20
2.653672
30
0
11
-2.60228850187254E-17
21
0.424999999999998
31
0
210
0
220
0
230
-1
40
0.989133
41
-1.67927033238935
42
0
0
ELLIPSE
5
14B
100
AcDbEntity
8
1
62
256
6
ByLayer
370
18
48
1
60
0
100
AcDbEllipse
10
82.399217
20
3.778758
30
0
11
-2.44921270764475E-16
21
4
31
0
210
0
220
0
230
-1
40
0.989133
41
3.14159265358979
42
-2.24484073350127E-16
0
ELLIPSE
5
14C
100
AcDbEntity
8
1
62
256
6
ByLayer
370
18
48
1
60
0
100
AcDbEllipse
10
82.644153
20
3.778758
30
0
11
-2.44921270764475E-16
21
3.99999999999999
31
0
210
0
220
0
230
-1
40
0.989133
41
0.2617993878014
42
3.14159265358979
0
ELLIPSE
5
14D
100
AcDbEntity
8
1
62
256
6
ByLayer
370
18
48
1
60
0
100
AcDbEllipse
10
82.644153
20
3.778758
30
0
11
-2.44921270764475E-16
21
4
31
0
210
0
220
0
230
-1
40
0.989133
41
3.14159265358979
42
-2.24484073350127E-16
0
ELLIPSE
5
14E
100
AcDbEntity
8
1
62
256
6
ByLayer
370
18
48
1
60
0
100
AcDbEllipse
10
84.037032
20
4.190568
30
0
11
-2.60228850187196E-17
21
0.424999999999903
31
0
210
0
220
0
230
-1
40
0.989133
41
-2.72646788358636
42
-0.938723545597452
0
ELLIPSE
5
14F
100
AcDbEntity
8
1
62
256
6
ByLayer
370
18
48
1
60
0
100
AcDbEllipse
10
83.7159
20
3.45394
30
0
11
-2.32675207226255E-17
21
0.380000000000006
31
0
210
0
220
0
230
-1
40
0.989133
41
0.415124770003882
42
2.98362414162868
0
ELLIPSE
5
150
100
AcDbEntity
8
1
62
256
6
ByLayer
370
18
48
1
60
0
100
AcDbEllipse
10
83.951138
20
3.45394
30
0
11
-2.3267520722625E-17
21
0.379999999999997
31
0
210
0
220
0
230
-1
40
0.989133
41
0.415124770003749
42
3.14159265358979
0
ELLIPSE
5
151
100
AcDbEntity
8
1
62
256
6
ByLayer
370
18
48
1
60
0
100
AcDbEllipse
10
82.516837
20
3.778758
30
0
11
-7.04148653450047E-17
21
1.15000000000356
31
0
210
0
220
0
230
-1
40
0.989133
41
-2.87979326578787
42
-2.17272155544735
0
ELLIPSE
5
152
100
AcDbEntity
8
1
62
256
6
ByLayer
370
18
48
1
60
0
100
AcDbEllipse
10
82.516837
20
3.778758
30
0
11
-7.0414865344592E-17
21
1.14999999999682
31
0
210
0
220
0
230
-1
40
0.989133
41
-1.58141982899743
42
-0.916285976036965
0
ELLIPSE
5
153
100
AcDbEntity
8
1
62
256
6
ByLayer
370
18
48
1
60
0
100
AcDbEllipse
10
82.516837
20
3.778758
30
0
11
-7.04148653449673E-17
21
1.15000000000295
31
0
210
0
220
0
230
-1
40
0.989133
41
-0.420015846368115
42
-3.90407084086177E-16
0
ELLIPSE
5
154
100
AcDbEntity
8
1
62
256
6
ByLayer
370
18
48
1
60
0
100
AcDbEllipse
10
82.516837
20
3.778758
30
0
11
-7.04148653447867E-17
21
1.15
31
0
210
0
220
0
230
-1
40
0.989133
41
0
42
3.14159265358979
0
ELLIPSE
5
155
100
AcDbEntity
8
1
62
256
6
ByLayer
370
18
48
1
60
0
100
AcDbEllipse
10
82.443325
20
3.778758
30
0
11
-7.04148653683714E-17
21
1.15000000038518
31
0
210
0
220
0
230
-1
40
0.989133
41
0.0323185030288934
42
0.261799387757314
0
ELLIPSE
5
156
100
AcDbEntity
8
1
62
256
6
ByLayer
370
18
48
1
60
0
100
AcDbEllipse
10
82.443325
20
3.778758
30
0
11
-7.04148653447873E-17
21
1.15000000000001
31
0
210
0
220
0
230
-1
40
0.989133
41
0.261799387801443
42
3.07957726690096
0
ELLIPSE
5
157
100
AcDbEntity
8
1
62
256
6
ByLayer
370
18
48
1
60
0
100
AcDbEllipse
10
95.66482
20
7.252843
30
0
11
-4.86168722462329E-17
21
0.793999999991581
31
0
210
0
220
0
230
-1
40
0.989133
41
0
42
0.698131700803893
0
ELLIPSE
5
158
100
AcDbEntity
8
1
62
256
6
ByLayer
370
18
48
1
60
0
100
AcDbEllipse
10
104.214491
20
0
30
0
11
-4.86168722467389E-17
21
0.793999999999845
31
0
210
0
220
0
230
-1
40
0.989133
41
0.698131700799781
42
2.44346095279455
0
ELLIPSE
5
159
100
AcDbEntity
8
1
62
256
6
ByLayer
370
18
48
1
60
0
100
AcDbEllipse
10
95.66482
20
-7.252843
30
0
11
-4.86168722468713E-17
21
0.794000000002007
31
0
210
0
220
0
230
-1
40
0.989133
41
3.14159265358979
42
-2.44346095279074
0
ELLIPSE
5
15A
100
AcDbEntity
8
1
62
256
6
ByLayer
370
18
48
1
60
0
100
AcDbEllipse
10
95.66482
20
0
30
0
11
-1.57974219643087E-16
21
2.58000000000001
31
0
210
0
220
0
230
-1
40
0.989133
41
0.503875952577705
42
3.14159265358979
0
ELLIPSE
5
15B
100
AcDbEntity
8
1
62
256
6
ByLayer
370
18
48
1
60
0
100
AcDbEllipse
10
95.66482
20
7.252843
30
0
11
-4.86168722467834E-17
21
0.794000000000572
31
0
210
0
220
0
230
-1
40
0.989133
41
-0.698131700795197
42
0
0
ELLIPSE
5
15C
100
AcDbEntity
8
1
62
256
6
ByLayer
370
18
48
1
60
0
100
AcDbEllipse
10
95.66482
20
-7.252843
30
0
11
-4.8616872246859E-17
21
0.794000000001806
31
0
210
0
220
0
230
-1
40
0.989133
41
2.44346095279516
42
3.14159265358979
0
ELLIPSE
5
15D
100
AcDbEntity
8
1
62
256
6
ByLayer
370
18
48
1
60
0
100
AcDbEllipse
10
80.608404
20
9.107213
30
0
11
5.26622433631396
21
-1.59799028712252
31
0
210
0
220
0
230
-1
40
0.199422
41
2.52996159131514
42
2.58295389938421
0
ELLIPSE
5
15E
100
AcDbEntity
8
1
62
256
6
ByLayer
370
18
48
1
60
0
100
AcDbEllipse
10
78.152976
20
-0.157251
30
0
11
5.36820883221608
21
-1.21262868651846
31
0
210
0
220
0
230
-1
40
0.275422
41
-2.57986988348251
42
-2.52687757933107
0
ELLIPSE
5
15F
100
AcDbEntity
8
1
62
256
6
ByLayer
370
18
48
1
60
0
100
AcDbEllipse
10
77.777871
20
-1.964515
30
0
11
3.43984588142593
21
-0.678126055625646
31
0
210
0
220
0
230
-1
40
0.410187
41
3.04937931220099
42
-2.51058788857718
0
ELLIPSE
5
160
100
AcDbEntity
8
1
62
256
6
ByLayer
370
18
48
1
60
0
100
AcDbEllipse
10
74.951306
20
1.151468
30
0
11
1.02899678703162
21
-2.82178844637437
31
0
210
0
220
0
230
-1
40
0.994205
41
1.13059273139754
42
2.18228179446061
0
ELLIPSE
5
161
100
AcDbEntity
8
1
62
256
6
ByLayer
370
18
48
1
60
0
100
AcDbEllipse
10
78.027663
20
0.781623
30
0
11
3.95593898329775
21
1.84284168752287
31
0
210
0
220
0
230
-1
40
0.518899
41
2.58989641328922
42
2.94951214664881
0
ELLIPSE
5
162
100
AcDbEntity
8
1
62
256
6
ByLayer
370
18
48
1
60
0
100
AcDbEllipse
10
81.191285
20
10.914478
30
0
11
3.32834289450355
21
-1.10082860276402
31
0
210
0
220
0
230
-1
40
0.334418
41
2.51685029922895
42
-3.04311690155153
0
ELLIPSE
5
163
100
AcDbEntity
8
1
62
256
6
ByLayer
370
18
48
1
60
0
100
AcDbEllipse
10
80.178117
20
8.8954
30
0
11
2.848960207397
21
-2.94378699443105
31
0
210
0
220
0
230
-1
40
0.47999
41
-2.60782063737587
42
-2.46331861604621
0
ELLIPSE
5
164
100
AcDbEntity
8
1
62
256
6
ByLayer
370
18
48
1
60
0
100
AcDbEllipse
10
77.10176
20
9.265245
30
0
11
1.02899678696286
21
-2.82178844639591
31
0
210
0
220
0
230
-1
40
0.994205
41
2.18228179443717
42
-3.04921444967813
0
ELLIPSE
5
165
100
AcDbEntity
8
1
62
256
6
ByLayer
370
18
48
1
60
0
100
AcDbEllipse
10
80.178117
20
8.8954
30
0
11
2.8489602081085
21
-2.94378699608376
31
0
210
0
220
0
230
-1
40
0.47999
41
-2.82293434963739
42
-2.60782063754483
0
ELLIPSE
5
166
100
AcDbEntity
8
1
62
256
6
ByLayer
370
18
48
1
60
0
100
AcDbEllipse
10
96.206132
20
-0.02847
30
0
11
1.14068242154596
21
2.001030450478
31
0
210
0
220
0
230
-1
40
0.801505
41
1.40402174494469
42
2.25923307841963
0
ELLIPSE
5
167
100
AcDbEntity
8
1
62
256
6
ByLayer
370
18
48
1
60
0
100
AcDbEllipse
10
96.206132
20
-0.02847
30
0
11
0.543808314538192
21
-2.15754229472756
31
0
210
0
220
0
230
-1
40
0.790958
41
-1.96742741284673
42
-1.11221607937059
0
ELLIPSE
5
168
100
AcDbEntity
8
1
62
256
6
ByLayer
370
18
48
1
60
0
100
AcDbEllipse
10
-1.056258
20
0
30
0
11
11.7092723497276
21
24.6771864409378
31
0
210
0
220
0
230
-1
40
0.341999
41
0.167213071908977
42
1.08183270048926
0
ELLIPSE
5
169
100
AcDbEntity
8
1
62
256
6
ByLayer
370
18
48
1
60
0
100
AcDbEllipse
10
21.056258
20
0
30
0
11
11.7092723497275
21
-24.6771864409378
31
0
210
0
220
0
230
-1
40
0.341999
41
2.05975995310053
42
2.97437958168082
0
ELLIPSE
5
16A
100
AcDbEntity
8
1
62
256
6
ByLayer
370
18
48
1
60
0
100
AcDbEllipse
10
-1.056258
20
0
30
0
11
11.7092723497281
21
-24.6771864409384
31
0
210
0
220
0
230
-1
40
0.341999
41
-1.08183270048924
42
-0.167213071908972
0
ELLIPSE
5
16B
100
AcDbEntity
8
1
62
256
6
ByLayer
370
18
48
1
60
0
100
AcDbEllipse
10
21.056258
20
0
30
0
11
11.7092723497265
21
24.6771864409367
31
0
210
0
220
0
230
-1
40
0.341999
41
-2.97437958168081
42
-2.05975995310049
0
ELLIPSE
5
16C
100
AcDbEntity
8
1
62
256
6
ByLayer
370
18
48
1
60
0
100
AcDbEllipse
10
70.315753
20
-2.444627
30
0
11
5.39641008352748
21
-1.49477524230646
31
0
210
0
220
0
230
-1
40
0.713797
41
-0.00795098044739195
42
0.68173382551625
0
ELLIPSE
5
16D
100
AcDbEntity
8
1
62
256
6
ByLayer
370
18
48
1
60
0
100
AcDbEllipse
10
185.902002
20
-764.946712
30
0
11
758.317083484852
21
7.66384860705944E-13
31
0
210
0
220
0
230
-1
40
1
41
-1.76259531495548
42
-1.74532928117221
0
ELLIPSE
5
16E
100
AcDbEntity
8
1
62
256
6
ByLayer
370
18
48
1
60
0
100
AcDbEllipse
10
185.902004
20
764.947111
30
0
11
-4.64320123676882E-14
21
758.317351902665
31
0
210
0
220
0
230
-1
40
1
41
-2.96705974303058
42
-2.9497937140183
0
ELLIPSE
5
16F
100
AcDbEntity
8
1
62
256
6
ByLayer
370
18
48
1
60
0
100
AcDbEllipse
10
80.608404
20
9.107213
30
0
11
5.26622433631396
21
-1.59799028712252
31
0
210
0
220
0
230
-1
40
0.199422
41
2.52996159131514
42
2.58295389938421
0
ELLIPSE
5
170
100
AcDbEntity
8
1
62
256
6
ByLayer
370
18
48
1
60
0
100
AcDbEllipse
10
78.152976
20
-0.157251
30
0
11
5.36820883221608
21
-1.21262868651846
31
0
210
0
220
0
230
-1
40
0.275422
41
-2.57986988348251
42
-2.52687757933107
0
ELLIPSE
5
171
100
AcDbEntity
8
1
62
256
6
ByLayer
370
18
48
1
60
0
100
AcDbEllipse
10
77.777871
20
-1.964515
30
0
11
3.43984588142593
21
-0.678126055625646
31
0
210
0
220
0
230
-1
40
0.410187
41
3.04937931220099
42
-2.51058788857718
0
ELLIPSE
5
172
100
AcDbEntity
8
1
62
256
6
ByLayer
370
18
48
1
60
0
100
AcDbEllipse
10
74.951306
20
1.151468
30
0
11
1.02899678703162
21
-2.82178844637437
31
0
210
0
220
0
230
-1
40
0.994205
41
1.13059273139754
42
2.18228179446061
0
ELLIPSE
5
173
100
AcDbEntity
8
1
62
256
6
ByLayer
370
18
48
1
60
0
100
AcDbEllipse
10
78.027663
20
0.781623
30
0
11
3.95593898329775
21
1.84284168752287
31
0
210
0
220
0
230
-1
40
0.518899
41
2.58989641328922
42
2.94951214664881
0
ELLIPSE
5
174
100
AcDbEntity
8
1
62
256
6
ByLayer
370
18
48
1
60
0
100
AcDbEllipse
10
81.191285
20
10.914478
30
0
11
3.32834289450355
21
-1.10082860276402
31
0
210
0
220
0
230
-1
40
0.334418
41
2.51685029922895
42
-3.04311690155153
0
ELLIPSE
5
175
100
AcDbEntity
8
1
62
256
6
ByLayer
370
18
48
1
60
0
100
AcDbEllipse
10
80.178117
20
8.8954
30
0
11
2.848960207397
21
-2.94378699443105
31
0
210
0
220
0
230
-1
40
0.47999
41
-2.60782063737587
42
-2.46331861604621
0
ELLIPSE
5
176
100
AcDbEntity
8
1
62
256
6
ByLayer
370
18
48
1
60
0
100
AcDbEllipse
10
77.10176
20
9.265245
30
0
11
1.02899678696286
21
-2.82178844639591
31
0
210
0
220
0
230
-1
40
0.994205
41
2.18228179443717
42
-3.04921444967813
0
ELLIPSE
5
177
100
AcDbEntity
8
1
62
256
6
ByLayer
370
18
48
1
60
0
100
AcDbEllipse
10
80.178117
20
8.8954
30
0
11
2.8489602081085
21
-2.94378699608376
31
0
210
0
220
0
230
-1
40
0.47999
41
-2.82293434963739
42
-2.60782063754483
0
ELLIPSE
5
178
100
AcDbEntity
8
1
62
256
6
ByLayer
370
18
48
1
60
0
100
AcDbEllipse
10
96.206132
20
-0.02847
30
0
11
1.14068242154596
21
2.001030450478
31
0
210
0
220
0
230
-1
40
0.801505
41
1.40402174494469
42
2.25923307841963
0
ELLIPSE
5
179
100
AcDbEntity
8
1
62
256
6
ByLayer
370
18
48
1
60
0
100
AcDbEllipse
10
96.206132
20
-0.02847
30
0
11
0.543808314538192
21
-2.15754229472756
31
0
210
0
220
0
230
-1
40
0.790958
41
-1.96742741284673
42
-1.11221607937059
0
ELLIPSE
5
17A
100
AcDbEntity
8
1
62
256
6
ByLayer
370
18
48
1
60
0
100
AcDbEllipse
10
-1.056258
20
0
30
0
11
11.7092723497276
21
24.6771864409378
31
0
210
0
220
0
230
-1
40
0.341999
41
0.167213071908977
42
1.08183270048926
0
ELLIPSE
5
17B
100
AcDbEntity
8
1
62
256
6
ByLayer
370
18
48
1
60
0
100
AcDbEllipse
10
21.056258
20
0
30
0
11
11.7092723497275
21
-24.6771864409378
31
0
210
0
220
0
230
-1
40
0.341999
41
2.05975995310053
42
2.97437958168082
0
ELLIPSE
5
17C
100
AcDbEntity
8
1
62
256
6
ByLayer
370
18
48
1
60
0
100
AcDbEllipse
10
-1.056258
20
0
30
0
11
11.7092723497281
21
-24.6771864409384
31
0
210
0
220
0
230
-1
40
0.341999
41
-1.08183270048924
42
-0.167213071908972
0
ELLIPSE
5
17D
100
AcDbEntity
8
1
62
256
6
ByLayer
370
18
48
1
60
0
100
AcDbEllipse
10
21.056258
20
0
30
0
11
11.7092723497265
21
24.6771864409367
31
0
210
0
220
0
230
-1
40
0.341999
41
-2.97437958168081
42
-2.05975995310049
0
ELLIPSE
5
17E
100
AcDbEntity
8
1
62
256
6
ByLayer
370
18
48
1
60
0
100
AcDbEllipse
10
70.315753
20
-2.444627
30
0
11
5.39641008352748
21
-1.49477524230646
31
0
210
0
220
0
230
-1
40
0.713797
41
-0.00795098044739195
42
0.68173382551625
0
ELLIPSE
5
17F
100
AcDbEntity
8
1
62
256
6
ByLayer
370
18
48
1
60
0
100
AcDbEllipse
10
185.902002
20
-764.946712
30
0
11
758.317083484852
21
7.66384860705944E-13
31
0
210
0
220
0
230
-1
40
1
41
-1.76259531495548
42
-1.74532928117221
0
ELLIPSE
5
180
100
AcDbEntity
8
1
62
256
6
ByLayer
370
18
48
1
60
0
100
AcDbEllipse
10
185.902004
20
764.947111
30
0
11
-4.64320123676882E-14
21
758.317351902665
31
0
210
0
220
0
230
-1
40
1
41
-2.96705974303058
42
-2.9497937140183
0
ELLIPSE
5
181
100
AcDbEntity
8
1
62
256
6
ByLayer
370
18
48
1
60
0
100
AcDbEllipse
10
83.291441
20
2.644408
30
0
11
0.257832274506196
21
-0.18096275368978
31
0
210
0
220
0
230
-1
40
0.072453
41
0
42
6.28318530717959
0
ELLIPSE
5
182
100
AcDbEntity
8
1
62
256
6
ByLayer
370
18
48
1
60
0
100
AcDbEllipse
10
80.174846
20
0.81575
30
0
11
0.070418983399989
21
0.307027957646928
31
0
210
0
220
0
230
-1
40
0.019855
41
0
42
6.28318530717959
0
POINT
5
6C
100
AcDbEntity
8
80
62
256
6
ByLayer
370
18
48
1
60
0
100
AcDbPoint
10
0
20
0
30
0
39
0
210
0
220
0
230
1
50
360
0
POINT
5
6E
100
AcDbEntity
8
81
62
256
6
ByLayer
370
18
48
1
60
0
100
AcDbPoint
10
104.999863
20
0
30
0
39
0
210
0
220
0
230
1
50
360
0
SPLINE
5
183
100
AcDbEntity
8
1
62
256
6
ByLayer
370
18
48
1
60
0
100
AcDbSpline
70
4
71
3
72
13
73
9
40
0
40
0
40
0
40
0
40
0.060351841005944
40
0.279656158929827
40
0.499060089569382
40
0.713052562211257
40
0.927135902611586
40
1
40
1
40
1
40
1
41
1
10
80.5269529574114
20
0.0542981726263389
30
0
41
1
10
80.4733640866791
20
0.068797399052556
30
0
41
1
10
80.2275610075537
20
0.140905244381132
30
0
41
1
10
79.8059147753774
20
0.31247285336683
30
0
41
1
10
79.3070629637752
20
0.614638406466587
30
0
41
1
10
78.8751313609171
20
0.985113792183482
30
0
41
1
10
78.5898822216821
20
1.31798684299259
30
0
41
1
10
78.4463348893531
20
1.52412701504423
30
0
41
1
10
78.4111347067428
20
1.57753215165744
30
0
0
SPLINE
5
184
100
AcDbEntity
8
1
62
256
6
ByLayer
370
18
48
1
60
0
100
AcDbSpline
70
4
71
1
72
4
73
2
40
0
40
0
40
1
40
1
41
1
10
83.3356501876212
20
-0.614288130855601
30
0
41
1
10
83.0777545484486
20
-0.59115060307284
30
0
0
SPLINE
5
185
100
AcDbEntity
8
1
62
256
6
ByLayer
370
18
48
1
60
0
100
AcDbSpline
70
4
71
3
72
14
73
10
40
0
40
0
40
0
40
0
40
0.0046371930015432
40
0.170530994167953
40
0.336424795334363
40
0.502318596500772
40
0.668212397667182
40
0.834106198833591
40
1
40
1
40
1
40
1
41
1
10
83.335650187647
20
-0.614288154791351
30
0
41
1
10
83.3341734737044
20
-0.618380799545641
30
0
41
1
10
83.2798752633823
20
-0.768732839347806
30
0
41
1
10
83.1729187277158
20
-1.05522031007571
30
0
41
1
10
83.0173364738838
20
-1.44403466418126
30
0
41
1
10
82.8660889607146
20
-1.79363869140537
30
0
41
1
10
82.7209892430527
20
-2.09985607147577
30
0
41
1
10
82.5835481813283
20
-2.35943843916074
30
0
41
1
10
82.4984784241188
20
-2.49873282920861
30
0
41
1
10
82.4574619626117
20
-2.56016243658745
30
0
0
SPLINE
5
186
100
AcDbEntity
8
1
62
256
6
ByLayer
370
18
48
1
60
0
100
AcDbSpline
70
4
71
3
72
14
73
10
40
0
40
0
40
0
40
0
40
0.185711059847537
40
0.374949563145765
40
0.487831160120498
40
0.600699303269453
40
0.717935915300255
40
0.835152857895954
40
1
40
1
40
1
40
1
41
1
10
78.2828879608552
20
1.75434309010604
30
0
41
1
10
78.0611431008327
20
1.56470991266564
30
0
41
1
10
77.6204696035399
20
1.1948869243113
30
0
41
1
10
77.0597463882995
20
0.742035136190518
30
0
41
1
10
76.6033402511743
20
0.388384029625943
30
0
41
1
10
76.2411528493995
20
0.117977413275761
30
0
41
1
10
75.8943381474021
20
-0.128800813952208
30
0
41
1
10
75.5228641856135
20
-0.37707956181794
30
0
41
1
10
75.2906370327263
20
-0.51555263413227
30
0
41
1
10
75.164519904737
20
-0.584555443446165
30
0
0
SPLINE
5
187
100
AcDbEntity
8
1
62
256
6
ByLayer
370
18
48
1
60
0
100
AcDbSpline
70
4
71
1
72
4
73
2
40
0
40
0
40
1
40
1
41
1
10
78.2828879608553
20
1.75434309010604
30
0
41
1
10
78.4111347067428
20
1.57753215165744
30
0
0
SPLINE
5
188
100
AcDbEntity
8
1
62
256
6
ByLayer
370
18
48
1
60
0
100
AcDbSpline
70
4
71
3
72
12
73
8
40
0
40
0
40
0
40
0
40
0.181429666134871
40
0.366867448225742
40
0.582033047866578
40
0.802198386802963
40
1
40
1
40
1
40
1
41
1
10
73.9601003938036
20
1.68609289761309
30
0
41
1
10
74.1132614096551
20
1.70957247666871
30
0
41
1
10
74.4461577247811
20
1.76682316571789
30
0
41
1
10
75.0565132564749
20
1.89180460378744
30
0
41
1
10
75.7761136177823
20
2.05516081220943
30
0
41
1
10
76.5673457787912
20
2.24840078508631
30
0
41
1
10
77.1094332207081
20
2.38685345778033
30
0
41
1
10
77.3716779478249
20
2.45527660193806
30
0
0
SPLINE
5
189
100
AcDbEntity
8
1
62
256
6
ByLayer
370
18
48
1
60
0
100
AcDbSpline
70
4
71
3
72
10
73
6
40
0
40
0
40
0
40
0
40
0.470923083159056
40
0.89136863498057
40
1
40
1
40
1
40
1
41
1
10
77.3716779478249
20
2.45527660193807
30
0
41
1
10
77.5383630412517
20
2.37810307774981
30
0
41
1
10
77.8302406918073
20
2.20398674167744
30
0
41
1
10
78.1295663396439
20
1.93832961477227
30
0
41
1
10
78.257500032615
20
1.78625117442012
30
0
41
1
10
78.2828879608553
20
1.75434309010604
30
0
0
SPLINE
5
18A
100
AcDbEntity
8
1
62
256
6
ByLayer
370
18
48
1
60
0
100
AcDbSpline
70
4
71
1
72
4
73
2
40
0
40
0
40
1
40
1
41
1
10
75.9544411423609
20
9.83828798302841
30
0
41
1
10
75.9738574377535
20
9.90563299822124
30
0
0
SPLINE
5
18B
100
AcDbEntity
8
1
62
256
6
ByLayer
370
18
48
1
60
0
100
AcDbSpline
70
4
71
3
72
13
73
9
40
0
40
0
40
0
40
0
40
0.2608221217998
40
0.395252665390483
40
0.529665972265148
40
0.740111661383766
40
0.956233497746073
40
1
40
1
40
1
40
1
41
1
10
78.7393021373733
20
7.61539492680953
30
0
41
1
10
78.481330146525
20
7.85963508990925
30
0
41
1
10
78.0990126256548
20
8.21237591543907
30
0
41
1
10
77.6016474466485
20
8.65278253189764
30
0
41
1
10
77.1669347179285
20
9.02412595730085
30
0
41
1
10
76.6864139067622
20
9.41175902689276
30
0
41
1
10
76.3246548496958
20
9.67452036205881
30
0
41
1
10
76.143867866532
20
9.79317761188127
30
0
41
1
10
76.1138965133241
20
9.81247945125001
30
0
0
SPLINE
5
18C
100
AcDbEntity
8
1
62
256
6
ByLayer
370
18
48
1
60
0
100
AcDbSpline
70
4
71
1
72
4
73
2
40
0
40
0
40
1
40
1
41
1
10
78.7393021373733
20
7.61539492680953
30
0
41
1
10
78.4887343236839
20
7.63716439102067
30
0
0
SPLINE
5
18D
100
AcDbEntity
8
1
62
256
6
ByLayer
370
18
48
1
60
0
100
AcDbSpline
70
4
71
2
72
6
73
3
40
0
40
0
40
0
40
1
40
1
40
1
41
1
10
77.3716779478249
20
2.45527660193807
30
0
41
1
10
77.0269257317902
20
2.61795026906679
30
0
41
1
10
76.6738815725912
20
2.70364077802664
30
0
0
SPLINE
5
18E
100
AcDbEntity
8
1
62
256
6
ByLayer
370
18
48
1
60
0
100
AcDbSpline
70
4
71
1
72
4
73
2
40
0
40
0
40
1
40
1
41
1
10
73.8039870414568
20
1.7245110422051
30
0
41
1
10
73.7875477428875
20
1.65657100696832
30
0
0
SPLINE
5
18F
100
AcDbEntity
8
1
62
256
6
ByLayer
370
18
48
1
60
0
100
AcDbSpline
70
4
71
3
72
13
73
9
40
0
40
0
40
0
40
0
40
0.18554010443375
40
0.376970109381426
40
0.562319173928968
40
0.751995371395345
40
0.875492911618999
40
1
40
1
40
1
40
1
41
1
10
78.2763014148481
20
11.1563606035435
30
0
41
1
10
78.3663437029549
20
11.0363394648541
30
0
41
1
10
78.5543044328786
20
10.7532790890006
30
0
41
1
10
78.853538912038
20
10.2006463666818
30
0
41
1
10
79.1630500624696
20
9.54724378435598
30
0
41
1
10
79.437886294558
20
8.90465413080812
30
0
41
1
10
79.6772789248532
20
8.30445896962036
30
0
41
1
10
79.8110752110987
20
7.95238875456432
30
0
41
1
10
79.8778626514145
20
7.77226686715576
30
0
0
SPLINE
5
190
100
AcDbEntity
8
1
62
256
6
ByLayer
370
18
48
1
60
0
100
AcDbSpline
70
4
71
3
72
11
73
7
40
0
40
0
40
0
40
0
40
0.228974136894822
40
0.466571673620239
40
0.9281214312173
40
1
40
1
40
1
40
1
41
1
10
79.8778626514229
20
7.77226686715784
30
0
41
1
10
79.7978216532516
20
7.74223538758552
30
0
41
1
10
79.6303249079642
20
7.68965080927182
30
0
41
1
10
79.2737599349942
20
7.61953609837079
30
0
41
1
10
78.9688824296822
20
7.60572999210768
30
0
41
1
10
78.7665246199954
20
7.61392091748536
30
0
41
1
10
78.7393021373733
20
7.61539492680953
30
0
0
SPLINE
5
191
100
AcDbEntity
8
1
62
256
6
ByLayer
370
18
48
1
60
0
100
AcDbSpline
70
4
71
3
72
14
73
10
40
0
40
0
40
0
40
0
40
0.165893799697863
40
0.331787599395727
40
0.49768139909359
40
0.663575198791453
40
0.829468998489317
40
0.99536279818718
40
1
40
1
40
1
40
1
41
1
10
85.5692434727228
20
9.18075361040224
30
0
41
1
10
85.5776976510741
20
9.11932400302351
30
0
41
1
10
85.5889309707043
20
8.98002961297596
30
0
41
1
10
85.5887739763861
20
8.72044724529181
30
0
41
1
10
85.5715555959433
20
8.41422986522271
30
0
41
1
10
85.5374868453012
20
8.0646258379996
30
0
41
1
10
85.4869684314977
20
7.67581148389748
30
0
41
1
10
85.4420651944416
20
7.38932400562819
30
0
41
1
10
85.4166655849116
20
7.23897195775851
30
0
41
1
10
85.4159728899206
20
7.23487930517633
30
0
0
SPLINE
5
192
100
AcDbEntity
8
1
62
256
6
ByLayer
370
18
48
1
60
0
100
AcDbSpline
70
4
71
2
72
6
73
3
40
0
40
0
40
0
40
1
40
1
40
1
41
1
10
85.4159728762522
20
7.23487931193887
30
0
41
1
10
85.0280287380879
20
7.42715869132798
30
0
41
1
10
84.6143347642245
20
7.53984732767978
30
0
0
SPLINE
5
193
100
AcDbEntity
8
1
62
256
6
ByLayer
370
18
48
1
60
0
100
AcDbSpline
70
4
71
3
72
11
73
7
40
0
40
0
40
0
40
0
40
0.271626740148312
40
0.549022435368088
40
0.862949264684881
40
1
40
1
40
1
40
1
41
1
10
80.0753555960205
20
7.85672549513838
30
0
41
1
10
80.2417292421381
20
7.9369249628996
30
0
41
1
10
80.5869658883284
20
8.07151116299972
30
0
41
1
10
81.1600631154983
20
8.19785183893536
30
0
41
1
10
81.6660452524965
20
8.2210315955776
30
0
41
1
10
81.9825034026157
20
8.19500795813378
30
0
41
1
10
82.0792453941224
20
8.18340725053607
30
0
0
SPLINE
5
194
100
AcDbEntity
8
1
62
256
6
ByLayer
370
18
48
1
60
0
100
AcDbSpline
70
4
71
1
72
4
73
2
40
0
40
0
40
1
40
1
41
1
10
80.0753555960205
20
7.85672549513838
30
0
41
1
10
79.8778626514229
20
7.77226686715784
30
0
0
SPLINE
5
195
100
AcDbEntity
8
1
62
256
6
ByLayer
370
18
48
1
60
0
100
AcDbSpline
70
4
71
2
72
6
73
3
40
0
40
0
40
0
40
1
40
1
40
1
41
1
10
78.4887343236839
20
7.63716439102067
30
0
41
1
10
78.2399506466646
20
7.66749094698338
30
0
41
1
10
78.005115063627
20
7.72645507472675
30
0
0
SPLINE
5
196
100
AcDbEntity
8
1
62
256
6
ByLayer
370
18
48
1
60
0
100
AcDbSpline
70
4
71
2
72
6
73
3
40
0
40
0
40
0
40
1
40
1
40
1
41
1
10
82.0792453941224
20
8.18340725053607
30
0
41
1
10
82.3672818646768
20
8.14860204139414
30
0
41
1
10
82.6518064142571
20
8.07148253082075
30
0
0
SPLINE
5
197
100
AcDbEntity
8
1
62
256
6
ByLayer
370
18
48
1
60
0
100
AcDbSpline
70
4
71
3
72
15
73
11
40
0
40
0
40
0
40
0
40
0.166515919983872
40
0.332774473620627
40
0.501628500714137
40
0.630966776588329
40
0.722350043801144
40
0.814286437225677
40
0.896171486345309
40
1
40
1
40
1
40
1
41
1
10
94.2981574750435
20
-0.0940153788747422
30
0
41
1
10
94.1986178490623
20
-0.120894270988747
30
0
41
1
10
93.9976470075049
20
-0.183897329515646
30
0
41
1
10
93.6880014997783
20
-0.302178732543826
30
0
41
1
10
93.3965630653499
20
-0.44648803439501
30
0
41
1
10
93.1590643820117
20
-0.610311735906676
30
0
41
1
10
92.9961227114717
20
-0.770628352461384
30
0
41
1
10
92.9008918631464
20
-0.91741586109853
30
0
41
1
10
92.8612004867807
20
-1.05944274488491
30
0
41
1
10
92.8657668111095
20
-1.13900622469932
30
0
41
1
10
92.8791710083536
20
-1.17934404467054
30
0
0
SPLINE
5
198
100
AcDbEntity
8
1
62
256
6
ByLayer
370
18
48
1
60
0
100
AcDbSpline
70
4
71
3
72
21
73
17
40
0
40
0
40
0
40
0
40
0.0387846401381918
40
0.0869206919828091
40
0.143208125786674
40
0.206285280140794
40
0.315676119316985
40
0.432650019755858
40
0.54077457424023
40
0.645946529719768
40
0.74352258053799
40
0.828841547097604
40
0.899151826988439
40
0.936215701465233
40
0.969831648817455
40
1
40
1
40
1
40
1
41
1
10
82.4574619626117
20
-2.56016243658746
30
0
41
1
10
82.5955714180365
20
-2.57497782127679
30
0
41
1
10
82.905257113033
20
-2.59723349223507
30
0
41
1
10
83.4174759685868
20
-2.5811663182048
30
0
41
1
10
84.0139672014323
20
-2.53681838195712
30
0
41
1
10
84.8261776009624
20
-2.44651551856454
30
0
41
1
10
85.849867441494
20
-2.29931188590843
30
0
41
1
10
87.0282543612336
20
-2.09819199225243
30
0
41
1
10
88.1860677164993
20
-1.87822307798719
30
0
41
1
10
89.2701173639422
20
-1.65861865130715
30
0
41
1
10
90.2690865330179
20
-1.44931739502989
30
0
41
1
10
91.1403832445442
20
-1.26319737821193
30
0
41
1
10
91.7975061832809
20
-1.13078485624187
30
0
41
1
10
92.2723135229139
20
-1.08801474548584
30
0
41
1
10
92.5967038185118
20
-1.11764770687817
30
0
41
1
10
92.7900972920952
20
-1.15580087494968
30
0
41
1
10
92.879171008354
20
-1.17934404467063
30
0
0
SPLINE
5
199
100
AcDbEntity
8
1
62
256
6
ByLayer
370
18
48
1
60
0
100
AcDbSpline
70
4
71
3
72
15
73
11
40
0
40
0
40
0
40
0
40
0.113779781629084
40
0.22763892996822
40
0.353559136983216
40
0.479544210916594
40
0.63229992321891
40
0.785036244231015
40
0.892516027901576
40
1
40
1
40
1
40
1
41
1
10
87.205716974207
20
1.31680733650707
30
0
41
1
10
87.1159552807448
20
1.16950464196045
30
0
41
1
10
86.9180970059015
20
0.889847837717666
30
0
41
1
10
86.5493999397349
20
0.499041956255974
30
0
41
1
10
86.1161524335293
20
0.152737223615293
30
0
41
1
10
85.5901464779509
20
-0.162191840650783
30
0
41
1
10
84.9858150524813
20
-0.413816071411751
30
0
41
1
10
84.3771053903733
20
-0.564299262761737
30
0
41
1
10
83.823037445002
20
-0.624748767923716
30
0
41
1
10
83.4985071296668
20
-0.623782322535793
30
0
41
1
10
83.3356501961004
20
-0.614288131363195
30
0
0
SPLINE
5
19A
100
AcDbEntity
8
1
62
256
6
ByLayer
370
18
48
1
60
0
100
AcDbSpline
70
4
71
3
72
17
73
13
40
0
40
0
40
0
40
0
40
0.130238464742308
40
0.263334731270984
40
0.393954289831348
40
0.51637334524818
40
0.624775654101446
40
0.716205662892976
40
0.783807881204233
40
0.84643215474748
40
0.915848407525959
40
1
40
1
40
1
40
1
41
1
10
87.2057169742071
20
1.31680733650706
30
0
41
1
10
87.5365216507644
20
1.25389714262756
30
0
41
1
10
88.2004028247696
20
1.12928966766782
30
0
41
1
10
89.1786005138863
20
0.951170435151861
30
0
41
1
10
90.1223765444304
20
0.783409413470275
30
0
41
1
10
90.9925991540127
20
0.632131918909335
30
0
41
1
10
91.7560365838339
20
0.502956256364982
30
0
41
1
10
92.3764127419296
20
0.399841152152898
30
0
41
1
10
92.879903650142
20
0.297577414335649
30
0
41
1
10
93.3225225560435
20
0.177371491142405
30
0
41
1
10
93.7904112141693
20
0.0417452989830866
30
0
41
1
10
94.1194328037511
20
-0.0467345299360851
30
0
41
1
10
94.2981574750333
20
-0.0940153788720679
30
0
0
SPLINE
5
19B
100
AcDbEntity
8
1
62
256
6
ByLayer
370
18
48
1
60
0
100
AcDbSpline
70
4
71
3
72
21
73
17
40
0
40
0
40
0
40
0
40
0.0387846401375008
40
0.0869206919816731
40
0.143208125785326
40
0.206285280139472
40
0.315676119316181
40
0.432650019756177
40
0.540774574242064
40
0.645946529723407
40
0.743522580543512
40
0.828841547104867
40
0.899151826997123
40
0.936215701474595
40
0.969831648827315
40
1
40
1
40
1
40
1
41
1
10
85.5692434727228
20
9.18075361040225
30
0
41
1
10
85.6965039554857
20
9.12500447867531
30
0
41
1
10
85.9765102548747
20
8.99076688002489
30
0
41
1
10
86.4138666961567
20
8.72437420973422
30
0
41
1
10
86.910565696517
20
8.39220078038219
30
0
41
1
10
87.5720988387613
20
7.9139903911146
30
0
41
1
10
88.3891329512696
20
7.28147104341574
30
0
41
1
10
89.3132957731281
20
6.5233899839758
30
0
41
1
10
90.2092566766552
20
5.75537576297747
30
0
41
1
10
91.0405742340741
20
5.02140866099629
30
0
41
1
10
91.802449468493
20
4.33614197503895
30
0
41
1
10
92.4644191935628
20
3.73246021223431
30
0
41
1
10
92.9667391619453
20
3.28079294809217
30
0
41
1
10
93.3548464185519
20
2.9964390648177
30
0
41
1
10
93.6482754670673
20
2.849987682479
30
0
41
1
10
93.8329801549395
20
2.77905126696823
30
0
41
1
10
93.9209086646791
20
2.75118717266206
30
0
0
SPLINE
5
19C
100
AcDbEntity
8
1
62
256
6
ByLayer
370
18
48
1
60
0
100
AcDbSpline
70
4
71
3
72
15
73
11
40
0
40
0
40
0
40
0
40
0.110693970968657
40
0.197429022413271
40
0.284502571994586
40
0.366456905974863
40
0.497678234412344
40
0.615432755153238
40
0.733526927695918
40
1
40
1
40
1
40
1
41
1
10
93.9209086647584
20
2.75118717263467
30
0
41
1
10
93.8882890772971
20
2.72624478982607
30
0
41
1
10
93.8452794521909
20
2.66283805196844
30
0
41
1
10
93.815625854364
20
2.52226072995247
30
0
41
1
10
93.8318265211434
20
2.35843659494191
30
0
41
1
10
93.8928421338061
20
2.1515702524192
30
0
41
1
10
93.998727406536
20
1.9290516758389
30
0
41
1
10
94.1363124553455
20
1.70539894566395
30
0
41
1
10
94.33918864915
20
1.42498874152626
30
0
41
1
10
94.5005813276937
20
1.23103332511532
30
0
41
1
10
94.6166998222049
20
1.1078617269808
30
0
0
SPLINE
5
19D
100
AcDbEntity
8
1
62
256
6
ByLayer
370
18
48
1
60
0
100
AcDbSpline
70
4
71
3
72
17
73
13
40
0
40
0
40
0
40
0
40
0.13023846479017
40
0.263334732062099
40
0.39395429185696
40
0.516373348690231
40
0.624775658810997
40
0.716205668354824
40
0.78380788536518
40
0.846432157703245
40
0.915848409145677
40
1
40
1
40
1
40
1
41
1
10
87.8234108906533
20
3.64739969939531
30
0
41
1
10
88.1401136956984
20
3.53128237082035
30
0
41
1
10
88.7745474291534
20
3.29556808304103
30
0
41
1
10
89.7055653024243
20
2.93943681021036
30
0
41
1
10
90.6009062609854
20
2.58892759318074
30
0
41
1
10
91.4240455558926
20
2.26000215778064
30
0
41
1
10
92.1437730102366
20
1.96590635588712
30
0
41
1
10
92.7270763332678
20
1.7229134320643
30
0
41
1
10
93.2092889333546
20
1.54036549080471
30
0
41
1
10
93.6479315522327
20
1.40515682658475
30
0
41
1
10
94.1154180091167
20
1.26801310789994
30
0
41
1
10
94.4405502160772
20
1.16485843286353
30
0
41
1
10
94.6166998221877
20
1.10786172698635
30
0
0
SPLINE
5
19E
100
AcDbEntity
8
1
62
256
6
ByLayer
370
18
48
1
60
0
100
AcDbSpline
70
4
71
3
72
14
73
10
40
0
40
0
40
0
40
0
40
0.160803108009356
40
0.321601255345444
40
0.482749910744495
40
0.643860957374314
40
0.77768928768414
40
0.911384844347718
40
1
40
1
40
1
40
1
41
1
10
85.4159728899206
20
7.23487930517633
30
0
41
1
10
85.6353870277131
20
7.12476861477167
30
0
41
1
10
86.0502635130457
20
6.87343143808225
30
0
41
1
10
86.6082726779912
20
6.39585892763168
30
0
41
1
10
87.0803417121252
20
5.83816453946068
30
0
41
1
10
87.4350295591412
20
5.24674770861814
30
0
41
1
10
87.673730222287
20
4.64463518260242
30
0
41
1
10
87.7933266206789
20
4.11652785286915
30
0
41
1
10
87.8199842709184
20
3.78206028361337
30
0
41
1
10
87.8234110309176
20
3.64739964801725
30
0
0
SPLINE
5
19F
100
AcDbEntity
8
1
62
256
6
ByLayer
370
18
48
1
60
0
100
AcDbSpline
70
4
71
2
72
6
73
3
40
0
40
0
40
0
40
1
40
1
40
1
41
1
10
83.0777545484486
20
-0.59115060307284
30
0
41
1
10
82.7784098946695
20
-0.555349609686779
30
0
41
1
10
82.4894813073788
20
-0.477337030514634
30
0
0
SPLINE
5
1A0
100
AcDbEntity
8
1
62
256
6
ByLayer
370
18
48
1
60
0
100
AcDbSpline
70
4
71
3
72
11
73
7
40
0
40
0
40
0
40
0
40
0.287267503471611
40
0.570601528946046
40
0.783593067567287
40
1
40
1
40
1
40
1
41
1
10
87.8234110309169
20
3.64739964801778
30
0
41
1
10
87.8285984213938
20
3.4110365293778
30
0
41
1
10
87.8018094647595
20
2.94776758111128
30
0
41
1
10
87.6622585395057
20
2.32048997276681
30
0
41
1
10
87.4577989587425
20
1.77618971812272
30
0
41
1
10
87.2967286744061
20
1.46777603704257
30
0
41
1
10
87.205716974207
20
1.31680733650707
30
0
0
SPLINE
5
1A1
100
AcDbEntity
8
1
62
256
6
ByLayer
370
18
48
1
60
0
100
AcDbSpline
70
4
71
2
72
6
73
3
40
0
40
0
40
0
40
1
40
1
40
1
41
1
10
95.4863963810196
20
0.202943145546769
30
0
41
1
10
94.9012176310365
20
0.0772543034601889
30
0
41
1
10
94.2981574750435
20
-0.0940153788747413
30
0
0
SPLINE
5
1A2
100
AcDbEntity
8
1
62
256
6
ByLayer
370
18
48
1
60
0
100
AcDbSpline
70
4
71
3
72
16
73
12
40
0
40
0
40
0
40
0
40
0.193175194179157
40
0.386603933897724
40
0.499007693810809
40
0.611232808940373
40
0.703623602274012
40
0.795912588408085
40
0.868506640166581
40
0.94103684844427
40
1
40
1
40
1
40
1
41
1
10
74.3270261125237
20
-1.41919725942077
30
0
41
1
10
74.2125463957844
20
-1.30377838278217
30
0
41
1
10
74.0145769319868
20
-1.04582751769856
30
0
41
1
10
73.8608225202381
20
-0.65803124111694
30
0
41
1
10
73.7570642671487
20
-0.26738180359368
30
0
41
1
10
73.7003394142128
20
0.073701402475024
30
0
41
1
10
73.6708400937805
20
0.4333080036526
30
0
41
1
10
73.6696070946103
20
0.7719512634091
30
0
41
1
10
73.6934458252366
20
1.10010871558311
30
0
41
1
10
73.7332504587295
20
1.38938388698071
30
0
41
1
10
73.7692547663578
20
1.5738199463374
30
0
41
1
10
73.7875477428875
20
1.65657100696832
30
0
0
SPLINE
5
1A3
100
AcDbEntity
8
1
62
256
6
ByLayer
370
18
48
1
60
0
100
AcDbSpline
70
4
71
3
72
10
73
6
40
0
40
0
40
0
40
0
40
0.324059532807391
40
0.655488310967218
40
1
40
1
40
1
40
1
41
1
10
74.582251378133
20
-1.79427339389265
30
0
41
1
10
74.400740852544
20
-1.75642736074588
30
0
41
1
10
74.0296863820171
20
-1.64703766076931
30
0
41
1
10
73.4306047150941
20
-1.39408297993991
30
0
41
1
10
73.0461486738596
20
-1.13143601700094
30
0
41
1
10
72.8518047564369
20
-0.976465606813603
30
0
0
SPLINE
5
1A4
100
AcDbEntity
8
1
62
256
6
ByLayer
370
18
48
1
60
0
100
AcDbSpline
70
4
71
3
72
15
73
11
40
0
40
0
40
0
40
0
40
0.0745275399797372
40
0.149166569620987
40
0.296714101987991
40
0.404641565313067
40
0.512745133321918
40
0.692425899560696
40
0.872499590221622
40
1
40
1
40
1
40
1
41
1
10
75.9738574377535
20
9.90563299822127
30
0
41
1
10
76.0059504753916
20
10.0087101637342
30
0
41
1
10
76.0755019970151
20
10.2098158798197
30
0
41
1
10
76.2358484228793
20
10.5934223806636
30
0
41
1
10
76.4465845895149
20
10.971669759903
30
0
41
1
10
76.6904623327988
20
11.3084006824496
30
0
41
1
10
76.9559176474324
20
11.6062094261173
30
0
41
1
10
77.25607259962
20
11.8636689458435
30
0
41
1
10
77.5758282808652
20
12.0364965505953
30
0
41
1
10
77.8129155204479
20
12.1008445094269
30
0
41
1
10
77.9152617240944
20
12.1194052855782
30
0
0
SPLINE
5
1A5
100
AcDbEntity
8
1
62
256
6
ByLayer
370
18
48
1
60
0
100
AcDbSpline
70
4
71
2
72
6
73
3
40
0
40
0
40
0
40
1
40
1
40
1
41
1
10
77.696762485331
20
12.2153151923325
30
0
41
1
10
77.0631442283792
20
12.3041643214493
30
0
41
1
10
76.3359434821286
20
12.1693738878596
30
0
0
SPLINE
5
1A6
100
AcDbEntity
8
1
62
256
6
ByLayer
370
18
48
1
60
0
100
AcDbSpline
70
4
71
1
72
4
73
2
40
0
40
0
40
1
40
1
41
1
10
82.4574619626117
20
-2.56016243658746
30
0
41
1
10
81.7345022105625
20
-3.6423162653809
30
0
0
SPLINE
5
1A7
100
AcDbEntity
8
1
62
256
6
ByLayer
370
18
48
1
60
0
100
AcDbSpline
70
4
71
1
72
4
73
2
40
0
40
0
40
1
40
1
41
1
10
85.5692434727228
20
9.18075361040225
30
0
41
1
10
85.4199061300429
20
10.2629074391977
30
0
0
SPLINE
5
1A8
100
AcDbEntity
8
1
62
256
6
ByLayer
370
18
48
1
60
0
100
AcDbSpline
70
4
71
1
72
4
73
2
40
0
40
0
40
1
40
1
41
1
10
92.1233088421117
20
-3.95170878942769
30
0
41
1
10
91.8124840733621
20
-3.91469740820683
30
0
0
SPLINE
5
1A9
100
AcDbEntity
8
1
62
256
6
ByLayer
370
18
48
1
60
0
100
AcDbSpline
70
4
71
3
72
11
73
7
40
0
40
0
40
0
40
0
40
0.302293823441651
40
0.613181578417231
40
0.805254037931529
40
1
40
1
40
1
40
1
41
1
10
89.5885389875951
20
-3.94686556102179
30
0
41
1
10
89.8327093843224
20
-3.91132964308191
30
0
41
1
10
90.3168210312038
20
-3.85962087132545
30
0
41
1
10
90.9341301963039
20
-3.83322842929721
30
0
41
1
10
91.4319893216569
20
-3.86681320000128
30
0
41
1
10
91.6881852831061
20
-3.89611305059598
30
0
41
1
10
91.8124840733621
20
-3.91469740820683
30
0
0
SPLINE
5
1AA
100
AcDbEntity
8
1
62
256
6
ByLayer
370
18
48
1
60
0
100
AcDbSpline
70
4
71
3
72
14
73
10
40
0
40
0
40
0
40
0
40
0.144402987238159
40
0.288816040396092
40
0.434645866304539
40
0.580466006356704
40
0.789543228855797
40
0.894806799335096
40
1
40
1
40
1
40
1
41
1
10
89.5885389875951
20
-3.94686556102179
30
0
41
1
10
89.2112993677057
20
-3.99824650410058
30
0
41
1
10
88.4553677488689
20
-4.08298884735337
30
0
41
1
10
87.3122893057971
20
-4.15570583094213
30
0
41
1
10
86.1635097084641
20
-4.17510466450372
30
0
41
1
10
84.8448941746946
20
-4.12365797613638
30
0
41
1
10
83.6389228698007
20
-3.99343182718894
30
0
41
1
10
82.5455316986569
20
-3.82822897365158
30
0
41
1
10
82.0039083798444
20
-3.70915936936713
30
0
41
1
10
81.7345022105625
20
-3.6423162653809
30
0
0
SPLINE
5
1AB
100
AcDbEntity
8
1
62
256
6
ByLayer
370
18
48
1
60
0
100
AcDbSpline
70
4
71
3
72
15
73
11
40
0
40
0
40
0
40
0
40
0.183386250218152
40
0.366943563477103
40
0.549390059741182
40
0.671720177562541
40
0.793783034007535
40
0.892517276558757
40
0.991241635182389
40
1
40
1
40
1
40
1
41
1
10
92.8791710083536
20
-1.17934404467054
30
0
41
1
10
92.9250256556587
20
-1.35727413502233
30
0
41
1
10
93.0433220936361
20
-1.6950524267131
30
0
41
1
10
93.2860434263035
20
-2.15864088513291
30
0
41
1
10
93.5969549121214
20
-2.50003049665963
30
0
41
1
10
93.9521771521536
20
-2.72447260649037
30
0
41
1
10
94.3034795753965
20
-2.83908951178255
30
0
41
1
10
94.6935548776469
20
-2.8668776048838
30
0
41
1
10
94.975134200738
20
-2.83829627017777
30
0
41
1
10
95.1278422976658
20
-2.810072680273
30
0
41
1
10
95.1403333886012
20
-2.80768476859654
30
0
0
SPLINE
5
1AC
100
AcDbEntity
8
1
62
256
6
ByLayer
370
18
48
1
60
0
100
AcDbSpline
70
4
71
1
72
4
73
2
40
0
40
0
40
1
40
1
41
1
10
94.0286233634825
20
-3.3420604090968
30
0
41
1
10
95.1403333886012
20
-2.80768476859654
30
0
0
SPLINE
5
1AD
100
AcDbEntity
8
1
62
256
6
ByLayer
370
18
48
1
60
0
100
AcDbSpline
70
4
71
1
72
4
73
2
40
0
40
0
40
1
40
1
41
1
10
92.1233132169175
20
-3.95151750036426
30
0
41
1
10
94.0285202289551
20
-3.3421242805897
30
0
0
SPLINE
5
1AE
100
AcDbEntity
8
1
62
256
6
ByLayer
370
18
48
1
60
0
100
AcDbSpline
70
4
71
3
72
14
73
10
40
0
40
0
40
0
40
0
40
0.121523556149595
40
0.222387548357044
40
0.323386695988189
40
0.488282595064853
40
0.653577964344723
40
0.82669383649284
40
1
40
1
40
1
40
1
41
1
10
96.6049068917895
20
2.71822844047729
30
0
41
1
10
96.4712618749975
20
2.84407186185967
30
0
41
1
10
96.2298521013557
20
3.03871913902168
30
0
41
1
10
95.8825413668748
20
3.2260633777173
30
0
41
1
10
95.5079101287408
20
3.3428066004401
30
0
41
1
10
95.100240973221
20
3.357532616475
30
0
41
1
10
94.6712691188007
20
3.25058190807937
30
0
41
1
10
94.2797952990303
20
3.04027149807215
30
0
41
1
10
94.0364498518952
20
2.85614111170833
30
0
41
1
10
93.9209086647572
20
2.75118717263509
30
0
0
SPLINE
5
1AF
100
AcDbEntity
8
1
62
256
6
ByLayer
370
18
48
1
60
0
100
AcDbSpline
70
4
71
3
72
13
73
9
40
0
40
0
40
0
40
0
40
0.0949456310502647
40
0.189945938410663
40
0.381302979155932
40
0.576203035380221
40
0.772127636249982
40
1
40
1
40
1
40
1
41
1
10
85.4199061300429
20
10.2629074391977
30
0
41
1
10
85.6603463915044
20
10.1924893289162
30
0
41
1
10
86.1372042757346
20
10.0397089691567
30
0
41
1
10
87.0744987017426
20
9.6739419003493
30
0
41
1
10
88.2380727729203
20
9.16419349280882
30
0
41
1
10
89.6007449578854
20
8.45040637459211
30
0
41
1
10
90.987354483704
20
7.58189656963204
30
0
41
1
10
91.8960372214593
20
6.92754697570558
30
0
41
1
10
92.372321369838
20
6.55649244685988
30
0
0
SPLINE
5
1B0
100
AcDbEntity
8
1
62
256
6
ByLayer
370
18
48
1
60
0
100
AcDbSpline
70
4
71
3
72
11
73
7
40
0
40
0
40
0
40
0
40
0.277489935641325
40
0.563277494182935
40
0.780107031837105
40
1
40
1
40
1
40
1
41
1
10
94.2705296948349
20
5.35963859115869
30
0
41
1
10
94.104422210967
20
5.43354537620618
30
0
41
1
10
93.7609660633546
20
5.60552222716225
30
0
41
1
10
93.2568564932785
20
5.9054826791252
30
0
41
1
10
92.792987562787
20
6.23419513331751
30
0
41
1
10
92.51305745779
20
6.44562762375289
30
0
41
1
10
92.372321369838
20
6.55649244685988
30
0
0
SPLINE
5
1B1
100
AcDbEntity
8
1
62
256
6
ByLayer
370
18
48
1
60
0
100
AcDbSpline
70
4
71
1
72
4
73
2
40
0
40
0
40
1
40
1
41
1
10
94.2705296948349
20
5.35963859115869
30
0
41
1
10
94.5541337741498
20
5.21992211053093
30
0
0
SPLINE
5
1B2
100
AcDbEntity
8
1
62
256
6
ByLayer
370
18
48
1
60
0
100
AcDbSpline
70
4
71
1
72
4
73
2
40
0
40
0
40
1
40
1
41
1
10
95.9026286595358
20
3.72891001309901
30
0
41
1
10
94.5540427469186
20
5.21975385890185
30
0
0
SPLINE
5
1B3
100
AcDbEntity
8
1
62
256
6
ByLayer
370
18
48
1
60
0
100
AcDbSpline
70
4
71
1
72
4
73
2
40
0
40
0
40
1
40
1
41
1
10
95.9026729068867
20
3.72882753476771
30
0
41
1
10
96.6049068918069
20
2.71822844046082
30
0
0
SPLINE
5
1B4
100
AcDbEntity
8
1
62
256
6
ByLayer
370
18
48
1
60
0
100
AcDbSpline
70
4
71
1
72
4
73
2
40
0
40
0
40
1
40
1
41
1
10
96.2885984885989
20
-2.19387983885097
30
0
41
1
10
96.5183582052452
20
-2.10816028657455
30
0
0
SPLINE
5
1B5
100
AcDbEntity
8
1
62
256
6
ByLayer
370
18
48
1
60
0
100
AcDbSpline
70
4
71
1
72
4
73
2
40
0
40
0
40
1
40
1
41
1
10
97.4469070599533
20
1.39530360163017
30
0
41
1
10
97.2920171713993
20
1.59207186645482
30
0
0
SPLINE
5
1B6
100
AcDbEntity
8
1
62
256
6
ByLayer
370
18
48
1
60
0
100
AcDbSpline
70
4
71
3
72
22
73
18
40
0
40
0
40
0
40
0
40
0.0366000893811601
40
0.0708626471743512
40
0.105158186532946
40
0.142773279968209
40
0.180539702576129
40
0.218248187139565
40
0.273588458578395
40
0.329095011168278
40
0.384714363325671
40
0.440208856403879
40
0.551892957875824
40
0.66376338638316
40
0.775868789187315
40
0.888052580955117
40
1
40
1
40
1
40
1
41
1
10
20
20
-24.9999999999998
30
0
41
1
10
20.0011870204566
20
-24.9997281271451
30
0
41
1
10
20.0442816749102
20
-24.9900720352493
30
0
41
1
10
20.2335242217205
20
-24.9476667358605
30
0
41
1
10
20.5227745177004
20
-24.8829559602006
30
0
41
1
10
20.9100782064779
20
-24.7965020166293
30
0
41
1
10
21.3807420033038
20
-24.6917291013812
30
0
41
1
10
21.9883180390655
20
-24.556890808618
30
0
41
1
10
22.7423411337887
20
-24.3903278600114
30
0
41
1
10
23.649127344464
20
-24.1911359279768
30
0
41
1
10
24.602542712336
20
-23.9828986909817
30
0
41
1
10
25.9207413659319
20
-23.6967751092848
30
0
41
1
10
27.6268826441772
20
-23.3302886365526
30
0
41
1
10
29.7430924815938
20
-22.8819436915001
30
0
41
1
10
31.9087857848888
20
-22.4294682837274
30
0
41
1
10
34.1081784909263
20
-21.9764688113369
30
0
41
1
10
35.5870963530523
20
-21.6765583526725
30
0
41
1
10
36.3297489706193
20
-21.5270793626057
30
0
0
SPLINE
5
1B7
100
AcDbEntity
8
1
62
256
6
ByLayer
370
18
48
1
60
0
100
AcDbSpline
70
4
71
3
72
23
73
19
40
0
40
0
40
0
40
0
40
0.139713083660562
40
0.228331312140777
40
0.317094254741138
40
0.405817188678195
40
0.494405223177768
40
0.582876537975113
40
0.638617596308149
40
0.694507816179552
40
0.750252240595216
40
0.805793858134233
40
0.846645756055065
40
0.887453382828214
40
0.915010474923667
40
0.942644845108116
40
0.970142530736296
40
1
40
1
40
1
40
1
41
1
10
37.9125268204648
20
21.2103849732933
30
0
41
1
10
36.9073558906187
20
21.4104072865879
30
0
41
1
10
35.2745282482034
20
21.7387193149414
30
0
41
1
10
33.0271515781912
20
22.1984326474835
30
0
41
1
10
31.1596669589314
20
22.5853919915666
30
0
41
1
10
29.3186691377483
20
22.9715464131679
30
0
41
1
10
27.5154675846854
20
23.3543006605625
30
0
41
1
10
25.9779810337958
20
23.6845030633952
30
0
41
1
10
24.6947140419711
20
23.9628114182762
30
0
41
1
10
23.6580619500597
20
24.1891680902635
30
0
41
1
10
22.676606540187
20
24.4047949570084
30
0
41
1
10
21.8512604578646
20
24.5872239239935
30
0
41
1
10
21.1826486293345
20
24.7357657055914
30
0
41
1
10
20.7238886935343
20
24.8380348251009
30
0
41
1
10
20.397391409856
20
24.9109988136505
30
0
41
1
10
20.1800292103665
20
24.9596494266222
30
0
41
1
10
20.0339272007517
20
24.9923937848847
30
0
41
1
10
20.0006158754485
20
24.9998585538806
30
0
41
1
10
20
20
25
30
0
0
SPLINE
5
1B8
100
AcDbEntity
8
1
62
256
6
ByLayer
370
18
48
1
60
0
100
AcDbSpline
70
4
71
3
72
14
73
10
40
0
40
0
40
0
40
0
40
0.140153303222531
40
0.280279606292095
40
0.42560116355283
40
0.57088277539106
40
0.765736256090629
40
0.960457972307612
40
1
40
1
40
1
40
1
41
1
10
36.2297978918789
20
18.4901836363071
30
0
41
1
10
36.2292637389248
20
18.6522531187322
30
0
41
1
10
36.2486077122264
20
18.968250030238
30
0
41
1
10
36.3373894231827
20
19.425399487196
30
0
41
1
10
36.4964430639148
20
19.8586672307573
30
0
41
1
10
36.7587931059047
20
20.3096375817616
30
0
41
1
10
37.1642264923485
20
20.7499662479205
30
0
41
1
10
37.5960696062338
20
21.0468132953345
30
0
41
1
10
37.865983404378
20
21.1872552254704
30
0
41
1
10
37.9125268204648
20
21.2103849732933
30
0
0
SPLINE
5
1B9
100
AcDbEntity
8
1
62
256
6
ByLayer
370
18
48
1
60
0
100
AcDbSpline
70
4
71
1
72
4
73
2
40
0
40
0
40
1
40
1
41
1
10
36.2297978918789
20
-11.9422482561439
30
0
41
1
10
35.49788757908
20
-12.018860148674
30
0
0
SPLINE
5
1BA
100
AcDbEntity
8
1
62
256
6
ByLayer
370
18
48
1
60
0
100
AcDbSpline
70
4
71
3
72
13
73
9
40
0
40
0
40
0
40
0
40
0.0811068003230516
40
0.54205969579374
40
0.698217929308324
40
0.855466894270603
40
0.966212236972875
40
1
40
1
40
1
40
1
41
1
10
11.8943375672974
20
23.6665017920809
30
0
41
1
10
11.8894428381777
20
23.6728293617709
30
0
41
1
10
11.8534346287606
20
23.7145200781299
30
0
41
1
10
11.7877522749416
20
23.7663890526222
30
0
41
1
10
11.6656255980129
20
23.8124861135428
30
0
41
1
10
11.5793223070755
20
23.8319383085953
30
0
41
1
10
11.5056611588718
20
23.8385548003314
30
0
41
1
10
11.4698010058117
20
23.8391220894067
30
0
41
1
10
11.4613248654052
20
23.8391299750504
30
0
0
SPLINE
5
1BB
100
AcDbEntity
8
1
62
256
6
ByLayer
370
18
48
1
60
0
100
AcDbSpline
70
4
71
3
72
12
73
8
40
0
40
0
40
0
40
0
40
0.0777065243411373
40
0.182768991260443
40
0.355509705274232
40
0.661119206188007
40
1
40
1
40
1
40
1
41
1
10
8.5386751345948
20
23.8391299750503
30
0
41
1
10
8.51889061425139
20
23.8390510092636
30
0
41
1
10
8.47384249247805
20
23.837417080354
30
0
41
1
10
8.390979334746
20
23.8265956452496
30
0
41
1
10
8.28079022698235
20
23.7967264721262
30
0
41
1
10
8.17813160018114
20
23.7411879478122
30
0
41
1
10
8.12412228713196
20
23.6935586164053
30
0
41
1
10
8.10566243270259
20
23.6665017920809
30
0
0
SPLINE
5
1BC
100
AcDbEntity
8
1
62
256
6
ByLayer
370
18
48
1
60
0
100
AcDbSpline
70
4
71
3
72
13
73
9
40
0
40
0
40
0
40
0
40
0.0811068003230402
40
0.542059695793729
40
0.698217929308317
40
0.8554668942706
40
0.966212236972871
40
1
40
1
40
1
40
1
41
1
10
8.10566243270259
20
8.05584836782774
30
0
41
1
10
8.11055716182229
20
8.037251714098
30
0
41
1
10
8.14656537123943
20
7.91434257650656
30
0
41
1
10
8.21224772505842
20
7.75704006565196
30
0
41
1
10
8.33437440198708
20
7.61365769814303
30
0
41
1
10
8.42067769292452
20
7.55243803205593
30
0
41
1
10
8.4943388411282
20
7.53148602816114
30
0
41
1
10
8.53019899418831
20
7.52969262189674
30
0
41
1
10
8.5386751345948
20
7.52966679426498
30
0
0
SPLINE
5
1BD
100
AcDbEntity
8
1
62
256
6
ByLayer
370
18
48
1
60
0
100
AcDbSpline
70
4
71
3
72
12
73
8
40
0
40
0
40
0
40
0
40
0.0777065243411944
40
0.182768991260512
40
0.355509705274339
40
0.661119206188221
40
1
40
1
40
1
40
1
41
1
10
11.4613248654052
20
7.52966679426499
30
0
41
1
10
11.4811093857486
20
7.52992453895395
30
0
41
1
10
11.526157507522
20
7.53508753718821
30
0
41
1
10
11.609020665254
20
7.56930040674384
30
0
41
1
10
11.7192097730177
20
7.66302821977539
30
0
41
1
10
11.8218683998189
20
7.83415197314228
30
0
41
1
10
11.875877712868
20
7.97612018956258
30
0
41
1
10
11.8943375672974
20
8.05584836782772
30
0
0
SPLINE
5
1BE
100
AcDbEntity
8
1
62
256
6
ByLayer
370
18
48
1
60
0
100
AcDbSpline
70
4
71
3
72
13
73
9
40
0
40
0
40
0
40
0
40
0.0811068003230101
40
0.542059695793591
40
0.698217929308222
40
0.855466894270549
40
0.966212236972826
40
1
40
1
40
1
40
1
41
1
10
11.8943375672974
20
-8.05584836782772
30
0
41
1
10
11.8894428381777
20
-8.03725171409798
30
0
41
1
10
11.8534346287606
20
-7.91434257650657
30
0
41
1
10
11.7877522749416
20
-7.757040065652
30
0
41
1
10
11.665625598013
20
-7.61365769814305
30
0
41
1
10
11.5793223070755
20
-7.55243803205596
30
0
41
1
10
11.5056611588718
20
-7.53148602816109
30
0
41
1
10
11.4698010058117
20
-7.52969262189674
30
0
41
1
10
11.4613248654052
20
-7.52966679426498
30
0
0
SPLINE
5
1BF
100
AcDbEntity
8
1
62
256
6
ByLayer
370
18
48
1
60
0
100
AcDbSpline
70
4
71
3
72
12
73
8
40
0
40
0
40
0
40
0
40
0.077706524341125
40
0.18276899126043
40
0.355509705274207
40
0.661119206187953
40
1
40
1
40
1
40
1
41
1
10
8.53867513459481
20
-7.529666794265
30
0
41
1
10
8.5188906142514
20
-7.52992453895396
30
0
41
1
10
8.47384249247805
20
-7.5350875371882
30
0
41
1
10
8.39097933474602
20
-7.56930040674382
30
0
41
1
10
8.28079022698236
20
-7.66302821977531
30
0
41
1
10
8.17813160018116
20
-7.83415197314221
30
0
41
1
10
8.12412228713197
20
-7.97612018956252
30
0
41
1
10
8.10566243270259
20
-8.05584836782773
30
0
0
SPLINE
5
1C0
100
AcDbEntity
8
1
62
256
6
ByLayer
370
18
48
1
60
0
100
AcDbSpline
70
4
71
3
72
13
73
9
40
0
40
0
40
0
40
0
40
0.0811068003230299
40
0.542059695793712
40
0.698217929308303
40
0.85546689427059
40
0.966212236972861
40
1
40
1
40
1
40
1
41
1
10
8.10566243270259
20
-23.6665017920809
30
0
41
1
10
8.11055716182229
20
-23.6728293617709
30
0
41
1
10
8.14656537123944
20
-23.7145200781299
30
0
41
1
10
8.21224772505842
20
-23.7663890526222
30
0
41
1
10
8.33437440198707
20
-23.8124861135428
30
0
41
1
10
8.42067769292451
20
-23.8319383085952
30
0
41
1
10
8.4943388411282
20
-23.8385548003314
30
0
41
1
10
8.53019899418831
20
-23.8391220894067
30
0
41
1
10
8.5386751345948
20
-23.8391299750503
30
0
0
SPLINE
5
1C1
100
AcDbEntity
8
1
62
256
6
ByLayer
370
18
48
1
60
0
100
AcDbSpline
70
4
71
3
72
12
73
8
40
0
40
0
40
0
40
0
40
0.0777065243411905
40
0.182768991260507
40
0.355509705274323
40
0.661119206188188
40
1
40
1
40
1
40
1
41
1
10
11.4613248654052
20
-23.8391299750504
30
0
41
1
10
11.4811093857486
20
-23.8390510092636
30
0
41
1
10
11.526157507522
20
-23.837417080354
30
0
41
1
10
11.609020665254
20
-23.8265956452496
30
0
41
1
10
11.7192097730177
20
-23.7967264721262
30
0
41
1
10
11.8218683998189
20
-23.7411879478122
30
0
41
1
10
11.875877712868
20
-23.6935586164053
30
0
41
1
10
11.8943375672974
20
-23.6665017920809
30
0
0
SPLINE
5
1C2
100
AcDbEntity
8
1
62
256
6
ByLayer
370
18
48
1
60
0
100
AcDbSpline
70
4
71
3
72
18
73
14
40
0
40
0
40
0
40
0
40
0.0590614279712477
40
0.159173898619506
40
0.259336198315831
40
0.363292342295325
40
0.467318386663591
40
0.568901748968329
40
0.670857147007906
40
0.772560030298987
40
0.876364723375686
40
0.98040242781706
40
1
40
1
40
1
40
1
41
1
10
36.2299869520485
20
-5.30637644456892
30
0
41
1
10
36.2311838976924
20
-5.30634165879344
30
0
41
1
10
36.2475022879108
20
-5.31948226791971
30
0
41
1
10
36.3343061714274
20
-5.40146985830588
30
0
41
1
10
36.5145898548202
20
-5.57763625937389
30
0
41
1
10
36.7706771500113
20
-5.8321582961263
30
0
41
1
10
37.0867921954496
20
-6.15209111783679
30
0
41
1
10
37.4478531624747
20
-6.5241443965185
30
0
41
1
10
37.839005379966
20
-6.93844332310859
30
0
41
1
10
38.2543899883897
20
-7.39680410757714
30
0
41
1
10
38.6851903138262
20
-7.89538245948974
30
0
41
1
10
39.00260584765
20
-8.2896601317207
30
0
41
1
10
39.160150280029
20
-8.52117173112897
30
0
41
1
10
39.1849214300292
20
-8.55820711923425
30
0
0
SPLINE
5
1C3
100
AcDbEntity
8
SK1
62
256
6
ByLayer
370
18
48
1
60
0
100
AcDbSpline
70
4
71
3
72
17
73
13
40
0
40
0
40
0
40
0
40
0.46548550635137
40
0.669701843128606
40
0.774084356421137
40
0.856371664793533
40
0.897755153898637
40
0.917428272144483
40
0.937237772131977
40
0.95519162468179
40
0.984018190502027
40
1
40
1
40
1
40
1
41
1
10
-0.200000000000038
20
-5.88142397393346
30
0
41
1
10
-0.196064780878201
20
-5.75474600051132
30
0
41
1
10
-0.206716278472284
20
-5.57221313865744
30
0
41
1
10
-0.236369718937369
20
-5.35851195688538
30
0
41
1
10
-0.26512383764685
20
-5.2522119738577
30
0
41
1
10
-0.291115782477694
20
-5.19220348818486
30
0
41
1
10
-0.31809131048584
20
-5.15994791139139
30
0
41
1
10
-0.338430402128569
20
-5.14828626530393
30
0
41
1
10
-0.354699344248621
20
-5.14548380678133
30
0
41
1
10
-0.372899440263033
20
-5.14897430103643
30
0
41
1
10
-0.387749096358135
20
-5.15784519057131
30
0
41
1
10
-0.396918780971331
20
-5.16560053879509
30
0
41
1
10
-0.400000000000052
20
-5.16866679574503
30
0
0
SPLINE
5
1C4
100
AcDbEntity
8
SK1
62
256
6
ByLayer
370
18
48
1
60
0
100
AcDbSpline
70
4
71
3
72
16
73
12
40
0
40
0
40
0
40
0
40
0.0439503849784342
40
0.0882962095956781
40
0.119823748748282
40
0.151333080321582
40
0.197785752387554
40
0.285208338526593
40
0.432294100651084
40
0.580085301699413
40
1
40
1
40
1
40
1
41
1
10
-0.40000000000004
20
-5.16866679574529
30
0
41
1
10
-0.420260552159721
20
-5.18959123991625
30
0
41
1
10
-0.465532793809275
20
-5.2245968957623
30
0
41
1
10
-0.540325064014479
20
-5.25975746385925
30
0
41
1
10
-0.61556627839364
20
-5.26603853608321
30
0
41
1
10
-0.689853412389387
20
-5.24890814810322
30
0
41
1
10
-0.785804329696913
20
-5.19137211714253
30
0
41
1
10
-0.905339112737131
20
-5.05378758708942
30
0
41
1
10
-1.02152968139802
20
-4.84183055168615
30
0
41
1
10
-1.17561394769092
20
-4.42035003265137
30
0
41
1
10
-1.26556409785407
20
-4.07230605007436
30
0
41
1
10
-1.30710678118655
20
-3.80474664113271
30
0
0
SPLINE
5
1C5
100
AcDbEntity
8
SK1
62
256
6
ByLayer
370
18
48
1
60
0
100
AcDbSpline
70
4
71
3
72
16
73
12
40
0
40
0
40
0
40
0
40
0.351058812479027
40
0.549490242882302
40
0.745650751445109
40
0.831752432968095
40
0.866430020907749
40
0.901364413669997
40
0.932606866569396
40
0.983122008469398
40
1
40
1
40
1
40
1
41
1
10
-1.30710678118655
20
3.80474436172741
30
0
41
1
10
-1.26978415806151
20
4.02733440489884
30
0
41
1
10
-1.18638534235563
20
4.36574772826711
30
0
41
1
10
-1.04345715092741
20
4.81143795815715
30
0
41
1
10
-0.896883993281798
20
5.07907048283339
30
0
41
1
10
-0.744504610413001
20
5.22449701225535
30
0
41
1
10
-0.644314188243218
20
5.26265754541681
30
0
41
1
10
-0.573027760448875
20
5.26521974999095
30
0
41
1
10
-0.495568383822386
20
5.242523706974
30
0
41
1
10
-0.440485899594329
20
5.20534570545952
30
0
41
1
10
-0.407839795734878
20
5.17633421110904
30
0
41
1
10
-0.400000000000011
20
5.16866682996364
30
0
0
SPLINE
5
1C6
100
AcDbEntity
8
SK1
62
256
6
ByLayer
370
18
48
1
60
0
100
AcDbSpline
70
4
71
3
72
17
73
13
40
0
40
0
40
0
40
0
40
0.0303514220253188
40
0.0536155087252499
40
0.0719362364152822
40
0.0902747582477795
40
0.115197940679837
40
0.15956565892942
40
0.298138202990394
40
0.587610881223524
40
0.878287013648291
40
1
40
1
40
1
40
1
41
1
10
-0.400000000000039
20
5.16866682996297
30
0
41
1
10
-0.394167575628444
20
5.16254689062886
30
0
41
1
10
-0.382671289712247
20
5.15403748188184
30
0
41
1
10
-0.364264031241593
20
5.14642716889598
30
0
41
1
10
-0.347332913984083
20
5.14606544583305
30
0
41
1
10
-0.330541138979937
20
5.1518329149415
30
0
41
1
10
-0.310401603395071
20
5.16756125175962
30
0
41
1
10
-0.276165558567052
20
5.21722886754103
30
0
41
1
10
-0.236739282710337
20
5.34658114116619
30
0
41
1
10
-0.207575999148839
20
5.54435821740557
30
0
41
1
10
-0.201433990875353
20
5.73654934889382
30
0
41
1
10
-0.199982261339106
20
5.84846084555253
30
0
41
1
10
-0.200000000000038
20
5.88142452370542
30
0
0
SPLINE
5
1C7
100
AcDbEntity
8
SK1
62
256
6
ByLayer
370
18
48
1
60
0
100
AcDbSpline
70
4
71
3
72
14
73
10
40
0
40
0
40
0
40
0
40
0.106385868855732
40
0.253705813711892
40
0.401007656750248
40
0.548297602518328
40
0.695579676619925
40
0.842856519018133
40
1
40
1
40
1
40
1
41
1
10
-2.19993687480718
20
-17.5201003687863
30
0
41
1
10
-2.19994421610192
20
-17.5193673450503
30
0
41
1
10
-2.19995986090332
20
-17.4927860913816
30
0
41
1
10
-2.19997656138666
20
-17.3524594073249
30
0
41
1
10
-2.1999882010107
20
-17.0884031980283
30
0
41
1
10
-2.19999491450112
20
-16.7229200646697
30
0
41
1
10
-2.19999839687952
20
-16.2635090711791
30
0
41
1
10
-2.19999979498391
20
-15.702993954098
30
0
41
1
10
-2.20000009281284
20
-15.2662928156274
30
0
41
1
10
-2.20000000000001
20
-15.0247808645651
30
0
0
SPLINE
5
1C8
100
AcDbEntity
8
SK1
62
256
6
ByLayer
370
18
48
1
60
0
100
AcDbSpline
70
4
71
2
72
6
73
3
40
0
40
0
40
0
40
1
40
1
40
1
41
1
10
-2.19492113517947
20
17.5202263833814
30
0
41
1
10
-2.59746056758973
20
17.5101131917171
30
0
41
1
10
-3
20
17.5000000000527
30
0
0
SPLINE
5
1C9
100
AcDbEntity
8
SK1
62
256
6
ByLayer
370
18
48
1
60
0
100
AcDbSpline
70
4
71
2
72
6
73
3
40
0
40
0
40
0
40
1
40
1
40
1
41
1
10
-3
20
-17.5000000000204
30
0
41
1
10
-2.59746056758973
20
-17.5101131916847
30
0
41
1
10
-2.19492113517947
20
-17.5202263833491
30
0
0
SPLINE
5
1CA
100
AcDbEntity
8
SK1
62
256
6
ByLayer
370
18
48
1
60
0
100
AcDbSpline
70
4
71
3
72
15
73
11
40
0
40
0
40
0
40
0
40
0.0482444810784745
40
0.186543205617606
40
0.324838385324127
40
0.462925361425484
40
0.601017890324561
40
0.739118499993595
40
0.87723095696793
40
1
40
1
40
1
40
1
41
1
10
-2.20000000000001
20
15.0247809138972
30
0
41
1
10
-2.2000000044163
20
15.0987889684388
30
0
41
1
10
-2.19999995978618
20
15.3792399160369
30
0
41
1
10
-2.19999962765236
20
15.8299994029118
30
0
41
1
10
-2.19999800602194
20
16.3305015634396
30
0
41
1
10
-2.19999447164769
20
16.7522406353037
30
0
41
1
10
-2.19998798014741
20
17.0906741523661
30
0
41
1
10
-2.19997713313472
20
17.3398330375015
30
0
41
1
10
-2.19996107277159
20
17.4876542247601
30
0
41
1
10
-2.19994531729302
20
17.5191036010008
30
0
41
1
10
-2.19993687627274
20
17.5201003696443
30
0
0
SPLINE
5
1CB
100
AcDbEntity
8
SK1
62
256
6
ByLayer
370
18
48
1
60
0
100
AcDbSpline
70
4
71
2
72
6
73
3
40
0
40
0
40
0
40
1
40
1
40
1
41
1
10
-3
20
17.5000000000527
30
0
41
1
10
-15.7502365839532
20
17.1796696772131
30
0
41
1
10
-28.5004731679065
20
16.8593393543735
30
0
0
SPLINE
5
1CC
100
AcDbEntity
8
SK1
62
256
6
ByLayer
370
18
48
1
60
0
100
AcDbSpline
70
4
71
2
72
6
73
3
40
0
40
0
40
0
40
1
40
1
40
1
41
1
10
-28.5004731679065
20
-16.8593393543424
30
0
41
1
10
-15.7502365839532
20
-17.1796696771814
30
0
41
1
10
-3
20
-17.5000000000204
30
0
0
SPLINE
5
1CD
100
AcDbEntity
8
SK1
62
256
6
ByLayer
370
18
48
1
60
0
100
AcDbSpline
70
4
71
3
72
13
73
9
40
0
40
0
40
0
40
0
40
0.239468143101075
40
0.368375717557483
40
0.50001641368263
40
0.631654380070983
40
0.76055442752933
40
1
40
1
40
1
40
1
41
1
10
-2
20
17.3251501409626
30
0
41
1
10
-2.02607195862894
20
17.3254032171872
30
0
41
1
10
-2.06363514911804
20
17.3325204701499
30
0
41
1
10
-2.11047805080219
20
17.3567460306058
30
0
41
1
10
-2.14242236455519
20
17.382721349279
30
0
41
1
10
-2.16840047419731
20
17.414662371353
30
0
41
1
10
-2.19262861856614
20
17.4615002450208
30
0
41
1
10
-2.19974657466873
20
17.4990601036781
30
0
41
1
10
-2.2
20
17.5251299249899
30
0
0
SPLINE
5
1CE
100
AcDbEntity
8
SK1
62
256
6
ByLayer
370
18
48
1
60
0
100
AcDbSpline
70
4
71
3
72
13
73
9
40
0
40
0
40
0
40
0
40
0.239445575724619
40
0.368345624848071
40
0.499983592440208
40
0.631624288955048
40
0.76053186267522
40
1
40
1
40
1
40
1
41
1
10
-2.2
20
-17.5251299251292
30
0
41
1
10
-2.19974657467479
20
-17.4990601038703
30
0
41
1
10
-2.19262861856452
20
-17.4615002452731
30
0
41
1
10
-2.16840047423857
20
-17.4146623717452
30
0
41
1
10
-2.14242236464553
20
-17.3827213497399
30
0
41
1
10
-2.11047805094366
20
-17.3567460311215
30
0
41
1
10
-2.06363514965123
20
-17.3325204707743
30
0
41
1
10
-2.02607195888454
20
-17.3254032177991
30
0
41
1
10
-2
20
-17.3251501414068
30
0
0
SPLINE
5
1CF
100
AcDbEntity
8
SK1
62
256
6
ByLayer
370
18
48
1
60
0
100
AcDbSpline
70
4
71
3
72
16
73
12
40
0
40
0
40
0
40
0
40
0.101870722793165
40
0.203718363389488
40
0.308089951926134
40
0.41241525276698
40
0.52916162839408
40
0.646391561672251
40
0.763296187326094
40
0.881625644108369
40
1
40
1
40
1
40
1
41
1
10
-1.30710678118655
20
3.80474436172741
30
0
41
1
10
-1.3528175512732
20
3.56030061780931
30
0
41
1
10
-1.43825474283595
20
3.06526047616153
30
0
41
1
10
-1.55260961619648
20
2.29746051127423
30
0
41
1
10
-1.64288396017673
20
1.50511996075521
30
0
41
1
10
-1.70375008696193
20
0.658796178987246
30
0
41
1
10
-1.71477648367587
20
-0.231403505662119
30
0
41
1
10
-1.67300909917651
20
-1.15039276708552
30
0
41
1
10
-1.5850927092093
20
-2.05785190512705
30
0
41
1
10
-1.45861282398588
20
-2.94424663120603
30
0
41
1
10
-1.36053835676226
20
-3.52065829215743
30
0
41
1
10
-1.30710678118664
20
-3.80474664113296
30
0
0
SPLINE
5
1D0
100
AcDbEntity
8
SK1
62
256
6
ByLayer
370
18
48
1
60
0
100
AcDbSpline
70
4
71
2
72
6
73
3
40
0
40
0
40
0
40
1
40
1
40
1
41
1
10
-0.400000000000016
20
17.3251501409626
30
0
41
1
10
-1.20000000000001
20
17.3251501409626
30
0
41
1
10
-2
20
17.3251501409626
30
0
0
SPLINE
5
1D1
100
AcDbEntity
8
SK1
62
256
6
ByLayer
370
18
48
1
60
0
100
AcDbSpline
70
4
71
2
72
6
73
3
40
0
40
0
40
0
40
1
40
1
40
1
41
1
10
-2
20
-17.3251501414068
30
0
41
1
10
-1.20000000000001
20
-17.3251501414068
30
0
41
1
10
-0.400000000000016
20
-17.3251501414068
30
0
0
SPLINE
5
1D2
100
AcDbEntity
8
SK1
62
256
6
ByLayer
370
18
48
1
60
0
100
AcDbSpline
70
4
71
2
72
6
73
3
40
0
40
0
40
0
40
1
40
1
40
1
41
1
10
-28.5003904504266
20
16.8597456617469
30
0
41
1
10
-29.2501952787077
20
16.4010253845872
30
0
41
1
10
-30
20
15.9423013487186
30
0
0
SPLINE
5
1D3
100
AcDbEntity
8
SK1
62
256
6
ByLayer
370
18
48
1
60
0
100
AcDbSpline
70
4
71
2
72
6
73
3
40
0
40
0
40
0
40
1
40
1
40
1
41
1
10
-30
20
-15.9408160639395
30
0
41
1
10
-29.250201613525
20
-16.3993636736336
30
0
41
1
10
-28.5004032853135
20
-16.8579102610953
30
0
0
SPLINE
5
1D4
100
AcDbEntity
8
SK1
62
256
6
ByLayer
370
18
48
1
60
0
100
AcDbSpline
70
4
71
3
72
11
73
7
40
0
40
0
40
0
40
0
40
0.245755007744097
40
0.501794198211022
40
0.756953870258399
40
1
40
1
40
1
40
1
41
1
10
-0.200000000000015
20
17.5191731511753
30
0
41
1
10
-0.199994647676401
20
17.4938449669989
30
0
41
1
10
-0.209350242264534
20
17.445622853432
30
0
41
1
10
-0.254178184246641
20
17.3766360753193
30
0
41
1
10
-0.324420736760799
20
17.33275982811
30
0
41
1
10
-0.373991067023653
20
17.3239685556465
30
0
41
1
10
-0.400000000000017
20
17.3241476526065
30
0
0
SPLINE
5
1D5
100
AcDbEntity
8
SK1
62
256
6
ByLayer
370
18
48
1
60
0
100
AcDbSpline
70
4
71
3
72
11
73
7
40
0
40
0
40
0
40
0
40
0.243046950855205
40
0.49820466819263
40
0.754242469704772
40
1
40
1
40
1
40
1
41
1
10
-0.400000000000017
20
-17.3241468641747
30
0
41
1
10
-0.373991174653762
20
-17.3239674893689
30
0
41
1
10
-0.324421202647551
20
-17.332758304075
30
0
41
1
10
-0.254178044541108
20
-17.3766339294131
30
0
41
1
10
-0.209350044376059
20
-17.4456203921356
30
0
41
1
10
-0.199994500672231
20
-17.4938412312525
30
0
41
1
10
-0.200000000000015
20
-17.5191688355708
30
0
0
SPLINE
5
1D6
100
AcDbEntity
8
1
62
256
6
ByLayer
370
18
48
1
60
0
100
AcDbSpline
70
4
71
3
72
12
73
8
40
0
40
0
40
0
40
0
40
0.0690540297947658
40
0.319530410949562
40
0.577012067215097
40
0.786539323500435
40
1
40
1
40
1
40
1
41
1
10
37.9125268204648
20
21.2103849732933
30
0
41
1
10
37.9757724713414
20
21.1977985445347
30
0
41
1
10
38.2744153199367
20
21.1384176907009
30
0
41
1
10
38.8693854317605
20
21.0204648125699
30
0
41
1
10
39.6939277906284
20
20.8579732661675
30
0
41
1
10
40.5314655107732
20
20.6939036002508
30
0
41
1
10
41.0701162740053
20
20.5890051602745
30
0
41
1
10
41.3476541164523
20
20.5350993409131
30
0
0
SPLINE
5
1D7
100
AcDbEntity
8
1
62
256
6
ByLayer
370
18
48
1
60
0
100
AcDbSpline
70
4
71
2
72
6
73
3
40
0
40
0
40
0
40
1
40
1
40
1
41
1
10
41.3476541164523
20
-20.535099340913
30
0
41
1
10
40.6236471297755
20
-20.675711021807
30
0
41
1
10
39.944359402422
20
-20.8089725573911
30
0
0
SPLINE
5
1D8
100
AcDbEntity
8
1
62
256
6
ByLayer
370
18
48
1
60
0
100
AcDbSpline
70
4
71
3
72
11
73
7
40
0
40
0
40
0
40
0
40
0.243967275379627
40
0.490073762726307
40
0.743792154168325
40
1
40
1
40
1
40
1
41
1
10
71.2488478137673
20
15.147938092057
30
0
41
1
10
71.1330623839248
20
15.0036333805254
30
0
41
1
10
70.9161828784992
20
14.7036791240799
30
0
41
1
10
70.6405095399888
20
14.2119539876949
30
0
41
1
10
70.3983756814679
20
13.6921503722485
30
0
41
1
10
70.2769899582778
20
13.3255604974049
30
0
41
1
10
70.2252662300867
20
13.1375209725337
30
0
0
SPLINE
5
1D9
100
AcDbEntity
8
1
62
256
6
ByLayer
370
18
48
1
60
0
100
AcDbSpline
70
4
71
3
72
15
73
11
40
0
40
0
40
0
40
0
40
0.121432781348749
40
0.242857256103149
40
0.366312450963323
40
0.489949956517439
40
0.613040985309603
40
0.754325318927434
40
0.895551796214159
40
1
40
1
40
1
40
1
41
1
10
67.1390974945413
20
1.49324327723072
30
0
41
1
10
67.0632326193999
20
1.20453157305269
30
0
41
1
10
66.9585330166363
20
0.623739592407438
30
0
41
1
10
66.9595674517467
20
-0.273423941624039
30
0
41
1
10
67.0698061586568
20
-1.16422497124408
30
0
41
1
10
67.2495406710322
20
-2.04837100179106
30
0
41
1
10
67.5482655490293
20
-2.94649705881727
30
0
41
1
10
67.9955743858937
20
-3.82823626390971
30
0
41
1
10
68.5463029346958
20
-4.59545698000122
30
0
41
1
10
68.964474420093
20
-5.01721925575497
30
0
41
1
10
69.1546400107694
20
-5.18633686257294
30
0
0
SPLINE
5
1DA
100
AcDbEntity
8
1
62
256
6
ByLayer
370
18
48
1
60
0
100
AcDbSpline
70
4
71
3
72
10
73
6
40
0
40
0
40
0
40
0
40
0.319932238903485
40
0.659954236309847
40
1
40
1
40
1
40
1
41
1
10
69.1546400110191
20
-5.18633686229026
30
0
41
1
10
69.1733336698546
20
-5.20270346924641
30
0
41
1
10
69.2120248013282
20
-5.23630967234469
30
0
41
1
10
69.2710608068837
20
-5.28674972516584
30
0
41
1
10
69.3114902008901
20
-5.32071117138705
30
0
41
1
10
69.3317763137997
20
-5.33760746736623
30
0
0
SPLINE
5
1DB
100
AcDbEntity
8
1
62
256
6
ByLayer
370
18
48
1
60
0
100
AcDbSpline
70
4
71
3
72
10
73
6
40
0
40
0
40
0
40
0
40
0.323508598477507
40
0.661742977246525
40
1
40
1
40
1
40
1
41
1
10
69.3317763142988
20
-5.3376074665309
30
0
41
1
10
69.3508624690112
20
-5.35350429846209
30
0
41
1
10
69.3900280873256
20
-5.38586573908134
30
0
41
1
10
69.4496013788642
20
-5.43428873750774
30
0
41
1
10
69.4901645825601
20
-5.46671153164183
30
0
41
1
10
69.5105129445495
20
-5.48283995877341
30
0
0
SPLINE
5
1DC
100
AcDbEntity
8
1
62
256
6
ByLayer
370
18
48
1
60
0
100
AcDbSpline
70
4
71
3
72
14
73
10
40
0
40
0
40
0
40
0
40
0.160358881527993
40
0.320619868274868
40
0.485251609247468
40
0.64981645742783
40
0.797514182330565
40
0.945225906728446
40
1
40
1
40
1
40
1
41
1
10
69.5105129449835
20
-5.48283995798291
30
0
41
1
10
69.7052989526564
20
-5.63772170211818
30
0
41
1
10
70.1134189406137
20
-5.91078271949315
30
0
41
1
10
70.7941222307738
20
-6.2226796705254
30
0
41
1
10
71.525097289588
20
-6.40482920699283
30
0
41
1
10
72.2582336234073
20
-6.44774774788287
30
0
41
1
10
72.9593243427023
20
-6.35510039121019
30
0
41
1
10
73.4746250953906
20
-6.19546302325941
30
0
41
1
10
73.7578584744974
20
-6.06922748388482
30
0
41
1
10
73.8336266544136
20
-6.03255419117673
30
0
0
SPLINE
5
1DD
100
AcDbEntity
8
1
62
256
6
ByLayer
370
18
48
1
60
0
100
AcDbSpline
70
4
71
3
72
12
73
8
40
0
40
0
40
0
40
0
40
0.176944409549369
40
0.35247531917652
40
0.529419728725892
40
0.815933602366183
40
1
40
1
40
1
40
1
41
1
10
68.3844963164164
20
0.0754670534844149
30
0
41
1
10
68.287907281126
20
0.106215109047423
30
0
41
1
10
68.1026442472488
20
0.187187855113752
30
0
41
1
10
67.8436146205486
20
0.368985019091146
30
0
41
1
10
67.5619515991018
20
0.65680200445803
30
0
41
1
10
67.3195787512813
20
1.03242003151221
30
0
41
1
10
67.1855444658337
20
1.35734023696577
30
0
41
1
10
67.1389609084887
20
1.49295879761219
30
0
0
SPLINE
5
1DE
100
AcDbEntity
8
1
62
256
6
ByLayer
370
18
48
1
60
0
100
AcDbSpline
70
4
71
3
72
19
73
15
40
0
40
0
40
0
40
0
40
0.101680376226136
40
0.203501214492341
40
0.306378583706826
40
0.41309233261241
40
0.530277269578886
40
0.651747916286378
40
0.727449293781092
40
0.783632059232472
40
0.834256114998245
40
0.888907073138273
40
0.944171114471956
40
1
40
1
40
1
40
1
41
1
10
69.154640011089
20
-5.18633686248884
30
0
41
1
10
69.0560692430827
20
-5.0481605019268
30
0
41
1
10
68.8719995148559
20
-4.76012353837713
30
0
41
1
10
68.6343519821881
20
-4.28929463345158
30
0
41
1
10
68.4341464366056
20
-3.78052869222427
30
0
41
1
10
68.2740821077585
20
-3.21517416438068
30
0
41
1
10
68.1837950526991
20
-2.58242466387144
30
0
41
1
10
68.1518580368324
20
-1.99350188042695
30
0
41
1
10
68.1404186934773
20
-1.5157480585091
30
0
41
1
10
68.1593935192006
20
-1.16758374735758
30
0
41
1
10
68.1996708330879
20
-0.859430767434999
30
0
41
1
10
68.2438828794945
20
-0.55330560476475
30
0
41
1
10
68.3061675569728
20
-0.238564569071126
30
0
41
1
10
68.3566846331085
20
-0.0293219693383926
30
0
41
1
10
68.3844963164164
20
0.0754670534844148
30
0
0
SPLINE
5
1DF
100
AcDbEntity
8
1
62
256
6
ByLayer
370
18
48
1
60
0
100
AcDbSpline
70
4
71
3
72
19
73
15
40
0
40
0
40
0
40
0
40
0.100887001405212
40
0.202080416002887
40
0.303906078440355
40
0.407768028891332
40
0.520454629041072
40
0.643364751012594
40
0.724872140611911
40
0.785683642708374
40
0.835372205206648
40
0.889450173459107
40
0.944432922025571
40
1
40
1
40
1
40
1
41
1
10
69.5105129452089
20
-5.48283995849093
30
0
41
1
10
69.398969877619
20
-5.34590688645309
30
0
41
1
10
69.1898924299315
20
-5.05793313585697
30
0
41
1
10
68.9169235273783
20
-4.58153112421765
30
0
41
1
10
68.6886924120756
20
-4.06283399725243
30
0
41
1
10
68.4965621955134
20
-3.49377152948849
30
0
41
1
10
68.3752868992158
20
-2.84356339478778
30
0
41
1
10
68.3305793644418
20
-2.21506001758711
30
0
41
1
10
68.312592098172
20
-1.68571562778731
30
0
41
1
10
68.3219712229276
20
-1.29797634195711
30
0
41
1
10
68.3646982027299
20
-0.964418437106576
30
0
41
1
10
68.4091491942456
20
-0.643129388087488
30
0
41
1
10
68.4735219277803
20
-0.311148185846104
30
0
41
1
10
68.526599711917
20
-0.0901351136024647
30
0
41
1
10
68.5559849307783
20
0.020563242916358
30
0
0
SPLINE
5
1E0
100
AcDbEntity
8
1
62
256
6
ByLayer
370
18
48
1
60
0
100
AcDbSpline
70
4
71
3
72
17
73
13
40
0
40
0
40
0
40
0
40
0.0802529714544853
40
0.159864851341295
40
0.240117822795781
40
0.370065922208055
40
0.500014021620331
40
0.629962121032604
40
0.694677150262628
40
0.760080621221776
40
0.880040310610888
40
1
40
1
40
1
40
1
41
1
10
71.8665255512717
20
3.15221574049619
30
0
41
1
10
71.8233829253893
20
2.98904357457658
30
0
41
1
10
71.7262200861605
20
2.67082352487687
30
0
41
1
10
71.5454951513901
20
2.20960905184224
30
0
41
1
10
71.2897706865069
20
1.68642912423825
30
0
41
1
10
70.9388572080736
20
1.1308312868621
30
0
41
1
10
70.478819368457
20
0.61264135666706
30
0
41
1
10
70.0653140821987
20
0.290754729380798
30
0
41
1
10
69.725941929944
20
0.111262706688913
30
0
41
1
10
69.3979361839069
20
-0.0108780863642951
30
0
41
1
10
68.9980625830071
20
-0.0725642508811681
30
0
41
1
10
68.7013642662835
20
-0.0259814185283127
30
0
41
1
10
68.5559849307782
20
0.0205632429163601
30
0
0
SPLINE
5
1E1
100
AcDbEntity
8
1
62
256
6
ByLayer
370
18
48
1
60
0
100
AcDbSpline
70
4
71
3
72
20
73
16
40
0
40
0
40
0
40
0
40
0.0954611577633997
40
0.190423686204097
40
0.286891044164499
40
0.385280336869946
40
0.485040453304319
40
0.585933952660488
40
0.641874070977275
40
0.702538367679674
40
0.76688903369734
40
0.820618933546104
40
0.860513065827667
40
0.928089036650723
40
1
40
1
40
1
40
1
41
1
10
75.0077988861774
20
-3.74141542859872
30
0
41
1
10
74.7722602524761
20
-3.68600686200114
30
0
41
1
10
74.3196761738242
20
-3.53430071150561
30
0
41
1
10
73.6838016256702
20
-3.17727251459477
30
0
41
1
10
73.106128357146
20
-2.70052304459873
30
0
41
1
10
72.6021603666391
20
-2.0995774916999
30
0
41
1
10
72.1859731310402
20
-1.39060724524446
30
0
41
1
10
71.9128111853777
20
-0.714281159441421
30
0
41
1
10
71.7527822608594
20
-0.100071422451423
30
0
41
1
10
71.6739413905243
20
0.434720821502318
30
0
41
1
10
71.6394138694863
20
0.975037408963898
30
0
41
1
10
71.6221150864468
20
1.4555492230802
30
0
41
1
10
71.6388406024491
20
1.95171566858541
30
0
41
1
10
71.7185383991584
20
2.50677941240895
30
0
41
1
10
71.8092601571685
20
2.93311311983563
30
0
41
1
10
71.8665255512717
20
3.15221574049619
30
0
0
SPLINE
5
1E2
100
AcDbEntity
8
1
62
256
6
ByLayer
370
18
48
1
60
0
100
AcDbSpline
70
4
71
3
72
11
73
7
40
0
40
0
40
0
40
0
40
0.284610256884458
40
0.569220513768916
40
0.784610256884458
40
1
40
1
40
1
40
1
41
1
10
75.0077988861774
20
-3.74141542859872
30
0
41
1
10
74.9396454267046
20
-3.99741021045837
30
0
41
1
10
74.7777716972974
20
-4.48916276957176
30
0
41
1
10
74.4791922094275
20
-5.12264942203701
30
0
41
1
10
74.1584681620064
20
-5.63723093301448
30
0
41
1
10
73.9455082415249
20
-5.90704561238242
30
0
41
1
10
73.8336266544136
20
-6.03255419117672
30
0
0
SPLINE
5
1E3
100
AcDbEntity
8
1
62
256
6
ByLayer
370
18
48
1
60
0
100
AcDbSpline
70
4
71
1
72
4
73
2
40
0
40
0
40
1
40
1
41
1
10
79.6159148166861
20
13.645249444594
30
0
41
1
10
79.6227855414908
20
13.6713869358873
30
0
0
SPLINE
5
1E4
100
AcDbEntity
8
1
62
256
6
ByLayer
370
18
48
1
60
0
100
AcDbSpline
70
4
71
3
72
20
73
16
40
0
40
0
40
0
40
0
40
0.0954611577633979
40
0.190423686204095
40
0.2868910441645
40
0.385280336869945
40
0.485040453304319
40
0.585933952660488
40
0.641874070977273
40
0.702538367679672
40
0.76688903369734
40
0.820618933546103
40
0.860513065827667
40
0.928089036650722
40
1
40
1
40
1
40
1
41
1
10
79.6159148166861
20
13.645249444594
30
0
41
1
10
79.38032030048
20
13.7004471635481
30
0
41
1
10
78.9050532804265
20
13.7665693776944
30
0
41
1
10
78.1655083168714
20
13.732443619925
30
0
41
1
10
77.4176022592822
20
13.566895782619
30
0
41
1
10
76.6727897072496
20
13.2591220799851
30
0
41
1
10
75.9515670551988
20
12.8171775837819
30
0
41
1
10
75.3729039098299
20
12.3408315020972
30
0
41
1
10
74.9251173519512
20
11.8693164848949
30
0
41
1
10
74.5886385975122
20
11.4320273799625
30
0
41
1
10
74.2885249130108
20
10.9702733405716
30
0
41
1
10
74.0334655932879
20
10.5537020878282
30
0
41
1
10
73.8006324373565
20
10.1082704788264
30
0
41
1
10
73.5940028983912
20
9.58300605719512
30
0
41
1
10
73.4613452575547
20
9.16651749064139
30
0
41
1
10
73.4025641947746
20
8.94777069822708
30
0
0
SPLINE
5
1E5
100
AcDbEntity
8
1
62
256
6
ByLayer
370
18
48
1
60
0
100
AcDbSpline
70
4
71
3
72
15
73
11
40
0
40
0
40
0
40
0
40
0.125
40
0.25
40
0.375
40
0.5
40
0.624999999999999
40
0.75
40
0.874999999999989
40
1
40
1
40
1
40
1
41
1
10
73.4025641947746
20
8.94777069822708
30
0
41
1
10
73.4704613243226
20
9.20395015532069
30
0
41
1
10
73.5746636434628
20
9.71436259988991
30
0
41
1
10
73.6361852664327
20
10.4874939088413
30
0
41
1
10
73.6029431412812
20
11.2280817070358
30
0
41
1
10
73.4716428194219
20
11.9081283170952
30
0
41
1
10
73.2522159335961
20
12.5048103635421
30
0
41
1
10
72.9487809865944
20
12.9898054587993
30
0
41
1
10
72.5754829196819
20
13.3516129617874
30
0
41
1
10
72.2916804601132
20
13.4949868245629
30
0
41
1
10
72.1400750989515
20
13.5435248109552
30
0
0
SPLINE
5
1E6
100
AcDbEntity
8
1
62
256
6
ByLayer
370
18
48
1
60
0
100
AcDbSpline
70
4
71
3
72
11
73
7
40
0
40
0
40
0
40
0
40
0.178515643649751
40
0.356941109827463
40
0.546671180828994
40
1
40
1
40
1
40
1
41
1
10
72.6424960521685
20
14.9022003051154
30
0
41
1
10
72.6049021524667
20
14.8248399372804
30
0
41
1
10
72.5325416161827
20
14.668743253957
30
0
41
1
10
72.4326659365209
20
14.4240628314548
30
0
41
1
10
72.2886315703037
20
14.0536277393267
30
0
41
1
10
72.1963444681435
20
13.7563359371704
30
0
41
1
10
72.1400750989517
20
13.5435248109551
30
0
0
SPLINE
5
1E7
100
AcDbEntity
8
1
62
256
6
ByLayer
370
18
48
1
60
0
100
AcDbSpline
70
4
71
3
72
20
73
16
40
0
40
0
40
0
40
0
40
0.121845643722768
40
0.243398001387905
40
0.291007342447806
40
0.33851201766821
40
0.374453955076892
40
0.410336451095203
40
0.446216049102569
40
0.48215869245844
40
0.545227980207906
40
0.608495182516149
40
0.738755025709277
40
0.86936090683166
40
1
40
1
40
1
40
1
41
1
10
72.642496051965
20
14.902200305231
30
0
41
1
10
72.8499201820126
20
14.8656258347893
30
0
41
1
10
73.2956488833467
20
14.7870318388904
30
0
41
1
10
73.8942731596554
20
14.6814782281704
30
0
41
1
10
74.3883223050454
20
14.5943640339917
30
0
41
1
10
74.7109172512367
20
14.5374818411463
30
0
41
1
10
75.0268342973143
20
14.4817771422554
30
0
41
1
10
75.3260771249488
20
14.4290125579604
30
0
41
1
10
75.6303931828029
20
14.3753534262978
30
0
41
1
10
76.006221004405
20
14.3090848412485
30
0
41
1
10
76.4427831887197
20
14.2321071493968
30
0
41
1
10
77.0895835068983
20
14.118058802171
30
0
41
1
10
77.8609226937969
20
13.9820508922431
30
0
41
1
10
78.7445178699706
20
13.8262492226598
30
0
41
1
10
79.3320234224919
20
13.7226561424343
30
0
41
1
10
79.6227855414907
20
13.6713869358869
30
0
0
SPLINE
5
1E8
100
AcDbEntity
8
1
62
256
6
ByLayer
370
18
48
1
60
0
100
AcDbSpline
70
4
71
3
72
11
73
7
40
0
40
0
40
0
40
0
40
0.275610306988
40
0.551220613975999
40
0.776274487773466
40
1
40
1
40
1
40
1
41
1
10
71.9685864845898
20
13.5984286215232
30
0
41
1
10
71.8169811234281
20
13.6469666079154
30
0
41
1
10
71.5075044959088
20
13.6935235043049
30
0
41
1
10
71.0459517724938
20
13.6138739852539
30
0
41
1
10
70.6139764082643
20
13.4239039117459
30
0
41
1
10
70.353810427421
20
13.2434745514616
30
0
41
1
10
70.2252877263926
20
13.1378121522635
30
0
0
SPLINE
5
1E9
100
AcDbEntity
8
1
62
256
6
ByLayer
370
18
48
1
60
0
100
AcDbSpline
70
4
71
1
72
4
73
2
40
0
40
0
40
1
40
1
41
1
10
72.0543307917708
20
13.5709767162391
30
0
41
1
10
71.9685864845897
20
13.5984286215232
30
0
0
SPLINE
5
1EA
100
AcDbEntity
8
1
62
256
6
ByLayer
370
18
48
1
60
0
100
AcDbSpline
70
4
71
1
72
4
73
2
40
0
40
0
40
1
40
1
41
1
10
72.1400750989517
20
13.5435248109551
30
0
41
1
10
72.0543307917706
20
13.5709767162392
30
0
0
SPLINE
5
1EB
100
AcDbEntity
8
1
62
256
6
ByLayer
370
18
48
1
60
0
100
AcDbSpline
70
4
71
1
72
4
73
2
40
0
40
0
40
1
40
1
41
1
10
68.5559849307782
20
0.0205632429163584
30
0
41
1
10
68.4702406235973
20
0.0480151482003871
30
0
0
SPLINE
5
1EC
100
AcDbEntity
8
1
62
256
6
ByLayer
370
18
48
1
60
0
100
AcDbSpline
70
4
71
1
72
4
73
2
40
0
40
0
40
1
40
1
41
1
10
68.4702406235973
20
0.0480151482003871
30
0
41
1
10
68.3844963164164
20
0.0754670534844149
30
0
0
SPLINE
5
1ED
100
AcDbEntity
8
1
62
256
6
ByLayer
370
18
48
1
60
0
100
AcDbSpline
70
4
71
3
72
19
73
15
40
0
40
0
40
0
40
0
40
0.101356956350734
40
0.202814075972066
40
0.305120752955937
40
0.410205271919239
40
0.525075767146203
40
0.647716170767594
40
0.726330217401093
40
0.784812410728533
40
0.834831443734997
40
0.889198229477131
40
0.944311756543003
40
1
40
1
40
1
40
1
41
1
10
69.3317763145094
20
-5.33760746705999
30
0
41
1
10
69.2266329007752
20
-5.19975666321631
30
0
41
1
10
69.0300576466213
20
-4.91132719996073
30
0
41
1
10
68.7747331856003
20
-4.43725560382734
30
0
41
1
10
68.5609813792914
20
-3.92340353124922
30
0
41
1
10
68.3841158758293
20
-3.3565968261626
30
0
41
1
10
68.2788751157411
20
-2.71393030975905
30
0
41
1
10
68.2410581636828
20
-2.10424504729351
30
0
41
1
10
68.2262545387992
20
-1.6000421981452
30
0
41
1
10
68.2404060856837
20
-1.23248334724895
30
0
41
1
10
68.2822395223941
20
-0.911932022479985
30
0
41
1
10
68.3264408499314
20
-0.598363260119449
30
0
41
1
10
68.3898356539588
20
-0.27491397824108
30
0
41
1
10
68.4416371879772
20
-0.0597475821626049
30
0
41
1
10
68.4702406235973
20
0.0480151482003866
30
0
0
SPLINE
5
1EE
100
AcDbEntity
8
1
62
256
6
ByLayer
370
18
48
1
60
0
100
AcDbSpline
70
4
71
3
72
10
73
6
40
0
40
0
40
0
40
0
40
0.264100023969022
40
0.546017245507371
40
1
40
1
40
1
40
1
41
1
10
72.459588072941
20
14.9344519169176
30
0
41
1
10
72.4064603899529
20
14.8211284443674
30
0
41
1
10
72.3018849922216
20
14.5844710672213
30
0
41
1
10
72.1280714387693
20
14.1417464815036
30
0
41
1
10
72.0241998140367
20
13.8077242038083
30
0
41
1
10
71.9685864845898
20
13.5984286215232
30
0
0
SPLINE
5
1EF
100
AcDbEntity
8
1
62
256
6
ByLayer
370
18
48
1
60
0
100
AcDbSpline
70
4
71
3
72
11
73
7
40
0
40
0
40
0
40
0
40
0.177339444107165
40
0.356375810041303
40
0.546336332886213
40
1
40
1
40
1
40
1
41
1
10
72.5510209580896
20
14.9183298323012
30
0
41
1
10
72.5142985587135
20
14.8419921584949
30
0
41
1
10
72.4431408777188
20
14.6872657968668
30
0
41
1
10
72.3442198120293
20
14.4448868874942
30
0
41
1
10
72.2016166154754
20
14.0770196861457
30
0
41
1
10
72.1101306302096
20
13.7820660953171
30
0
41
1
10
72.0543307917708
20
13.5709767162391
30
0
0
SPLINE
5
1F0
100
AcDbEntity
8
1
62
256
6
ByLayer
370
18
48
1
60
0
100
AcDbSpline
70
4
71
3
72
10
73
6
40
0
40
0
40
0
40
0
40
0.249999994954436
40
0.624999994060431
40
1
40
1
40
1
40
1
41
1
10
72.4595880727574
20
14.9344519170197
30
0
41
1
10
72.4672057184985
20
14.9331087208949
30
0
41
1
10
72.4862509343927
20
14.9297505361613
30
0
41
1
10
72.5167277213964
20
14.9243766559508
30
0
41
1
10
72.5395892227211
20
14.9203455565421
30
0
41
1
10
72.5510209584036
20
14.9183298331047
30
0
0
SPLINE
5
1F1
100
AcDbEntity
8
1
62
256
6
ByLayer
370
18
48
1
60
0
100
AcDbSpline
70
4
71
3
72
10
73
6
40
0
40
0
40
0
40
0
40
0.249999995289328
40
0.62499999445376
40
1
40
1
40
1
40
1
41
1
10
72.5510209578956
20
14.9183298324102
30
0
41
1
10
72.5586421810255
20
14.9169860055118
30
0
41
1
10
72.5776963028673
20
14.9136262504519
30
0
41
1
10
72.6081871872661
20
14.9082498844722
30
0
41
1
10
72.6310591296784
20
14.9042169440225
30
0
41
1
10
72.6424960524988
20
14.9022003059528
30
0
0
SPLINE
5
1F2
100
AcDbEntity
8
1
62
256
6
ByLayer
370
18
48
1
60
0
100
AcDbSpline
70
4
71
3
72
13
73
9
40
0
40
0
40
0
40
0
40
0.060351841005944
40
0.279656158929827
40
0.499060089569382
40
0.713052562211257
40
0.927135902611586
40
1
40
1
40
1
40
1
41
1
10
80.5269529574114
20
0.0542981726263389
30
0
41
1
10
80.4733640866791
20
0.068797399052556
30
0
41
1
10
80.2275610075537
20
0.140905244381132
30
0
41
1
10
79.8059147753774
20
0.31247285336683
30
0
41
1
10
79.3070629637752
20
0.614638406466587
30
0
41
1
10
78.8751313609171
20
0.985113792183482
30
0
41
1
10
78.5898822216821
20
1.31798684299259
30
0
41
1
10
78.4463348893531
20
1.52412701504423
30
0
41
1
10
78.4111347067428
20
1.57753215165744
30
0
0
SPLINE
5
1F3
100
AcDbEntity
8
1
62
256
6
ByLayer
370
18
48
1
60
0
100
AcDbSpline
70
4
71
1
72
4
73
2
40
0
40
0
40
1
40
1
41
1
10
83.3356501876212
20
-0.614288130855601
30
0
41
1
10
83.0777545484486
20
-0.59115060307284
30
0
0
SPLINE
5
1F4
100
AcDbEntity
8
1
62
256
6
ByLayer
370
18
48
1
60
0
100
AcDbSpline
70
4
71
3
72
14
73
10
40
0
40
0
40
0
40
0
40
0.0046371930015432
40
0.170530994167953
40
0.336424795334363
40
0.502318596500772
40
0.668212397667182
40
0.834106198833591
40
1
40
1
40
1
40
1
41
1
10
83.335650187647
20
-0.614288154791351
30
0
41
1
10
83.3341734737044
20
-0.618380799545641
30
0
41
1
10
83.2798752633823
20
-0.768732839347806
30
0
41
1
10
83.1729187277158
20
-1.05522031007571
30
0
41
1
10
83.0173364738838
20
-1.44403466418126
30
0
41
1
10
82.8660889607146
20
-1.79363869140537
30
0
41
1
10
82.7209892430527
20
-2.09985607147577
30
0
41
1
10
82.5835481813283
20
-2.35943843916074
30
0
41
1
10
82.4984784241188
20
-2.49873282920861
30
0
41
1
10
82.4574619626117
20
-2.56016243658745
30
0
0
SPLINE
5
1F5
100
AcDbEntity
8
1
62
256
6
ByLayer
370
18
48
1
60
0
100
AcDbSpline
70
4
71
3
72
14
73
10
40
0
40
0
40
0
40
0
40
0.185711059847537
40
0.374949563145765
40
0.487831160120498
40
0.600699303269453
40
0.717935915300255
40
0.835152857895954
40
1
40
1
40
1
40
1
41
1
10
78.2828879608552
20
1.75434309010604
30
0
41
1
10
78.0611431008327
20
1.56470991266564
30
0
41
1
10
77.6204696035399
20
1.1948869243113
30
0
41
1
10
77.0597463882995
20
0.742035136190518
30
0
41
1
10
76.6033402511743
20
0.388384029625943
30
0
41
1
10
76.2411528493995
20
0.117977413275761
30
0
41
1
10
75.8943381474021
20
-0.128800813952208
30
0
41
1
10
75.5228641856135
20
-0.37707956181794
30
0
41
1
10
75.2906370327263
20
-0.51555263413227
30
0
41
1
10
75.164519904737
20
-0.584555443446165
30
0
0
SPLINE
5
1F6
100
AcDbEntity
8
1
62
256
6
ByLayer
370
18
48
1
60
0
100
AcDbSpline
70
4
71
1
72
4
73
2
40
0
40
0
40
1
40
1
41
1
10
78.2828879608553
20
1.75434309010604
30
0
41
1
10
78.4111347067428
20
1.57753215165744
30
0
0
SPLINE
5
1F7
100
AcDbEntity
8
1
62
256
6
ByLayer
370
18
48
1
60
0
100
AcDbSpline
70
4
71
3
72
12
73
8
40
0
40
0
40
0
40
0
40
0.181429666134871
40
0.366867448225742
40
0.582033047866578
40
0.802198386802963
40
1
40
1
40
1
40
1
41
1
10
73.9601003938036
20
1.68609289761309
30
0
41
1
10
74.1132614096551
20
1.70957247666871
30
0
41
1
10
74.4461577247811
20
1.76682316571789
30
0
41
1
10
75.0565132564749
20
1.89180460378744
30
0
41
1
10
75.7761136177823
20
2.05516081220943
30
0
41
1
10
76.5673457787912
20
2.24840078508631
30
0
41
1
10
77.1094332207081
20
2.38685345778033
30
0
41
1
10
77.3716779478249
20
2.45527660193806
30
0
0
SPLINE
5
1F8
100
AcDbEntity
8
1
62
256
6
ByLayer
370
18
48
1
60
0
100
AcDbSpline
70
4
71
3
72
10
73
6
40
0
40
0
40
0
40
0
40
0.470923083159056
40
0.89136863498057
40
1
40
1
40
1
40
1
41
1
10
77.3716779478249
20
2.45527660193807
30
0
41
1
10
77.5383630412517
20
2.37810307774981
30
0
41
1
10
77.8302406918073
20
2.20398674167744
30
0
41
1
10
78.1295663396439
20
1.93832961477227
30
0
41
1
10
78.257500032615
20
1.78625117442012
30
0
41
1
10
78.2828879608553
20
1.75434309010604
30
0
0
SPLINE
5
1F9
100
AcDbEntity
8
1
62
256
6
ByLayer
370
18
48
1
60
0
100
AcDbSpline
70
4
71
1
72
4
73
2
40
0
40
0
40
1
40
1
41
1
10
75.9544411423609
20
9.83828798302841
30
0
41
1
10
75.9738574377535
20
9.90563299822124
30
0
0
SPLINE
5
1FA
100
AcDbEntity
8
1
62
256
6
ByLayer
370
18
48
1
60
0
100
AcDbSpline
70
4
71
3
72
13
73
9
40
0
40
0
40
0
40
0
40
0.2608221217998
40
0.395252665390483
40
0.529665972265148
40
0.740111661383766
40
0.956233497746073
40
1
40
1
40
1
40
1
41
1
10
78.7393021373733
20
7.61539492680953
30
0
41
1
10
78.481330146525
20
7.85963508990925
30
0
41
1
10
78.0990126256548
20
8.21237591543907
30
0
41
1
10
77.6016474466485
20
8.65278253189764
30
0
41
1
10
77.1669347179285
20
9.02412595730085
30
0
41
1
10
76.6864139067622
20
9.41175902689276
30
0
41
1
10
76.3246548496958
20
9.67452036205881
30
0
41
1
10
76.143867866532
20
9.79317761188127
30
0
41
1
10
76.1138965133241
20
9.81247945125001
30
0
0
SPLINE
5
1FB
100
AcDbEntity
8
1
62
256
6
ByLayer
370
18
48
1
60
0
100
AcDbSpline
70
4
71
1
72
4
73
2
40
0
40
0
40
1
40
1
41
1
10
78.7393021373733
20
7.61539492680953
30
0
41
1
10
78.4887343236839
20
7.63716439102067
30
0
0
SPLINE
5
1FC
100
AcDbEntity
8
1
62
256
6
ByLayer
370
18
48
1
60
0
100
AcDbSpline
70
4
71
2
72
6
73
3
40
0
40
0
40
0
40
1
40
1
40
1
41
1
10
77.3716779478249
20
2.45527660193807
30
0
41
1
10
77.0269257317902
20
2.61795026906679
30
0
41
1
10
76.6738815725912
20
2.70364077802664
30
0
0
SPLINE
5
1FD
100
AcDbEntity
8
1
62
256
6
ByLayer
370
18
48
1
60
0
100
AcDbSpline
70
4
71
1
72
4
73
2
40
0
40
0
40
1
40
1
41
1
10
73.8039870414568
20
1.7245110422051
30
0
41
1
10
73.7875477428875
20
1.65657100696832
30
0
0
SPLINE
5
1FE
100
AcDbEntity
8
1
62
256
6
ByLayer
370
18
48
1
60
0
100
AcDbSpline
70
4
71
3
72
13
73
9
40
0
40
0
40
0
40
0
40
0.18554010443375
40
0.376970109381426
40
0.562319173928968
40
0.751995371395345
40
0.875492911618999
40
1
40
1
40
1
40
1
41
1
10
78.2763014148481
20
11.1563606035435
30
0
41
1
10
78.3663437029549
20
11.0363394648541
30
0
41
1
10
78.5543044328786
20
10.7532790890006
30
0
41
1
10
78.853538912038
20
10.2006463666818
30
0
41
1
10
79.1630500624696
20
9.54724378435598
30
0
41
1
10
79.437886294558
20
8.90465413080812
30
0
41
1
10
79.6772789248532
20
8.30445896962036
30
0
41
1
10
79.8110752110987
20
7.95238875456432
30
0
41
1
10
79.8778626514145
20
7.77226686715576
30
0
0
SPLINE
5
1FF
100
AcDbEntity
8
1
62
256
6
ByLayer
370
18
48
1
60
0
100
AcDbSpline
70
4
71
3
72
11
73
7
40
0
40
0
40
0
40
0
40
0.228974136894822
40
0.466571673620239
40
0.9281214312173
40
1
40
1
40
1
40
1
41
1
10
79.8778626514229
20
7.77226686715784
30
0
41
1
10
79.7978216532516
20
7.74223538758552
30
0
41
1
10
79.6303249079642
20
7.68965080927182
30
0
41
1
10
79.2737599349942
20
7.61953609837079
30
0
41
1
10
78.9688824296822
20
7.60572999210768
30
0
41
1
10
78.7665246199954
20
7.61392091748536
30
0
41
1
10
78.7393021373733
20
7.61539492680953
30
0
0
SPLINE
5
200
100
AcDbEntity
8
1
62
256
6
ByLayer
370
18
48
1
60
0
100
AcDbSpline
70
4
71
3
72
14
73
10
40
0
40
0
40
0
40
0
40
0.165893799697863
40
0.331787599395727
40
0.49768139909359
40
0.663575198791453
40
0.829468998489317
40
0.99536279818718
40
1
40
1
40
1
40
1
41
1
10
85.5692434727228
20
9.18075361040224
30
0
41
1
10
85.5776976510741
20
9.11932400302351
30
0
41
1
10
85.5889309707043
20
8.98002961297596
30
0
41
1
10
85.5887739763861
20
8.72044724529181
30
0
41
1
10
85.5715555959433
20
8.41422986522271
30
0
41
1
10
85.5374868453012
20
8.0646258379996
30
0
41
1
10
85.4869684314977
20
7.67581148389748
30
0
41
1
10
85.4420651944416
20
7.38932400562819
30
0
41
1
10
85.4166655849116
20
7.23897195775851
30
0
41
1
10
85.4159728899206
20
7.23487930517633
30
0
0
SPLINE
5
201
100
AcDbEntity
8
1
62
256
6
ByLayer
370
18
48
1
60
0
100
AcDbSpline
70
4
71
2
72
6
73
3
40
0
40
0
40
0
40
1
40
1
40
1
41
1
10
85.4159728762522
20
7.23487931193887
30
0
41
1
10
85.0280287380879
20
7.42715869132798
30
0
41
1
10
84.6143347642245
20
7.53984732767978
30
0
0
SPLINE
5
202
100
AcDbEntity
8
1
62
256
6
ByLayer
370
18
48
1
60
0
100
AcDbSpline
70
4
71
3
72
11
73
7
40
0
40
0
40
0
40
0
40
0.271626740148312
40
0.549022435368088
40
0.862949264684881
40
1
40
1
40
1
40
1
41
1
10
80.0753555960205
20
7.85672549513838
30
0
41
1
10
80.2417292421381
20
7.9369249628996
30
0
41
1
10
80.5869658883284
20
8.07151116299972
30
0
41
1
10
81.1600631154983
20
8.19785183893536
30
0
41
1
10
81.6660452524965
20
8.2210315955776
30
0
41
1
10
81.9825034026157
20
8.19500795813378
30
0
41
1
10
82.0792453941224
20
8.18340725053607
30
0
0
SPLINE
5
203
100
AcDbEntity
8
1
62
256
6
ByLayer
370
18
48
1
60
0
100
AcDbSpline
70
4
71
1
72
4
73
2
40
0
40
0
40
1
40
1
41
1
10
80.0753555960205
20
7.85672549513838
30
0
41
1
10
79.8778626514229
20
7.77226686715784
30
0
0
SPLINE
5
204
100
AcDbEntity
8
1
62
256
6
ByLayer
370
18
48
1
60
0
100
AcDbSpline
70
4
71
2
72
6
73
3
40
0
40
0
40
0
40
1
40
1
40
1
41
1
10
78.4887343236839
20
7.63716439102067
30
0
41
1
10
78.2399506466646
20
7.66749094698338
30
0
41
1
10
78.005115063627
20
7.72645507472675
30
0
0
SPLINE
5
205
100
AcDbEntity
8
1
62
256
6
ByLayer
370
18
48
1
60
0
100
AcDbSpline
70
4
71
2
72
6
73
3
40
0
40
0
40
0
40
1
40
1
40
1
41
1
10
82.0792453941224
20
8.18340725053607
30
0
41
1
10
82.3672818646768
20
8.14860204139414
30
0
41
1
10
82.6518064142571
20
8.07148253082075
30
0
0
SPLINE
5
206
100
AcDbEntity
8
1
62
256
6
ByLayer
370
18
48
1
60
0
100
AcDbSpline
70
4
71
3
72
15
73
11
40
0
40
0
40
0
40
0
40
0.166515919983872
40
0.332774473620627
40
0.501628500714137
40
0.630966776588329
40
0.722350043801144
40
0.814286437225677
40
0.896171486345309
40
1
40
1
40
1
40
1
41
1
10
94.2981574750435
20
-0.0940153788747422
30
0
41
1
10
94.1986178490623
20
-0.120894270988747
30
0
41
1
10
93.9976470075049
20
-0.183897329515646
30
0
41
1
10
93.6880014997783
20
-0.302178732543826
30
0
41
1
10
93.3965630653499
20
-0.44648803439501
30
0
41
1
10
93.1590643820117
20
-0.610311735906676
30
0
41
1
10
92.9961227114717
20
-0.770628352461384
30
0
41
1
10
92.9008918631464
20
-0.91741586109853
30
0
41
1
10
92.8612004867807
20
-1.05944274488491
30
0
41
1
10
92.8657668111095
20
-1.13900622469932
30
0
41
1
10
92.8791710083536
20
-1.17934404467054
30
0
0
SPLINE
5
207
100
AcDbEntity
8
1
62
256
6
ByLayer
370
18
48
1
60
0
100
AcDbSpline
70
4
71
3
72
21
73
17
40
0
40
0
40
0
40
0
40
0.0387846401381918
40
0.0869206919828091
40
0.143208125786674
40
0.206285280140794
40
0.315676119316985
40
0.432650019755858
40
0.54077457424023
40
0.645946529719768
40
0.74352258053799
40
0.828841547097604
40
0.899151826988439
40
0.936215701465233
40
0.969831648817455
40
1
40
1
40
1
40
1
41
1
10
82.4574619626117
20
-2.56016243658746
30
0
41
1
10
82.5955714180365
20
-2.57497782127679
30
0
41
1
10
82.905257113033
20
-2.59723349223507
30
0
41
1
10
83.4174759685868
20
-2.5811663182048
30
0
41
1
10
84.0139672014323
20
-2.53681838195712
30
0
41
1
10
84.8261776009624
20
-2.44651551856454
30
0
41
1
10
85.849867441494
20
-2.29931188590843
30
0
41
1
10
87.0282543612336
20
-2.09819199225243
30
0
41
1
10
88.1860677164993
20
-1.87822307798719
30
0
41
1
10
89.2701173639422
20
-1.65861865130715
30
0
41
1
10
90.2690865330179
20
-1.44931739502989
30
0
41
1
10
91.1403832445442
20
-1.26319737821193
30
0
41
1
10
91.7975061832809
20
-1.13078485624187
30
0
41
1
10
92.2723135229139
20
-1.08801474548584
30
0
41
1
10
92.5967038185118
20
-1.11764770687817
30
0
41
1
10
92.7900972920952
20
-1.15580087494968
30
0
41
1
10
92.879171008354
20
-1.17934404467063
30
0
0
SPLINE
5
208
100
AcDbEntity
8
1
62
256
6
ByLayer
370
18
48
1
60
0
100
AcDbSpline
70
4
71
3
72
15
73
11
40
0
40
0
40
0
40
0
40
0.113779781629084
40
0.22763892996822
40
0.353559136983216
40
0.479544210916594
40
0.63229992321891
40
0.785036244231015
40
0.892516027901576
40
1
40
1
40
1
40
1
41
1
10
87.205716974207
20
1.31680733650707
30
0
41
1
10
87.1159552807448
20
1.16950464196045
30
0
41
1
10
86.9180970059015
20
0.889847837717666
30
0
41
1
10
86.5493999397349
20
0.499041956255974
30
0
41
1
10
86.1161524335293
20
0.152737223615293
30
0
41
1
10
85.5901464779509
20
-0.162191840650783
30
0
41
1
10
84.9858150524813
20
-0.413816071411751
30
0
41
1
10
84.3771053903733
20
-0.564299262761737
30
0
41
1
10
83.823037445002
20
-0.624748767923716
30
0
41
1
10
83.4985071296668
20
-0.623782322535793
30
0
41
1
10
83.3356501961004
20
-0.614288131363195
30
0
0
SPLINE
5
209
100
AcDbEntity
8
1
62
256
6
ByLayer
370
18
48
1
60
0
100
AcDbSpline
70
4
71
3
72
21
73
17
40
0
40
0
40
0
40
0
40
0.0387846401375008
40
0.0869206919816731
40
0.143208125785326
40
0.206285280139472
40
0.315676119316181
40
0.432650019756177
40
0.540774574242064
40
0.645946529723407
40
0.743522580543512
40
0.828841547104867
40
0.899151826997123
40
0.936215701474595
40
0.969831648827315
40
1
40
1
40
1
40
1
41
1
10
85.5692434727228
20
9.18075361040225
30
0
41
1
10
85.6965039554857
20
9.12500447867531
30
0
41
1
10
85.9765102548747
20
8.99076688002489
30
0
41
1
10
86.4138666961567
20
8.72437420973422
30
0
41
1
10
86.910565696517
20
8.39220078038219
30
0
41
1
10
87.5720988387613
20
7.9139903911146
30
0
41
1
10
88.3891329512696
20
7.28147104341574
30
0
41
1
10
89.3132957731281
20
6.5233899839758
30
0
41
1
10
90.2092566766552
20
5.75537576297747
30
0
41
1
10
91.0405742340741
20
5.02140866099629
30
0
41
1
10
91.802449468493
20
4.33614197503895
30
0
41
1
10
92.4644191935628
20
3.73246021223431
30
0
41
1
10
92.9667391619453
20
3.28079294809217
30
0
41
1
10
93.3548464185519
20
2.9964390648177
30
0
41
1
10
93.6482754670673
20
2.849987682479
30
0
41
1
10
93.8329801549395
20
2.77905126696823
30
0
41
1
10
93.9209086646791
20
2.75118717266206
30
0
0
SPLINE
5
20A
100
AcDbEntity
8
1
62
256
6
ByLayer
370
18
48
1
60
0
100
AcDbSpline
70
4
71
3
72
15
73
11
40
0
40
0
40
0
40
0
40
0.110693970968657
40
0.197429022413271
40
0.284502571994586
40
0.366456905974863
40
0.497678234412344
40
0.615432755153238
40
0.733526927695918
40
1
40
1
40
1
40
1
41
1
10
93.9209086647584
20
2.75118717263467
30
0
41
1
10
93.8882890772971
20
2.72624478982607
30
0
41
1
10
93.8452794521909
20
2.66283805196844
30
0
41
1
10
93.815625854364
20
2.52226072995247
30
0
41
1
10
93.8318265211434
20
2.35843659494191
30
0
41
1
10
93.8928421338061
20
2.1515702524192
30
0
41
1
10
93.998727406536
20
1.9290516758389
30
0
41
1
10
94.1363124553455
20
1.70539894566395
30
0
41
1
10
94.33918864915
20
1.42498874152626
30
0
41
1
10
94.5005813276937
20
1.23103332511532
30
0
41
1
10
94.6166998222049
20
1.1078617269808
30
0
0
SPLINE
5
20B
100
AcDbEntity
8
1
62
256
6
ByLayer
370
18
48
1
60
0
100
AcDbSpline
70
4
71
3
72
17
73
13
40
0
40
0
40
0
40
0
40
0.13023846479017
40
0.263334732062099
40
0.39395429185696
40
0.516373348690231
40
0.624775658810997
40
0.716205668354824
40
0.78380788536518
40
0.846432157703245
40
0.915848409145677
40
1
40
1
40
1
40
1
41
1
10
87.8234108906533
20
3.64739969939531
30
0
41
1
10
88.1401136956984
20
3.53128237082035
30
0
41
1
10
88.7745474291534
20
3.29556808304103
30
0
41
1
10
89.7055653024243
20
2.93943681021036
30
0
41
1
10
90.6009062609854
20
2.58892759318074
30
0
41
1
10
91.4240455558926
20
2.26000215778064
30
0
41
1
10
92.1437730102366
20
1.96590635588712
30
0
41
1
10
92.7270763332678
20
1.7229134320643
30
0
41
1
10
93.2092889333546
20
1.54036549080471
30
0
41
1
10
93.6479315522327
20
1.40515682658475
30
0
41
1
10
94.1154180091167
20
1.26801310789994
30
0
41
1
10
94.4405502160772
20
1.16485843286353
30
0
41
1
10
94.6166998221877
20
1.10786172698635
30
0
0
SPLINE
5
20C
100
AcDbEntity
8
1
62
256
6
ByLayer
370
18
48
1
60
0
100
AcDbSpline
70
4
71
3
72
14
73
10
40
0
40
0
40
0
40
0
40
0.160803108009356
40
0.321601255345444
40
0.482749910744495
40
0.643860957374314
40
0.77768928768414
40
0.911384844347718
40
1
40
1
40
1
40
1
41
1
10
85.4159728899206
20
7.23487930517633
30
0
41
1
10
85.6353870277131
20
7.12476861477167
30
0
41
1
10
86.0502635130457
20
6.87343143808225
30
0
41
1
10
86.6082726779912
20
6.39585892763168
30
0
41
1
10
87.0803417121252
20
5.83816453946068
30
0
41
1
10
87.4350295591412
20
5.24674770861814
30
0
41
1
10
87.673730222287
20
4.64463518260242
30
0
41
1
10
87.7933266206789
20
4.11652785286915
30
0
41
1
10
87.8199842709184
20
3.78206028361337
30
0
41
1
10
87.8234110309176
20
3.64739964801725
30
0
0
SPLINE
5
20D
100
AcDbEntity
8
1
62
256
6
ByLayer
370
18
48
1
60
0
100
AcDbSpline
70
4
71
2
72
6
73
3
40
0
40
0
40
0
40
1
40
1
40
1
41
1
10
83.0777545484486
20
-0.59115060307284
30
0
41
1
10
82.7784098946695
20
-0.555349609686779
30
0
41
1
10
82.4894813073788
20
-0.477337030514634
30
0
0
SPLINE
5
20E
100
AcDbEntity
8
1
62
256
6
ByLayer
370
18
48
1
60
0
100
AcDbSpline
70
4
71
3
72
11
73
7
40
0
40
0
40
0
40
0
40
0.287267503471611
40
0.570601528946046
40
0.783593067567287
40
1
40
1
40
1
40
1
41
1
10
87.8234110309169
20
3.64739964801778
30
0
41
1
10
87.8285984213938
20
3.4110365293778
30
0
41
1
10
87.8018094647595
20
2.94776758111128
30
0
41
1
10
87.6622585395057
20
2.32048997276681
30
0
41
1
10
87.4577989587425
20
1.77618971812272
30
0
41
1
10
87.2967286744061
20
1.46777603704257
30
0
41
1
10
87.205716974207
20
1.31680733650707
30
0
0
SPLINE
5
20F
100
AcDbEntity
8
1
62
256
6
ByLayer
370
18
48
1
60
0
100
AcDbSpline
70
4
71
2
72
6
73
3
40
0
40
0
40
0
40
1
40
1
40
1
41
1
10
94.6166998222049
20
1.1078617269808
30
0
41
1
10
95.048545538438
20
0.631689002269248
30
0
41
1
10
95.4863963810312
20
0.202943145535418
30
0
0
SPLINE
5
210
100
AcDbEntity
8
1
62
256
6
ByLayer
370
18
48
1
60
0
100
AcDbSpline
70
4
71
2
72
6
73
3
40
0
40
0
40
0
40
1
40
1
40
1
41
1
10
95.4863963810196
20
0.202943145546769
30
0
41
1
10
94.9012176310365
20
0.0772543034601889
30
0
41
1
10
94.2981574750435
20
-0.0940153788747413
30
0
0
SPLINE
5
211
100
AcDbEntity
8
1
62
256
6
ByLayer
370
18
48
1
60
0
100
AcDbSpline
70
4
71
3
72
16
73
12
40
0
40
0
40
0
40
0
40
0.193175194179157
40
0.386603933897724
40
0.499007693810809
40
0.611232808940373
40
0.703623602274012
40
0.795912588408085
40
0.868506640166581
40
0.94103684844427
40
1
40
1
40
1
40
1
41
1
10
74.3270261125237
20
-1.41919725942077
30
0
41
1
10
74.2125463957844
20
-1.30377838278217
30
0
41
1
10
74.0145769319868
20
-1.04582751769856
30
0
41
1
10
73.8608225202381
20
-0.65803124111694
30
0
41
1
10
73.7570642671487
20
-0.26738180359368
30
0
41
1
10
73.7003394142128
20
0.073701402475024
30
0
41
1
10
73.6708400937805
20
0.4333080036526
30
0
41
1
10
73.6696070946103
20
0.7719512634091
30
0
41
1
10
73.6934458252366
20
1.10010871558311
30
0
41
1
10
73.7332504587295
20
1.38938388698071
30
0
41
1
10
73.7692547663578
20
1.5738199463374
30
0
41
1
10
73.7875477428875
20
1.65657100696832
30
0
0
SPLINE
5
212
100
AcDbEntity
8
1
62
256
6
ByLayer
370
18
48
1
60
0
100
AcDbSpline
70
4
71
3
72
10
73
6
40
0
40
0
40
0
40
0
40
0.324059532807391
40
0.655488310967218
40
1
40
1
40
1
40
1
41
1
10
74.582251378133
20
-1.79427339389265
30
0
41
1
10
74.400740852544
20
-1.75642736074588
30
0
41
1
10
74.0296863820171
20
-1.64703766076931
30
0
41
1
10
73.4306047150941
20
-1.39408297993991
30
0
41
1
10
73.0461486738596
20
-1.13143601700094
30
0
41
1
10
72.8518047564369
20
-0.976465606813603
30
0
0
SPLINE
5
213
100
AcDbEntity
8
1
62
256
6
ByLayer
370
18
48
1
60
0
100
AcDbSpline
70
4
71
3
72
15
73
11
40
0
40
0
40
0
40
0
40
0.0745275399797372
40
0.149166569620987
40
0.296714101987991
40
0.404641565313067
40
0.512745133321918
40
0.692425899560696
40
0.872499590221622
40
1
40
1
40
1
40
1
41
1
10
75.9738574377535
20
9.90563299822127
30
0
41
1
10
76.0059504753916
20
10.0087101637342
30
0
41
1
10
76.0755019970151
20
10.2098158798197
30
0
41
1
10
76.2358484228793
20
10.5934223806636
30
0
41
1
10
76.4465845895149
20
10.971669759903
30
0
41
1
10
76.6904623327988
20
11.3084006824496
30
0
41
1
10
76.9559176474324
20
11.6062094261173
30
0
41
1
10
77.25607259962
20
11.8636689458435
30
0
41
1
10
77.5758282808652
20
12.0364965505953
30
0
41
1
10
77.8129155204479
20
12.1008445094269
30
0
41
1
10
77.9152617240944
20
12.1194052855782
30
0
0
SPLINE
5
214
100
AcDbEntity
8
1
62
256
6
ByLayer
370
18
48
1
60
0
100
AcDbSpline
70
4
71
2
72
6
73
3
40
0
40
0
40
0
40
1
40
1
40
1
41
1
10
77.696762485331
20
12.2153151923325
30
0
41
1
10
77.0631442283792
20
12.3041643214493
30
0
41
1
10
76.3359434821286
20
12.1693738878596
30
0
0
SPLINE
5
215
100
AcDbEntity
8
1
62
256
6
ByLayer
370
18
48
1
60
0
100
AcDbSpline
70
4
71
1
72
4
73
2
40
0
40
0
40
1
40
1
41
1
10
82.4574619626117
20
-2.56016243658746
30
0
41
1
10
81.7345022105625
20
-3.6423162653809
30
0
0
SPLINE
5
216
100
AcDbEntity
8
1
62
256
6
ByLayer
370
18
48
1
60
0
100
AcDbSpline
70
4
71
1
72
4
73
2
40
0
40
0
40
1
40
1
41
1
10
85.5692434727228
20
9.18075361040225
30
0
41
1
10
85.4199061300429
20
10.2629074391977
30
0
0
SPLINE
5
217
100
AcDbEntity
8
1
62
256
6
ByLayer
370
18
48
1
60
0
100
AcDbSpline
70
4
71
1
72
4
73
2
40
0
40
0
40
1
40
1
41
1
10
92.1233088421117
20
-3.95170878942769
30
0
41
1
10
91.8124840733621
20
-3.91469740820683
30
0
0
SPLINE
5
218
100
AcDbEntity
8
1
62
256
6
ByLayer
370
18
48
1
60
0
100
AcDbSpline
70
4
71
3
72
11
73
7
40
0
40
0
40
0
40
0
40
0.302293823441651
40
0.613181578417231
40
0.805254037931529
40
1
40
1
40
1
40
1
41
1
10
89.5885389875951
20
-3.94686556102179
30
0
41
1
10
89.8327093843224
20
-3.91132964308191
30
0
41
1
10
90.3168210312038
20
-3.85962087132545
30
0
41
1
10
90.9341301963039
20
-3.83322842929721
30
0
41
1
10
91.4319893216569
20
-3.86681320000128
30
0
41
1
10
91.6881852831061
20
-3.89611305059598
30
0
41
1
10
91.8124840733621
20
-3.91469740820683
30
0
0
SPLINE
5
219
100
AcDbEntity
8
1
62
256
6
ByLayer
370
18
48
1
60
0
100
AcDbSpline
70
4
71
3
72
14
73
10
40
0
40
0
40
0
40
0
40
0.144402987238159
40
0.288816040396092
40
0.434645866304539
40
0.580466006356704
40
0.789543228855797
40
0.894806799335096
40
1
40
1
40
1
40
1
41
1
10
89.5885389875951
20
-3.94686556102179
30
0
41
1
10
89.2112993677057
20
-3.99824650410058
30
0
41
1
10
88.4553677488689
20
-4.08298884735337
30
0
41
1
10
87.3122893057971
20
-4.15570583094213
30
0
41
1
10
86.1635097084641
20
-4.17510466450372
30
0
41
1
10
84.8448941746946
20
-4.12365797613638
30
0
41
1
10
83.6389228698007
20
-3.99343182718894
30
0
41
1
10
82.5455316986569
20
-3.82822897365158
30
0
41
1
10
82.0039083798444
20
-3.70915936936713
30
0
41
1
10
81.7345022105625
20
-3.6423162653809
30
0
0
SPLINE
5
21A
100
AcDbEntity
8
1
62
256
6
ByLayer
370
18
48
1
60
0
100
AcDbSpline
70
4
71
3
72
15
73
11
40
0
40
0
40
0
40
0
40
0.183386250218152
40
0.366943563477103
40
0.549390059741182
40
0.671720177562541
40
0.793783034007535
40
0.892517276558757
40
0.991241635182389
40
1
40
1
40
1
40
1
41
1
10
92.8791710083536
20
-1.17934404467054
30
0
41
1
10
92.9250256556587
20
-1.35727413502233
30
0
41
1
10
93.0433220936361
20
-1.6950524267131
30
0
41
1
10
93.2860434263035
20
-2.15864088513291
30
0
41
1
10
93.5969549121214
20
-2.50003049665963
30
0
41
1
10
93.9521771521536
20
-2.72447260649037
30
0
41
1
10
94.3034795753965
20
-2.83908951178255
30
0
41
1
10
94.6935548776469
20
-2.8668776048838
30
0
41
1
10
94.975134200738
20
-2.83829627017777
30
0
41
1
10
95.1278422976658
20
-2.810072680273
30
0
41
1
10
95.1403333886012
20
-2.80768476859654
30
0
0
SPLINE
5
21B
100
AcDbEntity
8
1
62
256
6
ByLayer
370
18
48
1
60
0
100
AcDbSpline
70
4
71
1
72
4
73
2
40
0
40
0
40
1
40
1
41
1
10
94.0286233634825
20
-3.3420604090968
30
0
41
1
10
95.1403333886012
20
-2.80768476859654
30
0
0
SPLINE
5
21C
100
AcDbEntity
8
1
62
256
6
ByLayer
370
18
48
1
60
0
100
AcDbSpline
70
4
71
1
72
4
73
2
40
0
40
0
40
1
40
1
41
1
10
92.1233132169175
20
-3.95151750036426
30
0
41
1
10
94.0285202289551
20
-3.3421242805897
30
0
0
SPLINE
5
21D
100
AcDbEntity
8
1
62
256
6
ByLayer
370
18
48
1
60
0
100
AcDbSpline
70
4
71
3
72
14
73
10
40
0
40
0
40
0
40
0
40
0.121523556149595
40
0.222387548357044
40
0.323386695988189
40
0.488282595064853
40
0.653577964344723
40
0.82669383649284
40
1
40
1
40
1
40
1
41
1
10
96.6049068917895
20
2.71822844047729
30
0
41
1
10
96.4712618749975
20
2.84407186185967
30
0
41
1
10
96.2298521013557
20
3.03871913902168
30
0
41
1
10
95.8825413668748
20
3.2260633777173
30
0
41
1
10
95.5079101287408
20
3.3428066004401
30
0
41
1
10
95.100240973221
20
3.357532616475
30
0
41
1
10
94.6712691188007
20
3.25058190807937
30
0
41
1
10
94.2797952990303
20
3.04027149807215
30
0
41
1
10
94.0364498518952
20
2.85614111170833
30
0
41
1
10
93.9209086647572
20
2.75118717263509
30
0
0
SPLINE
5
21E
100
AcDbEntity
8
1
62
256
6
ByLayer
370
18
48
1
60
0
100
AcDbSpline
70
4
71
3
72
13
73
9
40
0
40
0
40
0
40
0
40
0.0949456310502647
40
0.189945938410663
40
0.381302979155932
40
0.576203035380221
40
0.772127636249982
40
1
40
1
40
1
40
1
41
1
10
85.4199061300429
20
10.2629074391977
30
0
41
1
10
85.6603463915044
20
10.1924893289162
30
0
41
1
10
86.1372042757346
20
10.0397089691567
30
0
41
1
10
87.0744987017426
20
9.6739419003493
30
0
41
1
10
88.2380727729203
20
9.16419349280882
30
0
41
1
10
89.6007449578854
20
8.45040637459211
30
0
41
1
10
90.987354483704
20
7.58189656963204
30
0
41
1
10
91.8960372214593
20
6.92754697570558
30
0
41
1
10
92.372321369838
20
6.55649244685988
30
0
0
SPLINE
5
21F
100
AcDbEntity
8
1
62
256
6
ByLayer
370
18
48
1
60
0
100
AcDbSpline
70
4
71
3
72
11
73
7
40
0
40
0
40
0
40
0
40
0.277489935641325
40
0.563277494182935
40
0.780107031837105
40
1
40
1
40
1
40
1
41
1
10
94.2705296948349
20
5.35963859115869
30
0
41
1
10
94.104422210967
20
5.43354537620618
30
0
41
1
10
93.7609660633546
20
5.60552222716225
30
0
41
1
10
93.2568564932785
20
5.9054826791252
30
0
41
1
10
92.792987562787
20
6.23419513331751
30
0
41
1
10
92.51305745779
20
6.44562762375289
30
0
41
1
10
92.372321369838
20
6.55649244685988
30
0
0
SPLINE
5
220
100
AcDbEntity
8
1
62
256
6
ByLayer
370
18
48
1
60
0
100
AcDbSpline
70
4
71
1
72
4
73
2
40
0
40
0
40
1
40
1
41
1
10
94.2705296948349
20
5.35963859115869
30
0
41
1
10
94.5541337741498
20
5.21992211053093
30
0
0
SPLINE
5
221
100
AcDbEntity
8
1
62
256
6
ByLayer
370
18
48
1
60
0
100
AcDbSpline
70
4
71
1
72
4
73
2
40
0
40
0
40
1
40
1
41
1
10
95.9026286595358
20
3.72891001309901
30
0
41
1
10
94.5540427469186
20
5.21975385890185
30
0
0
SPLINE
5
222
100
AcDbEntity
8
1
62
256
6
ByLayer
370
18
48
1
60
0
100
AcDbSpline
70
4
71
1
72
4
73
2
40
0
40
0
40
1
40
1
41
1
10
95.9026729068867
20
3.72882753476771
30
0
41
1
10
96.6049068918069
20
2.71822844046082
30
0
0
SPLINE
5
223
100
AcDbEntity
8
1
62
256
6
ByLayer
370
18
48
1
60
0
100
AcDbSpline
70
4
71
1
72
4
73
2
40
0
40
0
40
1
40
1
41
1
10
96.2885984885989
20
-2.19387983885097
30
0
41
1
10
96.5183582052452
20
-2.10816028657455
30
0
0
SPLINE
5
224
100
AcDbEntity
8
1
62
256
6
ByLayer
370
18
48
1
60
0
100
AcDbSpline
70
4
71
1
72
4
73
2
40
0
40
0
40
1
40
1
41
1
10
97.4469070599533
20
1.39530360163017
30
0
41
1
10
97.2920171713993
20
1.59207186645482
30
0
0
SPLINE
5
225
100
AcDbEntity
8
1
62
256
6
ByLayer
370
18
48
1
60
0
100
AcDbSpline
70
4
71
3
72
22
73
18
40
0
40
0
40
0
40
0
40
0.0366000893811601
40
0.0708626471743512
40
0.105158186532946
40
0.142773279968209
40
0.180539702576129
40
0.218248187139565
40
0.273588458578395
40
0.329095011168278
40
0.384714363325671
40
0.440208856403879
40
0.551892957875824
40
0.66376338638316
40
0.775868789187315
40
0.888052580955117
40
1
40
1
40
1
40
1
41
1
10
20
20
-24.9999999999998
30
0
41
1
10
20.0011870204566
20
-24.9997281271451
30
0
41
1
10
20.0442816749102
20
-24.9900720352493
30
0
41
1
10
20.2335242217205
20
-24.9476667358605
30
0
41
1
10
20.5227745177004
20
-24.8829559602006
30
0
41
1
10
20.9100782064779
20
-24.7965020166293
30
0
41
1
10
21.3807420033038
20
-24.6917291013812
30
0
41
1
10
21.9883180390655
20
-24.556890808618
30
0
41
1
10
22.7423411337887
20
-24.3903278600114
30
0
41
1
10
23.649127344464
20
-24.1911359279768
30
0
41
1
10
24.602542712336
20
-23.9828986909817
30
0
41
1
10
25.9207413659319
20
-23.6967751092848
30
0
41
1
10
27.6268826441772
20
-23.3302886365526
30
0
41
1
10
29.7430924815938
20
-22.8819436915001
30
0
41
1
10
31.9087857848888
20
-22.4294682837274
30
0
41
1
10
34.1081784909263
20
-21.9764688113369
30
0
41
1
10
35.5870963530523
20
-21.6765583526725
30
0
41
1
10
36.3297489706193
20
-21.5270793626057
30
0
0
SPLINE
5
226
100
AcDbEntity
8
1
62
256
6
ByLayer
370
18
48
1
60
0
100
AcDbSpline
70
4
71
3
72
23
73
19
40
0
40
0
40
0
40
0
40
0.139713083660562
40
0.228331312140777
40
0.317094254741138
40
0.405817188678195
40
0.494405223177768
40
0.582876537975113
40
0.638617596308149
40
0.694507816179552
40
0.750252240595216
40
0.805793858134233
40
0.846645756055065
40
0.887453382828214
40
0.915010474923667
40
0.942644845108116
40
0.970142530736296
40
1
40
1
40
1
40
1
41
1
10
37.9125268204648
20
21.2103849732933
30
0
41
1
10
36.9073558906187
20
21.4104072865879
30
0
41
1
10
35.2745282482034
20
21.7387193149414
30
0
41
1
10
33.0271515781912
20
22.1984326474835
30
0
41
1
10
31.1596669589314
20
22.5853919915666
30
0
41
1
10
29.3186691377483
20
22.9715464131679
30
0
41
1
10
27.5154675846854
20
23.3543006605625
30
0
41
1
10
25.9779810337958
20
23.6845030633952
30
0
41
1
10
24.6947140419711
20
23.9628114182762
30
0
41
1
10
23.6580619500597
20
24.1891680902635
30
0
41
1
10
22.676606540187
20
24.4047949570084
30
0
41
1
10
21.8512604578646
20
24.5872239239935
30
0
41
1
10
21.1826486293345
20
24.7357657055914
30
0
41
1
10
20.7238886935343
20
24.8380348251009
30
0
41
1
10
20.397391409856
20
24.9109988136505
30
0
41
1
10
20.1800292103665
20
24.9596494266222
30
0
41
1
10
20.0339272007517
20
24.9923937848847
30
0
41
1
10
20.0006158754485
20
24.9998585538806
30
0
41
1
10
20
20
25
30
0
0
SPLINE
5
227
100
AcDbEntity
8
1
62
256
6
ByLayer
370
18
48
1
60
0
100
AcDbSpline
70
4
71
3
72
14
73
10
40
0
40
0
40
0
40
0
40
0.140153303222531
40
0.280279606292095
40
0.42560116355283
40
0.57088277539106
40
0.765736256090629
40
0.960457972307612
40
1
40
1
40
1
40
1
41
1
10
36.2297978918789
20
18.4901836363071
30
0
41
1
10
36.2292637389248
20
18.6522531187322
30
0
41
1
10
36.2486077122264
20
18.968250030238
30
0
41
1
10
36.3373894231827
20
19.425399487196
30
0
41
1
10
36.4964430639148
20
19.8586672307573
30
0
41
1
10
36.7587931059047
20
20.3096375817616
30
0
41
1
10
37.1642264923485
20
20.7499662479205
30
0
41
1
10
37.5960696062338
20
21.0468132953345
30
0
41
1
10
37.865983404378
20
21.1872552254704
30
0
41
1
10
37.9125268204648
20
21.2103849732933
30
0
0
SPLINE
5
228
100
AcDbEntity
8
1
62
256
6
ByLayer
370
18
48
1
60
0
100
AcDbSpline
70
4
71
1
72
4
73
2
40
0
40
0
40
1
40
1
41
1
10
36.2297978918789
20
-11.9422482561439
30
0
41
1
10
35.49788757908
20
-12.018860148674
30
0
0
SPLINE
5
229
100
AcDbEntity
8
1
62
256
6
ByLayer
370
18
48
1
60
0
100
AcDbSpline
70
4
71
3
72
13
73
9
40
0
40
0
40
0
40
0
40
0.0811068003230516
40
0.54205969579374
40
0.698217929308324
40
0.855466894270603
40
0.966212236972875
40
1
40
1
40
1
40
1
41
1
10
11.8943375672974
20
23.6665017920809
30
0
41
1
10
11.8894428381777
20
23.6728293617709
30
0
41
1
10
11.8534346287606
20
23.7145200781299
30
0
41
1
10
11.7877522749416
20
23.7663890526222
30
0
41
1
10
11.6656255980129
20
23.8124861135428
30
0
41
1
10
11.5793223070755
20
23.8319383085953
30
0
41
1
10
11.5056611588718
20
23.8385548003314
30
0
41
1
10
11.4698010058117
20
23.8391220894067
30
0
41
1
10
11.4613248654052
20
23.8391299750504
30
0
0
SPLINE
5
22A
100
AcDbEntity
8
1
62
256
6
ByLayer
370
18
48
1
60
0
100
AcDbSpline
70
4
71
3
72
12
73
8
40
0
40
0
40
0
40
0
40
0.0777065243411373
40
0.182768991260443
40
0.355509705274232
40
0.661119206188007
40
1
40
1
40
1
40
1
41
1
10
8.5386751345948
20
23.8391299750503
30
0
41
1
10
8.51889061425139
20
23.8390510092636
30
0
41
1
10
8.47384249247805
20
23.837417080354
30
0
41
1
10
8.390979334746
20
23.8265956452496
30
0
41
1
10
8.28079022698235
20
23.7967264721262
30
0
41
1
10
8.17813160018114
20
23.7411879478122
30
0
41
1
10
8.12412228713196
20
23.6935586164053
30
0
41
1
10
8.10566243270259
20
23.6665017920809
30
0
0
SPLINE
5
22B
100
AcDbEntity
8
1
62
256
6
ByLayer
370
18
48
1
60
0
100
AcDbSpline
70
4
71
3
72
13
73
9
40
0
40
0
40
0
40
0
40
0.0811068003230402
40
0.542059695793729
40
0.698217929308317
40
0.8554668942706
40
0.966212236972871
40
1
40
1
40
1
40
1
41
1
10
8.10566243270259
20
8.05584836782774
30
0
41
1
10
8.11055716182229
20
8.037251714098
30
0
41
1
10
8.14656537123943
20
7.91434257650656
30
0
41
1
10
8.21224772505842
20
7.75704006565196
30
0
41
1
10
8.33437440198708
20
7.61365769814303
30
0
41
1
10
8.42067769292452
20
7.55243803205593
30
0
41
1
10
8.4943388411282
20
7.53148602816114
30
0
41
1
10
8.53019899418831
20
7.52969262189674
30
0
41
1
10
8.5386751345948
20
7.52966679426498
30
0
0
SPLINE
5
22C
100
AcDbEntity
8
1
62
256
6
ByLayer
370
18
48
1
60
0
100
AcDbSpline
70
4
71
3
72
12
73
8
40
0
40
0
40
0
40
0
40
0.0777065243411944
40
0.182768991260512
40
0.355509705274339
40
0.661119206188221
40
1
40
1
40
1
40
1
41
1
10
11.4613248654052
20
7.52966679426499
30
0
41
1
10
11.4811093857486
20
7.52992453895395
30
0
41
1
10
11.526157507522
20
7.53508753718821
30
0
41
1
10
11.609020665254
20
7.56930040674384
30
0
41
1
10
11.7192097730177
20
7.66302821977539
30
0
41
1
10
11.8218683998189
20
7.83415197314228
30
0
41
1
10
11.875877712868
20
7.97612018956258
30
0
41
1
10
11.8943375672974
20
8.05584836782772
30
0
0
SPLINE
5
22D
100
AcDbEntity
8
1
62
256
6
ByLayer
370
18
48
1
60
0
100
AcDbSpline
70
4
71
3
72
13
73
9
40
0
40
0
40
0
40
0
40
0.0811068003230101
40
0.542059695793591
40
0.698217929308222
40
0.855466894270549
40
0.966212236972826
40
1
40
1
40
1
40
1
41
1
10
11.8943375672974
20
-8.05584836782772
30
0
41
1
10
11.8894428381777
20
-8.03725171409798
30
0
41
1
10
11.8534346287606
20
-7.91434257650657
30
0
41
1
10
11.7877522749416
20
-7.757040065652
30
0
41
1
10
11.665625598013
20
-7.61365769814305
30
0
41
1
10
11.5793223070755
20
-7.55243803205596
30
0
41
1
10
11.5056611588718
20
-7.53148602816109
30
0
41
1
10
11.4698010058117
20
-7.52969262189674
30
0
41
1
10
11.4613248654052
20
-7.52966679426498
30
0
0
SPLINE
5
22E
100
AcDbEntity
8
1
62
256
6
ByLayer
370
18
48
1
60
0
100
AcDbSpline
70
4
71
3
72
12
73
8
40
0
40
0
40
0
40
0
40
0.077706524341125
40
0.18276899126043
40
0.355509705274207
40
0.661119206187953
40
1
40
1
40
1
40
1
41
1
10
8.53867513459481
20
-7.529666794265
30
0
41
1
10
8.5188906142514
20
-7.52992453895396
30
0
41
1
10
8.47384249247805
20
-7.5350875371882
30
0
41
1
10
8.39097933474602
20
-7.56930040674382
30
0
41
1
10
8.28079022698236
20
-7.66302821977531
30
0
41
1
10
8.17813160018116
20
-7.83415197314221
30
0
41
1
10
8.12412228713197
20
-7.97612018956252
30
0
41
1
10
8.10566243270259
20
-8.05584836782773
30
0
0
SPLINE
5
22F
100
AcDbEntity
8
1
62
256
6
ByLayer
370
18
48
1
60
0
100
AcDbSpline
70
4
71
3
72
13
73
9
40
0
40
0
40
0
40
0
40
0.0811068003230299
40
0.542059695793712
40
0.698217929308303
40
0.85546689427059
40
0.966212236972861
40
1
40
1
40
1
40
1
41
1
10
8.10566243270259
20
-23.6665017920809
30
0
41
1
10
8.11055716182229
20
-23.6728293617709
30
0
41
1
10
8.14656537123944
20
-23.7145200781299
30
0
41
1
10
8.21224772505842
20
-23.7663890526222
30
0
41
1
10
8.33437440198707
20
-23.8124861135428
30
0
41
1
10
8.42067769292451
20
-23.8319383085952
30
0
41
1
10
8.4943388411282
20
-23.8385548003314
30
0
41
1
10
8.53019899418831
20
-23.8391220894067
30
0
41
1
10
8.5386751345948
20
-23.8391299750503
30
0
0
SPLINE
5
230
100
AcDbEntity
8
1
62
256
6
ByLayer
370
18
48
1
60
0
100
AcDbSpline
70
4
71
3
72
12
73
8
40
0
40
0
40
0
40
0
40
0.0777065243411905
40
0.182768991260507
40
0.355509705274323
40
0.661119206188188
40
1
40
1
40
1
40
1
41
1
10
11.4613248654052
20
-23.8391299750504
30
0
41
1
10
11.4811093857486
20
-23.8390510092636
30
0
41
1
10
11.526157507522
20
-23.837417080354
30
0
41
1
10
11.609020665254
20
-23.8265956452496
30
0
41
1
10
11.7192097730177
20
-23.7967264721262
30
0
41
1
10
11.8218683998189
20
-23.7411879478122
30
0
41
1
10
11.875877712868
20
-23.6935586164053
30
0
41
1
10
11.8943375672974
20
-23.6665017920809
30
0
0
SPLINE
5
231
100
AcDbEntity
8
1
62
256
6
ByLayer
370
18
48
1
60
0
100
AcDbSpline
70
4
71
3
72
18
73
14
40
0
40
0
40
0
40
0
40
0.0590614279712477
40
0.159173898619506
40
0.259336198315831
40
0.363292342295325
40
0.467318386663591
40
0.568901748968329
40
0.670857147007906
40
0.772560030298987
40
0.876364723375686
40
0.98040242781706
40
1
40
1
40
1
40
1
41
1
10
36.2299869520485
20
-5.30637644456892
30
0
41
1
10
36.2311838976924
20
-5.30634165879344
30
0
41
1
10
36.2475022879108
20
-5.31948226791971
30
0
41
1
10
36.3343061714274
20
-5.40146985830588
30
0
41
1
10
36.5145898548202
20
-5.57763625937389
30
0
41
1
10
36.7706771500113
20
-5.8321582961263
30
0
41
1
10
37.0867921954496
20
-6.15209111783679
30
0
41
1
10
37.4478531624747
20
-6.5241443965185
30
0
41
1
10
37.839005379966
20
-6.93844332310859
30
0
41
1
10
38.2543899883897
20
-7.39680410757714
30
0
41
1
10
38.6851903138262
20
-7.89538245948974
30
0
41
1
10
39.00260584765
20
-8.2896601317207
30
0
41
1
10
39.160150280029
20
-8.52117173112897
30
0
41
1
10
39.1849214300292
20
-8.55820711923425
30
0
0
SPLINE
5
232
100
AcDbEntity
8
SK1
62
256
6
ByLayer
370
18
48
1
60
0
100
AcDbSpline
70
4
71
3
72
17
73
13
40
0
40
0
40
0
40
0
40
0.46548550635137
40
0.669701843128606
40
0.774084356421137
40
0.856371664793533
40
0.897755153898637
40
0.917428272144483
40
0.937237772131977
40
0.95519162468179
40
0.984018190502027
40
1
40
1
40
1
40
1
41
1
10
-0.200000000000038
20
-5.88142397393346
30
0
41
1
10
-0.196064780878201
20
-5.75474600051132
30
0
41
1
10
-0.206716278472284
20
-5.57221313865744
30
0
41
1
10
-0.236369718937369
20
-5.35851195688538
30
0
41
1
10
-0.26512383764685
20
-5.2522119738577
30
0
41
1
10
-0.291115782477694
20
-5.19220348818486
30
0
41
1
10
-0.31809131048584
20
-5.15994791139139
30
0
41
1
10
-0.338430402128569
20
-5.14828626530393
30
0
41
1
10
-0.354699344248621
20
-5.14548380678133
30
0
41
1
10
-0.372899440263033
20
-5.14897430103643
30
0
41
1
10
-0.387749096358135
20
-5.15784519057131
30
0
41
1
10
-0.396918780971331
20
-5.16560053879509
30
0
41
1
10
-0.400000000000052
20
-5.16866679574503
30
0
0
SPLINE
5
233
100
AcDbEntity
8
SK1
62
256
6
ByLayer
370
18
48
1
60
0
100
AcDbSpline
70
4
71
3
72
16
73
12
40
0
40
0
40
0
40
0
40
0.0439503849784342
40
0.0882962095956781
40
0.119823748748282
40
0.151333080321582
40
0.197785752387554
40
0.285208338526593
40
0.432294100651084
40
0.580085301699413
40
1
40
1
40
1
40
1
41
1
10
-0.40000000000004
20
-5.16866679574529
30
0
41
1
10
-0.420260552159721
20
-5.18959123991625
30
0
41
1
10
-0.465532793809275
20
-5.2245968957623
30
0
41
1
10
-0.540325064014479
20
-5.25975746385925
30
0
41
1
10
-0.61556627839364
20
-5.26603853608321
30
0
41
1
10
-0.689853412389387
20
-5.24890814810322
30
0
41
1
10
-0.785804329696913
20
-5.19137211714253
30
0
41
1
10
-0.905339112737131
20
-5.05378758708942
30
0
41
1
10
-1.02152968139802
20
-4.84183055168615
30
0
41
1
10
-1.17561394769092
20
-4.42035003265137
30
0
41
1
10
-1.26556409785407
20
-4.07230605007436
30
0
41
1
10
-1.30710678118655
20
-3.80474664113271
30
0
0
SPLINE
5
234
100
AcDbEntity
8
SK1
62
256
6
ByLayer
370
18
48
1
60
0
100
AcDbSpline
70
4
71
3
72
16
73
12
40
0
40
0
40
0
40
0
40
0.351058812479027
40
0.549490242882302
40
0.745650751445109
40
0.831752432968095
40
0.866430020907749
40
0.901364413669997
40
0.932606866569396
40
0.983122008469398
40
1
40
1
40
1
40
1
41
1
10
-1.30710678118655
20
3.80474436172741
30
0
41
1
10
-1.26978415806151
20
4.02733440489884
30
0
41
1
10
-1.18638534235563
20
4.36574772826711
30
0
41
1
10
-1.04345715092741
20
4.81143795815715
30
0
41
1
10
-0.896883993281798
20
5.07907048283339
30
0
41
1
10
-0.744504610413001
20
5.22449701225535
30
0
41
1
10
-0.644314188243218
20
5.26265754541681
30
0
41
1
10
-0.573027760448875
20
5.26521974999095
30
0
41
1
10
-0.495568383822386
20
5.242523706974
30
0
41
1
10
-0.440485899594329
20
5.20534570545952
30
0
41
1
10
-0.407839795734878
20
5.17633421110904
30
0
41
1
10
-0.400000000000011
20
5.16866682996364
30
0
0
SPLINE
5
235
100
AcDbEntity
8
SK1
62
256
6
ByLayer
370
18
48
1
60
0
100
AcDbSpline
70
4
71
3
72
17
73
13
40
0
40
0
40
0
40
0
40
0.0303514220253188
40
0.0536155087252499
40
0.0719362364152822
40
0.0902747582477795
40
0.115197940679837
40
0.15956565892942
40
0.298138202990394
40
0.587610881223524
40
0.878287013648291
40
1
40
1
40
1
40
1
41
1
10
-0.400000000000039
20
5.16866682996297
30
0
41
1
10
-0.394167575628444
20
5.16254689062886
30
0
41
1
10
-0.382671289712247
20
5.15403748188184
30
0
41
1
10
-0.364264031241593
20
5.14642716889598
30
0
41
1
10
-0.347332913984083
20
5.14606544583305
30
0
41
1
10
-0.330541138979937
20
5.1518329149415
30
0
41
1
10
-0.310401603395071
20
5.16756125175962
30
0
41
1
10
-0.276165558567052
20
5.21722886754103
30
0
41
1
10
-0.236739282710337
20
5.34658114116619
30
0
41
1
10
-0.207575999148839
20
5.54435821740557
30
0
41
1
10
-0.201433990875353
20
5.73654934889382
30
0
41
1
10
-0.199982261339106
20
5.84846084555253
30
0
41
1
10
-0.200000000000038
20
5.88142452370542
30
0
0
SPLINE
5
236
100
AcDbEntity
8
SK1
62
256
6
ByLayer
370
18
48
1
60
0
100
AcDbSpline
70
4
71
3
72
14
73
10
40
0
40
0
40
0
40
0
40
0.106385868855732
40
0.253705813711892
40
0.401007656750248
40
0.548297602518328
40
0.695579676619925
40
0.842856519018133
40
1
40
1
40
1
40
1
41
1
10
-2.19993687480718
20
-17.5201003687863
30
0
41
1
10
-2.19994421610192
20
-17.5193673450503
30
0
41
1
10
-2.19995986090332
20
-17.4927860913816
30
0
41
1
10
-2.19997656138666
20
-17.3524594073249
30
0
41
1
10
-2.1999882010107
20
-17.0884031980283
30
0
41
1
10
-2.19999491450112
20
-16.7229200646697
30
0
41
1
10
-2.19999839687952
20
-16.2635090711791
30
0
41
1
10
-2.19999979498391
20
-15.702993954098
30
0
41
1
10
-2.20000009281284
20
-15.2662928156274
30
0
41
1
10
-2.20000000000001
20
-15.0247808645651
30
0
0
SPLINE
5
237
100
AcDbEntity
8
SK1
62
256
6
ByLayer
370
18
48
1
60
0
100
AcDbSpline
70
4
71
2
72
6
73
3
40
0
40
0
40
0
40
1
40
1
40
1
41
1
10
-2.19492113517947
20
17.5202263833814
30
0
41
1
10
-2.59746056758973
20
17.5101131917171
30
0
41
1
10
-3
20
17.5000000000527
30
0
0
SPLINE
5
238
100
AcDbEntity
8
SK1
62
256
6
ByLayer
370
18
48
1
60
0
100
AcDbSpline
70
4
71
2
72
6
73
3
40
0
40
0
40
0
40
1
40
1
40
1
41
1
10
-3
20
-17.5000000000204
30
0
41
1
10
-2.59746056758973
20
-17.5101131916847
30
0
41
1
10
-2.19492113517947
20
-17.5202263833491
30
0
0
SPLINE
5
239
100
AcDbEntity
8
SK1
62
256
6
ByLayer
370
18
48
1
60
0
100
AcDbSpline
70
4
71
3
72
15
73
11
40
0
40
0
40
0
40
0
40
0.0482444810784745
40
0.186543205617606
40
0.324838385324127
40
0.462925361425484
40
0.601017890324561
40
0.739118499993595
40
0.87723095696793
40
1
40
1
40
1
40
1
41
1
10
-2.20000000000001
20
15.0247809138972
30
0
41
1
10
-2.2000000044163
20
15.0987889684388
30
0
41
1
10
-2.19999995978618
20
15.3792399160369
30
0
41
1
10
-2.19999962765236
20
15.8299994029118
30
0
41
1
10
-2.19999800602194
20
16.3305015634396
30
0
41
1
10
-2.19999447164769
20
16.7522406353037
30
0
41
1
10
-2.19998798014741
20
17.0906741523661
30
0
41
1
10
-2.19997713313472
20
17.3398330375015
30
0
41
1
10
-2.19996107277159
20
17.4876542247601
30
0
41
1
10
-2.19994531729302
20
17.5191036010008
30
0
41
1
10
-2.19993687627274
20
17.5201003696443
30
0
0
SPLINE
5
23A
100
AcDbEntity
8
SK1
62
256
6
ByLayer
370
18
48
1
60
0
100
AcDbSpline
70
4
71
2
72
6
73
3
40
0
40
0
40
0
40
1
40
1
40
1
41
1
10
-3
20
17.5000000000527
30
0
41
1
10
-15.7502365839532
20
17.1796696772131
30
0
41
1
10
-28.5004731679065
20
16.8593393543735
30
0
0
SPLINE
5
23B
100
AcDbEntity
8
SK1
62
256
6
ByLayer
370
18
48
1
60
0
100
AcDbSpline
70
4
71
2
72
6
73
3
40
0
40
0
40
0
40
1
40
1
40
1
41
1
10
-28.5004731679065
20
-16.8593393543424
30
0
41
1
10
-15.7502365839532
20
-17.1796696771814
30
0
41
1
10
-3
20
-17.5000000000204
30
0
0
SPLINE
5
23C
100
AcDbEntity
8
SK1
62
256
6
ByLayer
370
18
48
1
60
0
100
AcDbSpline
70
4
71
3
72
13
73
9
40
0
40
0
40
0
40
0
40
0.239468143101075
40
0.368375717557483
40
0.50001641368263
40
0.631654380070983
40
0.76055442752933
40
1
40
1
40
1
40
1
41
1
10
-2
20
17.3251501409626
30
0
41
1
10
-2.02607195862894
20
17.3254032171872
30
0
41
1
10
-2.06363514911804
20
17.3325204701499
30
0
41
1
10
-2.11047805080219
20
17.3567460306058
30
0
41
1
10
-2.14242236455519
20
17.382721349279
30
0
41
1
10
-2.16840047419731
20
17.414662371353
30
0
41
1
10
-2.19262861856614
20
17.4615002450208
30
0
41
1
10
-2.19974657466873
20
17.4990601036781
30
0
41
1
10
-2.2
20
17.5251299249899
30
0
0
SPLINE
5
23D
100
AcDbEntity
8
SK1
62
256
6
ByLayer
370
18
48
1
60
0
100
AcDbSpline
70
4
71
3
72
13
73
9
40
0
40
0
40
0
40
0
40
0.239445575724619
40
0.368345624848071
40
0.499983592440208
40
0.631624288955048
40
0.76053186267522
40
1
40
1
40
1
40
1
41
1
10
-2.2
20
-17.5251299251292
30
0
41
1
10
-2.19974657467479
20
-17.4990601038703
30
0
41
1
10
-2.19262861856452
20
-17.4615002452731
30
0
41
1
10
-2.16840047423857
20
-17.4146623717452
30
0
41
1
10
-2.14242236464553
20
-17.3827213497399
30
0
41
1
10
-2.11047805094366
20
-17.3567460311215
30
0
41
1
10
-2.06363514965123
20
-17.3325204707743
30
0
41
1
10
-2.02607195888454
20
-17.3254032177991
30
0
41
1
10
-2
20
-17.3251501414068
30
0
0
SPLINE
5
23E
100
AcDbEntity
8
SK1
62
256
6
ByLayer
370
18
48
1
60
0
100
AcDbSpline
70
4
71
3
72
16
73
12
40
0
40
0
40
0
40
0
40
0.101870722793165
40
0.203718363389488
40
0.308089951926134
40
0.41241525276698
40
0.52916162839408
40
0.646391561672251
40
0.763296187326094
40
0.881625644108369
40
1
40
1
40
1
40
1
41
1
10
-1.30710678118655
20
3.80474436172741
30
0
41
1
10
-1.3528175512732
20
3.56030061780931
30
0
41
1
10
-1.43825474283595
20
3.06526047616153
30
0
41
1
10
-1.55260961619648
20
2.29746051127423
30
0
41
1
10
-1.64288396017673
20
1.50511996075521
30
0
41
1
10
-1.70375008696193
20
0.658796178987246
30
0
41
1
10
-1.71477648367587
20
-0.231403505662119
30
0
41
1
10
-1.67300909917651
20
-1.15039276708552
30
0
41
1
10
-1.5850927092093
20
-2.05785190512705
30
0
41
1
10
-1.45861282398588
20
-2.94424663120603
30
0
41
1
10
-1.36053835676226
20
-3.52065829215743
30
0
41
1
10
-1.30710678118664
20
-3.80474664113296
30
0
0
SPLINE
5
23F
100
AcDbEntity
8
SK1
62
256
6
ByLayer
370
18
48
1
60
0
100
AcDbSpline
70
4
71
2
72
6
73
3
40
0
40
0
40
0
40
1
40
1
40
1
41
1
10
-0.400000000000016
20
17.3251501409626
30
0
41
1
10
-1.20000000000001
20
17.3251501409626
30
0
41
1
10
-2
20
17.3251501409626
30
0
0
SPLINE
5
240
100
AcDbEntity
8
SK1
62
256
6
ByLayer
370
18
48
1
60
0
100
AcDbSpline
70
4
71
2
72
6
73
3
40
0
40
0
40
0
40
1
40
1
40
1
41
1
10
-2
20
-17.3251501414068
30
0
41
1
10
-1.20000000000001
20
-17.3251501414068
30
0
41
1
10
-0.400000000000016
20
-17.3251501414068
30
0
0
SPLINE
5
241
100
AcDbEntity
8
SK1
62
256
6
ByLayer
370
18
48
1
60
0
100
AcDbSpline
70
4
71
2
72
6
73
3
40
0
40
0
40
0
40
1
40
1
40
1
41
1
10
-28.5003904504266
20
16.8597456617469
30
0
41
1
10
-29.2501952787077
20
16.4010253845872
30
0
41
1
10
-30
20
15.9423013487186
30
0
0
SPLINE
5
242
100
AcDbEntity
8
SK1
62
256
6
ByLayer
370
18
48
1
60
0
100
AcDbSpline
70
4
71
2
72
6
73
3
40
0
40
0
40
0
40
1
40
1
40
1
41
1
10
-30
20
-15.9408160639395
30
0
41
1
10
-29.250201613525
20
-16.3993636736336
30
0
41
1
10
-28.5004032853135
20
-16.8579102610953
30
0
0
SPLINE
5
243
100
AcDbEntity
8
SK1
62
256
6
ByLayer
370
18
48
1
60
0
100
AcDbSpline
70
4
71
3
72
11
73
7
40
0
40
0
40
0
40
0
40
0.245755007744097
40
0.501794198211022
40
0.756953870258399
40
1
40
1
40
1
40
1
41
1
10
-0.200000000000015
20
17.5191731511753
30
0
41
1
10
-0.199994647676401
20
17.4938449669989
30
0
41
1
10
-0.209350242264534
20
17.445622853432
30
0
41
1
10
-0.254178184246641
20
17.3766360753193
30
0
41
1
10
-0.324420736760799
20
17.33275982811
30
0
41
1
10
-0.373991067023653
20
17.3239685556465
30
0
41
1
10
-0.400000000000017
20
17.3241476526065
30
0
0
SPLINE
5
244
100
AcDbEntity
8
SK1
62
256
6
ByLayer
370
18
48
1
60
0
100
AcDbSpline
70
4
71
3
72
11
73
7
40
0
40
0
40
0
40
0
40
0.243046950855205
40
0.49820466819263
40
0.754242469704772
40
1
40
1
40
1
40
1
41
1
10
-0.400000000000017
20
-17.3241468641747
30
0
41
1
10
-0.373991174653762
20
-17.3239674893689
30
0
41
1
10
-0.324421202647551
20
-17.332758304075
30
0
41
1
10
-0.254178044541108
20
-17.3766339294131
30
0
41
1
10
-0.209350044376059
20
-17.4456203921356
30
0
41
1
10
-0.199994500672231
20
-17.4938412312525
30
0
41
1
10
-0.200000000000015
20
-17.5191688355708
30
0
0
SPLINE
5
245
100
AcDbEntity
8
1
62
256
6
ByLayer
370
18
48
1
60
0
100
AcDbSpline
70
4
71
3
72
12
73
8
40
0
40
0
40
0
40
0
40
0.0690540297947658
40
0.319530410949562
40
0.577012067215097
40
0.786539323500435
40
1
40
1
40
1
40
1
41
1
10
37.9125268204648
20
21.2103849732933
30
0
41
1
10
37.9757724713414
20
21.1977985445347
30
0
41
1
10
38.2744153199367
20
21.1384176907009
30
0
41
1
10
38.8693854317605
20
21.0204648125699
30
0
41
1
10
39.6939277906284
20
20.8579732661675
30
0
41
1
10
40.5314655107732
20
20.6939036002508
30
0
41
1
10
41.0701162740053
20
20.5890051602745
30
0
41
1
10
41.3476541164523
20
20.5350993409131
30
0
0
SPLINE
5
246
100
AcDbEntity
8
1
62
256
6
ByLayer
370
18
48
1
60
0
100
AcDbSpline
70
4
71
2
72
6
73
3
40
0
40
0
40
0
40
1
40
1
40
1
41
1
10
41.3476541164523
20
-20.535099340913
30
0
41
1
10
40.6236471297755
20
-20.675711021807
30
0
41
1
10
39.944359402422
20
-20.8089725573911
30
0
0
SPLINE
5
247
100
AcDbEntity
8
1
62
256
6
ByLayer
370
18
48
1
60
0
100
AcDbSpline
70
4
71
3
72
11
73
7
40
0
40
0
40
0
40
0
40
0.243967275379627
40
0.490073762726307
40
0.743792154168325
40
1
40
1
40
1
40
1
41
1
10
71.2488478137673
20
15.147938092057
30
0
41
1
10
71.1330623839248
20
15.0036333805254
30
0
41
1
10
70.9161828784992
20
14.7036791240799
30
0
41
1
10
70.6405095399888
20
14.2119539876949
30
0
41
1
10
70.3983756814679
20
13.6921503722485
30
0
41
1
10
70.2769899582778
20
13.3255604974049
30
0
41
1
10
70.2252662300867
20
13.1375209725337
30
0
0
SPLINE
5
248
100
AcDbEntity
8
1
62
256
6
ByLayer
370
18
48
1
60
0
100
AcDbSpline
70
4
71
3
72
15
73
11
40
0
40
0
40
0
40
0
40
0.121432781348749
40
0.242857256103149
40
0.366312450963323
40
0.489949956517439
40
0.613040985309603
40
0.754325318927434
40
0.895551796214159
40
1
40
1
40
1
40
1
41
1
10
67.1390974945413
20
1.49324327723072
30
0
41
1
10
67.0632326193999
20
1.20453157305269
30
0
41
1
10
66.9585330166363
20
0.623739592407438
30
0
41
1
10
66.9595674517467
20
-0.273423941624039
30
0
41
1
10
67.0698061586568
20
-1.16422497124408
30
0
41
1
10
67.2495406710322
20
-2.04837100179106
30
0
41
1
10
67.5482655490293
20
-2.94649705881727
30
0
41
1
10
67.9955743858937
20
-3.82823626390971
30
0
41
1
10
68.5463029346958
20
-4.59545698000122
30
0
41
1
10
68.964474420093
20
-5.01721925575497
30
0
41
1
10
69.1546400107694
20
-5.18633686257294
30
0
0
SPLINE
5
249
100
AcDbEntity
8
1
62
256
6
ByLayer
370
18
48
1
60
0
100
AcDbSpline
70
4
71
3
72
10
73
6
40
0
40
0
40
0
40
0
40
0.319932238903485
40
0.659954236309847
40
1
40
1
40
1
40
1
41
1
10
69.1546400110191
20
-5.18633686229026
30
0
41
1
10
69.1733336698546
20
-5.20270346924641
30
0
41
1
10
69.2120248013282
20
-5.23630967234469
30
0
41
1
10
69.2710608068837
20
-5.28674972516584
30
0
41
1
10
69.3114902008901
20
-5.32071117138705
30
0
41
1
10
69.3317763137997
20
-5.33760746736623
30
0
0
SPLINE
5
24A
100
AcDbEntity
8
1
62
256
6
ByLayer
370
18
48
1
60
0
100
AcDbSpline
70
4
71
3
72
10
73
6
40
0
40
0
40
0
40
0
40
0.323508598477507
40
0.661742977246525
40
1
40
1
40
1
40
1
41
1
10
69.3317763142988
20
-5.3376074665309
30
0
41
1
10
69.3508624690112
20
-5.35350429846209
30
0
41
1
10
69.3900280873256
20
-5.38586573908134
30
0
41
1
10
69.4496013788642
20
-5.43428873750774
30
0
41
1
10
69.4901645825601
20
-5.46671153164183
30
0
41
1
10
69.5105129445495
20
-5.48283995877341
30
0
0
SPLINE
5
24B
100
AcDbEntity
8
1
62
256
6
ByLayer
370
18
48
1
60
0
100
AcDbSpline
70
4
71
3
72
14
73
10
40
0
40
0
40
0
40
0
40
0.160358881527993
40
0.320619868274868
40
0.485251609247468
40
0.64981645742783
40
0.797514182330565
40
0.945225906728446
40
1
40
1
40
1
40
1
41
1
10
69.5105129449835
20
-5.48283995798291
30
0
41
1
10
69.7052989526564
20
-5.63772170211818
30
0
41
1
10
70.1134189406137
20
-5.91078271949315
30
0
41
1
10
70.7941222307738
20
-6.2226796705254
30
0
41
1
10
71.525097289588
20
-6.40482920699283
30
0
41
1
10
72.2582336234073
20
-6.44774774788287
30
0
41
1
10
72.9593243427023
20
-6.35510039121019
30
0
41
1
10
73.4746250953906
20
-6.19546302325941
30
0
41
1
10
73.7578584744974
20
-6.06922748388482
30
0
41
1
10
73.8336266544136
20
-6.03255419117673
30
0
0
SPLINE
5
24C
100
AcDbEntity
8
1
62
256
6
ByLayer
370
18
48
1
60
0
100
AcDbSpline
70
4
71
3
72
12
73
8
40
0
40
0
40
0
40
0
40
0.176944409549369
40
0.35247531917652
40
0.529419728725892
40
0.815933602366183
40
1
40
1
40
1
40
1
41
1
10
68.3844963164164
20
0.0754670534844149
30
0
41
1
10
68.287907281126
20
0.106215109047423
30
0
41
1
10
68.1026442472488
20
0.187187855113752
30
0
41
1
10
67.8436146205486
20
0.368985019091146
30
0
41
1
10
67.5619515991018
20
0.65680200445803
30
0
41
1
10
67.3195787512813
20
1.03242003151221
30
0
41
1
10
67.1855444658337
20
1.35734023696577
30
0
41
1
10
67.1389609084887
20
1.49295879761219
30
0
0
SPLINE
5
24D
100
AcDbEntity
8
1
62
256
6
ByLayer
370
18
48
1
60
0
100
AcDbSpline
70
4
71
3
72
19
73
15
40
0
40
0
40
0
40
0
40
0.101680376226136
40
0.203501214492341
40
0.306378583706826
40
0.41309233261241
40
0.530277269578886
40
0.651747916286378
40
0.727449293781092
40
0.783632059232472
40
0.834256114998245
40
0.888907073138273
40
0.944171114471956
40
1
40
1
40
1
40
1
41
1
10
69.154640011089
20
-5.18633686248884
30
0
41
1
10
69.0560692430827
20
-5.0481605019268
30
0
41
1
10
68.8719995148559
20
-4.76012353837713
30
0
41
1
10
68.6343519821881
20
-4.28929463345158
30
0
41
1
10
68.4341464366056
20
-3.78052869222427
30
0
41
1
10
68.2740821077585
20
-3.21517416438068
30
0
41
1
10
68.1837950526991
20
-2.58242466387144
30
0
41
1
10
68.1518580368324
20
-1.99350188042695
30
0
41
1
10
68.1404186934773
20
-1.5157480585091
30
0
41
1
10
68.1593935192006
20
-1.16758374735758
30
0
41
1
10
68.1996708330879
20
-0.859430767434999
30
0
41
1
10
68.2438828794945
20
-0.55330560476475
30
0
41
1
10
68.3061675569728
20
-0.238564569071126
30
0
41
1
10
68.3566846331085
20
-0.0293219693383926
30
0
41
1
10
68.3844963164164
20
0.0754670534844148
30
0
0
SPLINE
5
24E
100
AcDbEntity
8
1
62
256
6
ByLayer
370
18
48
1
60
0
100
AcDbSpline
70
4
71
3
72
19
73
15
40
0
40
0
40
0
40
0
40
0.100887001405212
40
0.202080416002887
40
0.303906078440355
40
0.407768028891332
40
0.520454629041072
40
0.643364751012594
40
0.724872140611911
40
0.785683642708374
40
0.835372205206648
40
0.889450173459107
40
0.944432922025571
40
1
40
1
40
1
40
1
41
1
10
69.5105129452089
20
-5.48283995849093
30
0
41
1
10
69.398969877619
20
-5.34590688645309
30
0
41
1
10
69.1898924299315
20
-5.05793313585697
30
0
41
1
10
68.9169235273783
20
-4.58153112421765
30
0
41
1
10
68.6886924120756
20
-4.06283399725243
30
0
41
1
10
68.4965621955134
20
-3.49377152948849
30
0
41
1
10
68.3752868992158
20
-2.84356339478778
30
0
41
1
10
68.3305793644418
20
-2.21506001758711
30
0
41
1
10
68.312592098172
20
-1.68571562778731
30
0
41
1
10
68.3219712229276
20
-1.29797634195711
30
0
41
1
10
68.3646982027299
20
-0.964418437106576
30
0
41
1
10
68.4091491942456
20
-0.643129388087488
30
0
41
1
10
68.4735219277803
20
-0.311148185846104
30
0
41
1
10
68.526599711917
20
-0.0901351136024647
30
0
41
1
10
68.5559849307783
20
0.020563242916358
30
0
0
SPLINE
5
24F
100
AcDbEntity
8
1
62
256
6
ByLayer
370
18
48
1
60
0
100
AcDbSpline
70
4
71
3
72
17
73
13
40
0
40
0
40
0
40
0
40
0.0802529714544853
40
0.159864851341295
40
0.240117822795781
40
0.370065922208055
40
0.500014021620331
40
0.629962121032604
40
0.694677150262628
40
0.760080621221776
40
0.880040310610888
40
1
40
1
40
1
40
1
41
1
10
71.8665255512717
20
3.15221574049619
30
0
41
1
10
71.8233829253893
20
2.98904357457658
30
0
41
1
10
71.7262200861605
20
2.67082352487687
30
0
41
1
10
71.5454951513901
20
2.20960905184224
30
0
41
1
10
71.2897706865069
20
1.68642912423825
30
0
41
1
10
70.9388572080736
20
1.1308312868621
30
0
41
1
10
70.478819368457
20
0.61264135666706
30
0
41
1
10
70.0653140821987
20
0.290754729380798
30
0
41
1
10
69.725941929944
20
0.111262706688913
30
0
41
1
10
69.3979361839069
20
-0.0108780863642951
30
0
41
1
10
68.9980625830071
20
-0.0725642508811681
30
0
41
1
10
68.7013642662835
20
-0.0259814185283127
30
0
41
1
10
68.5559849307782
20
0.0205632429163601
30
0
0
SPLINE
5
250
100
AcDbEntity
8
1
62
256
6
ByLayer
370
18
48
1
60
0
100
AcDbSpline
70
4
71
3
72
20
73
16
40
0
40
0
40
0
40
0
40
0.0954611577633997
40
0.190423686204097
40
0.286891044164499
40
0.385280336869946
40
0.485040453304319
40
0.585933952660488
40
0.641874070977275
40
0.702538367679674
40
0.76688903369734
40
0.820618933546104
40
0.860513065827667
40
0.928089036650723
40
1
40
1
40
1
40
1
41
1
10
75.0077988861774
20
-3.74141542859872
30
0
41
1
10
74.7722602524761
20
-3.68600686200114
30
0
41
1
10
74.3196761738242
20
-3.53430071150561
30
0
41
1
10
73.6838016256702
20
-3.17727251459477
30
0
41
1
10
73.106128357146
20
-2.70052304459873
30
0
41
1
10
72.6021603666391
20
-2.0995774916999
30
0
41
1
10
72.1859731310402
20
-1.39060724524446
30
0
41
1
10
71.9128111853777
20
-0.714281159441421
30
0
41
1
10
71.7527822608594
20
-0.100071422451423
30
0
41
1
10
71.6739413905243
20
0.434720821502318
30
0
41
1
10
71.6394138694863
20
0.975037408963898
30
0
41
1
10
71.6221150864468
20
1.4555492230802
30
0
41
1
10
71.6388406024491
20
1.95171566858541
30
0
41
1
10
71.7185383991584
20
2.50677941240895
30
0
41
1
10
71.8092601571685
20
2.93311311983563
30
0
41
1
10
71.8665255512717
20
3.15221574049619
30
0
0
SPLINE
5
251
100
AcDbEntity
8
1
62
256
6
ByLayer
370
18
48
1
60
0
100
AcDbSpline
70
4
71
3
72
11
73
7
40
0
40
0
40
0
40
0
40
0.284610256884458
40
0.569220513768916
40
0.784610256884458
40
1
40
1
40
1
40
1
41
1
10
75.0077988861774
20
-3.74141542859872
30
0
41
1
10
74.9396454267046
20
-3.99741021045837
30
0
41
1
10
74.7777716972974
20
-4.48916276957176
30
0
41
1
10
74.4791922094275
20
-5.12264942203701
30
0
41
1
10
74.1584681620064
20
-5.63723093301448
30
0
41
1
10
73.9455082415249
20
-5.90704561238242
30
0
41
1
10
73.8336266544136
20
-6.03255419117672
30
0
0
SPLINE
5
252
100
AcDbEntity
8
1
62
256
6
ByLayer
370
18
48
1
60
0
100
AcDbSpline
70
4
71
1
72
4
73
2
40
0
40
0
40
1
40
1
41
1
10
79.6159148166861
20
13.645249444594
30
0
41
1
10
79.6227855414908
20
13.6713869358873
30
0
0
SPLINE
5
253
100
AcDbEntity
8
1
62
256
6
ByLayer
370
18
48
1
60
0
100
AcDbSpline
70
4
71
3
72
20
73
16
40
0
40
0
40
0
40
0
40
0.0954611577633979
40
0.190423686204095
40
0.2868910441645
40
0.385280336869945
40
0.485040453304319
40
0.585933952660488
40
0.641874070977273
40
0.702538367679672
40
0.76688903369734
40
0.820618933546103
40
0.860513065827667
40
0.928089036650722
40
1
40
1
40
1
40
1
41
1
10
79.6159148166861
20
13.645249444594
30
0
41
1
10
79.38032030048
20
13.7004471635481
30
0
41
1
10
78.9050532804265
20
13.7665693776944
30
0
41
1
10
78.1655083168714
20
13.732443619925
30
0
41
1
10
77.4176022592822
20
13.566895782619
30
0
41
1
10
76.6727897072496
20
13.2591220799851
30
0
41
1
10
75.9515670551988
20
12.8171775837819
30
0
41
1
10
75.3729039098299
20
12.3408315020972
30
0
41
1
10
74.9251173519512
20
11.8693164848949
30
0
41
1
10
74.5886385975122
20
11.4320273799625
30
0
41
1
10
74.2885249130108
20
10.9702733405716
30
0
41
1
10
74.0334655932879
20
10.5537020878282
30
0
41
1
10
73.8006324373565
20
10.1082704788264
30
0
41
1
10
73.5940028983912
20
9.58300605719512
30
0
41
1
10
73.4613452575547
20
9.16651749064139
30
0
41
1
10
73.4025641947746
20
8.94777069822708
30
0
0
SPLINE
5
254
100
AcDbEntity
8
1
62
256
6
ByLayer
370
18
48
1
60
0
100
AcDbSpline
70
4
71
3
72
15
73
11
40
0
40
0
40
0
40
0
40
0.125
40
0.25
40
0.375
40
0.5
40
0.624999999999999
40
0.75
40
0.874999999999989
40
1
40
1
40
1
40
1
41
1
10
73.4025641947746
20
8.94777069822708
30
0
41
1
10
73.4704613243226
20
9.20395015532069
30
0
41
1
10
73.5746636434628
20
9.71436259988991
30
0
41
1
10
73.6361852664327
20
10.4874939088413
30
0
41
1
10
73.6029431412812
20
11.2280817070358
30
0
41
1
10
73.4716428194219
20
11.9081283170952
30
0
41
1
10
73.2522159335961
20
12.5048103635421
30
0
41
1
10
72.9487809865944
20
12.9898054587993
30
0
41
1
10
72.5754829196819
20
13.3516129617874
30
0
41
1
10
72.2916804601132
20
13.4949868245629
30
0
41
1
10
72.1400750989515
20
13.5435248109552
30
0
0
SPLINE
5
255
100
AcDbEntity
8
1
62
256
6
ByLayer
370
18
48
1
60
0
100
AcDbSpline
70
4
71
3
72
11
73
7
40
0
40
0
40
0
40
0
40
0.178515643649751
40
0.356941109827463
40
0.546671180828994
40
1
40
1
40
1
40
1
41
1
10
72.6424960521685
20
14.9022003051154
30
0
41
1
10
72.6049021524667
20
14.8248399372804
30
0
41
1
10
72.5325416161827
20
14.668743253957
30
0
41
1
10
72.4326659365209
20
14.4240628314548
30
0
41
1
10
72.2886315703037
20
14.0536277393267
30
0
41
1
10
72.1963444681435
20
13.7563359371704
30
0
41
1
10
72.1400750989517
20
13.5435248109551
30
0
0
SPLINE
5
256
100
AcDbEntity
8
1
62
256
6
ByLayer
370
18
48
1
60
0
100
AcDbSpline
70
4
71
3
72
20
73
16
40
0
40
0
40
0
40
0
40
0.121845643722768
40
0.243398001387905
40
0.291007342447806
40
0.33851201766821
40
0.374453955076892
40
0.410336451095203
40
0.446216049102569
40
0.48215869245844
40
0.545227980207906
40
0.608495182516149
40
0.738755025709277
40
0.86936090683166
40
1
40
1
40
1
40
1
41
1
10
72.642496051965
20
14.902200305231
30
0
41
1
10
72.8499201820126
20
14.8656258347893
30
0
41
1
10
73.2956488833467
20
14.7870318388904
30
0
41
1
10
73.8942731596554
20
14.6814782281704
30
0
41
1
10
74.3883223050454
20
14.5943640339917
30
0
41
1
10
74.7109172512367
20
14.5374818411463
30
0
41
1
10
75.0268342973143
20
14.4817771422554
30
0
41
1
10
75.3260771249488
20
14.4290125579604
30
0
41
1
10
75.6303931828029
20
14.3753534262978
30
0
41
1
10
76.006221004405
20
14.3090848412485
30
0
41
1
10
76.4427831887197
20
14.2321071493968
30
0
41
1
10
77.0895835068983
20
14.118058802171
30
0
41
1
10
77.8609226937969
20
13.9820508922431
30
0
41
1
10
78.7445178699706
20
13.8262492226598
30
0
41
1
10
79.3320234224919
20
13.7226561424343
30
0
41
1
10
79.6227855414907
20
13.6713869358869
30
0
0
SPLINE
5
257
100
AcDbEntity
8
1
62
256
6
ByLayer
370
18
48
1
60
0
100
AcDbSpline
70
4
71
3
72
11
73
7
40
0
40
0
40
0
40
0
40
0.275610306988
40
0.551220613975999
40
0.776274487773466
40
1
40
1
40
1
40
1
41
1
10
71.9685864845898
20
13.5984286215232
30
0
41
1
10
71.8169811234281
20
13.6469666079154
30
0
41
1
10
71.5075044959088
20
13.6935235043049
30
0
41
1
10
71.0459517724938
20
13.6138739852539
30
0
41
1
10
70.6139764082643
20
13.4239039117459
30
0
41
1
10
70.353810427421
20
13.2434745514616
30
0
41
1
10
70.2252877263926
20
13.1378121522635
30
0
0
SPLINE
5
258
100
AcDbEntity
8
1
62
256
6
ByLayer
370
18
48
1
60
0
100
AcDbSpline
70
4
71
1
72
4
73
2
40
0
40
0
40
1
40
1
41
1
10
72.0543307917708
20
13.5709767162391
30
0
41
1
10
71.9685864845897
20
13.5984286215232
30
0
0
SPLINE
5
259
100
AcDbEntity
8
1
62
256
6
ByLayer
370
18
48
1
60
0
100
AcDbSpline
70
4
71
1
72
4
73
2
40
0
40
0
40
1
40
1
41
1
10
72.1400750989517
20
13.5435248109551
30
0
41
1
10
72.0543307917706
20
13.5709767162392
30
0
0
SPLINE
5
25A
100
AcDbEntity
8
1
62
256
6
ByLayer
370
18
48
1
60
0
100
AcDbSpline
70
4
71
1
72
4
73
2
40
0
40
0
40
1
40
1
41
1
10
68.5559849307782
20
0.0205632429163584
30
0
41
1
10
68.4702406235973
20
0.0480151482003871
30
0
0
SPLINE
5
25B
100
AcDbEntity
8
1
62
256
6
ByLayer
370
18
48
1
60
0
100
AcDbSpline
70
4
71
1
72
4
73
2
40
0
40
0
40
1
40
1
41
1
10
68.4702406235973
20
0.0480151482003871
30
0
41
1
10
68.3844963164164
20
0.0754670534844149
30
0
0
SPLINE
5
25C
100
AcDbEntity
8
1
62
256
6
ByLayer
370
18
48
1
60
0
100
AcDbSpline
70
4
71
3
72
19
73
15
40
0
40
0
40
0
40
0
40
0.101356956350734
40
0.202814075972066
40
0.305120752955937
40
0.410205271919239
40
0.525075767146203
40
0.647716170767594
40
0.726330217401093
40
0.784812410728533
40
0.834831443734997
40
0.889198229477131
40
0.944311756543003
40
1
40
1
40
1
40
1
41
1
10
69.3317763145094
20
-5.33760746705999
30
0
41
1
10
69.2266329007752
20
-5.19975666321631
30
0
41
1
10
69.0300576466213
20
-4.91132719996073
30
0
41
1
10
68.7747331856003
20
-4.43725560382734
30
0
41
1
10
68.5609813792914
20
-3.92340353124922
30
0
41
1
10
68.3841158758293
20
-3.3565968261626
30
0
41
1
10
68.2788751157411
20
-2.71393030975905
30
0
41
1
10
68.2410581636828
20
-2.10424504729351
30
0
41
1
10
68.2262545387992
20
-1.6000421981452
30
0
41
1
10
68.2404060856837
20
-1.23248334724895
30
0
41
1
10
68.2822395223941
20
-0.911932022479985
30
0
41
1
10
68.3264408499314
20
-0.598363260119449
30
0
41
1
10
68.3898356539588
20
-0.27491397824108
30
0
41
1
10
68.4416371879772
20
-0.0597475821626049
30
0
41
1
10
68.4702406235973
20
0.0480151482003866
30
0
0
SPLINE
5
25D
100
AcDbEntity
8
1
62
256
6
ByLayer
370
18
48
1
60
0
100
AcDbSpline
70
4
71
3
72
10
73
6
40
0
40
0
40
0
40
0
40
0.264100023969022
40
0.546017245507371
40
1
40
1
40
1
40
1
41
1
10
72.459588072941
20
14.9344519169176
30
0
41
1
10
72.4064603899529
20
14.8211284443674
30
0
41
1
10
72.3018849922216
20
14.5844710672213
30
0
41
1
10
72.1280714387693
20
14.1417464815036
30
0
41
1
10
72.0241998140367
20
13.8077242038083
30
0
41
1
10
71.9685864845898
20
13.5984286215232
30
0
0
SPLINE
5
25E
100
AcDbEntity
8
1
62
256
6
ByLayer
370
18
48
1
60
0
100
AcDbSpline
70
4
71
3
72
11
73
7
40
0
40
0
40
0
40
0
40
0.177339444107165
40
0.356375810041303
40
0.546336332886213
40
1
40
1
40
1
40
1
41
1
10
72.5510209580896
20
14.9183298323012
30
0
41
1
10
72.5142985587135
20
14.8419921584949
30
0
41
1
10
72.4431408777188
20
14.6872657968668
30
0
41
1
10
72.3442198120293
20
14.4448868874942
30
0
41
1
10
72.2016166154754
20
14.0770196861457
30
0
41
1
10
72.1101306302096
20
13.7820660953171
30
0
41
1
10
72.0543307917708
20
13.5709767162391
30
0
0
SPLINE
5
25F
100
AcDbEntity
8
1
62
256
6
ByLayer
370
18
48
1
60
0
100
AcDbSpline
70
4
71
3
72
10
73
6
40
0
40
0
40
0
40
0
40
0.249999994954436
40
0.624999994060431
40
1
40
1
40
1
40
1
41
1
10
72.4595880727574
20
14.9344519170197
30
0
41
1
10
72.4672057184985
20
14.9331087208949
30
0
41
1
10
72.4862509343927
20
14.9297505361613
30
0
41
1
10
72.5167277213964
20
14.9243766559508
30
0
41
1
10
72.5395892227211
20
14.9203455565421
30
0
41
1
10
72.5510209584036
20
14.9183298331047
30
0
0
SPLINE
5
260
100
AcDbEntity
8
1
62
256
6
ByLayer
370
18
48
1
60
0
100
AcDbSpline
70
4
71
3
72
10
73
6
40
0
40
0
40
0
40
0
40
0.249999995289328
40
0.62499999445376
40
1
40
1
40
1
40
1
41
1
10
72.5510209578956
20
14.9183298324102
30
0
41
1
10
72.5586421810255
20
14.9169860055118
30
0
41
1
10
72.5776963028673
20
14.9136262504519
30
0
41
1
10
72.6081871872661
20
14.9082498844722
30
0
41
1
10
72.6310591296784
20
14.9042169440225
30
0
41
1
10
72.6424960524988
20
14.9022003059528
30
0
0
SPLINE
5
261
100
AcDbEntity
8
1
62
256
6
ByLayer
370
18
48
1
60
0
100
AcDbSpline
70
4
71
2
72
6
73
3
40
0
40
0
40
0
40
1
40
1
40
1
41
0.500006827532375
10
74.582251378133
20
-1.79427339389265
30
0
41
0.499993172467625
10
74.6191790274935
20
-1.80267208876652
30
0
41
0.500006827532375
10
74.6556041651373
20
-1.81091572951381
30
0
0
SPLINE
5
262
100
AcDbEntity
8
1
62
256
6
ByLayer
370
18
48
1
60
0
100
AcDbSpline
70
4
71
2
72
6
73
3
40
0
40
0
40
0
40
1
40
1
40
1
41
0.500367886911725
10
81.5937037911942
20
4.48134249559504
30
0
41
0.499632113088274
10
81.5734176256015
20
4.48357596015969
30
0
41
0.500367886911725
10
81.5530115223548
20
4.48357596015969
30
0
0
SPLINE
5
263
100
AcDbEntity
8
1
62
256
6
ByLayer
370
18
48
1
60
0
100
AcDbSpline
70
4
71
2
72
6
73
3
40
0
40
0
40
0
40
1
40
1
40
1
41
0.500367886911725
10
83.9104461522356
20
3.07617362151152
30
0
41
0.499632113088275
10
83.9307323178284
20
3.07394015694687
30
0
41
0.500367886911725
10
83.951138421075
20
3.07394015694687
30
0
0
SPLINE
5
264
100
AcDbEntity
8
1
62
256
6
ByLayer
370
18
48
1
60
0
100
AcDbSpline
70
4
71
2
72
6
73
3
40
0
40
0
40
0
40
1
40
1
40
1
41
0.503089909470099
10
81.7566804352272
20
2.53042343238229
30
0
41
0.496910090529901
10
81.8131572758274
20
2.54923536911524
30
0
41
0.503089909470099
10
81.8611324638614
20
2.58475329819034
30
0
0
SPLINE
5
265
100
AcDbEntity
8
1
62
256
6
ByLayer
370
18
48
1
60
0
100
AcDbSpline
70
4
71
2
72
6
73
3
40
0
40
0
40
0
40
1
40
1
40
1
41
0.512695683919056
10
81.874299605282
20
2.51133904816617
30
0
41
0.487304316080944
10
81.9972078589216
20
2.51133904816617
30
0
41
0.512695683919056
10
82.0963708039752
20
2.58475329819033
30
0
0
SPLINE
5
266
100
AcDbEntity
8
1
62
256
6
ByLayer
370
18
48
1
60
0
100
AcDbSpline
70
4
71
2
72
6
73
3
40
0
40
0
40
0
40
1
40
1
40
1
41
0.500367886911725
10
81.6392148813435
20
4.47884454180562
30
0
41
0.499632113088275
10
81.6163922658702
20
4.47884454180562
30
0
41
0.500367886911725
10
81.5937037911941
20
4.48134249559504
30
0
0
SPLINE
5
267
100
AcDbEntity
8
1
62
256
6
ByLayer
370
18
48
1
60
0
100
AcDbSpline
70
4
71
2
72
6
73
3
40
0
40
0
40
0
40
1
40
1
40
1
41
0.512695683919055
10
83.6298503381478
20
5.04617706894039
30
0
41
0.487304316080945
10
83.5069420845082
20
5.04617706894039
30
0
41
0.512695683919055
10
83.4077791394546
20
4.97276281891624
30
0
0
SPLINE
5
268
100
AcDbEntity
8
1
62
256
6
ByLayer
370
18
48
1
60
0
100
AcDbSpline
70
4
71
2
72
6
73
3
40
0
40
0
40
0
40
1
40
1
40
1
41
0.500367886911725
10
83.8649350620862
20
3.07867157530093
30
0
41
0.499632113088275
10
83.8877576775595
20
3.07867157530093
30
0
41
0.500367886911725
10
83.9104461522356
20
3.07617362151151
30
0
0
SPLINE
5
269
100
AcDbEntity
8
1
62
256
6
ByLayer
370
18
48
1
60
0
100
AcDbSpline
70
4
71
2
72
6
73
3
40
0
40
0
40
0
40
1
40
1
40
1
41
0.500026165814579
10
95.6648200679854
20
-2.57999999997537
30
0
41
0.499973834185421
10
95.6278960275446
20
-2.57999999997537
30
0
41
0.500026165814579
10
95.5909874438476
20
-2.57891998819004
30
0
0
SPLINE
5
26A
100
AcDbEntity
8
1
62
256
6
ByLayer
370
18
48
1
60
0
100
AcDbSpline
70
4
71
2
72
6
73
3
40
0
40
0
40
0
40
1
40
1
40
1
41
0.500222732721287
10
96.3420114641272
20
-2.17216642570289
30
0
41
0.499777267278713
10
96.2512757484875
20
-2.23095836960591
30
0
41
0.500222732721287
10
96.1559601330959
20
-2.28180687328151
30
0
0
SPLINE
5
26B
100
AcDbEntity
8
1
62
256
6
ByLayer
370
18
48
1
60
0
100
AcDbSpline
70
4
71
2
72
6
73
3
40
0
40
0
40
0
40
1
40
1
40
1
41
0.500222025195714
10
94.8988751502188
20
8.04402479478358
30
0
41
0.499777974804286
10
94.9318718129102
20
8.04684289955321
30
0
41
0.500222025195714
10
94.9649860061633
20
8.04684289955321
30
0
0
SPLINE
5
26C
100
AcDbEntity
8
1
62
256
6
ByLayer
370
18
48
1
60
0
100
AcDbSpline
70
4
71
2
72
6
73
3
40
0
40
0
40
0
40
1
40
1
40
1
41
0.500222025195757
10
94.9649860061308
20
-8.04684289950709
30
0
41
0.499777974804243
10
94.9318718128745
20
-8.04684289950709
30
0
41
0.500222025195757
10
94.8988751501799
20
-8.04402479473691
30
0
0
SPLINE
5
26D
100
AcDbEntity
8
1
62
256
6
ByLayer
370
18
48
1
60
0
100
AcDbSpline
70
4
71
2
72
6
73
3
40
0
40
0
40
0
40
1
40
1
40
1
41
0.500006827532375
10
74.582251378133
20
-1.79427339389265
30
0
41
0.499993172467625
10
74.6191790274935
20
-1.80267208876652
30
0
41
0.500006827532375
10
74.6556041651373
20
-1.81091572951381
30
0
0
SPLINE
5
26E
100
AcDbEntity
8
1
62
256
6
ByLayer
370
18
48
1
60
0
100
AcDbSpline
70
4
71
2
72
6
73
3
40
0
40
0
40
0
40
1
40
1
40
1
41
0.500367886911725
10
81.5937037911942
20
4.48134249559504
30
0
41
0.499632113088274
10
81.5734176256015
20
4.48357596015969
30
0
41
0.500367886911725
10
81.5530115223548
20
4.48357596015969
30
0
0
SPLINE
5
26F
100
AcDbEntity
8
1
62
256
6
ByLayer
370
18
48
1
60
0
100
AcDbSpline
70
4
71
2
72
6
73
3
40
0
40
0
40
0
40
1
40
1
40
1
41
0.500367886911725
10
83.9104461522356
20
3.07617362151152
30
0
41
0.499632113088275
10
83.9307323178284
20
3.07394015694687
30
0
41
0.500367886911725
10
83.951138421075
20
3.07394015694687
30
0
0
SPLINE
5
270
100
AcDbEntity
8
1
62
256
6
ByLayer
370
18
48
1
60
0
100
AcDbSpline
70
4
71
2
72
6
73
3
40
0
40
0
40
0
40
1
40
1
40
1
41
0.503089909470099
10
81.7566804352272
20
2.53042343238229
30
0
41
0.496910090529901
10
81.8131572758274
20
2.54923536911524
30
0
41
0.503089909470099
10
81.8611324638614
20
2.58475329819034
30
0
0
SPLINE
5
271
100
AcDbEntity
8
1
62
256
6
ByLayer
370
18
48
1
60
0
100
AcDbSpline
70
4
71
2
72
6
73
3
40
0
40
0
40
0
40
1
40
1
40
1
41
0.512695683919056
10
81.874299605282
20
2.51133904816617
30
0
41
0.487304316080944
10
81.9972078589216
20
2.51133904816617
30
0
41
0.512695683919056
10
82.0963708039752
20
2.58475329819033
30
0
0
SPLINE
5
272
100
AcDbEntity
8
1
62
256
6
ByLayer
370
18
48
1
60
0
100
AcDbSpline
70
4
71
2
72
6
73
3
40
0
40
0
40
0
40
1
40
1
40
1
41
0.500367886911725
10
81.6392148813435
20
4.47884454180562
30
0
41
0.499632113088275
10
81.6163922658702
20
4.47884454180562
30
0
41
0.500367886911725
10
81.5937037911941
20
4.48134249559504
30
0
0
SPLINE
5
273
100
AcDbEntity
8
1
62
256
6
ByLayer
370
18
48
1
60
0
100
AcDbSpline
70
4
71
2
72
6
73
3
40
0
40
0
40
0
40
1
40
1
40
1
41
0.512695683919055
10
83.6298503381478
20
5.04617706894039
30
0
41
0.487304316080945
10
83.5069420845082
20
5.04617706894039
30
0
41
0.512695683919055
10
83.4077791394546
20
4.97276281891624
30
0
0
SPLINE
5
274
100
AcDbEntity
8
1
62
256
6
ByLayer
370
18
48
1
60
0
100
AcDbSpline
70
4
71
2
72
6
73
3
40
0
40
0
40
0
40
1
40
1
40
1
41
0.500367886911725
10
83.8649350620862
20
3.07867157530093
30
0
41
0.499632113088275
10
83.8877576775595
20
3.07867157530093
30
0
41
0.500367886911725
10
83.9104461522356
20
3.07617362151151
30
0
0
SPLINE
5
275
100
AcDbEntity
8
1
62
256
6
ByLayer
370
18
48
1
60
0
100
AcDbSpline
70
4
71
2
72
6
73
3
40
0
40
0
40
0
40
1
40
1
40
1
41
0.500026165814579
10
95.6648200679854
20
-2.57999999997537
30
0
41
0.499973834185421
10
95.6278960275446
20
-2.57999999997537
30
0
41
0.500026165814579
10
95.5909874438476
20
-2.57891998819004
30
0
0
SPLINE
5
276
100
AcDbEntity
8
1
62
256
6
ByLayer
370
18
48
1
60
0
100
AcDbSpline
70
4
71
2
72
6
73
3
40
0
40
0
40
0
40
1
40
1
40
1
41
0.500222732721287
10
96.3420114641272
20
-2.17216642570289
30
0
41
0.499777267278713
10
96.2512757484875
20
-2.23095836960591
30
0
41
0.500222732721287
10
96.1559601330959
20
-2.28180687328151
30
0
0
SPLINE
5
277
100
AcDbEntity
8
1
62
256
6
ByLayer
370
18
48
1
60
0
100
AcDbSpline
70
4
71
2
72
6
73
3
40
0
40
0
40
0
40
1
40
1
40
1
41
0.500222025195714
10
94.8988751502188
20
8.04402479478358
30
0
41
0.499777974804286
10
94.9318718129102
20
8.04684289955321
30
0
41
0.500222025195714
10
94.9649860061633
20
8.04684289955321
30
0
0
SPLINE
5
278
100
AcDbEntity
8
1
62
256
6
ByLayer
370
18
48
1
60
0
100
AcDbSpline
70
4
71
2
72
6
73
3
40
0
40
0
40
0
40
1
40
1
40
1
41
0.500222025195757
10
94.9649860061308
20
-8.04684289950709
30
0
41
0.499777974804243
10
94.9318718128745
20
-8.04684289950709
30
0
41
0.500222025195757
10
94.8988751501799
20
-8.04402479473691
30
0
0
SPLINE
5
279
100
AcDbEntity
8
1
62
256
6
ByLayer
370
18
48
1
60
0
100
AcDbSpline
70
4
71
2
72
6
73
3
40
0
40
0
40
0
40
1
40
1
40
1
41
0.500009077151942
10
80.3452585698232
20
13.5439954481592
30
0
41
0.499990922848058
10
80.3373182923219
20
13.510862175073
30
0
41
0.500009077151942
10
80.3285918243714
20
13.4779367504375
30
0
0
SPLINE
5
27A
100
AcDbEntity
8
1
62
256
6
ByLayer
370
18
48
1
60
0
100
AcDbSpline
70
4
71
2
72
6
73
3
40
0
40
0
40
0
40
1
40
1
40
1
41
0.500009077151942
10
80.3452585698232
20
13.5439954481592
30
0
41
0.499990922848058
10
80.3373182923219
20
13.510862175073
30
0
41
0.500009077151942
10
80.3285918243714
20
13.4779367504375
30
0
0
LINE
5
70
100
AcDbEntity
8
1
62
256
6
ByLayer
370
18
48
1
60
0
100
AcDbLine
10
94.721817
20
7.493949
30
0
11
94.565855
21
7.379042
31
0
39
0
210
0
220
0
230
1
0
LINE
5
72
100
AcDbEntity
8
1
62
256
6
ByLayer
370
18
48
1
60
0
100
AcDbLine
10
94.721817
20
-7.493949
30
0
11
94.565855
21
-7.379042
31
0
39
0
210
0
220
0
230
1
0
LINE
5
73
100
AcDbEntity
8
1
62
256
6
ByLayer
370
18
48
1
60
0
100
AcDbLine
10
39.772421
20
-8.509823
30
0
11
36.882205
21
-8.762684
31
0
39
0
210
0
220
0
230
1
0
LINE
5
74
100
AcDbEntity
8
1
62
256
6
ByLayer
370
18
48
1
60
0
100
AcDbLine
10
90.533082
20
-11.747607
30
0
11
54.2216
21
-18.150301
31
0
39
0
210
0
220
0
230
1
0
LINE
5
75
100
AcDbEntity
8
1
62
256
6
ByLayer
370
18
48
1
60
0
100
AcDbLine
10
96.719969
20
-2.005817
30
0
11
96.518358
21
-2.10816
31
0
39
0
210
0
220
0
230
1
0
LINE
5
76
100
AcDbEntity
8
1
62
256
6
ByLayer
370
18
48
1
60
0
100
AcDbLine
10
96.089519
20
-2.325851
30
0
11
95.140333
21
-2.807685
31
0
39
0
210
0
220
0
230
1
0
LINE
5
77
100
AcDbEntity
8
1
62
256
6
ByLayer
370
18
48
1
60
0
100
AcDbLine
10
36.882205
20
-8.762684
30
0
11
36.445587
21
-9.068408
31
0
39
0
210
0
220
0
230
1
0
LINE
5
78
100
AcDbEntity
8
1
62
256
6
ByLayer
370
18
48
1
60
0
100
AcDbLine
10
95.159993
20
7.861082
30
0
11
93.0412
21
6.063672
31
0
39
0
210
0
220
0
230
1
0
LINE
5
79
100
AcDbEntity
8
1
62
256
6
ByLayer
370
18
48
1
60
0
100
AcDbLine
10
95.060073
20
7.832444
30
0
11
93.004949
21
6.089044
31
0
39
0
210
0
220
0
230
1
0
LINE
5
7A
100
AcDbEntity
8
1
62
256
6
ByLayer
370
18
48
1
60
0
100
AcDbLine
10
0.3
20
25
30
0
11
0
21
24.7
31
0
39
0
210
0
220
0
230
1
0
LINE
5
7B
100
AcDbEntity
8
1
62
256
6
ByLayer
370
18
48
1
60
0
100
AcDbLine
10
75.954441
20
9.838288
30
0
11
73.803987
21
1.724511
31
0
39
0
210
0
220
0
230
1
0
LINE
5
7C
100
AcDbEntity
8
1
62
256
6
ByLayer
370
18
48
1
60
0
100
AcDbLine
10
76.102173
20
8.175295
30
0
11
74.770939
21
3.152481
31
0
39
0
210
0
220
0
230
1
0
LINE
5
7D
100
AcDbEntity
8
1
62
256
6
ByLayer
370
18
48
1
60
0
100
AcDbLine
10
73.402564
20
8.947771
30
0
11
71.866526
21
3.152216
31
0
39
0
210
0
220
0
230
1
0
LINE
5
7E
100
AcDbEntity
8
1
62
256
6
ByLayer
370
18
48
1
60
0
100
AcDbLine
10
76.184752
20
-2.156989
30
0
11
75.720476
21
-3.908728
31
0
39
0
210
0
220
0
230
1
0
LINE
5
7F
100
AcDbEntity
8
1
62
256
6
ByLayer
370
18
48
1
60
0
100
AcDbLine
10
70.225359
20
13.137871
30
0
11
67.138995
21
1.492858
31
0
39
0
210
0
220
0
230
1
0
LINE
5
80
100
AcDbEntity
8
1
62
256
6
ByLayer
370
18
48
1
60
0
100
AcDbLine
10
80.328592
20
13.477937
30
0
11
79.875111
21
11.766931
31
0
39
0
210
0
220
0
230
1
0
LINE
5
81
100
AcDbEntity
8
1
62
256
6
ByLayer
370
18
48
1
60
0
100
AcDbLine
10
11.894338
20
-8.055848
30
0
11
11.894338
21
-23.666502
31
0
39
0
210
0
220
0
230
1
0
LINE
5
82
100
AcDbEntity
8
1
62
256
6
ByLayer
370
18
48
1
60
0
100
AcDbLine
10
41.347654
20
20.535099
30
0
11
41.347654
21
-20.535099
31
0
39
0
210
0
220
0
230
1
0
LINE
5
83
100
AcDbEntity
8
1
62
256
6
ByLayer
370
18
48
1
60
0
100
AcDbLine
10
8.538675
20
-7.529667
30
0
11
8.538675
21
-23.83913
31
0
39
0
210
0
220
0
230
1
0
LINE
5
84
100
AcDbEntity
8
SK1
62
256
6
ByLayer
370
18
48
1
60
0
100
AcDbLine
10
-1.307107
20
3.804744
30
0
11
-1.307107
21
-3.804747
31
0
39
0
210
0
220
0
230
1
0
LINE
5
86
100
AcDbEntity
8
SK1
62
256
6
ByLayer
370
18
48
1
60
0
100
AcDbLine
10
-0.2
20
17.833485
30
0
11
-0.2
21
5.881425
31
0
39
0
210
0
220
0
230
1
0
LINE
5
87
100
AcDbEntity
8
1
62
256
6
ByLayer
370
18
48
1
60
0
100
AcDbLine
10
36.229798
20
18.490184
30
0
11
36.229798
21
-11.942248
31
0
39
0
210
0
220
0
230
1
0
LINE
5
88
100
AcDbEntity
8
1
62
256
6
ByLayer
370
18
48
1
60
0
100
AcDbLine
10
8.105662
20
23.666502
30
0
11
8.105662
21
8.055848
31
0
39
0
210
0
220
0
230
1
0
LINE
5
89
100
AcDbEntity
8
1
62
256
6
ByLayer
370
18
48
1
60
0
100
AcDbLine
10
8.538675
20
23.83913
30
0
11
8.538675
21
7.529667
31
0
39
0
210
0
220
0
230
1
0
LINE
5
8A
100
AcDbEntity
8
1
62
256
6
ByLayer
370
18
48
1
60
0
100
AcDbLine
10
11.461325
20
-7.529667
30
0
11
11.461325
21
-23.83913
31
0
39
0
210
0
220
0
230
1
0
LINE
5
8B
100
AcDbEntity
8
1
62
256
6
ByLayer
370
18
48
1
60
0
100
AcDbLine
10
11.461325
20
23.83913
30
0
11
11.461325
21
7.529667
31
0
39
0
210
0
220
0
230
1
0
LINE
5
8C
100
AcDbEntity
8
1
62
256
6
ByLayer
370
18
48
1
60
0
100
AcDbLine
10
11.894338
20
23.666502
30
0
11
11.894338
21
8.055848
31
0
39
0
210
0
220
0
230
1
0
LINE
5
8D
100
AcDbEntity
8
1
62
256
6
ByLayer
370
18
48
1
60
0
100
AcDbLine
10
8.105662
20
-8.055848
30
0
11
8.105662
21
-23.666502
31
0
39
0
210
0
220
0
230
1
0
LINE
5
8E
100
AcDbEntity
8
1
62
256
6
ByLayer
370
18
48
1
60
0
100
AcDbLine
10
39.944359
20
-12.51006
30
0
11
39.944359
21
-20.808973
31
0
39
0
210
0
220
0
230
1
0
LINE
5
8F
100
AcDbEntity
8
SK1
62
256
6
ByLayer
370
18
48
1
60
0
100
AcDbLine
10
-30
20
15.941952
30
0
11
-30
21
-15.941004
31
0
39
0
210
0
220
0
230
1
0
LINE
5
90
100
AcDbEntity
8
1
62
256
6
ByLayer
370
18
48
1
60
0
100
AcDbLine
10
0
20
24.7
30
0
11
0
21
-24.7
31
0
39
0
210
0
220
0
230
1
0
LINE
5
91
100
AcDbEntity
8
1
62
256
6
ByLayer
370
18
48
1
60
0
100
AcDbLine
10
0.3
20
25
30
0
11
0.3
21
-25
31
0
39
0
210
0
220
0
230
1
0
LINE
5
92
100
AcDbEntity
8
SK1
62
256
6
ByLayer
370
18
48
1
60
0
100
AcDbLine
10
-0.2
20
-5.881424
30
0
11
-0.2
21
-17.833485
31
0
39
0
210
0
220
0
230
1
0
LINE
5
93
100
AcDbEntity
8
SK1
62
256
6
ByLayer
370
18
48
1
60
0
100
AcDbLine
10
-0.4
20
-5.168667
30
0
11
-0.4
21
-17.324079
31
0
39
0
210
0
220
0
230
1
0
LINE
5
94
100
AcDbEntity
8
SK1
62
256
6
ByLayer
370
18
48
1
60
0
100
AcDbLine
10
-2
20
17.32515
30
0
11
-2
21
-17.32515
31
0
39
0
210
0
220
0
230
1
0
LINE
5
95
100
AcDbEntity
8
1
62
256
6
ByLayer
370
18
48
1
60
0
100
AcDbLine
10
20
20
25
30
0
11
20
21
-25
31
0
39
0
210
0
220
0
230
1
0
LINE
5
96
100
AcDbEntity
8
SK1
62
256
6
ByLayer
370
18
48
1
60
0
100
AcDbLine
10
-0.4
20
17.32408
30
0
11
-0.4
21
5.168667
31
0
39
0
210
0
220
0
230
1
0
LINE
5
97
100
AcDbEntity
8
SK1
62
256
6
ByLayer
370
18
48
1
60
0
100
AcDbLine
10
-28.500473
20
16.858585
30
0
11
-28.500473
21
-16.858922
31
0
39
0
210
0
220
0
230
1
0
LINE
5
98
100
AcDbEntity
8
SK1
62
256
6
ByLayer
370
18
48
1
60
0
100
AcDbLine
10
-2.2
20
15.024781
30
0
11
-2.2
21
-15.024781
31
0
39
0
210
0
220
0
230
1
0
LINE
5
99
100
AcDbEntity
8
SK1
62
256
6
ByLayer
370
18
48
1
60
0
100
AcDbLine
10
-3
20
17.5
30
0
11
-3
21
-17.5
31
0
39
0
210
0
220
0
230
1
0
LINE
5
9A
100
AcDbEntity
8
1
62
256
6
ByLayer
370
18
48
1
60
0
100
AcDbLine
10
39.772421
20
-8.509823
30
0
11
40.121044
21
-12.494602
31
0
39
0
210
0
220
0
230
1
0
LINE
5
9B
100
AcDbEntity
8
1
62
256
6
ByLayer
370
18
48
1
60
0
100
AcDbLine
10
35.497888
20
-12.01886
30
0
11
36.329749
21
-21.527079
31
0
39
0
210
0
220
0
230
1
0
LINE
5
9C
100
AcDbEntity
8
1
62
256
6
ByLayer
370
18
48
1
60
0
100
AcDbLine
10
39.989091
20
-8.691631
30
0
11
40.302851
21
-12.277932
31
0
39
0
210
0
220
0
230
1
0
LINE
5
9D
100
AcDbEntity
8
1
62
256
6
ByLayer
370
18
48
1
60
0
100
AcDbLine
10
36.229798
20
-10.584824
30
0
11
36.410816
21
-12.65387
31
0
39
0
210
0
220
0
230
1
0
LINE
5
9E
100
AcDbEntity
8
1
62
256
6
ByLayer
370
18
48
1
60
0
100
AcDbLine
10
36.445587
20
-9.068408
30
0
11
36.747754
21
-12.522202
31
0
39
0
210
0
220
0
230
1
0
LINE
5
9F
100
AcDbEntity
8
1
62
256
6
ByLayer
370
18
48
1
60
0
100
AcDbLine
10
36.882205
20
-8.762684
30
0
11
37.230828
21
-12.747463
31
0
39
0
210
0
220
0
230
1
0
LINE
5
A0
100
AcDbEntity
8
1
62
256
6
ByLayer
370
18
48
1
60
0
100
AcDbLine
10
95.015913
20
7.94474
30
0
11
95.060073
21
7.832444
31
0
39
0
210
0
220
0
230
1
0
LINE
5
A1
100
AcDbEntity
8
1
62
256
6
ByLayer
370
18
48
1
60
0
100
AcDbLine
10
97.184878
20
1.806996
30
0
11
97.292017
21
1.592072
31
0
39
0
210
0
220
0
230
1
0
LINE
5
A2
100
AcDbEntity
8
1
62
256
6
ByLayer
370
18
48
1
60
0
100
AcDbLine
10
97.446907
20
1.395304
30
0
11
97.570095
21
1.201754
31
0
39
0
210
0
220
0
230
1
0
LINE
5
A3
100
AcDbEntity
8
1
62
256
6
ByLayer
370
18
48
1
60
0
100
AcDbLine
10
96.604907
20
2.718228
30
0
11
97.184878
21
1.806996
31
0
39
0
210
0
220
0
230
1
0
LINE
5
A4
100
AcDbEntity
8
1
62
256
6
ByLayer
370
18
48
1
60
0
100
AcDbLine
10
0
20
-24.7
30
0
11
0.3
21
-25
31
0
39
0
210
0
220
0
230
1
0
LINE
5
A5
100
AcDbEntity
8
1
62
256
6
ByLayer
370
18
48
1
60
0
100
AcDbLine
10
87.200948
20
-4.148409
30
0
11
87.268356
21
-4.214372
31
0
39
0
210
0
220
0
230
1
0
LINE
5
A6
100
AcDbEntity
8
1
62
256
6
ByLayer
370
18
48
1
60
0
100
AcDbLine
10
90.447543
20
-3.863424
30
0
11
95.159993
21
-7.861082
31
0
39
0
210
0
220
0
230
1
0
LINE
5
A7
100
AcDbEntity
8
1
62
256
6
ByLayer
370
18
48
1
60
0
100
AcDbLine
10
90.533082
20
11.747607
30
0
11
95.015913
21
7.94474
31
0
39
0
210
0
220
0
230
1
0
LINE
5
A8
100
AcDbEntity
8
1
62
256
6
ByLayer
370
18
48
1
60
0
100
AcDbLine
10
96.169647
20
7.861082
30
0
11
104.719318
21
0.608239
31
0
39
0
210
0
220
0
230
1
0
LINE
5
A9
100
AcDbEntity
8
1
62
256
6
ByLayer
370
18
48
1
60
0
100
AcDbLine
10
90.373649
20
-3.865838
30
0
11
95.07554
21
-7.819323
31
0
39
0
210
0
220
0
230
1
0
LINE
5
AA
100
AcDbEntity
8
1
62
256
6
ByLayer
370
18
48
1
60
0
100
AcDbLine
10
90.210839
20
-3.878544
30
0
11
95.031277
21
-7.931706
31
0
39
0
210
0
220
0
230
1
0
LINE
5
AB
100
AcDbEntity
8
1
62
256
6
ByLayer
370
18
48
1
60
0
100
AcDbLine
10
39.772421
20
-8.509823
30
0
11
39.989091
21
-8.691631
31
0
39
0
210
0
220
0
230
1
0
LINE
5
AC
100
AcDbEntity
8
1
62
256
6
ByLayer
370
18
48
1
60
0
100
AcDbLine
10
80.221993
20
11.672963
30
0
11
80.22648
21
11.66977
31
0
39
0
210
0
220
0
230
1
0
LINE
5
AD
100
AcDbEntity
8
1
62
256
6
ByLayer
370
18
48
1
60
0
100
AcDbLine
10
36.747754
20
-12.522202
30
0
11
37.230828
21
-12.747463
31
0
39
0
210
0
220
0
230
1
0
LINE
5
AE
100
AcDbEntity
8
1
62
256
6
ByLayer
370
18
48
1
60
0
100
AcDbLine
10
95.486396
20
0.202943
30
0
11
97.977073
21
-0.597872
31
0
39
0
210
0
220
0
230
1
0
LINE
5
AF
100
AcDbEntity
8
1
62
256
6
ByLayer
370
18
48
1
60
0
100
AcDbLine
10
75.159841
20
-1.863712
30
0
11
76.5355
21
-2.236369
31
0
39
0
210
0
220
0
230
1
0
LINE
5
B0
100
AcDbEntity
8
1
62
256
6
ByLayer
370
18
48
1
60
0
100
AcDbLine
10
80.22648
20
11.66977
30
0
11
85.419906
21
10.262907
31
0
39
0
210
0
220
0
230
1
0
LINE
5
B1
100
AcDbEntity
8
1
62
256
6
ByLayer
370
18
48
1
60
0
100
AcDbLine
10
82.187817
20
8.127264
30
0
11
84.140888
21
7.596766
31
0
39
0
210
0
220
0
230
1
0
LINE
5
B2
100
AcDbEntity
8
1
62
256
6
ByLayer
370
18
48
1
60
0
100
AcDbLine
10
76.541076
20
-2.235453
30
0
11
81.734502
21
-3.642316
31
0
39
0
210
0
220
0
230
1
0
LINE
5
B3
100
AcDbEntity
8
1
62
256
6
ByLayer
370
18
48
1
60
0
100
AcDbLine
10
82.651806
20
8.071483
30
0
11
84.614335
21
7.539847
31
0
39
0
210
0
220
0
230
1
0
LINE
5
B4
100
AcDbEntity
8
1
62
256
6
ByLayer
370
18
48
1
60
0
100
AcDbLine
10
78.846334
20
12.04562
30
0
11
80.221993
21
11.672963
31
0
39
0
210
0
220
0
230
1
0
LINE
5
B5
100
AcDbEntity
8
1
62
256
6
ByLayer
370
18
48
1
60
0
100
AcDbLine
10
78.276301
20
11.156361
30
0
11
85.569243
21
9.180754
31
0
39
0
210
0
220
0
230
1
0
LINE
5
B6
100
AcDbEntity
8
1
62
256
6
ByLayer
370
18
48
1
60
0
100
AcDbLine
10
80.526953
20
0.054298
30
0
11
82.489481
21
-0.477337
31
0
39
0
210
0
220
0
230
1
0
LINE
5
B7
100
AcDbEntity
8
1
62
256
6
ByLayer
370
18
48
1
60
0
100
AcDbLine
10
76.102173
20
8.175295
30
0
11
77.555698
21
7.780485
31
0
39
0
210
0
220
0
230
1
0
LINE
5
B8
100
AcDbEntity
8
1
62
256
6
ByLayer
370
18
48
1
60
0
100
AcDbLine
10
75.16452
20
-0.584555
30
0
11
82.457462
21
-2.560162
31
0
39
0
210
0
220
0
230
1
0
LINE
5
B9
100
AcDbEntity
8
1
62
256
6
ByLayer
370
18
48
1
60
0
100
AcDbLine
10
79.615915
20
13.645249
30
0
11
80.328592
21
13.477937
31
0
39
0
210
0
220
0
230
1
0
LINE
5
BA
100
AcDbEntity
8
1
62
256
6
ByLayer
370
18
48
1
60
0
100
AcDbLine
10
75.007799
20
-3.741415
30
0
11
75.720476
21
-3.908728
31
0
39
0
210
0
220
0
230
1
0
LINE
5
BB
100
AcDbEntity
8
1
62
256
6
ByLayer
370
18
48
1
60
0
100
AcDbLine
10
74.655604
20
-1.810916
30
0
11
76.5355
21
-2.236369
31
0
39
0
210
0
220
0
230
1
0
LINE
5
BC
100
AcDbEntity
8
1
62
256
6
ByLayer
370
18
48
1
60
0
100
AcDbLine
10
79.622786
20
13.671387
30
0
11
90.533082
21
11.747607
31
0
39
0
210
0
220
0
230
1
0
LINE
5
BD
100
AcDbEntity
8
1
62
256
6
ByLayer
370
18
48
1
60
0
100
AcDbLine
10
54.2216
20
18.150301
30
0
11
72.459588
21
14.934452
31
0
39
0
210
0
220
0
230
1
0
LINE
5
BE
100
AcDbEntity
8
1
62
256
6
ByLayer
370
18
48
1
60
0
100
AcDbLine
10
82.187817
20
8.127264
30
0
11
82.651806
21
8.071483
31
0
39
0
210
0
220
0
230
1
0
LINE
5
BF
100
AcDbEntity
8
1
62
256
6
ByLayer
370
18
48
1
60
0
100
AcDbLine
10
77.972981
20
7.699169
30
0
11
78.489793
21
7.637037
31
0
39
0
210
0
220
0
230
1
0
LINE
5
C0
100
AcDbEntity
8
1
62
256
6
ByLayer
370
18
48
1
60
0
100
AcDbLine
10
84.140888
20
7.596766
30
0
11
84.614335
21
7.539847
31
0
39
0
210
0
220
0
230
1
0
LINE
5
C1
100
AcDbEntity
8
1
62
256
6
ByLayer
370
18
48
1
60
0
100
AcDbLine
10
74.582251
20
-1.794273
30
0
11
75.159841
21
-1.863712
31
0
39
0
210
0
220
0
230
1
0
LINE
5
C2
100
AcDbEntity
8
1
62
256
6
ByLayer
370
18
48
1
60
0
100
AcDbLine
10
77.555698
20
7.780485
30
0
11
78.005115
21
7.726455
31
0
39
0
210
0
220
0
230
1
0
LINE
5
C3
100
AcDbEntity
8
1
62
256
6
ByLayer
370
18
48
1
60
0
100
AcDbLine
10
72.063493
20
1.933757
30
0
11
73.803987
21
1.724511
31
0
39
0
210
0
220
0
230
1
0
LINE
5
C4
100
AcDbEntity
8
1
62
256
6
ByLayer
370
18
48
1
60
0
100
AcDbLine
10
74.213948
20
10.047534
30
0
11
75.954441
21
9.838288
31
0
39
0
210
0
220
0
230
1
0
LINE
5
C5
100
AcDbEntity
8
1
62
256
6
ByLayer
370
18
48
1
60
0
100
AcDbLine
10
77.69664
20
12.21533
30
0
11
78.44437
21
12.125436
31
0
39
0
210
0
220
0
230
1
0
LINE
5
C6
100
AcDbEntity
8
1
62
256
6
ByLayer
370
18
48
1
60
0
100
AcDbLine
10
95.048811
20
7.861082
30
0
11
95.159993
21
7.861082
31
0
39
0
210
0
220
0
230
1
0
LINE
5
C7
100
AcDbEntity
8
1
62
256
6
ByLayer
370
18
48
1
60
0
100
AcDbLine
10
95.059093
20
-7.861082
30
0
11
95.159993
21
-7.861082
31
0
39
0
210
0
220
0
230
1
0
LINE
5
C8
100
AcDbEntity
8
1
62
256
6
ByLayer
370
18
48
1
60
0
100
AcDbLine
10
8.538675
20
-23.83913
30
0
11
11.461325
21
-23.83913
31
0
39
0
210
0
220
0
230
1
0
LINE
5
C9
100
AcDbEntity
8
1
62
256
6
ByLayer
370
18
48
1
60
0
100
AcDbLine
10
94.964986
20
8.046843
30
0
11
95.66482
21
8.046843
31
0
39
0
210
0
220
0
230
1
0
LINE
5
CA
100
AcDbEntity
8
1
62
256
6
ByLayer
370
18
48
1
60
0
100
AcDbLine
10
8.538675
20
-7.529667
30
0
11
11.461325
21
-7.529667
31
0
39
0
210
0
220
0
230
1
0
LINE
5
CB
100
AcDbEntity
8
1
62
256
6
ByLayer
370
18
48
1
60
0
100
AcDbLine
10
94.964986
20
-8.046843
30
0
11
95.66482
21
-8.046843
31
0
39
0
210
0
220
0
230
1
0
LINE
5
CC
100
AcDbEntity
8
1
62
256
6
ByLayer
370
18
48
1
60
0
100
AcDbLine
10
0.3
20
25
30
0
11
20
21
25
31
0
39
0
210
0
220
0
230
1
0
LINE
5
CD
100
AcDbEntity
8
1
62
256
6
ByLayer
370
18
48
1
60
0
100
AcDbLine
10
82.399217
20
7.778758
30
0
11
82.644153
21
7.778758
31
0
39
0
210
0
220
0
230
1
0
LINE
5
CE
100
AcDbEntity
8
1
62
256
6
ByLayer
370
18
48
1
60
0
100
AcDbLine
10
8.538675
20
7.529667
30
0
11
11.461325
21
7.529667
31
0
39
0
210
0
220
0
230
1
0
LINE
5
CF
100
AcDbEntity
8
1
62
256
6
ByLayer
370
18
48
1
60
0
100
AcDbLine
10
82.399217
20
-0.221242
30
0
11
82.644153
21
-0.221242
31
0
39
0
210
0
220
0
230
1
0
LINE
5
D0
100
AcDbEntity
8
1
62
256
6
ByLayer
370
18
48
1
60
0
100
AcDbLine
10
8.538675
20
23.83913
30
0
11
11.461325
21
23.83913
31
0
39
0
210
0
220
0
230
1
0
LINE
5
D1
100
AcDbEntity
8
1
62
256
6
ByLayer
370
18
48
1
60
0
100
AcDbLine
10
83.86749
20
3.801665
30
0
11
84.102729
21
3.801665
31
0
39
0
210
0
220
0
230
1
0
LINE
5
D2
100
AcDbEntity
8
1
62
256
6
ByLayer
370
18
48
1
60
0
100
AcDbLine
10
83.629697
20
3.078672
30
0
11
83.864935
21
3.078672
31
0
39
0
210
0
220
0
230
1
0
LINE
5
D3
100
AcDbEntity
8
1
62
256
6
ByLayer
370
18
48
1
60
0
100
AcDbLine
10
83.697866
20
4.441666
30
0
11
83.933104
21
4.441666
31
0
39
0
210
0
220
0
230
1
0
LINE
5
D4
100
AcDbEntity
8
1
62
256
6
ByLayer
370
18
48
1
60
0
100
AcDbLine
10
82.924172
20
4.890655
30
0
11
83.15941
21
4.890655
31
0
39
0
210
0
220
0
230
1
0
LINE
5
D5
100
AcDbEntity
8
1
62
256
6
ByLayer
370
18
48
1
60
0
100
AcDbLine
10
83.211786
20
2.60766
30
0
11
83.447024
21
2.60766
31
0
39
0
210
0
220
0
230
1
0
LINE
5
D6
100
AcDbEntity
8
1
62
256
6
ByLayer
370
18
48
1
60
0
100
AcDbLine
10
82.109502
20
2.666861
30
0
11
82.34474
21
2.666861
31
0
39
0
210
0
220
0
230
1
0
LINE
5
D7
100
AcDbEntity
8
1
62
256
6
ByLayer
370
18
48
1
60
0
100
AcDbLine
10
82.539495
20
5.144251
30
0
11
82.774733
21
5.144251
31
0
39
0
210
0
220
0
230
1
0
LINE
5
D8
100
AcDbEntity
8
1
62
256
6
ByLayer
370
18
48
1
60
0
100
AcDbLine
10
81.861132
20
2.584753
30
0
11
82.096371
21
2.584753
31
0
39
0
210
0
220
0
230
1
0
LINE
5
D9
100
AcDbEntity
8
1
62
256
6
ByLayer
370
18
48
1
60
0
100
AcDbLine
10
0.3
20
-25
30
0
11
20
21
-25
31
0
39
0
210
0
220
0
230
1
0
LINE
5
DA
100
AcDbEntity
8
1
62
256
6
ByLayer
370
18
48
1
60
0
100
AcDbLine
10
81.493882
20
4.478845
30
0
11
81.639215
21
4.478845
31
0
39
0
210
0
220
0
230
1
0
LINE
5
DB
100
AcDbEntity
8
1
62
256
6
ByLayer
370
18
48
1
60
0
100
AcDbLine
10
87.268356
20
-4.214372
30
0
11
88.819598
21
-4.115341
31
0
39
0
210
0
220
0
230
1
0
LINE
5
DC
100
AcDbEntity
8
1
62
256
6
ByLayer
370
18
48
1
60
0
100
AcDbLine
10
37.230828
20
-12.747463
30
0
11
40.121044
21
-12.494602
31
0
39
0
210
0
220
0
230
1
0
LINE
5
DD
100
AcDbEntity
8
1
62
256
6
ByLayer
370
18
48
1
60
0
100
AcDbLine
10
76.5355
20
-2.236369
30
0
11
76.541076
21
-2.235453
31
0
39
0
210
0
220
0
230
1
0
LINE
5
DE
100
AcDbEntity
8
1
62
256
6
ByLayer
370
18
48
1
60
0
100
AcDbLine
10
96.089519
20
-2.325851
30
0
11
96.288598
21
-2.19388
31
0
39
0
210
0
220
0
230
1
0
LINE
5
DF
100
AcDbEntity
8
1
62
256
6
ByLayer
370
18
48
1
60
0
100
AcDbLine
10
96.169647
20
-7.861082
30
0
11
104.719318
21
-0.608239
31
0
39
0
210
0
220
0
230
1
0
LINE
5
E0
100
AcDbEntity
8
1
62
256
6
ByLayer
370
18
48
1
60
0
100
AcDbLine
10
90.533082
20
-11.747607
30
0
11
95.031277
21
-7.931706
31
0
39
0
210
0
220
0
230
1
0
LINE
5
E1
100
AcDbEntity
8
1
62
256
6
ByLayer
370
18
48
1
60
0
100
AcDbLine
10
87.268356
20
-4.214372
30
0
11
87.350842
21
-4.144398
31
0
39
0
210
0
220
0
230
1
0
LINE
5
E2
100
AcDbEntity
8
1
62
256
6
ByLayer
370
18
48
1
60
0
100
AcDbLine
10
88.819598
20
-4.115341
30
0
11
88.931442
21
-4.020461
31
0
39
0
210
0
220
0
230
1
0
LINE
5
E3
100
AcDbEntity
8
1
62
256
6
ByLayer
370
18
48
1
60
0
100
AcDbLine
10
92.90822
20
6.156745
30
0
11
95.015913
21
7.94474
31
0
39
0
210
0
220
0
230
1
0
LINE
5
E4
100
AcDbEntity
8
1
62
256
6
ByLayer
370
18
48
1
60
0
100
AcDbLine
10
40.121044
20
-12.494602
30
0
11
40.302851
21
-12.277932
31
0
39
0
210
0
220
0
230
1
0
LINE
5
E5
100
AcDbEntity
8
1
62
256
6
ByLayer
370
18
48
1
60
0
100
AcDbLine
10
95.031277
20
-7.931706
30
0
11
95.07554
21
-7.819323
31
0
39
0
210
0
220
0
230
1
0
LINE
5
E6
100
AcDbEntity
8
1
62
256
6
ByLayer
370
18
48
1
60
0
100
AcDbLine
10
72.063493
20
1.933757
30
0
11
74.213948
21
10.047534
31
0
39
0
210
0
220
0
230
1
0
LINE
5
E7
100
AcDbEntity
8
4
62
256
6
ByLayer
370
18
48
0.05
60
0
100
AcDbLine
10
0
20
0
30
0
11
109.227723
21
0
31
0
39
0
210
0
220
0
230
1
0
LINE
5
E9
100
AcDbEntity
8
SK4
62
256
6
ByLayer
370
18
48
0.05
60
0
100
AcDbLine
10
-44.456309
20
0
30
0
11
109.227723
21
0
31
0
39
0
210
0
220
0
230
1
0
LINE
5
EB
100
AcDbEntity
8
80
62
256
6
ByLayer
370
18
48
1
60
0
100
AcDbLine
10
0
20
0
30
0
11
-14.456309
21
0
31
0
39
0
210
0
220
0
230
1
0
LINE
5
EC
100
AcDbEntity
8
81
62
256
6
ByLayer
370
18
48
1
60
0
100
AcDbLine
10
119.456172
20
0
30
0
11
104.999863
21
0
31
0
39
0
210
0
220
0
230
1
0
MTEXT
5
27B
100
AcDbEntity
8
SK6
62
256
6
ByLayer
370
18
48
1
60
0
100
AcDbMText
10
4.502793
20
-66.18788
30
0
210
0
220
0
230
1
1
\W0.7011;C5-DCMNN-00105-12
40
3
41
0
44
1.084337
50
0
71
7
72
5
7
iso_b_vert
0
DIMENSION
5
28F
100
AcDbEntity
8
SK2
62
256
6
ByLayer
370
18
48
1
60
0
100
AcDbDimension
2
DimnDraft3D1
10
-25
20
56.03591
30
0
11
-7.063242
21
56.03591
31
0
70
32
71
5
72
1
41
1
210
0
220
0
230
1
3
Standard
100
AcDbAlignedDimension
13
25
23
1.7
33
0
14
-25
24
1.7
34
0
50
0
100
AcDbRotatedDimension
1001
ACAD
1000
DSTYLE
1002
{
1070
   279
1070
     0
1070
   172
1070
     1
1070
   173
1070
     1
1070
   340
1005
283
1070
    77
1070
     1
1070
    73
1070
     0
1070
   171
1070
     3
1070
   274
1070
     4
1070
   177
1070
     7
1070
   176
1070
     7
1070
   178
1070
     7
1070
    78
1070
     8
1070
    41
1041
3.175
1070
   147
1041
1.5
1070
    42
1041
2.0
1070
    44
1041
2.0
1070
   140
1041
3.0
1070
   343
1005
290
1070
   344
1005
290
1002
}
0
DIMENSION
5
2A5
100
AcDbEntity
8
2
62
256
6
ByLayer
370
18
48
1
60
0
100
AcDbDimension
2
DimnDraft3D2
10
48.38536
20
104.999863
30
0
11
48.38536
21
35.473517
31
0
70
32
71
5
72
1
41
1
210
0
220
0
230
1
3
Standard
100
AcDbAlignedDimension
13
26.7
23
0
33
0
14
2
24
104.999863
34
0
50
90
100
AcDbRotatedDimension
1001
ACAD
1000
DSTYLE
1002
{
1070
    74
1070
     0
1070
   279
1070
     0
1070
   172
1070
     1
1070
   173
1070
     1
1070
   340
1005
283
1070
   271
1070
     0
1070
    77
1070
     1
1070
    73
1070
     0
1070
   171
1070
     3
1070
   274
1070
     4
1070
   177
1070
     7
1070
   176
1070
     7
1070
   178
1070
     7
1070
    78
1070
     8
1070
    41
1041
3.175
1070
   147
1041
1.5
1070
    42
1041
2.0
1070
    44
1041
2.0
1070
   140
1041
3.0
1070
   343
1005
290
1070
   344
1005
290
1002
}
0
DIMENSION
5
2B3
100
AcDbEntity
8
2
62
256
6
ByLayer
370
18
48
1
60
0
100
AcDbDimension
2
DimnDraft3D3
10
104.999863
20
-1
30
0
11
92.152824
21
-28.115617
31
0
70
34
71
5
72
1
41
1
210
0
220
0
230
1
3
Standard
100
AcDb2LineAngularDimension
13
96.169647
23
-7.861082
33
0
14
104.719318
24
-0.608239
34
0
15
104.999863
25
0
35
0
16
90.892295
26
-30.837945
36
0
40
0
0
ENDSEC
0
SECTION
2
OBJECTS
0
DICTIONARY
5
31e
330
0
100
AcDbDictionary
280
0
281
1
3
ACAD_GROUP
350
31f
3
ACAD_MLINESTYLE
350
320
0
DICTIONARY
5
31f
330
0
100
AcDbDictionary
280
0
281
1
0
DICTIONARY
5
320
330
0
100
AcDbDictionary
280
0
281
1
3
Standard
350
18
0
MLINESTYLE
5
18
330
320
100
AcDbMlineStyle
2
Standard
70
0
3

62
256
51
90
52
90
71
2
49
-0.5
62
256
6
ByLayer
49
0.5
62
256
6
ByLayer
0
RASTERVARIABLES
5
30c
330

100
AcDbRasterVariables
90
0
70
1
71
1
72
1
0
ENDSEC
0
EOF
