0
SECTION
2
HEADER
9
$ACADVER
1
AC1015
9
$DWGCODEPAGE
3
ANSI_1252
9
$HANDSEED
5
2b9
9
$ANGBASE
50
0
9
$ANGDIR
70
0
9
$ATTMODE
70
1
9
$AUNITS
70
0
9
$AUPREC
70
0
9
$CECOLOR
62
256
9
$CELTSCALE
40
1
9
$CELTYPE
6
ByLayer
9
$CELWEIGHT
370
18
9
$CLAYER
8
0
9
$CMLJUST
70
0
9
$CMLSCALE
40
1
9
$CMLSTYLE
2
Standard
9
$DIMSTYLE
2
Standard
9
$TEXTSIZE
40
0.2
9
$TEXTSTYLE
7
Standard
9
$LUNITS
70
2
9
$LUPREC
70
4
9
$EXTNAMES
290
1
9
$INSUNITS
70
4
9
$LTSCALE
40
1
9
$LWDISPLAY
290
1
9
$PDMODE
70
0
9
$PDSIZE
40
0
9
$PLINEGEN
70
0
0
ENDSEC
0
SECTION
2
CLASSES
0
CLASS
1
RASTERVARIABLES
2
AcDbRasterVariables
3
ISM
90
0
280
0
281
0
0
ENDSEC
0
SECTION
2
TABLES
0
TABLE
2
VPORT
5
2af
100
AcDbSymbolTable
0
VPORT
5
1
100
AcDbSymbolTableRecord
100
AcDbViewportTableRecord
2
*Active
70
0
10
0
20
0
11
1
21
1
12
-1
22
1
13
0
23
0
14
0.5
24
0.5
15
10
25
10
16
0
26
0
36
1
17
0
27
0
37
0
0
ENDTAB
0
TABLE
2
LTYPE
5
2b0
100
AcDbSymbolTable
0
LTYPE
5
14
100
AcDbSymbolTableRecord
100
AcDbLinetypeTableRecord
70
0
2
ByBlock
3

72
65
73
0
40
0
0
LTYPE
5
15
100
AcDbSymbolTableRecord
100
AcDbLinetypeTableRecord
70
0
2
ByLayer
3

72
65
73
0
40
0
0
LTYPE
5
16
100
AcDbSymbolTableRecord
100
AcDbLinetypeTableRecord
70
0
2
CONTINUOUS
3
Solid line
72
65
73
0
40
0
0
LTYPE
5
6A
100
AcDbSymbolTableRecord
100
AcDbLinetypeTableRecord
70
0
2
CENTER
3
____ _ ____ _ ____ _ ____
72
65
73
4
40
47.5
49
22
74
0
49
-8.5
74
0
49
8.5
74
0
49
-8.5
74
0
0
LTYPE
5
6B
100
AcDbSymbolTableRecord
100
AcDbLinetypeTableRecord
70
0
2
DASHED
3
__ __ __ __ __ __ __ __ __
72
65
73
2
40
25.72
49
12.86
74
0
49
-12.86
74
0
0
ENDTAB
0
TABLE
2
LAYER
5
2b1
100
AcDbSymbolTable
0
LAYER
5
10
100
AcDbSymbolTableRecord
100
AcDbLayerTableRecord
2
0
70
0
62
7
6
CONTINUOUS
290
1
370
-3
390
0
0
LAYER
5
6D
100
AcDbSymbolTableRecord
100
AcDbLayerTableRecord
2
2
70
0
62
7
6
CONTINUOUS
290
1
370
-3
390
0
0
LAYER
5
6F
100
AcDbSymbolTableRecord
100
AcDbLayerTableRecord
2
80
70
0
62
-6
6
CONTINUOUS
290
1
370
-3
390
0
0
LAYER
5
71
100
AcDbSymbolTableRecord
100
AcDbLayerTableRecord
2
81
70
0
62
-3
6
CONTINUOUS
290
1
370
-3
390
0
0
LAYER
5
73
100
AcDbSymbolTableRecord
100
AcDbLayerTableRecord
2
1
70
0
62
4
6
CONTINUOUS
290
1
370
-3
390
0
0
LAYER
5
8A
100
AcDbSymbolTableRecord
100
AcDbLayerTableRecord
2
4
70
0
62
-2
6
CENTER
290
1
370
-3
390
0
0
LAYER
5
29b
100
AcDbSymbolTableRecord
100
AcDbLayerTableRecord
2
SK4
70
0
62
2
6
CENTER
290
1
370
-3
390
0
0
LAYER
5
29c
100
AcDbSymbolTableRecord
100
AcDbLayerTableRecord
2
SK1
70
0
62
4
6
CONTINUOUS
290
1
370
-3
390
0
0
LAYER
5
29d
100
AcDbSymbolTableRecord
100
AcDbLayerTableRecord
2
SK6
70
0
62
5
6
CONTINUOUS
290
1
370
-3
390
0
0
LAYER
5
29e
100
AcDbSymbolTableRecord
100
AcDbLayerTableRecord
2
SK2
70
0
62
7
6
CONTINUOUS
290
1
370
-3
390
0
0
ENDTAB
0
TABLE
2
STYLE
5
2b2
100
AcDbSymbolTable
0
STYLE
5
11
100
AcDbSymbolTableRecord
100
AcDbTextStyleTableRecord
2
Standard
3
txt
70
0
71
0
40
0
41
1
42
0
50
0
0
STYLE
5
1FF
100
AcDbSymbolTableRecord
100
AcDbTextStyleTableRecord
2
iso_b_vert
3
simplex.shx
70
0
71
0
40
0
41
1
42
0
50
0
0
STYLE
5
200
100
AcDbSymbolTableRecord
100
AcDbTextStyleTableRecord
2
DWGDirectTextStyle
3
simplex
70
0
71
0
40
0
41
1
42
0
50
0
0
ENDTAB
0
TABLE
2
DIMSTYLE
5
2b3
100
AcDbSymbolTable
100
AcDbDimStyleTable
0
DIMSTYLE
105
27
100
AcDbSymbolTableRecord
100
AcDbDimStyleTableRecord
2
Standard
70
0
3
<>
41
0.18
42
0.0625
44
0.18
140
0.18
147
0.09
73
0
74
0
77
1
271
2
275
0
278
52
280
0
340
11
0
ENDTAB
0
TABLE
2
VIEW
5
2b4
100
AcDbSymbolTable
0
ENDTAB
0
TABLE
2
UCS
5
2b5
100
AcDbSymbolTable
0
ENDTAB
0
TABLE
2
APPID
5
2b6
100
AcDbSymbolTable
0
APPID
5
12
100
AcDbSymbolTableRecord
100
AcDbRegAppTableRecord
2
ACAD
70
0
0
ENDTAB
0
TABLE
2
BLOCK_RECORD
5
2b7
100
AcDbSymbolTable
0
BLOCK_RECORD
5
1F
100
AcDbSymbolTableRecord
100
AcDbBlockTableRecord
2
*Model_Space
340
0
70
0
0
BLOCK_RECORD
5
1B
100
AcDbSymbolTableRecord
100
AcDbBlockTableRecord
2
*Paper_Space
340
0
70
0
0
BLOCK_RECORD
5
23
100
AcDbSymbolTableRecord
100
AcDbBlockTableRecord
2
*Paper_Space0
340
0
70
0
0
BLOCK_RECORD
5
202
100
AcDbSymbolTableRecord
100
AcDbBlockTableRecord
2
DimnDraft3D11
340
0
70
0
0
BLOCK_RECORD
5
210
100
AcDbSymbolTableRecord
100
AcDbBlockTableRecord
2
DimnDraft3D2
340
0
70
0
0
BLOCK_RECORD
5
21E
100
AcDbSymbolTableRecord
100
AcDbBlockTableRecord
2
_CLOSED
340
0
70
0
0
BLOCK_RECORD
5
225
100
AcDbSymbolTableRecord
100
AcDbBlockTableRecord
2
DimnDraft3D3
340
0
70
0
0
BLOCK_RECORD
5
234
100
AcDbSymbolTableRecord
100
AcDbBlockTableRecord
2
DimnDraft3D4
340
0
70
0
0
ENDTAB
0
ENDSEC
0
SECTION
2
BLOCKS
0
BLOCK
5
20
100
AcDbEntity
8
0
100
AcDbBlockBegin
2
*Model_Space
70
0
10
0
20
0
30
0
3
*Model_Space
0
ENDBLK
5
21
100
AcDbEntity
8
0
100
AcDbBlockEnd
0
BLOCK
5
1C
100
AcDbEntity
8
0
100
AcDbBlockBegin
2
*Paper_Space
70
0
10
0
20
0
30
0
3
*Paper_Space
0
ENDBLK
5
1D
100
AcDbEntity
8
0
100
AcDbBlockEnd
0
BLOCK
5
24
100
AcDbEntity
8
0
100
AcDbBlockBegin
2
*Paper_Space0
70
0
10
0
20
0
30
0
3
*Paper_Space0
0
ENDBLK
5
25
100
AcDbEntity
8
0
100
AcDbBlockEnd
0
BLOCK
5
203
100
AcDbEntity
8
0
100
AcDbBlockBegin
2
DimnDraft3D11
70
0
10
0
20
0
30
0
3
DimnDraft3D11
0
LINE
5
205
100
AcDbEntity
8
2
62
256
6
ByLayer
370
25
48
1
60
0
100
AcDbLine
10
60
20
37
30
0
11
60
21
65.75
31
0
39
0
210
0
220
0
230
1
0
LINE
5
206
100
AcDbEntity
8
2
62
256
6
ByLayer
370
25
48
1
60
0
100
AcDbLine
10
0
20
27
30
0
11
0
21
65.75
31
0
39
0
210
0
220
0
230
1
0
LINE
5
207
100
AcDbEntity
8
2
62
256
6
ByLayer
370
25
48
1
60
0
100
AcDbLine
10
60
20
63.75
30
0
11
0
21
63.75
31
0
39
0
210
0
220
0
230
1
0
LINE
5
208
100
AcDbEntity
8
2
62
256
6
ByLayer
370
25
48
1
60
0
100
AcDbLine
10
60
20
63.75
30
0
11
56.825002
21
63.332003
31
0
39
0
210
0
220
0
230
1
0
LINE
5
209
100
AcDbEntity
8
2
62
256
6
ByLayer
370
25
48
1
60
0
100
AcDbLine
10
60
20
63.75
30
0
11
56.824998
21
64.167997
31
0
39
0
210
0
220
0
230
1
0
LINE
5
20A
100
AcDbEntity
8
2
62
256
6
ByLayer
370
25
48
1
60
0
100
AcDbLine
10
56.825002
20
63.332003
30
0
11
56.824998
21
64.167997
31
0
39
0
210
0
220
0
230
1
0
LINE
5
20B
100
AcDbEntity
8
2
62
256
6
ByLayer
370
25
48
1
60
0
100
AcDbLine
10
0
20
63.75
30
0
11
3.174998
21
64.167997
31
0
39
0
210
0
220
0
230
1
0
LINE
5
20C
100
AcDbEntity
8
2
62
256
6
ByLayer
370
25
48
1
60
0
100
AcDbLine
10
0
20
63.75
30
0
11
3.175002
21
63.332003
31
0
39
0
210
0
220
0
230
1
0
LINE
5
20D
100
AcDbEntity
8
2
62
256
6
ByLayer
370
25
48
1
60
0
100
AcDbLine
10
3.174998
20
64.167997
30
0
11
3.175002
21
63.332003
31
0
39
0
210
0
220
0
230
1
0
MTEXT
5
20E
100
AcDbEntity
8
2
62
256
6
ByLayer
370
18
48
1
60
0
100
AcDbMText
10
25.843421
20
64.875
30
0
210
0
220
0
230
1
1
\W0.7346;60.0
40
4.5
41
0
44
1.084337
50
0
71
7
72
5
7
iso_b_vert
0
ENDBLK
5
204
100
AcDbEntity
8
0
100
AcDbBlockEnd
0
BLOCK
5
21B
100
AcDbEntity
8
0
100
AcDbBlockBegin
2
DimnDraft3D2
70
0
10
0
20
0
30
0
3
DimnDraft3D2
0
MTEXT
5
211
100
AcDbEntity
8
2
62
256
6
ByLayer
370
18
48
1
60
0
100
AcDbMText
10
48.058392
20
42.100499
30
0
210
0
220
0
230
1
1
\W0.7399;95%%d
40
4.5
41
0
44
1.084337
50
47.3457231599999
71
7
72
5
7
iso_b_vert
0
LINE
5
212
100
AcDbEntity
8
2
62
256
6
ByLayer
370
13
48
1
60
0
100
AcDbLine
10
60
20
37
30
0
11
60
21
49.490491
31
0
39
0
210
0
220
0
230
1
0
LINE
5
213
100
AcDbEntity
8
2
62
256
6
ByLayer
370
13
48
1
60
0
100
AcDbLine
10
56.151381
20
34.751971
30
0
11
45.625638
21
33.88818
31
0
39
0
210
0
220
0
230
1
0
ARC
5
214
100
AcDbEntity
8
2
62
256
6
ByLayer
370
13
48
1
60
0
100
AcDbCircle
39
0
10
60
20
35.067807
30
0
40
12.4226837803016
210
0
220
0
230
1
100
AcDbArc
50
90
51
184.691446
0
LINE
5
215
100
AcDbEntity
8
2
62
256
6
ByLayer
370
13
48
1
60
0
100
AcDbLine
10
60
20
47.490491
30
0
11
56.857957
21
46.8717
31
0
39
0
210
0
220
0
230
1
0
LINE
5
216
100
AcDbEntity
8
2
62
256
6
ByLayer
370
13
48
1
60
0
100
AcDbLine
10
60
20
47.490491
30
0
11
56.804862
21
47.706006
31
0
39
0
210
0
220
0
230
1
0
LINE
5
217
100
AcDbEntity
8
2
62
256
6
ByLayer
370
13
48
1
60
0
100
AcDbLine
10
56.857957
20
46.8717
30
0
11
56.804862
21
47.706006
31
0
39
0
210
0
220
0
230
1
0
LINE
5
218
100
AcDbEntity
8
2
62
256
6
ByLayer
370
13
48
1
60
0
100
AcDbLine
10
47.618937
20
34.051759
30
0
11
47.142815
21
37.218563
31
0
39
0
210
0
220
0
230
1
0
LINE
5
219
100
AcDbEntity
8
2
62
256
6
ByLayer
370
13
48
1
60
0
100
AcDbLine
10
47.618937
20
34.051759
30
0
11
47.978668
21
37.233889
31
0
39
0
210
0
220
0
230
1
0
LINE
5
21A
100
AcDbEntity
8
2
62
256
6
ByLayer
370
13
48
1
60
0
100
AcDbLine
10
47.142815
20
37.218563
30
0
11
47.978668
21
37.233889
31
0
39
0
210
0
220
0
230
1
0
ENDBLK
5
21C
100
AcDbEntity
8
0
100
AcDbBlockEnd
0
BLOCK
5
21F
100
AcDbEntity
8
0
100
AcDbBlockBegin
2
_CLOSED
70
0
10
0
20
0
30
0
3
_CLOSED
0
LINE
5
221
100
AcDbEntity
8
0
62
256
6
ByLayer
370
-2
48
1
60
0
100
AcDbLine
10
-1
20
0.166667
30
0
11
0
21
0
31
0
39
0
210
0
220
0
230
1
0
LINE
5
222
100
AcDbEntity
8
0
62
256
6
ByLayer
370
-2
48
1
60
0
100
AcDbLine
10
0
20
0
30
0
11
-1
21
-0.166667
31
0
39
0
210
0
220
0
230
1
0
LINE
5
223
100
AcDbEntity
8
0
62
256
6
ByLayer
370
-2
48
1
60
0
100
AcDbLine
10
-1
20
0.166667
30
0
11
-1
21
-0.166667
31
0
39
0
210
0
220
0
230
1
0
LINE
5
224
100
AcDbEntity
8
0
62
256
6
ByLayer
370
-2
48
1
60
0
100
AcDbLine
10
0
20
0
30
0
11
-1
21
0
31
0
39
0
210
0
220
0
230
1
0
ENDBLK
5
220
100
AcDbEntity
8
0
100
AcDbBlockEnd
0
BLOCK
5
231
100
AcDbEntity
8
0
100
AcDbBlockBegin
2
DimnDraft3D3
70
0
10
0
20
0
30
0
3
DimnDraft3D3
0
MTEXT
5
226
100
AcDbEntity
8
SK2
62
256
6
ByLayer
370
18
48
1
60
0
100
AcDbMText
10
-38.875
20
-1.563158
30
0
210
0
220
0
230
1
1
\W0.6740;50
40
4.5
41
0
44
1.084337
50
90
71
7
72
5
7
iso_b_vert
0
LINE
5
228
100
AcDbEntity
8
SK2
62
256
6
ByLayer
370
13
48
1
60
0
100
AcDbLine
10
-2
20
-25
30
0
11
-39.75
21
-25
31
0
39
0
210
0
220
0
230
1
0
LINE
5
229
100
AcDbEntity
8
SK2
62
256
6
ByLayer
370
13
48
1
60
0
100
AcDbLine
10
-2
20
25
30
0
11
-39.75
21
25
31
0
39
0
210
0
220
0
230
1
0
LINE
5
22A
100
AcDbEntity
8
SK2
62
256
6
ByLayer
370
13
48
1
60
0
100
AcDbLine
10
-37.75
20
-25
30
0
11
-37.75
21
25
31
0
39
0
210
0
220
0
230
1
0
LINE
5
22B
100
AcDbEntity
8
SK2
62
256
6
ByLayer
370
13
48
1
60
0
100
AcDbLine
10
-37.75
20
-25
30
0
11
-38.167997
21
-21.825002
31
0
39
0
210
0
220
0
230
1
0
LINE
5
22C
100
AcDbEntity
8
SK2
62
256
6
ByLayer
370
13
48
1
60
0
100
AcDbLine
10
-37.75
20
-25
30
0
11
-37.332003
21
-21.824998
31
0
39
0
210
0
220
0
230
1
0
LINE
5
22D
100
AcDbEntity
8
SK2
62
256
6
ByLayer
370
13
48
1
60
0
100
AcDbLine
10
-38.167997
20
-21.825002
30
0
11
-37.332003
21
-21.824998
31
0
39
0
210
0
220
0
230
1
0
LINE
5
22E
100
AcDbEntity
8
SK2
62
256
6
ByLayer
370
13
48
1
60
0
100
AcDbLine
10
-37.75
20
25
30
0
11
-37.332003
21
21.825002
31
0
39
0
210
0
220
0
230
1
0
LINE
5
22F
100
AcDbEntity
8
SK2
62
256
6
ByLayer
370
13
48
1
60
0
100
AcDbLine
10
-37.75
20
25
30
0
11
-38.167997
21
21.824998
31
0
39
0
210
0
220
0
230
1
0
LINE
5
230
100
AcDbEntity
8
SK2
62
256
6
ByLayer
370
13
48
1
60
0
100
AcDbLine
10
-37.332003
20
21.825002
30
0
11
-38.167997
21
21.824998
31
0
39
0
210
0
220
0
230
1
0
ENDBLK
5
232
100
AcDbEntity
8
0
100
AcDbBlockEnd
0
BLOCK
5
23F
100
AcDbEntity
8
0
100
AcDbBlockBegin
2
DimnDraft3D4
70
0
10
0
20
0
30
0
3
DimnDraft3D4
0
MTEXT
5
235
100
AcDbEntity
8
2
62
256
6
ByLayer
370
18
48
1
60
0
100
AcDbMText
10
81.125
20
13.343421
30
0
210
0
220
0
230
1
1
\W0.7346;35.0
40
4.5
41
0
44
1.084337
50
90
71
7
72
5
7
iso_b_vert
0
LINE
5
236
100
AcDbEntity
8
2
62
256
6
ByLayer
370
13
48
1
60
0
100
AcDbLine
10
62
20
0
30
0
11
84.25
21
0
31
0
39
0
210
0
220
0
230
1
0
LINE
5
237
100
AcDbEntity
8
2
62
256
6
ByLayer
370
13
48
1
60
0
100
AcDbLine
10
62
20
35
30
0
11
84.25
21
35
31
0
39
0
210
0
220
0
230
1
0
LINE
5
238
100
AcDbEntity
8
2
62
256
6
ByLayer
370
13
48
1
60
0
100
AcDbLine
10
82.25
20
0
30
0
11
82.25
21
35
31
0
39
0
210
0
220
0
230
1
0
LINE
5
239
100
AcDbEntity
8
2
62
256
6
ByLayer
370
13
48
1
60
0
100
AcDbLine
10
82.25
20
0
30
0
11
81.832003
21
3.174998
31
0
39
0
210
0
220
0
230
1
0
LINE
5
23A
100
AcDbEntity
8
2
62
256
6
ByLayer
370
13
48
1
60
0
100
AcDbLine
10
82.25
20
0
30
0
11
82.667997
21
3.175002
31
0
39
0
210
0
220
0
230
1
0
LINE
5
23B
100
AcDbEntity
8
2
62
256
6
ByLayer
370
13
48
1
60
0
100
AcDbLine
10
81.832003
20
3.174998
30
0
11
82.667997
21
3.175002
31
0
39
0
210
0
220
0
230
1
0
LINE
5
23C
100
AcDbEntity
8
2
62
256
6
ByLayer
370
13
48
1
60
0
100
AcDbLine
10
82.25
20
35
30
0
11
82.667997
21
31.825002
31
0
39
0
210
0
220
0
230
1
0
LINE
5
23D
100
AcDbEntity
8
2
62
256
6
ByLayer
370
13
48
1
60
0
100
AcDbLine
10
82.25
20
35
30
0
11
81.832003
21
31.824998
31
0
39
0
210
0
220
0
230
1
0
LINE
5
23E
100
AcDbEntity
8
2
62
256
6
ByLayer
370
13
48
1
60
0
100
AcDbLine
10
82.667997
20
31.825002
30
0
11
81.832003
21
31.824998
31
0
39
0
210
0
220
0
230
1
0
ENDBLK
5
240
100
AcDbEntity
8
0
100
AcDbBlockEnd
0
ENDSEC
0
SECTION
2
ENTITIES
0
ARC
5
11B
100
AcDbEntity
8
SK1
62
256
6
ByLayer
370
18
48
1
60
0
100
AcDbCircle
39
0
10
0.6
20
-18.75
30
0
40
1.00000000000001
210
0
220
0
230
-1
100
AcDbArc
50
113.578178
51
126.869898
0
ARC
5
11C
100
AcDbEntity
8
SK1
62
256
6
ByLayer
370
18
48
1
60
0
100
AcDbCircle
39
0
10
0.6
20
18.75
30
0
40
1.00000000000001
210
0
220
0
230
-1
100
AcDbArc
50
233.130102
51
246.421822
0
ELLIPSE
5
11D
100
AcDbEntity
8
1
62
256
6
ByLayer
370
18
48
1
60
0
100
AcDbEllipse
10
10
20
17.843094
30
0
11
2
21
0
31
0
210
0
220
0
230
1
40
0.580703
41
0.278325621108809
42
2.86326699090459
0
ELLIPSE
5
11E
100
AcDbEntity
8
1
62
256
6
ByLayer
370
18
48
1
60
0
100
AcDbEllipse
10
24.45241
20
22.129514
30
0
11
0.943257999448989
21
-1.98752719389584
31
0
210
0
220
0
230
1
40
0.132393
41
0.0375901703554147
42
3.1415679273732
0
ELLIPSE
5
11F
100
AcDbEntity
8
1
62
256
6
ByLayer
370
18
48
1
60
0
100
AcDbEllipse
10
24.676277
20
22.235759
30
0
11
-0.836069590420693
21
1.76167183095314
31
0
210
0
220
0
230
1
40
0.132393
41
-3.0075652891094
42
-0.133970400285362
0
ELLIPSE
5
120
100
AcDbEntity
8
1
62
256
6
ByLayer
370
18
48
1
60
0
100
AcDbEllipse
10
53.164749
20
28.164749
30
0
11
-3.88908729653492
21
3.8890872965171
31
0
210
0
220
0
230
1
40
0.989133
41
0.261799387799153
42
0.765392315631818
0
ELLIPSE
5
121
100
AcDbEntity
8
1
62
256
6
ByLayer
370
18
48
1
60
0
100
AcDbEllipse
10
34.223965
20
21.981292
30
0
11
2.08176526554849
21
-2.16015123988016
31
0
210
0
220
0
230
1
40
0.986455
41
-0.156280282981022
42
-0.0604884076533377
0
ELLIPSE
5
122
100
AcDbEntity
8
1
62
256
6
ByLayer
370
18
48
1
60
0
100
AcDbEllipse
10
42.702528
20
21.065681
30
0
11
2.87977528400875
21
-2.98820921516756
31
0
210
0
220
0
230
1
40
0.986455
41
0.013807433618174
42
2.98531237060877
0
ELLIPSE
5
123
100
AcDbEntity
8
1
62
256
6
ByLayer
370
18
48
1
60
0
100
AcDbEllipse
10
37.026993
20
8.256849
30
0
11
-5.72659051508523
21
-4.02568765213298
31
0
210
0
220
0
230
1
40
0.02553
41
2.32834410581083
42
2.33301874980662
0
ELLIPSE
5
124
100
AcDbEntity
8
1
62
256
6
ByLayer
370
18
48
1
60
0
100
AcDbEllipse
10
17.329058
20
18.748852
30
0
11
-0.0227270275739684
21
-2.77595171112842
31
0
210
0
220
0
230
1
40
0.080275
41
-0.00025656600462903
42
0.535121258382979
0
ELLIPSE
5
125
100
AcDbEntity
8
1
62
256
6
ByLayer
370
18
48
1
60
0
100
AcDbEllipse
10
42.055395
20
20.548645
30
0
11
0.813172798366392
21
-0.813172798362667
31
0
210
0
220
0
230
1
40
0.989133
41
0.118446201696878
42
3.08666234056256
0
ELLIPSE
5
126
100
AcDbEntity
8
1
62
256
6
ByLayer
370
18
48
1
60
0
100
AcDbEllipse
10
42.143762
20
20.637013
30
0
11
0.813172798366392
21
-0.813172798362667
31
0
210
0
220
0
230
1
40
0.989133
41
-1.50870245733191
42
-1.40718936401245
0
ELLIPSE
5
127
100
AcDbEntity
8
1
62
256
6
ByLayer
370
18
48
1
60
0
100
AcDbEllipse
10
42.143762
20
20.637013
30
0
11
0.813172798366392
21
-0.813172798362667
31
0
210
0
220
0
230
1
40
0.989133
41
-2.11748433396723
42
-1.50870245733193
0
ELLIPSE
5
128
100
AcDbEntity
8
1
62
256
6
ByLayer
370
18
48
1
60
0
100
AcDbEllipse
10
42.143762
20
20.637013
30
0
11
0.813172798366392
21
-0.813172798362667
31
0
210
0
220
0
230
1
40
0.989133
41
0.0518840451092855
42
-2.72960340840861
0
ELLIPSE
5
129
100
AcDbEntity
8
1
62
256
6
ByLayer
370
18
48
1
60
0
100
AcDbEllipse
10
42.143762
20
20.637013
30
0
11
0.813172798366392
21
-0.813172798362667
31
0
210
0
220
0
230
1
40
0.989133
41
-0.790860895639593
42
-0.11844898374129
0
ELLIPSE
5
12A
100
AcDbEntity
8
1
62
256
6
ByLayer
370
18
48
1
60
0
100
AcDbEllipse
10
43.940803
20
0
30
0
11
-22.2034662478483
21
-25.1495301448667
31
0
210
0
220
0
230
1
40
0.006924
41
0.0061002386063365
42
0.206253268708855
0
ELLIPSE
5
12B
100
AcDbEntity
8
1
62
256
6
ByLayer
370
18
48
1
60
0
100
AcDbEllipse
10
53.445445
20
28.445445
30
0
11
3.37752183088368
21
-3.37752183086821
31
0
210
0
220
0
230
1
40
0.989133
41
-0.734417524769675
42
-0.704393121263897
0
ELLIPSE
5
12C
100
AcDbEntity
8
1
62
256
6
ByLayer
370
18
48
1
60
0
100
AcDbEllipse
10
53.445445
20
28.445445
30
0
11
3.37752183088368
21
-3.37752183086821
31
0
210
0
220
0
230
1
40
0.989133
41
-2.78626538272476
42
-2.75816014343865
0
ELLIPSE
5
12D
100
AcDbEntity
8
1
62
256
6
ByLayer
370
18
48
1
60
0
100
AcDbEllipse
10
53.164749
20
28.164749
30
0
11
-3.88908729653492
21
3.8890872965171
31
0
210
0
220
0
230
1
40
0.989133
41
2.32785343388196
42
2.53072741539178
0
ELLIPSE
5
12E
100
AcDbEntity
8
1
62
256
6
ByLayer
370
18
48
1
60
0
100
AcDbEllipse
10
42.034603
20
20.527853
30
0
11
2.82842712475267
21
-2.82842712473971
31
0
210
0
220
0
230
1
40
0.989133
41
3.14154186687325
42
-0.790861354621183
0
ELLIPSE
5
12F
100
AcDbEntity
8
1
62
256
6
ByLayer
370
18
48
1
60
0
100
AcDbEllipse
10
42.034603
20
20.527853
30
0
11
2.82842712475267
21
-2.82842712473971
31
0
210
0
220
0
230
1
40
0.989133
41
-0.790861354621172
42
0
0
ELLIPSE
5
130
100
AcDbEntity
8
1
62
256
6
ByLayer
370
18
48
1
60
0
100
AcDbEllipse
10
42.259342
20
19.392987
30
0
11
-0.268700576851503
21
0.268700576850273
31
0
210
0
220
0
230
1
40
0.989133
41
-2.68594738862235
42
-2.42225340979502
0
ELLIPSE
5
131
100
AcDbEntity
8
1
62
256
6
ByLayer
370
18
48
1
60
0
100
AcDbEllipse
10
41.009644
20
21.170697
30
0
11
-0.268700576851503
21
0.268700576850273
31
0
210
0
220
0
230
1
40
0.989133
41
-1.06840509419362
42
-0.455613680093768
0
ELLIPSE
5
132
100
AcDbEntity
8
1
62
256
6
ByLayer
370
18
48
1
60
0
100
AcDbEllipse
10
43.05851
20
19.335773
30
0
11
0.300520382004971
21
-0.300520382003594
31
0
210
0
220
0
230
1
40
0.989133
41
3.14158919864636
42
-2.42225340979506
0
ELLIPSE
5
133
100
AcDbEntity
8
1
62
256
6
ByLayer
370
18
48
1
60
0
100
AcDbEllipse
10
41.229015
20
21.938253
30
0
11
0.300520382004971
21
-0.300520382003594
31
0
210
0
220
0
230
1
40
0.989133
41
-1.06840509419363
42
-3.5167618899879E-06
0
ELLIPSE
5
134
100
AcDbEntity
8
1
62
256
6
ByLayer
370
18
48
1
60
0
100
AcDbEllipse
10
43.27788
20
20.103329
30
0
11
-0.268700576851503
21
0.268700576850273
31
0
210
0
220
0
230
1
40
0.989133
41
-2.68595059009182
42
-1.37505585859845
0
ELLIPSE
5
135
100
AcDbEntity
8
1
62
256
6
ByLayer
370
18
48
1
60
0
100
AcDbEllipse
10
42.028183
20
21.881038
30
0
11
-0.268700576851503
21
0.268700576850273
31
0
210
0
220
0
230
1
40
0.989133
41
-2.11560264539022
42
-0.455656467956229
0
ELLIPSE
5
136
100
AcDbEntity
8
1
62
256
6
ByLayer
370
18
48
1
60
0
100
AcDbEllipse
10
43.719454
20
20.766322
30
0
11
0.300520382004971
21
-0.300520382003594
31
0
210
0
220
0
230
1
40
0.989133
41
-3.14157045834449
42
-1.37505585859843
0
ELLIPSE
5
137
100
AcDbEntity
8
1
62
256
6
ByLayer
370
18
48
1
60
0
100
AcDbEllipse
10
43.162301
20
21.347354
30
0
11
-0.268700576851503
21
0.268700576850273
31
0
210
0
220
0
230
1
40
0.989133
41
-3.11070847430903
42
-0.327858307401845
0
ELLIPSE
5
138
100
AcDbEntity
8
1
62
256
6
ByLayer
370
18
48
1
60
0
100
AcDbEllipse
10
41.716732
20
19.440378
30
0
11
0.300520382004971
21
-0.300520382003594
31
0
210
0
220
0
230
1
40
0.989133
41
2.09549789574219
42
2.81373434618795
0
ELLIPSE
5
139
100
AcDbEntity
8
1
62
256
6
ByLayer
370
18
48
1
60
0
100
AcDbEllipse
10
40.801984
20
20.741618
30
0
11
0.300520382004971
21
-0.300520382003594
31
0
210
0
220
0
230
1
40
0.989133
41
-0.0212075429970151
42
0.697028907448724
0
ELLIPSE
5
13A
100
AcDbEntity
8
1
62
256
6
ByLayer
370
18
48
1
60
0
100
AcDbEllipse
10
42.377676
20
20.870927
30
0
11
0.830850467896097
21
-0.830850467892291
31
0
210
0
220
0
230
1
40
0.989133
41
2.90381587669166
42
3.03030358008906
0
ELLIPSE
5
13B
100
AcDbEntity
8
1
62
256
6
ByLayer
370
18
48
1
60
0
100
AcDbEllipse
10
43.511794
20
20.337242
30
0
11
-0.268700576851503
21
0.268700576850273
31
0
210
0
220
0
230
1
40
0.989133
41
2.07318755939615
42
-1.37505585859843
0
ELLIPSE
5
13C
100
AcDbEntity
8
1
62
256
6
ByLayer
370
18
48
1
60
0
100
AcDbEllipse
10
41.462928
20
22.172167
30
0
11
0.300520382004971
21
-0.300520382003594
31
0
210
0
220
0
230
1
40
0.989133
41
-1.06840509419363
42
-0.350168643747922
0
ELLIPSE
5
13D
100
AcDbEntity
8
1
62
256
6
ByLayer
370
18
48
1
60
0
100
AcDbEllipse
10
42.377676
20
20.870927
30
0
11
0.830850467896097
21
-0.830850467892291
31
0
210
0
220
0
230
1
40
0.989133
41
-1.28497432809474
42
-1.15848662469734
0
ELLIPSE
5
13E
100
AcDbEntity
8
1
62
256
6
ByLayer
370
18
48
1
60
0
100
AcDbEllipse
10
41.462928
20
22.172167
30
0
11
0.300520382004971
21
-0.300520382003594
31
0
210
0
220
0
230
1
40
0.989133
41
0.00110279334898018
42
0.719339243794732
0
ELLIPSE
5
13F
100
AcDbEntity
8
1
62
256
6
ByLayer
370
18
48
1
60
0
100
AcDbEllipse
10
41.243558
20
21.404611
30
0
11
-0.268700576851503
21
0.268700576850273
31
0
210
0
220
0
230
1
40
0.989133
41
-1.06840509419364
42
1.76653679499138
0
ELLIPSE
5
140
100
AcDbEntity
8
1
62
256
6
ByLayer
370
18
48
1
60
0
100
AcDbEllipse
10
43.396215
20
21.581268
30
0
11
-0.268700576851503
21
0.268700576850273
31
0
210
0
220
0
230
1
40
0.989133
41
3.12038511059277
42
-0.327858307401854
0
ELLIPSE
5
141
100
AcDbEntity
8
1
62
256
6
ByLayer
370
18
48
1
60
0
100
AcDbEllipse
10
42.262097
20
22.114952
30
0
11
-0.268700576851503
21
0.268700576850273
31
0
210
0
220
0
230
1
40
0.989133
41
-2.11560264539022
42
0.719339243794742
0
ELLIPSE
5
142
100
AcDbEntity
8
1
62
256
6
ByLayer
370
18
48
1
60
0
100
AcDbEllipse
10
43.292424
20
19.569687
30
0
11
0.300520382004971
21
-0.300520382003594
31
0
210
0
220
0
230
1
40
0.989133
41
-3.14048986024078
42
-2.42225340979504
0
ELLIPSE
5
143
100
AcDbEntity
8
1
62
256
6
ByLayer
370
18
48
1
60
0
100
AcDbEllipse
10
43.953368
20
21.000235
30
0
11
0.300520382004971
21
-0.300520382003594
31
0
210
0
220
0
230
1
40
0.989133
41
-2.09329230904423
42
-1.37505585859843
0
ELLIPSE
5
144
100
AcDbEntity
8
1
62
256
6
ByLayer
370
18
48
1
60
0
100
AcDbEllipse
10
43.03862
20
22.301475
30
0
11
0.300520382004971
21
-0.300520382003594
31
0
210
0
220
0
230
1
40
0.989133
41
-1.04609475784758
42
-0.327858307401837
0
ELLIPSE
5
145
100
AcDbEntity
8
1
62
256
6
ByLayer
370
18
48
1
60
0
100
AcDbEllipse
10
42.377676
20
20.870927
30
0
11
0.830850467896097
21
-0.830850467892291
31
0
210
0
220
0
230
1
40
0.989133
41
-2.33217187929134
42
-2.20568417589393
0
ELLIPSE
5
146
100
AcDbEntity
8
1
62
256
6
ByLayer
370
18
48
1
60
0
100
AcDbEllipse
10
42.377676
20
20.870927
30
0
11
-1.62634559673278
21
1.62634559672533
31
0
210
0
220
0
230
1
40
0.989133
41
0
42
6.28318530717959
0
ELLIPSE
5
147
100
AcDbEntity
8
1
62
256
6
ByLayer
370
18
48
1
60
0
100
AcDbEllipse
10
41.716732
20
19.440378
30
0
11
0.300520382004971
21
-0.300520382003594
31
0
210
0
220
0
230
1
40
0.989133
41
1.02599000819956
42
1.74422645864529
0
ELLIPSE
5
148
100
AcDbEntity
8
1
62
256
6
ByLayer
370
18
48
1
60
0
100
AcDbEllipse
10
42.493255
20
19.626901
30
0
11
-0.268700576851503
21
0.268700576850273
31
0
210
0
220
0
230
1
40
0.989133
41
1.02599000819957
42
-2.42225340979502
0
ELLIPSE
5
149
100
AcDbEntity
8
1
62
256
6
ByLayer
370
18
48
1
60
0
100
AcDbEllipse
10
43.03862
20
22.301475
30
0
11
0.300520382004971
21
-0.300520382003594
31
0
210
0
220
0
230
1
40
0.989133
41
-2.11560264539023
42
-1.39736619494449
0
ELLIPSE
5
14A
100
AcDbEntity
8
1
62
256
6
ByLayer
370
18
48
1
60
0
100
AcDbEllipse
10
42.287563
20
20.780814
30
0
11
-2.82842712475267
21
2.82842712473971
31
0
210
0
220
0
230
1
40
0.989133
41
0
42
6.28318530717959
0
ELLIPSE
5
14B
100
AcDbEntity
8
1
62
256
6
ByLayer
370
18
48
1
60
0
100
AcDbEllipse
10
40.801984
20
20.741618
30
0
11
0.300520382004971
21
-0.300520382003594
31
0
210
0
220
0
230
1
40
0.989133
41
1.0483003445456
42
1.76653679499135
0
ELLIPSE
5
14C
100
AcDbEntity
8
1
62
256
6
ByLayer
370
18
48
1
60
0
100
AcDbEllipse
10
43.292424
20
19.569687
30
0
11
0.300520382004971
21
-0.300520382003594
31
0
210
0
220
0
230
1
40
0.989133
41
2.07318755939614
42
2.79142400984192
0
ELLIPSE
5
14D
100
AcDbEntity
8
1
62
256
6
ByLayer
370
18
48
1
60
0
100
AcDbEllipse
10
43.953368
20
21.000235
30
0
11
0.300520382004971
21
-0.300520382003594
31
0
210
0
220
0
230
1
40
0.989133
41
3.12038511059276
42
-2.44456374614106
0
ELLIPSE
5
14E
100
AcDbEntity
8
1
62
256
6
ByLayer
370
18
48
1
60
0
100
AcDbEllipse
10
42.804707
20
22.067562
30
0
11
0.300520382004971
21
-0.300520382003594
31
0
210
0
220
0
230
1
40
0.989133
41
-2.11560264539023
42
-0.327858307401853
0
ELLIPSE
5
14F
100
AcDbEntity
8
1
62
256
6
ByLayer
370
18
48
1
60
0
100
AcDbEllipse
10
42.377676
20
20.870927
30
0
11
0.830850467896097
21
-0.830850467892291
31
0
210
0
220
0
230
1
40
0.989133
41
1.85661832549505
42
1.98310602889246
0
ELLIPSE
5
150
100
AcDbEntity
8
1
62
256
6
ByLayer
370
18
48
1
60
0
100
AcDbEllipse
10
42.377676
20
20.870927
30
0
11
0.830850467896097
21
-0.830850467892291
31
0
210
0
220
0
230
1
40
0.989133
41
-0.237776776898134
42
-0.11128907350074
0
ELLIPSE
5
151
100
AcDbEntity
8
1
62
256
6
ByLayer
370
18
48
1
60
0
100
AcDbEllipse
10
42.377676
20
20.870927
30
0
11
0.830850467896097
21
-0.830850467892291
31
0
210
0
220
0
230
1
40
0.989133
41
0.809420774298469
42
0.935908477695848
0
ELLIPSE
5
152
100
AcDbEntity
8
1
62
256
6
ByLayer
370
18
48
1
60
0
100
AcDbEllipse
10
41.359137
20
20.160585
30
0
11
-0.268700576851503
21
0.268700576850273
31
0
210
0
220
0
230
1
40
0.989133
41
-0.0212075429970061
42
2.81373434618793
0
ELLIPSE
5
153
100
AcDbEntity
8
1
62
256
6
ByLayer
370
18
48
1
60
0
100
AcDbEllipse
10
38.571964
20
20.246236
30
0
11
-5.80586464928332
21
-0.424544944966318
31
0
210
0
220
0
230
1
40
0.082923
41
-1.32317444542042
42
-0.451423564823735
0
ELLIPSE
5
154
100
AcDbEntity
8
1
62
256
6
ByLayer
370
18
48
1
60
0
100
AcDbEllipse
10
40.027194
20
13.600895
30
0
11
1.91006367272338
21
-0.593006548144678
31
0
210
0
220
0
230
1
40
0.819617
41
-2.14767242923502
42
-0.698457705508436
0
ELLIPSE
5
155
100
AcDbEntity
8
1
62
256
6
ByLayer
370
18
48
1
60
0
100
AcDbEllipse
10
37.131089
20
22.448843
30
0
11
-4.16623761962183
21
-0.202630904153784
31
0
210
0
220
0
230
1
40
0.47969
41
-0.652688833328137
42
-0.331345580350048
0
ELLIPSE
5
156
100
AcDbEntity
8
1
62
256
6
ByLayer
370
18
48
1
60
0
100
AcDbEllipse
10
55.660016
20
27.024407
30
0
11
-0.348951142115967
21
6.90792739085379
31
0
210
0
220
0
230
1
40
0.548566
41
2.25780316346915
42
2.33710560311457
0
ELLIPSE
5
157
100
AcDbEntity
8
1
62
256
6
ByLayer
370
18
48
1
60
0
100
AcDbEllipse
10
38.08329
20
20.941381
30
0
11
4.09042179648945
21
2.87549118009498
31
0
210
0
220
0
230
1
40
0.02553
41
1.99918174916223
42
2.49237968308225
0
ELLIPSE
5
158
100
AcDbEntity
8
1
62
256
6
ByLayer
370
18
48
1
60
0
100
AcDbEllipse
10
38.961267
20
13.076538
30
0
11
-2.64176164549108
21
1.42549993629005
31
0
210
0
220
0
230
1
40
0.99535
41
1.10568333558767
42
2.15821424004936
0
ELLIPSE
5
159
100
AcDbEntity
8
1
62
256
6
ByLayer
370
18
48
1
60
0
100
AcDbEllipse
10
52.82051
20
31.063639
30
0
11
-6.11759650689656
21
1.37642655801857
31
0
210
0
220
0
230
1
40
0.534007
41
0.620180272276824
42
0.699482712744407
0
ELLIPSE
5
15A
100
AcDbEntity
8
1
62
256
6
ByLayer
370
18
48
1
60
0
100
AcDbEllipse
10
34.78148
20
21.062988
30
0
11
0.0336313803299896
21
-1.99971721257209
31
0
210
0
220
0
230
1
40
0.83641
41
-2.51694140922383
42
-1.06772668549725
0
ELLIPSE
5
15B
100
AcDbEntity
8
1
62
256
6
ByLayer
370
18
48
1
60
0
100
AcDbEllipse
10
49.844975
20
30.363235
30
0
11
-1.05474550228222
21
-0.233843842382284
31
0
210
0
220
0
230
1
40
0.175059
41
-1.35268507528896
42
-0.8290862997052
0
ELLIPSE
5
15C
100
AcDbEntity
8
1
62
256
6
ByLayer
370
18
48
1
60
0
100
AcDbEllipse
10
38.571964
20
20.246236
30
0
11
-5.32741126427803
21
2.36504468963532
31
0
210
0
220
0
230
1
40
0.117814
41
-1.32536540818924
42
-0.401049328632496
0
ELLIPSE
5
15D
100
AcDbEntity
8
1
62
256
6
ByLayer
370
18
48
1
60
0
100
AcDbEllipse
10
40.584152
20
17.383874
30
0
11
-0.395141068296752
21
5.81029123392814
31
0
210
0
220
0
230
1
40
0.095437
41
-2.70279164398033
42
-1.778475564425
0
ELLIPSE
5
15E
100
AcDbEntity
8
1
62
256
6
ByLayer
370
18
48
1
60
0
100
AcDbEllipse
10
40.584152
20
17.383874
30
0
11
-2.37825173377003
21
-5.30791195076053
31
0
210
0
220
0
230
1
40
0.045332
41
0.474086533529756
42
1.34583741412838
0
ELLIPSE
5
15F
100
AcDbEntity
8
1
62
256
6
ByLayer
370
18
48
1
60
0
100
AcDbEllipse
10
55.800373
20
27.053102
30
0
11
-0.571116453008323
21
-0.918981790721997
31
0
210
0
220
0
230
1
40
0.218147
41
1.33296183505724
42
1.53330768120115
0
ELLIPSE
5
160
100
AcDbEntity
8
1
62
256
6
ByLayer
370
18
48
1
60
0
100
AcDbEllipse
10
53.99356
20
24.461821
30
0
11
-0.571116453356825
21
-0.918981791366499
31
0
210
0
220
0
230
1
40
0.218147
41
0.809363059441309
42
1.33296183502342
0
ELLIPSE
5
161
100
AcDbEntity
8
1
62
256
6
ByLayer
370
18
48
1
60
0
100
AcDbEllipse
10
35.726621
20
24.469188
30
0
11
-2.5587512737244
21
-1.57552183329864
31
0
210
0
220
0
230
1
40
0.340829
41
-0.0155058165521135
42
0.521808140774641
0
ELLIPSE
5
162
100
AcDbEntity
8
1
62
256
6
ByLayer
370
18
48
1
60
0
100
AcDbEllipse
10
41.937343
20
15.611887
30
0
11
-1.25335491137767
21
-4.16877773809256
31
0
210
0
220
0
230
1
40
0.506194
41
0.247439304490724
42
0.568782557458471
0
ELLIPSE
5
163
100
AcDbEntity
8
1
62
256
6
ByLayer
370
18
48
1
60
0
100
AcDbEllipse
10
43.574316
20
13.305744
30
0
11
-2.34383595229198
21
-1.88074787346385
31
0
210
0
220
0
230
1
40
0.391667
41
-0.525955037449892
42
0.011358919874165
0
ELLIPSE
5
164
100
AcDbEntity
8
1
62
256
6
ByLayer
370
18
48
1
60
0
100
AcDbEllipse
10
36.732052
20
22.863534
30
0
11
-4.18680118984888
21
-2.73820477324688
31
0
210
0
220
0
230
1
40
0.194744
41
0.402198476167455
42
0.507592150847501
0
ELLIPSE
5
165
100
AcDbEntity
8
1
62
256
6
ByLayer
370
18
48
1
60
0
100
AcDbEllipse
10
41.072826
20
16.688729
30
0
11
4.09042179648945
21
2.87549118009498
31
0
210
0
220
0
230
1
40
0.02553
41
1.99918174916223
42
2.49237968308232
0
ELLIPSE
5
166
100
AcDbEntity
8
1
62
256
6
ByLayer
370
18
48
1
60
0
100
AcDbEllipse
10
42.424064
20
14.766577
30
0
11
-3.99150157738449
21
-3.01589659498805
31
0
210
0
220
0
230
1
40
0.245743
41
-0.509500351629128
42
-0.404106676426834
0
ELLIPSE
5
167
100
AcDbEntity
8
1
62
256
6
ByLayer
370
18
48
1
60
0
100
AcDbEllipse
10
34.155013
20
19.913494
30
0
11
-2.64176164551993
21
1.42549993623909
31
0
210
0
220
0
230
1
40
0.99535
41
0.0531524311067657
42
1.10568333556814
0
ELLIPSE
5
168
100
AcDbEntity
8
1
62
256
6
ByLayer
370
18
48
1
60
0
100
AcDbEllipse
10
10
20
18.309067
30
0
11
-2.00000000000002
21
2.02127811016475E-15
31
0
210
0
220
0
230
1
40
0.716939
41
-2.39008803209747
42
-0.751504621492329
0
ELLIPSE
5
169
100
AcDbEntity
8
1
62
256
6
ByLayer
370
18
48
1
60
0
100
AcDbEllipse
10
10
20
17.843094
30
0
11
1.65
21
0
31
0
210
0
220
0
230
1
40
0.580703
41
0
42
6.28318530717959
0
ELLIPSE
5
16A
100
AcDbEntity
8
1
62
256
6
ByLayer
370
18
48
1
60
0
100
AcDbEllipse
10
38.760335
20
7.154746
30
0
11
-4.60348651607307
21
-3.18394601548852
31
0
210
0
220
0
230
1
40
0.714389
41
2.45736043240204
42
-3.13614006881309
0
ELLIPSE
5
16B
100
AcDbEntity
8
1
62
256
6
ByLayer
370
18
48
1
60
0
100
AcDbEllipse
10
28.411941
20
21.875465
30
0
11
-4.60348651607349
21
-3.18394601548786
31
0
210
0
220
0
230
1
40
0.714389
41
-3.13614006881298
42
-2.44645526284853
0
ELLIPSE
5
16C
100
AcDbEntity
8
1
62
256
6
ByLayer
370
18
48
1
60
0
100
AcDbEllipse
10
-1.056258
20
0
30
0
11
-11.7092723497277
21
24.677186440938
31
0
210
0
220
0
230
1
40
0.341999
41
-2.97437958168082
42
-2.05975995310053
0
ELLIPSE
5
16D
100
AcDbEntity
8
1
62
256
6
ByLayer
370
18
48
1
60
0
100
AcDbEllipse
10
17.329058
20
18.748852
30
0
11
-0.0227270275735793
21
-2.7759517111622
31
0
210
0
220
0
230
1
40
0.080275
41
2.77414710362921
42
-0.818993975386429
0
ELLIPSE
5
16E
100
AcDbEntity
8
1
62
256
6
ByLayer
370
18
48
1
60
0
100
AcDbEllipse
10
18.187217
20
0
30
0
11
1.53075794227798E-15
21
25.0000000000001
31
0
210
0
220
0
230
1
40
0.087489
41
0.353363115402329
42
2.78822953818746
0
ELLIPSE
5
16F
100
AcDbEntity
8
1
62
256
6
ByLayer
370
18
48
1
60
0
100
AcDbEllipse
10
10
20
15.807097
30
0
11
-1.88518478425317
21
-3.17407998039186
31
0
210
0
220
0
230
1
40
0.21042
41
2.4746004255167
42
3.12761235856862
0
ELLIPSE
5
170
100
AcDbEntity
8
1
62
256
6
ByLayer
370
18
48
1
60
0
100
AcDbEllipse
10
-1.056258
20
0
30
0
11
-11.709272349727
21
-24.677186440937
31
0
210
0
220
0
230
1
40
0.341999
41
2.0597599531005
42
2.97437958168081
0
ELLIPSE
5
171
100
AcDbEntity
8
1
62
256
6
ByLayer
370
18
48
1
60
0
100
AcDbEllipse
10
10
20
15.807097
30
0
11
-1.88518478424619
21
3.17407998038192
31
0
210
0
220
0
230
1
40
0.21042
41
0.0139802950212204
42
0.666992228074263
0
ELLIPSE
5
172
100
AcDbEntity
8
1
62
256
6
ByLayer
370
18
48
1
60
0
100
AcDbEllipse
10
10
20
18.309067
30
0
11
-2.00000000000004
21
2.02127811016477E-15
31
0
210
0
220
0
230
1
40
0.716939
41
0.751504621492338
42
2.39008803209746
0
ELLIPSE
5
173
100
AcDbEntity
8
1
62
256
6
ByLayer
370
18
48
1
60
0
100
AcDbEllipse
10
21.056258
20
0
30
0
11
-11.7092723497278
21
-24.6771864409381
31
0
210
0
220
0
230
1
40
0.341999
41
-1.08183270048926
42
-0.167213071908978
0
ELLIPSE
5
174
100
AcDbEntity
8
1
62
256
6
ByLayer
370
18
48
1
60
0
100
AcDbEllipse
10
48.291354
20
27.435659
30
0
11
-0.666082781800882
21
2.70513170653929
31
0
210
0
220
0
230
1
40
0.533007
41
0.667259966359545
42
1.00959045133855
0
ELLIPSE
5
175
100
AcDbEntity
8
1
62
256
6
ByLayer
370
18
48
1
60
0
100
AcDbEllipse
10
22.494172
20
64.852384
30
0
11
-7.02934607980386E-15
21
-38.2672415935297
31
0
210
0
220
0
230
1
40
0.104528
41
-0.20472750483317
42
-0.104149827605797
0
ELLIPSE
5
176
100
AcDbEntity
8
1
62
256
6
ByLayer
370
18
48
1
60
0
100
AcDbEllipse
10
21.056258
20
0
30
0
11
-11.7092723497275
21
24.6771864409378
31
0
210
0
220
0
230
1
40
0.341999
41
0.167213071908977
42
1.08183270048926
0
ELLIPSE
5
177
100
AcDbEntity
8
1
62
256
6
ByLayer
370
18
48
1
60
0
100
AcDbEllipse
10
59.210551
20
34.210551
30
0
11
-0.561266007568108
21
0.561266007565537
31
0
210
0
220
0
230
1
40
0.989133
41
-2.44346095279198
42
-0.698131700797714
0
ELLIPSE
5
178
100
AcDbEntity
8
1
62
256
6
ByLayer
370
18
48
1
60
0
100
AcDbEllipse
10
58.293514
20
23.035984
30
0
11
-0.561266007568108
21
0.561266007565537
31
0
210
0
220
0
230
1
40
0.989133
41
2.44346095279211
42
-2.44346095279201
0
ELLIPSE
5
179
100
AcDbEntity
8
1
62
256
6
ByLayer
370
18
48
1
60
0
100
AcDbEllipse
10
48.035984
20
33.293514
30
0
11
-0.561266007568108
21
0.561266007565537
31
0
210
0
220
0
230
1
40
0.989133
41
-0.698131700797688
42
0.698131700797764
0
ELLIPSE
5
17A
100
AcDbEntity
8
1
62
256
6
ByLayer
370
18
48
1
60
0
100
AcDbEllipse
10
56.289769
20
29.234314
30
0
11
-1.49847459157265
21
1.63003079786439
31
0
210
0
220
0
230
1
40
0.652432
41
2.74303571549622
42
-2.51919203123598
0
ELLIPSE
5
17B
100
AcDbEntity
8
1
62
256
6
ByLayer
370
18
48
1
60
0
100
AcDbEllipse
10
53.6517
20
28.504354
30
0
11
-3.18198051534675
21
3.18198051533218
31
0
210
0
220
0
230
1
40
0.989133
41
-2.87979326579064
42
-2.35619449019235
0
ELLIPSE
5
17C
100
AcDbEntity
8
1
62
256
6
ByLayer
370
18
48
1
60
0
100
AcDbEllipse
10
49.233913
20
29.271633
30
0
11
-8.77928482741935
21
0.377181017513334
31
0
210
0
220
0
230
1
40
0.731858
41
2.1563351793681
42
2.21990583893494
0
ELLIPSE
5
17D
100
AcDbEntity
8
1
62
256
6
ByLayer
370
18
48
1
60
0
100
AcDbEllipse
10
54.005169
20
28.857824
30
0
11
2.30693672462581
21
-2.30693672461524
31
0
210
0
220
0
230
1
40
0.989133
41
0.78539816339745
42
2.00712863979348
0
ELLIPSE
5
17E
100
AcDbEntity
8
1
62
256
6
ByLayer
370
18
48
1
60
0
100
AcDbEllipse
10
54.005169
20
28.857824
30
0
11
-2.53778696600816
21
2.53778696599653
31
0
210
0
220
0
230
1
40
0.989133
41
-0.70462973775597
42
-0.610865238198015
0
ELLIPSE
5
17F
100
AcDbEntity
8
1
62
256
6
ByLayer
370
18
48
1
60
0
100
AcDbEllipse
10
54.005169
20
28.857824
30
0
11
-2.53778696600816
21
2.53778696599653
31
0
210
0
220
0
230
1
40
0.989133
41
-2.87979326579064
42
-2.78602876623268
0
ELLIPSE
5
180
100
AcDbEntity
8
1
62
256
6
ByLayer
370
18
48
1
60
0
100
AcDbEllipse
10
53.6517
20
28.504354
30
0
11
-3.18198051534675
21
3.18198051533218
31
0
210
0
220
0
230
1
40
0.989133
41
-1.13446401379631
42
-0.610865238198011
0
ELLIPSE
5
181
100
AcDbEntity
8
1
62
256
6
ByLayer
370
18
48
1
60
0
100
AcDbEllipse
10
55.03135
20
31.024429
30
0
11
-1.15902115055713
21
1.55495811739344
31
0
210
0
220
0
230
1
40
0.75312
41
-0.858053350820807
42
0.162904209625391
0
ELLIPSE
5
182
100
AcDbEntity
8
1
62
256
6
ByLayer
370
18
48
1
60
0
100
AcDbEllipse
10
53.122884
20
23.739524
30
0
11
-1.49844311916083
21
-9.06767817845259
31
0
210
0
220
0
230
1
40
0.721982
41
-2.34099386650185
42
-2.27742320714693
0
ELLIPSE
5
183
100
AcDbEntity
8
1
62
256
6
ByLayer
370
18
48
1
60
0
100
AcDbEllipse
10
53.518218
20
28.518218
30
0
11
2.37173880783045
21
-2.37173880781959
31
0
210
0
220
0
230
1
40
0.989133
41
0.200712863979352
42
2.59181393921158
0
ELLIPSE
5
184
100
AcDbEntity
8
1
62
256
6
ByLayer
370
18
48
1
60
0
100
AcDbEllipse
10
53.6517
20
28.504354
30
0
11
-3.18198051534675
21
3.18198051533218
31
0
210
0
220
0
230
1
40
0.989133
41
-2.35619449019235
42
-1.13446401379631
0
POINT
5
6C
100
AcDbEntity
8
2
62
256
6
ByLayer
370
18
48
1
60
0
100
AcDbPoint
10
60
20
35
30
0
39
0
210
0
220
0
230
1
50
360
0
POINT
5
6E
100
AcDbEntity
8
80
62
256
6
ByLayer
370
18
48
1
60
0
100
AcDbPoint
10
0
20
0
30
0
39
0
210
0
220
0
230
1
50
360
0
POINT
5
70
100
AcDbEntity
8
81
62
256
6
ByLayer
370
18
48
1
60
0
100
AcDbPoint
10
60
20
35
30
0
39
0
210
0
220
0
230
1
50
360
0
SPLINE
5
185
100
AcDbEntity
8
SK1
62
256
6
ByLayer
370
18
48
1
60
0
100
AcDbSpline
70
4
71
3
72
13
73
9
40
0
40
0
40
0
40
0
40
0.239456135733551
40
0.368359721896995
40
0.499998983985648
40
0.631638415256368
40
0.760542467762615
40
1
40
1
40
1
40
1
41
1
10
-2.19999999999999
20
-17.520098551796
30
0
41
1
10
-2.19909198642199
20
-17.4940410756898
30
0
41
1
10
-2.19103284106862
20
-17.4566684913667
30
0
41
1
10
-2.16563592203255
20
-17.4104493175479
30
0
41
1
10
-2.13886378679174
20
-17.3791677636994
30
0
41
1
10
-2.106277127498
20
-17.3540003935063
30
0
41
1
10
-2.05884064234166
20
-17.3309565910454
30
0
41
1
10
-2.02111030873061
20
-17.3247843360228
30
0
41
1
10
-1.99503997793928
20
-17.3251859759625
30
0
0
SPLINE
5
186
100
AcDbEntity
8
SK1
62
256
6
ByLayer
370
18
48
1
60
0
100
AcDbSpline
70
4
71
3
72
13
73
9
40
0
40
0
40
0
40
0
40
0.2394575322828
40
0.368361584804615
40
0.500001016081333
40
0.631640278164845
40
0.760543864313148
40
1
40
1
40
1
40
1
41
1
10
-1.99503997793928
20
17.3251861589552
30
0
41
1
10
-2.02111030872965
20
17.324784519015
30
0
41
1
10
-2.05884064233982
20
17.3309567740351
30
0
41
1
10
-2.10627712749664
20
17.3540005764861
30
0
41
1
10
-2.13886378679047
20
17.3791679466684
30
0
41
1
10
-2.16563592203158
20
17.4104495005037
30
0
41
1
10
-2.19103284106788
20
17.4566686743027
30
0
41
1
10
-2.19909198642125
20
17.4940412586114
30
0
41
1
10
-2.19999999999999
20
17.5200987347078
30
0
0
SPLINE
5
187
100
AcDbEntity
8
SK1
62
256
6
ByLayer
370
18
48
1
60
0
100
AcDbSpline
70
4
71
2
72
6
73
3
40
0
40
0
40
0
40
1
40
1
40
1
41
1
10
-28.5
20
-16.8542724489282
30
0
41
1
10
-15.3499999999286
20
-17.1845422635703
30
0
41
1
10
-2.19999999999999
20
-17.5148116792767
30
0
0
SPLINE
5
188
100
AcDbEntity
8
SK1
62
256
6
ByLayer
370
18
48
1
60
0
100
AcDbSpline
70
4
71
2
72
6
73
3
40
0
40
0
40
0
40
1
40
1
40
1
41
1
10
-2.19999999999999
20
17.5148117187522
30
0
41
1
10
-15.3499999999294
20
17.1845422725478
30
0
41
1
10
-28.5
20
16.854272429841
30
0
0
SPLINE
5
189
100
AcDbEntity
8
SK1
62
256
6
ByLayer
370
18
48
1
60
0
100
AcDbSpline
70
4
71
2
72
6
73
3
40
0
40
0
40
0
40
1
40
1
40
1
41
1
10
-1.99503997793928
20
-17.3199593099743
30
0
41
1
10
-1.19500843340703
20
-17.340052552406
30
0
41
1
10
-0.394976888875277
20
-17.3601457933935
30
0
0
SPLINE
5
18A
100
AcDbEntity
8
SK1
62
256
6
ByLayer
370
18
48
1
60
0
100
AcDbSpline
70
4
71
2
72
6
73
3
40
0
40
0
40
0
40
1
40
1
40
1
41
1
10
-0.394976888875277
20
17.3601458189993
30
0
41
1
10
-1.19500843340703
20
17.3400525762132
30
0
41
1
10
-1.99503997793928
20
17.3199593319919
30
0
0
SPLINE
5
18B
100
AcDbEntity
8
SK1
62
256
6
ByLayer
370
18
48
1
60
0
100
AcDbSpline
70
4
71
2
72
6
73
3
40
0
40
0
40
0
40
1
40
1
40
1
41
1
10
-30
20
-15.9924794145163
30
0
41
1
10
-29.2499999991495
20
-16.4254650261933
30
0
41
1
10
-28.5
20
-16.8584504491481
30
0
0
SPLINE
5
18C
100
AcDbEntity
8
SK1
62
256
6
ByLayer
370
18
48
1
60
0
100
AcDbSpline
70
4
71
2
72
6
73
3
40
0
40
0
40
0
40
1
40
1
40
1
41
1
10
-28.5
20
16.8584505716142
30
0
41
1
10
-29.2499999991495
20
16.4254651505507
30
0
41
1
10
-30
20
15.99247954079
30
0
0
SPLINE
5
18D
100
AcDbEntity
8
SK1
62
256
6
ByLayer
370
18
48
1
60
0
100
AcDbSpline
70
4
71
2
72
6
73
3
40
0
40
0
40
0
40
1
40
1
40
1
41
1
10
-0.394976888875277
20
-17.359696795897
30
0
41
1
10
-0.305277226309727
20
-17.3671842624703
30
0
41
1
10
-0.258658740615658
20
-17.4310145299902
30
0
0
SPLINE
5
18E
100
AcDbEntity
8
SK1
62
256
6
ByLayer
370
18
48
1
60
0
100
AcDbSpline
70
4
71
2
72
6
73
3
40
0
40
0
40
0
40
1
40
1
40
1
41
1
10
-0.258442643302431
20
17.4312381196178
30
0
41
1
10
-0.305123774552612
20
17.3672404580573
30
0
41
1
10
-0.394976888875277
20
17.3596982935394
30
0
0
SPLINE
5
18F
100
AcDbEntity
8
1
62
256
6
ByLayer
370
18
48
1
60
0
100
AcDbSpline
70
4
71
3
72
8
73
4
40
0
40
0
40
0
40
0
40
1
40
1
40
1
40
1
41
1
10
39.2443350709564
20
10.0977974706987
30
0
41
1
10
39.4688994813281
20
10.1370305005891
30
0
41
1
10
39.6821958096593
20
10.1972986119561
30
0
41
1
10
39.883309677524
20
10.2721032886706
30
0
0
SPLINE
5
190
100
AcDbEntity
8
1
62
256
6
ByLayer
370
18
48
1
60
0
100
AcDbSpline
70
4
71
3
72
8
73
4
40
0
40
0
40
0
40
0
40
1
40
1
40
1
40
1
41
1
10
31.4416008320142
20
21.1972835077692
30
0
41
1
10
31.5518066058823
20
21.3991756854043
30
0
41
1
10
31.6775583567506
20
21.5839591271454
30
0
41
1
10
31.8124856233133
20
21.7528977991349
30
0
0
SPLINE
5
191
100
AcDbEntity
8
SK1
62
256
6
ByLayer
370
18
48
1
60
0
100
AcDbSpline
70
4
71
3
72
282
73
278
40
0
40
0
40
0
40
0
40
0.0031455746014339
40
0.0067200662632684
40
0.0102945579251028
40
0.0138690495869372
40
0.0174435412487717
40
0.0210180329106061
40
0.0245925245724405
40
0.028167016234275
40
0.0317415078961094
40
0.0353159995579438
40
0.0424649828816127
40
0.0460394745434471
40
0.0496139662052816
40
0.053188457867116
40
0.0567629495289504
40
0.0639119328526193
40
0.0674864245144537
40
0.0710609161762882
40
0.078209899499957
40
0.0817843911617915
40
0.0853588828236259
40
0.0925078661472948
40
0.0960823578091292
40
0.0996568494709636
40
0.103231341132798
40
0.106805832794633
40
0.110380324456467
40
0.113954816118301
40
0.117529307780136
40
0.12110379944197
40
0.128252782765639
40
0.131827274427473
40
0.135401766089308
40
0.138976257751142
40
0.142550749412977
40
0.149699732736646
40
0.15327422439848
40
0.156848716060315
40
0.160423207722149
40
0.163997699383983
40
0.171146682707652
40
0.174721174369487
40
0.178295666031321
40
0.181870157693156
40
0.18544464935499
40
0.192593632678659
40
0.196168124340493
40
0.199742616002328
40
0.203317107664162
40
0.206891599325997
40
0.214040582649665
40
0.2176150743115
40
0.221189565973334
40
0.224764057635169
40
0.228338549297003
40
0.235487532620672
40
0.239062024282507
40
0.242636515944341
40
0.246211007606175
40
0.24978549926801
40
0.256934482591679
40
0.260508974253513
40
0.264083465915347
40
0.271232449239016
40
0.278381432562685
40
0.28195592422452
40
0.285530415886354
40
0.292679399210023
40
0.296253890871857
40
0.299828382533692
40
0.303402874195526
40
0.306977365857361
40
0.310551857519195
40
0.31412634918103
40
0.321275332504698
40
0.328424315828367
40
0.331998807490202
40
0.335573299152036
40
0.339147790813871
40
0.342722282475705
40
0.34629677413754
40
0.349871265799374
40
0.357020249123043
40
0.364169232446712
40
0.37131821577038
40
0.374892707432215
40
0.378467199094049
40
0.382041690755884
40
0.385616182417718
40
0.389190674079553
40
0.392765165741387
40
0.396339657403222
40
0.399914149065056
40
0.40348864072689
40
0.407063132388725
40
0.410637624050559
40
0.414212115712394
40
0.417786607374228
40
0.421361099036063
40
0.424935590697897
40
0.428510082359731
40
0.432084574021566
40
0.433871819852483
40
0.4356590656834
40
0.437446311514318
40
0.439233557345235
40
0.442808049007069
40
0.446382540668903
40
0.448169786499821
40
0.449957032330738
40
0.451744278161655
40
0.453531523992572
40
0.45531876982349
40
0.457106015654407
40
0.460680507316241
40
0.462467753147158
40
0.464254998978076
40
0.466042244808993
40
0.46782949063991
40
0.469616736470827
40
0.471403982301745
40
0.473191228132662
40
0.474978473963579
40
0.476765719794496
40
0.478552965625413
40
0.480340211456331
40
0.482127457287248
40
0.483914703118165
40
0.485701948949082
40
0.48748919478
40
0.489276440610917
40
0.491063686441834
40
0.492850932272751
40
0.494638178103668
40
0.496425423934586
40
0.498212669765503
40
0.49999991559642
40
0.501787161427337
40
0.503574407258255
40
0.505361653089172
40
0.507148898920089
40
0.508936144751006
40
0.510723390581923
40
0.512510636412841
40
0.514297882243758
40
0.516085128074675
40
0.517872373905592
40
0.519659619736509
40
0.521446865567427
40
0.523234111398344
40
0.525021357229261
40
0.526808603060178
40
0.528595848891095
40
0.530383094722013
40
0.53217034055293
40
0.533957586383847
40
0.535744832214764
40
0.537532078045682
40
0.539319323876599
40
0.541106569707516
40
0.542893815538433
40
0.54468106136935
40
0.546468307200268
40
0.550042798862102
40
0.551830044693019
40
0.553617290523936
40
0.557191782185771
40
0.560766273847605
40
0.562553519678523
40
0.56434076550944
40
0.566128011340357
40
0.567915257171274
40
0.571489748833109
40
0.575064240494943
40
0.578638732156778
40
0.582213223818612
40
0.585787715480446
40
0.589362207142281
40
0.592936698804115
40
0.59651119046595
40
0.600085682127784
40
0.603660173789619
40
0.607234665451453
40
0.610809157113287
40
0.614383648775122
40
0.617958140436956
40
0.621532632098791
40
0.625107123760625
40
0.62868161542246
40
0.635830598746128
40
0.642979582069797
40
0.650128565393466
40
0.653703057055301
40
0.657277548717135
40
0.66085204037897
40
0.664426532040804
40
0.668001023702638
40
0.671575515364473
40
0.678724498688142
40
0.685873482011811
40
0.689447973673645
40
0.693022465335479
40
0.696596956997314
40
0.700171448659148
40
0.703745940320983
40
0.707320431982817
40
0.714469415306486
40
0.71804390696832
40
0.721618398630155
40
0.728767381953824
40
0.735916365277493
40
0.739490856939327
40
0.743065348601161
40
0.75021433192483
40
0.753788823586665
40
0.757363315248499
40
0.760937806910334
40
0.764512298572168
40
0.771661281895837
40
0.775235773557671
40
0.778810265219506
40
0.78238475688134
40
0.785959248543175
40
0.793108231866843
40
0.796682723528678
40
0.800257215190512
40
0.803831706852347
40
0.807406198514181
40
0.81455518183785
40
0.818129673499684
40
0.821704165161519
40
0.825278656823353
40
0.828853148485188
40
0.836002131808857
40
0.839576623470691
40
0.843151115132526
40
0.844938360963443
40
0.84672560679436
40
0.850300098456194
40
0.857449081779863
40
0.861023573441698
40
0.864598065103532
40
0.868172556765367
40
0.871747048427201
40
0.87889603175087
40
0.882470523412704
40
0.886045015074539
40
0.889619506736373
40
0.893193998398208
40
0.896768490060042
40
0.900342981721877
40
0.903917473383711
40
0.907491965045545
40
0.914640948369214
40
0.918215440031049
40
0.921789931692883
40
0.928938915016552
40
0.932513406678386
40
0.936087898340221
40
0.94323688166389
40
0.946811373325724
40
0.950385864987559
40
0.953960356649393
40
0.957534848311227
40
0.964683831634896
40
0.968258323296731
40
0.971832814958565
40
0.9754073066204
40
0.978981798282234
40
0.982556289944068
40
0.986130781605903
40
0.989705273267737
40
0.993279764929572
40
0.996854256591406
40
1
40
1
40
1
40
1
41
1
10
-2.19999999999999
20
17.5147448834715
30
0
41
1
10
-2.19999999999996
20
17.5132050170197
30
0
41
1
10
-2.20000000000002
20
17.509214319098
30
0
41
1
10
-2.19999999999999
20
17.5008423359265
30
0
41
1
10
-2.19999999999999
20
17.4896606050755
30
0
41
1
10
-2.19999999999999
20
17.4760589345483
30
0
41
1
10
-2.19999999999999
20
17.4600756660116
30
0
41
1
10
-2.19999999999999
20
17.4417480829298
30
0
41
1
10
-2.19999999999999
20
17.4211116708093
30
0
41
1
10
-2.19999999999999
20
17.3981999720817
30
0
41
1
10
-2.19999999999999
20
17.373046254225
30
0
41
1
10
-2.19999999999999
20
17.3365615480365
30
0
41
1
10
-2.19999999999999
20
17.2957083393221
30
0
41
1
10
-2.19999999999999
20
17.2506132986913
30
0
41
1
10
-2.19999999999999
20
17.2146924230801
30
0
41
1
10
-2.19999999999999
20
17.1766986759847
30
0
41
1
10
-2.19999999999999
20
17.1233138560685
30
0
41
1
10
-2.19999999999999
20
17.0658713749173
30
0
41
1
10
-2.19999999999999
20
17.0044820563696
30
0
41
1
10
-2.19999999999999
20
16.9404819965209
30
0
41
1
10
-2.19999999999999
20
16.8725984751516
30
0
41
1
10
-2.19999999999999
20
16.8009296734765
30
0
41
1
10
-2.19999999999999
20
16.72675615712
30
0
41
1
10
-2.19999999999999
20
16.6488472996884
30
0
41
1
10
-2.19999999999999
20
16.5672977573629
30
0
41
1
10
-2.19999999999999
20
16.5043209819811
30
0
41
1
10
-2.19999999999999
20
16.4395493732765
30
0
41
1
10
-2.19999999999999
20
16.3729983406747
30
0
41
1
10
-2.19999999999999
20
16.3046816133433
30
0
41
1
10
-2.19999999999999
20
16.2346146587631
30
0
41
1
10
-2.19999999999999
20
16.1628111167189
30
0
41
1
10
-2.19999999999999
20
16.0647793469533
30
0
41
1
10
-2.19999999999999
20
15.9633134995801
30
0
41
1
10
-2.19999999999999
20
15.8584913887799
30
0
41
1
10
-2.19999999999999
20
15.7781982427732
30
0
41
1
10
-2.19999999999999
20
15.6962433497342
30
0
41
1
10
-2.19999999999999
20
15.5847743861311
30
0
41
1
10
-2.19999999999999
20
15.4700110710185
30
0
41
1
10
-2.19999999999999
20
15.3520264687641
30
0
41
1
10
-2.19999999999999
20
15.2619258251736
30
0
41
1
10
-2.19999999999999
20
15.1702262286607
30
0
41
1
10
-2.19999999999999
20
15.0458463802595
30
0
41
1
10
-2.19999999999999
20
14.9182892137509
30
0
41
1
10
-2.19999999999999
20
14.7876243835494
30
0
41
1
10
-2.19999999999999
20
14.6880675684927
30
0
41
1
10
-2.19999999999999
20
14.5869647024964
30
0
41
1
10
-2.19999999999999
20
14.4501162009323
30
0
41
1
10
-2.19999999999999
20
14.310188578504
30
0
41
1
10
-2.19999999999999
20
14.1672492498436
30
0
41
1
10
-2.19999999999999
20
14.0585319196999
30
0
41
1
10
-2.19999999999999
20
13.9483131149779
30
0
41
1
10
-2.19999999999999
20
13.7993681823229
30
0
41
1
10
-2.19999999999999
20
13.6474264445925
30
0
41
1
10
-2.19999999999999
20
13.4925540283558
30
0
41
1
10
-2.19999999999999
20
13.3749248852381
30
0
41
1
10
-2.19999999999999
20
13.2558316845062
30
0
41
1
10
-2.19999999999999
20
13.0951031858018
30
0
41
1
10
-2.19999999999999
20
12.9314463879873
30
0
41
1
10
-2.19999999999999
20
12.7649271524075
30
0
41
1
10
-2.19999999999999
20
12.6385945304865
30
0
41
1
10
-2.19999999999999
20
12.510828990928
30
0
41
1
10
-2.19999999999999
20
12.3385783725546
30
0
41
1
10
-2.19999999999999
20
12.1634558634281
30
0
41
1
10
-2.19999999999999
20
11.9855279960913
30
0
41
1
10
-2.19999999999999
20
11.8057193844339
30
0
41
1
10
-2.19999999999999
20
11.5774197426994
30
0
41
1
10
-2.19999999999999
20
11.3444552561941
30
0
41
1
10
-2.19999999999999
20
11.1553144466797
30
0
41
1
10
-2.19999999999999
20
10.96432157968
30
0
41
1
10
-2.19999999999999
20
10.7705258372791
30
0
41
1
10
-2.19999999999999
20
10.5740001677826
30
0
41
1
10
-2.19999999999999
20
10.4252200954492
30
0
41
1
10
-2.19999999999999
20
10.2750653600417
30
0
41
1
10
-2.19999999999999
20
10.1235384488298
30
0
41
1
10
-2.19999999999999
20
9.97064122920807
30
0
41
1
10
-2.19999999999999
20
9.76496631801302
30
0
41
1
10
-2.19999999999999
20
9.50443392738597
30
0
41
1
10
-2.19999999999999
20
9.23936570098886
30
0
41
1
10
-2.19999999999999
20
9.02461799380217
30
0
41
1
10
-2.19999999999999
20
8.86219304475887
30
0
41
1
10
-2.19999999999999
20
8.69841428000512
30
0
41
1
10
-2.19999999999999
20
8.53328405958746
30
0
41
1
10
-2.19999999999999
20
8.36680339868337
30
0
41
1
10
-2.19999999999999
20
8.14304412571011
30
0
41
1
10
-2.19999999999999
20
7.85994707617317
30
0
41
1
10
-2.19999999999999
20
7.51487111531026
30
0
41
1
10
-2.19999999999999
20
7.22282329277962
30
0
41
1
10
-2.19999999999999
20
6.98653548716825
30
0
41
1
10
-2.19999999999999
20
6.80797157864473
30
0
41
1
10
-2.19999999999999
20
6.62807270531451
30
0
41
1
10
-2.19999999999999
20
6.44684086969582
30
0
41
1
10
-2.19999999999999
20
6.26427776637016
30
0
41
1
10
-2.19999999999999
20
6.0803858592752
30
0
41
1
10
-2.19999999999999
20
5.89516728223867
30
0
41
1
10
-2.19999999999999
20
5.70862469092603
30
0
41
1
10
-2.19999999999999
20
5.52076103085633
30
0
41
1
10
-2.19999999999999
20
5.33157993388585
30
0
41
1
10
-2.19999999999999
20
5.14108511996025
30
0
41
1
10
-2.19999999999999
20
4.94928086714648
30
0
41
1
10
-2.19999999999999
20
4.75617251627347
30
0
41
1
10
-2.19999999999999
20
4.56176620564526
30
0
41
1
10
-2.19999999999999
20
4.36606873641344
30
0
41
1
10
-2.19999999999999
20
4.16908849962459
30
0
41
1
10
-2.19999999999999
20
4.00386590607064
30
0
41
1
10
-2.19999999999999
20
3.87107810854147
30
0
41
1
10
-2.19999999999999
20
3.77116418570387
30
0
41
1
10
-2.19999999999999
20
3.67093805129474
30
0
41
1
10
-2.19999999999999
20
3.5369018254882
30
0
41
1
10
-2.19999999999999
20
3.36855658184018
30
0
41
1
10
-2.19999999999999
20
3.19919951970698
30
0
41
1
10
-2.19999999999999
20
3.06314133422208
30
0
41
1
10
-2.19999999999999
20
2.96079189341756
30
0
41
1
10
-2.19999999999999
20
2.85815023786418
30
0
41
1
10
-2.19999999999999
20
2.75522026664268
30
0
41
1
10
-2.19999999999999
20
2.65200561172494
30
0
41
1
10
-2.19999999999999
20
2.51402705629772
30
0
41
1
10
-2.19999999999999
20
2.375450816946
30
0
41
1
10
-2.19999999999999
20
2.23639085040648
30
0
41
1
10
-2.19999999999999
20
2.13182395998015
30
0
41
1
10
-2.19999999999999
20
2.02700348752293
30
0
41
1
10
-2.19999999999999
20
1.92193653735015
30
0
41
1
10
-2.19999999999999
20
1.81663008016324
30
0
41
1
10
-2.19999999999999
20
1.71109231328518
30
0
41
1
10
-2.19999999999999
20
1.60533155404698
30
0
41
1
10
-2.19999999999999
20
1.49935698477981
30
0
41
1
10
-2.19999999999999
20
1.39317847233161
30
0
41
1
10
-2.19999999999999
20
1.28680633401083
30
0
41
1
10
-2.19999999999999
20
1.18025197439016
30
0
41
1
10
-2.19999999999999
20
1.073527020087
30
0
41
1
10
-2.19999999999999
20
0.96664434311532
30
0
41
1
10
-2.19999999999999
20
0.859616995486334
30
0
41
1
10
-2.19999999999999
20
0.752459219961509
30
0
41
1
10
-2.19999999999999
20
0.645185453734172
30
0
41
1
10
-2.19999999999999
20
0.537811163545626
30
0
41
1
10
-2.19999999999999
20
0.430352024765995
30
0
41
1
10
-2.19999999999999
20
0.322824496958617
30
0
41
1
10
-2.19999999999999
20
0.215245213108545
30
0
41
1
10
-2.19999999999999
20
0.107631302158183
30
0
41
1
10
-2.19999999999999
20
-5.9909553E-09
30
0
41
1
10
-2.19999999999999
20
-0.107631313716837
30
0
41
1
10
-2.19999999999999
20
-0.21524522393176
30
0
41
1
10
-2.19999999999999
20
-0.322824507999513
30
0
41
1
10
-2.19999999999999
20
-0.430352036900842
30
0
41
1
10
-2.19999999999999
20
-0.537811175438549
30
0
41
1
10
-2.19999999999999
20
-0.645185463980482
30
0
41
1
10
-2.19999999999999
20
-0.752459230354134
30
0
41
1
10
-2.19999999999999
20
-0.859617007920519
30
0
41
1
10
-2.19999999999999
20
-0.966644355262389
30
0
41
1
10
-2.19999999999999
20
-1.07352702949097
30
0
41
1
10
-2.19999999999999
20
-1.18025198377217
30
0
41
1
10
-2.19999999999999
20
-1.2868063464968
30
0
41
1
10
-2.19999999999999
20
-1.39317848503856
30
0
41
1
10
-2.19999999999999
20
-1.49935699380708
30
0
41
1
10
-2.19999999999999
20
-1.60533156181745
30
0
41
1
10
-2.19999999999999
20
-1.71109232444707
30
0
41
1
10
-2.19999999999999
20
-1.81663009373557
30
0
41
1
10
-2.19999999999999
20
-1.92193654804359
30
0
41
1
10
-2.19999999999999
20
-2.02700349385552
30
0
41
1
10
-2.19999999999999
20
-2.13182396747069
30
0
41
1
10
-2.19999999999999
20
-2.23639086291988
30
0
41
1
10
-2.19999999999999
20
-2.34069812940876
30
0
41
1
10
-2.19999999999999
20
-2.44473977839391
30
0
41
1
10
-2.19999999999999
20
-2.54851063247165
30
0
41
1
10
-2.19999999999999
20
-2.65200559968281
30
0
41
1
10
-2.19999999999999
20
-2.78960994504098
30
0
41
1
10
-2.19999999999999
20
-2.92668912429065
30
0
41
1
10
-2.19999999999999
20
-3.06314133551615
30
0
41
1
10
-2.19999999999999
20
-3.19919952332836
30
0
41
1
10
-2.19999999999999
20
-3.36855659963138
30
0
41
1
10
-2.19999999999999
20
-3.53690183437428
30
0
41
1
10
-2.19999999999999
20
-3.67093805397229
30
0
41
1
10
-2.19999999999999
20
-3.77116418775421
30
0
41
1
10
-2.19999999999999
20
-3.87107811616198
30
0
41
1
10
-2.19999999999999
20
-4.00386592221614
30
0
41
1
10
-2.19999999999999
20
-4.169088511784
30
0
41
1
10
-2.19999999999999
20
-4.36606871643775
30
0
41
1
10
-2.19999999999999
20
-4.56176617271484
30
0
41
1
10
-2.19999999999999
20
-4.75617249379653
30
0
41
1
10
-2.19999999999999
20
-4.94928076863457
30
0
41
1
10
-2.19999999999999
20
-5.14108500618136
30
0
41
1
10
-2.19999999999999
20
-5.33157993903225
30
0
41
1
10
-2.19999999999999
20
-5.52076102284181
30
0
41
1
10
-2.19999999999999
20
-5.70862461825791
30
0
41
1
10
-2.19999999999999
20
-5.89516734859464
30
0
41
1
10
-2.19999999999999
20
-6.0803860968085
30
0
41
1
10
-2.19999999999999
20
-6.26427796235188
30
0
41
1
10
-2.19999999999999
20
-6.44684092947378
30
0
41
1
10
-2.19999999999999
20
-6.62807271786153
30
0
41
1
10
-2.19999999999999
20
-6.80797159432129
30
0
41
1
10
-2.19999999999999
20
-6.98653550324826
30
0
41
1
10
-2.19999999999999
20
-7.22282328452872
30
0
41
1
10
-2.19999999999999
20
-7.51487112820209
30
0
41
1
10
-2.19999999999999
20
-7.85994708827315
30
0
41
1
10
-2.19999999999999
20
-8.14304411844034
30
0
41
1
10
-2.19999999999999
20
-8.36680341033821
30
0
41
1
10
-2.19999999999999
20
-8.53328407858575
30
0
41
1
10
-2.19999999999999
20
-8.69841428877766
30
0
41
1
10
-2.19999999999999
20
-8.86219304073114
30
0
41
1
10
-2.19999999999999
20
-9.02461799205523
30
0
41
1
10
-2.19999999999999
20
-9.23936571773672
30
0
41
1
10
-2.19999999999999
20
-9.50443394039922
30
0
41
1
10
-2.19999999999999
20
-9.76496631110049
30
0
41
1
10
-2.19999999999999
20
-9.97064123613964
30
0
41
1
10
-2.19999999999999
20
-10.123538466054
30
0
41
1
10
-2.19999999999999
20
-10.2750653748105
30
0
41
1
10
-2.19999999999999
20
-10.4252201002359
30
0
41
1
10
-2.19999999999999
20
-10.5740001651574
30
0
41
1
10
-2.19999999999999
20
-10.7705258416001
30
0
41
1
10
-2.19999999999999
20
-10.9643215989582
30
0
41
1
10
-2.19999999999999
20
-11.1553144582602
30
0
41
1
10
-2.19999999999999
20
-11.3444552554371
30
0
41
1
10
-2.19999999999999
20
-11.5774197477568
30
0
41
1
10
-2.19999999999999
20
-11.8057194023465
30
0
41
1
10
-2.19999999999999
20
-11.9855280067157
30
0
41
1
10
-2.19999999999999
20
-12.1634558646821
30
0
41
1
10
-2.19999999999999
20
-12.3385783781737
30
0
41
1
10
-2.19999999999999
20
-12.510829004708
30
0
41
1
10
-2.19999999999999
20
-12.6385945454976
30
0
41
1
10
-2.19999999999999
20
-12.7649271637091
30
0
41
1
10
-2.19999999999999
20
-12.9314463925932
30
0
41
1
10
-2.19999999999999
20
-13.0951031927999
30
0
41
1
10
-2.19999999999999
20
-13.2558316973182
30
0
41
1
10
-2.19999999999999
20
-13.3749248996582
30
0
41
1
10
-2.19999999999999
20
-13.4925540411334
30
0
41
1
10
-2.19999999999999
20
-13.6474264531923
30
0
41
1
10
-2.19999999999999
20
-13.7993681905533
30
0
41
1
10
-2.19999999999999
20
-13.9483131264862
30
0
41
1
10
-2.19999999999999
20
-14.0585319334344
30
0
41
1
10
-2.19999999999999
20
-14.1672492642274
30
0
41
1
10
-2.19999999999999
20
-14.3101885914782
30
0
41
1
10
-2.19999999999999
20
-14.4501162106047
30
0
41
1
10
-2.19999999999999
20
-14.5869647126432
30
0
41
1
10
-2.19999999999999
20
-14.6880675812844
30
0
41
1
10
-2.19999999999999
20
-14.7876243995297
30
0
41
1
10
-2.19999999999999
20
-14.9182892218295
30
0
41
1
10
-2.19999999999999
20
-15.0458464314392
30
0
41
1
10
-2.19999999999999
20
-15.1702261509224
30
0
41
1
10
-2.19999999999999
20
-15.2466455133785
30
0
41
1
10
-2.19999999999999
20
-15.3069761679616
30
0
41
1
10
-2.19999999999999
20
-15.3667724139347
30
0
41
1
10
-2.19999999999999
20
-15.4700110929875
30
0
41
1
10
-2.19999999999999
20
-15.5847743990242
30
0
41
1
10
-2.19999999999999
20
-15.6962433571227
30
0
41
1
10
-2.19999999999999
20
-15.7781982539187
30
0
41
1
10
-2.19999999999999
20
-15.8584914079188
30
0
41
1
10
-2.19999999999999
20
-15.9633135259672
30
0
41
1
10
-2.19999999999999
20
-16.0647793597711
30
0
41
1
10
-2.19999999999999
20
-16.1628111223414
30
0
41
1
10
-2.19999999999999
20
-16.2346146707391
30
0
41
1
10
-2.19999999999999
20
-16.3046816359758
30
0
41
1
10
-2.19999999999999
20
-16.3729983688048
30
0
41
1
10
-2.19999999999999
20
-16.439549393056
30
0
41
1
10
-2.19999999999999
20
-16.5043209901434
30
0
41
1
10
-2.19999999999999
20
-16.5672977619412
30
0
41
1
10
-2.19999999999999
20
-16.6488473199257
30
0
41
1
10
-2.19999999999999
20
-16.7267561914694
30
0
41
1
10
-2.19999999999999
20
-16.8009296884544
30
0
41
1
10
-2.19999999999999
20
-16.8725984731112
30
0
41
1
10
-2.19999999999999
20
-16.9404820184079
30
0
41
1
10
-2.19999999999999
20
-17.0044820909957
30
0
41
1
10
-2.19999999999999
20
-17.0658713913631
30
0
41
1
10
-2.19999999999999
20
-17.123313852319
30
0
41
1
10
-2.19999999999999
20
-17.1766986986672
30
0
41
1
10
-2.19999999999999
20
-17.2146924603873
30
0
41
1
10
-2.19999999999999
20
-17.250613323192
30
0
41
1
10
-2.19999999999999
20
-17.2957083328928
30
0
41
1
10
-2.19999999999999
20
-17.3365615705832
30
0
41
1
10
-2.19999999999999
20
-17.3730462873428
30
0
41
1
10
-2.19999999999999
20
-17.398199993695
30
0
41
1
10
-2.19999999999999
20
-17.4211116738093
30
0
41
1
10
-2.19999999999999
20
-17.4417480876219
30
0
41
1
10
-2.19999999999999
20
-17.4600756994924
30
0
41
1
10
-2.19999999999999
20
-17.4760589706817
30
0
41
1
10
-2.19999999999999
20
-17.4896606126055
30
0
41
1
10
-2.19999999999999
20
-17.5008423321234
30
0
41
1
10
-2.19999999999999
20
-17.5092144762
30
0
41
1
10
-2.19999999999999
20
-17.5132052230982
30
0
41
1
10
-2.19999999999999
20
-17.5147451168513
30
0
0
SPLINE
5
192
100
AcDbEntity
8
SK1
62
256
6
ByLayer
370
18
48
1
60
0
100
AcDbSpline
70
4
71
3
72
287
73
283
40
0
40
0
40
0
40
0
40
0.0019139446197258
40
0.0054376836495242
40
0.0089614226793227
40
0.0124851617091212
40
0.0160089007389197
40
0.0195326397687182
40
0.0230563787985166
40
0.0265801178283151
40
0.0301038568581136
40
0.0336275958879121
40
0.0371513349177105
40
0.0441988129773075
40
0.0477225520071059
40
0.0512462910369044
40
0.0547700300667029
40
0.0582937690965014
40
0.0653412471560983
40
0.0688649861858968
40
0.0723887252156952
40
0.0794362032752922
40
0.0829599423050907
40
0.0864836813348892
40
0.0935311593944862
40
0.0970548984242847
40
0.100578637454083
40
0.104102376483882
40
0.10762611551368
40
0.111149854543479
40
0.114673593573277
40
0.118197332603075
40
0.121721071632874
40
0.128768549692471
40
0.132292288722269
40
0.135816027752068
40
0.139339766781866
40
0.142863505811665
40
0.149910983871262
40
0.15343472290106
40
0.156958461930859
40
0.160482200960657
40
0.164005939990456
40
0.171053418050053
40
0.174577157079851
40
0.17810089610965
40
0.181624635139448
40
0.185148374169247
40
0.192195852228844
40
0.195719591258642
40
0.19924333028844
40
0.202767069318239
40
0.206290808348037
40
0.213338286407634
40
0.216862025437433
40
0.220385764467231
40
0.22390950349703
40
0.227433242526828
40
0.234480720586425
40
0.238004459616224
40
0.241528198646022
40
0.245051937675821
40
0.248575676705619
40
0.255623154765216
40
0.259146893795014
40
0.262670632824813
40
0.26971811088441
40
0.276765588944007
40
0.280289327973805
40
0.283813067003604
40
0.290860545063201
40
0.294384284092999
40
0.297908023122798
40
0.301431762152596
40
0.304955501182395
40
0.308479240212193
40
0.312002979241992
40
0.319050457301589
40
0.326097935361185
40
0.329621674390984
40
0.333145413420782
40
0.336669152450581
40
0.340192891480379
40
0.343716630510178
40
0.347240369539976
40
0.354287847599573
40
0.36133532565917
40
0.368382803718767
40
0.371906542748566
40
0.375430281778364
40
0.378954020808163
40
0.382477759837961
40
0.386001498867759
40
0.389525237897558
40
0.393048976927357
40
0.396572715957155
40
0.400096454986954
40
0.403620194016752
40
0.40714393304655
40
0.410667672076349
40
0.414191411106147
40
0.417715150135946
40
0.421238889165744
40
0.424762628195543
40
0.428286367225341
40
0.430048236740241
40
0.43181010625514
40
0.433571975770039
40
0.435333845284938
40
0.438857584314737
40
0.442381323344535
40
0.444143192859434
40
0.445905062374334
40
0.447666931889233
40
0.449428801404132
40
0.451190670919031
40
0.452952540433931
40
0.456476279463729
40
0.458238148978628
40
0.460000018493528
40
0.461761888008427
40
0.463523757523326
40
0.465285627038225
40
0.467047496553124
40
0.468809366068024
40
0.470571235582923
40
0.472333105097822
40
0.474094974612721
40
0.475856844127621
40
0.47761871364252
40
0.479380583157419
40
0.481142452672318
40
0.482904322187218
40
0.484666191702117
40
0.486428061217016
40
0.488189930731915
40
0.489951800246815
40
0.491713669761714
40
0.493475539276613
40
0.495237408791512
40
0.496999278306412
40
0.498761147821311
40
0.50052301733621
40
0.502284886851109
40
0.504046756366008
40
0.505808625880908
40
0.507570495395807
40
0.509332364910706
40
0.511094234425605
40
0.512856103940505
40
0.514617973455404
40
0.516379842970303
40
0.518141712485202
40
0.519903582000102
40
0.521665451515001
40
0.5234273210299
40
0.525189190544799
40
0.526951060059698
40
0.528712929574598
40
0.530474799089497
40
0.532236668604396
40
0.533998538119295
40
0.535760407634195
40
0.537522277149094
40
0.539284146663993
40
0.541046016178892
40
0.544569755208691
40
0.54633162472359
40
0.54809349423849
40
0.551617233268288
40
0.555140972298086
40
0.556902841812985
40
0.558664711327885
40
0.560426580842784
40
0.562188450357683
40
0.565712189387482
40
0.56923592841728
40
0.572759667447079
40
0.576283406476877
40
0.579807145506675
40
0.583330884536474
40
0.586854623566272
40
0.590378362596071
40
0.59390210162587
40
0.597425840655668
40
0.600949579685466
40
0.604473318715265
40
0.607997057745063
40
0.611520796774862
40
0.61504453580466
40
0.618568274834459
40
0.622092013864257
40
0.629139491923854
40
0.636186969983451
40
0.643234448043048
40
0.646758187072846
40
0.650281926102645
40
0.653805665132444
40
0.657329404162242
40
0.660853143192041
40
0.664376882221839
40
0.671424360281436
40
0.678471838341033
40
0.681995577370831
40
0.68551931640063
40
0.689043055430428
40
0.692566794460227
40
0.696090533490025
40
0.699614272519824
40
0.706661750579421
40
0.710185489609219
40
0.713709228639018
40
0.720756706698615
40
0.727804184758211
40
0.73132792378801
40
0.734851662817808
40
0.741899140877405
40
0.745422879907204
40
0.748946618937002
40
0.752470357966801
40
0.755994096996599
40
0.763041575056196
40
0.766565314085995
40
0.770089053115793
40
0.773612792145592
40
0.77713653117539
40
0.784184009234987
40
0.787707748264786
40
0.791231487294584
40
0.794755226324382
40
0.798278965354181
40
0.805326443413778
40
0.808850182443576
40
0.812373921473375
40
0.815897660503173
40
0.819421399532972
40
0.826468877592569
40
0.829992616622367
40
0.833516355652166
40
0.835278225167065
40
0.837040094681964
40
0.840563833711763
40
0.84761131177136
40
0.851135050801158
40
0.854658789830956
40
0.858182528860755
40
0.861706267890553
40
0.868753745950151
40
0.872277484979949
40
0.875801224009748
40
0.879324963039546
40
0.882848702069344
40
0.886372441099143
40
0.889896180128941
40
0.89341991915874
40
0.896943658188538
40
0.903991136248135
40
0.907514875277934
40
0.911038614307732
40
0.918086092367329
40
0.921609831397128
40
0.925133570426926
40
0.932181048486523
40
0.935704787516321
40
0.93922852654612
40
0.942752265575918
40
0.946276004605717
40
0.953323482665314
40
0.956847221695112
40
0.960370960724911
40
0.963894699754709
40
0.967418438784508
40
0.970942177814306
40
0.974465916844105
40
0.977989655873903
40
0.981513394903702
40
0.9850371339335
40
0.988560872963299
40
0.992084611993097
40
0.995608351022896
40
0.999132090052694
40
1
40
1
40
1
40
1
41
1
10
-28.5
20
16.8570111555156
30
0
41
1
10
-28.5
20
16.8563913679757
30
0
41
1
10
-28.5
20
16.8542839989871
30
0
41
1
10
-28.5
20
16.8492032887544
30
0
41
1
10
-28.5
20
16.8407921788659
30
0
41
1
10
-28.5
20
16.8300011209595
30
0
41
1
10
-28.5
20
16.8168672741156
30
0
41
1
10
-28.5
20
16.8014255225769
30
0
41
1
10
-28.5
20
16.783709883521
30
0
41
1
10
-28.5
20
16.7637529731542
30
0
41
1
10
-28.5
20
16.7415855338906
30
0
41
1
10
-28.5
20
16.7172383450784
30
0
41
1
10
-28.5
20
16.6818353810987
30
0
41
1
10
-28.5
20
16.642411510514
30
0
41
1
10
-28.5
20
16.5986105790194
30
0
41
1
10
-28.5
20
16.5637763020887
30
0
41
1
10
-28.5
20
16.5269199075572
30
0
41
1
10
-28.5
20
16.4750169305147
30
0
41
1
10
-28.5
20
16.4194622625482
30
0
41
1
10
-28.5
20
16.3597331913305
30
0
41
1
10
-28.5
20
16.2974462059125
30
0
41
1
10
-28.5
20
16.2317181614777
30
0
41
1
10
-28.5
20
16.1619255301562
30
0
41
1
10
-28.5
20
16.0896767577218
30
0
41
1
10
-28.5
20
16.0141701499498
30
0
41
1
10
-28.5
20
15.9346970720351
30
0
41
1
10
-28.5
20
15.8734193498834
30
0
41
1
10
-28.5
20
15.8103844132608
30
0
41
1
10
-28.5
20
15.745608166167
30
0
41
1
10
-28.5
20
15.6791035033831
30
0
41
1
10
-28.5
20
15.6108850520675
30
0
41
1
10
-28.5
20
15.5409672008416
30
0
41
1
10
-28.5
20
15.4453363897878
30
0
41
1
10
-28.5
20
15.3468344295442
30
0
41
1
10
-28.5
20
15.2445501023872
30
0
41
1
10
-28.5
20
15.1663215412447
30
0
41
1
10
-28.5
20
15.0864673138636
30
0
41
1
10
-28.5
20
14.9776668598204
30
0
41
1
10
-28.5
20
14.8661866472663
30
0
41
1
10
-28.5
20
14.7510047173632
30
0
41
1
10
-28.5
20
14.6631805593238
30
0
41
1
10
-28.5
20
14.5737935545692
30
0
41
1
10
-28.5
20
14.4523474056541
30
0
41
1
10
-28.5
20
14.3283920102608
30
0
41
1
10
-28.5
20
14.2007962111626
30
0
41
1
10
-28.5
20
14.1037299196573
30
0
41
1
10
-28.5
20
14.0051547121626
30
0
41
1
10
-28.5
20
13.8715103774192
30
0
41
1
10
-28.5
20
13.7355116027341
30
0
41
1
10
-28.5
20
13.5959164295663
30
0
41
1
10
-28.5
20
13.4899116400767
30
0
41
1
10
-28.5
20
13.3824445287113
30
0
41
1
10
-28.5
20
13.2369867267196
30
0
41
1
10
-28.5
20
13.0893180063072
30
0
41
1
10
-28.5
20
12.9380809359595
30
0
41
1
10
-28.5
20
12.8234002792818
30
0
41
1
10
-28.5
20
12.7072977235968
30
0
41
1
10
-28.5
20
12.550359403554
30
0
41
1
10
-28.5
20
12.3913462445321
30
0
41
1
10
-28.5
20
12.2287775158425
30
0
41
1
10
-28.5
20
12.1056498288981
30
0
41
1
10
-28.5
20
11.9811355431936
30
0
41
1
10
-28.5
20
11.8130068133241
30
0
41
1
10
-28.5
20
11.642935768078
30
0
41
1
10
-28.5
20
11.4693068645233
30
0
41
1
10
-28.5
20
11.2938625434425
30
0
41
1
10
-28.5
20
11.0718089327865
30
0
41
1
10
-28.5
20
10.8452681360072
30
0
41
1
10
-28.5
20
10.6608198079832
30
0
41
1
10
-28.5
20
10.4745957683654
30
0
41
1
10
-28.5
20
10.2866518533399
30
0
41
1
10
-28.5
20
10.0951135357909
30
0
41
1
10
-28.5
20
9.9503895477591
30
0
41
1
10
-28.5
20
9.8043545776041
30
0
41
1
10
-28.5
20
9.65701503611822
30
0
41
1
10
-28.5
20
9.50837340526911
30
0
41
1
10
-28.5
20
9.30810992365679
30
0
41
1
10
-28.5
20
9.05534970701544
30
0
41
1
10
-28.5
20
8.79830464348922
30
0
41
1
10
-28.5
20
8.58944232029054
30
0
41
1
10
-28.5
20
8.43181572672981
30
0
41
1
10
-28.5
20
8.27292311790592
30
0
41
1
10
-28.5
20
8.11277014047184
30
0
41
1
10
-28.5
20
7.9513617118449
30
0
41
1
10
-28.5
20
7.73407184255308
30
0
41
1
10
-28.5
20
7.46030866767529
30
0
41
1
10
-28.5
20
7.12632140637373
30
0
41
1
10
-28.5
20
6.84437402550569
30
0
41
1
10
-28.5
20
6.61554359890371
30
0
41
1
10
-28.5
20
6.44309029411608
30
0
41
1
10
-28.5
20
6.26944364545889
30
0
41
1
10
-28.5
20
6.09461246091772
30
0
41
1
10
-28.5
20
5.91860523667609
30
0
41
1
10
-28.5
20
5.74143189937953
30
0
41
1
10
-28.5
20
5.56310357372001
30
0
41
1
10
-28.5
20
5.38363134733163
30
0
41
1
10
-28.5
20
5.20302692387261
30
0
41
1
10
-28.5
20
5.0213042232472
30
0
41
1
10
-28.5
20
4.83847919931264
30
0
41
1
10
-28.5
20
4.65456716028004
30
0
41
1
10
-28.5
20
4.46958486845949
30
0
41
1
10
-28.5
20
4.28355302808069
30
0
41
1
10
-28.5
20
4.09649275318182
30
0
41
1
10
-28.5
20
3.90842813226232
30
0
41
1
10
-28.5
20
3.75124940963565
30
0
41
1
10
-28.5
20
3.6243549796439
30
0
41
1
10
-28.5
20
3.52924315934183
30
0
41
1
10
-28.5
20
3.43390158445521
30
0
41
1
10
-28.5
20
3.30608717079298
30
0
41
1
10
-28.5
20
3.14669072023423
30
0
41
1
10
-28.5
20
2.9865693987912
30
0
41
1
10
-28.5
20
2.85729421649611
30
0
41
1
10
-28.5
20
2.76048089001324
30
0
41
1
10
-28.5
20
2.66347976206254
30
0
41
1
10
-28.5
20
2.56629526768592
30
0
41
1
10
-28.5
20
2.46893611478751
30
0
41
1
10
-28.5
20
2.33842740009587
30
0
41
1
10
-28.5
20
2.20905952740142
30
0
41
1
10
-28.5
20
2.07788039572898
30
0
41
1
10
-28.5
20
1.97974994874616
30
0
41
1
10
-28.5
20
1.88148715614122
30
0
41
1
10
-28.5
20
1.78310090101277
30
0
41
1
10
-28.5
20
1.68460072925305
30
0
41
1
10
-28.5
20
1.58599184128096
30
0
41
1
10
-28.5
20
1.48728649469356
30
0
41
1
10
-28.5
20
1.38848914320587
30
0
41
1
10
-28.5
20
1.28961139997082
30
0
41
1
10
-28.5
20
1.19065859360987
30
0
41
1
10
-28.5
20
1.09164071478048
30
0
41
1
10
-28.5
20
0.992564090788449
30
0
41
1
10
-28.5
20
0.893436923932512
30
0
41
1
10
-28.5
20
0.794265471937166
30
0
41
1
10
-28.5
20
0.695056741362833
30
0
41
1
10
-28.5
20
0.595816468507252
30
0
41
1
10
-28.5
20
0.49655061320999
30
0
41
1
10
-28.5
20
0.397263853181812
30
0
41
1
10
-28.5
20
0.297961366795107
30
0
41
1
10
-28.5
20
0.198647102840738
30
0
41
1
10
-28.5
20
0.0993254669347436
30
0
41
1
10
-28.5
20
5.4725149E-09
30
0
41
1
10
-28.5
20
-0.0993254684405827
30
0
41
1
10
-28.5
20
-0.198647127601248
30
0
41
1
10
-28.5
20
-0.297961388791691
30
0
41
1
10
-28.5
20
-0.397263840424017
30
0
41
1
10
-28.5
20
-0.496550594205559
30
0
41
1
10
-28.5
20
-0.595816495504096
30
0
41
1
10
-28.5
20
-0.695056784277028
30
0
41
1
10
-28.5
20
-0.794265459276176
30
0
41
1
10
-28.5
20
-0.89343688343348
30
0
41
1
10
-28.5
20
-0.992564112169902
30
0
41
1
10
-28.5
20
-1.0916407792042
30
0
41
1
10
-28.5
20
-1.19065859620264
30
0
41
1
10
-28.5
20
-1.28961134189751
30
0
41
1
10
-28.5
20
-1.38848913588993
30
0
41
1
10
-28.5
20
-1.48728656512978
30
0
41
1
10
-28.5
20
-1.58599188781932
30
0
41
1
10
-28.5
20
-1.6846006870125
30
0
41
1
10
-28.5
20
-1.78310084050699
30
0
41
1
10
-28.5
20
-1.88148718140701
30
0
41
1
10
-28.5
20
-1.9797500364362
30
0
41
1
10
-28.5
20
-2.0778804265363
30
0
41
1
10
-28.5
20
-2.17587292609082
30
0
41
1
10
-28.5
20
-2.27371679621319
30
0
41
1
10
-28.5
20
-2.37140757120352
30
0
41
1
10
-28.5
20
-2.46893613943033
30
0
41
1
10
-28.5
20
-2.59923374131699
30
0
41
1
10
-28.5
20
-2.72777279716706
30
0
41
1
10
-28.5
20
-2.8572942882393
30
0
41
1
10
-28.5
20
-2.98656948332388
30
0
41
1
10
-28.5
20
-3.14669074057869
30
0
41
1
10
-28.5
20
-3.30608709676798
30
0
41
1
10
-28.5
20
-3.43390157548936
30
0
41
1
10
-28.5
20
-3.52924322184191
30
0
41
1
10
-28.5
20
-3.62435506854831
30
0
41
1
10
-28.5
20
-3.75124942106058
30
0
41
1
10
-28.5
20
-3.90842799420625
30
0
41
1
10
-28.5
20
-4.09649259176146
30
0
41
1
10
-28.5
20
-4.28355297730505
30
0
41
1
10
-28.5
20
-4.4695846174555
30
0
41
1
10
-28.5
20
-4.65456683421039
30
0
41
1
10
-28.5
20
-4.83847943804494
30
0
41
1
10
-28.5
20
-5.0213044851898
30
0
41
1
10
-28.5
20
-5.2030267003301
30
0
41
1
10
-28.5
20
-5.38363156234237
30
0
41
1
10
-28.5
20
-5.56310445504442
30
0
41
1
10
-28.5
20
-5.74143237747984
30
0
41
1
10
-28.5
20
-5.91860495448572
30
0
41
1
10
-28.5
20
-6.09461208825527
30
0
41
1
10
-28.5
20
-6.26944357118299
30
0
41
1
10
-28.5
20
-6.4430903265563
30
0
41
1
10
-28.5
20
-6.61554357091572
30
0
41
1
10
-28.5
20
-6.84437400802861
30
0
41
1
10
-28.5
20
-7.12632144512301
30
0
41
1
10
-28.5
20
-7.46030865505762
30
0
41
1
10
-28.5
20
-7.73407184285279
30
0
41
1
10
-28.5
20
-7.95136176299604
30
0
41
1
10
-28.5
20
-8.11277014937085
30
0
41
1
10
-28.5
20
-8.27292308432649
30
0
41
1
10
-28.5
20
-8.43181570788789
30
0
41
1
10
-28.5
20
-8.5894423488798
30
0
41
1
10
-28.5
20
-8.79830467826932
30
0
41
1
10
-28.5
20
-9.05534969583792
30
0
41
1
10
-28.5
20
-9.30810991622684
30
0
41
1
10
-28.5
20
-9.50837344479851
30
0
41
1
10
-28.5
20
-9.65701506287493
30
0
41
1
10
-28.5
20
-9.80435457188474
30
0
41
1
10
-28.5
20
-9.95038952754788
30
0
41
1
10
-28.5
20
-10.095113531911
30
0
41
1
10
-28.5
20
-10.2866518813937
30
0
41
1
10
-28.5
20
-10.4745957936973
30
0
41
1
10
-28.5
20
-10.6608197986608
30
0
41
1
10
-28.5
20
-10.8452681286137
30
0
41
1
10
-28.5
20
-11.0718089525805
30
0
41
1
10
-28.5
20
-11.2938625632929
30
0
41
1
10
-28.5
20
-11.4693068596264
30
0
41
1
10
-28.5
20
-11.6429357656381
30
0
41
1
10
-28.5
20
-11.8130068303033
30
0
41
1
10
-28.5
20
-11.9811355648908
30
0
41
1
10
-28.5
20
-12.1056498404809
30
0
41
1
10
-28.5
20
-12.2287775174238
30
0
41
1
10
-28.5
20
-12.3913462461042
30
0
41
1
10
-28.5
20
-12.5503594172971
30
0
41
1
10
-28.5
20
-12.7072977423403
30
0
41
1
10
-28.5
20
-12.8234002933141
30
0
41
1
10
-28.5
20
-12.9380809438717
30
0
41
1
10
-28.5
20
-13.0893180117675
30
0
41
1
10
-28.5
20
-13.2369867372074
30
0
41
1
10
-28.5
20
-13.3824445445542
30
0
41
1
10
-28.5
20
-13.4899116562855
30
0
41
1
10
-28.5
20
-13.5959164434403
30
0
41
1
10
-28.5
20
-13.7355116125921
30
0
41
1
10
-28.5
20
-13.8715103854275
30
0
41
1
10
-28.5
20
-14.0051547249398
30
0
41
1
10
-28.5
20
-14.1037299370701
30
0
41
1
10
-28.5
20
-14.2007962250068
30
0
41
1
10
-28.5
20
-14.328392039309
30
0
41
1
10
-28.5
20
-14.4523474054459
30
0
41
1
10
-28.5
20
-14.5737935062701
30
0
41
1
10
-28.5
20
-14.6481896525931
30
0
41
1
10
-28.5
20
-14.7070919001429
30
0
41
1
10
-28.5
20
-14.7654709460418
30
0
41
1
10
-28.5
20
-14.8661866667289
30
0
41
1
10
-28.5
20
-14.9776668655465
30
0
41
1
10
-28.5
20
-15.0864673213159
30
0
41
1
10
-28.5
20
-15.1663215599361
30
0
41
1
10
-28.5
20
-15.2445501295776
30
0
41
1
10
-28.5
20
-15.3468344527491
30
0
41
1
10
-28.5
20
-15.4453363938053
30
0
41
1
10
-28.5
20
-15.5409672073329
30
0
41
1
10
-28.5
20
-15.6108850733398
30
0
41
1
10
-28.5
20
-15.679103534252
30
0
41
1
10
-28.5
20
-15.7456081924762
30
0
41
1
10
-28.5
20
-15.810384423087
30
0
41
1
10
-28.5
20
-15.8734193510279
30
0
41
1
10
-28.5
20
-15.9346970807191
30
0
41
1
10
-28.5
20
-16.0141701800502
30
0
41
1
10
-28.5
20
-16.0896767899468
30
0
41
1
10
-28.5
20
-16.1619255341458
30
0
41
1
10
-28.5
20
-16.2317181619347
30
0
41
1
10
-28.5
20
-16.2974462376793
30
0
41
1
10
-28.5
20
-16.3597332242326
30
0
41
1
10
-28.5
20
-16.4194622696319
30
0
41
1
10
-28.5
20
-16.4750169286961
30
0
41
1
10
-28.5
20
-16.5269199399481
30
0
41
1
10
-28.5
20
-16.5637763395248
30
0
41
1
10
-28.5
20
-16.5986105943247
30
0
41
1
10
-28.5
20
-16.642411504334
30
0
41
1
10
-28.5
20
-16.6818354096897
30
0
41
1
10
-28.5
20
-16.7172383773105
30
0
41
1
10
-28.5
20
-16.741585550229
30
0
41
1
10
-28.5
20
-16.7637529737167
30
0
41
1
10
-28.5
20
-16.7837098927271
30
0
41
1
10
-28.5
20
-16.8014255596809
30
0
41
1
10
-28.5
20
-16.816867307208
30
0
41
1
10
-28.5
20
-16.8300011251081
30
0
41
1
10
-28.5
20
-16.8407921763224
30
0
41
1
10
-28.5
20
-16.8492033090471
30
0
41
1
10
-28.5
20
-16.8551966659016
30
0
41
1
10
-28.5
20
-16.8587319423621
30
0
41
1
10
-28.5
20
-16.8597680746869
30
0
41
1
10
-28.5
20
-16.8586398949851
30
0
41
1
10
-28.5
20
-16.8573438877362
30
0
41
1
10
-28.5
20
-16.8570614729283
30
0
0
SPLINE
5
193
100
AcDbEntity
8
SK1
62
256
6
ByLayer
370
18
48
1
60
0
100
AcDbSpline
70
4
71
3
72
284
73
280
40
0
40
0
40
0
40
0
40
0.0001430961152122
40
0.0037135036212183
40
0.0072839111272243
40
0.0108543186332304
40
0.0144247261392365
40
0.0179951336452425
40
0.0215655411512486
40
0.0251359486572547
40
0.0287063561632607
40
0.0322767636692668
40
0.0358471711752729
40
0.042987986187285
40
0.0465583936932911
40
0.0501288011992971
40
0.0536992087053032
40
0.0572696162113093
40
0.0644104312233214
40
0.0679808387293275
40
0.0715512462353335
40
0.0786920612473457
40
0.0822624687533517
40
0.0858328762593578
40
0.0929736912713699
40
0.096544098777376
40
0.100114506283382
40
0.103684913789388
40
0.107255321295394
40
0.1108257288014
40
0.114396136307406
40
0.117966543813412
40
0.121536951319418
40
0.128677766331431
40
0.132248173837437
40
0.135818581343443
40
0.139388988849449
40
0.142959396355455
40
0.150100211367467
40
0.153670618873473
40
0.157241026379479
40
0.160811433885485
40
0.164381841391491
40
0.171522656403503
40
0.175093063909509
40
0.178663471415516
40
0.182233878921522
40
0.185804286427528
40
0.19294510143954
40
0.196515508945546
40
0.200085916451552
40
0.203656323957558
40
0.207226731463564
40
0.214367546475576
40
0.217937953981582
40
0.221508361487588
40
0.225078768993594
40
0.228649176499601
40
0.235789991511613
40
0.239360399017619
40
0.242930806523625
40
0.246501214029631
40
0.250071621535637
40
0.257212436547649
40
0.260782844053655
40
0.264353251559661
40
0.271494066571673
40
0.278634881583685
40
0.282205289089691
40
0.285775696595698
40
0.29291651160771
40
0.296486919113716
40
0.300057326619722
40
0.303627734125728
40
0.307198141631734
40
0.31076854913774
40
0.314338956643746
40
0.321479771655758
40
0.32862058666777
40
0.332190994173776
40
0.335761401679783
40
0.339331809185789
40
0.342902216691795
40
0.346472624197801
40
0.350043031703807
40
0.357183846715819
40
0.364324661727831
40
0.371465476739843
40
0.375035884245849
40
0.378606291751855
40
0.382176699257861
40
0.385747106763867
40
0.389317514269873
40
0.39288792177588
40
0.396458329281886
40
0.400028736787892
40
0.403599144293898
40
0.407169551799904
40
0.41073995930591
40
0.414310366811916
40
0.417880774317922
40
0.421451181823928
40
0.425021589329934
40
0.42859199683594
40
0.432162404341946
40
0.433947608094949
40
0.435732811847952
40
0.437518015600955
40
0.439303219353958
40
0.442873626859965
40
0.446444034365971
40
0.448229238118974
40
0.450014441871977
40
0.45179964562498
40
0.453584849377983
40
0.455370053130986
40
0.457155256883989
40
0.460725664389995
40
0.462510868142998
40
0.464296071896001
40
0.466081275649004
40
0.467866479402007
40
0.46965168315501
40
0.471436886908013
40
0.473222090661016
40
0.475007294414019
40
0.476792498167022
40
0.478577701920025
40
0.480362905673028
40
0.482148109426031
40
0.483933313179034
40
0.485718516932037
40
0.48750372068504
40
0.489288924438043
40
0.491074128191047
40
0.49285933194405
40
0.494644535697052
40
0.496429739450055
40
0.498214943203058
40
0.500000146956062
40
0.501785350709065
40
0.503570554462068
40
0.505355758215071
40
0.507140961968074
40
0.508926165721077
40
0.51071136947408
40
0.512496573227083
40
0.514281776980086
40
0.516066980733089
40
0.517852184486092
40
0.519637388239095
40
0.521422591992098
40
0.523207795745101
40
0.524992999498104
40
0.526778203251107
40
0.52856340700411
40
0.530348610757113
40
0.532133814510116
40
0.533919018263119
40
0.535704222016122
40
0.537489425769125
40
0.539274629522128
40
0.541059833275131
40
0.542845037028134
40
0.544630240781137
40
0.54641544453414
40
0.549985852040146
40
0.55177105579315
40
0.553556259546153
40
0.557126667052159
40
0.560697074558165
40
0.562482278311168
40
0.564267482064171
40
0.566052685817174
40
0.567837889570177
40
0.571408297076183
40
0.574978704582189
40
0.578549112088195
40
0.582119519594201
40
0.585689927100207
40
0.589260334606213
40
0.592830742112219
40
0.596401149618225
40
0.599971557124231
40
0.603541964630237
40
0.607112372136244
40
0.61068277964225
40
0.614253187148256
40
0.617823594654262
40
0.621394002160268
40
0.624964409666274
40
0.62853481717228
40
0.635675632184292
40
0.642816447196304
40
0.649957262208316
40
0.653527669714322
40
0.657098077220329
40
0.660668484726335
40
0.664238892232341
40
0.667809299738347
40
0.671379707244353
40
0.678520522256365
40
0.685661337268377
40
0.689231744774383
40
0.692802152280389
40
0.696372559786395
40
0.699942967292401
40
0.703513374798407
40
0.707083782304413
40
0.714224597316426
40
0.717795004822432
40
0.721365412328438
40
0.72850622734045
40
0.735647042352462
40
0.739217449858468
40
0.742787857364474
40
0.749928672376486
40
0.753499079882492
40
0.757069487388498
40
0.760639894894504
40
0.76421030240051
40
0.771351117412523
40
0.774921524918529
40
0.778491932424535
40
0.782062339930541
40
0.785632747436547
40
0.792773562448559
40
0.796343969954565
40
0.799914377460571
40
0.803484784966577
40
0.807055192472583
40
0.814196007484595
40
0.817766414990602
40
0.821336822496608
40
0.824907230002614
40
0.82847763750862
40
0.835618452520632
40
0.839188860026638
40
0.842759267532644
40
0.844544471285647
40
0.84632967503865
40
0.849900082544656
40
0.857040897556668
40
0.860611305062674
40
0.86418171256868
40
0.867752120074686
40
0.871322527580693
40
0.878463342592705
40
0.882033750098711
40
0.885604157604717
40
0.889174565110723
40
0.892744972616729
40
0.896315380122735
40
0.899885787628741
40
0.903456195134747
40
0.907026602640753
40
0.914167417652765
40
0.917737825158771
40
0.921308232664777
40
0.92844904767679
40
0.932019455182796
40
0.935589862688802
40
0.942730677700814
40
0.94630108520682
40
0.949871492712826
40
0.953441900218832
40
0.957012307724838
40
0.96415312273685
40
0.967723530242856
40
0.971293937748862
40
0.974864345254868
40
0.978434752760875
40
0.982005160266881
40
0.985575567772887
40
0.989145975278893
40
0.992716382784899
40
0.996286790290905
40
0.999857197796911
40
1
40
1
40
1
40
1
41
1
10
-1.99503997793928
20
17.3206892113023
30
0
41
1
10
-1.99503997793928
20
17.3206252191122
30
0
41
1
10
-1.99503997793928
20
17.3189470221883
30
0
41
1
10
-1.99503997793928
20
17.3147637003649
30
0
41
1
10
-1.99503997793928
20
17.3061342577567
30
0
41
1
10
-1.99503997793928
20
17.295067771448
30
0
41
1
10
-1.99503997793928
20
17.2816041041457
30
0
41
1
10
-1.99503997793928
20
17.2657805776118
30
0
41
1
10
-1.99503997793928
20
17.2476335117891
30
0
41
1
10
-1.99503997793928
20
17.2271975457697
30
0
41
1
10
-1.99503997793928
20
17.2045053960087
30
0
41
1
10
-1.99503997793928
20
17.1795895960111
30
0
41
1
10
-1.99503997793928
20
17.143423992764
30
0
41
1
10
-1.99503997793928
20
17.1029924242496
30
0
41
1
10
-1.99503997793928
20
17.0582791326422
30
0
41
1
10
-1.99503997793928
20
17.0226787925821
30
0
41
1
10
-1.99503997793928
20
16.9850205529168
30
0
41
1
10
-1.99503997793928
20
16.9320728615657
30
0
41
1
10
-1.99503997793928
20
16.8751872660894
30
0
41
1
10
-1.99503997793928
20
16.8142877036056
30
0
41
1
10
-1.99503997793928
20
16.7507929832779
30
0
41
1
10
-1.99503997793928
20
16.6835453056651
30
0
41
1
10
-1.99503997793928
20
16.6124299551482
30
0
41
1
10
-1.99503997793928
20
16.5388242186582
30
0
41
1
10
-1.99503997793928
20
16.4616240004255
30
0
41
1
10
-1.99503997793928
20
16.3806869939664
30
0
41
1
10
-1.99503997793928
20
16.3182114219941
30
0
41
1
10
-1.99503997793928
20
16.2539521138773
30
0
41
1
10
-1.99503997793928
20
16.1879246249361
30
0
41
1
10
-1.99503997793928
20
16.1201424382026
30
0
41
1
10
-1.99503997793928
20
16.0506207732709
30
0
41
1
10
-1.99503997793928
20
15.979373490825
30
0
41
1
10
-1.99503997793928
20
15.8820499794418
30
0
41
1
10
-1.99503997793928
20
15.7814584486047
30
0
41
1
10
-1.99503997793928
20
15.677384958149
30
0
41
1
10
-1.99503997793928
20
15.5977008436634
30
0
41
1
10
-1.99503997793928
20
15.5163656256123
30
0
41
1
10
-1.99503997793928
20
15.4056838451686
30
0
41
1
10
-1.99503997793928
20
15.2918890118945
30
0
41
1
10
-1.99503997793928
20
15.1747311694574
30
0
41
1
10
-1.99503997793928
20
15.0853020659337
30
0
41
1
10
-1.99503997793928
20
14.9942846604514
30
0
41
1
10
-1.99503997793928
20
14.8707702235387
30
0
41
1
10
-1.99503997793928
20
14.7442755428493
30
0
41
1
10
-1.99503997793928
20
14.6145160455858
30
0
41
1
10
-1.99503997793928
20
14.5156939096276
30
0
41
1
10
-1.99503997793928
20
14.4153366771621
30
0
41
1
10
-1.99503997793928
20
14.2794333721973
30
0
41
1
10
-1.99503997793928
20
14.1406647198644
30
0
41
1
10
-1.99503997793928
20
13.9987118830366
30
0
41
1
10
-1.99503997793928
20
13.8907947247769
30
0
41
1
10
-1.99503997793928
20
13.7813876415877
30
0
41
1
10
-1.99503997793928
20
13.6334713769854
30
0
41
1
10
-1.99503997793928
20
13.482790135872
30
0
41
1
10
-1.99503997793928
20
13.328990109671
30
0
41
1
10
-1.99503997793928
20
13.2122307400427
30
0
41
1
10
-1.99503997793928
20
13.09401974916
30
0
41
1
10
-1.99503997793928
20
12.9344093145834
30
0
41
1
10
-1.99503997793928
20
12.7721223429484
30
0
41
1
10
-1.99503997793928
20
12.606768466692
30
0
41
1
10
-1.99503997793928
20
12.4813812679684
30
0
41
1
10
-1.99503997793928
20
12.3545748152048
30
0
41
1
10
-1.99503997793928
20
12.1835401119863
30
0
41
1
10
-1.99503997793928
20
12.0099077332894
30
0
41
1
10
-1.99503997793928
20
11.8332480165124
30
0
41
1
10
-1.99503997793928
20
11.6547268261542
30
0
41
1
10
-1.99503997793928
20
11.4282697000141
30
0
41
1
10
-1.99503997793928
20
11.1972001365959
30
0
41
1
10
-1.99503997793928
20
11.00944356136
30
0
41
1
10
-1.99503997793928
20
10.8198574498995
30
0
41
1
10
-1.99503997793928
20
10.627787937013
30
0
41
1
10
-1.99503997793928
20
10.4327334855784
30
0
41
1
10
-1.99503997793928
20
10.2851499168301
30
0
41
1
10
-1.99503997793928
20
10.13621047024
30
0
41
1
10
-1.99503997793928
20
9.98591879047714
30
0
41
1
10
-1.99503997793928
20
9.83427692622885
30
0
41
1
10
-1.99503997793928
20
9.63019833168175
30
0
41
1
10
-1.99503997793928
20
9.37195865327328
30
0
41
1
10
-1.99503997793928
20
9.1092571782612
30
0
41
1
10
-1.99503997793928
20
8.89624559944801
30
0
41
1
10
-1.99503997793928
20
8.73523611643316
30
0
41
1
10
-1.99503997793928
20
8.57289871794615
30
0
41
1
10
-1.99503997793928
20
8.40923673354897
30
0
41
1
10
-1.99503997793928
20
8.24425232954013
30
0
41
1
10
-1.99503997793928
20
8.0224014648056
30
0
41
1
10
-1.99503997793928
20
7.7420578132905
30
0
41
1
10
-1.99503997793928
20
7.40025290593451
30
0
41
1
10
-1.99503997793928
20
7.11118461088941
30
0
41
1
10
-1.99503997793928
20
6.87709665618266
30
0
41
1
10
-1.99503997793928
20
6.70033531356589
30
0
41
1
10
-1.99503997793928
20
6.52228078287743
30
0
41
1
10
-1.99503997793928
20
6.3429370741791
30
0
41
1
10
-1.99503997793928
20
6.16230788845579
30
0
41
1
10
-1.99503997793928
20
5.98039789106801
30
0
41
1
10
-1.99503997793928
20
5.79721186805691
30
0
41
1
10
-1.99503997793928
20
5.61275496243289
30
0
41
1
10
-1.99503997793928
20
5.42703270327695
30
0
41
1
10
-1.99503997793928
20
5.24005175731475
30
0
41
1
10
-1.99503997793928
20
5.05181945337139
30
0
41
1
10
-1.99503997793928
20
4.86234332329403
30
0
41
1
10
-1.99503997793928
20
4.67163207713236
30
0
41
1
10
-1.99503997793928
20
4.47969614999016
30
0
41
1
10
-1.99503997793928
20
4.28654656517494
30
0
41
1
10
-1.99503997793928
20
4.09219634432211
30
0
41
1
10
-1.99503997793928
20
3.92934661081907
30
0
41
1
10
-1.99503997793928
20
3.7982972967292
30
0
41
1
10
-1.99503997793928
20
3.69979994526253
30
0
41
1
10
-1.99503997793928
20
3.6010147061962
30
0
41
1
10
-1.99503997793928
20
3.46881385164499
30
0
41
1
10
-1.99503997793928
20
3.30310841087518
30
0
41
1
10
-1.99503997793928
20
3.13647579824178
30
0
41
1
10
-1.99503997793928
20
3.00241852965871
30
0
41
1
10
-1.99503997793928
20
2.90170218623106
30
0
41
1
10
-1.99503997793928
20
2.80072442890969
30
0
41
1
10
-1.99503997793928
20
2.69948931487846
30
0
41
1
10
-1.99503997793928
20
2.5980019734576
30
0
41
1
10
-1.99503997793928
20
2.46222694501739
30
0
41
1
10
-1.99503997793928
20
2.3263670801044
30
0
41
1
10
-1.99503997793928
20
2.18963187963746
30
0
41
1
10
-1.99503997793928
20
2.08696367451518
30
0
41
1
10
-1.99503997793928
20
1.98407765086858
30
0
41
1
10
-1.99503997793928
20
1.88098143773604
30
0
41
1
10
-1.99503997793928
20
1.77768276547397
30
0
41
1
10
-1.99503997793928
20
1.67418894734925
30
0
41
1
10
-1.99503997793928
20
1.57050946303122
30
0
41
1
10
-1.99503997793928
20
1.46665209995737
30
0
41
1
10
-1.99503997793928
20
1.36262724011792
30
0
41
1
10
-1.99503997793928
20
1.25844372920938
30
0
41
1
10
-1.99503997793928
20
1.15411255471386
30
0
41
1
10
-1.99503997793928
20
1.04964378000579
30
0
41
1
10
-1.99503997793928
20
0.945048899580655
30
0
41
1
10
-1.99503997793928
20
0.840338961204225
30
0
41
1
10
-1.99503997793928
20
0.735526073032332
30
0
41
1
10
-1.99503997793928
20
0.630622105582688
30
0
41
1
10
-1.99503997793928
20
0.525639721157262
30
0
41
1
10
-1.99503997793928
20
0.420591350928703
30
0
41
1
10
-1.99503997793928
20
0.315490126623814
30
0
41
1
10
-1.99503997793928
20
0.210348939519435
30
0
41
1
10
-1.99503997793928
20
0.105181165306249
30
0
41
1
10
-1.99503997793928
20
-2.6093687E-09
30
0
41
1
10
-1.99503997793928
20
-0.10518117389941
30
0
41
1
10
-1.99503997793928
20
-0.21034895445402
30
0
41
1
10
-1.99503997793928
20
-0.315490140896543
30
0
41
1
10
-1.99503997793928
20
-0.420591355720489
30
0
41
1
10
-1.99503997793928
20
-0.525639723935797
30
0
41
1
10
-1.99503997793928
20
-0.630622120770227
30
0
41
1
10
-1.99503997793928
20
-0.735526093018507
30
0
41
1
10
-1.99503997793928
20
-0.840338966235578
30
0
41
1
10
-1.99503997793928
20
-0.945048896197648
30
0
41
1
10
-1.99503997793928
20
-1.04964379294299
30
0
41
1
10
-1.99503997793928
20
-1.15411258033262
30
0
41
1
10
-1.99503997793928
20
-1.25844373877697
30
0
41
1
10
-1.99503997793928
20
-1.36262723194542
30
0
41
1
10
-1.99503997793928
20
-1.46665210416356
30
0
41
1
10
-1.99503997793928
20
-1.57050948928742
30
0
41
1
10
-1.99503997793928
20
-1.67418896894682
30
0
41
1
10
-1.99503997793928
20
-1.77768276258209
30
0
41
1
10
-1.99503997793928
20
-1.88098142742643
30
0
41
1
10
-1.99503997793928
20
-1.98407766278629
30
0
41
1
10
-1.99503997793928
20
-2.08696370566375
30
0
41
1
10
-1.99503997793928
20
-2.18963189754737
30
0
41
1
10
-1.99503997793928
20
-2.29207637206397
30
0
41
1
10
-1.99503997793928
20
-2.39428973936722
30
0
41
1
10
-1.99503997793928
20
-2.49626703199883
30
0
41
1
10
-1.99503997793928
20
-2.59800197223717
30
0
41
1
10
-1.99503997793928
20
-2.73345090264118
30
0
41
1
10
-1.99503997793928
20
-2.86801083241156
30
0
41
1
10
-1.99503997793928
20
-3.00241855173454
30
0
41
1
10
-1.99503997793928
20
-3.13647582573117
30
0
41
1
10
-1.99503997793928
20
-3.30310842941955
30
0
41
1
10
-1.99503997793928
20
-3.46881383607317
30
0
41
1
10
-1.99503997793928
20
-3.60101470543907
30
0
41
1
10
-1.99503997793928
20
-3.69979996514493
30
0
41
1
10
-1.99503997793928
20
-3.79829732832764
30
0
41
1
10
-1.99503997793928
20
-3.92934662557204
30
0
41
1
10
-1.99503997793928
20
-4.09219631216948
30
0
41
1
10
-1.99503997793928
20
-4.28654650347451
30
0
41
1
10
-1.99503997793928
20
-4.47969611179559
30
0
41
1
10
-1.99503997793928
20
-4.67163198724225
30
0
41
1
10
-1.99503997793928
20
-4.86234315765492
30
0
41
1
10
-1.99503997793928
20
-5.05181944357969
30
0
41
1
10
-1.99503997793928
20
-5.24005183821342
30
0
41
1
10
-1.99503997793928
20
-5.42703263168386
30
0
41
1
10
-1.99503997793928
20
-5.61275497462711
30
0
41
1
10
-1.99503997793928
20
-5.79721217482029
30
0
41
1
10
-1.99503997793928
20
-5.98039819956611
30
0
41
1
10
-1.99503997793928
20
-6.16230794338162
30
0
41
1
10
-1.99503997793928
20
-6.34293700639154
30
0
41
1
10
-1.99503997793928
20
-6.52228076981257
30
0
41
1
10
-1.99503997793928
20
-6.70033533418757
30
0
41
1
10
-1.99503997793928
20
-6.87709665926303
30
0
41
1
10
-1.99503997793928
20
-7.11118459991687
30
0
41
1
10
-1.99503997793928
20
-7.40025292645402
30
0
41
1
10
-1.99503997793928
20
-7.74205781809903
30
0
41
1
10
-1.99503997793928
20
-8.02240145976876
30
0
41
1
10
-1.99503997793928
20
-8.24425235284596
30
0
41
1
10
-1.99503997793928
20
-8.40923674956807
30
0
41
1
10
-1.99503997793928
20
-8.57289871422529
30
0
41
1
10
-1.99503997793928
20
-8.73523610803539
30
0
41
1
10
-1.99503997793928
20
-8.89624560664996
30
0
41
1
10
-1.99503997793928
20
-9.10925720032841
30
0
41
1
10
-1.99503997793928
20
-9.37195865915049
30
0
41
1
10
-1.99503997793928
20
-9.6301983246166
30
0
41
1
10
-1.99503997793928
20
-9.83427694277646
30
0
41
1
10
-1.99503997793928
20
-9.98591881051331
30
0
41
1
10
-1.99503997793928
20
-10.1362104789651
30
0
41
1
10
-1.99503997793928
20
-10.2851499142426
30
0
41
1
10
-1.99503997793928
20
-10.432733482583
30
0
41
1
10
-1.99503997793928
20
-10.6277879483349
30
0
41
1
10
-1.99503997793928
20
-10.8198574709635
30
0
41
1
10
-1.99503997793928
20
-11.0094435667743
30
0
41
1
10
-1.99503997793928
20
-11.1972001338813
30
0
41
1
10
-1.99503997793928
20
-11.4282697094187
30
0
41
1
10
-1.99503997793928
20
-11.6547268446385
30
0
41
1
10
-1.99503997793928
20
-11.8332480225582
30
0
41
1
10
-1.99503997793928
20
-12.0099077334538
30
0
41
1
10
-1.99503997793928
20
-12.1835401209566
30
0
41
1
10
-1.99503997793928
20
-12.3545748313203
30
0
41
1
10
-1.99503997793928
20
-12.4813812819682
30
0
41
1
10
-1.99503997793928
20
-12.6067684751262
30
0
41
1
10
-1.99503997793928
20
-12.7721223466594
30
0
41
1
10
-1.99503997793928
20
-12.9344093235711
30
0
41
1
10
-1.99503997793928
20
-13.0940197637218
30
0
41
1
10
-1.99503997793928
20
-13.2122307543484
30
0
41
1
10
-1.99503997793928
20
-13.3289901210133
30
0
41
1
10
-1.99503997793928
20
-13.4827901435456
30
0
41
1
10
-1.99503997793928
20
-13.6334713858817
30
0
41
1
10
-1.99503997793928
20
-13.7813876543746
30
0
41
1
10
-1.99503997793928
20
-13.8907947392413
30
0
41
1
10
-1.99503997793928
20
-13.99871189727
30
0
41
1
10
-1.99503997793928
20
-14.1406647319193
30
0
41
1
10
-1.99503997793928
20
-14.2794333813788
30
0
41
1
10
-1.99503997793928
20
-14.4153366880849
30
0
41
1
10
-1.99503997793928
20
-14.5156939237825
30
0
41
1
10
-1.99503997793928
20
-14.614516060936
30
0
41
1
10
-1.99503997793928
20
-14.7442755571137
30
0
41
1
10
-1.99503997793928
20
-14.8707702595594
30
0
41
1
10
-1.99503997793928
20
-14.9942845913974
30
0
41
1
10
-1.99503997793928
20
-15.070107125687
30
0
41
1
10
-1.99503997793928
20
-15.130016414734
30
0
41
1
10
-1.99503997793928
20
-15.1893946011099
30
0
41
1
10
-1.99503997793928
20
-15.2918890331241
30
0
41
1
10
-1.99503997793928
20
-15.4056838559475
30
0
41
1
10
-1.99503997793928
20
-15.5163656330196
30
0
41
1
10
-1.99503997793928
20
-15.5977008570348
30
0
41
1
10
-1.99503997793928
20
-15.677384979663
30
0
41
1
10
-1.99503997793928
20
-15.781458474053
30
0
41
1
10
-1.99503997793928
20
-15.8820499896637
30
0
41
1
10
-1.99503997793928
20
-15.9793734967038
30
0
41
1
10
-1.99503997793928
20
-16.0506207879892
30
0
41
1
10
-1.99503997793928
20
-16.1201424632647
30
0
41
1
10
-1.99503997793928
20
-16.1879246525291
30
0
41
1
10
-1.99503997793928
20
-16.2539521307207
30
0
41
1
10
-1.99503997793928
20
-16.3182114280861
30
0
41
1
10
-1.99503997793928
20
-16.3806869997558
30
0
41
1
10
-1.99503997793928
20
-16.4616240235723
30
0
41
1
10
-1.99503997793928
20
-16.538824252381
30
0
41
1
10
-1.99503997793928
20
-16.6124299668847
30
0
41
1
10
-1.99503997793928
20
-16.6835453043615
30
0
41
1
10
-1.99503997793928
20
-16.7507930080793
30
0
41
1
10
-1.99503997793928
20
-16.8142877377232
30
0
41
1
10
-1.99503997793928
20
-16.8751872797734
30
0
41
1
10
-1.99503997793928
20
-16.9320728583858
30
0
41
1
10
-1.99503997793928
20
-16.9850205784631
30
0
41
1
10
-1.99503997793928
20
-17.0226788299273
30
0
41
1
10
-1.99503997793928
20
-17.0582791544304
30
0
41
1
10
-1.99503997793928
20
-17.1029924178939
30
0
41
1
10
-1.99503997793928
20
-17.1434240170936
30
0
41
1
10
-1.99503997793928
20
-17.1795896288677
30
0
41
1
10
-1.99503997793928
20
-17.204505416066
30
0
41
1
10
-1.99503997793928
20
-17.2271975480507
30
0
41
1
10
-1.99503997793928
20
-17.2476335178127
30
0
41
1
10
-1.99503997793928
20
-17.2657806121613
30
0
41
1
10
-1.99503997793928
20
-17.2816041393821
30
0
41
1
10
-1.99503997793928
20
-17.2950677779805
30
0
41
1
10
-1.99503997793928
20
-17.3061342543252
30
0
41
1
10
-1.99503997793928
20
-17.3147637210185
30
0
41
1
10
-1.99503997793928
20
-17.3189468552863
30
0
41
1
10
-1.99503997793928
20
-17.3206249262185
30
0
41
1
10
-1.99503997793928
20
-17.3206887885929
30
0
0
SPLINE
5
194
100
AcDbEntity
8
SK1
62
256
6
ByLayer
370
18
48
1
60
0
100
AcDbSpline
70
4
71
3
72
107
73
103
40
0
40
0
40
0
40
0
40
0.0027087431780887
40
0.0112406780962259
40
0.019772613014363
40
0.0283045479325002
40
0.0368364828506373
40
0.0453684177687745
40
0.0539003526869117
40
0.0624322876050488
40
0.070964222523186
40
0.0794961574413231
40
0.0965600272775975
40
0.113623897113872
40
0.130687766950146
40
0.139219701868283
40
0.14775163678642
40
0.156283571704558
40
0.164815506622695
40
0.173347441540832
40
0.181879376458969
40
0.198943246295243
40
0.216007116131518
40
0.224539051049655
40
0.233070985967792
40
0.241602920885929
40
0.250134855804066
40
0.258666790722204
40
0.267198725640341
40
0.284262595476615
40
0.292794530394752
40
0.301326465312889
40
0.318390335149163
40
0.335454204985438
40
0.343986139903575
40
0.352518074821712
40
0.369581944657986
40
0.378113879576124
40
0.386645814494261
40
0.395177749412398
40
0.403709684330535
40
0.42077355416681
40
0.429305489084947
40
0.437837424003084
40
0.446369358921221
40
0.454901293839358
40
0.471965163675633
40
0.48049709859377
40
0.489029033511907
40
0.497560968430044
40
0.506092903348181
40
0.523156773184455
40
0.531688708102593
40
0.54022064302073
40
0.548752577938867
40
0.557284512857004
40
0.574348382693278
40
0.582880317611416
40
0.591412252529553
40
0.595678219988621
40
0.59994418744769
40
0.608476122365827
40
0.625539992202101
40
0.634071927120239
40
0.642603862038376
40
0.651135796956513
40
0.65966773187465
40
0.676731601710924
40
0.685263536629061
40
0.693795471547199
40
0.702327406465336
40
0.710859341383473
40
0.71939127630161
40
0.727923211219747
40
0.736455146137884
40
0.744987081056022
40
0.762050950892296
40
0.770582885810433
40
0.77911482072857
40
0.796178690564844
40
0.804710625482982
40
0.813242560401119
40
0.830306430237393
40
0.83883836515553
40
0.847370300073668
40
0.855902234991805
40
0.864434169909942
40
0.881498039746216
40
0.890029974664353
40
0.89856190958249
40
0.907093844500627
40
0.915625779418765
40
0.924157714336902
40
0.932689649255039
40
0.941221584173176
40
0.949753519091313
40
0.958285454009451
40
0.966817388927588
40
0.975349323845725
40
0.983881258763862
40
0.992413193681999
40
1
40
1
40
1
40
1
41
1
10
-0.394976888875277
20
-5.38678189578289
30
0
41
1
10
-0.394976888875277
20
-5.4065930765673
30
0
41
1
10
-0.394976888875277
20
-5.48871660168982
30
0
41
1
10
-0.394976888875277
20
-5.63252719489225
30
0
41
1
10
-0.394976888875277
20
-5.8174145162354
30
0
41
1
10
-0.394976888875277
20
-6.00101977124669
30
0
41
1
10
-0.394976888875277
20
-6.18333830919048
30
0
41
1
10
-0.394976888875277
20
-6.3643662218949
30
0
41
1
10
-0.394976888875277
20
-6.54409937286439
30
0
41
1
10
-0.394976888875277
20
-6.72253430941348
30
0
41
1
10
-0.394976888875277
20
-6.89966740060396
30
0
41
1
10
-0.394976888875277
20
-7.13420903787926
30
0
41
1
10
-0.394976888875277
20
-7.42389186204957
30
0
41
1
10
-0.394976888875277
20
-7.76637138106329
30
0
41
1
10
-0.394976888875277
20
-8.04728288344245
30
0
41
1
10
-0.394976888875277
20
-8.26952736598562
30
0
41
1
10
-0.394976888875277
20
-8.434820354761
30
0
41
1
10
-0.394976888875277
20
-8.59878513137221
30
0
41
1
10
-0.394976888875277
20
-8.76141979186249
30
0
41
1
10
-0.394976888875277
20
-8.922721214403
30
0
41
1
10
-0.394976888875277
20
-9.1360908691222
30
0
41
1
10
-0.394976888875277
20
-9.39928045092248
30
0
41
1
10
-0.394976888875277
20
-9.65799296546987
30
0
41
1
10
-0.394976888875277
20
-9.86240080704218
30
0
41
1
10
-0.394976888875277
20
-10.0143015815252
30
0
41
1
10
-0.394976888875277
20
-10.1648480067744
30
0
41
1
10
-0.394976888875277
20
-10.3140380843155
30
0
41
1
10
-0.394976888875277
20
-10.4618684189216
30
0
41
1
10
-0.394976888875277
20
-10.6572263081632
30
0
41
1
10
-0.394976888875277
20
-10.8496518506122
30
0
41
1
10
-0.394976888875277
20
-11.0395280782787
30
0
41
1
10
-0.394976888875277
20
-11.2275701299333
30
0
41
1
10
-0.394976888875277
20
-11.4590305143918
30
0
41
1
10
-0.394976888875277
20
-11.685867652055
30
0
41
1
10
-0.394976888875277
20
-11.864654349678
30
0
41
1
10
-0.394976888875277
20
-12.0415756040849
30
0
41
1
10
-0.394976888875277
20
-12.2155153161813
30
0
41
1
10
-0.394976888875277
20
-12.3868007979199
30
0
41
1
10
-0.394976888875277
20
-12.5138050519686
30
0
41
1
10
-0.394976888875277
20
-12.6393872302303
30
0
41
1
10
-0.394976888875277
20
-12.8049814458532
30
0
41
1
10
-0.394976888875277
20
-12.9675509360494
30
0
41
1
10
-0.394976888875277
20
-13.1273919665529
30
0
41
1
10
-0.394976888875277
20
-13.2457849051211
30
0
41
1
10
-0.394976888875277
20
-13.3627236547323
30
0
41
1
10
-0.394976888875277
20
-13.5167448476072
30
0
41
1
10
-0.394976888875277
20
-13.6676860552913
30
0
41
1
10
-0.394976888875277
20
-13.8158144768541
30
0
41
1
10
-0.394976888875277
20
-13.9253889718329
30
0
41
1
10
-0.394976888875277
20
-14.0334711580348
30
0
41
1
10
-0.394976888875277
20
-14.1756274475866
30
0
41
1
10
-0.394976888875277
20
-14.3146351237356
30
0
41
1
10
-0.394976888875277
20
-14.4507333681675
30
0
41
1
10
-0.394976888875277
20
-14.5512443837086
30
0
41
1
10
-0.394976888875277
20
-14.6502180419884
30
0
41
1
10
-0.394976888875277
20
-14.780164253239
30
0
41
1
10
-0.394976888875277
20
-14.9068780878822
30
0
41
1
10
-0.394976888875277
20
-15.0305708978545
30
0
41
1
10
-0.394976888875277
20
-15.1065165223896
30
0
41
1
10
-0.394976888875277
20
-15.1665127141503
30
0
41
1
10
-0.394976888875277
20
-15.2259771214207
30
0
41
1
10
-0.394976888875277
20
-15.3286250474485
30
0
41
1
10
-0.394976888875277
20
-15.4426196109061
30
0
41
1
10
-0.394976888875277
20
-15.5534637367265
30
0
41
1
10
-0.394976888875277
20
-15.6349267624759
30
0
41
1
10
-0.394976888875277
20
-15.7147364921469
30
0
41
1
10
-0.394976888875277
20
-15.8189643831875
30
0
41
1
10
-0.394976888875277
20
-15.9197362187748
30
0
41
1
10
-0.394976888875277
20
-16.0172057969154
30
0
41
1
10
-0.394976888875277
20
-16.0885678110446
30
0
41
1
10
-0.394976888875277
20
-16.1582019472912
30
0
41
1
10
-0.394976888875277
20
-16.2260943811825
30
0
41
1
10
-0.394976888875277
20
-16.2922298358683
30
0
41
1
10
-0.394976888875277
20
-16.3565947902754
30
0
41
1
10
-0.394976888875277
20
-16.4191737297992
30
0
41
1
10
-0.394976888875277
20
-16.5002370830775
30
0
41
1
10
-0.394976888875277
20
-16.5775834628441
30
0
41
1
10
-0.394976888875277
20
-16.6513062771915
30
0
41
1
10
-0.394976888875277
20
-16.7225357579897
30
0
41
1
10
-0.394976888875277
20
-16.7899145981056
30
0
41
1
10
-0.394976888875277
20
-16.8535135500206
30
0
41
1
10
-0.394976888875277
20
-16.9145141001581
30
0
41
1
10
-0.394976888875277
20
-16.9715145305624
30
0
41
1
10
-0.394976888875277
20
-17.024552403858
30
0
41
1
10
-0.394976888875277
20
-17.0622798511847
30
0
41
1
10
-0.394976888875277
20
-17.0979462837243
30
0
41
1
10
-0.394976888875277
20
-17.1427382787905
30
0
41
1
10
-0.394976888875277
20
-17.1832568369982
30
0
41
1
10
-0.394976888875277
20
-17.2194882612007
30
0
41
1
10
-0.394976888875277
20
-17.2444531170066
30
0
41
1
10
-0.394976888875277
20
-17.2671905287463
30
0
41
1
10
-0.394976888875277
20
-17.2876678382251
30
0
41
1
10
-0.394976888875277
20
-17.3058521626298
30
0
41
1
10
-0.394976888875277
20
-17.3217086355548
30
0
41
1
10
-0.394976888875277
20
-17.3352007360526
30
0
41
1
10
-0.394976888875277
20
-17.3462909802274
30
0
41
1
10
-0.394976888875277
20
-17.3549392880652
30
0
41
1
10
-0.394976888875277
20
-17.3611046305144
30
0
41
1
10
-0.394976888875277
20
-17.3647432146661
30
0
41
1
10
-0.394976888875277
20
-17.3658102005923
30
0
41
1
10
-0.394976888875306
20
-17.3643150511299
30
0
41
1
10
-0.394976888875277
20
-17.361749402282
30
0
41
1
10
-0.394976888875277
20
-17.3601838597835
30
0
0
SPLINE
5
195
100
AcDbEntity
8
SK1
62
256
6
ByLayer
370
18
48
1
60
0
100
AcDbSpline
70
4
71
3
72
106
73
102
40
0
40
0
40
0
40
0
40
0.0075864937856426
40
0.0161184315185891
40
0.0246503692515355
40
0.033182306984482
40
0.0417142447174285
40
0.0502461824503749
40
0.0587781201833214
40
0.0673100579162679
40
0.0758419956492143
40
0.0843739333821608
40
0.0929058711151073
40
0.101437808848054
40
0.109969746581
40
0.118501684313947
40
0.13556555977984
40
0.144097497512786
40
0.152629435245733
40
0.161161372978679
40
0.169693310711625
40
0.186757186177518
40
0.195289123910465
40
0.203821061643411
40
0.220884937109304
40
0.229416874842251
40
0.237948812575197
40
0.25501268804109
40
0.263544625774037
40
0.272076563506983
40
0.28060850123993
40
0.289140438972876
40
0.297672376705822
40
0.306204314438769
40
0.314736252171716
40
0.323268189904662
40
0.340332065370555
40
0.348864003103501
40
0.357395940836448
40
0.365927878569394
40
0.374459816302341
40
0.391523691768234
40
0.40005562950118
40
0.408587567234127
40
0.417119504967073
40
0.42565144270002
40
0.442715318165912
40
0.451247255898859
40
0.459779193631806
40
0.468311131364752
40
0.476843069097698
40
0.493906944563591
40
0.502438882296538
40
0.510970820029484
40
0.519502757762431
40
0.528034695495377
40
0.54509857096127
40
0.553630508694217
40
0.562162446427163
40
0.57069438416011
40
0.579226321893056
40
0.596290197358949
40
0.604822135091895
40
0.613354072824842
40
0.621886010557788
40
0.630417948290735
40
0.647481823756628
40
0.656013761489574
40
0.664545699222521
40
0.681609574688414
40
0.698673450154307
40
0.707205387887253
40
0.7157373256202
40
0.732801201086092
40
0.741333138819039
40
0.749865076551985
40
0.758397014284932
40
0.766928952017878
40
0.775460889750825
40
0.783992827483771
40
0.801056702949664
40
0.818120578415557
40
0.826652516148504
40
0.83518445388145
40
0.843716391614397
40
0.852248329347343
40
0.860780267080289
40
0.869312204813236
40
0.886376080279129
40
0.903439955745022
40
0.920503831210915
40
0.929035768943861
40
0.937567706676808
40
0.946099644409754
40
0.954631582142701
40
0.963163519875647
40
0.971695457608594
40
0.98022739534154
40
0.988759333074486
40
0.997291270807433
40
1
40
1
40
1
40
1
41
1
10
-0.394976888875277
20
17.3601838881443
30
0
41
1
10
-0.394976888875277
20
17.3617494126201
30
0
41
1
10
-0.394976888875306
20
17.3643151424041
30
0
41
1
10
-0.394976888875277
20
17.3658104187982
30
0
41
1
10
-0.394976888875277
20
17.364743357607
30
0
41
1
10
-0.394976888875277
20
17.3611046370287
30
0
41
1
10
-0.394976888875277
20
17.3549392673806
30
0
41
1
10
-0.394976888875277
20
17.3462909837355
30
0
41
1
10
-0.394976888875277
20
17.3352007293143
30
0
41
1
10
-0.394976888875277
20
17.3217086001335
30
0
41
1
10
-0.394976888875277
20
17.3058521283006
30
0
41
1
10
-0.394976888875277
20
17.2876678324761
30
0
41
1
10
-0.394976888875277
20
17.267190526317
30
0
41
1
10
-0.394976888875277
20
17.2444530966284
30
0
41
1
10
-0.394976888875277
20
17.2194882282903
30
0
41
1
10
-0.394976888875277
20
17.1832568130363
30
0
41
1
10
-0.394976888875277
20
17.1427382851614
30
0
41
1
10
-0.394976888875277
20
17.0979462613767
30
0
41
1
10
-0.394976888875277
20
17.0622798138473
30
0
41
1
10
-0.394976888875277
20
17.0245523789023
30
0
41
1
10
-0.394976888875277
20
16.9715145338597
30
0
41
1
10
-0.394976888875277
20
16.9145140859045
30
0
41
1
10
-0.394976888875277
20
16.8535135157982
30
0
41
1
10
-0.394976888875277
20
16.7899145739052
30
0
41
1
10
-0.394976888875277
20
16.7225357594453
30
0
41
1
10
-0.394976888875277
20
16.6513062647865
30
0
41
1
10
-0.394976888875277
20
16.577583428992
30
0
41
1
10
-0.394976888875277
20
16.5002370605308
30
0
41
1
10
-0.394976888875277
20
16.4191737242595
30
0
41
1
10
-0.394976888875277
20
16.3565947837564
30
0
41
1
10
-0.394976888875277
20
16.2922298184193
30
0
41
1
10
-0.394976888875277
20
16.2260943534788
30
0
41
1
10
-0.394976888875277
20
16.1582019227301
30
0
41
1
10
-0.394976888875277
20
16.0885677968918
30
0
41
1
10
-0.394976888875277
20
16.0172057910894
30
0
41
1
10
-0.394976888875277
20
15.9197362080175
30
0
41
1
10
-0.394976888875277
20
15.8189643575456
30
0
41
1
10
-0.394976888875277
20
15.7147364711228
30
0
41
1
10
-0.394976888875277
20
15.6349267495635
30
0
41
1
10
-0.394976888875277
20
15.553463729323
30
0
41
1
10
-0.394976888875277
20
15.4426195996911
30
0
41
1
10
-0.394976888875277
20
15.3286250260664
30
0
41
1
10
-0.394976888875277
20
15.2112966721243
30
0
41
1
10
-0.394976888875277
20
15.1217290697223
30
0
41
1
10
-0.394976888875277
20
15.0305709686995
30
0
41
1
10
-0.394976888875277
20
14.906878048735
30
0
41
1
10
-0.394976888875277
20
14.7801642402503
30
0
41
1
10
-0.394976888875277
20
14.6502180265082
30
0
41
1
10
-0.394976888875277
20
14.5512443698349
30
0
41
1
10
-0.394976888875277
20
14.4507333574048
30
0
41
1
10
-0.394976888875277
20
14.3146351144528
30
0
41
1
10
-0.394976888875277
20
14.1756274353422
30
0
41
1
10
-0.394976888875277
20
14.0334711437704
30
0
41
1
10
-0.394976888875277
20
13.9253889575191
30
0
41
1
10
-0.394976888875277
20
13.8158144643309
30
0
41
1
10
-0.394976888875277
20
13.6676860465324
30
0
41
1
10
-0.394976888875277
20
13.5167448397425
30
0
41
1
10
-0.394976888875277
20
13.3627236430939
30
0
41
1
10
-0.394976888875277
20
13.2457848907918
30
0
41
1
10
-0.394976888875277
20
13.127391952352
30
0
41
1
10
-0.394976888875277
20
12.9675509274721
30
0
41
1
10
-0.394976888875277
20
12.8049814419576
30
0
41
1
10
-0.394976888875277
20
12.6393872212047
30
0
41
1
10
-0.394976888875277
20
12.5138050377602
30
0
41
1
10
-0.394976888875277
20
12.3868007822861
30
0
41
1
10
-0.394976888875277
20
12.2155153079022
30
0
41
1
10
-0.394976888875277
20
12.0415756036957
30
0
41
1
10
-0.394976888875277
20
11.8646543426879
30
0
41
1
10
-0.394976888875277
20
11.6858676336886
30
0
41
1
10
-0.394976888875277
20
11.4590305058839
30
0
41
1
10
-0.394976888875277
20
11.2275701322441
30
0
41
1
10
-0.394976888875277
20
11.0395280715927
30
0
41
1
10
-0.394976888875277
20
10.8496518299165
30
0
41
1
10
-0.394976888875277
20
10.6572262982852
30
0
41
1
10
-0.394976888875277
20
10.4618684218406
30
0
41
1
10
-0.394976888875277
20
10.3140380853821
30
0
41
1
10
-0.394976888875277
20
10.1648479968029
30
0
41
1
10
-0.394976888875277
20
10.0143015620689
30
0
41
1
10
-0.394976888875277
20
9.86240079247779
30
0
41
1
10
-0.394976888875277
20
9.65799297250354
30
0
41
1
10
-0.394976888875277
20
9.3992804435735
30
0
41
1
10
-0.394976888875277
20
9.13609084815204
30
0
41
1
10
-0.394976888875277
20
8.92272120904667
30
0
41
1
10
-0.394976888875277
20
8.76141979935898
30
0
41
1
10
-0.394976888875277
20
8.59878513251641
30
0
41
1
10
-0.394976888875277
20
8.43482033812748
30
0
41
1
10
-0.394976888875277
20
8.26952734508268
30
0
41
1
10
-0.394976888875277
20
8.04728288893983
30
0
41
1
10
-0.394976888875277
20
7.76637137475095
30
0
41
1
10
-0.394976888875277
20
7.42389184310318
30
0
41
1
10
-0.394976888875277
20
7.13420904829047
30
0
41
1
10
-0.394976888875277
20
6.89966739484251
30
0
41
1
10
-0.394976888875277
20
6.7225342898117
30
0
41
1
10
-0.394976888875277
20
6.54409938064705
30
0
41
1
10
-0.394976888875277
20
6.36436626337326
30
0
41
1
10
-0.394976888875277
20
6.18333822517317
30
0
41
1
10
-0.394976888875277
20
6.0010194773844
30
0
41
1
10
-0.394976888875277
20
5.81741425905383
30
0
41
1
10
-0.394976888875277
20
5.63252720020009
30
0
41
1
10
-0.394976888875277
20
5.48871675629277
30
0
41
1
10
-0.394976888875277
20
5.40659331253005
30
0
41
1
10
-0.394976888875277
20
5.38678223324203
30
0
0
SPLINE
5
196
100
AcDbEntity
8
SK1
62
256
6
ByLayer
370
18
48
1
60
0
100
AcDbSpline
70
4
71
3
72
288
73
284
40
0
40
0
40
0
40
0
40
0.0022850428792494
40
0.0057900834674212
40
0.009295124055593
40
0.0128001646437648
40
0.0163052052319366
40
0.0198102458201084
40
0.0233152864082802
40
0.026820326996452
40
0.0303253675846238
40
0.0338304081727956
40
0.0373354487609674
40
0.0408404893491392
40
0.044345529937311
40
0.0513556111136546
40
0.0548606517018264
40
0.0583656922899982
40
0.06187073287817
40
0.0653757734663418
40
0.0723858546426854
40
0.0758908952308572
40
0.079395935819029
40
0.0864060169953726
40
0.0899110575835444
40
0.0934160981717161
40
0.10042617934806
40
0.103931219936232
40
0.107436260524403
40
0.110941301112575
40
0.114446341700747
40
0.117951382288919
40
0.121456422877091
40
0.124961463465262
40
0.128466504053434
40
0.135476585229778
40
0.13898162581795
40
0.142486666406121
40
0.145991706994293
40
0.149496747582465
40
0.156506828758809
40
0.16001186934698
40
0.163516909935152
40
0.167021950523324
40
0.170526991111496
40
0.177537072287839
40
0.181042112876011
40
0.184547153464183
40
0.188052194052355
40
0.191557234640527
40
0.19856731581687
40
0.202072356405042
40
0.205577396993214
40
0.209082437581386
40
0.212587478169557
40
0.219597559345901
40
0.223102599934073
40
0.226607640522245
40
0.230112681110416
40
0.233617721698588
40
0.240627802874932
40
0.244132843463103
40
0.247637884051275
40
0.251142924639447
40
0.254647965227619
40
0.261658046403963
40
0.265163086992134
40
0.268668127580306
40
0.27567820875665
40
0.282688289932993
40
0.286193330521165
40
0.289698371109337
40
0.296708452285681
40
0.300213492873852
40
0.303718533462024
40
0.307223574050196
40
0.310728614638368
40
0.31423365522654
40
0.317738695814711
40
0.324748776991055
40
0.331758858167398
40
0.33526389875557
40
0.338768939343742
40
0.342273979931914
40
0.345779020520086
40
0.349284061108257
40
0.352789101696429
40
0.359799182872773
40
0.366809264049117
40
0.37381934522546
40
0.377324385813632
40
0.380829426401804
40
0.384334466989975
40
0.387839507578147
40
0.391344548166319
40
0.394849588754491
40
0.398354629342663
40
0.401859669930835
40
0.405364710519006
40
0.408869751107178
40
0.41237479169535
40
0.415879832283522
40
0.419384872871694
40
0.422889913459865
40
0.426394954048037
40
0.429899994636209
40
0.433405035224381
40
0.435157555518467
40
0.436910075812552
40
0.438662596106638
40
0.440415116400724
40
0.443920156988896
40
0.447425197577068
40
0.449177717871154
40
0.45093023816524
40
0.452682758459325
40
0.454435278753412
40
0.456187799047497
40
0.457940319341583
40
0.461445359929755
40
0.463197880223841
40
0.464950400517927
40
0.466702920812013
40
0.468455441106099
40
0.470207961400185
40
0.471960481694271
40
0.473713001988356
40
0.475465522282442
40
0.477218042576528
40
0.478970562870614
40
0.4807230831647
40
0.482475603458786
40
0.484228123752872
40
0.485980644046958
40
0.487733164341044
40
0.489485684635129
40
0.491238204929215
40
0.492990725223301
40
0.494743245517387
40
0.496495765811473
40
0.498248286105559
40
0.500000806399645
40
0.501753326693731
40
0.503505846987817
40
0.505258367281903
40
0.507010887575989
40
0.508763407870074
40
0.51051592816416
40
0.512268448458246
40
0.514020968752332
40
0.515773489046418
40
0.517526009340504
40
0.51927852963459
40
0.521031049928676
40
0.522783570222762
40
0.524536090516847
40
0.526288610810933
40
0.528041131105019
40
0.529793651399105
40
0.531546171693191
40
0.533298691987277
40
0.535051212281363
40
0.536803732575449
40
0.538556252869535
40
0.54030877316362
40
0.542061293457706
40
0.543813813751793
40
0.545566334045878
40
0.54907137463405
40
0.550823894928136
40
0.552576415222222
40
0.556081455810394
40
0.559586496398566
40
0.561339016692651
40
0.563091536986737
40
0.564844057280823
40
0.566596577574909
40
0.570101618163081
40
0.573606658751253
40
0.577111699339425
40
0.580616739927596
40
0.584121780515768
40
0.58762682110394
40
0.591131861692112
40
0.594636902280284
40
0.598141942868455
40
0.601646983456627
40
0.605152024044799
40
0.608657064632971
40
0.612162105221142
40
0.615667145809314
40
0.619172186397486
40
0.622677226985658
40
0.62618226757383
40
0.633192348750173
40
0.640202429926517
40
0.64721251110286
40
0.650717551691032
40
0.654222592279204
40
0.657727632867376
40
0.661232673455548
40
0.664737714043719
40
0.668242754631891
40
0.675252835808235
40
0.682262916984578
40
0.68576795757275
40
0.689272998160922
40
0.692778038749094
40
0.696283079337266
40
0.699788119925437
40
0.703293160513609
40
0.710303241689953
40
0.713808282278125
40
0.717313322866296
40
0.72432340404264
40
0.731333485218984
40
0.734838525807155
40
0.738343566395327
40
0.745353647571671
40
0.748858688159843
40
0.752363728748014
40
0.755868769336186
40
0.759373809924358
40
0.766383891100702
40
0.769888931688873
40
0.773393972277045
40
0.776899012865217
40
0.780404053453389
40
0.787414134629732
40
0.790919175217904
40
0.794424215806076
40
0.797929256394248
40
0.80143429698242
40
0.808444378158763
40
0.811949418746935
40
0.815454459335107
40
0.818959499923279
40
0.82246454051145
40
0.829474621687794
40
0.832979662275966
40
0.836484702864138
40
0.838237223158224
40
0.839989743452309
40
0.843494784040481
40
0.850504865216825
40
0.854009905804997
40
0.857514946393168
40
0.86101998698134
40
0.864525027569512
40
0.871535108745855
40
0.875040149334027
40
0.878545189922199
40
0.882050230510371
40
0.885555271098543
40
0.889060311686715
40
0.892565352274886
40
0.896070392863058
40
0.89957543345123
40
0.906585514627574
40
0.910090555215745
40
0.913595595803917
40
0.920605676980261
40
0.924110717568433
40
0.927615758156604
40
0.934625839332948
40
0.93813087992112
40
0.941635920509292
40
0.945140961097463
40
0.948646001685635
40
0.955656082861979
40
0.95916112345015
40
0.962666164038322
40
0.966171204626494
40
0.969676245214666
40
0.973181285802838
40
0.976686326391009
40
0.980191366979181
40
0.983696407567353
40
0.987201448155525
40
0.990706488743697
40
0.994211529331868
40
0.99771656992004
40
1
40
1
40
1
40
1
41
1
10
-30
20
15.9926657164237
30
0
41
1
10
-30
20
15.9930575193314
30
0
41
1
10
-30
20
15.9936129939434
30
0
41
1
10
-30
20
15.992743696334
30
0
41
1
10
-30
20
15.9893850921089
30
0
41
1
10
-30
20
15.9836860314146
30
0
41
1
10
-30
20
15.9756808210229
30
0
41
1
10
-30
20
15.9654018084481
30
0
41
1
10
-30
20
15.9528811264941
30
0
41
1
10
-30
20
15.9381491278438
30
0
41
1
10
-30
20
15.9212355486336
30
0
41
1
10
-30
20
15.9021692443494
30
0
41
1
10
-30
20
15.8809772874923
30
0
41
1
10
-30
20
15.85768719628
30
0
41
1
10
-30
20
15.8237020449635
30
0
41
1
10
-30
20
15.786151572388
30
0
41
1
10
-30
20
15.7440467976174
30
0
41
1
10
-30
20
15.7106366986067
30
0
41
1
10
-30
20
15.6752710038507
30
0
41
1
10
-30
20
15.6253102414823
30
0
41
1
10
-30
20
15.5722298833996
30
0
41
1
10
-30
20
15.5146768571488
30
0
41
1
10
-30
20
15.454635155867
30
0
41
1
10
-30
20
15.3917322415494
30
0
41
1
10
-30
20
15.3243986601424
30
0
41
1
10
-30
20
15.2546726017927
30
0
41
1
10
-30
20
15.1823145630236
30
0
41
1
10
-30
20
15.1055630554725
30
0
41
1
10
-30
20
15.0465122402176
30
0
41
1
10
-30
20
14.985753516587
30
0
41
1
10
-30
20
14.9233034368069
30
0
41
1
10
-30
20
14.8591738020485
30
0
41
1
10
-30
20
14.7933781380804
30
0
41
1
10
-30
20
14.7259318150055
30
0
41
1
10
-30
20
14.6334478809413
30
0
41
1
10
-30
20
14.5388306139923
30
0
41
1
10
-30
20
14.4398724968665
30
0
41
1
10
-30
20
14.3643499358607
30
0
41
1
10
-30
20
14.2872489988171
30
0
41
1
10
-30
20
14.1819460940194
30
0
41
1
10
-30
20
14.0747689624993
30
0
41
1
10
-30
20
13.9632604256822
30
0
41
1
10
-30
20
13.8784200007502
30
0
41
1
10
-30
20
13.7920640526129
30
0
41
1
10
-30
20
13.674463030797
30
0
41
1
10
-30
20
13.5552283874056
30
0
41
1
10
-30
20
13.4316550911985
30
0
41
1
10
-30
20
13.337853067095
30
0
41
1
10
-30
20
13.2425907988595
30
0
41
1
10
-30
20
13.1131460860381
30
0
41
1
10
-30
20
12.9822967545723
30
0
41
1
10
-30
20
12.847084683004
30
0
41
1
10
-30
20
12.7446351532221
30
0
41
1
10
-30
20
12.6407746180399
30
0
41
1
10
-30
20
12.499887311655
30
0
41
1
10
-30
20
12.3578191289812
30
0
41
1
10
-30
20
12.2113468162578
30
0
41
1
10
-30
20
12.100530667573
30
0
41
1
10
-30
20
11.9883478761207
30
0
41
1
10
-30
20
11.836377249174
30
0
41
1
10
-30
20
11.6834503922585
30
0
41
1
10
-30
20
11.5260594948948
30
0
41
1
10
-30
20
11.4071324366749
30
0
41
1
10
-30
20
11.2868794886981
30
0
41
1
10
-30
20
11.1241532157817
30
0
41
1
10
-30
20
10.9607029988619
30
0
41
1
10
-30
20
10.7927086404326
30
0
41
1
10
-30
20
10.6229844866849
30
0
41
1
10
-30
20
10.4091173939315
30
0
41
1
10
-30
20
10.1909959678347
30
0
41
1
10
-30
20
10.0126979588287
30
0
41
1
10
-30
20
9.83272430289384
30
0
41
1
10
-30
20
9.65245023276196
30
0
41
1
10
-30
20
9.46744871362009
30
0
41
1
10
-30
20
9.32804093460692
30
0
41
1
10
-30
20
9.18740563851225
30
0
41
1
10
-30
20
9.0455543785921
30
0
41
1
10
-30
20
8.90249044231982
30
0
41
1
10
-30
20
8.70931958714519
30
0
41
1
10
-30
20
8.46674616603482
30
0
41
1
10
-30
20
8.22021686294167
30
0
41
1
10
-30
20
8.01906836645577
30
0
41
1
10
-30
20
7.86773085832669
30
0
41
1
10
-30
20
7.71524241280142
30
0
41
1
10
-30
20
7.56161298420645
30
0
41
1
10
-30
20
7.40685260452798
30
0
41
1
10
-30
20
7.19804202206524
30
0
41
1
10
-30
20
6.93651252502835
30
0
41
1
10
-30
20
6.61705894701072
30
0
41
1
10
-30
20
6.34834996432815
30
0
41
1
10
-30
20
6.12929373929515
30
0
41
1
10
-30
20
5.96484945115367
30
0
41
1
10
-30
20
5.7993974381898
30
0
41
1
10
-30
20
5.63295542814623
30
0
41
1
10
-30
20
5.46554083189747
30
0
41
1
10
-30
20
5.29717335727497
30
0
41
1
10
-30
20
5.12787591307327
30
0
41
1
10
-30
20
4.9576706384986
30
0
41
1
10
-30
20
4.78658071628462
30
0
41
1
10
-30
20
4.6146335506248
30
0
41
1
10
-30
20
4.44186113006069
30
0
41
1
10
-30
20
4.26829321973949
30
0
41
1
10
-30
20
4.09396155182321
30
0
41
1
10
-30
20
3.91890592173868
30
0
41
1
10
-30
20
3.74316620306936
30
0
41
1
10
-30
20
3.56678705857649
30
0
41
1
10
-30
20
3.42015123791836
30
0
41
1
10
-30
20
3.3009810984795
30
0
41
1
10
-30
20
3.21216327477833
30
0
41
1
10
-30
20
3.12322377081893
30
0
41
1
10
-30
20
3.00356413190352
30
0
41
1
10
-30
20
2.85589664233001
30
0
41
1
10
-30
20
2.70788037697056
30
0
41
1
10
-30
20
2.58749550859633
30
0
41
1
10
-30
20
2.49793822974365
30
0
41
1
10
-30
20
2.40833000131903
30
0
41
1
10
-30
20
2.31867596083526
30
0
41
1
10
-30
20
2.22899146909501
30
0
41
1
10
-30
20
2.10827328924756
30
0
41
1
10
-30
20
1.99097459417121
30
0
41
1
10
-30
20
1.87012467714987
30
0
41
1
10
-30
20
1.78043031683035
30
0
41
1
10
-30
20
1.69076251244053
30
0
41
1
10
-30
20
1.60113247848605
30
0
41
1
10
-30
20
1.51155313609783
30
0
41
1
10
-30
20
1.422025757727
30
0
41
1
10
-30
20
1.33256776537959
30
0
41
1
10
-30
20
1.24317741509074
30
0
41
1
10
-30
20
1.15386860885192
30
0
41
1
10
-30
20
1.06464013673647
30
0
41
1
10
-30
20
0.975500136218244
30
0
41
1
10
-30
20
0.886447988926847
30
0
41
1
10
-30
20
0.797485776681128
30
0
41
1
10
-30
20
0.708610852102623
30
0
41
1
10
-30
20
0.61982073744278
30
0
41
1
10
-30
20
0.531109764951253
30
0
41
1
10
-30
20
0.442471434007643
30
0
41
1
10
-30
20
0.35389600796347
30
0
41
1
10
-30
20
0.265373879214224
30
0
41
1
10
-30
20
0.176892371692162
30
0
41
1
10
-30
20
0.0884392148653887
30
0
41
1
10
-30
20
2.04973958E-08
30
0
41
1
10
-30
20
-0.0884392031952927
30
0
41
1
10
-30
20
-0.17689241471993
30
0
41
1
10
-30
20
-0.265373915570137
30
0
41
1
10
-30
20
-0.353895962579486
30
0
41
1
10
-30
20
-0.442471374506823
30
0
41
1
10
-30
20
-0.531109813902646
30
0
41
1
10
-30
20
-0.61982082298212
30
0
41
1
10
-30
20
-0.70861080655007
30
0
41
1
10
-30
20
-0.797485667180155
30
0
41
1
10
-30
20
-0.886448026006832
30
0
41
1
10
-30
20
-0.97550027278379
30
0
41
1
10
-30
20
-1.06464012636249
30
0
41
1
10
-30
20
-1.1538684580087
30
0
41
1
10
-30
20
-1.24317738635406
30
0
41
1
10
-30
20
-1.33256791795026
30
0
41
1
10
-30
20
-1.42202585063245
30
0
41
1
10
-30
20
-1.5115530207047
30
0
41
1
10
-30
20
-1.60113232466117
30
0
41
1
10
-30
20
-1.69076256252157
30
0
41
1
10
-30
20
-1.78043050963589
30
0
41
1
10
-30
20
-1.87012473193457
30
0
41
1
10
-30
20
-1.95984062320625
30
0
41
1
10
-30
20
-2.04956121840735
30
0
41
1
10
-30
20
-2.13928298465069
30
0
41
1
10
-30
20
-2.22899154181985
30
0
41
1
10
-30
20
-2.34971237639812
30
0
41
1
10
-30
20
-2.4670581044816
30
0
41
1
10
-30
20
-2.58749567267543
30
0
41
1
10
-30
20
-2.70788056755165
30
0
41
1
10
-30
20
-2.85589666602098
30
0
41
1
10
-30
20
-3.00356394920902
30
0
41
1
10
-30
20
-3.12322374659235
30
0
41
1
10
-30
20
-3.21216341650842
30
0
41
1
10
-30
20
-3.3009812939207
30
0
41
1
10
-30
20
-3.4201512431562
30
0
41
1
10
-30
20
-3.56678672363677
30
0
41
1
10
-30
20
-3.74316585626101
30
0
41
1
10
-30
20
-3.91890584757377
30
0
41
1
10
-30
20
-4.09396100129445
30
0
41
1
10
-30
20
-4.26829259541552
30
0
41
1
10
-30
20
-4.44186183082067
30
0
41
1
10
-30
20
-4.61463414914383
30
0
41
1
10
-30
20
-4.78658021025493
30
0
41
1
10
-30
20
-4.95767123056282
30
0
41
1
10
-30
20
-5.1278778625566
30
0
41
1
10
-30
20
-5.29717415068043
30
0
41
1
10
-30
20
-5.46553992297876
30
0
41
1
10
-30
20
-5.63295448869491
30
0
41
1
10
-30
20
-5.79939725011727
30
0
41
1
10
-30
20
-5.96484950556561
30
0
41
1
10
-30
20
-6.1292936535483
30
0
41
1
10
-30
20
-6.34834993475852
30
0
41
1
10
-30
20
-6.6170590196507
30
0
41
1
10
-30
20
-6.93651248001379
30
0
41
1
10
-30
20
-7.19804203228608
30
0
41
1
10
-30
20
-7.40685270744595
30
0
41
1
10
-30
20
-7.56161297986856
30
0
41
1
10
-30
20
-7.71524232371232
30
0
41
1
10
-30
20
-7.86773082006812
30
0
41
1
10
-30
20
-8.01906843480592
30
0
41
1
10
-30
20
-8.22021692135615
30
0
41
1
10
-30
20
-8.46674612315107
30
0
41
1
10
-30
20
-8.7093195790371
30
0
41
1
10
-30
20
-8.90249052457438
30
0
41
1
10
-30
20
-9.04555441784282
30
0
41
1
10
-30
20
-9.18740560593943
30
0
41
1
10
-30
20
-9.32804088163152
30
0
41
1
10
-30
20
-9.46744870809565
30
0
41
1
10
-30
20
-9.65245029192155
30
0
41
1
10
-30
20
-9.83272433616031
30
0
41
1
10
-30
20
-10.0126979221092
30
0
41
1
10
-30
20
-10.1909959517429
30
0
41
1
10
-30
20
-10.4091174330404
30
0
41
1
10
-30
20
-10.6229845090751
30
0
41
1
10
-30
20
-10.7927086151923
30
0
41
1
10
-30
20
-10.9607029915804
30
0
41
1
10
-30
20
-11.1241532476502
30
0
41
1
10
-30
20
-11.286879520772
30
0
41
1
10
-30
20
-11.4071324437642
30
0
41
1
10
-30
20
-11.526059483736
30
0
41
1
10
-30
20
-11.6834503898541
30
0
41
1
10
-30
20
-11.8363772717575
30
0
41
1
10
-30
20
-11.9883479026383
30
0
41
1
10
-30
20
-12.100530681097
30
0
41
1
10
-30
20
-12.211346817793
30
0
41
1
10
-30
20
-12.3578191303265
30
0
41
1
10
-30
20
-12.4998873251013
30
0
41
1
10
-30
20
-12.640774639564
30
0
41
1
10
-30
20
-12.7446351726738
30
0
41
1
10
-30
20
-12.8470846962099
30
0
41
1
10
-30
20
-12.9822967603461
30
0
41
1
10
-30
20
-13.1131460918651
30
0
41
1
10
-30
20
-13.2425908150843
30
0
41
1
10
-30
20
-13.3378530905647
30
0
41
1
10
-30
20
-13.431655102243
30
0
41
1
10
-30
20
-13.5552284439381
30
0
41
1
10
-30
20
-13.6744629632361
30
0
41
1
10
-30
20
-13.7920640428987
30
0
41
1
10
-30
20
-13.8638084100541
30
0
41
1
10
-30
20
-13.9208384799595
30
0
41
1
10
-30
20
-13.9773600368974
30
0
41
1
10
-30
20
-14.0747689786766
30
0
41
1
10
-30
20
-14.1819460903518
30
0
41
1
10
-30
20
-14.2872490063531
30
0
41
1
10
-30
20
-14.3643499644422
30
0
41
1
10
-30
20
-14.4398725346097
30
0
41
1
10
-30
20
-14.5388306330265
30
0
41
1
10
-30
20
-14.6334478734244
30
0
41
1
10
-30
20
-14.7259318226356
30
0
41
1
10
-30
20
-14.793378171537
30
0
41
1
10
-30
20
-14.8591738437125
30
0
41
1
10
-30
20
-14.9233034607296
30
0
41
1
10
-30
20
-14.9857535133679
30
0
41
1
10
-30
20
-15.0465122321639
30
0
41
1
10
-30
20
-15.1055630695376
30
0
41
1
10
-30
20
-15.1823146060513
30
0
41
1
10
-30
20
-15.2546726312332
30
0
41
1
10
-30
20
-15.3243986497297
30
0
41
1
10
-30
20
-15.3917322452796
30
0
41
1
10
-30
20
-15.4546352005829
30
0
41
1
10
-30
20
-15.5146768877911
30
0
41
1
10
-30
20
-15.5722298782127
30
0
41
1
10
-30
20
-15.6253102421943
30
0
41
1
10
-30
20
-15.6752710489662
30
0
41
1
10
-30
20
-15.7106367362118
30
0
41
1
10
-30
20
-15.7440468008705
30
0
41
1
10
-30
20
-15.7861515665346
30
0
41
1
10
-30
20
-15.8237020814765
30
0
41
1
10
-30
20
-15.8576872273509
30
0
41
1
10
-30
20
-15.8809772969169
30
0
41
1
10
-30
20
-15.9021692417172
30
0
41
1
10
-30
20
-15.921235563756
30
0
41
1
10
-30
20
-15.9381491696965
30
0
41
1
10
-30
20
-15.9528811556007
30
0
41
1
10
-30
20
-15.9654018081648
30
0
41
1
10
-30
20
-15.9756808201301
30
0
41
1
10
-30
20
-15.9836860510364
30
0
41
1
10
-30
20
-15.989385071505
30
0
41
1
10
-30
20
-15.992743547039
30
0
41
1
10
-30
20
-15.9936126366526
30
0
41
1
10
-30
20
-15.9930576757962
30
0
41
1
10
-30
20
-15.9926664236495
30
0
0
SPLINE
5
197
100
AcDbEntity
8
1
62
256
6
ByLayer
370
18
48
1
60
0
100
AcDbSpline
70
4
71
3
72
8
73
4
40
0
40
0
40
0
40
0
40
1
40
1
40
1
40
1
41
1
10
17.4495574936458
20
21.2549759673791
30
0
41
1
10
17.4419789771171
20
21.2849367393136
30
0
41
1
10
17.4355054292484
20
21.3129189568482
30
0
41
1
10
17.4303191742212
20
21.3388478541342
30
0
0
SPLINE
5
198
100
AcDbEntity
8
1
62
256
6
ByLayer
370
18
48
1
60
0
100
AcDbSpline
70
4
71
3
72
8
73
4
40
0
40
0
40
0
40
0
40
1
40
1
40
1
40
1
41
1
10
22.501943483083
20
30.8743827170475
30
0
41
1
10
22.5369756271627
20
31.0206005720796
30
0
41
1
10
22.6022163678422
20
31.1698248792157
30
0
41
1
10
22.6994327635229
20
31.322231501523
30
0
0
SPLINE
5
199
100
AcDbEntity
8
1
62
256
6
ByLayer
370
18
48
1
60
0
100
AcDbSpline
70
4
71
3
72
12
73
8
40
0
40
0
40
0
40
0
40
0.392678099449944
40
0.392678099449944
40
0.79127933596611
40
0.79127933596611
40
1
40
1
40
1
40
1
41
1
10
43.1121156264509
20
19.9539448588638
30
0
41
1
10
43.0947047599496
20
19.9454995063538
30
0
41
1
10
43.0768998218578
20
19.9356193729985
30
0
41
1
10
43.0431581007947
20
19.9138659275282
30
0
41
1
10
43.0268571998317
20
19.9016851900901
30
0
41
1
10
43.0051344372263
20
19.8829729637897
30
0
41
1
10
42.9980850313121
20
19.8764036082018
30
0
41
1
10
42.9915758388449
20
19.8698789415249
30
0
0
SPLINE
5
19A
100
AcDbEntity
8
1
62
256
6
ByLayer
370
18
48
1
60
0
100
AcDbSpline
70
4
71
3
72
14
73
10
40
0
40
0
40
0
40
0
40
0.164525200330971
40
0.164525200330971
40
0.540804984924852
40
0.540804984924852
40
0.917041398719692
40
0.917041398719692
40
1
40
1
40
1
40
1
41
1
10
42.7976832798602
20
21.9568214314868
30
0
41
1
10
42.8037121151588
20
21.9520081508344
30
0
41
1
10
42.8100601388464
20
21.9473030425621
30
0
41
1
10
42.831771503086
20
21.9324861848836
30
0
41
1
10
42.8486720895802
20
21.9229755239033
30
0
41
1
10
42.8836193275266
20
21.9073476842461
30
0
41
1
10
42.9020523100534
20
21.9010477318206
30
0
41
1
10
42.9239700273144
20
21.8954617968473
30
0
41
1
10
42.9279453349183
20
21.8945242173708
30
0
41
1
10
42.9319013903138
20
21.8936621366433
30
0
0
SPLINE
5
19B
100
AcDbEntity
8
1
62
256
6
ByLayer
370
18
48
1
60
0
100
AcDbSpline
70
4
71
3
72
14
73
10
40
0
40
0
40
0
40
0
40
0.164525200330966
40
0.164525200330966
40
0.54080498492486
40
0.54080498492486
40
0.917041398719709
40
0.917041398719709
40
1
40
1
40
1
40
1
41
1
10
41.9576688873826
20
19.7850317101128
30
0
41
1
10
41.9509768163822
20
19.7891817550634
30
0
41
1
10
41.9440510950552
20
19.7933091656963
30
0
41
1
10
41.9207912232285
20
19.8065775157876
30
0
41
1
10
41.9033639949387
20
19.8155615349724
30
0
41
1
10
41.8686926203836
20
19.8314652380209
30
0
41
1
10
41.8510616355871
20
19.8385671881767
30
0
41
1
10
41.8307332564461
20
19.84574246127
30
0
41
1
10
41.827071392374
20
19.8469934842784
30
0
41
1
10
41.8234507769292
20
19.8481910049565
30
0
0
SPLINE
5
19C
100
AcDbEntity
8
1
62
256
6
ByLayer
370
18
48
1
60
0
100
AcDbSpline
70
4
71
3
72
14
73
10
40
0
40
0
40
0
40
0
40
0.0829586012802275
40
0.0829586012802275
40
0.459195015075156
40
0.459195015075156
40
0.835474799669106
40
0.835474799669106
40
1
40
1
40
1
40
1
41
1
10
43.5321228226904
20
21.039839719552
30
0
41
1
10
43.5316308830106
20
21.0357740527951
30
0
41
1
10
43.5312004464013
20
21.0316690094035
30
0
41
1
10
43.5292004900502
20
21.0089216829405
30
0
41
1
10
43.5289536984883
20
20.9893515536099
30
0
41
1
10
43.5317834706045
20
20.9512411288496
30
0
41
1
10
43.5349002551536
20
20.932276831746
30
0
41
1
10
43.5412317264521
20
20.9072024087576
30
0
41
1
10
43.5434169264281
20
20.8997689007442
30
0
41
1
10
43.5458011455353
20
20.8926145073677
30
0
0
SPLINE
5
19D
100
AcDbEntity
8
1
62
256
6
ByLayer
370
18
48
1
60
0
100
AcDbSpline
70
4
71
3
72
14
73
10
40
0
40
0
40
0
40
0
40
0.082958601280302
40
0.082958601280302
40
0.459195015075157
40
0.459195015075157
40
0.835474799669019
40
0.835474799669019
40
1
40
1
40
1
40
1
41
1
10
41.2232293445526
20
20.7020134220478
30
0
41
1
10
41.2233858442817
20
20.7057436488541
30
0
41
1
10
41.2235028373593
20
20.7095352487138
30
0
41
1
10
41.2239134555903
20
20.7306932370569
30
0
41
1
10
41.2233582494219
20
20.7494613686571
30
0
41
1
10
41.2202526139144
20
20.7872959300261
30
0
41
1
10
41.2176624711609
20
20.8067868689253
30
0
41
1
10
41.2128795074495
20
20.8334097995008
30
0
41
1
10
41.2112720051129
20
20.8414210051536
30
0
41
1
10
41.2095510217075
20
20.8492386342319
30
0
0
SPLINE
5
19E
100
AcDbEntity
8
1
62
256
6
ByLayer
370
18
48
1
60
0
100
AcDbSpline
70
4
71
3
72
12
73
8
40
0
40
0
40
0
40
0
40
0.392678099452574
40
0.392678099452574
40
0.79127933596875
40
0.79127933596875
40
1
40
1
40
1
40
1
41
1
10
41.6432365407924
20
21.7879082827363
30
0
41
1
10
41.6590727016753
20
21.7947789296278
30
0
41
1
10
41.6757882327923
20
21.8035696560083
30
0
41
1
10
41.7087666387289
20
21.824559786352
30
0
41
1
10
41.7254174364355
20
21.8370904205337
30
0
41
1
10
41.7486655202531
20
21.8573279680465
30
0
41
1
10
41.7564216548174
20
21.8646040522845
30
0
41
1
10
41.7637763283985
20
21.8719742000753
30
0
0
SPLINE
5
19F
100
AcDbEntity
8
1
62
256
6
ByLayer
370
18
48
1
60
0
100
AcDbSpline
70
4
71
3
72
12
73
8
40
0
40
0
40
0
40
0
40
0.5
40
0.5
40
0.75
40
0.75
40
1
40
1
40
1
40
1
41
1
10
41.238998805757
20
11.4146898057887
30
0
41
1
10
40.8512097084163
20
11.3477911300837
30
0
41
1
10
40.467448891678
20
11.392385547125
30
0
41
1
10
39.7218387086236
20
11.6510047710525
30
0
41
1
10
39.4532273279564
20
11.774260064687
30
0
41
1
10
38.9152548930469
20
12.0852649600444
30
0
41
1
10
38.6474666936126
20
12.2833939952687
30
0
41
1
10
38.4626484811078
20
12.3792802375447
30
0
0
SPLINE
5
1A0
100
AcDbEntity
8
1
62
256
6
ByLayer
370
18
48
1
60
0
100
AcDbSpline
70
4
71
3
72
8
73
4
40
0
40
0
40
0
40
0
40
1
40
1
40
1
40
1
41
1
10
38.0168579671085
20
12.6509755971734
30
0
41
1
10
38.1545927004279
20
12.5528337386466
30
0
41
1
10
38.3041060726618
20
12.4615342296208
30
0
41
1
10
38.4626484811082
20
12.3792802375428
30
0
0
SPLINE
5
1A1
100
AcDbEntity
8
1
62
256
6
ByLayer
370
18
48
1
60
0
100
AcDbSpline
70
4
71
3
72
12
73
8
40
0
40
0
40
0
40
0
40
0.323114842069759
40
0.323114842069759
40
0.710369726849214
40
0.710369726849214
40
1
40
1
40
1
40
1
41
1
10
46.3707837355526
20
18.8298421673876
30
0
41
1
10
46.6197532808069
20
19.1349493234313
30
0
41
1
10
46.8297530267465
20
19.4786189877501
30
0
41
1
10
47.1799182943716
20
20.2711323212067
30
0
41
1
10
47.3037626093562
20
20.739517281248
30
0
41
1
10
47.3721933057893
20
21.5621817175085
30
0
41
1
10
47.3537516696509
20
21.9236748147457
30
0
41
1
10
47.283446003799
20
22.2680736723693
30
0
0
SPLINE
5
1A2
100
AcDbEntity
8
1
62
256
6
ByLayer
370
18
48
1
60
0
100
AcDbSpline
70
4
71
3
72
18
73
14
40
0
40
0
40
0
40
0
40
0.0739908643221356
40
0.0739908643221356
40
0.163840977644155
40
0.163840977644155
40
0.285126848313322
40
0.285126848313322
40
0.443670962440909
40
0.443670962440909
40
0.655194408808953
40
0.655194408808953
40
1
40
1
40
1
40
1
41
1
10
33.0880832389443
20
20.0246658208434
30
0
41
1
10
33.0780844517347
20
20.0874183015864
30
0
41
1
10
33.0611137305894
20
20.1623052593954
30
0
41
1
10
33.0185332646988
20
20.3385429218881
30
0
41
1
10
32.991502372175
20
20.444834548424
30
0
41
1
10
32.9333549589196
20
20.6957700946985
30
0
41
1
10
32.9030970299831
20
20.8454951658963
30
0
41
1
10
32.8520584314464
20
21.1786720427713
30
0
41
1
10
32.8358055887953
20
21.3644218003431
30
0
41
1
10
32.8276502790232
20
21.7627280273713
30
0
41
1
10
32.8445710764419
20
21.9702337700972
30
0
41
1
10
32.9285106785685
20
22.4472467172588
30
0
41
1
10
33.0173726013231
20
22.6868293045737
30
0
41
1
10
33.1598511370377
20
22.9073773681602
30
0
0
SPLINE
5
1A3
100
AcDbEntity
8
1
62
256
6
ByLayer
370
18
48
1
60
0
100
AcDbSpline
70
4
71
3
72
11
73
7
40
0
40
0
40
0
40
0
40
0.267973217480477
40
0.487581252236334
40
0.707189286992191
40
1
40
1
40
1
40
1
41
1.02490899992583
10
47.2834459591339
20
22.2680736397583
30
0
41
1.02299818101095
10
48.3550003649719
20
23.0504377075878
30
0
41
1.01918124210004
10
50.2024386487115
20
24.4375674210482
30
0
41
1.0133636309892
10
53.093118474391
20
26.8945246682609
30
0
41
1.01210337903089
10
54.6776062071824
20
28.096721997661
30
0
41
1.00942740489664
10
55.9608338573243
20
29.2368441543178
30
0
41
1.00890738029382
10
56.5001437610147
20
29.7700888301411
30
0
0
SPLINE
5
1A4
100
AcDbEntity
8
1
62
256
6
ByLayer
370
18
48
1
60
0
100
AcDbSpline
70
4
71
3
72
8
73
4
40
0
40
0
40
0
40
0
40
1
40
1
40
1
40
1
41
1
10
33.2106038468259
20
19.4879315750463
30
0
41
1
10
33.1588579897622
20
19.6593282017307
30
0
41
1
10
33.1176030987376
20
19.8393989085159
30
0
41
1
10
33.0880832389426
20
20.0246658208443
30
0
0
SPLINE
5
1A5
100
AcDbEntity
8
1
62
256
6
ByLayer
370
18
48
1
60
0
100
AcDbSpline
70
4
71
3
72
12
73
8
40
0
40
0
40
0
40
0
40
0.402184145094043
40
0.402184145094043
40
0.696777465474684
40
0.696777465474684
40
1
40
1
40
1
40
1
41
1
10
56.4904325136425
20
29.7604947207122
30
0
41
1
10
56.5027543701681
20
29.7233800645766
30
0
41
1
10
56.5139401903045
20
29.6845062526585
30
0
41
1
10
56.5306153227495
20
29.6160559523298
30
0
41
1
10
56.5368831324529
20
29.5865530789259
30
0
41
1
10
56.5477337013753
20
29.5267460161947
30
0
41
1
10
56.5523033983221
20
29.4962040708085
30
0
41
1
10
56.5558286464976
20
29.4662797375828
30
0
0
SPLINE
5
1A6
100
AcDbEntity
8
1
62
256
6
ByLayer
370
18
48
1
60
0
100
AcDbSpline
70
4
71
3
72
18
73
14
40
0
40
0
40
0
40
0
40
0.150186459400628
40
0.150186459400628
40
0.339592137529984
40
0.339592137529984
40
0.523539642595952
40
0.523539642595952
40
0.716564624108241
40
0.716564624108241
40
0.935518218901375
40
0.935518218901375
40
1
40
1
40
1
40
1
41
1
10
52.9515240562889
20
22.4952230824999
30
0
41
1
10
52.9487614196145
20
22.5006172353394
30
0
41
1
10
52.9476484182387
20
22.5084831364573
30
0
41
1
10
52.9492462522527
20
22.5312658748024
30
0
41
1
10
52.9530961312215
20
22.5478584425727
30
0
41
1
10
52.9658520296451
20
22.5854050263735
30
0
41
1
10
52.974755395674
20
22.6066762580875
30
0
41
1
10
52.9965902314667
20
22.6523239597335
30
0
41
1
10
53.0099388161567
20
22.6773323011068
30
0
41
1
10
53.0407037621777
20
22.7305022420594
30
0
41
1
10
53.0587717494799
20
22.7592596567659
30
0
41
1
10
53.0827886629598
20
22.7950376789884
30
0
41
1
10
53.0883347658405
20
22.8031410485395
30
0
41
1
10
53.0939174298241
20
22.811147550266
30
0
0
SPLINE
5
1A7
100
AcDbEntity
8
1
62
256
6
ByLayer
370
18
48
1
60
0
100
AcDbSpline
70
4
71
3
72
8
73
4
40
0
40
0
40
0
40
0
40
1
40
1
40
1
40
1
41
1
10
56.5558286464976
20
29.4662797375828
30
0
41
1
10
56.57527926039
20
29.2948263062027
30
0
41
1
10
56.5778127564725
20
29.1149822932727
30
0
41
1
10
56.5606785654269
20
28.9378713778226
30
0
0
SPLINE
5
1A8
100
AcDbEntity
8
1
62
256
6
ByLayer
370
18
48
1
60
0
100
AcDbSpline
70
4
71
3
72
8
73
4
40
0
40
0
40
0
40
0
40
1
40
1
40
1
40
1
41
1
10
48.1234652338802
20
16.0122502819614
30
0
41
1
10
47.9861696698834
20
15.91764071933
30
0
41
1
10
47.8492286246472
20
15.8233207937556
30
0
41
1
10
47.7130137934912
20
15.7295851537552
30
0
0
SPLINE
5
1A9
100
AcDbEntity
8
1
62
256
6
ByLayer
370
18
48
1
60
0
100
AcDbSpline
70
4
71
3
72
8
73
4
40
0
40
0
40
0
40
0
40
1
40
1
40
1
40
1
41
1
10
43.851134463134
20
16.8752491120072
30
0
41
1
10
43.1061326824252
20
16.3556757880593
30
0
41
1
10
42.1944532479296
20
16.1234980722212
30
0
41
1
10
41.3136831766229
20
16.2141201424999
30
0
0
SPLINE
5
1AA
100
AcDbEntity
8
1
62
256
6
ByLayer
370
18
48
1
60
0
100
AcDbSpline
70
4
71
3
72
8
73
4
40
0
40
0
40
0
40
0
40
1
40
1
40
1
40
1
41
1
10
37.1148215095157
20
20.6089348324808
30
0
41
1
10
36.8819204688906
20
20.3033651493303
30
0
41
1
10
36.6040533541191
20
20.0484790246304
30
0
41
1
10
36.3173391383532
20
19.841888204019
30
0
0
SPLINE
5
1AB
100
AcDbEntity
8
1
62
256
6
ByLayer
370
18
48
1
60
0
100
AcDbSpline
70
4
71
3
72
8
73
4
40
0
40
0
40
0
40
0
40
1
40
1
40
1
40
1
41
1
10
54.9346782509414
20
31.2508769517958
30
0
41
1
10
55.1068220863313
20
31.2074847294582
30
0
41
1
10
55.2742733996662
20
31.1455232469213
30
0
41
1
10
55.4276134800508
20
31.0711797768906
30
0
0
SPLINE
5
1AC
100
AcDbEntity
8
1
62
256
6
ByLayer
370
18
48
1
60
0
100
AcDbSpline
70
4
71
3
72
12
73
8
40
0
40
0
40
0
40
0
40
0.412488217320858
40
0.412488217320858
40
0.702829232095127
40
0.702829232095127
40
1
40
1
40
1
40
1
41
1
10
55.4276134800508
20
31.0711797768906
30
0
41
1
10
55.4638999874882
20
31.053351077753
30
0
41
1
10
55.5007869869392
20
31.033082973145
30
0
41
1
10
55.5617612619082
20
30.9959869535247
30
0
41
1
10
55.5866616128404
20
30.9797651273563
30
0
41
1
10
55.635502849762
20
30.9457962961167
30
0
41
1
10
55.6595529294227
20
30.927921138466
30
0
41
1
10
55.6825707440208
20
30.9096880877048
30
0
0
SPLINE
5
1AD
100
AcDbEntity
8
1
62
256
6
ByLayer
370
18
48
1
60
0
100
AcDbSpline
70
4
71
3
72
13
73
9
40
0
40
0
40
0
40
0
40
0.287855605153639
40
0.287855605153639
40
0.605649284587146
40
0.605649284587146
40
0.605649284587146
40
1
40
1
40
1
40
1
41
1
10
45.3272866939053
20
25.0507345040157
30
0
41
1
10
45.0279032133131
20
25.2337392423988
30
0
41
1
10
44.6960767146836
20
25.3731743260149
30
0
41
1
10
43.9816044084507
20
25.565996961144
30
0
41
1
10
43.5889376505355
20
25.6121507857695
30
0
41
1
10
43.2007626241673
20
25.6067592327025
30
0
41
1
10
42.7213435264836
20
25.6001003460383
30
0
41
1
10
42.2350599896139
20
25.5142092766239
30
0
41
1
10
41.7827341801244
20
25.3563994508209
30
0
0
SPLINE
5
1AE
100
AcDbEntity
8
1
62
256
6
ByLayer
370
18
48
1
60
0
100
AcDbSpline
70
4
71
3
72
8
73
4
40
0
40
0
40
0
40
0
40
1
40
1
40
1
40
1
41
1
10
54.1323772563693
20
31.447787979561
30
0
41
1
10
54.3985101795536
20
31.3840114297507
30
0
41
1
10
54.6663295219299
20
31.3185195001735
30
0
41
1
10
54.9346782509414
20
31.2508769517958
30
0
0
SPLINE
5
1AF
100
AcDbEntity
8
1
62
256
6
ByLayer
370
18
48
1
60
0
100
AcDbSpline
70
4
71
3
72
8
73
4
40
0
40
0
40
0
40
0
40
1
40
1
40
1
40
1
41
1
10
56.4769928310575
20
28.1125433029334
30
0
41
1
10
56.5058608129886
20
28.38627906892
30
0
41
1
10
56.5339687016706
20
28.6617796493702
30
0
41
1
10
56.5606785654269
20
28.9378713778226
30
0
0
SPLINE
5
1B0
100
AcDbEntity
8
1
62
256
6
ByLayer
370
18
48
1
60
0
100
AcDbSpline
70
4
71
3
72
13
73
9
40
0
40
0
40
0
40
0
40
0.250649945521669
40
0.250649945521669
40
0.250649945521669
40
0.653057935862513
40
0.653057935862513
40
1
40
1
40
1
40
1
41
1
10
47.283446003799
20
22.2680736723693
30
0
41
1
10
47.2251569185323
20
22.5534121523192
30
0
41
1
10
47.1361723433389
20
22.8348174840843
30
0
41
1
10
47.0196657593336
20
23.103086742004
30
0
41
1
10
46.8342369021759
20
23.5300571345476
30
0
41
1
10
46.5737542797989
20
23.9329581882119
30
0
41
1
10
45.9883364691781
20
24.5775377505671
30
0
41
1
10
45.671001510597
20
24.840562567702
30
0
41
1
10
45.3272866939053
20
25.0507345040157
30
0
0
SPLINE
5
1B1
100
AcDbEntity
8
1
62
256
6
ByLayer
370
18
48
1
60
0
100
AcDbSpline
70
4
71
3
72
8
73
4
40
0
40
0
40
0
40
0
40
1
40
1
40
1
40
1
41
1
10
45.5181947313653
20
18.0378772656773
30
0
41
1
10
45.8390340182038
20
18.261634495569
30
0
41
1
10
46.1221402537573
20
18.5270487379002
30
0
41
1
10
46.3707837337935
20
18.8298421652453
30
0
0
SPLINE
5
1B2
100
AcDbEntity
8
1
62
256
6
ByLayer
370
18
48
1
60
0
100
AcDbSpline
70
4
71
3
72
16
73
12
40
0
40
0
40
0
40
0
40
0.25
40
0.25
40
0.5
40
0.5
40
0.75
40
0.75
40
0.875
40
0.875
40
1
40
1
40
1
40
1
41
1
10
54.1323772563693
20
31.447787979561
30
0
41
1
10
53.1043527636722
20
31.0545642197634
30
0
41
1
10
52.0139339230913
20
30.6657290605051
30
0
41
1
10
49.5917359264253
20
29.9050351837134
30
0
41
1
10
48.3788040005758
20
29.5251468012244
30
0
41
1
10
45.8858549032173
20
28.7843771258665
30
0
41
1
10
44.5400936318826
20
28.4222156280504
30
0
41
1
10
42.5794526544258
20
28.0178353114627
30
0
41
1
10
41.9272704470003
20
27.9059803911637
30
0
41
1
10
40.7787691770524
20
27.7707783575074
30
0
41
1
10
40.2805975992645
20
27.7477204195361
30
0
41
1
10
39.8677464339715
20
27.7561124640508
30
0
0
SPLINE
5
1B3
100
AcDbEntity
8
1
62
256
6
ByLayer
370
18
48
1
60
0
100
AcDbSpline
70
4
71
3
72
11
73
7
40
0
40
0
40
0
40
0
40
0.379837525225127
40
0.56975628783769
40
0.759675050450254
40
1
40
1
40
1
40
1
41
1.02830968163241
10
47.4937702758855
20
16.5451427828035
30
0
41
1.02565532568264
10
49.1090013669386
20
18.5426653977653
30
0
41
1.02058995167321
10
50.9572215889514
20
21.323718565431
30
0
41
1.0133636309892
10
53.4759220616715
20
26.288410318766
30
0
41
1.01212905948733
10
55.0301601705999
20
27.4350023401261
30
0
41
1.0095816818588
10
56.0564976192404
20
28.9019864732687
30
0
41
1.00899450091457
10
56.5558286404648
20
29.4662797307653
30
0
0
SPLINE
5
1B4
100
AcDbEntity
8
1
62
256
6
ByLayer
370
18
48
1
60
0
100
AcDbSpline
70
4
71
3
72
11
73
7
40
0
40
0
40
0
40
0
40
0.267973217054011
40
0.487581251937808
40
0.707189286821604
40
1
40
1
40
1
40
1
41
1.02490899991337
10
45.3272866549225
20
25.0507344783358
30
0
41
1.02299818100183
10
46.4355871255401
20
25.7808268087163
30
0
41
1.01918124209525
10
48.3877347904408
20
27.0190061272064
30
0
41
1.0133636309892
10
51.7355756692342
20
28.8256461122489
30
0
41
1.01210337903089
10
53.4430822201823
20
29.8528476500973
30
0
41
1.00942740489664
10
54.9896422272903
20
30.6183762694398
30
0
41
1.00890738029382
10
55.6952686691013
20
30.9150336111246
30
0
0
SPLINE
5
1B5
100
AcDbEntity
8
1
62
256
6
ByLayer
370
18
48
1
60
0
100
AcDbSpline
70
4
71
3
72
10
73
6
40
0
40
0
40
0
40
0
40
0.354797248100701
40
0.354797248100701
40
1
40
1
40
1
40
1
41
1
10
55.9792997930469
20
26.8941590248562
30
0
41
1
10
56.0196295260004
20
26.9525242563802
30
0
41
1
10
56.0596845521604
20
27.0115032072177
30
0
41
1
10
56.1714712408255
20
27.1790405136417
30
0
41
1
10
56.2424215899433
20
27.2888921297666
30
0
41
1
10
56.3113467735325
20
27.3990985923109
30
0
0
SPLINE
5
1B6
100
AcDbEntity
8
1
62
256
6
ByLayer
370
18
48
1
60
0
100
AcDbSpline
70
4
71
3
72
10
73
6
40
0
40
0
40
0
40
0
40
0.701991234620361
40
0.701991234620361
40
1
40
1
40
1
40
1
41
1
10
47.7782663648348
20
28.3004425165378
30
0
41
1
10
47.7456372439135
20
28.3042174648933
30
0
41
1
10
47.7118479828998
20
28.3062082268378
30
0
41
1
10
47.6660020605548
20
28.3065079763491
30
0
41
1
10
47.6524751902738
20
28.306285251409
30
0
41
1
10
47.6393388396181
20
28.3057788162762
30
0
0
SPLINE
5
1B7
100
AcDbEntity
8
1
62
256
6
ByLayer
370
18
48
1
60
0
100
AcDbSpline
70
4
71
3
72
10
73
6
40
0
40
0
40
0
40
0
40
0.560712447053337
40
0.560712447053337
40
1
40
1
40
1
40
1
41
1
10
40.2882014342704
20
16.0947626094487
30
0
41
1
10
40.4517811726154
20
16.148109021999
30
0
41
1
10
40.6263032658636
20
16.1887321084902
30
0
41
1
10
40.9369791587812
20
16.2262155040135
30
0
41
1
10
41.0758354047558
20
16.2308297140854
30
0
41
1
10
41.2082267320837
20
16.2227534844514
30
0
0
SPLINE
5
1B8
100
AcDbEntity
8
1
62
256
6
ByLayer
370
18
48
1
60
0
100
AcDbSpline
70
4
71
2
72
6
73
3
40
0
40
0
40
0
40
1
40
1
40
1
41
1.02830968163241
10
40.0923721028197
20
27.0737232984305
30
0
41
0.915286811692243
10
40.6786626838186
20
26.7047060015949
30
0
41
0.941103849220746
10
41.782734172745
20
25.3563994598327
30
0
0
SPLINE
5
1B9
100
AcDbEntity
8
1
62
256
6
ByLayer
370
18
48
1
60
0
100
AcDbSpline
70
4
71
3
72
8
73
4
40
0
40
0
40
0
40
0
40
1
40
1
40
1
40
1
41
1
10
39.8677464339715
20
27.7561124640508
30
0
41
1
10
39.7304508699739
20
27.6615029014189
30
0
41
1
10
39.5935098247369
20
27.5671829758439
30
0
41
1
10
39.45729499358
20
27.473447335843
30
0
0
SPLINE
5
1BA
100
AcDbEntity
8
1
62
256
6
ByLayer
370
18
48
1
60
0
100
AcDbSpline
70
4
71
3
72
8
73
4
40
0
40
0
40
0
40
0
40
1
40
1
40
1
40
1
41
1
10
40.2882014342704
20
16.0947626094487
30
0
41
1
10
39.9239883637028
20
15.9759859142706
30
0
41
1
10
39.5935894097973
20
15.7958269809775
30
0
41
1
10
39.3068751940314
20
15.5892361603661
30
0
0
SPLINE
5
1BB
100
AcDbEntity
8
1
62
256
6
ByLayer
370
18
48
1
60
0
100
AcDbSpline
70
4
71
2
72
6
73
3
40
0
40
0
40
0
40
1
40
1
40
1
41
0.941103849192081
10
46.3707837426997
20
18.8298421554952
30
0
41
0.915286811754989
10
47.2913690125317
20
17.2980493966901
30
0
41
1.02830968163241
10
47.4937702758855
20
16.5451427828035
30
0
0
SPLINE
5
1BC
100
AcDbEntity
8
1
62
256
6
ByLayer
370
18
48
1
60
0
100
AcDbSpline
70
4
71
2
72
6
73
3
40
0
40
0
40
0
40
1
40
1
40
1
41
1.00890738029382
10
56.5001437610147
20
29.7700888301411
30
0
41
1.00890738029382
10
56.097706215058
20
30.3425612206329
30
0
41
1.00890738029382
10
55.6952686691014
20
30.9150336111246
30
0
0
SPLINE
5
1BD
100
AcDbEntity
8
1
62
256
6
ByLayer
370
18
48
1
60
0
100
AcDbSpline
70
4
71
1
72
4
73
2
40
0
40
0
40
1
40
1
41
1
10
40.0923721028197
20
27.0737232984305
30
0
41
1
10
39.45729499358
20
27.473447335843
30
0
0
SPLINE
5
1BE
100
AcDbEntity
8
1
62
256
6
ByLayer
370
18
48
1
60
0
100
AcDbSpline
70
4
71
3
72
18
73
14
40
0
40
0
40
0
40
0
40
0.0367931396620189
40
0.0367931396620189
40
0.291979817817009
40
0.291979817817009
40
0.505668143229399
40
0.505668143229399
40
0.721016338466067
40
0.721016338466067
40
0.911566759950593
40
0.911566759950593
40
1
40
1
40
1
40
1
41
1
10
48.0051924833174
20
30.0499217748639
30
0
41
1
10
47.9997864644523
20
30.0485012549509
30
0
41
1
10
47.9943591522732
20
30.0470981234338
30
0
41
1
10
47.9515099462337
20
30.036204901398
30
0
41
1
10
47.9127644959427
20
30.0274850879205
30
0
41
1
10
47.8447411059768
20
30.0146062632904
30
0
41
1
10
47.8142018362766
20
30.0098096724126
30
0
41
1
10
47.7594591822569
20
30.0035660974273
30
0
41
1
10
47.7345189667944
20
30.0020743357263
30
0
41
1
10
47.6977103299397
20
30.0029306255804
30
0
41
1
10
47.6841812762174
20
30.0048705422579
30
0
41
1
10
47.6714161959297
20
30.0096692575521
30
0
41
1
10
47.6683323292517
20
30.011500904363
30
0
41
1
10
47.6662539580366
20
30.0135852182856
30
0
0
SPLINE
5
1BF
100
AcDbEntity
8
1
62
256
6
ByLayer
370
18
48
1
60
0
100
AcDbSpline
70
4
71
3
72
8
73
4
40
0
40
0
40
0
40
0
40
1
40
1
40
1
40
1
41
1
10
41.2082267320837
20
16.2227534844514
30
0
41
1
10
41.2435001552343
20
16.2206017100785
30
0
41
1
10
41.2786702892271
20
16.2177226040793
30
0
41
1
10
41.3136831766228
20
16.2141201424998
30
0
0
SPLINE
5
1C0
100
AcDbEntity
8
1
62
256
6
ByLayer
370
18
48
1
60
0
100
AcDbSpline
70
4
71
3
72
8
73
4
40
0
40
0
40
0
40
0
40
1
40
1
40
1
40
1
41
1
10
40.7464352578791
20
24.825764181508
30
0
41
1
10
41.0672745448228
20
25.049521411473
30
0
41
1
10
41.4135825146183
20
25.22503040475
30
0
41
1
10
41.782734177876
20
25.3563994500208
30
0
0
SPLINE
5
1C1
100
AcDbEntity
8
1
62
256
6
ByLayer
370
18
48
1
60
0
100
AcDbSpline
70
4
71
3
72
8
73
4
40
0
40
0
40
0
40
0
40
1
40
1
40
1
40
1
41
1
10
37.5763610715147
20
21.530507097556
30
0
41
1
10
37.5675710040572
20
21.4968072731876
30
0
41
1
10
37.5580546722443
20
21.4631935280433
30
0
41
1
10
37.5478263314973
20
21.4297183626893
30
0
0
SPLINE
5
1C2
100
AcDbEntity
8
1
62
256
6
ByLayer
370
18
48
1
60
0
100
AcDbSpline
70
4
71
3
72
10
73
6
40
0
40
0
40
0
40
0
40
0.56071244705334
40
0.56071244705334
40
1
40
1
40
1
40
1
41
1
10
37.1148215095157
20
20.6089348324808
30
0
41
1
10
37.2194248155595
20
20.7461759499894
30
0
41
1
10
37.31633253984
20
20.897206437047
30
0
41
1
10
37.4573688596302
20
21.1760042251412
30
0
41
1
10
37.5094364195774
20
21.3040764153568
30
0
41
1
10
37.5478263314972
20
21.4297183626893
30
0
0
SPLINE
5
1C3
100
AcDbEntity
8
1
62
256
6
ByLayer
370
18
48
1
60
0
100
AcDbSpline
70
4
71
2
72
6
73
3
40
0
40
0
40
0
40
1
40
1
40
1
41
1.02830968163241
10
47.4937702758855
20
16.5451427828035
30
0
41
1.02830968163241
10
47.6033920346883
20
16.1373639682793
30
0
41
1.02830968163241
10
47.7130137934912
20
15.7295851537552
30
0
0
SPLINE
5
1C4
100
AcDbEntity
8
1
62
256
6
ByLayer
370
18
48
1
60
0
100
AcDbSpline
70
4
71
3
72
16
73
12
40
0
40
0
40
0
40
0
40
0.125
40
0.125
40
0.250000000000001
40
0.250000000000001
40
0.5
40
0.5
40
0.75
40
0.75
40
1
40
1
40
1
40
1
41
1
10
48.1234652338802
20
16.0122502819614
30
0
41
1
10
48.2394739653913
20
16.4263452542428
30
0
41
1
10
48.4121205430117
20
16.8999884436473
30
0
41
1
10
48.9155940895866
20
17.9803183415377
30
0
41
1
10
49.2347728486048
20
18.5629501810573
30
0
41
1
10
50.286775944496
20
20.3074433490444
30
0
41
1
10
51.0841940457354
20
21.4291749026712
30
0
41
1
10
52.6400345130109
20
23.4787995950839
30
0
41
1
10
53.4188430136189
20
24.4669552223276
30
0
41
1
10
54.9765624509005
20
26.4390391778262
30
0
41
1
10
55.7370763232711
20
27.311840503509
30
0
41
1
10
56.4769928310576
20
28.1125433029334
30
0
0
SPLINE
5
1C5
100
AcDbEntity
8
1
62
256
6
ByLayer
370
18
48
1
60
0
100
AcDbSpline
70
4
71
3
72
11
73
7
40
0
40
0
40
0
40
0
40
0.379837525225124
40
0.569756287837685
40
0.759675050450247
40
1
40
1
40
1
40
1
41
1.02830968163241
10
40.0923721028197
20
27.0737232984305
30
0
41
1.02565532568264
10
42.5160355274685
20
27.921240912066
30
0
41
1.02058995167321
10
45.7533380569522
20
28.7263073033005
30
0
41
1.0133636309892
10
51.3017598613595
20
29.3811829604715
30
0
41
1.01212905948733
10
52.9496089900389
20
30.3946121475237
30
0
41
1.0095816818588
10
54.7077400890453
20
30.8206107548789
30
0
41
1.00899450091457
10
55.4276134713535
20
31.0711797738633
30
0
0
SPLINE
5
1C6
100
AcDbEntity
8
1
62
256
6
ByLayer
370
18
48
1
60
0
100
AcDbSpline
70
4
71
3
72
8
73
4
40
0
40
0
40
0
40
0
40
1
40
1
40
1
40
1
41
1
10
37.5763610715147
20
21.530507097556
30
0
41
1
10
37.7998255168233
20
22.3872368775995
30
0
41
1
10
38.3193741100629
20
23.1331021494846
30
0
41
1
10
39.0793749896477
20
23.6631360278378
30
0
0
SPLINE
5
1C7
100
AcDbEntity
8
1
62
256
6
ByLayer
370
18
48
1
60
0
100
AcDbSpline
70
4
71
3
72
10
73
6
40
0
40
0
40
0
40
0
40
0.725120705067374
40
0.725120705067374
40
1
40
1
40
1
40
1
41
1
10
43.7653074305205
20
7.5432969876193
30
0
41
1
10
43.6578408672349
20
7.11687079766173
30
0
41
1
10
43.4768707834916
20
6.70355341302252
30
0
41
1
10
43.1441589989288
20
6.19724352309743
30
0
41
1
10
43.0432042636771
20
6.06323507918864
30
0
41
1
10
42.9342884229674
20
5.93653729565193
30
0
0
SPLINE
5
1C8
100
AcDbEntity
8
1
62
256
6
ByLayer
370
18
48
1
60
0
100
AcDbSpline
70
4
71
2
72
6
73
3
40
0
40
0
40
0
40
1
40
1
40
1
41
1
10
35.723883338271
20
7.4097995433294
30
0
41
1
10
35.6863559634988
20
7.38529578188209
30
0
41
1
10
35.6488285887266
20
7.36079202043479
30
0
0
SPLINE
5
1C9
100
AcDbEntity
8
1
62
256
6
ByLayer
370
18
48
1
60
0
100
AcDbSpline
70
4
71
3
72
10
73
6
40
0
40
0
40
0
40
0
40
0.539719091383329
40
0.539719091383329
40
1
40
1
40
1
40
1
41
1
10
11.8943375672974
20
18.0555297374795
30
0
41
1
10
11.8505865771285
20
17.9003493387736
30
0
41
1
10
11.7896099247477
20
17.7517913508358
30
0
41
1
10
11.6420402748372
20
17.507646375978
30
0
41
1
10
11.5582831583753
20
17.4044945486358
30
0
41
1
10
11.4613248654053
20
17.3301020066931
30
0
0
SPLINE
5
1CA
100
AcDbEntity
8
1
62
256
6
ByLayer
370
18
48
1
60
0
100
AcDbSpline
70
4
71
2
72
10
73
7
40
0
40
0
40
0
40
0.256657635948895
40
0.469041168534925
40
0.681424701120955
40
0.78761646741397
40
1
40
1
40
1
41
1
10
39.9034096817267
20
4.64173322865119
30
0
41
1
10
39.2461789823204
20
4.7448319829472
30
0
41
1
10
38.032619440191
20
5.25268182577329
30
0
41
1
10
36.7961082085215
20
6.16751859677765
30
0
41
1
10
36.4086618850379
20
6.56948696581037
30
0
41
1
10
35.9783406006403
20
7.04790426984417
30
0
41
1
10
35.723883338271
20
7.4097995433294
30
0
0
SPLINE
5
1CB
100
AcDbEntity
8
1
62
256
6
ByLayer
370
18
48
1
60
0
100
AcDbSpline
70
4
71
3
72
8
73
4
40
0
40
0
40
0
40
0
40
1
40
1
40
1
40
1
41
1
10
21.4150979665882
20
26.3750235579347
30
0
41
1
10
21.5036689829913
20
26.7114623498435
30
0
41
1
10
21.5922950056591
20
27.0478870451375
30
0
41
1
10
21.6809703431662
20
27.3842991023746
30
0
0
SPLINE
5
1CC
100
AcDbEntity
8
1
62
256
6
ByLayer
370
18
48
1
60
0
100
AcDbSpline
70
4
71
3
72
8
73
4
40
0
40
0
40
0
40
0
40
1
40
1
40
1
40
1
41
1
10
20.9609847588647
20
-24.6427113305059
30
0
41
1
10
20.9475812745097
20
-24.5913467317342
30
0
41
1
10
20.934183755441
20
-24.5399825588158
30
0
41
1
10
20.92079238
20
-24.4886190390076
30
0
0
SPLINE
5
1CD
100
AcDbEntity
8
1
62
256
6
ByLayer
370
18
48
1
60
0
100
AcDbSpline
70
4
71
2
72
9
73
6
40
0
40
0
40
0
40
0.419655468653539
40
0.629483202980308
40
0.944224804470462
40
1
40
1
40
1
41
1.02613459695995
10
32.4111046043114
20
24.644194722973
30
0
41
1.02613459695995
10
31.6239222698686
20
24.0664558793273
30
0
41
1.02613459695995
10
30.9384632401595
20
22.6806894142838
30
0
41
1.02613459695995
10
30.6206269137388
20
21.3296023153539
30
0
41
1.02613459695995
10
30.6864858130862
20
20.2616818474644
30
0
41
1.02613459695995
10
30.7097630209151
20
20.091076233646
30
0
0
SPLINE
5
1CE
100
AcDbEntity
8
1
62
256
6
ByLayer
370
18
48
1
60
0
100
AcDbSpline
70
4
71
3
72
14
73
10
40
0
40
0
40
0
40
0
40
0.257146777765879
40
0.257146777765879
40
0.515043459777444
40
0.515043459777444
40
0.762218147059628
40
0.762218147059628
40
1
40
1
40
1
40
1
41
1
10
17.4303191742212
20
-23.4553549429959
30
0
41
1
10
17.4691434490962
20
-23.6190346355062
30
0
41
1
10
17.5852680371713
20
-23.7696203769467
30
0
41
1
10
17.9643662295079
20
-24.0254564367266
30
0
41
1
10
18.233500730627
20
-24.1343161849438
30
0
41
1
10
18.8755030997166
20
-24.301589819967
30
0
41
1
10
19.2526493539829
20
-24.3645598084091
30
0
41
1
10
20.053239606227
20
-24.4510990768829
30
0
41
1
10
20.4852178413433
20
-24.4774760852936
30
0
41
1
10
20.92079238
20
-24.4886190390076
30
0
0
SPLINE
5
1CF
100
AcDbEntity
8
1
62
256
6
ByLayer
370
18
48
1
60
0
100
AcDbSpline
70
4
71
3
72
8
73
4
40
0
40
0
40
0
40
0
40
1
40
1
40
1
40
1
41
1
10
42.7594986431973
20
9.92347611032821
30
0
41
1
10
43.2881749494752
20
9.17142752069719
30
0
41
1
10
43.6502370175641
20
8.31463188871308
30
0
41
1
10
43.7653074305205
20
7.54329698761924
30
0
0
SPLINE
5
1D0
100
AcDbEntity
8
1
62
256
6
ByLayer
370
18
48
1
60
0
100
AcDbSpline
70
4
71
3
72
12
73
8
40
0
40
0
40
0
40
0
40
0.323508446938384
40
0.323508446938384
40
0.661742905177699
40
0.661742905177699
40
1
40
1
40
1
40
1
41
1
10
26.4852216790223
20
24.2512732257493
30
0
41
1
10
26.4977304043991
20
24.2726244846963
30
0
41
1
10
26.5103235902931
20
24.2939258810279
30
0
41
1
10
26.5362544795371
20
24.3373944567008
30
0
41
1
10
26.5496001967519
20
24.3595572750074
30
0
41
1
10
26.5764743345205
20
24.403772135692
30
0
41
1
10
26.5900029919364
20
24.4258245402861
30
0
41
1
10
26.6036219145061
20
24.4478201966181
30
0
0
SPLINE
5
1D1
100
AcDbEntity
8
1
62
256
6
ByLayer
370
18
48
1
60
0
100
AcDbSpline
70
4
71
3
72
10
73
6
40
0
40
0
40
0
40
0
40
0.5
40
0.5
40
1
40
1
40
1
40
1
41
1
10
34.6138952776967
20
7.0610704173624
30
0
41
1
10
35.1527183849045
20
6.32496900195142
30
0
41
1
10
35.8914338249691
20
5.77565397215324
30
0
41
1
10
37.4856135101706
20
4.91345285594835
30
0
41
1
10
38.3828237117434
20
4.65551909628772
30
0
41
1
10
39.3095043093713
20
4.63306963988461
30
0
0
SPLINE
5
1D2
100
AcDbEntity
8
1
62
256
6
ByLayer
370
18
48
1
60
0
100
AcDbSpline
70
4
71
3
72
12
73
8
40
0
40
0
40
0
40
0
40
0.319932024559129
40
0.319932024559129
40
0.659954131885495
40
0.659954131885495
40
1
40
1
40
1
40
1
41
1
10
26.3704152775707
20
24.0496139842635
30
0
41
1
10
26.3823917297869
20
24.0712721734853
30
0
41
1
10
26.3944541741194
20
24.0928823828399
30
0
41
1
10
26.4195125385601
20
24.1373588508062
30
0
41
1
10
26.4325197315633
20
24.1602191605633
30
0
41
1
10
26.4587266174013
20
24.2058293666309
30
0
41
1
10
26.4719265524371
20
24.2285796533774
30
0
41
1
10
26.4852216782177
20
24.2512732264337
30
0
0
SPLINE
5
1D3
100
AcDbEntity
8
1
62
256
6
ByLayer
370
18
48
1
60
0
100
AcDbSpline
70
4
71
1
72
4
73
2
40
0
40
0
40
1
40
1
41
1
10
27.6751324191375
20
18.8592473531643
30
0
41
1
10
27.600077669593
20
18.8102398302695
30
0
0
SPLINE
5
1D4
100
AcDbEntity
8
1
62
256
6
ByLayer
370
18
48
1
60
0
100
AcDbSpline
70
4
71
3
72
8
73
4
40
0
40
0
40
0
40
0
40
1
40
1
40
1
40
1
41
1
10
39.9034096817263
20
4.64173322865122
30
0
41
1
10
41.0353699152102
20
4.70159690212813
30
0
41
1
10
42.1337268995121
20
5.13894198059864
30
0
41
1
10
42.9342884229639
20
5.9365372956496
30
0
0
SPLINE
5
1D5
100
AcDbEntity
8
1
62
256
6
ByLayer
370
18
48
1
60
0
100
AcDbSpline
70
4
71
3
72
10
73
6
40
0
40
0
40
0
40
0
40
0.390699660137824
40
0.390699660137824
40
1
40
1
40
1
40
1
41
1
10
8.53867513459483
20
17.3301020066932
30
0
41
1
10
8.45606980790453
20
17.39348204405
30
0
41
1
10
8.38298095223729
20
17.4778806824472
30
0
41
1
10
8.2261467652954
20
17.7138050834476
30
0
41
1
10
8.15491942224403
20
17.8808201081295
30
0
41
1
10
8.10566243270256
20
18.0555297374794
30
0
0
SPLINE
5
1D6
100
AcDbEntity
8
1
62
256
6
ByLayer
370
18
48
1
60
0
100
AcDbSpline
70
4
71
3
72
12
73
8
40
0
40
0
40
0
40
0
40
0.499908752885096
40
0.499908752885096
40
0.749942341629091
40
0.749942341629091
40
1
40
1
40
1
40
1
41
1
10
39.3095043086453
20
4.63306964006298
30
0
41
1
10
39.359591812601
20
4.63185623682071
30
0
41
1
10
39.409693820133
20
4.6311410790982
30
0
41
1
10
39.4848552457667
20
4.63080899047378
30
0
41
1
10
39.5099158078834
20
4.63082178200398
30
0
41
1
10
39.5600374073714
20
4.63109314271298
30
0
41
1
10
39.5850990471076
20
4.63135173871186
30
0
41
1
10
39.6101585279352
20
4.63173256468795
30
0
0
SPLINE
5
1D7
100
AcDbEntity
8
1
62
256
6
ByLayer
370
18
48
1
60
0
100
AcDbSpline
70
4
71
3
72
8
73
4
40
0
40
0
40
0
40
0
40
1
40
1
40
1
40
1
41
1
10
21.4150979665882
20
-24.6479715189708
30
0
41
1
10
21.2634715016933
20
-24.6479715189708
30
0
41
1
10
21.1115905576073
20
-24.6462211497246
30
0
41
1
10
20.9609847588647
20
-24.6427113305059
30
0
0
SPLINE
5
1D8
100
AcDbEntity
8
1
62
256
6
ByLayer
370
18
48
1
60
0
100
AcDbSpline
70
4
71
1
72
4
73
2
40
0
40
0
40
1
40
1
41
1
10
27.6000776695932
20
18.8102398302696
30
0
41
1
10
27.5250229200487
20
18.7612323073749
30
0
0
SPLINE
5
1D9
100
AcDbEntity
8
1
62
256
6
ByLayer
370
18
48
1
60
0
100
AcDbSpline
70
4
71
3
72
42
73
38
40
0
40
0
40
0
40
0
40
0.0001456804804168
40
0.0001456804804168
40
0.0001937818557725
40
0.0001937818557725
40
0.0002315131170569
40
0.0002315131170569
40
0.0002608514000394
40
0.0002608514000394
40
0.0002901057798735
40
0.0002901057798735
40
0.0003386253741225
40
0.0003386253741225
40
0.000494310214247
40
0.000494310214247
40
0.0012382938020774
40
0.0012382938020774
40
0.0042003846846975
40
0.0042003846846975
40
0.0160478153759442
40
0.0160478153759442
40
0.0634551727599246
40
0.0634551727599246
40
0.254714637895342
40
0.254714637895342
40
0.44572848414293
40
0.44572848414293
40
0.588327673556741
40
0.588327673556741
40
0.775841682324267
40
0.775841682324267
40
0.886033320306539
40
0.886033320306539
40
0.994826726610103
40
0.994826726610103
40
1
40
1
40
1
40
1
41
1
10
36.4464893751791
20
9.49719273809359
30
0
41
1
10
36.4464593449563
20
9.49727276262206
30
0
41
1
10
36.4464307178183
20
9.49735370731727
30
0
41
1
10
36.4464086886159
20
9.49745741290096
30
0
41
1
10
36.4464046539301
20
9.49748305738845
30
0
41
1
10
36.4464033133929
20
9.49752581193212
30
0
41
1
10
36.4464048313783
20
9.49754386690927
30
0
41
1
10
36.4464136646609
20
9.49757074789068
30
0
41
1
10
36.4464197932289
20
9.49758087718655
30
0
41
1
10
36.4464359844318
20
9.49759573534965
30
0
41
1
10
36.4464461636873
20
9.49760067451373
30
0
41
1
10
36.4464757232356
20
9.49760801493807
30
0
41
1
10
36.4464970759753
20
9.4976071184785
30
0
41
1
10
36.4465879033714
20
9.49759295754546
30
0
41
1
10
36.4466628222746
20
9.49756068147857
30
0
41
1
10
36.4470868633936
20
9.49736747373589
30
0
41
1
10
36.4474396264643
20
9.49715156958175
30
0
41
1
10
36.4491895491918
20
9.49612924419881
30
0
41
1
10
36.4505874878735
20
9.49528052253768
30
0
41
1
10
36.4575849991311
20
9.49108664301764
30
0
41
1
10
36.4632019226195
20
9.48774756001899
30
0
41
1
10
36.49139180714
20
9.47121086911619
30
0
41
1
10
36.5142693919037
20
9.45843655498504
30
0
41
1
10
36.6306835951934
20
9.39689992803636
30
0
41
1
10
36.7297989391273
20
9.35541607634573
30
0
41
1
10
36.9383373065997
20
9.29714201131858
30
0
41
1
10
37.0485087560961
20
9.24915773189741
30
0
41
1
10
37.2457094266402
20
9.25920013809275
30
0
41
1
10
37.3288426183405
20
9.29351060618166
30
0
41
1
10
37.5188413494988
20
9.36699677029461
30
0
41
1
10
37.6323756582352
20
9.40669861778369
30
0
41
1
10
37.7884895656935
20
9.49601574187773
30
0
41
1
10
37.8412070011829
20
9.53703743156322
30
0
41
1
10
37.9259025443959
20
9.62830360363216
30
0
41
1
10
37.959255290168
20
9.67932704261892
30
0
41
1
10
37.9846994657796
20
9.73419645304429
30
0
41
1
10
37.9858220461932
20
9.73669804641708
30
0
41
1
10
37.9869506312606
20
9.7391867809657
30
0
0
SPLINE
5
1DA
100
AcDbEntity
8
1
62
256
6
ByLayer
370
18
48
1
60
0
100
AcDbSpline
70
4
71
3
72
10
73
6
40
0
40
0
40
0
40
0
40
0.434790140770694
40
0.434790140770694
40
1
40
1
40
1
40
1
41
1
10
11.4613248654052
20
19.2880310577442
30
0
41
1
10
11.5463855142922
20
19.2227671417225
30
0
41
1
10
11.6249791044128
20
19.1676067502435
30
0
41
1
10
11.777364361007
20
19.0596659241482
30
0
41
1
10
11.8459532322554
20
19.0085858101699
30
0
41
1
10
11.8943375672975
20
18.9753212643807
30
0
0
SPLINE
5
1DB
100
AcDbEntity
8
1
62
256
6
ByLayer
370
18
48
1
60
0
100
AcDbSpline
70
4
71
3
72
16
73
12
40
0
40
0
40
0
40
0
40
0.11143027962805
40
0.11143027962805
40
0.248747543515472
40
0.248747543515472
40
0.465535329195252
40
0.465535329195252
40
0.88385535186756
40
0.88385535186756
40
1
40
1
40
1
40
1
41
1
10
8.53867513459483
20
23.8391299750503
30
0
41
1
10
8.51081528400579
20
23.8391299750503
30
0
41
1
10
8.48260885722448
20
23.8375361275706
30
0
41
1
10
8.42415079676073
20
23.831150658589
30
0
41
1
10
8.39395861076943
20
23.825666877018
30
0
41
1
10
8.32484624564245
20
23.8089605749788
30
0
41
1
10
8.28921459142956
20
23.796037970776
30
0
41
1
10
8.201006109254
20
23.7556824246832
30
0
41
1
10
8.16026799314912
20
23.7250165399981
30
0
41
1
10
8.1207082984732
20
23.6845451449633
30
0
41
1
10
8.1128384014269
20
23.6755726082077
30
0
41
1
10
8.10566243270245
20
23.6665017920809
30
0
0
SPLINE
5
1DC
100
AcDbEntity
8
1
62
256
6
ByLayer
370
18
48
1
60
0
100
AcDbSpline
70
4
71
3
72
12
73
8
40
0
40
0
40
0
40
0
40
0.255591276239649
40
0.255591276239649
40
0.511182496769773
40
0.511182496769773
40
1
40
1
40
1
40
1
41
1
10
39.6101585279403
20
4.63173256374597
30
0
41
1
10
39.6351559364117
20
4.63211244641852
30
0
41
1
10
39.660151789038
20
4.63261396407611
30
0
41
1
10
39.7101368762712
20
4.63385882667197
30
0
41
1
10
39.7351266957655
20
4.63460218695346
30
0
41
1
10
39.8078950766139
20
4.63711715483026
30
0
41
1
10
39.8556648648831
20
4.63920824584829
30
0
41
1
10
39.903409681355
20
4.64173322863158
30
0
0
SPLINE
5
1DD
100
AcDbEntity
8
1
62
256
6
ByLayer
370
18
48
1
60
0
100
AcDbSpline
70
4
71
3
72
16
73
12
40
0
40
0
40
0
40
0
40
0.111430279628047
40
0.111430279628047
40
0.248747543515475
40
0.248747543515475
40
0.465535329195272
40
0.465535329195272
40
0.883855351867603
40
0.883855351867603
40
1
40
1
40
1
40
1
41
1
10
11.4613248654052
20
7.52966679426504
30
0
41
1
10
11.4891847159942
20
7.52966679426504
30
0
41
1
10
11.5173911427755
20
7.53471706780854
30
0
41
1
10
11.5758492032393
20
7.55489210221029
30
0
41
1
10
11.6060413892306
20
7.57218953888446
30
0
41
1
10
11.6751537543576
20
7.62460019394089
30
0
41
1
10
11.7107854085705
20
7.66489294253907
30
0
41
1
10
11.798993890746
20
7.78941367630352
30
0
41
1
10
11.8397320068509
20
7.8824751100415
30
0
41
1
10
11.8792917015268
20
8.00269269538009
30
0
41
1
10
11.8871615985731
20
8.02920008991578
30
0
41
1
10
11.8943375672975
20
8.05584836782771
30
0
0
SPLINE
5
1DE
100
AcDbEntity
8
1
62
256
6
ByLayer
370
18
48
1
60
0
100
AcDbSpline
70
4
71
3
72
16
73
12
40
0
40
0
40
0
40
0
40
0.461208588217066
40
0.461208588217066
40
0.643534962278522
40
0.643534962278522
40
0.828408472975271
40
0.828408472975271
40
0.943003644159981
40
0.943003644159981
40
1
40
1
40
1
40
1
41
1
10
11.8943375672974
20
-8.05584836782774
30
0
41
1
10
11.8660503915152
20
-7.95080268681445
30
0
41
1
10
11.8273339192908
20
-7.84628670970801
30
0
41
1
10
11.7473160248315
20
-7.71442469145123
30
0
41
1
10
11.7212784637477
20
-7.67825379650728
30
0
41
1
10
11.6606543989164
20
-7.61290523367228
30
0
41
1
10
11.6251722226874
20
-7.58305923051407
30
0
41
1
10
11.5599225851958
20
-7.54855881865589
30
0
41
1
10
11.5324782774944
20
-7.5385201810229
30
0
41
1
10
11.4901684747699
20
-7.53097042135255
30
0
41
1
10
11.4757173930754
20
-7.5296667942647
30
0
41
1
10
11.4613248654053
20
-7.5296667942647
30
0
0
SPLINE
5
1DF
100
AcDbEntity
8
1
62
256
6
ByLayer
370
18
48
1
60
0
100
AcDbSpline
70
4
71
2
72
8
73
5
40
0
40
0
40
0
40
0.0519593807042921
40
0.0519593807042921
40
1
40
1
40
1
41
1
10
34.6139139538903
20
7.06103691895882
30
0
41
1
10
34.6448534222186
20
7.0602905002103
30
0
41
1
10
34.6755851558669
20
7.0604150474571
30
0
41
1
10
35.1920082162267
20
7.06250796779418
30
0
41
1
10
35.5737738391822
20
7.31178449754015
30
0
0
SPLINE
5
1E0
100
AcDbEntity
8
1
62
256
6
ByLayer
370
18
48
1
60
0
100
AcDbSpline
70
4
71
3
72
16
73
12
40
0
40
0
40
0
40
0
40
0.461208588217094
40
0.461208588217094
40
0.643534962278546
40
0.643534962278546
40
0.828408472975285
40
0.828408472975285
40
0.943003644159988
40
0.943003644159988
40
1
40
1
40
1
40
1
41
1
10
8.10566243270259
20
-23.6665017920809
30
0
41
1
10
8.13394960848487
20
-23.7022583261632
30
0
41
1
10
8.17266608070923
20
-23.7370095736338
30
0
41
1
10
8.25268397516848
20
-23.7800170858174
30
0
41
1
10
8.27872153625231
20
-23.7917125768793
30
0
41
1
10
8.33934560108361
20
-23.8127037684951
30
0
41
1
10
8.37482777731262
20
-23.8222104320954
30
0
41
1
10
8.44007741480422
20
-23.8331586856493
30
0
41
1
10
8.46752172250564
20
-23.836332378473
30
0
41
1
10
8.50983152523006
20
-23.8387183279986
30
0
41
1
10
8.5242826069246
20
-23.8391299750505
30
0
41
1
10
8.53867513459474
20
-23.8391299750505
30
0
0
SPLINE
5
1E1
100
AcDbEntity
8
1
62
256
6
ByLayer
370
18
48
1
60
0
100
AcDbSpline
70
4
71
3
72
10
73
6
40
0
40
0
40
0
40
0
40
0.569662971760365
40
0.569662971760365
40
1
40
1
40
1
40
1
41
1
10
8.10566243270259
20
18.9753212643828
30
0
41
1
10
8.15441862226714
20
19.0088414625798
30
0
41
1
10
8.22370629390966
20
19.0604238505184
30
0
41
1
10
8.37658822414471
20
19.1687173120905
30
0
41
1
10
8.45446449409374
20
19.2234193219803
30
0
41
1
10
8.53867513459483
20
19.2880310577442
30
0
0
SPLINE
5
1E2
100
AcDbEntity
8
1
62
256
6
ByLayer
370
18
48
1
60
0
100
AcDbSpline
70
4
71
2
72
10
73
7
40
0
40
0
40
0
40
0.186267470867218
40
0.41876247919087
40
0.651257487514522
40
0.767504991676348
40
1
40
1
40
1
41
1.02613459695995
10
39.3095043093713
20
4.63306963988463
30
0
41
1.02613459695995
10
38.8722589960158
20
4.74047704760947
30
0
41
1.02613459695995
10
37.8825099411023
20
5.15466677998407
30
0
41
1.02613459695995
10
36.6459987094327
20
6.06950355098843
30
0
41
1.02613459695995
10
36.2585523859491
20
6.47147192002114
30
0
41
1.02613459695995
10
35.8282311015515
20
6.94988922405494
30
0
41
1.02613459695995
10
35.5737738391822
20
7.31178449754014
30
0
0
SPLINE
5
1E3
100
AcDbEntity
8
1
62
256
6
ByLayer
370
18
48
1
60
0
100
AcDbSpline
70
4
71
2
72
7
73
4
40
0
40
0
40
0
40
0.760965537226323
40
1
40
1
40
1
41
1
10
27.5250229200488
20
18.761232307375
30
0
41
1
10
27.1269077756498
20
18.5012802434181
30
0
41
1
10
26.8735973236906
20
17.8584455417325
30
0
41
1
10
26.8362056266913
20
17.6895164514736
30
0
0
SPLINE
5
1E4
100
AcDbEntity
8
1
62
256
6
ByLayer
370
18
48
1
60
0
100
AcDbSpline
70
4
71
2
72
11
73
8
40
0
40
0
40
0
40
0.0353878362392701
40
0.324771485367489
40
0.517693918119635
40
0.710616350871781
40
0.807077567247854
40
1
40
1
40
1
41
1
10
26.4852216790677
20
24.25127322627
30
0
41
1
10
26.4584911884151
20
24.1547827484757
30
0
41
1
10
26.2444690565918
20
23.2449983180792
30
0
41
1
10
26.3377106029027
20
21.7330605731452
30
0
41
1
10
26.7905593144036
20
20.2447619141073
30
0
41
1
10
27.0395105915066
20
19.7414468189818
30
0
41
1
10
27.3456884873
20
19.1721849228135
30
0
41
1
10
27.6000776695932
20
18.8102398302696
30
0
0
SPLINE
5
1E5
100
AcDbEntity
8
1
62
256
6
ByLayer
370
18
48
1
60
0
100
AcDbSpline
70
4
71
3
72
8
73
4
40
0
40
0
40
0
40
0
40
1
40
1
40
1
40
1
41
1
10
22.0783252312993
20
28.9284512298929
30
0
41
1
10
21.944984455627
20
28.412821679672
30
0
41
1
10
21.8124871157497
20
27.8981147192006
30
0
41
1
10
21.6809703431662
20
27.3842991023746
30
0
0
SPLINE
5
1E6
100
AcDbEntity
8
1
62
256
6
ByLayer
370
18
48
1
60
0
100
AcDbSpline
70
4
71
3
72
44
73
40
40
0
40
0
40
0
40
0
40
0.0051940131567515
40
0.0051940131567515
40
0.0199007819623366
40
0.0199007819623366
40
0.129752078029946
40
0.129752078029946
40
0.239839448304865
40
0.239839448304865
40
0.428838106667656
40
0.428838106667656
40
0.549630839922461
40
0.549630839922461
40
0.669782897613825
40
0.669782897613825
40
0.866798576568588
40
0.866798576568588
40
0.966549525650898
40
0.966549525650898
40
0.991441210002449
40
0.991441210002449
40
0.997663559010952
40
0.997663559010952
40
0.999220062576267
40
0.999220062576267
40
0.999613367666141
40
0.999613367666141
40
0.999703345494253
40
0.999703345494253
40
0.999741176169484
40
0.999741176169484
40
0.999773455191153
40
0.999773455191153
40
0.999805393960201
40
0.999805393960201
40
0.999853555631452
40
0.999853555631452
40
1
40
1
40
1
40
1
41
1
10
30.7097630209151
20
20.091076233646
30
0
41
1
10
30.7070906577036
20
20.0907835426133
30
0
41
1
10
30.7044078107198
20
20.0905014477409
30
0
41
1
10
30.6940131934786
20
20.0892765641296
30
0
41
1
10
30.6862788290659
20
20.0882091392741
30
0
41
1
10
30.6213309029337
20
20.0778870670243
30
0
41
1
10
30.562462778241
20
20.0593333597194
30
0
41
1
10
30.4501988279908
20
20.0021845075167
30
0
41
1
10
30.3955805235739
20
19.9627488313872
30
0
41
1
10
30.2625221080839
20
19.8380257344787
30
0
41
1
10
30.1853231356285
20
19.7445026760676
30
0
41
1
10
30.0607844583286
20
19.6000877129706
30
0
41
1
10
30.0112207356313
20
19.5434252894555
30
0
41
1
10
29.9515974630007
20
19.4148915879648
30
0
41
1
10
29.9537299368833
20
19.3400514614005
30
0
41
1
10
29.9337495041867
20
19.159698462269
30
0
41
1
10
29.9224676463413
20
19.0518222798686
30
0
41
1
10
29.931553773943
20
18.8910807987343
30
0
41
1
10
29.937521950777
20
18.8374164071321
30
0
41
1
10
29.9480232266131
20
18.7712367290819
30
0
41
1
10
29.9502766536131
20
18.758049897644
30
0
41
1
10
29.9532690441998
20
18.7416210629444
30
0
41
1
10
29.9538818242578
20
18.7383363729815
30
0
41
1
10
29.9546345659368
20
18.7342409125362
30
0
41
1
10
29.9547941300053
20
18.7334184162487
30
0
41
1
10
29.9549442017461
20
18.7324059183329
30
0
41
1
10
29.9549787265115
20
18.7321975233089
30
0
41
1
10
29.95497038807
20
18.7319677820904
30
0
41
1
10
29.9549661847411
20
18.7319253439168
30
0
41
1
10
29.9549458419164
20
18.7318774861239
30
0
41
1
10
29.9549376435598
20
18.731864808788
30
0
41
1
10
29.9549172010156
20
18.7318485430162
30
0
41
1
10
29.954905400076
20
18.7318438843416
30
0
41
1
10
29.9548791701226
20
18.7318416293816
30
0
41
1
10
29.9548645218386
20
18.7318438283406
30
0
41
1
10
29.9548272959472
20
18.7318548258038
30
0
41
1
10
29.9548039339986
20
18.7318662519325
30
0
41
1
10
29.954711727371
20
18.7319194176291
30
0
41
1
10
29.9546436157886
20
18.7319747837629
30
0
41
1
10
29.9545773160062
20
18.7320307497874
30
0
0
SPLINE
5
1E7
100
AcDbEntity
8
1
62
256
6
ByLayer
370
18
48
1
60
0
100
AcDbSpline
70
4
71
2
72
11
73
8
40
0
40
0
40
0
40
0.0079111859457789
40
0.305537830162045
40
0.50395559297289
40
0.702373355783734
40
0.801582237189156
40
1
40
1
40
1
41
1.02613459695995
10
26.3704152775793
20
24.0496139844557
30
0
41
1.02613459695995
10
26.3651851294688
20
24.0281909262998
30
0
41
1.02613459695995
10
26.1694143070474
20
23.1959907951846
30
0
41
1.02613459695995
10
26.2626558533584
20
21.6840530502506
30
0
41
1.02613459695995
10
26.7155045648593
20
20.1957543912127
30
0
41
1.02613459695995
10
26.9644558419622
20
19.6924392960871
30
0
41
1.02613459695995
10
27.2706337377556
20
19.1231773999188
30
0
41
1.02613459695995
10
27.5250229200488
20
18.761232307375
30
0
0
SPLINE
5
1E8
100
AcDbEntity
8
1
62
256
6
ByLayer
370
18
48
1
60
0
100
AcDbSpline
70
4
71
3
72
16
73
12
40
0
40
0
40
0
40
0
40
0.238664520516886
40
0.238664520516886
40
0.477243676809563
40
0.477243676809563
40
0.717175962218134
40
0.717175962218134
40
0.962955965218022
40
0.962955965218022
40
1
40
1
40
1
40
1
41
1
10
20.92079238
20
24.4886190390076
30
0
41
1
10
20.4840916723798
20
24.4774472754172
30
0
41
1
10
20.0509926695775
20
24.4509610891805
30
0
41
1
10
19.26391515033
20
24.3656718780195
30
0
41
1
10
18.8991880574146
20
24.3054862317241
30
0
41
1
10
18.2835116525487
20
24.1494135952404
30
0
41
1
10
18.0249815792796
20
24.0510028626091
30
0
41
1
10
17.6392199403027
20
23.8174123097642
30
0
41
1
10
17.5100639463551
20
23.6782359586606
30
0
41
1
10
17.4432353915025
20
23.5027996833027
30
0
41
1
10
17.4359824174511
20
23.4792306731536
30
0
41
1
10
17.4303191742212
20
23.4553549429959
30
0
0
SPLINE
5
1E9
100
AcDbEntity
8
1
62
256
6
ByLayer
370
18
48
1
60
0
100
AcDbSpline
70
4
71
2
72
8
73
5
40
0
40
0
40
0
40
0.0733047478971842
40
0.536652373948592
40
1
40
1
40
1
41
1
10
29.9545949120904
20
18.732143315644
30
0
41
1
10
29.8596370095895
20
18.7814968328556
30
0
41
1
10
29.1589682491878
20
19.1015068741847
30
0
41
1
10
28.0732475635364
20
19.1191994171211
30
0
41
1
10
27.6751324191374
20
18.8592473531642
30
0
0
SPLINE
5
1EA
100
AcDbEntity
8
1
62
256
6
ByLayer
370
18
48
1
60
0
100
AcDbSpline
70
4
71
2
72
11
73
8
40
0
40
0
40
0
40
0.0610623745695768
40
0.342743662198704
40
0.530531187284788
40
0.718318712370873
40
0.812212474913915
40
1
40
1
40
1
41
1
10
26.6036219161934
20
24.447820199341
30
0
41
1
10
26.5515656021975
20
24.2803898726593
30
0
41
1
10
26.3195238061361
20
23.2940058409738
30
0
41
1
10
26.4127653524471
20
21.7820680960399
30
0
41
1
10
26.865614063948
20
20.2937694370019
30
0
41
1
10
27.114565341051
20
19.7904543418764
30
0
41
1
10
27.4207432368444
20
19.2211924457081
30
0
41
1
10
27.6751324191375
20
18.8592473531643
30
0
0
SPLINE
5
1EB
100
AcDbEntity
8
1
62
256
6
ByLayer
370
18
48
1
60
0
100
AcDbSpline
70
4
71
3
72
8
73
4
40
0
40
0
40
0
40
0
40
1
40
1
40
1
40
1
41
1
10
22.6994327635229
20
31.322231501523
30
0
41
1
10
22.4917960004338
20
30.5244670102343
30
0
41
1
10
22.2847126428027
20
29.726552543075
30
0
41
1
10
22.0783252312993
20
28.928451229893
30
0
0
SPLINE
5
1EC
100
AcDbEntity
8
1
62
256
6
ByLayer
370
18
48
1
60
0
100
AcDbSpline
70
4
71
2
72
9
73
6
40
0
40
0
40
0
40
0.419655468653539
40
0.629483202980309
40
0.944224804470463
40
1
40
1
40
1
41
1.02613459695995
10
42.7594986431973
20
9.92347611032819
30
0
41
1.02613459695995
10
41.970736892121
20
9.34798400639362
30
0
41
1.02613459695995
10
40.4644323782269
20
9.12988040302133
30
0
41
1.02613459695995
10
39.1081966509363
20
9.25592930512754
30
0
41
1.02613459695995
10
38.1378744317815
20
9.66198930414805
30
0
41
1.02613459695995
10
37.9869506312606
20
9.73918678096576
30
0
0
SPLINE
5
1ED
100
AcDbEntity
8
1
62
256
6
ByLayer
370
18
48
1
60
0
100
AcDbSpline
70
4
71
3
72
8
73
4
40
0
40
0
40
0
40
0
40
1
40
1
40
1
40
1
41
1
10
26.6036219161947
20
24.4478201993454
30
0
41
1
10
27.4173232517136
20
25.7620133616782
30
0
41
1
10
28.940709230515
20
26.5867845058198
30
0
41
1
10
30.4904148842673
20
26.4269959511668
30
0
0
SPLINE
5
1EE
100
AcDbEntity
8
1
62
256
6
ByLayer
370
18
48
1
60
0
100
AcDbSpline
70
4
71
2
72
9
73
6
40
0
40
0
40
0
40
0.464691154463638
40
0.464691154463638
40
0.929382308927276
40
1
40
1
40
1
41
1
10
35.723883338271
20
7.4097995433294
30
0
41
1
10
36.1056489612266
20
7.65907607307537
30
0
41
1
10
36.2991483208105
20
8.12053195491276
30
0
41
1
10
36.5092473011363
20
8.62157449297496
30
0
41
1
10
36.4589433141946
20
9.39391395002136
30
0
41
1
10
36.4466126649146
20
9.49716568856505
30
0
0
SPLINE
5
1EF
100
AcDbEntity
8
1
62
256
6
ByLayer
370
18
48
1
60
0
100
AcDbSpline
70
4
71
3
72
10
73
6
40
0
40
0
40
0
40
0
40
0.5
40
0.5
40
1
40
1
40
1
40
1
41
1
10
25.9159828837104
20
22.9548428348592
30
0
41
1
10
25.6945860081875
20
22.0688609909442
30
0
41
1
10
25.6667929243667
20
21.1357564559573
30
0
41
1
10
26.0000195354834
20
19.3298090878482
30
0
41
1
10
26.2887798116526
20
18.4379672812557
30
0
41
1
10
26.8366009520793
20
17.6891072555305
30
0
0
SPLINE
5
1F0
100
AcDbEntity
8
1
62
256
6
ByLayer
370
18
48
1
60
0
100
AcDbSpline
70
4
71
3
72
16
73
12
40
0
40
0
40
0
40
0
40
0.461208588217088
40
0.461208588217088
40
0.643534962278544
40
0.643534962278544
40
0.82840847297529
40
0.82840847297529
40
0.943003644159989
40
0.943003644159989
40
1
40
1
40
1
40
1
41
1
10
8.10566243270262
20
8.05584836782774
30
0
41
1
10
8.13394960848487
20
7.95080268681445
30
0
41
1
10
8.17266608070923
20
7.84628670970801
30
0
41
1
10
8.25268397516848
20
7.71442469145123
30
0
41
1
10
8.27872153625231
20
7.67825379650728
30
0
41
1
10
8.33934560108361
20
7.61290523367228
30
0
41
1
10
8.37482777731262
20
7.5830592305141
30
0
41
1
10
8.44007741480422
20
7.54855881865589
30
0
41
1
10
8.46752172250564
20
7.5385201810229
30
0
41
1
10
8.50983152523006
20
7.53097042135255
30
0
41
1
10
8.5242826069246
20
7.52966679426473
30
0
41
1
10
8.53867513459474
20
7.52966679426473
30
0
0
SPLINE
5
1F1
100
AcDbEntity
8
1
62
256
6
ByLayer
370
18
48
1
60
0
100
AcDbSpline
70
4
71
2
72
6
73
3
40
0
40
0
40
0
40
1
40
1
40
1
41
1
10
35.6488285887266
20
7.36079202043479
30
0
41
1
10
35.6113012139544
20
7.33628825898745
30
0
41
1
10
35.5737738391822
20
7.31178449754015
30
0
0
SPLINE
5
1F2
100
AcDbEntity
8
1
62
256
6
ByLayer
370
18
48
1
60
0
100
AcDbSpline
70
4
71
3
72
16
73
12
40
0
40
0
40
0
40
0
40
0.111430279628052
40
0.111430279628052
40
0.248747543515474
40
0.248747543515474
40
0.465535329195271
40
0.465535329195271
40
0.883855351867598
40
0.883855351867598
40
1
40
1
40
1
40
1
41
1
10
11.4613248654052
20
-23.8391299750503
30
0
41
1
10
11.4891847159942
20
-23.8391299750503
30
0
41
1
10
11.5173911427755
20
-23.8375361275706
30
0
41
1
10
11.5758492032393
20
-23.831150658589
30
0
41
1
10
11.6060413892306
20
-23.825666877018
30
0
41
1
10
11.6751537543576
20
-23.8089605749788
30
0
41
1
10
11.7107854085705
20
-23.796037970776
30
0
41
1
10
11.798993890746
20
-23.7556824246832
30
0
41
1
10
11.8397320068509
20
-23.7250165399981
30
0
41
1
10
11.8792917015268
20
-23.6845451449633
30
0
41
1
10
11.8871615985731
20
-23.6755726082078
30
0
41
1
10
11.8943375672975
20
-23.6665017920809
30
0
0
SPLINE
5
1F3
100
AcDbEntity
8
1
62
256
6
ByLayer
370
18
48
1
60
0
100
AcDbSpline
70
4
71
3
72
8
73
4
40
0
40
0
40
0
40
0
40
1
40
1
40
1
40
1
41
1
10
20.92079238
20
24.4886190390076
30
0
41
1
10
21.0847242867994
20
25.1173908764621
30
0
41
1
10
21.2495887675166
20
25.7463335276432
30
0
41
1
10
21.4150979665882
20
26.3750235579347
30
0
0
SPLINE
5
1F4
100
AcDbEntity
8
1
62
256
6
ByLayer
370
18
48
1
60
0
100
AcDbSpline
70
4
71
3
72
16
73
12
40
0
40
0
40
0
40
0
40
0.111430279628047
40
0.111430279628047
40
0.248747543515467
40
0.248747543515467
40
0.465535329195252
40
0.465535329195252
40
0.883855351867553
40
0.883855351867553
40
1
40
1
40
1
40
1
41
1
10
8.53867513459483
20
-7.52966679426501
30
0
41
1
10
8.51081528400579
20
-7.52966679426501
30
0
41
1
10
8.48260885722448
20
-7.53471706780857
30
0
41
1
10
8.42415079676073
20
-7.55489210221029
30
0
41
1
10
8.39395861076943
20
-7.57218953888446
30
0
41
1
10
8.32484624564245
20
-7.62460019394089
30
0
41
1
10
8.28921459142956
20
-7.66489294253907
30
0
41
1
10
8.201006109254
20
-7.78941367630352
30
0
41
1
10
8.16026799314912
20
-7.88247511004147
30
0
41
1
10
8.12070829847318
20
-8.00269269538009
30
0
41
1
10
8.11283840142687
20
-8.02920008991578
30
0
41
1
10
8.10566243270245
20
-8.05584836782771
30
0
0
SPLINE
5
1F5
100
AcDbEntity
8
1
62
256
6
ByLayer
370
18
48
1
60
0
100
AcDbSpline
70
4
71
3
72
8
73
4
40
0
40
0
40
0
40
0
40
1
40
1
40
1
40
1
41
1
10
25.9159828837108
20
22.9548428348588
30
0
41
1
10
26.0280756611541
20
23.3326350483687
30
0
41
1
10
26.1784384004553
20
23.7024434329359
30
0
41
1
10
26.370415277869
20
24.0496139856425
30
0
0
SPLINE
5
1F6
100
AcDbEntity
8
1
62
256
6
ByLayer
370
18
48
1
60
0
100
AcDbSpline
70
4
71
2
72
10
73
7
40
0
40
0
40
0
40
0.223608437346081
40
0.445434598104344
40
0.667260758862606
40
0.778173839241738
40
1
40
1
40
1
41
1
10
39.6101585274593
20
4.63173256384249
30
0
41
1
10
39.0609879911756
20
4.74191422412636
30
0
41
1
10
37.9575646906466
20
5.20367430287868
30
0
41
1
10
36.7210534589771
20
6.11851107388304
30
0
41
1
10
36.3336071354935
20
6.52047944291576
30
0
41
1
10
35.9032858510959
20
6.99889674694955
30
0
41
1
10
35.6488285887266
20
7.36079202043479
30
0
0
SPLINE
5
1F7
100
AcDbEntity
8
1
62
256
6
ByLayer
370
18
48
1
60
0
100
AcDbSpline
70
4
71
3
72
8
73
4
40
0
40
0
40
0
40
0
40
1
40
1
40
1
40
1
41
1
10
30.4904147877877
20
26.4269960047338
30
0
41
1
10
31.1910354954822
20
26.0380002412991
30
0
41
1
10
31.8824282737662
20
25.3962433471245
30
0
41
1
10
32.4111046043114
20
24.644194722973
30
0
0
SPLINE
5
1F8
100
AcDbEntity
8
1
62
256
6
ByLayer
370
18
48
1
60
0
100
AcDbSpline
70
4
71
3
72
16
73
12
40
0
40
0
40
0
40
0
40
0.461208588217085
40
0.461208588217085
40
0.643534962278541
40
0.643534962278541
40
0.828408472975291
40
0.828408472975291
40
0.943003644159993
40
0.943003644159993
40
1
40
1
40
1
40
1
41
1
10
11.8943375672974
20
23.6665017920809
30
0
41
1
10
11.8660503915152
20
23.7022583261632
30
0
41
1
10
11.8273339192908
20
23.7370095736338
30
0
41
1
10
11.7473160248315
20
23.7800170858174
30
0
41
1
10
11.7212784637477
20
23.7917125768793
30
0
41
1
10
11.6606543989164
20
23.8127037684951
30
0
41
1
10
11.6251722226874
20
23.8222104320954
30
0
41
1
10
11.5599225851958
20
23.8331586856493
30
0
41
1
10
11.5324782774944
20
23.836332378473
30
0
41
1
10
11.4901684747699
20
23.8387183279986
30
0
41
1
10
11.4757173930754
20
23.8391299750505
30
0
41
1
10
11.4613248654053
20
23.8391299750505
30
0
0
SPLINE
5
1F9
100
AcDbEntity
8
SK1
62
256
6
ByLayer
370
18
48
1
60
0
100
AcDbSpline
70
4
71
3
72
22
73
18
40
0
40
0
40
0
40
0
40
0.359503326352592
40
0.359503326352592
40
0.722215553677066
40
0.722215553677066
40
0.826527133697721
40
0.826527133697721
40
0.863141914878009
40
0.863141914878009
40
0.900378805007221
40
0.900378805007221
40
0.933500873078508
40
0.933500873078508
40
0.972947835056124
40
0.972947835056124
40
1
40
1
40
1
40
1
41
1
10
-1.30710678118655
20
3.91806548153781
30
0
41
1
10
-1.26486058419175
20
4.15139729989579
30
0
41
1
10
-1.21446435132796
20
4.3814323255595
30
0
41
1
10
-1.08204001032738
20
4.82987250608483
30
0
41
1
10
-1.00537527699572
20
5.05527264511531
30
0
41
1
10
-0.832356114396674
20
5.30654108347395
30
0
41
1
10
-0.78723829488635
20
5.36152992388779
30
0
41
1
10
-0.709490490588593
20
5.41877880440927
30
0
41
1
10
-0.687203973712826
20
5.43218986569767
30
0
41
1
10
-0.639076749164047
20
5.45244590583036
30
0
41
1
10
-0.612446414061708
20
5.45928056674788
30
0
41
1
10
-0.562058433231044
20
5.46233960302246
30
0
41
1
10
-0.537713914852588
20
5.45964677314575
30
0
41
1
10
-0.488053852696936
20
5.44628701250068
30
0
41
1
10
-0.462609559288751
20
5.43420976008088
30
0
41
1
10
-0.423860760477311
20
5.40985221311715
30
0
41
1
10
-0.408979654247759
20
5.39867780521598
30
0
41
1
10
-0.394976888875391
20
5.38678223323953
30
0
0
SPLINE
5
1FA
100
AcDbEntity
8
SK1
62
256
6
ByLayer
370
18
48
1
60
0
100
AcDbSpline
70
4
71
3
72
10
73
6
40
0
40
0
40
0
40
0
40
0.5
40
0.5
40
1
40
1
40
1
40
1
41
1
10
-1.30710678118655
20
3.91806548153784
30
0
41
1
10
-1.53227959010832
20
2.67440369212437
30
0
41
1
10
-1.71681589069689
20
1.34075776539186
30
0
41
1
10
-1.71598271729604
20
-1.35050010337164
30
0
41
1
10
-1.53230696904976
20
-2.67425240209695
30
0
41
1
10
-1.30710678118655
20
-3.91806548057698
30
0
0
SPLINE
5
1FB
100
AcDbEntity
8
SK1
62
256
6
ByLayer
370
18
48
1
60
0
100
AcDbSpline
70
4
71
3
72
24
73
20
40
0
40
0
40
0
40
0
40
0.469770575826712
40
0.469770575826712
40
0.663612078687295
40
0.663612078687295
40
0.860454184613411
40
0.860454184613411
40
0.903064590395674
40
0.903064590395674
40
0.923089343972159
40
0.923089343972159
40
0.943389594779288
40
0.943389594779288
40
0.961332284531898
40
0.961332284531898
40
0.988068136377815
40
0.988068136377815
40
1
40
1
40
1
40
1
41
1
10
-0.199999999999989
20
-6.10344849123027
30
0
41
1
10
-0.199999999999989
20
-5.97798788494984
30
0
41
1
10
-0.204016575726513
20
-5.8509635670122
30
0
41
1
10
-0.223752631922082
20
-5.67079358995508
30
0
41
1
10
-0.231244965282229
20
-5.61789623093799
30
0
41
1
10
-0.253819137983157
20
-5.51250015101135
30
0
41
1
10
-0.267096215270385
20
-5.45724004647028
30
0
41
1
10
-0.303692478692511
20
-5.40035311573845
30
0
41
1
10
-0.311479622041333
20
-5.39039941672755
30
0
41
1
10
-0.32547775761438
20
-5.37891036834915
30
0
41
1
10
-0.330455622185014
20
-5.3756771312581
30
0
41
1
10
-0.341078704143143
20
-5.37102422840917
30
0
41
1
10
-0.346883276538165
20
-5.36960762575521
30
0
41
1
10
-0.357630415747764
20
-5.36914354197148
30
0
41
1
10
-0.362713068049572
20
-5.36981917830482
30
0
41
1
10
-0.37458340180882
20
-5.37316903610403
30
0
41
1
10
-0.3812109954861
20
-5.37664910167555
30
0
41
1
10
-0.38989246528871
20
-5.38265091141974
30
0
41
1
10
-0.392483363308571
20
-5.38466360919151
30
0
41
1
10
-0.394976888875334
20
-5.38678189578178
30
0
0
SPLINE
5
1FC
100
AcDbEntity
8
SK1
62
256
6
ByLayer
370
18
48
1
60
0
100
AcDbSpline
70
4
71
3
72
22
73
18
40
0
40
0
40
0
40
0
40
0.0394331151890913
40
0.0394331151890913
40
0.0795339708694829
40
0.0795339708694829
40
0.109637917244288
40
0.109637917244288
40
0.13957706301322
40
0.13957706301322
40
0.189266399657458
40
0.189266399657458
40
0.289571152403382
40
0.289571152403382
40
0.658284396834382
40
0.658284396834382
40
1
40
1
40
1
40
1
41
1
10
-0.394976888875306
20
-5.38678189578292
30
0
41
1
10
-0.415237014773396
20
-5.40399317028476
30
0
41
1
10
-0.437419275645453
20
-5.41977813092004
30
0
41
1
10
-0.486103141154984
20
-5.44521655864725
30
0
41
1
10
-0.51341298093098
20
-5.45496005292577
30
0
41
1
10
-0.562874322366525
20
-5.46212264681108
30
0
41
1
10
-0.585106616517606
20
-5.46199323188387
30
0
41
1
10
-0.627692822126733
20
-5.45533455005088
30
0
41
1
10
-0.648523068172722
20
-5.44883772858989
30
0
41
1
10
-0.699826196362153
20
-5.42613682765011
30
0
41
1
10
-0.728695564403438
20
-5.40623396070797
30
0
41
1
10
-0.806075449923839
20
-5.34007786619352
30
0
41
1
10
-0.847522380016557
20
-5.28655870152033
30
0
41
1
10
-1.01570466784384
20
-5.03084699030373
30
0
41
1
10
-1.09210771407481
20
-4.80149729085085
30
0
41
1
10
-1.21929875138233
20
-4.35887826398974
30
0
41
1
10
-1.26692602208391
20
-4.13998960128646
30
0
41
1
10
-1.30710678118655
20
-3.91806548057696
30
0
0
SPLINE
5
1FD
100
AcDbEntity
8
SK1
62
256
6
ByLayer
370
18
48
1
60
0
100
AcDbSpline
70
4
71
3
72
22
73
18
40
0
40
0
40
0
40
0
40
0.0260455644157247
40
0.0260455644157247
40
0.0526262165848557
40
0.0526262165848557
40
0.0706056579866929
40
0.0706056579866929
40
0.0884949509195805
40
0.0884949509195805
40
0.11748921873202
40
0.11748921873202
40
0.17459086731972
40
0.17459086731972
40
0.37652425293745
40
0.37652425293745
40
1
40
1
40
1
40
1
41
1
10
-0.394976888872947
20
5.38678223324206
30
0
41
1
10
-0.389612432086437
20
5.38222504185003
30
0
41
1
10
-0.383763200778958
20
5.37811700449893
30
0
41
1
10
-0.3709728888754
20
5.37184824531644
30
0
41
1
10
-0.363785592650885
20
5.36968256852501
30
0
41
1
10
-0.351475656346565
20
5.3691458249703
30
0
41
1
10
-0.346317238365032
20
5.36979468027801
30
0
41
1
10
-0.336550133197363
20
5.3727304206256
30
0
41
1
10
-0.331829865964124
20
5.3750241182685
30
0
41
1
10
-0.32051111143835
20
5.38234306083376
30
0
41
1
10
-0.314321448136155
20
5.3882440687963
30
0
41
1
10
-0.298260159254511
20
5.40702817233921
30
0
41
1
10
-0.290032841564653
20
5.42147709180324
30
0
41
1
10
-0.258449669573651
20
5.48745345024415
30
0
41
1
10
-0.24608390551893
20
5.5434138926733
30
0
41
1
10
-0.204764795451922
20
5.7670899064446
30
0
41
1
10
-0.200000000000358
20
5.93709576978202
30
0
41
1
10
-0.200000000000358
20
6.10344667966001
30
0
0
INSERT
5
20F
100
AcDbEntity
8
2
62
256
6
ByLayer
370
25
48
1
60
0
100
AcDbBlockReference
2
DimnDraft3D11
10
0
20
0
30
0
41
1
42
1
43
1
50
0
210
0
220
0
230
1
0
LINE
5
72
100
AcDbEntity
8
1
62
256
6
ByLayer
370
18
48
1
60
0
100
AcDbLine
10
33.541892
20
23.332205
30
0
11
32.444327
21
22.397178
31
0
39
0
210
0
220
0
230
1
0
LINE
5
74
100
AcDbEntity
8
1
62
256
6
ByLayer
370
18
48
1
60
0
100
AcDbLine
10
0.3
20
25
30
0
11
0
21
24.7
31
0
39
0
210
0
220
0
230
1
0
LINE
5
75
100
AcDbEntity
8
1
62
256
6
ByLayer
370
18
48
1
60
0
100
AcDbLine
10
0
20
-24.7
30
0
11
0.3
21
-25
31
0
39
0
210
0
220
0
230
1
0
LINE
5
76
100
AcDbEntity
8
1
62
256
6
ByLayer
370
18
48
1
60
0
100
AcDbLine
10
0.3
20
-25
30
0
11
20.920792
21
-25
31
0
39
0
210
0
220
0
230
1
0
LINE
5
77
100
AcDbEntity
8
1
62
256
6
ByLayer
370
18
48
1
60
0
100
AcDbLine
10
22.496737
20
30.881507
30
0
11
20.920792
21
25
31
0
39
0
210
0
220
0
230
1
0
LINE
5
78
100
AcDbEntity
8
1
62
256
6
ByLayer
370
18
48
1
60
0
100
AcDbLine
10
20.920792
20
-25
30
0
11
20.960985
21
-25.15
31
0
39
0
210
0
220
0
230
1
0
LINE
5
79
100
AcDbEntity
8
1
62
256
6
ByLayer
370
18
48
1
60
0
100
AcDbLine
10
20.960985
20
-25.15
30
0
11
21.738816
21
-25.15
31
0
39
0
210
0
220
0
230
1
0
LINE
5
7A
100
AcDbEntity
8
1
62
256
6
ByLayer
370
18
48
1
60
0
100
AcDbLine
10
42.991888
20
19.870191
30
0
11
42.75799
21
19.636293
31
0
39
0
210
0
220
0
230
1
0
LINE
5
7B
100
AcDbEntity
8
1
62
256
6
ByLayer
370
18
48
1
60
0
100
AcDbLine
10
41.529535
20
21.637733
30
0
11
41.763433
21
21.87163
31
0
39
0
210
0
220
0
230
1
0
LINE
5
7C
100
AcDbEntity
8
1
62
256
6
ByLayer
370
18
48
1
60
0
100
AcDbLine
10
43.652848
20
21.300756
30
0
11
43.418934
21
21.066842
31
0
39
0
210
0
220
0
230
1
0
LINE
5
7D
100
AcDbEntity
8
1
62
256
6
ByLayer
370
18
48
1
60
0
100
AcDbLine
10
47.474718
20
33.85478
30
0
11
46.930707
21
33.310769
31
0
39
0
210
0
220
0
230
1
0
LINE
5
7E
100
AcDbEntity
8
1
62
256
6
ByLayer
370
18
48
1
60
0
100
AcDbLine
10
23.509152
20
24.117042
30
0
11
17.235212
21
21.139501
31
0
39
0
210
0
220
0
230
1
0
LINE
5
7F
100
AcDbEntity
8
1
62
256
6
ByLayer
370
18
48
1
60
0
100
AcDbLine
10
10.25789
20
17.828142
30
0
11
8.846327
21
17.15823
31
0
39
0
210
0
220
0
230
1
0
LINE
5
80
100
AcDbEntity
8
1
62
256
6
ByLayer
370
18
48
1
60
0
100
AcDbLine
10
25.422362
20
20.176477
30
0
11
25.536008
21
20.504658
31
0
39
0
210
0
220
0
230
1
0
LINE
5
81
100
AcDbEntity
8
1
62
256
6
ByLayer
370
18
48
1
60
0
100
AcDbLine
10
23.878852
20
23.99643
30
0
11
23.55275
21
24.115913
31
0
39
0
210
0
220
0
230
1
0
LINE
5
82
100
AcDbEntity
8
1
62
256
6
ByLayer
370
18
48
1
60
0
100
AcDbLine
10
36.173101
20
19.700944
30
0
11
36.579072
21
20.046795
31
0
39
0
210
0
220
0
230
1
0
LINE
5
83
100
AcDbEntity
8
1
62
256
6
ByLayer
370
18
48
1
60
0
100
AcDbLine
10
20.920792
20
25
30
0
11
0.3
21
25
31
0
39
0
210
0
220
0
230
1
0
LINE
5
84
100
AcDbEntity
8
1
62
256
6
ByLayer
370
18
48
1
60
0
100
AcDbLine
10
41.082359
20
20.420952
30
0
11
41.102505
21
20.441098
31
0
39
0
210
0
220
0
230
1
0
LINE
5
85
100
AcDbEntity
8
1
62
256
6
ByLayer
370
18
48
1
60
0
100
AcDbLine
10
44.86303
20
17.699426
30
0
11
45.11599
21
17.952386
31
0
39
0
210
0
220
0
230
1
0
LINE
5
86
100
AcDbEntity
8
1
62
256
6
ByLayer
370
18
48
1
60
0
100
AcDbLine
10
39.459136
20
23.609241
30
0
11
39.206176
21
23.35628
31
0
39
0
210
0
220
0
230
1
0
LINE
5
87
100
AcDbEntity
8
1
62
256
6
ByLayer
370
18
48
1
60
0
100
AcDbLine
10
58.310769
20
21.930707
30
0
11
58.85478
21
22.474718
31
0
39
0
210
0
220
0
230
1
0
LINE
5
88
100
AcDbEntity
8
80
62
256
6
ByLayer
370
18
48
1
60
0
100
AcDbLine
10
0
20
0
30
0
11
-5
21
0
31
0
39
0
210
0
220
0
230
1
0
LINE
5
89
100
AcDbEntity
8
4
62
256
6
ByLayer
370
18
48
0.05
60
0
100
AcDbLine
10
0
20
0
30
0
11
60
21
0
31
0
39
0
210
0
220
0
230
1
0
LINE
5
8B
100
AcDbEntity
8
81
62
256
6
ByLayer
370
18
48
1
60
0
100
AcDbLine
10
60
20
35
30
0
11
70
21
35
31
0
39
0
210
0
220
0
230
1
0
LINE
5
8C
100
AcDbEntity
8
SK4
62
256
6
ByLayer
370
18
48
0.05
60
0
100
AcDbLine
10
-35
20
0
30
0
11
60
21
0
31
0
39
0
210
0
220
0
230
1
0
LINE
5
8E
100
AcDbEntity
8
1
62
256
6
ByLayer
370
18
48
1
60
0
100
AcDbLine
10
17.252279
20
16.278947
30
0
11
25.40489
21
20.148084
31
0
39
0
210
0
220
0
230
1
0
LINE
5
8F
100
AcDbEntity
8
1
62
256
6
ByLayer
370
18
48
1
60
0
100
AcDbLine
10
46.98706
20
30.172609
30
0
11
47.249175
21
33.366614
31
0
39
0
210
0
220
0
230
1
0
LINE
5
90
100
AcDbEntity
8
1
62
256
6
ByLayer
370
18
48
1
60
0
100
AcDbLine
10
58.366614
20
22.249175
30
0
11
52.969647
21
21.806274
31
0
39
0
210
0
220
0
230
1
0
LINE
5
91
100
AcDbEntity
8
1
62
256
6
ByLayer
370
18
48
1
60
0
100
AcDbLine
10
47.170395
20
33.287835
30
0
11
47.249175
21
33.366614
31
0
39
0
210
0
220
0
230
1
0
LINE
5
92
100
AcDbEntity
8
1
62
256
6
ByLayer
370
18
48
1
60
0
100
AcDbLine
10
58.295111
20
22.177671
30
0
11
58.366614
21
22.249175
31
0
39
0
210
0
220
0
230
1
0
LINE
5
93
100
AcDbEntity
8
1
62
256
6
ByLayer
370
18
48
1
60
0
100
AcDbLine
10
40.995409
20
10.886674
30
0
11
42.017893
21
11.757738
31
0
39
0
210
0
220
0
230
1
0
LINE
5
94
100
AcDbEntity
8
1
62
256
6
ByLayer
370
18
48
1
60
0
100
AcDbLine
10
56.476993
20
28.112543
30
0
11
56.321845
21
27.444313
31
0
39
0
210
0
220
0
230
1
0
LINE
5
95
100
AcDbEntity
8
1
62
256
6
ByLayer
370
18
48
1
60
0
100
AcDbLine
10
49.576776
20
30.492902
30
0
11
51.908205
21
31.105523
31
0
39
0
210
0
220
0
230
1
0
LINE
5
96
100
AcDbEntity
8
1
62
256
6
ByLayer
370
18
48
1
60
0
100
AcDbLine
10
54.132377
20
31.447788
30
0
11
53.480078
21
31.486762
31
0
39
0
210
0
220
0
230
1
0
LINE
5
97
100
AcDbEntity
8
1
62
256
6
ByLayer
370
18
48
1
60
0
100
AcDbLine
10
0.3
20
-25
30
0
11
0.3
21
25
31
0
39
0
210
0
220
0
230
1
0
LINE
5
98
100
AcDbEntity
8
1
62
256
6
ByLayer
370
18
48
1
60
0
100
AcDbLine
10
0
20
-24.7
30
0
11
0
21
24.7
31
0
39
0
210
0
220
0
230
1
0
LINE
5
99
100
AcDbEntity
8
1
62
256
6
ByLayer
370
18
48
1
60
0
100
AcDbLine
10
20.920792
20
25
30
0
11
20.920792
21
24.488619
31
0
39
0
210
0
220
0
230
1
0
LINE
5
9A
100
AcDbEntity
8
1
62
256
6
ByLayer
370
18
48
1
60
0
100
AcDbLine
10
20.920792
20
-24.488619
30
0
11
20.920792
21
-25
31
0
39
0
210
0
220
0
230
1
0
LINE
5
9B
100
AcDbEntity
8
1
62
256
6
ByLayer
370
18
48
1
60
0
100
AcDbLine
10
17.430319
20
16.363278
30
0
11
17.430319
21
-23.455355
31
0
39
0
210
0
220
0
230
1
0
LINE
5
9C
100
AcDbEntity
8
SK1
62
256
6
ByLayer
370
18
48
1
60
0
100
AcDbLine
10
-0.2
20
6.103447
30
0
11
-0.2
21
17.833485
31
0
39
0
210
0
220
0
230
1
0
LINE
5
9E
100
AcDbEntity
8
SK1
62
256
6
ByLayer
370
18
48
1
60
0
100
AcDbLine
10
-0.2
20
-17.833485
30
0
11
-0.2
21
-6.103448
31
0
39
0
210
0
220
0
230
1
0
LINE
5
9F
100
AcDbEntity
8
1
62
256
6
ByLayer
370
18
48
1
60
0
100
AcDbLine
10
42.141194
20
19.493344
30
0
11
42.143762
21
19.493313
31
0
39
0
210
0
220
0
230
1
0
LINE
5
A0
100
AcDbEntity
8
1
62
256
6
ByLayer
370
18
48
1
60
0
100
AcDbLine
10
21.415098
20
26.375024
30
0
11
21.415098
21
23.123105
31
0
39
0
210
0
220
0
230
1
0
LINE
5
A1
100
AcDbEntity
8
1
62
256
6
ByLayer
370
18
48
1
60
0
100
AcDbLine
10
21.415098
20
18.254395
30
0
11
21.415098
21
-24.647972
31
0
39
0
210
0
220
0
230
1
0
LINE
5
A2
100
AcDbEntity
8
1
62
256
6
ByLayer
370
18
48
1
60
0
100
AcDbLine
10
52.850309
20
21.634793
30
0
11
58.325329
21
22.108203
31
0
39
0
210
0
220
0
230
1
0
LINE
5
A3
100
AcDbEntity
8
1
62
256
6
ByLayer
370
18
48
1
60
0
100
AcDbLine
10
43.35135
20
10.356576
30
0
11
42.300126
21
11.851956
31
0
39
0
210
0
220
0
230
1
0
LINE
5
A4
100
AcDbEntity
8
1
62
256
6
ByLayer
370
18
48
1
60
0
100
AcDbLine
10
33.996025
20
23.664643
30
0
11
33.002956
21
25.077295
31
0
39
0
210
0
220
0
230
1
0
LINE
5
A5
100
AcDbEntity
8
1
62
256
6
ByLayer
370
18
48
1
60
0
100
AcDbLine
10
46.826062
20
30.13034
30
0
11
47.088123
21
33.323681
31
0
39
0
210
0
220
0
230
1
0
LINE
5
A6
100
AcDbEntity
8
1
62
256
6
ByLayer
370
18
48
1
60
0
100
AcDbLine
10
20.960985
20
-25.15
30
0
11
20.960985
21
-24.642711
31
0
39
0
210
0
220
0
230
1
0
LINE
5
A7
100
AcDbEntity
8
1
62
256
6
ByLayer
370
18
48
1
60
0
100
AcDbLine
10
37.986951
20
9.739187
30
0
11
37.454693
21
10.49633
31
0
39
0
210
0
220
0
230
1
0
LINE
5
A8
100
AcDbEntity
8
1
62
256
6
ByLayer
370
18
48
1
60
0
100
AcDbLine
10
31.205521
20
19.385854
30
0
11
30.709763
21
20.091076
31
0
39
0
210
0
220
0
230
1
0
LINE
5
A9
100
AcDbEntity
8
1
62
256
6
ByLayer
370
18
48
1
60
0
100
AcDbLine
10
47.198754
20
33.275502
30
0
11
46.943179
21
30.161196
31
0
39
0
210
0
220
0
230
1
0
LINE
5
AA
100
AcDbEntity
8
1
62
256
6
ByLayer
370
18
48
1
60
0
100
AcDbLine
10
52.935612
20
21.7571
30
0
11
53.716598
21
21.82463
31
0
39
0
210
0
220
0
230
1
0
LINE
5
AB
100
AcDbEntity
8
1
62
256
6
ByLayer
370
18
48
1
60
0
100
AcDbLine
10
58.325329
20
22.108203
30
0
11
58.282785
21
22.206035
31
0
39
0
210
0
220
0
230
1
0
LINE
5
AC
100
AcDbEntity
8
1
62
256
6
ByLayer
370
18
48
1
60
0
100
AcDbLine
10
55.429252
20
26.096814
30
0
11
53.855714
21
23.708339
31
0
39
0
210
0
220
0
230
1
0
LINE
5
AD
100
AcDbEntity
8
1
62
256
6
ByLayer
370
18
48
1
60
0
100
AcDbLine
10
56.310054
20
26.661803
30
0
11
55.916508
21
26.806951
31
0
39
0
210
0
220
0
230
1
0
LINE
5
AE
100
AcDbEntity
8
1
62
256
6
ByLayer
370
18
48
1
60
0
100
AcDbLine
10
52.721742
20
31.766221
30
0
11
52.744052
21
31.319809
31
0
39
0
210
0
220
0
230
1
0
LINE
5
AF
100
AcDbEntity
8
1
62
256
6
ByLayer
370
18
48
1
60
0
100
AcDbLine
10
51.908219
20
31.105527
30
0
11
49.116647
21
30.449721
31
0
39
0
210
0
220
0
230
1
0
LINE
5
B0
100
AcDbEntity
8
1
62
256
6
ByLayer
370
18
48
1
60
0
100
AcDbLine
10
41.084858
20
20.423586
30
0
11
41.096133
21
20.434862
31
0
39
0
210
0
220
0
230
1
0
LINE
5
B1
100
AcDbEntity
8
1
62
256
6
ByLayer
370
18
48
1
60
0
100
AcDbLine
10
44.86303
20
17.699426
30
0
11
44.863162
21
17.699559
31
0
39
0
210
0
220
0
230
1
0
LINE
5
B2
100
AcDbEntity
8
1
62
256
6
ByLayer
370
18
48
1
60
0
100
AcDbLine
10
41.113198
20
21.533022
30
0
11
41.347112
21
21.766935
31
0
39
0
210
0
220
0
230
1
0
LINE
5
B3
100
AcDbEntity
8
1
62
256
6
ByLayer
370
18
48
1
60
0
100
AcDbLine
10
42.993499
20
21.687328
30
0
11
43.227412
21
21.921242
31
0
39
0
210
0
220
0
230
1
0
LINE
5
B4
100
AcDbEntity
8
1
62
256
6
ByLayer
370
18
48
1
60
0
100
AcDbLine
10
42.636589
20
19.365979
30
0
11
42.870503
21
19.599893
31
0
39
0
210
0
220
0
230
1
0
LINE
5
B5
100
AcDbEntity
8
1
62
256
6
ByLayer
370
18
48
1
60
0
100
AcDbLine
10
43.486325
20
20.416294
30
0
11
43.720239
21
20.650208
31
0
39
0
210
0
220
0
230
1
0
LINE
5
B6
100
AcDbEntity
8
1
62
256
6
ByLayer
370
18
48
1
60
0
100
AcDbLine
10
42.394741
20
21.969087
30
0
11
42.628654
21
22.203
31
0
39
0
210
0
220
0
230
1
0
LINE
5
B7
100
AcDbEntity
8
1
62
256
6
ByLayer
370
18
48
1
60
0
100
AcDbLine
10
33.579574
20
17.624459
30
0
11
36.454128
21
13.535371
31
0
39
0
210
0
220
0
230
1
0
LINE
5
B8
100
AcDbEntity
8
1
62
256
6
ByLayer
370
18
48
1
60
0
100
AcDbLine
10
33.137346
20
17.42491
30
0
11
33.134967
21
17.245694
31
0
39
0
210
0
220
0
230
1
0
LINE
5
B9
100
AcDbEntity
8
1
62
256
6
ByLayer
370
18
48
1
60
0
100
AcDbLine
10
36.317339
20
19.841888
30
0
11
35.948698
21
19.527839
31
0
39
0
210
0
220
0
230
1
0
LINE
5
BA
100
AcDbEntity
8
1
62
256
6
ByLayer
370
18
48
1
60
0
100
AcDbLine
10
47.713014
20
15.729585
30
0
11
42.017893
21
11.757738
31
0
39
0
210
0
220
0
230
1
0
LINE
5
BB
100
AcDbEntity
8
1
62
256
6
ByLayer
370
18
48
1
60
0
100
AcDbLine
10
49.07822
20
30.331877
30
0
11
49.102259
21
30.341401
31
0
39
0
210
0
220
0
230
1
0
LINE
5
BC
100
AcDbEntity
8
1
62
256
6
ByLayer
370
18
48
1
60
0
100
AcDbLine
10
31.701974
20
18.202715
30
0
11
33.210604
21
19.487932
31
0
39
0
210
0
220
0
230
1
0
LINE
5
BD
100
AcDbEntity
8
1
62
256
6
ByLayer
370
18
48
1
60
0
100
AcDbLine
10
45.518195
20
18.037877
30
0
11
43.851134
21
16.875249
31
0
39
0
210
0
220
0
230
1
0
LINE
5
BE
100
AcDbEntity
8
1
62
256
6
ByLayer
370
18
48
1
60
0
100
AcDbLine
10
55.860649
20
26.715511
30
0
11
54.053836
21
24.12423
31
0
39
0
210
0
220
0
230
1
0
LINE
5
BF
100
AcDbEntity
8
1
62
256
6
ByLayer
370
18
48
1
60
0
100
AcDbLine
10
38.656873
20
23.303202
30
0
11
40.316648
21
24.459624
31
0
39
0
210
0
220
0
230
1
0
LINE
5
C0
100
AcDbEntity
8
1
62
256
6
ByLayer
370
18
48
1
60
0
100
AcDbLine
10
33.134967
20
17.245694
30
0
11
36.009521
21
13.156606
31
0
39
0
210
0
220
0
230
1
0
LINE
5
C1
100
AcDbEntity
8
1
62
256
6
ByLayer
370
18
48
1
60
0
100
AcDbLine
10
35.948698
20
19.527839
30
0
11
34.780642
21
18.714015
31
0
39
0
210
0
220
0
230
1
0
LINE
5
C2
100
AcDbEntity
8
1
62
256
6
ByLayer
370
18
48
1
60
0
100
AcDbLine
10
48.005192
20
30.049922
30
0
11
49.07822
21
30.331877
31
0
39
0
210
0
220
0
230
1
0
LINE
5
C3
100
AcDbEntity
8
1
62
256
6
ByLayer
370
18
48
1
60
0
100
AcDbLine
10
33.134967
20
17.245694
30
0
11
33.579574
21
17.624459
31
0
39
0
210
0
220
0
230
1
0
LINE
5
C4
100
AcDbEntity
8
1
62
256
6
ByLayer
370
18
48
1
60
0
100
AcDbLine
10
39.079375
20
23.663136
30
0
11
38.656873
21
23.303202
31
0
39
0
210
0
220
0
230
1
0
LINE
5
C5
100
AcDbEntity
8
1
62
256
6
ByLayer
370
18
48
1
60
0
100
AcDbLine
10
36.009521
20
13.156606
30
0
11
36.454128
21
13.535371
31
0
39
0
210
0
220
0
230
1
0
LINE
5
C6
100
AcDbEntity
8
1
62
256
6
ByLayer
370
18
48
1
60
0
100
AcDbLine
10
41.177447
20
12.140062
30
0
11
47.49377
21
16.545143
31
0
39
0
210
0
220
0
230
1
0
LINE
5
C7
100
AcDbEntity
8
1
62
256
6
ByLayer
370
18
48
1
60
0
100
AcDbLine
10
33.762174
20
23.501601
30
0
11
39.457295
21
27.473447
31
0
39
0
210
0
220
0
230
1
0
LINE
5
C8
100
AcDbEntity
8
1
62
256
6
ByLayer
370
18
48
1
60
0
100
AcDbLine
10
36.689608
20
13.520891
30
0
11
36.454128
21
13.535371
31
0
39
0
210
0
220
0
230
1
0
LINE
5
C9
100
AcDbEntity
8
1
62
256
6
ByLayer
370
18
48
1
60
0
100
AcDbLine
10
36.184373
20
13.090476
30
0
11
36.009521
21
13.156606
31
0
39
0
210
0
220
0
230
1
0
LINE
5
CA
100
AcDbEntity
8
1
62
256
6
ByLayer
370
18
48
1
60
0
100
AcDbLine
10
37.770178
20
14.461363
30
0
11
34.780642
21
18.714015
31
0
39
0
210
0
220
0
230
1
0
LINE
5
CB
100
AcDbEntity
8
1
62
256
6
ByLayer
370
18
48
1
60
0
100
AcDbLine
10
53.744625
20
23.737579
30
0
11
53.726942
21
23.719013
31
0
39
0
210
0
220
0
230
1
0
LINE
5
CC
100
AcDbEntity
8
1
62
256
6
ByLayer
370
18
48
1
60
0
100
AcDbLine
10
36.508228
20
11.365759
30
0
11
38.016858
21
12.650976
31
0
39
0
210
0
220
0
230
1
0
LINE
5
CD
100
AcDbEntity
8
1
62
256
6
ByLayer
370
18
48
1
60
0
100
AcDbLine
10
36.184373
20
13.090476
30
0
11
36.689608
21
13.520891
31
0
39
0
210
0
220
0
230
1
0
LINE
5
CE
100
AcDbEntity
8
1
62
256
6
ByLayer
370
18
48
1
60
0
100
AcDbLine
10
33.642581
20
17.855325
30
0
11
33.579574
21
17.624459
31
0
39
0
210
0
220
0
230
1
0
LINE
5
CF
100
AcDbEntity
8
1
62
256
6
ByLayer
370
18
48
1
60
0
100
AcDbLine
10
49.576673
20
16.939942
30
0
11
42.612712
21
12.083191
31
0
39
0
210
0
220
0
230
1
0
LINE
5
D0
100
AcDbEntity
8
1
62
256
6
ByLayer
370
18
48
1
60
0
100
AcDbLine
10
48.123465
20
16.01225
30
0
11
49.576673
21
16.939942
31
0
39
0
210
0
220
0
230
1
0
LINE
5
D1
100
AcDbEntity
8
1
62
256
6
ByLayer
370
18
48
1
60
0
100
AcDbLine
10
39.079375
20
23.663136
30
0
11
40.746435
21
24.825764
31
0
39
0
210
0
220
0
230
1
0
LINE
5
D2
100
AcDbEntity
8
1
62
256
6
ByLayer
370
18
48
1
60
0
100
AcDbLine
10
33.137346
20
17.42491
30
0
11
33.642581
21
17.855325
31
0
39
0
210
0
220
0
230
1
0
LINE
5
D3
100
AcDbEntity
8
1
62
256
6
ByLayer
370
18
48
1
60
0
100
AcDbLine
10
33.210604
20
19.487932
30
0
11
38.016858
21
12.650976
31
0
39
0
210
0
220
0
230
1
0
LINE
5
D4
100
AcDbEntity
8
1
62
256
6
ByLayer
370
18
48
1
60
0
100
AcDbLine
10
53.726942
20
23.719013
30
0
11
53.093917
21
22.811148
31
0
39
0
210
0
220
0
230
1
0
LINE
5
D5
100
AcDbEntity
8
1
62
256
6
ByLayer
370
18
48
1
60
0
100
AcDbLine
10
39.867746
20
27.756112
30
0
11
41.320954
21
28.683805
31
0
39
0
210
0
220
0
230
1
0
LINE
5
D6
100
AcDbEntity
8
1
62
256
6
ByLayer
370
18
48
1
60
0
100
AcDbLine
10
40.746435
20
24.825764
30
0
11
40.316648
21
24.459624
31
0
39
0
210
0
220
0
230
1
0
LINE
5
D7
100
AcDbEntity
8
1
62
256
6
ByLayer
370
18
48
1
60
0
100
AcDbLine
10
41.320954
20
28.683805
30
0
11
47.414991
21
30.285112
31
0
39
0
210
0
220
0
230
1
0
LINE
5
D8
100
AcDbEntity
8
1
62
256
6
ByLayer
370
18
48
1
60
0
100
AcDbLine
10
53.171802
20
22.095976
30
0
11
49.576673
21
16.939942
31
0
39
0
210
0
220
0
230
1
0
LINE
5
D9
100
AcDbEntity
8
1
62
256
6
ByLayer
370
18
48
1
60
0
100
AcDbLine
10
41.055718
20
10.930961
30
0
11
42.612712
21
12.083191
31
0
39
0
210
0
220
0
230
1
0
LINE
5
DA
100
AcDbEntity
8
1
62
256
6
ByLayer
370
18
48
1
60
0
100
AcDbLine
10
33.642581
20
17.855325
30
0
11
36.689608
21
13.520891
31
0
39
0
210
0
220
0
230
1
0
LINE
5
DB
100
AcDbEntity
8
1
62
256
6
ByLayer
370
18
48
1
60
0
100
AcDbLine
10
33.776049
20
22.668642
30
0
11
40.092372
21
27.073723
31
0
39
0
210
0
220
0
230
1
0
LINE
5
DC
100
AcDbEntity
8
1
62
256
6
ByLayer
370
18
48
1
60
0
100
AcDbLine
10
36.508228
20
11.365759
30
0
11
31.701974
21
18.202715
31
0
39
0
210
0
220
0
230
1
0
LINE
5
DD
100
AcDbEntity
8
1
62
256
6
ByLayer
370
18
48
1
60
0
100
AcDbLine
10
22.243598
20
-24.647972
30
0
11
21.415098
21
-24.647972
31
0
39
0
210
0
220
0
230
1
0
LINE
5
DE
100
AcDbEntity
8
1
62
256
6
ByLayer
370
18
48
1
60
0
100
AcDbLine
10
8.538675
20
7.529667
30
0
11
11.461325
21
7.529667
31
0
39
0
210
0
220
0
230
1
0
LINE
5
DF
100
AcDbEntity
8
1
62
256
6
ByLayer
370
18
48
1
60
0
100
AcDbLine
10
11.461325
20
19.288031
30
0
11
11.461325
21
23.83913
31
0
39
0
210
0
220
0
230
1
0
LINE
5
E0
100
AcDbEntity
8
1
62
256
6
ByLayer
370
18
48
1
60
0
100
AcDbLine
10
11.894338
20
8.055848
30
0
11
11.894338
21
18.05553
31
0
39
0
210
0
220
0
230
1
0
LINE
5
E1
100
AcDbEntity
8
1
62
256
6
ByLayer
370
18
48
1
60
0
100
AcDbLine
10
43.35135
20
10.356576
30
0
11
42.759499
21
9.923476
31
0
39
0
210
0
220
0
230
1
0
LINE
5
E2
100
AcDbEntity
8
1
62
256
6
ByLayer
370
18
48
1
60
0
100
AcDbLine
10
42.934288
20
5.936537
30
0
11
46.285067
21
2.585759
31
0
39
0
210
0
220
0
230
1
0
LINE
5
E3
100
AcDbEntity
8
1
62
256
6
ByLayer
370
18
48
1
60
0
100
AcDbLine
10
17.306273
20
15.972901
30
0
11
17.15076
21
16.85433
31
0
39
0
210
0
220
0
230
1
0
LINE
5
E4
100
AcDbEntity
8
1
62
256
6
ByLayer
370
18
48
1
60
0
100
AcDbLine
10
8.105662
20
-23.666502
30
0
11
8.105662
21
-8.055848
31
0
39
0
210
0
220
0
230
1
0
LINE
5
E5
100
AcDbEntity
8
1
62
256
6
ByLayer
370
18
48
1
60
0
100
AcDbLine
10
11.461325
20
-23.83913
30
0
11
11.461325
21
-7.529667
31
0
39
0
210
0
220
0
230
1
0
LINE
5
E6
100
AcDbEntity
8
1
62
256
6
ByLayer
370
18
48
1
60
0
100
AcDbLine
10
8.538675
20
19.288031
30
0
11
8.538675
21
23.83913
31
0
39
0
210
0
220
0
230
1
0
LINE
5
E7
100
AcDbEntity
8
1
62
256
6
ByLayer
370
18
48
1
60
0
100
AcDbLine
10
22.078325
20
26.7925
30
0
11
25.915983
21
22.954843
31
0
39
0
210
0
220
0
230
1
0
LINE
5
E8
100
AcDbEntity
8
1
62
256
6
ByLayer
370
18
48
1
60
0
100
AcDbLine
10
26.836228
20
17.689617
30
0
11
34.61392
21
7.061037
31
0
39
0
210
0
220
0
230
1
0
LINE
5
E9
100
AcDbEntity
8
1
62
256
6
ByLayer
370
18
48
1
60
0
100
AcDbLine
10
11.894338
20
-23.666502
30
0
11
11.894338
21
-8.055848
31
0
39
0
210
0
220
0
230
1
0
LINE
5
EA
100
AcDbEntity
8
1
62
256
6
ByLayer
370
18
48
1
60
0
100
AcDbLine
10
8.105662
20
8.055848
30
0
11
8.105662
21
18.05553
31
0
39
0
210
0
220
0
230
1
0
LINE
5
EB
100
AcDbEntity
8
1
62
256
6
ByLayer
370
18
48
1
60
0
100
AcDbLine
10
8.538675
20
-23.83913
30
0
11
11.461325
21
-23.83913
31
0
39
0
210
0
220
0
230
1
0
LINE
5
EC
100
AcDbEntity
8
1
62
256
6
ByLayer
370
18
48
1
60
0
100
AcDbLine
10
17.430319
20
23.455355
30
0
11
17.430319
21
21.338848
31
0
39
0
210
0
220
0
230
1
0
LINE
5
ED
100
AcDbEntity
8
1
62
256
6
ByLayer
370
18
48
1
60
0
100
AcDbLine
10
11.894338
20
18.975321
30
0
11
11.894338
21
23.666502
31
0
39
0
210
0
220
0
230
1
0
LINE
5
EE
100
AcDbEntity
8
1
62
256
6
ByLayer
370
18
48
1
60
0
100
AcDbLine
10
47.088123
20
33.323681
30
0
11
47.198754
21
33.275502
31
0
39
0
210
0
220
0
230
1
0
LINE
5
EF
100
AcDbEntity
8
1
62
256
6
ByLayer
370
18
48
1
60
0
100
AcDbLine
10
11.461325
20
23.83913
30
0
11
8.538675
21
23.83913
31
0
39
0
210
0
220
0
230
1
0
LINE
5
F0
100
AcDbEntity
8
1
62
256
6
ByLayer
370
18
48
1
60
0
100
AcDbLine
10
29.954614
20
18.732133
30
0
11
36.44661
21
9.497189
31
0
39
0
210
0
220
0
230
1
0
LINE
5
F1
100
AcDbEntity
8
1
62
256
6
ByLayer
370
18
48
1
60
0
100
AcDbLine
10
8.538675
20
-23.83913
30
0
11
8.538675
21
-7.529667
31
0
39
0
210
0
220
0
230
1
0
LINE
5
F2
100
AcDbEntity
8
1
62
256
6
ByLayer
370
18
48
1
60
0
100
AcDbLine
10
47.088123
20
33.323681
30
0
11
22.699433
21
31.322232
31
0
39
0
210
0
220
0
230
1
0
LINE
5
F3
100
AcDbEntity
8
1
62
256
6
ByLayer
370
18
48
1
60
0
100
AcDbLine
10
11.461325
20
7.529667
30
0
11
11.461325
21
17.330102
31
0
39
0
210
0
220
0
230
1
0
LINE
5
F4
100
AcDbEntity
8
1
62
256
6
ByLayer
370
18
48
1
60
0
100
AcDbLine
10
11.461325
20
-7.529667
30
0
11
8.538675
21
-7.529667
31
0
39
0
210
0
220
0
230
1
0
LINE
5
F5
100
AcDbEntity
8
1
62
256
6
ByLayer
370
18
48
1
60
0
100
AcDbLine
10
33.002956
20
25.077295
30
0
11
32.411105
21
24.644195
31
0
39
0
210
0
220
0
230
1
0
LINE
5
F6
100
AcDbEntity
8
1
62
256
6
ByLayer
370
18
48
1
60
0
100
AcDbLine
10
8.105662
20
18.975321
30
0
11
8.105662
21
23.666502
31
0
39
0
210
0
220
0
230
1
0
LINE
5
F7
100
AcDbEntity
8
1
62
256
6
ByLayer
370
18
48
1
60
0
100
AcDbLine
10
22.243598
20
-24.647972
30
0
11
46.285067
21
2.585759
31
0
39
0
210
0
220
0
230
1
0
LINE
5
F8
100
AcDbEntity
8
1
62
256
6
ByLayer
370
18
48
1
60
0
100
AcDbLine
10
8.538675
20
7.529667
30
0
11
8.538675
21
17.330102
31
0
39
0
210
0
220
0
230
1
0
LINE
5
F9
100
AcDbEntity
8
1
62
256
6
ByLayer
370
18
48
1
60
0
100
AcDbLine
10
57.796284
20
15.661517
30
0
11
46.285067
21
2.585759
31
0
39
0
210
0
220
0
230
1
0
LINE
5
FA
100
AcDbEntity
8
1
62
256
6
ByLayer
370
18
48
1
60
0
100
AcDbLine
10
57.796284
20
15.661517
30
0
11
58.325329
21
22.108203
31
0
39
0
210
0
220
0
230
1
0
LINE
5
FB
100
AcDbEntity
8
1
62
256
6
ByLayer
370
18
48
1
60
0
100
AcDbLine
10
22.078325
20
26.7925
30
0
11
22.078325
21
28.928451
31
0
39
0
210
0
220
0
230
1
0
LINE
5
FC
100
AcDbEntity
8
SK1
62
256
6
ByLayer
370
18
48
1
60
0
100
AcDbLine
10
-1.307107
20
-3.918065
30
0
11
-1.307107
21
3.918065
31
0
39
0
210
0
220
0
230
1
0
LINE
5
FD
100
AcDbEntity
8
1
62
256
6
ByLayer
370
18
48
1
60
0
100
AcDbLine
10
59.99736
20
34.137451
30
0
11
59.080323
21
22.962883
31
0
39
0
210
0
220
0
230
1
0
LINE
5
FE
100
AcDbEntity
8
1
62
256
6
ByLayer
370
18
48
1
60
0
100
AcDbLine
10
47.962883
20
34.080323
30
0
11
59.137451
21
34.99736
31
0
39
0
210
0
220
0
230
1
0
LINE
5
FF
100
AcDbEntity
8
1
62
256
6
ByLayer
370
18
48
1
60
0
100
AcDbLine
10
54.751962
20
24.090447
30
0
11
54.598772
21
24.064248
31
0
39
0
210
0
220
0
230
1
0
LINE
5
100
100
AcDbEntity
8
1
62
256
6
ByLayer
370
18
48
1
60
0
100
AcDbLine
10
52.850449
20
32.916155
30
0
11
50.137739
21
32.452205
31
0
39
0
210
0
220
0
230
1
0
LINE
5
101
100
AcDbEntity
8
1
62
256
6
ByLayer
370
18
48
1
60
0
100
AcDbLine
10
56.174302
20
23.865119
30
0
11
54.758336
21
22.877607
31
0
39
0
210
0
220
0
230
1
0
LINE
5
102
100
AcDbEntity
8
1
62
256
6
ByLayer
370
18
48
1
60
0
100
AcDbLine
10
49.685803
20
31.053008
30
0
11
52.721742
21
31.766221
31
0
39
0
210
0
220
0
230
1
0
LINE
5
103
100
AcDbEntity
8
1
62
256
6
ByLayer
370
18
48
1
60
0
100
AcDbLine
10
57.539864
20
26.245404
30
0
11
56.174302
21
23.865119
31
0
39
0
210
0
220
0
230
1
0
LINE
5
104
100
AcDbEntity
8
1
62
256
6
ByLayer
370
18
48
1
60
0
100
AcDbLine
10
53.697745
20
32.417233
30
0
11
55.098289
21
31.900851
31
0
39
0
210
0
220
0
230
1
0
LINE
5
105
100
AcDbEntity
8
1
62
256
6
ByLayer
370
18
48
1
60
0
100
AcDbLine
10
54.320889
20
23.925186
30
0
11
54.598772
21
24.064248
31
0
39
0
210
0
220
0
230
1
0
LINE
5
106
100
AcDbEntity
8
1
62
256
6
ByLayer
370
18
48
1
60
0
100
AcDbLine
10
49.762918
20
31.187425
30
0
11
49.685803
21
31.053008
31
0
39
0
210
0
220
0
230
1
0
LINE
5
107
100
AcDbEntity
8
1
62
256
6
ByLayer
370
18
48
1
60
0
100
AcDbLine
10
53.366132
20
32.376454
30
0
11
50.851053
21
31.946303
31
0
39
0
210
0
220
0
230
1
0
LINE
5
108
100
AcDbEntity
8
1
62
256
6
ByLayer
370
18
48
1
60
0
100
AcDbLine
10
57.106173
20
27.0562
30
0
11
57.539864
21
26.245404
31
0
39
0
210
0
220
0
230
1
0
LINE
5
109
100
AcDbEntity
8
1
62
256
6
ByLayer
370
18
48
1
60
0
100
AcDbLine
10
53.366132
20
32.376454
30
0
11
52.850449
21
32.916155
31
0
39
0
210
0
220
0
230
1
0
LINE
5
10A
100
AcDbEntity
8
1
62
256
6
ByLayer
370
18
48
1
60
0
100
AcDbLine
10
55.840097
20
24.849326
30
0
11
54.751962
21
24.090447
31
0
39
0
210
0
220
0
230
1
0
LINE
5
10B
100
AcDbEntity
8
1
62
256
6
ByLayer
370
18
48
1
60
0
100
AcDbLine
10
54.144055
20
22.772547
30
0
11
54.758336
21
22.877607
31
0
39
0
210
0
220
0
230
1
0
LINE
5
10C
100
AcDbEntity
8
1
62
256
6
ByLayer
370
18
48
1
60
0
100
AcDbLine
10
48.412547
20
30.925687
30
0
11
48.721773
21
31.464693
31
0
39
0
210
0
220
0
230
1
0
LINE
5
10D
100
AcDbEntity
8
1
62
256
6
ByLayer
370
18
48
1
60
0
100
AcDbLine
10
50.851053
20
31.946303
30
0
11
49.762918
21
31.187425
31
0
39
0
210
0
220
0
230
1
0
LINE
5
10E
100
AcDbEntity
8
1
62
256
6
ByLayer
370
18
48
1
60
0
100
AcDbLine
10
55.840097
20
24.849326
30
0
11
56.174302
21
23.865119
31
0
39
0
210
0
220
0
230
1
0
LINE
5
10F
100
AcDbEntity
8
1
62
256
6
ByLayer
370
18
48
1
60
0
100
AcDbLine
10
49.762918
20
31.187425
30
0
11
48.721773
21
31.464693
31
0
39
0
210
0
220
0
230
1
0
LINE
5
110
100
AcDbEntity
8
1
62
256
6
ByLayer
370
18
48
1
60
0
100
AcDbLine
10
54.320889
20
23.925186
30
0
11
54.144055
21
22.772547
31
0
39
0
210
0
220
0
230
1
0
LINE
5
111
100
AcDbEntity
8
1
62
256
6
ByLayer
370
18
48
1
60
0
100
AcDbLine
10
54.598772
20
24.064248
30
0
11
56.310054
21
26.661803
31
0
39
0
210
0
220
0
230
1
0
LINE
5
112
100
AcDbEntity
8
1
62
256
6
ByLayer
370
18
48
1
60
0
100
AcDbLine
10
49.685803
20
31.053008
30
0
11
49.467169
21
30.829662
31
0
39
0
210
0
220
0
230
1
0
LINE
5
113
100
AcDbEntity
8
1
62
256
6
ByLayer
370
18
48
1
60
0
100
AcDbLine
10
57.25807
20
27.352626
30
0
11
57.249943
21
28.840097
31
0
39
0
210
0
220
0
230
1
0
LINE
5
114
100
AcDbEntity
8
1
62
256
6
ByLayer
370
18
48
1
60
0
100
AcDbLine
10
49.467169
20
30.829662
30
0
11
48.412547
21
30.925687
31
0
39
0
210
0
220
0
230
1
0
LINE
5
115
100
AcDbEntity
8
1
62
256
6
ByLayer
370
18
48
1
60
0
100
AcDbLine
10
54.758336
20
22.877607
30
0
11
54.751962
21
24.090447
31
0
39
0
210
0
220
0
230
1
0
LINE
5
116
100
AcDbEntity
8
1
62
256
6
ByLayer
370
18
48
1
60
0
100
AcDbLine
10
50.851053
20
31.946303
30
0
11
50.137739
21
32.452205
31
0
39
0
210
0
220
0
230
1
0
LINE
5
117
100
AcDbEntity
8
1
62
256
6
ByLayer
370
18
48
1
60
0
100
AcDbLine
10
50.137739
20
32.452205
30
0
11
48.721773
21
31.464693
31
0
39
0
210
0
220
0
230
1
0
LINE
5
118
100
AcDbEntity
8
1
62
256
6
ByLayer
370
18
48
1
60
0
100
AcDbLine
10
57.249943
20
28.840097
30
0
11
58.127249
21
28.479903
31
0
39
0
210
0
220
0
230
1
0
LINE
5
119
100
AcDbEntity
8
1
62
256
6
ByLayer
370
18
48
1
60
0
100
AcDbLine
10
55.098289
20
31.900851
30
0
11
55.159451
21
32.701632
31
0
39
0
210
0
220
0
230
1
0
LINE
5
11A
100
AcDbEntity
8
1
62
256
6
ByLayer
370
18
48
1
60
0
100
AcDbLine
10
57.106173
20
27.0562
30
0
11
55.840097
21
24.849326
31
0
39
0
210
0
220
0
230
1
0
MTEXT
5
1FE
100
AcDbEntity
8
SK6
62
256
6
ByLayer
370
18
48
1
60
0
100
AcDbMText
10
-6.625
20
-35.95
30
0
210
0
220
0
230
1
1
\W0.7253;C5-DCLNR-35060-12-2
40
3.5
41
0
44
1.084337
50
0
71
7
72
5
7
iso_b_vert
0
DIMENSION
5
21D
100
AcDbEntity
8
2
62
256
6
ByLayer
370
13
48
1
60
0
100
AcDbDimension
2
DimnDraft3D2
10
58.14468
20
34.915551
30
0
11
47.554118
21
46.53416
31
0
70
34
71
5
72
1
41
1
210
0
220
0
230
1
3
Standard
100
AcDb2LineAngularDimension
13
60
23
35
33
0
14
60
24
33.4125
34
0
15
59.141329
25
34.997341
35
0
16
50.863668
26
43.485082
36
0
40
0
0
DIMENSION
5
233
100
AcDbEntity
8
SK2
62
256
6
ByLayer
370
13
48
1
60
0
100
AcDbDimension
2
DimnDraft3D3
10
-37.75
20
25
30
0
11
-37.75
21
-2.688158
31
0
70
32
71
5
72
1
41
1
210
0
220
0
230
1
3
Standard
100
AcDbAlignedDimension
13
-2
23
-25
33
0
14
-2
24
25
34
0
50
90
100
AcDbRotatedDimension
1001
ACAD
1000
DSTYLE
1002
{
1070
    74
1070
     0
1070
   279
1070
     0
1070
   172
1070
     1
1070
   173
1070
     1
1070
   340
1005
1FF
1070
    77
1070
     1
1070
    73
1070
     0
1070
   171
1070
     3
1070
   274
1070
     4
1070
   177
1070
     2
1070
   176
1070
     2
1070
   178
1070
     7
1070
    78
1070
     8
1070
    41
1041
3.175
1070
   147
1041
2.25
1070
    42
1041
2.0
1070
    44
1041
2.0
1070
   140
1041
4.5
1070
   343
1005
21E
1070
   344
1005
21E
1002
}
0
DIMENSION
5
241
100
AcDbEntity
8
2
62
256
6
ByLayer
370
13
48
1
60
0
100
AcDbDimension
2
DimnDraft3D4
10
82.25
20
35
30
0
11
82.25
21
12.218421
31
0
70
32
71
5
72
1
41
1
210
0
220
0
230
1
3
Standard
100
AcDbAlignedDimension
13
62
23
0
33
0
14
62
24
35
34
0
50
90
100
AcDbRotatedDimension
1001
ACAD
1000
DSTYLE
1002
{
1070
    74
1070
     0
1070
   279
1070
     0
1070
   172
1070
     1
1070
   173
1070
     1
1070
   340
1005
1FF
1070
    77
1070
     1
1070
    73
1070
     0
1070
   171
1070
     3
1070
   274
1070
     4
1070
   177
1070
     2
1070
   176
1070
     2
1070
   178
1070
     7
1070
    78
1070
     8
1070
    41
1041
3.175
1070
   147
1041
2.25
1070
    42
1041
2.0
1070
    44
1041
2.0
1070
   140
1041
4.5
1070
   343
1005
21E
1070
   344
1005
21E
1002
}
0
ENDSEC
0
SECTION
2
OBJECTS
0
DICTIONARY
5
2ac
330
0
100
AcDbDictionary
280
0
281
1
3
ACAD_GROUP
350
2ad
3
ACAD_MLINESTYLE
350
2ae
0
DICTIONARY
5
2ad
330
0
100
AcDbDictionary
280
0
281
1
0
DICTIONARY
5
2ae
330
0
100
AcDbDictionary
280
0
281
1
3
Standard
350
18
0
MLINESTYLE
5
18
330
2ae
100
AcDbMlineStyle
2
Standard
70
0
3

62
256
51
90
52
90
71
2
49
-0.5
62
256
6
ByLayer
49
0.5
62
256
6
ByLayer
0
RASTERVARIABLES
5
29a
330

100
AcDbRasterVariables
90
0
70
1
71
1
72
1
0
ENDSEC
0
EOF
