0
SECTION
2
HEADER
9
$ACADVER
1
AC1015
9
$DWGCODEPAGE
3
ANSI_1252
9
$HANDSEED
5
2c8
9
$ANGBASE
50
0
9
$ANGDIR
70
0
9
$ATTMODE
70
1
9
$AUNITS
70
0
9
$AUPREC
70
0
9
$CECOLOR
62
256
9
$CELTSCALE
40
1
9
$CELTYPE
6
ByLayer
9
$CELWEIGHT
370
18
9
$CLAYER
8
0
9
$CMLJUST
70
0
9
$CMLSCALE
40
1
9
$CMLSTYLE
2
Standard
9
$DIMSTYLE
2
Standard
9
$TEXTSIZE
40
0.2
9
$TEXTSTYLE
7
Standard
9
$LUNITS
70
2
9
$LUPREC
70
4
9
$EXTNAMES
290
1
9
$INSUNITS
70
4
9
$LTSCALE
40
1
9
$LWDISPLAY
290
1
9
$PDMODE
70
0
9
$PDSIZE
40
0
9
$PLINEGEN
70
0
0
ENDSEC
0
SECTION
2
CLASSES
0
CLASS
1
RASTERVARIABLES
2
AcDbRasterVariables
3
ISM
90
0
280
0
281
0
0
ENDSEC
0
SECTION
2
TABLES
0
TABLE
2
VPORT
5
2be
100
AcDbSymbolTable
0
VPORT
5
1
100
AcDbSymbolTableRecord
100
AcDbViewportTableRecord
2
*Active
70
0
10
0
20
0
11
1
21
1
12
-1
22
1
13
0
23
0
14
0.5
24
0.5
15
10
25
10
16
0
26
0
36
1
17
0
27
0
37
0
0
ENDTAB
0
TABLE
2
LTYPE
5
2bf
100
AcDbSymbolTable
0
LTYPE
5
14
100
AcDbSymbolTableRecord
100
AcDbLinetypeTableRecord
70
0
2
ByBlock
3

72
65
73
0
40
0
0
LTYPE
5
15
100
AcDbSymbolTableRecord
100
AcDbLinetypeTableRecord
70
0
2
ByLayer
3

72
65
73
0
40
0
0
LTYPE
5
16
100
AcDbSymbolTableRecord
100
AcDbLinetypeTableRecord
70
0
2
CONTINUOUS
3
Solid line
72
65
73
0
40
0
0
LTYPE
5
6A
100
AcDbSymbolTableRecord
100
AcDbLinetypeTableRecord
70
0
2
CENTER
3
____ _ ____ _ ____ _ ____
72
65
73
4
40
47.5
49
22
74
0
49
-8.5
74
0
49
8.5
74
0
49
-8.5
74
0
0
LTYPE
5
6B
100
AcDbSymbolTableRecord
100
AcDbLinetypeTableRecord
70
0
2
DASHED
3
__ __ __ __ __ __ __ __ __
72
65
73
2
40
25.72
49
12.86
74
0
49
-12.86
74
0
0
ENDTAB
0
TABLE
2
LAYER
5
2c0
100
AcDbSymbolTable
0
LAYER
5
10
100
AcDbSymbolTableRecord
100
AcDbLayerTableRecord
2
0
70
0
62
7
6
CONTINUOUS
290
1
370
-3
390
0
0
LAYER
5
6D
100
AcDbSymbolTableRecord
100
AcDbLayerTableRecord
2
2
70
0
62
7
6
CONTINUOUS
290
1
370
-3
390
0
0
LAYER
5
6F
100
AcDbSymbolTableRecord
100
AcDbLayerTableRecord
2
80
70
0
62
-6
6
CONTINUOUS
290
1
370
-3
390
0
0
LAYER
5
71
100
AcDbSymbolTableRecord
100
AcDbLayerTableRecord
2
81
70
0
62
-3
6
CONTINUOUS
290
1
370
-3
390
0
0
LAYER
5
73
100
AcDbSymbolTableRecord
100
AcDbLayerTableRecord
2
1
70
0
62
4
6
CONTINUOUS
290
1
370
-3
390
0
0
LAYER
5
8A
100
AcDbSymbolTableRecord
100
AcDbLayerTableRecord
2
4
70
0
62
-2
6
CENTER
290
1
370
-3
390
0
0
LAYER
5
2aa
100
AcDbSymbolTableRecord
100
AcDbLayerTableRecord
2
SK4
70
0
62
2
6
CENTER
290
1
370
-3
390
0
0
LAYER
5
2ab
100
AcDbSymbolTableRecord
100
AcDbLayerTableRecord
2
SK1
70
0
62
4
6
CONTINUOUS
290
1
370
-3
390
0
0
LAYER
5
2ac
100
AcDbSymbolTableRecord
100
AcDbLayerTableRecord
2
SK6
70
0
62
5
6
CONTINUOUS
290
1
370
-3
390
0
0
LAYER
5
2ad
100
AcDbSymbolTableRecord
100
AcDbLayerTableRecord
2
SK2
70
0
62
7
6
CONTINUOUS
290
1
370
-3
390
0
0
ENDTAB
0
TABLE
2
STYLE
5
2c1
100
AcDbSymbolTable
0
STYLE
5
11
100
AcDbSymbolTableRecord
100
AcDbTextStyleTableRecord
2
Standard
3
txt
70
0
71
0
40
0
41
1
42
0
50
0
0
STYLE
5
1F2
100
AcDbSymbolTableRecord
100
AcDbTextStyleTableRecord
2
iso_b_vert
3
simplex.shx
70
0
71
0
40
0
41
1
42
0
50
0
0
STYLE
5
1F3
100
AcDbSymbolTableRecord
100
AcDbTextStyleTableRecord
2
DWGDirectTextStyle
3
simplex
70
0
71
0
40
0
41
1
42
0
50
0
0
ENDTAB
0
TABLE
2
DIMSTYLE
5
2c2
100
AcDbSymbolTable
100
AcDbDimStyleTable
0
DIMSTYLE
105
27
100
AcDbSymbolTableRecord
100
AcDbDimStyleTableRecord
2
Standard
70
0
3
<>
41
0.18
42
0.0625
44
0.18
140
0.18
147
0.09
73
0
74
0
77
1
271
2
275
0
278
52
280
0
340
11
0
ENDTAB
0
TABLE
2
VIEW
5
2c3
100
AcDbSymbolTable
0
ENDTAB
0
TABLE
2
UCS
5
2c4
100
AcDbSymbolTable
0
ENDTAB
0
TABLE
2
APPID
5
2c5
100
AcDbSymbolTable
0
APPID
5
12
100
AcDbSymbolTableRecord
100
AcDbRegAppTableRecord
2
ACAD
70
0
0
ENDTAB
0
TABLE
2
BLOCK_RECORD
5
2c6
100
AcDbSymbolTable
0
BLOCK_RECORD
5
1F
100
AcDbSymbolTableRecord
100
AcDbBlockTableRecord
2
*Model_Space
340
0
70
0
0
BLOCK_RECORD
5
1B
100
AcDbSymbolTableRecord
100
AcDbBlockTableRecord
2
*Paper_Space
340
0
70
0
0
BLOCK_RECORD
5
23
100
AcDbSymbolTableRecord
100
AcDbBlockTableRecord
2
*Paper_Space0
340
0
70
0
0
BLOCK_RECORD
5
1F5
100
AcDbSymbolTableRecord
100
AcDbBlockTableRecord
2
DimnDraft3D11
340
0
70
0
0
BLOCK_RECORD
5
203
100
AcDbSymbolTableRecord
100
AcDbBlockTableRecord
2
DimnDraft3D22
340
0
70
0
0
BLOCK_RECORD
5
211
100
AcDbSymbolTableRecord
100
AcDbBlockTableRecord
2
DimnDraft3D33
340
0
70
0
0
BLOCK_RECORD
5
21F
100
AcDbSymbolTableRecord
100
AcDbBlockTableRecord
2
DimnDraft3D4
340
0
70
0
0
BLOCK_RECORD
5
22D
100
AcDbSymbolTableRecord
100
AcDbBlockTableRecord
2
_CLOSED
340
0
70
0
0
BLOCK_RECORD
5
234
100
AcDbSymbolTableRecord
100
AcDbBlockTableRecord
2
DimnDraft3D5
340
0
70
0
0
BLOCK_RECORD
5
243
100
AcDbSymbolTableRecord
100
AcDbBlockTableRecord
2
DimnDraft3D6
340
0
70
0
0
ENDTAB
0
ENDSEC
0
SECTION
2
BLOCKS
0
BLOCK
5
20
100
AcDbEntity
8
0
100
AcDbBlockBegin
2
*Model_Space
70
0
10
0
20
0
30
0
3
*Model_Space
0
ENDBLK
5
21
100
AcDbEntity
8
0
100
AcDbBlockEnd
0
BLOCK
5
1C
100
AcDbEntity
8
0
100
AcDbBlockBegin
2
*Paper_Space
70
0
10
0
20
0
30
0
3
*Paper_Space
0
ENDBLK
5
1D
100
AcDbEntity
8
0
100
AcDbBlockEnd
0
BLOCK
5
24
100
AcDbEntity
8
0
100
AcDbBlockBegin
2
*Paper_Space0
70
0
10
0
20
0
30
0
3
*Paper_Space0
0
ENDBLK
5
25
100
AcDbEntity
8
0
100
AcDbBlockEnd
0
BLOCK
5
1F6
100
AcDbEntity
8
0
100
AcDbBlockBegin
2
DimnDraft3D11
70
0
10
0
20
0
30
0
3
DimnDraft3D11
0
LINE
5
1F8
100
AcDbEntity
8
2
62
256
6
ByLayer
370
25
48
1
60
0
100
AcDbLine
10
52
20
37
30
0
11
52
21
44.75
31
0
39
0
210
0
220
0
230
1
0
LINE
5
1F9
100
AcDbEntity
8
2
62
256
6
ByLayer
370
25
48
1
60
0
100
AcDbLine
10
0
20
27
30
0
11
0
21
44.75
31
0
39
0
210
0
220
0
230
1
0
LINE
5
1FA
100
AcDbEntity
8
2
62
256
6
ByLayer
370
25
48
1
60
0
100
AcDbLine
10
52
20
42.75
30
0
11
0
21
42.75
31
0
39
0
210
0
220
0
230
1
0
LINE
5
1FB
100
AcDbEntity
8
2
62
256
6
ByLayer
370
25
48
1
60
0
100
AcDbLine
10
52
20
42.75
30
0
11
48.825002
21
42.332003
31
0
39
0
210
0
220
0
230
1
0
LINE
5
1FC
100
AcDbEntity
8
2
62
256
6
ByLayer
370
25
48
1
60
0
100
AcDbLine
10
52
20
42.75
30
0
11
48.824998
21
43.167997
31
0
39
0
210
0
220
0
230
1
0
LINE
5
1FD
100
AcDbEntity
8
2
62
256
6
ByLayer
370
25
48
1
60
0
100
AcDbLine
10
48.825002
20
42.332003
30
0
11
48.824998
21
43.167997
31
0
39
0
210
0
220
0
230
1
0
LINE
5
1FE
100
AcDbEntity
8
2
62
256
6
ByLayer
370
25
48
1
60
0
100
AcDbLine
10
0
20
42.75
30
0
11
3.174998
21
43.167997
31
0
39
0
210
0
220
0
230
1
0
LINE
5
1FF
100
AcDbEntity
8
2
62
256
6
ByLayer
370
25
48
1
60
0
100
AcDbLine
10
0
20
42.75
30
0
11
3.175002
21
42.332003
31
0
39
0
210
0
220
0
230
1
0
LINE
5
200
100
AcDbEntity
8
2
62
256
6
ByLayer
370
25
48
1
60
0
100
AcDbLine
10
3.174998
20
43.167997
30
0
11
3.175002
21
42.332003
31
0
39
0
210
0
220
0
230
1
0
MTEXT
5
201
100
AcDbEntity
8
2
62
256
6
ByLayer
370
18
48
1
60
0
100
AcDbMText
10
21.843421
20
43.875
30
0
210
0
220
0
230
1
1
\W0.7346;52.0
40
4.5
41
0
44
1.084337
50
0
71
7
72
5
7
iso_b_vert
0
ENDBLK
5
1F7
100
AcDbEntity
8
0
100
AcDbBlockEnd
0
BLOCK
5
204
100
AcDbEntity
8
0
100
AcDbBlockBegin
2
DimnDraft3D22
70
0
10
0
20
0
30
0
3
DimnDraft3D22
0
LINE
5
206
100
AcDbEntity
8
2
62
256
6
ByLayer
370
25
48
1
60
0
100
AcDbLine
10
60.322692
20
28.677308
30
0
11
60.322692
21
54.75
31
0
39
0
210
0
220
0
230
1
0
LINE
5
207
100
AcDbEntity
8
2
62
256
6
ByLayer
370
25
48
1
60
0
100
AcDbLine
10
0
20
27
30
0
11
0
21
54.75
31
0
39
0
210
0
220
0
230
1
0
LINE
5
208
100
AcDbEntity
8
2
62
256
6
ByLayer
370
25
48
1
60
0
100
AcDbLine
10
60.322692
20
52.75
30
0
11
0
21
52.75
31
0
39
0
210
0
220
0
230
1
0
LINE
5
209
100
AcDbEntity
8
2
62
256
6
ByLayer
370
25
48
1
60
0
100
AcDbLine
10
60.322692
20
52.75
30
0
11
57.147694
21
52.332003
31
0
39
0
210
0
220
0
230
1
0
LINE
5
20A
100
AcDbEntity
8
2
62
256
6
ByLayer
370
25
48
1
60
0
100
AcDbLine
10
60.322692
20
52.75
30
0
11
57.147691
21
53.167997
31
0
39
0
210
0
220
0
230
1
0
LINE
5
20B
100
AcDbEntity
8
2
62
256
6
ByLayer
370
25
48
1
60
0
100
AcDbLine
10
57.147694
20
52.332003
30
0
11
57.147691
21
53.167997
31
0
39
0
210
0
220
0
230
1
0
LINE
5
20C
100
AcDbEntity
8
2
62
256
6
ByLayer
370
25
48
1
60
0
100
AcDbLine
10
0
20
52.75
30
0
11
3.174998
21
53.167997
31
0
39
0
210
0
220
0
230
1
0
LINE
5
20D
100
AcDbEntity
8
2
62
256
6
ByLayer
370
25
48
1
60
0
100
AcDbLine
10
0
20
52.75
30
0
11
3.175002
21
52.332003
31
0
39
0
210
0
220
0
230
1
0
LINE
5
20E
100
AcDbEntity
8
2
62
256
6
ByLayer
370
25
48
1
60
0
100
AcDbLine
10
3.174998
20
53.167997
30
0
11
3.175002
21
52.332003
31
0
39
0
210
0
220
0
230
1
0
MTEXT
5
20F
100
AcDbEntity
8
2
62
256
6
ByLayer
370
18
48
1
60
0
100
AcDbMText
10
26.004767
20
53.875
30
0
210
0
220
0
230
1
1
\W0.7346;60.3
40
4.5
41
0
44
1.084337
50
0
71
7
72
5
7
iso_b_vert
0
ENDBLK
5
205
100
AcDbEntity
8
0
100
AcDbBlockEnd
0
BLOCK
5
212
100
AcDbEntity
8
0
100
AcDbBlockBegin
2
DimnDraft3D33
70
0
10
0
20
0
30
0
3
DimnDraft3D33
0
LINE
5
214
100
AcDbEntity
8
2
62
256
6
ByLayer
370
25
48
1
60
0
100
AcDbLine
10
54
20
35
30
0
11
117.25
21
35
31
0
39
0
210
0
220
0
230
1
0
LINE
5
215
100
AcDbEntity
8
2
62
256
6
ByLayer
370
25
48
1
60
0
100
AcDbLine
10
54
20
0
30
0
11
117.25
21
0
31
0
39
0
210
0
220
0
230
1
0
LINE
5
216
100
AcDbEntity
8
2
62
256
6
ByLayer
370
25
48
1
60
0
100
AcDbLine
10
115.25
20
35
30
0
11
115.25
21
0
31
0
39
0
210
0
220
0
230
1
0
LINE
5
217
100
AcDbEntity
8
2
62
256
6
ByLayer
370
25
48
1
60
0
100
AcDbLine
10
115.25
20
35
30
0
11
115.667997
21
31.825002
31
0
39
0
210
0
220
0
230
1
0
LINE
5
218
100
AcDbEntity
8
2
62
256
6
ByLayer
370
25
48
1
60
0
100
AcDbLine
10
115.25
20
35
30
0
11
114.832003
21
31.824998
31
0
39
0
210
0
220
0
230
1
0
LINE
5
219
100
AcDbEntity
8
2
62
256
6
ByLayer
370
25
48
1
60
0
100
AcDbLine
10
115.667997
20
31.825002
30
0
11
114.832003
21
31.824998
31
0
39
0
210
0
220
0
230
1
0
LINE
5
21A
100
AcDbEntity
8
2
62
256
6
ByLayer
370
25
48
1
60
0
100
AcDbLine
10
115.25
20
0
30
0
11
114.832003
21
3.174998
31
0
39
0
210
0
220
0
230
1
0
LINE
5
21B
100
AcDbEntity
8
2
62
256
6
ByLayer
370
25
48
1
60
0
100
AcDbLine
10
115.25
20
0
30
0
11
115.667997
21
3.175002
31
0
39
0
210
0
220
0
230
1
0
LINE
5
21C
100
AcDbEntity
8
2
62
256
6
ByLayer
370
25
48
1
60
0
100
AcDbLine
10
114.832003
20
3.174998
30
0
11
115.667997
21
3.175002
31
0
39
0
210
0
220
0
230
1
0
MTEXT
5
21D
100
AcDbEntity
8
2
62
256
6
ByLayer
370
18
48
1
60
0
100
AcDbMText
10
114.125
20
13.343421
30
0
210
0
220
0
230
1
1
\W0.7346;35.0
40
4.5
41
0
44
1.084337
50
90
71
7
72
5
7
iso_b_vert
0
ENDBLK
5
213
100
AcDbEntity
8
0
100
AcDbBlockEnd
0
BLOCK
5
22A
100
AcDbEntity
8
0
100
AcDbBlockBegin
2
DimnDraft3D4
70
0
10
0
20
0
30
0
3
DimnDraft3D4
0
MTEXT
5
220
100
AcDbEntity
8
2
62
256
6
ByLayer
370
18
48
1
60
0
100
AcDbMText
10
104.125
20
9.182075
30
0
210
0
220
0
230
1
1
\W0.7346;26.7
40
4.5
41
0
44
1.084337
50
90
71
7
72
5
7
iso_b_vert
0
LINE
5
221
100
AcDbEntity
8
2
62
256
6
ByLayer
370
13
48
1
60
0
100
AcDbLine
10
54
20
0
30
0
11
107.25
21
0
31
0
39
0
210
0
220
0
230
1
0
LINE
5
222
100
AcDbEntity
8
2
62
256
6
ByLayer
370
13
48
1
60
0
100
AcDbLine
10
62.322692
20
26.677308
30
0
11
107.25
21
26.677308
31
0
39
0
210
0
220
0
230
1
0
LINE
5
223
100
AcDbEntity
8
2
62
256
6
ByLayer
370
13
48
1
60
0
100
AcDbLine
10
105.25
20
0
30
0
11
105.25
21
26.677308
31
0
39
0
210
0
220
0
230
1
0
LINE
5
224
100
AcDbEntity
8
2
62
256
6
ByLayer
370
13
48
1
60
0
100
AcDbLine
10
105.25
20
0
30
0
11
104.832003
21
3.174998
31
0
39
0
210
0
220
0
230
1
0
LINE
5
225
100
AcDbEntity
8
2
62
256
6
ByLayer
370
13
48
1
60
0
100
AcDbLine
10
105.25
20
0
30
0
11
105.667997
21
3.175002
31
0
39
0
210
0
220
0
230
1
0
LINE
5
226
100
AcDbEntity
8
2
62
256
6
ByLayer
370
13
48
1
60
0
100
AcDbLine
10
104.832003
20
3.174998
30
0
11
105.667997
21
3.175002
31
0
39
0
210
0
220
0
230
1
0
LINE
5
227
100
AcDbEntity
8
2
62
256
6
ByLayer
370
13
48
1
60
0
100
AcDbLine
10
105.25
20
26.677308
30
0
11
105.667997
21
23.502309
31
0
39
0
210
0
220
0
230
1
0
LINE
5
228
100
AcDbEntity
8
2
62
256
6
ByLayer
370
13
48
1
60
0
100
AcDbLine
10
105.25
20
26.677308
30
0
11
104.832003
21
23.502306
31
0
39
0
210
0
220
0
230
1
0
LINE
5
229
100
AcDbEntity
8
2
62
256
6
ByLayer
370
13
48
1
60
0
100
AcDbLine
10
105.667997
20
23.502309
30
0
11
104.832003
21
23.502306
31
0
39
0
210
0
220
0
230
1
0
ENDBLK
5
22B
100
AcDbEntity
8
0
100
AcDbBlockEnd
0
BLOCK
5
22E
100
AcDbEntity
8
0
100
AcDbBlockBegin
2
_CLOSED
70
0
10
0
20
0
30
0
3
_CLOSED
0
LINE
5
230
100
AcDbEntity
8
0
62
256
6
ByLayer
370
-2
48
1
60
0
100
AcDbLine
10
-1
20
0.166667
30
0
11
0
21
0
31
0
39
0
210
0
220
0
230
1
0
LINE
5
231
100
AcDbEntity
8
0
62
256
6
ByLayer
370
-2
48
1
60
0
100
AcDbLine
10
0
20
0
30
0
11
-1
21
-0.166667
31
0
39
0
210
0
220
0
230
1
0
LINE
5
232
100
AcDbEntity
8
0
62
256
6
ByLayer
370
-2
48
1
60
0
100
AcDbLine
10
-1
20
0.166667
30
0
11
-1
21
-0.166667
31
0
39
0
210
0
220
0
230
1
0
LINE
5
233
100
AcDbEntity
8
0
62
256
6
ByLayer
370
-2
48
1
60
0
100
AcDbLine
10
0
20
0
30
0
11
-1
21
0
31
0
39
0
210
0
220
0
230
1
0
ENDBLK
5
22F
100
AcDbEntity
8
0
100
AcDbBlockEnd
0
BLOCK
5
240
100
AcDbEntity
8
0
100
AcDbBlockBegin
2
DimnDraft3D5
70
0
10
0
20
0
30
0
3
DimnDraft3D5
0
MTEXT
5
235
100
AcDbEntity
8
SK2
62
256
6
ByLayer
370
18
48
1
60
0
100
AcDbMText
10
-38.875
20
-1.563158
30
0
210
0
220
0
230
1
1
\W0.6740;50
40
4.5
41
0
44
1.084337
50
90
71
7
72
5
7
iso_b_vert
0
LINE
5
237
100
AcDbEntity
8
SK2
62
256
6
ByLayer
370
13
48
1
60
0
100
AcDbLine
10
-2
20
-25
30
0
11
-39.75
21
-25
31
0
39
0
210
0
220
0
230
1
0
LINE
5
238
100
AcDbEntity
8
SK2
62
256
6
ByLayer
370
13
48
1
60
0
100
AcDbLine
10
-2
20
25
30
0
11
-39.75
21
25
31
0
39
0
210
0
220
0
230
1
0
LINE
5
239
100
AcDbEntity
8
SK2
62
256
6
ByLayer
370
13
48
1
60
0
100
AcDbLine
10
-37.75
20
-25
30
0
11
-37.75
21
25
31
0
39
0
210
0
220
0
230
1
0
LINE
5
23A
100
AcDbEntity
8
SK2
62
256
6
ByLayer
370
13
48
1
60
0
100
AcDbLine
10
-37.75
20
-25
30
0
11
-38.167997
21
-21.825002
31
0
39
0
210
0
220
0
230
1
0
LINE
5
23B
100
AcDbEntity
8
SK2
62
256
6
ByLayer
370
13
48
1
60
0
100
AcDbLine
10
-37.75
20
-25
30
0
11
-37.332003
21
-21.824998
31
0
39
0
210
0
220
0
230
1
0
LINE
5
23C
100
AcDbEntity
8
SK2
62
256
6
ByLayer
370
13
48
1
60
0
100
AcDbLine
10
-38.167997
20
-21.825002
30
0
11
-37.332003
21
-21.824998
31
0
39
0
210
0
220
0
230
1
0
LINE
5
23D
100
AcDbEntity
8
SK2
62
256
6
ByLayer
370
13
48
1
60
0
100
AcDbLine
10
-37.75
20
25
30
0
11
-37.332003
21
21.825002
31
0
39
0
210
0
220
0
230
1
0
LINE
5
23E
100
AcDbEntity
8
SK2
62
256
6
ByLayer
370
13
48
1
60
0
100
AcDbLine
10
-37.75
20
25
30
0
11
-38.167997
21
21.824998
31
0
39
0
210
0
220
0
230
1
0
LINE
5
23F
100
AcDbEntity
8
SK2
62
256
6
ByLayer
370
13
48
1
60
0
100
AcDbLine
10
-37.332003
20
21.825002
30
0
11
-38.167997
21
21.824998
31
0
39
0
210
0
220
0
230
1
0
ENDBLK
5
241
100
AcDbEntity
8
0
100
AcDbBlockEnd
0
BLOCK
5
24E
100
AcDbEntity
8
0
100
AcDbBlockBegin
2
DimnDraft3D6
70
0
10
0
20
0
30
0
3
DimnDraft3D6
0
MTEXT
5
244
100
AcDbEntity
8
2
62
256
6
ByLayer
370
18
48
1
60
0
100
AcDbMText
10
73.136213
20
-12.504087
30
0
210
0
220
0
230
1
1
\W0.7785;45%%d
40
4.5
41
0
44
1.084337
50
22.5
71
7
72
5
7
iso_b_vert
0
LINE
5
245
100
AcDbEntity
8
2
62
256
6
ByLayer
370
13
48
1
60
0
100
AcDbLine
10
60.322692
20
24.348526
30
0
11
60.322692
21
-17.550103
31
0
39
0
210
0
220
0
230
1
0
LINE
5
246
100
AcDbEntity
8
2
62
256
6
ByLayer
370
13
48
1
60
0
100
AcDbLine
10
62.065688
20
24.934312
30
0
11
91.596194
21
-4.596194
31
0
39
0
210
0
220
0
230
1
0
ARC
5
247
100
AcDbEntity
8
2
62
256
6
ByLayer
370
13
48
1
60
0
100
AcDbCircle
39
0
10
60.322692
20
26.677308
30
0
40
42.227410652791
210
0
220
0
230
1
100
AcDbArc
50
270
51
315
0
LINE
5
248
100
AcDbEntity
8
2
62
256
6
ByLayer
370
13
48
1
60
0
100
AcDbLine
10
60.322692
20
-15.550103
30
0
11
63.489277
21
-15.072531
31
0
39
0
210
0
220
0
230
1
0
LINE
5
249
100
AcDbEntity
8
2
62
256
6
ByLayer
370
13
48
1
60
0
100
AcDbLine
10
60.322692
20
-15.550103
30
0
11
63.504986
21
-15.908377
31
0
39
0
210
0
220
0
230
1
0
LINE
5
24A
100
AcDbEntity
8
2
62
256
6
ByLayer
370
13
48
1
60
0
100
AcDbLine
10
63.489277
20
-15.072531
30
0
11
63.504986
21
-15.908377
31
0
39
0
210
0
220
0
230
1
0
LINE
5
24B
100
AcDbEntity
8
2
62
256
6
ByLayer
370
13
48
1
60
0
100
AcDbLine
10
90.181981
20
-3.181981
30
0
11
88.185099
21
-5.685538
31
0
39
0
210
0
220
0
230
1
0
LINE
5
24C
100
AcDbEntity
8
2
62
256
6
ByLayer
370
13
48
1
60
0
100
AcDbLine
10
90.181981
20
-3.181981
30
0
11
87.60517
21
-5.083402
31
0
39
0
210
0
220
0
230
1
0
LINE
5
24D
100
AcDbEntity
8
2
62
256
6
ByLayer
370
13
48
1
60
0
100
AcDbLine
10
88.185099
20
-5.685538
30
0
11
87.60517
21
-5.083402
31
0
39
0
210
0
220
0
230
1
0
ENDBLK
5
24F
100
AcDbEntity
8
0
100
AcDbBlockEnd
0
ENDSEC
0
SECTION
2
ENTITIES
0
ARC
5
117
100
AcDbEntity
8
SK1
62
256
6
ByLayer
370
18
48
1
60
0
100
AcDbCircle
39
0
10
0.6
20
-18.75
30
0
40
1.00000000000001
210
0
220
0
230
-1
100
AcDbArc
50
113.578178
51
126.869898
0
ARC
5
118
100
AcDbEntity
8
SK1
62
256
6
ByLayer
370
18
48
1
60
0
100
AcDbCircle
39
0
10
0.6
20
18.75
30
0
40
1.00000000000001
210
0
220
0
230
-1
100
AcDbArc
50
233.130102
51
246.421822
0
ARC
5
119
100
AcDbEntity
8
1
62
256
6
ByLayer
370
18
48
1
60
0
100
AcDbCircle
39
0
10
32.2
20
-15.541196
30
0
40
10.2
210
0
220
0
230
1
100
AcDbArc
50
135
51
180
0
ELLIPSE
5
11A
100
AcDbEntity
8
1
62
256
6
ByLayer
370
18
48
1
60
0
100
AcDbEllipse
10
50.685483
20
18.624381
30
0
11
1.12253201513364
21
-1.12253201513363
31
0
210
0
220
0
230
1
40
0.990268
41
-0.977526261728185
42
-0.769493794793245
0
ELLIPSE
5
11B
100
AcDbEntity
8
1
62
256
6
ByLayer
370
18
48
1
60
0
100
AcDbEllipse
10
22.831158
20
-2.333577
30
0
11
1.29874617689627
21
-1.77574163886454
31
0
210
0
220
0
230
1
40
0.172777
41
1.92140998037208E-05
42
3.14152949885194
0
ELLIPSE
5
11C
100
AcDbEntity
8
1
62
256
6
ByLayer
370
18
48
1
60
0
100
AcDbEllipse
10
23.029912
20
-2.188212
30
0
11
-1.15116138406715
21
1.5739528162663
31
0
210
0
220
0
230
1
40
0.172777
41
-2.96523856980818
42
-0.176344972364377
0
ELLIPSE
5
11D
100
AcDbEntity
8
1
62
256
6
ByLayer
370
18
48
1
60
0
100
AcDbEllipse
10
31.826177
20
30.920065
30
0
11
1.95985733071547
21
-2.27133424295959
31
0
210
0
220
0
230
1
40
0.988257
41
-0.625434656542338
42
-0.25115740613415
0
ELLIPSE
5
11E
100
AcDbEntity
8
1
62
256
6
ByLayer
370
18
48
1
60
0
100
AcDbEllipse
10
36.735866
20
25.722472
30
0
11
2.71113597415641
21
-3.14201236942743
31
0
210
0
220
0
230
1
40
0.988257
41
2.51615799704746
42
2.86027306847415
0
ELLIPSE
5
11F
100
AcDbEntity
8
1
62
256
6
ByLayer
370
18
48
1
60
0
100
AcDbEllipse
10
38.763428
20
25.886788
30
0
11
2.71113597415641
21
-3.14201236942743
31
0
210
0
220
0
230
1
40
0.988257
41
-0.169069312201365
42
2.51615799704746
0
ELLIPSE
5
120
100
AcDbEntity
8
1
62
256
6
ByLayer
370
18
48
1
60
0
100
AcDbEllipse
10
30.072769
20
29.05226
30
0
11
-0.927402318147413
21
2.85970971936771
31
0
210
0
220
0
230
1
40
0.892529
41
-0.128972526796509
42
1.32362126116289
0
ELLIPSE
5
121
100
AcDbEntity
8
1
62
256
6
ByLayer
370
18
48
1
60
0
100
AcDbEllipse
10
37.899694
20
25.774069
30
0
11
2.8284271247462
21
-2.82842712474618
31
0
210
0
220
0
230
1
40
0.990268
41
3.14154338312959
42
-0.911012918973649
0
ELLIPSE
5
122
100
AcDbEntity
8
1
62
256
6
ByLayer
370
18
48
1
60
0
100
AcDbEllipse
10
37.899694
20
25.774069
30
0
11
2.8284271247462
21
-2.82842712474618
31
0
210
0
220
0
230
1
40
0.990268
41
-0.495144693117311
42
0
0
ELLIPSE
5
123
100
AcDbEntity
8
1
62
256
6
ByLayer
370
18
48
1
60
0
100
AcDbEllipse
10
51.716525
20
26.390614
30
0
11
-3.88908729652597
21
3.88908729652606
31
0
210
0
220
0
230
1
40
0.990268
41
-0.261799387799137
42
-0.124769193572798
0
ELLIPSE
5
124
100
AcDbEntity
8
1
62
256
6
ByLayer
370
18
48
1
60
0
100
AcDbEllipse
10
51.982233
20
26.656322
30
0
11
3.37752183087596
21
-3.37752183087593
31
0
210
0
220
0
230
1
40
0.990268
41
-1.24842025483351
42
-1.22799189686218
0
ELLIPSE
5
125
100
AcDbEntity
8
1
62
256
6
ByLayer
370
18
48
1
60
0
100
AcDbEllipse
10
51.982233
20
26.656322
30
0
11
3.37752183087596
21
-3.37752183087593
31
0
210
0
220
0
230
1
40
0.990268
41
2.97332114885654
42
2.98688582168118
0
ELLIPSE
5
126
100
AcDbEntity
8
1
62
256
6
ByLayer
370
18
48
1
60
0
100
AcDbEllipse
10
51.716525
20
26.390614
30
0
11
-3.88908729652597
21
3.88908729652606
31
0
210
0
220
0
230
1
40
0.990268
41
1.7691038877942
42
2.00712863979349
0
ELLIPSE
5
127
100
AcDbEntity
8
1
62
256
6
ByLayer
370
18
48
1
60
0
100
AcDbEllipse
10
36.759416
20
25.774635
30
0
11
-0.268700576850885
21
0.268700576850891
31
0
210
0
220
0
230
1
40
0.990268
41
-0.544806318595293
42
-0.429104837925038
0
ELLIPSE
5
128
100
AcDbEntity
8
1
62
256
6
ByLayer
370
18
48
1
60
0
100
AcDbEllipse
10
36.564731
20
26.553578
30
0
11
0.300520382004284
21
-0.300520382004281
31
0
210
0
220
0
230
1
40
0.990268
41
-0.544806318595295
42
8.87311465491111E-06
0
ELLIPSE
5
129
100
AcDbEntity
8
1
62
256
6
ByLayer
370
18
48
1
60
0
100
AcDbEllipse
10
38.724362
20
24.850864
30
0
11
-0.268700576850885
21
0.268700576850891
31
0
210
0
220
0
230
1
40
0.990268
41
-2.71250485419724
42
-1.89865463419671
0
ELLIPSE
5
12A
100
AcDbEntity
8
1
62
256
6
ByLayer
370
18
48
1
60
0
100
AcDbEllipse
10
37.281686
20
26.903936
30
0
11
-0.268700576850885
21
0.268700576850891
31
0
210
0
220
0
230
1
40
0.990268
41
-1.59200386979194
42
-0.429102886325646
0
ELLIPSE
5
12B
100
AcDbEntity
8
1
62
256
6
ByLayer
370
18
48
1
60
0
100
AcDbEllipse
10
39.441317
20
25.201222
30
0
11
0.300520382004284
21
-0.300520382004281
31
0
210
0
220
0
230
1
40
0.990268
41
-3.14158432898252
42
-1.89865463419674
0
ELLIPSE
5
12C
100
AcDbEntity
8
1
62
256
6
ByLayer
370
18
48
1
60
0
100
AcDbEllipse
10
37.857312
20
27.45542
30
0
11
0.300520382004284
21
-0.300520382004281
31
0
210
0
220
0
230
1
40
0.990268
41
-1.5920038697919
42
-1.69656586835885E-05
0
ELLIPSE
5
12D
100
AcDbEntity
8
1
62
256
6
ByLayer
370
18
48
1
60
0
100
AcDbEllipse
10
39.246633
20
25.980164
30
0
11
-0.268700576850885
21
0.268700576850891
31
0
210
0
220
0
230
1
40
0.990268
41
-2.71246349637747
42
-0.851457083000164
0
ELLIPSE
5
12E
100
AcDbEntity
8
1
62
256
6
ByLayer
370
18
48
1
60
0
100
AcDbEllipse
10
38.525295
20
27.006701
30
0
11
-0.268700576850885
21
0.268700576850891
31
0
210
0
220
0
230
1
40
0.990268
41
-2.63920142098851
42
-0.285446270348234
0
ELLIPSE
5
12F
100
AcDbEntity
8
1
62
256
6
ByLayer
370
18
48
1
60
0
100
AcDbEllipse
10
10
20
-14.427592
30
0
11
-1.99999999999999
21
2.02127811016472E-15
31
0
210
0
220
0
230
1
40
0.75471
41
0.16630821711733
42
1.57079660092105
0
ELLIPSE
5
130
100
AcDbEntity
8
1
62
256
6
ByLayer
370
18
48
1
60
0
100
AcDbEllipse
10
10
20
-14.427592
30
0
11
-1.99999999999999
21
2.02127811016472E-15
31
0
210
0
220
0
230
1
40
0.75471
41
1.57079610092105
42
2.97528449975551
0
ELLIPSE
5
131
100
AcDbEntity
8
1
62
256
6
ByLayer
370
18
48
1
60
0
100
AcDbEllipse
10
38.003024
20
25.8774
30
0
11
0.813172798364533
21
-0.813172798364526
31
0
210
0
220
0
230
1
40
0.990268
41
-1.42535029292114
42
-0.808812313095072
0
ELLIPSE
5
132
100
AcDbEntity
8
1
62
256
6
ByLayer
370
18
48
1
60
0
100
AcDbEllipse
10
38.003024
20
25.8774
30
0
11
0.813172798364533
21
-0.813172798364526
31
0
210
0
220
0
230
1
40
0.990268
41
-2.76681023345217
42
-2.13377950115858
0
ELLIPSE
5
133
100
AcDbEntity
8
1
62
256
6
ByLayer
370
18
48
1
60
0
100
AcDbEllipse
10
38.003024
20
25.8774
30
0
11
0.813172798364533
21
-0.813172798364526
31
0
210
0
220
0
230
1
40
0.990268
41
-0.259721692555339
42
0
0
ELLIPSE
5
134
100
AcDbEntity
8
1
62
256
6
ByLayer
370
18
48
1
60
0
100
AcDbEllipse
10
38.003024
20
25.8774
30
0
11
0.813172798364533
21
-0.813172798364526
31
0
210
0
220
0
230
1
40
0.990268
41
0
42
3.1415433670742
0
ELLIPSE
5
135
100
AcDbEntity
8
1
62
256
6
ByLayer
370
18
48
1
60
0
100
AcDbEllipse
10
37.919376
20
25.793751
30
0
11
0.813172798364533
21
-0.813172798364526
31
0
210
0
220
0
230
1
40
0.990268
41
0.0518855838184212
42
3.02923171448825
0
ELLIPSE
5
136
100
AcDbEntity
8
1
62
256
6
ByLayer
370
18
48
1
60
0
100
AcDbEllipse
10
51.913345
20
26.587435
30
0
11
1.73241161390705
21
-1.73241161390703
31
0
210
0
220
0
230
1
40
0.990268
41
-0.120116804792428
42
0
0
ELLIPSE
5
137
100
AcDbEntity
8
1
62
256
6
ByLayer
370
18
48
1
60
0
100
AcDbEllipse
10
51.913345
20
26.587435
30
0
11
1.73241161390705
21
-1.73241161390703
31
0
210
0
220
0
230
1
40
0.990268
41
0
42
-2.45324059160194
0
ELLIPSE
5
138
100
AcDbEntity
8
1
62
256
6
ByLayer
370
18
48
1
60
0
100
AcDbEllipse
10
51.913345
20
26.587435
30
0
11
1.73241161390705
21
-1.73241161390703
31
0
210
0
220
0
230
1
40
0.990268
41
-0.218586200841499
42
-0.120116804792422
0
ELLIPSE
5
139
100
AcDbEntity
8
1
62
256
6
ByLayer
370
18
48
1
60
0
100
AcDbEllipse
10
50.973383
20
17.789748
30
0
11
-0.561266007566816
21
0.561266007566829
31
0
210
0
220
0
230
1
40
0.990268
41
1.68919539560948
42
3.14159265358978
0
ELLIPSE
5
13A
100
AcDbEntity
8
1
62
256
6
ByLayer
370
18
48
1
60
0
100
AcDbEllipse
10
10
20
-14.427592
30
0
11
-1.65
21
1.6675544408859E-15
31
0
210
0
220
0
230
1
40
0.75471
41
-0.949644289434387
42
0
0
ELLIPSE
5
13B
100
AcDbEntity
8
1
62
256
6
ByLayer
370
18
48
1
60
0
100
AcDbEllipse
10
10
20
-14.427592
30
0
11
-1.65
21
1.6675544408859E-15
31
0
210
0
220
0
230
1
40
0.75471
41
0
42
1.57079640208615
0
ELLIPSE
5
13C
100
AcDbEntity
8
1
62
256
6
ByLayer
370
18
48
1
60
0
100
AcDbEllipse
10
10
20
-14.427592
30
0
11
-1.65
21
1.6675544408859E-15
31
0
210
0
220
0
230
1
40
0.75471
41
1.57079610092107
42
-2.19194852708097
0
ELLIPSE
5
13D
100
AcDbEntity
8
1
62
256
6
ByLayer
370
18
48
1
60
0
100
AcDbEllipse
10
21.415098
20
-20.927626
30
0
11
-0.566594114004862
21
39.0122205756808
31
0
210
0
220
0
230
1
40
0.101498
41
1.10016521887704
42
1.10382288729198
0
ELLIPSE
5
13E
100
AcDbEntity
8
1
62
256
6
ByLayer
370
18
48
1
60
0
100
AcDbEllipse
10
37.702177
20
24.969522
30
0
11
-0.268700576850885
21
0.268700576850891
31
0
210
0
220
0
230
1
40
0.990268
41
0.50239123260129
42
-2.94585218539333
0
ELLIPSE
5
13F
100
AcDbEntity
8
1
62
256
6
ByLayer
370
18
48
1
60
0
100
AcDbEllipse
10
38.139146
20
26.013522
30
0
11
-2.82842712474616
21
2.82842712474622
31
0
210
0
220
0
230
1
40
0.990268
41
0
42
6.28318530717959
0
ELLIPSE
5
140
100
AcDbEntity
8
1
62
256
6
ByLayer
370
18
48
1
60
0
100
AcDbEllipse
10
38.224447
20
26.098823
30
0
11
-1.62634559672904
21
1.62634559672908
31
0
210
0
220
0
230
1
40
0.990268
41
0
42
6.28318530717959
0
ELLIPSE
5
141
100
AcDbEntity
8
1
62
256
6
ByLayer
370
18
48
1
60
0
100
AcDbEllipse
10
36.931867
20
25.196981
30
0
11
0.300520382004284
21
-0.300520382004281
31
0
210
0
220
0
230
1
40
0.990268
41
0.502391232601273
42
1.22062768304704
0
ELLIPSE
5
142
100
AcDbEntity
8
1
62
256
6
ByLayer
370
18
48
1
60
0
100
AcDbEllipse
10
39.517028
20
27.000665
30
0
11
0.300520382004284
21
-0.300520382004281
31
0
210
0
220
0
230
1
40
0.990268
41
-2.63920142098848
42
-1.92096497054275
0
ELLIPSE
5
143
100
AcDbEntity
8
1
62
256
6
ByLayer
370
18
48
1
60
0
100
AcDbEllipse
10
39.468056
20
26.201587
30
0
11
-0.268700576850885
21
0.268700576850891
31
0
210
0
220
0
230
1
40
0.990268
41
2.59678633499453
42
-0.851457083000164
0
ELLIPSE
5
144
100
AcDbEntity
8
1
62
256
6
ByLayer
370
18
48
1
60
0
100
AcDbEllipse
10
39.517028
20
27.000665
30
0
11
0.300520382004284
21
-0.300520382004281
31
0
210
0
220
0
230
1
40
0.990268
41
-1.56969353344585
42
-0.851457083000139
0
ELLIPSE
5
145
100
AcDbEntity
8
1
62
256
6
ByLayer
370
18
48
1
60
0
100
AcDbEllipse
10
37.503109
20
27.125359
30
0
11
-0.268700576850885
21
0.268700576850891
31
0
210
0
220
0
230
1
40
0.990268
41
-1.59200386979194
42
1.24293801939312
0
ELLIPSE
5
146
100
AcDbEntity
8
1
62
256
6
ByLayer
370
18
48
1
60
0
100
AcDbEllipse
10
36.980839
20
25.996058
30
0
11
-0.268700576850885
21
0.268700576850891
31
0
210
0
220
0
230
1
40
0.990268
41
-0.544806318595327
42
2.29013557058965
0
ELLIPSE
5
147
100
AcDbEntity
8
1
62
256
6
ByLayer
370
18
48
1
60
0
100
AcDbEllipse
10
38.078735
20
27.676843
30
0
11
0.300520382004284
21
-0.300520382004281
31
0
210
0
220
0
230
1
40
0.990268
41
-1.59200386979192
42
-0.873767419346147
0
ELLIPSE
5
148
100
AcDbEntity
8
1
62
256
6
ByLayer
370
18
48
1
60
0
100
AcDbEllipse
10
38.224447
20
26.098823
30
0
11
0.830850467894197
21
-0.83085046789419
31
0
210
0
220
0
230
1
40
0.990268
41
-2.85577065488961
42
-2.72928295149221
0
ELLIPSE
5
149
100
AcDbEntity
8
1
62
256
6
ByLayer
370
18
48
1
60
0
100
AcDbEllipse
10
38.224447
20
26.098823
30
0
11
0.830850467894197
21
-0.83085046789419
31
0
210
0
220
0
230
1
40
0.990268
41
-1.80857310369302
42
-1.68208540029561
0
ELLIPSE
5
14A
100
AcDbEntity
8
1
62
256
6
ByLayer
370
18
48
1
60
0
100
AcDbEllipse
10
38.078735
20
27.676843
30
0
11
0.300520382004284
21
-0.300520382004281
31
0
210
0
220
0
230
1
40
0.990268
41
-0.522495982249264
42
0.19574046819648
0
ELLIPSE
5
14B
100
AcDbEntity
8
1
62
256
6
ByLayer
370
18
48
1
60
0
100
AcDbEllipse
10
38.224447
20
26.098823
30
0
11
0.830850467894197
21
-0.83085046789419
31
0
210
0
220
0
230
1
40
0.990268
41
2.38021710109338
42
2.50670480449078
0
ELLIPSE
5
14C
100
AcDbEntity
8
1
62
256
6
ByLayer
370
18
48
1
60
0
100
AcDbEllipse
10
38.746718
20
27.228124
30
0
11
-0.268700576850885
21
0.268700576850891
31
0
210
0
220
0
230
1
40
0.990268
41
-2.63920142098851
42
0.195740468196485
0
ELLIPSE
5
14D
100
AcDbEntity
8
1
62
256
6
ByLayer
370
18
48
1
60
0
100
AcDbEllipse
10
38.945785
20
25.072287
30
0
11
-0.268700576850885
21
0.268700576850891
31
0
210
0
220
0
230
1
40
0.990268
41
1.54958878379789
42
-1.89865463419672
0
ELLIPSE
5
14E
100
AcDbEntity
8
1
62
256
6
ByLayer
370
18
48
1
60
0
100
AcDbEllipse
10
39.66274
20
25.422645
30
0
11
0.300520382004284
21
-0.300520382004281
31
0
210
0
220
0
230
1
40
0.990268
41
2.59678633499448
42
-2.96816252173933
0
ELLIPSE
5
14F
100
AcDbEntity
8
1
62
256
6
ByLayer
370
18
48
1
60
0
100
AcDbEllipse
10
38.37016
20
24.520803
30
0
11
0.300520382004284
21
-0.300520382004281
31
0
210
0
220
0
230
1
40
0.990268
41
2.61909667134051
42
-2.94585218539333
0
ELLIPSE
5
150
100
AcDbEntity
8
1
62
256
6
ByLayer
370
18
48
1
60
0
100
AcDbEllipse
10
38.224447
20
26.098823
30
0
11
0.830850467894197
21
-0.83085046789419
31
0
210
0
220
0
230
1
40
0.990268
41
1.33301954989678
42
1.45950725329418
0
ELLIPSE
5
151
100
AcDbEntity
8
1
62
256
6
ByLayer
370
18
48
1
60
0
100
AcDbEllipse
10
39.295604
20
26.779242
30
0
11
0.300520382004284
21
-0.300520382004281
31
0
210
0
220
0
230
1
40
0.990268
41
-2.63920142098851
42
-0.851457083000139
0
ELLIPSE
5
152
100
AcDbEntity
8
1
62
256
6
ByLayer
370
18
48
1
60
0
100
AcDbEllipse
10
36.786154
20
26.775001
30
0
11
0.300520382004284
21
-0.300520382004281
31
0
210
0
220
0
230
1
40
0.990268
41
-0.544806318595287
42
0.173430131850413
0
ELLIPSE
5
153
100
AcDbEntity
8
1
62
256
6
ByLayer
370
18
48
1
60
0
100
AcDbEllipse
10
39.66274
20
25.422645
30
0
11
0.300520382004284
21
-0.300520382004281
31
0
210
0
220
0
230
1
40
0.990268
41
-2.61689108464251
42
-1.89865463419674
0
ELLIPSE
5
154
100
AcDbEntity
8
1
62
256
6
ByLayer
370
18
48
1
60
0
100
AcDbEllipse
10
38.224447
20
26.098823
30
0
11
0.830850467894197
21
-0.83085046789419
31
0
210
0
220
0
230
1
40
0.990268
41
-0.761375552496419
42
-0.634887849099025
0
ELLIPSE
5
155
100
AcDbEntity
8
1
62
256
6
ByLayer
370
18
48
1
60
0
100
AcDbEllipse
10
36.931867
20
25.196981
30
0
11
0.300520382004284
21
-0.300520382004281
31
0
210
0
220
0
230
1
40
0.990268
41
1.57189912014393
42
2.2901355705897
0
ELLIPSE
5
156
100
AcDbEntity
8
1
62
256
6
ByLayer
370
18
48
1
60
0
100
AcDbEllipse
10
38.37016
20
24.520803
30
0
11
0.300520382004284
21
-0.300520382004281
31
0
210
0
220
0
230
1
40
0.990268
41
1.54958878379787
42
2.26782523424363
0
ELLIPSE
5
157
100
AcDbEntity
8
1
62
256
6
ByLayer
370
18
48
1
60
0
100
AcDbEllipse
10
38.224447
20
26.098823
30
0
11
0.830850467894197
21
-0.83085046789419
31
0
210
0
220
0
230
1
40
0.990268
41
0.285821998700184
42
0.412309702097563
0
ELLIPSE
5
158
100
AcDbEntity
8
1
62
256
6
ByLayer
370
18
48
1
60
0
100
AcDbEllipse
10
36.786154
20
26.775001
30
0
11
0.300520382004284
21
-0.300520382004281
31
0
210
0
220
0
230
1
40
0.990268
41
0.524701568947326
42
1.24293801939307
0
ELLIPSE
5
159
100
AcDbEntity
8
1
62
256
6
ByLayer
370
18
48
1
60
0
100
AcDbEllipse
10
39.829156
20
22.29784
30
0
11
-8.93349008484586
21
-4.17340011170921
31
0
210
0
220
0
230
1
40
0.155819
41
-0.320839848665045
42
0.398361051280563
0
ELLIPSE
5
15A
100
AcDbEntity
8
1
62
256
6
ByLayer
370
18
48
1
60
0
100
AcDbEllipse
10
33.925664
20
27.879874
30
0
11
-4.97881916218304
21
-0.459738784832185
31
0
210
0
220
0
230
1
40
0.089459
41
-1.30994096619142
42
-0.86890986083513
0
ELLIPSE
5
15B
100
AcDbEntity
8
1
62
256
6
ByLayer
370
18
48
1
60
0
100
AcDbEllipse
10
30.83837
20
20.761051
30
0
11
-0.927402318146871
21
2.85970971936806
31
0
210
0
220
0
230
1
40
0.892529
41
1.32362126116312
42
2.89441758795795
0
ELLIPSE
5
15C
100
AcDbEntity
8
1
62
256
6
ByLayer
370
18
48
1
60
0
100
AcDbEllipse
10
49.755699
20
30.213732
30
0
11
-1.0310052023891
21
0.305175916436947
31
0
210
0
220
0
230
1
40
0.133742
41
-1.41020309569969
42
-0.886604320116085
0
ELLIPSE
5
15D
100
AcDbEntity
8
1
62
256
6
ByLayer
370
18
48
1
60
0
100
AcDbEllipse
10
53.153722
20
24.441078
30
0
11
-1.45137293247913
21
-7.52397529990783
31
0
210
0
220
0
230
1
40
0.578723
41
-1.09524961945701
42
-1.01551135127573
0
ELLIPSE
5
15E
100
AcDbEntity
8
1
62
256
6
ByLayer
370
18
48
1
60
0
100
AcDbEllipse
10
26.956279
20
17.408554
30
0
11
6.97034682705626
21
0.643634298765063
31
0
210
0
220
0
230
1
40
0.089459
41
-1.17773393699328
42
-0.770472553435591
0
ELLIPSE
5
15F
100
AcDbEntity
8
1
62
256
6
ByLayer
370
18
48
1
60
0
100
AcDbEllipse
10
34.003506
20
27.036868
30
0
11
-5.41653244099112
21
4.54504811346692
31
0
210
0
220
0
230
1
40
0.098043
41
-1.38603979093006
42
-0.921976262596757
0
ELLIPSE
5
160
100
AcDbEntity
8
1
62
256
6
ByLayer
370
18
48
1
60
0
100
AcDbEllipse
10
50.424874
20
22.966789
30
0
11
-0.948846714876246
21
-0.518309738878815
31
0
210
0
220
0
230
1
40
0.285329
41
0.817273520827718
42
1.34087229642721
0
ELLIPSE
5
161
100
AcDbEntity
8
1
62
256
6
ByLayer
370
18
48
1
60
0
100
AcDbEllipse
10
52.703357
20
29.318385
30
0
11
-4.7355149613078
21
2.60362365970437
31
0
210
0
220
0
230
1
40
0.5394
41
0.259699314163495
42
0.339437581648434
0
ELLIPSE
5
162
100
AcDbEntity
8
1
62
256
6
ByLayer
370
18
48
1
60
0
100
AcDbEllipse
10
34.401875
20
22.722663
30
0
11
-4.97881916218304
21
-0.459738784832185
31
0
210
0
220
0
230
1
40
0.089459
41
-1.30994096619142
42
-0.868909860835129
0
ELLIPSE
5
163
100
AcDbEntity
8
1
62
256
6
ByLayer
370
18
48
1
60
0
100
AcDbEllipse
10
34.324033
20
23.565668
30
0
11
-4.52332049673396
21
-5.39063869070846
31
0
210
0
220
0
230
1
40
0.00866
41
1.01206961877195
42
1.47613314689418
0
ELLIPSE
5
164
100
AcDbEntity
8
1
62
256
6
ByLayer
370
18
48
1
60
0
100
AcDbEllipse
10
29.325829
20
20.015952
30
0
11
-2.74087921657662
21
1.25285348457579
31
0
210
0
220
0
230
1
40
0.988892
41
1.73552436469059
42
1.74163447494594
0
ELLIPSE
5
165
100
AcDbEntity
8
1
62
256
6
ByLayer
370
18
48
1
60
0
100
AcDbEllipse
10
39.063554
20
30.589048
30
0
11
-9.44916306477624
21
1.28078877126965
31
0
210
0
220
0
230
1
40
0.101433
41
-0.430888556844719
42
0.288312343101344
0
ELLIPSE
5
166
100
AcDbEntity
8
1
62
256
6
ByLayer
370
18
48
1
60
0
100
AcDbEllipse
10
52.311079
20
26.439745
30
0
11
-3.18198051533943
21
3.1819805153395
31
0
210
0
220
0
230
1
40
0.990268
41
-1.6580627893946
42
-1.1344640137963
0
ELLIPSE
5
167
100
AcDbEntity
8
1
62
256
6
ByLayer
370
18
48
1
60
0
100
AcDbEllipse
10
52.645674
20
26.77434
30
0
11
-2.53778696600232
21
2.53778696600237
31
0
210
0
220
0
230
1
40
0.990268
41
2.87979326579065
42
2.97355776534862
0
ELLIPSE
5
168
100
AcDbEntity
8
1
62
256
6
ByLayer
370
18
48
1
60
0
100
AcDbEllipse
10
52.311079
20
26.439745
30
0
11
-3.18198051533943
21
3.1819805153395
31
0
210
0
220
0
230
1
40
0.990268
41
2.87979326579066
42
-2.87979326579063
0
ELLIPSE
5
169
100
AcDbEntity
8
1
62
256
6
ByLayer
370
18
48
1
60
0
100
AcDbEllipse
10
54.660947
20
26.183087
30
0
11
-1.08917214736769
21
2.42666868037843
31
0
210
0
220
0
230
1
40
0.572768
41
2.51456782309527
42
-2.74765992363709
0
ELLIPSE
5
16A
100
AcDbEntity
8
1
62
256
6
ByLayer
370
18
48
1
60
0
100
AcDbEllipse
10
54.46049
20
28.353968
30
0
11
-1.40819469433575
21
1.06491119977905
31
0
210
0
220
0
230
1
40
0.888799
41
-1.82210602805871
42
-0.801148467612458
0
ELLIPSE
5
16B
100
AcDbEntity
8
1
62
256
6
ByLayer
370
18
48
1
60
0
100
AcDbEllipse
10
52.645674
20
26.77434
30
0
11
-2.53778696600232
21
2.53778696600237
31
0
210
0
220
0
230
1
40
0.990268
41
-1.22822851335426
42
-1.1344640137963
0
ELLIPSE
5
16C
100
AcDbEntity
8
1
62
256
6
ByLayer
370
18
48
1
60
0
100
AcDbEllipse
10
52.05112
20
26.725209
30
0
11
2.37173880782503
21
-2.37173880782501
31
0
210
0
220
0
230
1
40
0.990268
41
-0.322885911618939
42
2.06821516361329
0
ELLIPSE
5
16D
100
AcDbEntity
8
1
62
256
6
ByLayer
370
18
48
1
60
0
100
AcDbEllipse
10
49.229829
20
28.77918
30
0
11
-7.54429230471137
21
2.7844842657224
31
0
210
0
220
0
230
1
40
0.767882
41
1.9411766982171
42
2.00474735747036
0
ELLIPSE
5
16E
100
AcDbEntity
8
1
62
256
6
ByLayer
370
18
48
1
60
0
100
AcDbEllipse
10
52.645674
20
26.77434
30
0
11
2.30693672462054
21
-2.30693672462052
31
0
210
0
220
0
230
1
40
0.990268
41
0.26179938779916
42
1.4835298641952
0
ELLIPSE
5
16F
100
AcDbEntity
8
1
62
256
6
ByLayer
370
18
48
1
60
0
100
AcDbEllipse
10
52.311079
20
26.439745
30
0
11
-3.18198051533943
21
3.1819805153395
31
0
210
0
220
0
230
1
40
0.990268
41
-2.87979326579063
42
-1.6580627893946
0
ELLIPSE
5
170
100
AcDbEntity
8
1
62
256
6
ByLayer
370
18
48
1
60
0
100
AcDbEllipse
10
49.849314
20
22.070366
30
0
11
-4.3675483529134
21
-8.4522303040825
31
0
210
0
220
0
230
1
40
0.721729
41
-2.49882998899397
42
-2.43525932805374
0
ELLIPSE
5
171
100
AcDbEntity
8
1
62
256
6
ByLayer
370
18
48
1
60
0
100
AcDbEllipse
10
-1.056258
20
0
30
0
11
-11.709272349727
21
-24.677186440937
31
0
210
0
220
0
230
1
40
0.341999
41
2.0597599531005
42
2.97437958168081
0
ELLIPSE
5
172
100
AcDbEntity
8
1
62
256
6
ByLayer
370
18
48
1
60
0
100
AcDbEllipse
10
10
20
-12.665093
30
0
11
-1.86732139085278
21
-2.63482006210088
31
0
210
0
220
0
230
1
40
0.271866
41
-0.69280105937829
42
-0.0397891263266423
0
ELLIPSE
5
173
100
AcDbEntity
8
1
62
256
6
ByLayer
370
18
48
1
60
0
100
AcDbEllipse
10
17.027378
20
-5.937942
30
0
11
-0.013038014576045
21
3.58311720866942
31
0
210
0
220
0
230
1
40
0.051391
41
1.32646088036048
42
2.89725720715632
0
ELLIPSE
5
174
100
AcDbEntity
8
1
62
256
6
ByLayer
370
18
48
1
60
0
100
AcDbEllipse
10
18.187217
20
0
30
0
11
2.9286333557907E-14
21
25.0000000000001
31
0
210
0
220
0
230
1
40
0.087489
41
0.353363115402329
42
2.78822953818746
0
ELLIPSE
5
175
100
AcDbEntity
8
1
62
256
6
ByLayer
370
18
48
1
60
0
100
AcDbEllipse
10
22.474225
20
56.38292
30
0
11
-4.33559112348322E-14
21
-40.4488758948751
31
0
210
0
220
0
230
1
40
0.09889
41
-0.26797751859841
42
-0.0985697832949696
0
ELLIPSE
5
176
100
AcDbEntity
8
1
62
256
6
ByLayer
370
18
48
1
60
0
100
AcDbEllipse
10
21.056258
20
0
30
0
11
-11.7092723497278
21
-24.6771864409381
31
0
210
0
220
0
230
1
40
0.341999
41
-1.08183270048926
42
-0.167213071908978
0
ELLIPSE
5
177
100
AcDbEntity
8
1
62
256
6
ByLayer
370
18
48
1
60
0
100
AcDbEllipse
10
28.631496
20
15.502492
30
0
11
-5.60999618791815
21
-0.408870916686212
31
0
210
0
220
0
230
1
40
0.70821
41
2.46559405748131
42
-3.12790644373402
0
ELLIPSE
5
178
100
AcDbEntity
8
1
62
256
6
ByLayer
370
18
48
1
60
0
100
AcDbEllipse
10
10
20
-14.658522
30
0
11
-1.99999999999996
21
4.68581336926501E-15
31
0
210
0
220
0
230
1
40
0.708833
41
-2.3900880320975
42
-0.751504621492297
0
ELLIPSE
5
179
100
AcDbEntity
8
1
62
256
6
ByLayer
370
18
48
1
60
0
100
AcDbEllipse
10
10
20
-14.658522
30
0
11
-2.00000000000007
21
4.68581336926527E-15
31
0
210
0
220
0
230
1
40
0.708833
41
0.751504621492353
42
2.39008803209745
0
ELLIPSE
5
17A
100
AcDbEntity
8
1
62
256
6
ByLayer
370
18
48
1
60
0
100
AcDbEllipse
10
17.285896
20
-7.169431
30
0
11
-0.0130380145759562
21
3.58311720867234
31
0
210
0
220
0
230
1
40
0.051391
41
2.89725720715618
42
-2.31384869016559
0
ELLIPSE
5
17B
100
AcDbEntity
8
1
62
256
6
ByLayer
370
18
48
1
60
0
100
AcDbEllipse
10
-1.056258
20
0
30
0
11
-11.7092723497277
21
24.677186440938
31
0
210
0
220
0
230
1
40
0.341999
41
-2.97437958168082
42
-2.05975995310053
0
ELLIPSE
5
17C
100
AcDbEntity
8
1
62
256
6
ByLayer
370
18
48
1
60
0
100
AcDbEllipse
10
49.725002
20
21.085948
30
0
11
-1.77017999009088
21
1.77017999009088
31
0
210
0
220
0
230
1
40
0.50533
41
1.5707963267949
42
1.9131268117667
0
ELLIPSE
5
17D
100
AcDbEntity
8
1
62
256
6
ByLayer
370
18
48
1
60
0
100
AcDbEllipse
10
21.056258
20
0
30
0
11
-11.7092723497275
21
24.6771864409378
31
0
210
0
220
0
230
1
40
0.341999
41
0.167213071908977
42
1.08183270048926
0
ELLIPSE
5
17E
100
AcDbEntity
8
1
62
256
6
ByLayer
370
18
48
1
60
0
100
AcDbEllipse
10
10
20
-12.665093
30
0
11
-1.86732139085312
21
2.63482006210127
31
0
210
0
220
0
230
1
40
0.271866
41
-3.10180352726319
42
-2.44879159421155
0
ELLIPSE
5
17F
100
AcDbEntity
8
1
62
256
6
ByLayer
370
18
48
1
60
0
100
AcDbEllipse
10
51.678289
20
34.210103
30
0
11
-0.561266007566816
21
0.561266007566829
31
0
210
0
220
0
230
1
40
0.990268
41
-1.57079632679489
42
9.03969380575665E-15
0
ELLIPSE
5
180
100
AcDbEntity
8
1
62
256
6
ByLayer
370
18
48
1
60
0
100
AcDbEllipse
10
59.536014
20
26.352379
30
0
11
-0.561266007566816
21
0.561266007566829
31
0
210
0
220
0
230
1
40
0.990268
41
-3.14159265358978
42
-1.57079632679489
0
ELLIPSE
5
181
100
AcDbEntity
8
1
62
256
6
ByLayer
370
18
48
1
60
0
100
AcDbEllipse
10
51.75476
20
18.571126
30
0
11
-0.561266007566816
21
0.561266007566829
31
0
210
0
220
0
230
1
40
0.990268
41
1.57079632679489
42
3.14159265358979
0
POINT
5
6C
100
AcDbEntity
8
2
62
256
6
ByLayer
370
18
48
1
60
0
100
AcDbPoint
10
52
20
35
30
0
39
0
210
0
220
0
230
1
50
360
0
POINT
5
6E
100
AcDbEntity
8
80
62
256
6
ByLayer
370
18
48
1
60
0
100
AcDbPoint
10
0
20
0
30
0
39
0
210
0
220
0
230
1
50
360
0
POINT
5
70
100
AcDbEntity
8
81
62
256
6
ByLayer
370
18
48
1
60
0
100
AcDbPoint
10
52
20
35
30
0
39
0
210
0
220
0
230
1
50
360
0
SPLINE
5
182
100
AcDbEntity
8
SK1
62
256
6
ByLayer
370
18
48
1
60
0
100
AcDbSpline
70
4
71
3
72
13
73
9
40
0
40
0
40
0
40
0
40
0.239456135733551
40
0.368359721896995
40
0.499998983985648
40
0.631638415256368
40
0.760542467762615
40
1
40
1
40
1
40
1
41
1
10
-2.20000000000002
20
-17.520098551796
30
0
41
1
10
-2.19909198642202
20
-17.4940410756898
30
0
41
1
10
-2.19103284106865
20
-17.4566684913666
30
0
41
1
10
-2.16563592203258
20
-17.4104493175479
30
0
41
1
10
-2.13886378679177
20
-17.3791677636994
30
0
41
1
10
-2.10627712749803
20
-17.3540003935063
30
0
41
1
10
-2.05884064234169
20
-17.3309565910454
30
0
41
1
10
-2.02111030873064
20
-17.3247843360228
30
0
41
1
10
-1.99503997793931
20
-17.3251859759625
30
0
0
SPLINE
5
183
100
AcDbEntity
8
SK1
62
256
6
ByLayer
370
18
48
1
60
0
100
AcDbSpline
70
4
71
3
72
13
73
9
40
0
40
0
40
0
40
0
40
0.2394575322828
40
0.368361584804615
40
0.500001016081333
40
0.631640278164845
40
0.760543864313148
40
1
40
1
40
1
40
1
41
1
10
-1.99503997793928
20
17.3251861589552
30
0
41
1
10
-2.02111030872962
20
17.324784519015
30
0
41
1
10
-2.05884064233982
20
17.3309567740351
30
0
41
1
10
-2.10627712749661
20
17.3540005764861
30
0
41
1
10
-2.13886378679044
20
17.3791679466684
30
0
41
1
10
-2.16563592203158
20
17.4104495005037
30
0
41
1
10
-2.19103284106788
20
17.4566686743027
30
0
41
1
10
-2.19909198642125
20
17.4940412586114
30
0
41
1
10
-2.19999999999999
20
17.5200987347078
30
0
0
SPLINE
5
184
100
AcDbEntity
8
SK1
62
256
6
ByLayer
370
18
48
1
60
0
100
AcDbSpline
70
4
71
2
72
6
73
3
40
0
40
0
40
0
40
1
40
1
40
1
41
1
10
-28.5
20
-16.8542724489282
30
0
41
1
10
-15.3499999999286
20
-17.1845422635703
30
0
41
1
10
-2.20000000000002
20
-17.5148116792767
30
0
0
SPLINE
5
185
100
AcDbEntity
8
SK1
62
256
6
ByLayer
370
18
48
1
60
0
100
AcDbSpline
70
4
71
2
72
6
73
3
40
0
40
0
40
0
40
1
40
1
40
1
41
1
10
-2.19999999999999
20
17.5148117187522
30
0
41
1
10
-15.3499999999294
20
17.1845422725478
30
0
41
1
10
-28.5
20
16.854272429841
30
0
0
SPLINE
5
186
100
AcDbEntity
8
SK1
62
256
6
ByLayer
370
18
48
1
60
0
100
AcDbSpline
70
4
71
2
72
6
73
3
40
0
40
0
40
0
40
1
40
1
40
1
41
1
10
-1.99503997793931
20
-17.3199593099743
30
0
41
1
10
-1.19500843340705
20
-17.340052552406
30
0
41
1
10
-0.394976888875306
20
-17.3601457933935
30
0
0
SPLINE
5
187
100
AcDbEntity
8
SK1
62
256
6
ByLayer
370
18
48
1
60
0
100
AcDbSpline
70
4
71
2
72
6
73
3
40
0
40
0
40
0
40
1
40
1
40
1
41
1
10
-0.394976888875277
20
17.3601458189993
30
0
41
1
10
-1.19500843340703
20
17.3400525762132
30
0
41
1
10
-1.99503997793928
20
17.3199593319919
30
0
0
SPLINE
5
188
100
AcDbEntity
8
SK1
62
256
6
ByLayer
370
18
48
1
60
0
100
AcDbSpline
70
4
71
2
72
6
73
3
40
0
40
0
40
0
40
1
40
1
40
1
41
1
10
-30
20
-15.9924794145163
30
0
41
1
10
-29.2499999991495
20
-16.4254650261933
30
0
41
1
10
-28.5
20
-16.8584504491481
30
0
0
SPLINE
5
189
100
AcDbEntity
8
SK1
62
256
6
ByLayer
370
18
48
1
60
0
100
AcDbSpline
70
4
71
2
72
6
73
3
40
0
40
0
40
0
40
1
40
1
40
1
41
1
10
-28.5
20
16.8584505716142
30
0
41
1
10
-29.2499999991495
20
16.4254651505507
30
0
41
1
10
-30
20
15.9924795407901
30
0
0
SPLINE
5
18A
100
AcDbEntity
8
SK1
62
256
6
ByLayer
370
18
48
1
60
0
100
AcDbSpline
70
4
71
2
72
6
73
3
40
0
40
0
40
0
40
1
40
1
40
1
41
1
10
-0.394976888875306
20
-17.359696795897
30
0
41
1
10
-0.305277226309755
20
-17.3671842624703
30
0
41
1
10
-0.258658740615687
20
-17.4310145299902
30
0
0
SPLINE
5
18B
100
AcDbEntity
8
SK1
62
256
6
ByLayer
370
18
48
1
60
0
100
AcDbSpline
70
4
71
2
72
6
73
3
40
0
40
0
40
0
40
1
40
1
40
1
41
1
10
-0.258442643302402
20
17.4312381196178
30
0
41
1
10
-0.305123774552584
20
17.3672404580573
30
0
41
1
10
-0.394976888875277
20
17.3596982935394
30
0
0
SPLINE
5
18C
100
AcDbEntity
8
1
62
256
6
ByLayer
370
18
48
1
60
0
100
AcDbSpline
70
4
71
3
72
12
73
8
40
0
40
0
40
0
40
0
40
0.266204607786935
40
0.266204607786935
40
0.710629091249996
40
0.710629091249996
40
1
40
1
40
1
40
1
41
1
10
26.2843802147937
20
30.1989971851914
30
0
41
1
10
26.3341412030363
20
30.2755297225312
30
0
41
1
10
26.3922943883868
20
30.3523800393217
30
0
41
1
10
26.5698053097199
20
30.5527553144219
30
0
41
1
10
26.7069362039653
20
30.6755041795756
30
0
41
1
10
26.9691277244914
20
30.8565130609623
30
0
41
1
10
27.0838118341151
20
30.9235946138782
30
0
41
1
10
27.2044481013625
20
30.9831569609153
30
0
0
SPLINE
5
18D
100
AcDbEntity
8
1
62
256
6
ByLayer
370
18
48
1
60
0
100
AcDbSpline
70
4
71
2
72
8
73
5
40
0
40
0
40
0
40
0.674030195203121
40
0.674030195203121
40
1
40
1
40
1
41
1
10
26.2035920591325
20
17.114508674222
30
0
41
1
10
26.6851065993471
20
17.1055928011787
30
0
41
1
10
27.1070934902247
20
17.3758387313084
30
0
41
1
10
27.3286790179987
20
17.5177450045863
30
0
41
1
10
27.5170200355633
20
17.7252998583946
30
0
0
SPLINE
5
18E
100
AcDbEntity
8
1
62
256
6
ByLayer
370
18
48
1
60
0
100
AcDbSpline
70
4
71
2
72
7
73
4
40
0
40
0
40
0
40
0.586431313494166
40
1
40
1
40
1
41
1
10
26.3736024876409
20
30.3173084031526
30
0
41
1
10
26.1545864289279
20
30.5284103011993
30
0
41
1
10
25.7467492107358
20
30.7859565005048
30
0
41
1
10
25.5768644327906
20
30.8570330519432
30
0
0
SPLINE
5
18F
100
AcDbEntity
8
SK1
62
256
6
ByLayer
370
18
48
1
60
0
100
AcDbSpline
70
4
71
3
72
12
73
8
40
0
40
0
40
0
40
0
40
0.0324391935591657
40
0.0324391935591657
40
0.817810355070879
40
0.817810355070879
40
1
40
1
40
1
40
1
41
1
10
-0.217277439313221
20
17.4836043588626
30
0
41
1
10
-0.21750972117681
20
17.48306881412
30
0
41
1
10
-0.217744863814744
20
17.4825318147638
30
0
41
1
10
-0.223753032740916
20
17.4689405317318
30
0
41
1
10
-0.231245471836814
20
17.4549872015732
30
0
41
1
10
-0.245076166280938
20
17.436263079892
30
0
41
1
10
-0.247766500863207
20
17.432675478957
30
0
41
1
10
-0.250734160279478
20
17.4289983664888
30
0
0
SPLINE
5
190
100
AcDbEntity
8
SK1
62
256
6
ByLayer
370
18
48
1
60
0
100
AcDbSpline
70
4
71
3
72
284
73
280
40
0
40
0
40
0
40
0
40
0.000114094115763
40
0.0036846052066288
40
0.0072551162974946
40
0.0108256273883604
40
0.0143961384792262
40
0.0179666495700921
40
0.0215371606609579
40
0.0251076717518237
40
0.0286781828426895
40
0.0322486939335553
40
0.0358192050244211
40
0.0429602272061527
40
0.0465307382970185
40
0.0501012493878843
40
0.0536717604787502
40
0.057242271569616
40
0.0643832937513476
40
0.0679538048422134
40
0.0715243159330792
40
0.0786653381148108
40
0.0822358492056766
40
0.0858063602965425
40
0.0929473824782741
40
0.0965178935691399
40
0.100088404660006
40
0.103658915750871
40
0.107229426841737
40
0.110799937932603
40
0.114370449023469
40
0.117940960114335
40
0.121511471205201
40
0.128652493386932
40
0.132223004477798
40
0.135793515568664
40
0.13936402665953
40
0.142934537750395
40
0.150075559932127
40
0.153646071022993
40
0.157216582113859
40
0.160787093204725
40
0.16435760429559
40
0.171498626477322
40
0.175069137568188
40
0.178639648659053
40
0.182210159749919
40
0.185780670840785
40
0.192921693022517
40
0.196492204113383
40
0.200062715204248
40
0.203633226295114
40
0.20720373738598
40
0.214344759567712
40
0.217915270658577
40
0.221485781749443
40
0.225056292840309
40
0.228626803931175
40
0.235767826112906
40
0.239338337203772
40
0.242908848294638
40
0.246479359385504
40
0.25004987047637
40
0.257190892658101
40
0.260761403748967
40
0.264331914839833
40
0.271472937021565
40
0.278613959203296
40
0.282184470294162
40
0.285754981385028
40
0.292896003566759
40
0.296466514657625
40
0.300037025748491
40
0.303607536839357
40
0.307178047930223
40
0.310748559021089
40
0.314319070111954
40
0.321460092293686
40
0.328601114475418
40
0.332171625566283
40
0.335742136657149
40
0.339312647748015
40
0.342883158838881
40
0.346453669929747
40
0.350024181020612
40
0.357165203202344
40
0.364306225384076
40
0.371447247565807
40
0.375017758656673
40
0.378588269747539
40
0.382158780838405
40
0.385729291929271
40
0.389299803020136
40
0.392870314111002
40
0.396440825201868
40
0.400011336292734
40
0.403581847383599
40
0.407152358474465
40
0.410722869565331
40
0.414293380656197
40
0.417863891747063
40
0.421434402837929
40
0.425004913928794
40
0.42857542501966
40
0.432145936110526
40
0.433931191655959
40
0.435716447201392
40
0.437501702746825
40
0.439286958292258
40
0.442857469383123
40
0.446427980473989
40
0.448213236019422
40
0.449998491564855
40
0.451783747110288
40
0.453569002655721
40
0.455354258201154
40
0.457139513746587
40
0.460710024837452
40
0.462495280382886
40
0.464280535928318
40
0.466065791473751
40
0.467851047019184
40
0.469636302564617
40
0.47142155811005
40
0.473206813655483
40
0.474992069200916
40
0.476777324746349
40
0.478562580291782
40
0.480347835837215
40
0.482133091382647
40
0.48391834692808
40
0.485703602473513
40
0.487488858018946
40
0.489274113564379
40
0.491059369109812
40
0.492844624655245
40
0.494629880200678
40
0.496415135746111
40
0.498200391291543
40
0.499985646836976
40
0.501770902382409
40
0.503556157927842
40
0.505341413473275
40
0.507126669018708
40
0.508911924564141
40
0.510697180109574
40
0.512482435655007
40
0.51426769120044
40
0.516052946745873
40
0.517838202291306
40
0.519623457836738
40
0.521408713382171
40
0.523193968927604
40
0.524979224473037
40
0.52676448001847
40
0.528549735563903
40
0.530334991109336
40
0.532120246654769
40
0.533905502200202
40
0.535690757745635
40
0.537476013291067
40
0.5392612688365
40
0.541046524381933
40
0.542831779927366
40
0.544617035472799
40
0.546402291018232
40
0.549972802109098
40
0.551758057654531
40
0.553543313199964
40
0.557113824290829
40
0.560684335381695
40
0.562469590927128
40
0.564254846472561
40
0.566040102017994
40
0.567825357563427
40
0.571395868654293
40
0.574966379745158
40
0.578536890836024
40
0.58210740192689
40
0.585677913017756
40
0.589248424108622
40
0.592818935199487
40
0.596389446290353
40
0.599959957381219
40
0.603530468472085
40
0.607100979562951
40
0.610671490653817
40
0.614242001744682
40
0.617812512835548
40
0.621383023926414
40
0.62495353501728
40
0.628524046108146
40
0.635665068289877
40
0.642806090471609
40
0.64994711265334
40
0.653517623744206
40
0.657088134835072
40
0.660658645925938
40
0.664229157016804
40
0.66779966810767
40
0.671370179198535
40
0.678511201380267
40
0.685652223561999
40
0.689222734652864
40
0.69279324574373
40
0.696363756834596
40
0.699934267925462
40
0.703504779016328
40
0.707075290107193
40
0.714216312288925
40
0.717786823379791
40
0.721357334470657
40
0.728498356652388
40
0.73563937883412
40
0.739209889924986
40
0.742780401015852
40
0.749921423197583
40
0.753491934288449
40
0.757062445379315
40
0.760632956470181
40
0.764203467561046
40
0.771344489742778
40
0.774915000833644
40
0.77848551192451
40
0.782056023015375
40
0.785626534106241
40
0.792767556287973
40
0.796338067378839
40
0.799908578469704
40
0.80347908956057
40
0.807049600651436
40
0.814190622833168
40
0.817761133924033
40
0.821331645014899
40
0.824902156105765
40
0.828472667196631
40
0.835613689378363
40
0.839184200469228
40
0.842754711560094
40
0.844539967105527
40
0.84632522265096
40
0.849895733741826
40
0.857036755923557
40
0.860607267014423
40
0.864177778105289
40
0.867748289196155
40
0.871318800287021
40
0.878459822468752
40
0.882030333559618
40
0.885600844650484
40
0.88917135574135
40
0.892741866832215
40
0.896312377923081
40
0.899882889013947
40
0.903453400104813
40
0.907023911195679
40
0.91416493337741
40
0.917735444468276
40
0.921305955559142
40
0.928446977740874
40
0.93201748883174
40
0.935587999922605
40
0.942729022104337
40
0.946299533195203
40
0.949870044286069
40
0.953440555376934
40
0.9570110664678
40
0.964152088649532
40
0.967722599740398
40
0.971293110831263
40
0.974863621922129
40
0.978434133012995
40
0.982004644103861
40
0.985575155194727
40
0.989145666285592
40
0.992716177376458
40
0.996286688467324
40
0.99985719955819
40
1
40
1
40
1
40
1
41
1
10
-1.99503997793928
20
17.3206502147681
30
0
41
1
10
-1.99503997793928
20
17.3205989753722
30
0
41
1
10
-1.99503997793928
20
17.3189303637555
30
0
41
1
10
-1.99503997793928
20
17.314763700365
30
0
41
1
10
-1.99503997793928
20
17.3061342577567
30
0
41
1
10
-1.99503997793928
20
17.295067771448
30
0
41
1
10
-1.99503997793928
20
17.2816041041457
30
0
41
1
10
-1.99503997793928
20
17.2657805776118
30
0
41
1
10
-1.99503997793928
20
17.2476335117891
30
0
41
1
10
-1.99503997793928
20
17.2271975457697
30
0
41
1
10
-1.99503997793928
20
17.2045053960087
30
0
41
1
10
-1.99503997793928
20
17.1795895960111
30
0
41
1
10
-1.99503997793928
20
17.143423992764
30
0
41
1
10
-1.99503997793928
20
17.1029924242497
30
0
41
1
10
-1.99503997793928
20
17.0582791326422
30
0
41
1
10
-1.99503997793928
20
17.0226787925821
30
0
41
1
10
-1.99503997793928
20
16.9850205529168
30
0
41
1
10
-1.99503997793928
20
16.9320728615657
30
0
41
1
10
-1.99503997793928
20
16.8751872660894
30
0
41
1
10
-1.99503997793928
20
16.8142877036056
30
0
41
1
10
-1.99503997793928
20
16.7507929832779
30
0
41
1
10
-1.99503997793928
20
16.6835453056651
30
0
41
1
10
-1.99503997793928
20
16.6124299551483
30
0
41
1
10
-1.99503997793928
20
16.5388242186582
30
0
41
1
10
-1.99503997793928
20
16.4616240004255
30
0
41
1
10
-1.99503997793928
20
16.3806869939664
30
0
41
1
10
-1.99503997793928
20
16.3182114219941
30
0
41
1
10
-1.99503997793928
20
16.2539521138773
30
0
41
1
10
-1.99503997793928
20
16.1879246249361
30
0
41
1
10
-1.99503997793928
20
16.1201424382026
30
0
41
1
10
-1.99503997793928
20
16.0506207732709
30
0
41
1
10
-1.99503997793928
20
15.979373490825
30
0
41
1
10
-1.99503997793928
20
15.8820499794418
30
0
41
1
10
-1.99503997793928
20
15.7814584486047
30
0
41
1
10
-1.99503997793928
20
15.677384958149
30
0
41
1
10
-1.99503997793928
20
15.5977008436634
30
0
41
1
10
-1.99503997793928
20
15.5163656256123
30
0
41
1
10
-1.99503997793928
20
15.4056838451686
30
0
41
1
10
-1.99503997793928
20
15.2918890118945
30
0
41
1
10
-1.99503997793928
20
15.1747311694574
30
0
41
1
10
-1.99503997793928
20
15.0853020659337
30
0
41
1
10
-1.99503997793928
20
14.9942846604514
30
0
41
1
10
-1.99503997793928
20
14.8707702235387
30
0
41
1
10
-1.99503997793928
20
14.7442755428493
30
0
41
1
10
-1.99503997793928
20
14.6145160455858
30
0
41
1
10
-1.99503997793928
20
14.5156939096276
30
0
41
1
10
-1.99503997793928
20
14.4153366771621
30
0
41
1
10
-1.99503997793928
20
14.2794333721973
30
0
41
1
10
-1.99503997793928
20
14.1406647198644
30
0
41
1
10
-1.99503997793928
20
13.9987118830366
30
0
41
1
10
-1.99503997793928
20
13.8907947247769
30
0
41
1
10
-1.99503997793928
20
13.7813876415877
30
0
41
1
10
-1.99503997793928
20
13.6334713769854
30
0
41
1
10
-1.99503997793928
20
13.482790135872
30
0
41
1
10
-1.99503997793928
20
13.328990109671
30
0
41
1
10
-1.99503997793928
20
13.2122307400427
30
0
41
1
10
-1.99503997793928
20
13.09401974916
30
0
41
1
10
-1.99503997793928
20
12.9344093145834
30
0
41
1
10
-1.99503997793928
20
12.7721223429484
30
0
41
1
10
-1.99503997793928
20
12.606768466692
30
0
41
1
10
-1.99503997793928
20
12.4813812679684
30
0
41
1
10
-1.99503997793928
20
12.3545748152048
30
0
41
1
10
-1.99503997793928
20
12.1835401119863
30
0
41
1
10
-1.99503997793928
20
12.0099077332894
30
0
41
1
10
-1.99503997793928
20
11.8332480165124
30
0
41
1
10
-1.99503997793928
20
11.6547268261542
30
0
41
1
10
-1.99503997793928
20
11.4282697000141
30
0
41
1
10
-1.99503997793928
20
11.1972001365959
30
0
41
1
10
-1.99503997793928
20
11.00944356136
30
0
41
1
10
-1.99503997793928
20
10.8198574498995
30
0
41
1
10
-1.99503997793928
20
10.627787937013
30
0
41
1
10
-1.99503997793928
20
10.4327334855784
30
0
41
1
10
-1.99503997793928
20
10.2851499168301
30
0
41
1
10
-1.99503997793928
20
10.13621047024
30
0
41
1
10
-1.99503997793928
20
9.98591879047714
30
0
41
1
10
-1.99503997793928
20
9.83427692622885
30
0
41
1
10
-1.99503997793928
20
9.63019833168175
30
0
41
1
10
-1.99503997793928
20
9.37195865327328
30
0
41
1
10
-1.99503997793928
20
9.1092571782612
30
0
41
1
10
-1.99503997793928
20
8.89624559944801
30
0
41
1
10
-1.99503997793928
20
8.73523611643316
30
0
41
1
10
-1.99503997793928
20
8.57289871794615
30
0
41
1
10
-1.99503997793928
20
8.40923673354897
30
0
41
1
10
-1.99503997793928
20
8.24425232954013
30
0
41
1
10
-1.99503997793928
20
8.0224014648056
30
0
41
1
10
-1.99503997793928
20
7.7420578132905
30
0
41
1
10
-1.99503997793928
20
7.40025290593451
30
0
41
1
10
-1.99503997793928
20
7.11118461088941
30
0
41
1
10
-1.99503997793928
20
6.87709665618266
30
0
41
1
10
-1.99503997793928
20
6.70033531356589
30
0
41
1
10
-1.99503997793928
20
6.52228078287746
30
0
41
1
10
-1.99503997793928
20
6.3429370741791
30
0
41
1
10
-1.99503997793928
20
6.16230788845579
30
0
41
1
10
-1.99503997793928
20
5.98039789106801
30
0
41
1
10
-1.99503997793928
20
5.79721186805691
30
0
41
1
10
-1.99503997793928
20
5.61275496243289
30
0
41
1
10
-1.99503997793928
20
5.42703270327695
30
0
41
1
10
-1.99503997793928
20
5.24005175731475
30
0
41
1
10
-1.99503997793928
20
5.05181945337139
30
0
41
1
10
-1.99503997793928
20
4.86234332329403
30
0
41
1
10
-1.99503997793928
20
4.67163207713236
30
0
41
1
10
-1.99503997793928
20
4.47969614999016
30
0
41
1
10
-1.99503997793928
20
4.28654656517494
30
0
41
1
10
-1.99503997793928
20
4.09219634432211
30
0
41
1
10
-1.99503997793928
20
3.92934661081907
30
0
41
1
10
-1.99503997793928
20
3.7982972967292
30
0
41
1
10
-1.99503997793928
20
3.69979994526253
30
0
41
1
10
-1.99503997793928
20
3.6010147061962
30
0
41
1
10
-1.99503997793928
20
3.46881385164499
30
0
41
1
10
-1.99503997793928
20
3.30310841087518
30
0
41
1
10
-1.99503997793928
20
3.13647579824178
30
0
41
1
10
-1.99503997793928
20
3.00241852965871
30
0
41
1
10
-1.99503997793928
20
2.90170218623106
30
0
41
1
10
-1.99503997793928
20
2.80072442890969
30
0
41
1
10
-1.99503997793928
20
2.69948931487846
30
0
41
1
10
-1.99503997793928
20
2.5980019734576
30
0
41
1
10
-1.99503997793928
20
2.46222694501739
30
0
41
1
10
-1.99503997793928
20
2.3263670801044
30
0
41
1
10
-1.99503997793928
20
2.18963187963746
30
0
41
1
10
-1.99503997793928
20
2.08696367451518
30
0
41
1
10
-1.99503997793928
20
1.98407765086858
30
0
41
1
10
-1.99503997793928
20
1.88098143773604
30
0
41
1
10
-1.99503997793928
20
1.777682765474
30
0
41
1
10
-1.99503997793928
20
1.67418894734925
30
0
41
1
10
-1.99503997793928
20
1.57050946303122
30
0
41
1
10
-1.99503997793928
20
1.46665209995737
30
0
41
1
10
-1.99503997793928
20
1.36262724011792
30
0
41
1
10
-1.99503997793928
20
1.2584437292094
30
0
41
1
10
-1.99503997793928
20
1.15411255471389
30
0
41
1
10
-1.99503997793928
20
1.04964378000579
30
0
41
1
10
-1.99503997793928
20
0.945048899580655
30
0
41
1
10
-1.99503997793928
20
0.840338961204225
30
0
41
1
10
-1.99503997793928
20
0.735526073032332
30
0
41
1
10
-1.99503997793928
20
0.630622105582688
30
0
41
1
10
-1.99503997793928
20
0.525639721157262
30
0
41
1
10
-1.99503997793928
20
0.420591350928731
30
0
41
1
10
-1.99503997793928
20
0.315490126623814
30
0
41
1
10
-1.99503997793928
20
0.210348939519463
30
0
41
1
10
-1.99503997793928
20
0.105181165306249
30
0
41
1
10
-1.99503997793928
20
-2.6093687E-09
30
0
41
1
10
-1.99503997793928
20
-0.10518117389941
30
0
41
1
10
-1.99503997793928
20
-0.21034895445402
30
0
41
1
10
-1.99503997793928
20
-0.315490140896515
30
0
41
1
10
-1.99503997793928
20
-0.420591355720489
30
0
41
1
10
-1.99503997793928
20
-0.525639723935797
30
0
41
1
10
-1.99503997793928
20
-0.630622120770198
30
0
41
1
10
-1.99503997793928
20
-0.735526093018507
30
0
41
1
10
-1.99503997793928
20
-0.840338966235578
30
0
41
1
10
-1.99503997793928
20
-0.945048896197648
30
0
41
1
10
-1.99503997793928
20
-1.04964379294299
30
0
41
1
10
-1.99503997793928
20
-1.15411258033262
30
0
41
1
10
-1.99503997793928
20
-1.25844373877695
30
0
41
1
10
-1.99503997793928
20
-1.36262723194542
30
0
41
1
10
-1.99503997793928
20
-1.46665210416356
30
0
41
1
10
-1.99503997793928
20
-1.57050948928742
30
0
41
1
10
-1.99503997793928
20
-1.67418896894682
30
0
41
1
10
-1.99503997793928
20
-1.77768276258209
30
0
41
1
10
-1.99503997793928
20
-1.88098142742643
30
0
41
1
10
-1.99503997793928
20
-1.98407766278629
30
0
41
1
10
-1.99503997793928
20
-2.08696370566375
30
0
41
1
10
-1.99503997793928
20
-2.18963189754737
30
0
41
1
10
-1.99503997793928
20
-2.29207637206397
30
0
41
1
10
-1.99503997793928
20
-2.39428973936722
30
0
41
1
10
-1.99503997793928
20
-2.4962670319988
30
0
41
1
10
-1.99503997793928
20
-2.59800197223714
30
0
41
1
10
-1.99503997793928
20
-2.73345090264118
30
0
41
1
10
-1.99503997793928
20
-2.86801083241156
30
0
41
1
10
-1.99503997793928
20
-3.00241855173454
30
0
41
1
10
-1.99503997793928
20
-3.13647582573117
30
0
41
1
10
-1.99503997793928
20
-3.30310842941955
30
0
41
1
10
-1.99503997793928
20
-3.46881383607317
30
0
41
1
10
-1.99503997793928
20
-3.60101470543907
30
0
41
1
10
-1.99503997793928
20
-3.69979996514493
30
0
41
1
10
-1.99503997793928
20
-3.79829732832764
30
0
41
1
10
-1.99503997793928
20
-3.92934662557204
30
0
41
1
10
-1.99503997793928
20
-4.09219631216948
30
0
41
1
10
-1.99503997793928
20
-4.28654650347451
30
0
41
1
10
-1.99503997793928
20
-4.47969611179559
30
0
41
1
10
-1.99503997793928
20
-4.67163198724225
30
0
41
1
10
-1.99503997793928
20
-4.86234315765492
30
0
41
1
10
-1.99503997793928
20
-5.05181944357969
30
0
41
1
10
-1.99503997793928
20
-5.24005183821342
30
0
41
1
10
-1.99503997793928
20
-5.42703263168386
30
0
41
1
10
-1.99503997793928
20
-5.61275497462711
30
0
41
1
10
-1.99503997793931
20
-5.79721217482029
30
0
41
1
10
-1.99503997793931
20
-5.98039819956611
30
0
41
1
10
-1.99503997793931
20
-6.16230794338162
30
0
41
1
10
-1.99503997793931
20
-6.34293700639154
30
0
41
1
10
-1.99503997793931
20
-6.52228076981257
30
0
41
1
10
-1.99503997793931
20
-6.70033533418754
30
0
41
1
10
-1.99503997793931
20
-6.87709665926303
30
0
41
1
10
-1.99503997793931
20
-7.11118459991687
30
0
41
1
10
-1.99503997793931
20
-7.40025292645402
30
0
41
1
10
-1.99503997793931
20
-7.74205781809903
30
0
41
1
10
-1.99503997793931
20
-8.02240145976876
30
0
41
1
10
-1.99503997793931
20
-8.24425235284596
30
0
41
1
10
-1.99503997793931
20
-8.40923674956807
30
0
41
1
10
-1.99503997793931
20
-8.57289871422526
30
0
41
1
10
-1.99503997793931
20
-8.73523610803539
30
0
41
1
10
-1.99503997793931
20
-8.89624560664996
30
0
41
1
10
-1.99503997793931
20
-9.10925720032841
30
0
41
1
10
-1.99503997793931
20
-9.37195865915049
30
0
41
1
10
-1.99503997793931
20
-9.6301983246166
30
0
41
1
10
-1.99503997793931
20
-9.83427694277646
30
0
41
1
10
-1.99503997793931
20
-9.98591881051331
30
0
41
1
10
-1.99503997793931
20
-10.1362104789651
30
0
41
1
10
-1.99503997793931
20
-10.2851499142426
30
0
41
1
10
-1.99503997793931
20
-10.432733482583
30
0
41
1
10
-1.99503997793931
20
-10.6277879483349
30
0
41
1
10
-1.99503997793931
20
-10.8198574709635
30
0
41
1
10
-1.99503997793931
20
-11.0094435667743
30
0
41
1
10
-1.99503997793931
20
-11.1972001338813
30
0
41
1
10
-1.99503997793931
20
-11.4282697094187
30
0
41
1
10
-1.99503997793931
20
-11.6547268446385
30
0
41
1
10
-1.99503997793931
20
-11.8332480225582
30
0
41
1
10
-1.99503997793931
20
-12.0099077334538
30
0
41
1
10
-1.99503997793931
20
-12.1835401209566
30
0
41
1
10
-1.99503997793931
20
-12.3545748313203
30
0
41
1
10
-1.99503997793931
20
-12.4813812819682
30
0
41
1
10
-1.99503997793931
20
-12.6067684751262
30
0
41
1
10
-1.99503997793931
20
-12.7721223466594
30
0
41
1
10
-1.99503997793931
20
-12.9344093235711
30
0
41
1
10
-1.99503997793931
20
-13.0940197637218
30
0
41
1
10
-1.99503997793931
20
-13.2122307543484
30
0
41
1
10
-1.99503997793931
20
-13.3289901210133
30
0
41
1
10
-1.99503997793931
20
-13.4827901435456
30
0
41
1
10
-1.99503997793931
20
-13.6334713858817
30
0
41
1
10
-1.99503997793931
20
-13.7813876543746
30
0
41
1
10
-1.99503997793931
20
-13.8907947392413
30
0
41
1
10
-1.99503997793931
20
-13.99871189727
30
0
41
1
10
-1.99503997793931
20
-14.1406647319193
30
0
41
1
10
-1.99503997793931
20
-14.2794333813788
30
0
41
1
10
-1.99503997793931
20
-14.4153366880849
30
0
41
1
10
-1.99503997793931
20
-14.5156939237825
30
0
41
1
10
-1.99503997793931
20
-14.614516060936
30
0
41
1
10
-1.99503997793931
20
-14.7442755571137
30
0
41
1
10
-1.99503997793931
20
-14.8707702595594
30
0
41
1
10
-1.99503997793931
20
-14.9942845913974
30
0
41
1
10
-1.99503997793931
20
-15.070107125687
30
0
41
1
10
-1.99503997793931
20
-15.130016414734
30
0
41
1
10
-1.99503997793931
20
-15.1893946011099
30
0
41
1
10
-1.99503997793931
20
-15.2918890331241
30
0
41
1
10
-1.99503997793931
20
-15.4056838559475
30
0
41
1
10
-1.99503997793931
20
-15.5163656330196
30
0
41
1
10
-1.99503997793931
20
-15.5977008570348
30
0
41
1
10
-1.99503997793931
20
-15.677384979663
30
0
41
1
10
-1.99503997793931
20
-15.781458474053
30
0
41
1
10
-1.99503997793931
20
-15.8820499896637
30
0
41
1
10
-1.99503997793931
20
-15.9793734967038
30
0
41
1
10
-1.99503997793931
20
-16.0506207879892
30
0
41
1
10
-1.99503997793931
20
-16.1201424632647
30
0
41
1
10
-1.99503997793931
20
-16.1879246525291
30
0
41
1
10
-1.99503997793931
20
-16.2539521307207
30
0
41
1
10
-1.99503997793931
20
-16.3182114280861
30
0
41
1
10
-1.99503997793931
20
-16.3806869997558
30
0
41
1
10
-1.99503997793931
20
-16.4616240235723
30
0
41
1
10
-1.99503997793931
20
-16.5388242523809
30
0
41
1
10
-1.99503997793931
20
-16.6124299668847
30
0
41
1
10
-1.99503997793931
20
-16.6835453043615
30
0
41
1
10
-1.99503997793931
20
-16.7507930080793
30
0
41
1
10
-1.99503997793931
20
-16.8142877377232
30
0
41
1
10
-1.99503997793931
20
-16.8751872797734
30
0
41
1
10
-1.99503997793931
20
-16.9320728583858
30
0
41
1
10
-1.99503997793931
20
-16.9850205784631
30
0
41
1
10
-1.99503997793931
20
-17.0226788299273
30
0
41
1
10
-1.99503997793931
20
-17.0582791544304
30
0
41
1
10
-1.99503997793931
20
-17.1029924178939
30
0
41
1
10
-1.99503997793931
20
-17.1434240170936
30
0
41
1
10
-1.99503997793931
20
-17.1795896288677
30
0
41
1
10
-1.99503997793931
20
-17.204505416066
30
0
41
1
10
-1.99503997793931
20
-17.2271975480507
30
0
41
1
10
-1.99503997793931
20
-17.2476335178127
30
0
41
1
10
-1.99503997793931
20
-17.2657806121613
30
0
41
1
10
-1.99503997793931
20
-17.2816041393821
30
0
41
1
10
-1.99503997793931
20
-17.2950677779805
30
0
41
1
10
-1.99503997793931
20
-17.3061342543252
30
0
41
1
10
-1.99503997793931
20
-17.3147637210185
30
0
41
1
10
-1.99503997793934
20
-17.3189468518955
30
0
41
1
10
-1.99503997793928
20
-17.3206249208822
30
0
41
1
10
-1.99503997793931
20
-17.3206887806718
30
0
0
SPLINE
5
191
100
AcDbEntity
8
SK1
62
256
6
ByLayer
370
18
48
1
60
0
100
AcDbSpline
70
4
71
3
72
282
73
278
40
0
40
0
40
0
40
0
40
0.0031454829659885
40
0.0067198722051369
40
0.0102942614442853
40
0.0138686506834337
40
0.0174430399225821
40
0.0210174291617305
40
0.0245918184008788
40
0.0281662076400272
40
0.0317405968791756
40
0.035314986118324
40
0.0424637645966208
40
0.0460381538357692
40
0.0496125430749175
40
0.0531869323140659
40
0.0567613215532143
40
0.0639101000315111
40
0.0674844892706595
40
0.0710588785098078
40
0.0782076569881046
40
0.081782046227253
40
0.0853564354664014
40
0.0925052139446982
40
0.0960796031838465
40
0.0996539924229949
40
0.103228381662143
40
0.106802770901292
40
0.11037716014044
40
0.113951549379588
40
0.117525938618737
40
0.121100327857885
40
0.128249106336182
40
0.13182349557533
40
0.135397884814479
40
0.138972274053627
40
0.142546663292775
40
0.149695441771072
40
0.153269831010221
40
0.156844220249369
40
0.160418609488517
40
0.163992998727666
40
0.171141777205963
40
0.174716166445111
40
0.178290555684259
40
0.181864944923408
40
0.185439334162556
40
0.192588112640853
40
0.196162501880001
40
0.19973689111915
40
0.203311280358298
40
0.206885669597447
40
0.214034448075743
40
0.217608837314892
40
0.22118322655404
40
0.224757615793188
40
0.228332005032337
40
0.235480783510634
40
0.239055172749782
40
0.24262956198893
40
0.246203951228079
40
0.249778340467227
40
0.256927118945524
40
0.260501508184672
40
0.264075897423821
40
0.271224675902117
40
0.278373454380414
40
0.281947843619562
40
0.285522232858711
40
0.292671011337008
40
0.296245400576156
40
0.299819789815304
40
0.303394179054453
40
0.306968568293601
40
0.31054295753275
40
0.314117346771898
40
0.321266125250195
40
0.328414903728492
40
0.33198929296764
40
0.335563682206788
40
0.339138071445937
40
0.342712460685085
40
0.346286849924233
40
0.349861239163382
40
0.357010017641679
40
0.364158796119975
40
0.371307574598272
40
0.374881963837421
40
0.378456353076569
40
0.382030742315717
40
0.385605131554866
40
0.389179520794014
40
0.392753910033163
40
0.396328299272311
40
0.399902688511459
40
0.403477077750608
40
0.407051466989756
40
0.410625856228905
40
0.414200245468053
40
0.417774634707201
40
0.42134902394635
40
0.424923413185498
40
0.428497802424646
40
0.432072191663795
40
0.433859386283369
40
0.435646580902943
40
0.437433775522517
40
0.439220970142091
40
0.44279535938124
40
0.446369748620388
40
0.448156943239963
40
0.449944137859537
40
0.451731332479111
40
0.453518527098685
40
0.455305721718259
40
0.457092916337833
40
0.460667305576982
40
0.462454500196556
40
0.46424169481613
40
0.466028889435704
40
0.467816084055279
40
0.469603278674853
40
0.471390473294427
40
0.473177667914001
40
0.474964862533575
40
0.47675205715315
40
0.478539251772724
40
0.480326446392298
40
0.482113641011872
40
0.483900835631446
40
0.48568803025102
40
0.487475224870595
40
0.489262419490169
40
0.491049614109743
40
0.492836808729317
40
0.494624003348892
40
0.496411197968466
40
0.49819839258804
40
0.499985587207614
40
0.501772781827188
40
0.503559976446762
40
0.505347171066337
40
0.507134365685911
40
0.508921560305485
40
0.510708754925059
40
0.512495949544633
40
0.514283144164208
40
0.516070338783782
40
0.517857533403356
40
0.51964472802293
40
0.521431922642504
40
0.523219117262079
40
0.525006311881653
40
0.526793506501227
40
0.528580701120801
40
0.530367895740375
40
0.532155090359949
40
0.533942284979524
40
0.535729479599098
40
0.537516674218672
40
0.539303868838246
40
0.541091063457821
40
0.542878258077395
40
0.544665452696969
40
0.546452647316543
40
0.550027036555691
40
0.551814231175266
40
0.55360142579484
40
0.557175815033988
40
0.560750204273137
40
0.562537398892711
40
0.564324593512285
40
0.566111788131859
40
0.567898982751433
40
0.571473371990582
40
0.57504776122973
40
0.578622150468879
40
0.582196539708027
40
0.585770928947175
40
0.589345318186324
40
0.592919707425472
40
0.59649409666462
40
0.600068485903769
40
0.603642875142917
40
0.607217264382066
40
0.610791653621214
40
0.614366042860362
40
0.617940432099511
40
0.621514821338659
40
0.625089210577808
40
0.628663599816956
40
0.635812378295253
40
0.642961156773549
40
0.650109935251846
40
0.653684324490995
40
0.657258713730143
40
0.660833102969291
40
0.66440749220844
40
0.667981881447588
40
0.671556270686737
40
0.678705049165033
40
0.68585382764333
40
0.689428216882478
40
0.693002606121627
40
0.696576995360775
40
0.700151384599924
40
0.703725773839072
40
0.70730016307822
40
0.714448941556517
40
0.718023330795666
40
0.721597720034814
40
0.728746498513111
40
0.735895276991407
40
0.739469666230556
40
0.743044055469704
40
0.750192833948001
40
0.75376722318715
40
0.757341612426298
40
0.760916001665446
40
0.764490390904595
40
0.771639169382891
40
0.77521355862204
40
0.778787947861188
40
0.782362337100337
40
0.785936726339485
40
0.793085504817782
40
0.79665989405693
40
0.800234283296078
40
0.803808672535227
40
0.807383061774375
40
0.814531840252672
40
0.81810622949182
40
0.821680618730969
40
0.825255007970117
40
0.828829397209265
40
0.835978175687562
40
0.839552564926711
40
0.843126954165859
40
0.844914148785433
40
0.846701343405007
40
0.850275732644156
40
0.857424511122453
40
0.860998900361601
40
0.864573289600749
40
0.868147678839898
40
0.871722068079046
40
0.878870846557343
40
0.882445235796491
40
0.88601962503564
40
0.889594014274788
40
0.893168403513936
40
0.896742792753085
40
0.900317181992233
40
0.903891571231382
40
0.90746596047053
40
0.914614738948827
40
0.918189128187975
40
0.921763517427124
40
0.92891229590542
40
0.932486685144569
40
0.936061074383717
40
0.943209852862014
40
0.946784242101162
40
0.950358631340311
40
0.953933020579459
40
0.957507409818607
40
0.964656188296904
40
0.968230577536052
40
0.971804966775201
40
0.975379356014349
40
0.978953745253498
40
0.982528134492646
40
0.986102523731794
40
0.989676912970943
40
0.993251302210091
40
0.99682569144924
40
1
40
1
40
1
40
1
41
1
10
-2.19999999999999
20
17.5147448812643
30
0
41
1
10
-2.19999999999999
20
17.5132050152347
30
0
41
1
10
-2.19999999999999
20
17.5092143178759
30
0
41
1
10
-2.19999999999999
20
17.5008423359265
30
0
41
1
10
-2.19999999999999
20
17.4896606050755
30
0
41
1
10
-2.19999999999999
20
17.4760589345483
30
0
41
1
10
-2.19999999999999
20
17.4600756660117
30
0
41
1
10
-2.19999999999999
20
17.4417480829298
30
0
41
1
10
-2.19999999999999
20
17.4211116708093
30
0
41
1
10
-2.19999999999999
20
17.3981999720817
30
0
41
1
10
-2.19999999999999
20
17.373046254225
30
0
41
1
10
-2.19999999999999
20
17.3365615480365
30
0
41
1
10
-2.19999999999999
20
17.2957083393221
30
0
41
1
10
-2.19999999999999
20
17.2506132986913
30
0
41
1
10
-2.19999999999999
20
17.2146924230801
30
0
41
1
10
-2.19999999999999
20
17.1766986759847
30
0
41
1
10
-2.19999999999999
20
17.1233138560685
30
0
41
1
10
-2.19999999999999
20
17.0658713749173
30
0
41
1
10
-2.19999999999999
20
17.0044820563696
30
0
41
1
10
-2.19999999999999
20
16.9404819965209
30
0
41
1
10
-2.19999999999999
20
16.8725984751516
30
0
41
1
10
-2.19999999999999
20
16.8009296734765
30
0
41
1
10
-2.19999999999999
20
16.72675615712
30
0
41
1
10
-2.19999999999999
20
16.6488472996884
30
0
41
1
10
-2.19999999999999
20
16.5672977573629
30
0
41
1
10
-2.19999999999999
20
16.5043209819811
30
0
41
1
10
-2.19999999999999
20
16.4395493732765
30
0
41
1
10
-2.19999999999999
20
16.3729983406747
30
0
41
1
10
-2.19999999999999
20
16.3046816133433
30
0
41
1
10
-2.19999999999999
20
16.2346146587631
30
0
41
1
10
-2.19999999999999
20
16.1628111167189
30
0
41
1
10
-2.19999999999999
20
16.0647793469533
30
0
41
1
10
-2.19999999999999
20
15.9633134995801
30
0
41
1
10
-2.19999999999999
20
15.8584913887799
30
0
41
1
10
-2.19999999999999
20
15.7781982427732
30
0
41
1
10
-2.19999999999999
20
15.6962433497342
30
0
41
1
10
-2.19999999999999
20
15.5847743861311
30
0
41
1
10
-2.19999999999999
20
15.4700110710185
30
0
41
1
10
-2.19999999999999
20
15.3520264687641
30
0
41
1
10
-2.19999999999999
20
15.2619258251736
30
0
41
1
10
-2.19999999999999
20
15.1702262286607
30
0
41
1
10
-2.19999999999999
20
15.0458463802595
30
0
41
1
10
-2.19999999999999
20
14.9182892137509
30
0
41
1
10
-2.19999999999999
20
14.7876243835494
30
0
41
1
10
-2.19999999999999
20
14.6880675684927
30
0
41
1
10
-2.19999999999999
20
14.5869647024964
30
0
41
1
10
-2.19999999999999
20
14.4501162009323
30
0
41
1
10
-2.19999999999999
20
14.310188578504
30
0
41
1
10
-2.19999999999999
20
14.1672492498436
30
0
41
1
10
-2.19999999999999
20
14.0585319196999
30
0
41
1
10
-2.19999999999999
20
13.9483131149779
30
0
41
1
10
-2.19999999999999
20
13.7993681823229
30
0
41
1
10
-2.19999999999999
20
13.6474264445925
30
0
41
1
10
-2.19999999999999
20
13.4925540283558
30
0
41
1
10
-2.19999999999999
20
13.3749248852381
30
0
41
1
10
-2.19999999999999
20
13.2558316845062
30
0
41
1
10
-2.19999999999999
20
13.0951031858018
30
0
41
1
10
-2.19999999999999
20
12.9314463879873
30
0
41
1
10
-2.19999999999999
20
12.7649271524075
30
0
41
1
10
-2.19999999999999
20
12.6385945304865
30
0
41
1
10
-2.19999999999999
20
12.510828990928
30
0
41
1
10
-2.19999999999999
20
12.3385783725546
30
0
41
1
10
-2.19999999999999
20
12.1634558634281
30
0
41
1
10
-2.19999999999999
20
11.9855279960913
30
0
41
1
10
-2.19999999999999
20
11.8057193844339
30
0
41
1
10
-2.19999999999999
20
11.5774197426994
30
0
41
1
10
-2.19999999999999
20
11.3444552561941
30
0
41
1
10
-2.19999999999999
20
11.1553144466797
30
0
41
1
10
-2.19999999999999
20
10.96432157968
30
0
41
1
10
-2.19999999999999
20
10.7705258372791
30
0
41
1
10
-2.19999999999999
20
10.5740001677826
30
0
41
1
10
-2.19999999999999
20
10.4252200954492
30
0
41
1
10
-2.19999999999999
20
10.2750653600417
30
0
41
1
10
-2.19999999999999
20
10.1235384488298
30
0
41
1
10
-2.19999999999999
20
9.9706412292081
30
0
41
1
10
-2.19999999999999
20
9.76496631801302
30
0
41
1
10
-2.19999999999999
20
9.50443392738597
30
0
41
1
10
-2.19999999999999
20
9.23936570098886
30
0
41
1
10
-2.19999999999999
20
9.02461799380217
30
0
41
1
10
-2.19999999999999
20
8.86219304475887
30
0
41
1
10
-2.19999999999999
20
8.69841428000512
30
0
41
1
10
-2.19999999999999
20
8.53328405958746
30
0
41
1
10
-2.19999999999999
20
8.36680339868337
30
0
41
1
10
-2.19999999999999
20
8.14304412571011
30
0
41
1
10
-2.19999999999999
20
7.85994707617317
30
0
41
1
10
-2.19999999999999
20
7.51487111531026
30
0
41
1
10
-2.19999999999999
20
7.22282329277962
30
0
41
1
10
-2.19999999999999
20
6.98653548716825
30
0
41
1
10
-2.19999999999999
20
6.80797157864473
30
0
41
1
10
-2.19999999999999
20
6.62807270531454
30
0
41
1
10
-2.19999999999999
20
6.44684086969582
30
0
41
1
10
-2.19999999999999
20
6.26427776637016
30
0
41
1
10
-2.19999999999999
20
6.0803858592752
30
0
41
1
10
-2.19999999999999
20
5.89516728223867
30
0
41
1
10
-2.19999999999999
20
5.70862469092603
30
0
41
1
10
-2.19999999999999
20
5.52076103085633
30
0
41
1
10
-2.19999999999999
20
5.33157993388585
30
0
41
1
10
-2.19999999999999
20
5.14108511996025
30
0
41
1
10
-2.19999999999999
20
4.94928086714648
30
0
41
1
10
-2.19999999999999
20
4.75617251627347
30
0
41
1
10
-2.19999999999999
20
4.56176620564526
30
0
41
1
10
-2.19999999999999
20
4.36606873641344
30
0
41
1
10
-2.19999999999999
20
4.16908849962462
30
0
41
1
10
-2.19999999999999
20
4.00386590607064
30
0
41
1
10
-2.19999999999999
20
3.87107810854147
30
0
41
1
10
-2.19999999999999
20
3.7711641857039
30
0
41
1
10
-2.19999999999999
20
3.67093805129474
30
0
41
1
10
-2.19999999999999
20
3.5369018254882
30
0
41
1
10
-2.19999999999999
20
3.36855658184021
30
0
41
1
10
-2.19999999999999
20
3.19919951970698
30
0
41
1
10
-2.19999999999999
20
3.06314133422208
30
0
41
1
10
-2.19999999999999
20
2.96079189341756
30
0
41
1
10
-2.19999999999999
20
2.85815023786418
30
0
41
1
10
-2.19999999999999
20
2.75522026664271
30
0
41
1
10
-2.19999999999999
20
2.65200561172494
30
0
41
1
10
-2.19999999999999
20
2.51402705629772
30
0
41
1
10
-2.19999999999999
20
2.375450816946
30
0
41
1
10
-2.19999999999999
20
2.23639085040648
30
0
41
1
10
-2.19999999999999
20
2.13182395998015
30
0
41
1
10
-2.19999999999999
20
2.02700348752293
30
0
41
1
10
-2.19999999999999
20
1.92193653735015
30
0
41
1
10
-2.19999999999999
20
1.81663008016324
30
0
41
1
10
-2.19999999999999
20
1.71109231328518
30
0
41
1
10
-2.19999999999999
20
1.60533155404698
30
0
41
1
10
-2.19999999999999
20
1.49935698477981
30
0
41
1
10
-2.19999999999999
20
1.39317847233161
30
0
41
1
10
-2.19999999999999
20
1.28680633401083
30
0
41
1
10
-2.19999999999999
20
1.18025197439016
30
0
41
1
10
-2.19999999999999
20
1.073527020087
30
0
41
1
10
-2.19999999999999
20
0.96664434311532
30
0
41
1
10
-2.19999999999999
20
0.859616995486334
30
0
41
1
10
-2.19999999999999
20
0.752459219961509
30
0
41
1
10
-2.19999999999999
20
0.6451854537342
30
0
41
1
10
-2.19999999999999
20
0.537811163545626
30
0
41
1
10
-2.19999999999999
20
0.430352024765995
30
0
41
1
10
-2.19999999999999
20
0.322824496958617
30
0
41
1
10
-2.19999999999999
20
0.215245213108545
30
0
41
1
10
-2.19999999999999
20
0.107631302158183
30
0
41
1
10
-2.19999999999999
20
-5.9909553E-09
30
0
41
1
10
-2.19999999999999
20
-0.107631313716837
30
0
41
1
10
-2.19999999999999
20
-0.21524522393176
30
0
41
1
10
-2.19999999999999
20
-0.322824507999513
30
0
41
1
10
-2.19999999999999
20
-0.430352036900842
30
0
41
1
10
-2.19999999999999
20
-0.537811175438549
30
0
41
1
10
-2.19999999999999
20
-0.645185463980482
30
0
41
1
10
-2.19999999999999
20
-0.752459230354134
30
0
41
1
10
-2.19999999999999
20
-0.859617007920491
30
0
41
1
10
-2.19999999999999
20
-0.966644355262389
30
0
41
1
10
-2.19999999999999
20
-1.07352702949097
30
0
41
1
10
-2.19999999999999
20
-1.18025198377217
30
0
41
1
10
-2.19999999999999
20
-1.2868063464968
30
0
41
1
10
-2.19999999999999
20
-1.39317848503856
30
0
41
1
10
-2.19999999999999
20
-1.49935699380708
30
0
41
1
10
-2.19999999999999
20
-1.60533156181745
30
0
41
1
10
-2.19999999999999
20
-1.71109232444704
30
0
41
1
10
-2.19999999999999
20
-1.81663009373557
30
0
41
1
10
-2.19999999999999
20
-1.92193654804359
30
0
41
1
10
-2.19999999999999
20
-2.02700349385552
30
0
41
1
10
-2.19999999999999
20
-2.13182396747069
30
0
41
1
10
-2.19999999999999
20
-2.23639086291988
30
0
41
1
10
-2.19999999999999
20
-2.34069812940876
30
0
41
1
10
-2.19999999999999
20
-2.44473977839388
30
0
41
1
10
-2.19999999999999
20
-2.54851063247165
30
0
41
1
10
-2.19999999999999
20
-2.65200559968281
30
0
41
1
10
-2.19999999999999
20
-2.78960994504098
30
0
41
1
10
-2.19999999999999
20
-2.92668912429065
30
0
41
1
10
-2.19999999999999
20
-3.06314133551615
30
0
41
1
10
-2.19999999999999
20
-3.19919952332836
30
0
41
1
10
-2.19999999999999
20
-3.36855659963138
30
0
41
1
10
-2.19999999999999
20
-3.53690183437428
30
0
41
1
10
-2.19999999999999
20
-3.67093805397229
30
0
41
1
10
-2.19999999999999
20
-3.77116418775421
30
0
41
1
10
-2.19999999999999
20
-3.87107811616195
30
0
41
1
10
-2.19999999999999
20
-4.00386592221614
30
0
41
1
10
-2.19999999999999
20
-4.169088511784
30
0
41
1
10
-2.19999999999999
20
-4.36606871643775
30
0
41
1
10
-2.19999999999999
20
-4.56176617271481
30
0
41
1
10
-2.19999999999999
20
-4.75617249379653
30
0
41
1
10
-2.19999999999999
20
-4.94928076863457
30
0
41
1
10
-2.19999999999999
20
-5.14108500618136
30
0
41
1
10
-2.19999999999999
20
-5.33157993903225
30
0
41
1
10
-2.19999999999999
20
-5.52076102284181
30
0
41
1
10
-2.19999999999999
20
-5.70862461825791
30
0
41
1
10
-2.19999999999999
20
-5.89516734859464
30
0
41
1
10
-2.19999999999999
20
-6.0803860968085
30
0
41
1
10
-2.20000000000002
20
-6.26427796235188
30
0
41
1
10
-2.20000000000002
20
-6.44684092947378
30
0
41
1
10
-2.20000000000002
20
-6.6280727178615
30
0
41
1
10
-2.20000000000002
20
-6.80797159432129
30
0
41
1
10
-2.20000000000002
20
-6.98653550324826
30
0
41
1
10
-2.20000000000002
20
-7.22282328452872
30
0
41
1
10
-2.20000000000002
20
-7.51487112820209
30
0
41
1
10
-2.20000000000002
20
-7.85994708827315
30
0
41
1
10
-2.20000000000002
20
-8.14304411844032
30
0
41
1
10
-2.20000000000002
20
-8.36680341033821
30
0
41
1
10
-2.20000000000002
20
-8.53328407858575
30
0
41
1
10
-2.20000000000002
20
-8.69841428877766
30
0
41
1
10
-2.20000000000002
20
-8.86219304073114
30
0
41
1
10
-2.20000000000002
20
-9.02461799205523
30
0
41
1
10
-2.20000000000002
20
-9.23936571773672
30
0
41
1
10
-2.20000000000002
20
-9.50443394039922
30
0
41
1
10
-2.20000000000002
20
-9.76496631110049
30
0
41
1
10
-2.20000000000002
20
-9.97064123613964
30
0
41
1
10
-2.20000000000002
20
-10.123538466054
30
0
41
1
10
-2.20000000000002
20
-10.2750653748105
30
0
41
1
10
-2.20000000000002
20
-10.4252201002359
30
0
41
1
10
-2.20000000000002
20
-10.5740001651574
30
0
41
1
10
-2.20000000000002
20
-10.7705258416001
30
0
41
1
10
-2.20000000000002
20
-10.9643215989582
30
0
41
1
10
-2.20000000000002
20
-11.1553144582602
30
0
41
1
10
-2.20000000000002
20
-11.3444552554371
30
0
41
1
10
-2.20000000000002
20
-11.5774197477568
30
0
41
1
10
-2.20000000000002
20
-11.8057194023465
30
0
41
1
10
-2.20000000000002
20
-11.9855280067157
30
0
41
1
10
-2.20000000000002
20
-12.1634558646821
30
0
41
1
10
-2.20000000000002
20
-12.3385783781737
30
0
41
1
10
-2.20000000000002
20
-12.510829004708
30
0
41
1
10
-2.20000000000002
20
-12.6385945454976
30
0
41
1
10
-2.20000000000002
20
-12.7649271637091
30
0
41
1
10
-2.20000000000002
20
-12.9314463925932
30
0
41
1
10
-2.20000000000002
20
-13.0951031927999
30
0
41
1
10
-2.20000000000002
20
-13.2558316973182
30
0
41
1
10
-2.20000000000002
20
-13.3749248996582
30
0
41
1
10
-2.20000000000002
20
-13.4925540411334
30
0
41
1
10
-2.20000000000002
20
-13.6474264531923
30
0
41
1
10
-2.20000000000002
20
-13.7993681905533
30
0
41
1
10
-2.20000000000002
20
-13.9483131264862
30
0
41
1
10
-2.20000000000002
20
-14.0585319334344
30
0
41
1
10
-2.20000000000002
20
-14.1672492642274
30
0
41
1
10
-2.20000000000002
20
-14.3101885914782
30
0
41
1
10
-2.20000000000002
20
-14.4501162106047
30
0
41
1
10
-2.20000000000002
20
-14.5869647126432
30
0
41
1
10
-2.20000000000002
20
-14.6880675812844
30
0
41
1
10
-2.20000000000002
20
-14.7876243995297
30
0
41
1
10
-2.20000000000002
20
-14.9182892218295
30
0
41
1
10
-2.20000000000002
20
-15.0458464314392
30
0
41
1
10
-2.20000000000002
20
-15.1702261509224
30
0
41
1
10
-2.20000000000002
20
-15.2466455133785
30
0
41
1
10
-2.20000000000002
20
-15.3069761679616
30
0
41
1
10
-2.20000000000002
20
-15.3667724139347
30
0
41
1
10
-2.20000000000002
20
-15.4700110929875
30
0
41
1
10
-2.20000000000002
20
-15.5847743990242
30
0
41
1
10
-2.20000000000002
20
-15.6962433571227
30
0
41
1
10
-2.20000000000002
20
-15.7781982539187
30
0
41
1
10
-2.20000000000002
20
-15.8584914079188
30
0
41
1
10
-2.20000000000002
20
-15.9633135259672
30
0
41
1
10
-2.20000000000002
20
-16.0647793597711
30
0
41
1
10
-2.20000000000002
20
-16.1628111223414
30
0
41
1
10
-2.20000000000002
20
-16.2346146707391
30
0
41
1
10
-2.20000000000002
20
-16.3046816359758
30
0
41
1
10
-2.20000000000002
20
-16.3729983688048
30
0
41
1
10
-2.20000000000002
20
-16.439549393056
30
0
41
1
10
-2.20000000000002
20
-16.5043209901433
30
0
41
1
10
-2.20000000000002
20
-16.5672977619412
30
0
41
1
10
-2.20000000000002
20
-16.6488473199257
30
0
41
1
10
-2.20000000000002
20
-16.7267561914694
30
0
41
1
10
-2.20000000000002
20
-16.8009296884544
30
0
41
1
10
-2.20000000000002
20
-16.8725984731112
30
0
41
1
10
-2.20000000000002
20
-16.9404820184079
30
0
41
1
10
-2.20000000000002
20
-17.0044820909957
30
0
41
1
10
-2.20000000000002
20
-17.0658713913631
30
0
41
1
10
-2.20000000000002
20
-17.123313852319
30
0
41
1
10
-2.20000000000002
20
-17.1766986986672
30
0
41
1
10
-2.20000000000002
20
-17.2146924603872
30
0
41
1
10
-2.20000000000002
20
-17.250613323192
30
0
41
1
10
-2.20000000000002
20
-17.2957083328928
30
0
41
1
10
-2.20000000000002
20
-17.3365615705832
30
0
41
1
10
-2.20000000000002
20
-17.3730462873428
30
0
41
1
10
-2.20000000000002
20
-17.398199993695
30
0
41
1
10
-2.20000000000002
20
-17.4211116738093
30
0
41
1
10
-2.20000000000002
20
-17.4417480876219
30
0
41
1
10
-2.20000000000002
20
-17.4600756994924
30
0
41
1
10
-2.20000000000002
20
-17.4760589706817
30
0
41
1
10
-2.20000000000002
20
-17.4896606126054
30
0
41
1
10
-2.20000000000002
20
-17.5008423321234
30
0
41
1
10
-2.20000000000002
20
-17.5092377806558
30
0
41
1
10
-2.20000000000005
20
-17.5132392305872
30
0
41
1
10
-2.20000000000002
20
-17.5147871180633
30
0
0
SPLINE
5
192
100
AcDbEntity
8
SK1
62
256
6
ByLayer
370
18
48
1
60
0
100
AcDbSpline
70
4
71
3
72
290
73
286
40
0
40
0
40
0
40
0
40
0.0008596800023354
40
0.004350175195091
40
0.0078406703878467
40
0.0113311655806023
40
0.014821660773358
40
0.0183121559661136
40
0.0218026511588692
40
0.0252931463516249
40
0.0287836415443805
40
0.0322741367371361
40
0.0357646319298918
40
0.0392551271226475
40
0.0427456223154031
40
0.0462361175081587
40
0.05321710789367
40
0.0567076030864256
40
0.0601980982791813
40
0.0636885934719369
40
0.0671790886646926
40
0.0741600790502038
40
0.0776505742429595
40
0.0811410694357151
40
0.0881220598212264
40
0.091612555013982
40
0.0951030502067377
40
0.102084040592249
40
0.105574535785005
40
0.10906503097776
40
0.112555526170516
40
0.116046021363272
40
0.119536516556027
40
0.123027011748783
40
0.126517506941538
40
0.130008002134294
40
0.136988992519806
40
0.140479487712561
40
0.143969982905317
40
0.147460478098072
40
0.150950973290828
40
0.157931963676339
40
0.161422458869095
40
0.164912954061851
40
0.168403449254606
40
0.171893944447362
40
0.178874934832873
40
0.182365430025629
40
0.185855925218385
40
0.18934642041114
40
0.192836915603896
40
0.199817905989407
40
0.203308401182163
40
0.206798896374918
40
0.210289391567674
40
0.21377988676043
40
0.220760877145941
40
0.224251372338696
40
0.227741867531452
40
0.231232362724208
40
0.234722857916963
40
0.241703848302475
40
0.24519434349523
40
0.248684838687986
40
0.252175333880741
40
0.255665829073497
40
0.262646819459009
40
0.266137314651764
40
0.26962780984452
40
0.276608800230031
40
0.283589790615542
40
0.287080285808298
40
0.290570781001054
40
0.297551771386565
40
0.30104226657932
40
0.304532761772076
40
0.308023256964832
40
0.311513752157587
40
0.315004247350343
40
0.318494742543099
40
0.32547573292861
40
0.332456723314121
40
0.335947218506877
40
0.339437713699633
40
0.342928208892388
40
0.346418704085144
40
0.349909199277899
40
0.353399694470655
40
0.360380684856166
40
0.367361675241678
40
0.374342665627189
40
0.377833160819945
40
0.3813236560127
40
0.384814151205456
40
0.388304646398212
40
0.391795141590967
40
0.395285636783723
40
0.398776131976478
40
0.402266627169234
40
0.40575712236199
40
0.409247617554745
40
0.412738112747501
40
0.416228607940257
40
0.419719103133012
40
0.423209598325768
40
0.426700093518524
40
0.430190588711279
40
0.433681083904035
40
0.435426331500413
40
0.437171579096791
40
0.438916826693168
40
0.440662074289546
40
0.444152569482302
40
0.447643064675058
40
0.449388312271435
40
0.451133559867813
40
0.452878807464191
40
0.454624055060569
40
0.456369302656946
40
0.458114550253324
40
0.46160504544608
40
0.463350293042458
40
0.465095540638836
40
0.466840788235214
40
0.468586035831591
40
0.470331283427969
40
0.472076531024347
40
0.473821778620725
40
0.475567026217103
40
0.477312273813481
40
0.479057521409858
40
0.480802769006236
40
0.482548016602614
40
0.484293264198992
40
0.48603851179537
40
0.487783759391747
40
0.489529006988125
40
0.491274254584503
40
0.493019502180881
40
0.494764749777259
40
0.496509997373636
40
0.498255244970014
40
0.500000492566392
40
0.50174574016277
40
0.503490987759148
40
0.505236235355526
40
0.506981482951903
40
0.508726730548281
40
0.510471978144659
40
0.512217225741037
40
0.513962473337415
40
0.515707720933792
40
0.51745296853017
40
0.519198216126548
40
0.520943463722926
40
0.522688711319304
40
0.524433958915682
40
0.52617920651206
40
0.527924454108437
40
0.529669701704815
40
0.531414949301193
40
0.533160196897571
40
0.534905444493949
40
0.536650692090326
40
0.538395939686704
40
0.540141187283082
40
0.54188643487946
40
0.543631682475838
40
0.545376930072215
40
0.548867425264971
40
0.550612672861349
40
0.552357920457727
40
0.555848415650482
40
0.559338910843238
40
0.561084158439616
40
0.562829406035993
40
0.564574653632371
40
0.566319901228749
40
0.569810396421505
40
0.57330089161426
40
0.576791386807016
40
0.580281881999772
40
0.583772377192527
40
0.587262872385283
40
0.590753367578039
40
0.594243862770794
40
0.59773435796355
40
0.601224853156306
40
0.604715348349061
40
0.608205843541817
40
0.611696338734572
40
0.615186833927328
40
0.618677329120084
40
0.622167824312839
40
0.625658319505595
40
0.632639309891106
40
0.639620300276618
40
0.646601290662129
40
0.650091785854884
40
0.65358228104764
40
0.657072776240396
40
0.660563271433152
40
0.664053766625907
40
0.667544261818663
40
0.674525252204174
40
0.681506242589685
40
0.684996737782441
40
0.688487232975197
40
0.691977728167952
40
0.695468223360708
40
0.698958718553463
40
0.702449213746219
40
0.709430204131731
40
0.712920699324486
40
0.716411194517242
40
0.723392184902753
40
0.730373175288264
40
0.73386367048102
40
0.737354165673776
40
0.744335156059287
40
0.747825651252043
40
0.751316146444798
40
0.754806641637554
40
0.75829713683031
40
0.765278127215821
40
0.768768622408576
40
0.772259117601332
40
0.775749612794088
40
0.779240107986843
40
0.786221098372355
40
0.78971159356511
40
0.793202088757866
40
0.796692583950621
40
0.800183079143377
40
0.807164069528888
40
0.810654564721644
40
0.8141450599144
40
0.817635555107155
40
0.821126050299911
40
0.828107040685422
40
0.831597535878178
40
0.835088031070934
40
0.836833278667311
40
0.838578526263689
40
0.842069021456445
40
0.849050011841956
40
0.852540507034712
40
0.856031002227467
40
0.859521497420223
40
0.863011992612979
40
0.86999298299849
40
0.873483478191246
40
0.876973973384001
40
0.880464468576757
40
0.883954963769513
40
0.887445458962268
40
0.890935954155024
40
0.894426449347779
40
0.897916944540535
40
0.904897934926046
40
0.908388430118802
40
0.911878925311558
40
0.918859915697069
40
0.922350410889825
40
0.92584090608258
40
0.932821896468091
40
0.936312391660847
40
0.939802886853603
40
0.943293382046358
40
0.946783877239114
40
0.953764867624625
40
0.957255362817381
40
0.960745858010137
40
0.964236353202892
40
0.967726848395648
40
0.971217343588404
40
0.974707838781159
40
0.978198333973915
40
0.98168882916667
40
0.985179324359426
40
0.988669819552182
40
0.992160314744937
40
0.995650809937693
40
0.999141305130449
40
1
40
1
40
1
40
1
41
1
10
-28.5
20
16.8570615164313
30
0
41
1
10
-28.5
20
16.8573439331819
30
0
41
1
10
-28.5
20
16.858640009679
30
0
41
1
10
-28.5
20
16.8597682913316
30
0
41
1
10
-28.5
20
16.8587320876465
30
0
41
1
10
-28.5
20
16.8551966776124
30
0
41
1
10
-28.5
20
16.8492032887544
30
0
41
1
10
-28.5
20
16.8407921788659
30
0
41
1
10
-28.5
20
16.8300011209595
30
0
41
1
10
-28.5
20
16.8168672741156
30
0
41
1
10
-28.5
20
16.801425522577
30
0
41
1
10
-28.5
20
16.783709883521
30
0
41
1
10
-28.5
20
16.7637529731542
30
0
41
1
10
-28.5
20
16.7415855338906
30
0
41
1
10
-28.5
20
16.7172383450784
30
0
41
1
10
-28.5
20
16.6818353810987
30
0
41
1
10
-28.5
20
16.642411510514
30
0
41
1
10
-28.5
20
16.5986105790194
30
0
41
1
10
-28.5
20
16.5637763020887
30
0
41
1
10
-28.5
20
16.5269199075572
30
0
41
1
10
-28.5
20
16.4750169305148
30
0
41
1
10
-28.5
20
16.4194622625482
30
0
41
1
10
-28.5
20
16.3597331913306
30
0
41
1
10
-28.5
20
16.2974462059125
30
0
41
1
10
-28.5
20
16.2317181614777
30
0
41
1
10
-28.5
20
16.1619255301563
30
0
41
1
10
-28.5
20
16.0896767577218
30
0
41
1
10
-28.5
20
16.0141701499498
30
0
41
1
10
-28.5
20
15.9346970720351
30
0
41
1
10
-28.5
20
15.8734193498835
30
0
41
1
10
-28.5
20
15.8103844132608
30
0
41
1
10
-28.5
20
15.745608166167
30
0
41
1
10
-28.5
20
15.6791035033831
30
0
41
1
10
-28.5
20
15.6108850520675
30
0
41
1
10
-28.5
20
15.5409672008416
30
0
41
1
10
-28.5
20
15.4453363897878
30
0
41
1
10
-28.5
20
15.3468344295443
30
0
41
1
10
-28.5
20
15.2445501023873
30
0
41
1
10
-28.5
20
15.1663215412448
30
0
41
1
10
-28.5
20
15.0864673138636
30
0
41
1
10
-28.5
20
14.9776668598205
30
0
41
1
10
-28.5
20
14.8661866472664
30
0
41
1
10
-28.5
20
14.7510047173632
30
0
41
1
10
-28.5
20
14.6631805593238
30
0
41
1
10
-28.5
20
14.5737935545693
30
0
41
1
10
-28.5
20
14.4523474056541
30
0
41
1
10
-28.5
20
14.3283920102608
30
0
41
1
10
-28.5
20
14.2007962111626
30
0
41
1
10
-28.5
20
14.1037299196573
30
0
41
1
10
-28.5
20
14.0051547121626
30
0
41
1
10
-28.5
20
13.8715103774193
30
0
41
1
10
-28.5
20
13.7355116027341
30
0
41
1
10
-28.5
20
13.5959164295663
30
0
41
1
10
-28.5
20
13.4899116400767
30
0
41
1
10
-28.5
20
13.3824445287114
30
0
41
1
10
-28.5
20
13.2369867267197
30
0
41
1
10
-28.5
20
13.0893180063073
30
0
41
1
10
-28.5
20
12.9380809359595
30
0
41
1
10
-28.5
20
12.8234002792819
30
0
41
1
10
-28.5
20
12.7072977235969
30
0
41
1
10
-28.5
20
12.550359403554
30
0
41
1
10
-28.5
20
12.3913462445321
30
0
41
1
10
-28.5
20
12.2287775158425
30
0
41
1
10
-28.5
20
12.1056498288981
30
0
41
1
10
-28.5
20
11.9811355431937
30
0
41
1
10
-28.5
20
11.8130068133241
30
0
41
1
10
-28.5
20
11.642935768078
30
0
41
1
10
-28.5
20
11.4693068645234
30
0
41
1
10
-28.5
20
11.2938625434425
30
0
41
1
10
-28.5
20
11.0718089327865
30
0
41
1
10
-28.5
20
10.8452681360072
30
0
41
1
10
-28.5
20
10.6608198079833
30
0
41
1
10
-28.5
20
10.4745957683654
30
0
41
1
10
-28.5
20
10.28665185334
30
0
41
1
10
-28.5
20
10.0951135357909
30
0
41
1
10
-28.5
20
9.95038954775913
30
0
41
1
10
-28.5
20
9.80435457760413
30
0
41
1
10
-28.5
20
9.65701503611825
30
0
41
1
10
-28.5
20
9.50837340526914
30
0
41
1
10
-28.5
20
9.30810992365682
30
0
41
1
10
-28.5
20
9.05534970701547
30
0
41
1
10
-28.5
20
8.79830464348925
30
0
41
1
10
-28.5
20
8.58944232029057
30
0
41
1
10
-28.5
20
8.43181572672984
30
0
41
1
10
-28.5
20
8.27292311790595
30
0
41
1
10
-28.5
20
8.11277014047187
30
0
41
1
10
-28.5
20
7.95136171184492
30
0
41
1
10
-28.5
20
7.73407184255311
30
0
41
1
10
-28.5
20
7.46030866767532
30
0
41
1
10
-28.5
20
7.12632140637376
30
0
41
1
10
-28.5
20
6.84437402550572
30
0
41
1
10
-28.5
20
6.61554359890374
30
0
41
1
10
-28.5
20
6.4430902941161
30
0
41
1
10
-28.5
20
6.26944364545892
30
0
41
1
10
-28.5
20
6.09461246091774
30
0
41
1
10
-28.5
20
5.91860523667611
30
0
41
1
10
-28.5
20
5.74143189937956
30
0
41
1
10
-28.5
20
5.56310357372004
30
0
41
1
10
-28.5
20
5.38363134733169
30
0
41
1
10
-28.5
20
5.20302692387264
30
0
41
1
10
-28.5
20
5.02130422324723
30
0
41
1
10
-28.5
20
4.83847919931267
30
0
41
1
10
-28.5
20
4.65456716028007
30
0
41
1
10
-28.5
20
4.46958486845952
30
0
41
1
10
-28.5
20
4.28355302808072
30
0
41
1
10
-28.5
20
4.09649275318185
30
0
41
1
10
-28.5
20
3.90842813226234
30
0
41
1
10
-28.5
20
3.75124940963568
30
0
41
1
10
-28.5
20
3.62435497964392
30
0
41
1
10
-28.5
20
3.52924315934186
30
0
41
1
10
-28.5
20
3.43390158445524
30
0
41
1
10
-28.5
20
3.30608717079304
30
0
41
1
10
-28.5
20
3.14669072023426
30
0
41
1
10
-28.5
20
2.98656939879123
30
0
41
1
10
-28.5
20
2.85729421649614
30
0
41
1
10
-28.5
20
2.76048089001327
30
0
41
1
10
-28.5
20
2.66347976206257
30
0
41
1
10
-28.5
20
2.56629526768595
30
0
41
1
10
-28.5
20
2.46893611478757
30
0
41
1
10
-28.5
20
2.33842740009589
30
0
41
1
10
-28.5
20
2.20905952740148
30
0
41
1
10
-28.5
20
2.07788039572901
30
0
41
1
10
-28.5
20
1.97974994874619
30
0
41
1
10
-28.5
20
1.88148715614125
30
0
41
1
10
-28.5
20
1.7831009010128
30
0
41
1
10
-28.5
20
1.68460072925308
30
0
41
1
10
-28.5
20
1.58599184128099
30
0
41
1
10
-28.5
20
1.48728649469359
30
0
41
1
10
-28.5
20
1.38848914320593
30
0
41
1
10
-28.5
20
1.28961139997085
30
0
41
1
10
-28.5
20
1.1906585936099
30
0
41
1
10
-28.5
20
1.09164071478051
30
0
41
1
10
-28.5
20
0.992564090788477
30
0
41
1
10
-28.5
20
0.893436923932569
30
0
41
1
10
-28.5
20
0.794265471937194
30
0
41
1
10
-28.5
20
0.695056741362862
30
0
41
1
10
-28.5
20
0.59581646850728
30
0
41
1
10
-28.5
20
0.496550613210019
30
0
41
1
10
-28.5
20
0.39726385318184
30
0
41
1
10
-28.5
20
0.297961366795136
30
0
41
1
10
-28.5
20
0.198647102840766
30
0
41
1
10
-28.5
20
0.0993254669347721
30
0
41
1
10
-28.5
20
5.4725433E-09
30
0
41
1
10
-28.5
20
-0.0993254684405542
30
0
41
1
10
-28.5
20
-0.19864712760122
30
0
41
1
10
-28.5
20
-0.297961388791663
30
0
41
1
10
-28.5
20
-0.397263840423989
30
0
41
1
10
-28.5
20
-0.49655059420553
30
0
41
1
10
-28.5
20
-0.595816495504067
30
0
41
1
10
-28.5
20
-0.695056784276971
30
0
41
1
10
-28.5
20
-0.794265459276147
30
0
41
1
10
-28.5
20
-0.893436883433452
30
0
41
1
10
-28.5
20
-0.992564112169873
30
0
41
1
10
-28.5
20
-1.09164077920417
30
0
41
1
10
-28.5
20
-1.19065859620261
30
0
41
1
10
-28.5
20
-1.28961134189748
30
0
41
1
10
-28.5
20
-1.38848913588987
30
0
41
1
10
-28.5
20
-1.48728656512975
30
0
41
1
10
-28.5
20
-1.58599188781929
30
0
41
1
10
-28.5
20
-1.68460068701248
30
0
41
1
10
-28.5
20
-1.78310084050693
30
0
41
1
10
-28.5
20
-1.88148718140698
30
0
41
1
10
-28.5
20
-1.97975003643617
30
0
41
1
10
-28.5
20
-2.07788042653627
30
0
41
1
10
-28.5
20
-2.17587292609079
30
0
41
1
10
-28.5
20
-2.27371679621314
30
0
41
1
10
-28.5
20
-2.37140757120349
30
0
41
1
10
-28.5
20
-2.4689361394303
30
0
41
1
10
-28.5
20
-2.59923374131697
30
0
41
1
10
-28.5
20
-2.72777279716703
30
0
41
1
10
-28.5
20
-2.85729428823927
30
0
41
1
10
-28.5
20
-2.98656948332385
30
0
41
1
10
-28.5
20
-3.14669074057866
30
0
41
1
10
-28.5
20
-3.30608709676795
30
0
41
1
10
-28.5
20
-3.43390157548933
30
0
41
1
10
-28.5
20
-3.52924322184188
30
0
41
1
10
-28.5
20
-3.62435506854828
30
0
41
1
10
-28.5
20
-3.75124942106055
30
0
41
1
10
-28.5
20
-3.90842799420622
30
0
41
1
10
-28.5
20
-4.09649259176143
30
0
41
1
10
-28.5
20
-4.28355297730502
30
0
41
1
10
-28.5
20
-4.46958461745547
30
0
41
1
10
-28.5
20
-4.65456683421033
30
0
41
1
10
-28.5
20
-4.83847943804491
30
0
41
1
10
-28.5
20
-5.02130448518977
30
0
41
1
10
-28.5
20
-5.20302670033007
30
0
41
1
10
-28.5
20
-5.38363156234235
30
0
41
1
10
-28.5
20
-5.5631044550444
30
0
41
1
10
-28.5
20
-5.74143237747978
30
0
41
1
10
-28.5
20
-5.91860495448569
30
0
41
1
10
-28.5
20
-6.09461208825525
30
0
41
1
10
-28.5
20
-6.26944357118296
30
0
41
1
10
-28.5
20
-6.44309032655627
30
0
41
1
10
-28.5
20
-6.61554357091566
30
0
41
1
10
-28.5
20
-6.84437400802858
30
0
41
1
10
-28.5
20
-7.12632144512298
30
0
41
1
10
-28.5
20
-7.46030865505756
30
0
41
1
10
-28.5
20
-7.73407184285276
30
0
41
1
10
-28.5
20
-7.95136176299602
30
0
41
1
10
-28.5
20
-8.11277014937079
30
0
41
1
10
-28.5
20
-8.27292308432646
30
0
41
1
10
-28.5
20
-8.43181570788786
30
0
41
1
10
-28.5
20
-8.58944234887977
30
0
41
1
10
-28.5
20
-8.79830467826929
30
0
41
1
10
-28.5
20
-9.05534969583789
30
0
41
1
10
-28.5
20
-9.30810991622681
30
0
41
1
10
-28.5
20
-9.50837344479848
30
0
41
1
10
-28.5
20
-9.6570150628749
30
0
41
1
10
-28.5
20
-9.80435457188472
30
0
41
1
10
-28.5
20
-9.95038952754786
30
0
41
1
10
-28.5
20
-10.0951135319109
30
0
41
1
10
-28.5
20
-10.2866518813936
30
0
41
1
10
-28.5
20
-10.4745957936973
30
0
41
1
10
-28.5
20
-10.6608197986608
30
0
41
1
10
-28.5
20
-10.8452681286137
30
0
41
1
10
-28.5
20
-11.0718089525805
30
0
41
1
10
-28.5
20
-11.2938625632929
30
0
41
1
10
-28.5
20
-11.4693068596264
30
0
41
1
10
-28.5
20
-11.642935765638
30
0
41
1
10
-28.5
20
-11.8130068303032
30
0
41
1
10
-28.5
20
-11.9811355648908
30
0
41
1
10
-28.5
20
-12.1056498404808
30
0
41
1
10
-28.5
20
-12.2287775174238
30
0
41
1
10
-28.5
20
-12.3913462461042
30
0
41
1
10
-28.5
20
-12.550359417297
30
0
41
1
10
-28.5
20
-12.7072977423403
30
0
41
1
10
-28.5
20
-12.8234002933141
30
0
41
1
10
-28.5
20
-12.9380809438716
30
0
41
1
10
-28.5
20
-13.0893180117674
30
0
41
1
10
-28.5
20
-13.2369867372073
30
0
41
1
10
-28.5
20
-13.3824445445542
30
0
41
1
10
-28.5
20
-13.4899116562854
30
0
41
1
10
-28.5
20
-13.5959164434403
30
0
41
1
10
-28.5
20
-13.735511612592
30
0
41
1
10
-28.5
20
-13.8715103854275
30
0
41
1
10
-28.5
20
-14.0051547249397
30
0
41
1
10
-28.5
20
-14.1037299370701
30
0
41
1
10
-28.5
20
-14.2007962250068
30
0
41
1
10
-28.5
20
-14.328392039309
30
0
41
1
10
-28.5
20
-14.4523474054459
30
0
41
1
10
-28.5
20
-14.57379350627
30
0
41
1
10
-28.5
20
-14.648189652593
30
0
41
1
10
-28.5
20
-14.7070919001428
30
0
41
1
10
-28.5
20
-14.7654709460417
30
0
41
1
10
-28.5
20
-14.8661866667288
30
0
41
1
10
-28.5
20
-14.9776668655465
30
0
41
1
10
-28.5
20
-15.0864673213159
30
0
41
1
10
-28.5
20
-15.166321559936
30
0
41
1
10
-28.5
20
-15.2445501295776
30
0
41
1
10
-28.5
20
-15.3468344527491
30
0
41
1
10
-28.5
20
-15.4453363938052
30
0
41
1
10
-28.5
20
-15.5409672073329
30
0
41
1
10
-28.5
20
-15.6108850733397
30
0
41
1
10
-28.5
20
-15.6791035342519
30
0
41
1
10
-28.5
20
-15.7456081924762
30
0
41
1
10
-28.5
20
-15.810384423087
30
0
41
1
10
-28.5
20
-15.8734193510278
30
0
41
1
10
-28.5
20
-15.934697080719
30
0
41
1
10
-28.5
20
-16.0141701800501
30
0
41
1
10
-28.5
20
-16.0896767899467
30
0
41
1
10
-28.5
20
-16.1619255341458
30
0
41
1
10
-28.5
20
-16.2317181619347
30
0
41
1
10
-28.5
20
-16.2974462376792
30
0
41
1
10
-28.5
20
-16.3597332242326
30
0
41
1
10
-28.5
20
-16.4194622696319
30
0
41
1
10
-28.5
20
-16.4750169286961
30
0
41
1
10
-28.5
20
-16.5269199399481
30
0
41
1
10
-28.5
20
-16.5637763395247
30
0
41
1
10
-28.5
20
-16.5986105943247
30
0
41
1
10
-28.5
20
-16.6424115043339
30
0
41
1
10
-28.5
20
-16.6818354096896
30
0
41
1
10
-28.5
20
-16.7172383773104
30
0
41
1
10
-28.5
20
-16.741585550229
30
0
41
1
10
-28.5
20
-16.7637529737167
30
0
41
1
10
-28.5
20
-16.7837098927271
30
0
41
1
10
-28.5
20
-16.8014255596809
30
0
41
1
10
-28.5
20
-16.816867307208
30
0
41
1
10
-28.5
20
-16.8300011251081
30
0
41
1
10
-28.5
20
-16.8407921763223
30
0
41
1
10
-28.5
20
-16.8492033090471
30
0
41
1
10
-28.5
20
-16.8551966659016
30
0
41
1
10
-28.5
20
-16.8587319423621
30
0
41
1
10
-28.5
20
-16.8597680746869
30
0
41
1
10
-28.5
20
-16.8586400427571
30
0
41
1
10
-28.5
20
-16.8573444996208
30
0
41
1
10
-28.5
20
-16.8570624849083
30
0
0
SPLINE
5
193
100
AcDbEntity
8
SK1
62
256
6
ByLayer
370
18
48
1
60
0
100
AcDbSpline
70
4
71
3
72
107
73
103
40
0
40
0
40
0
40
0
40
0.0027087431772512
40
0.0112406780927505
40
0.0197726130082497
40
0.028304547923749
40
0.0368364828392482
40
0.0453684177547475
40
0.0539003526702468
40
0.062432287585746
40
0.0709642225012453
40
0.0794961574167445
40
0.096560027247743
40
0.113623897078742
40
0.13068776690974
40
0.139219701825239
40
0.147751636740739
40
0.156283571656238
40
0.164815506571737
40
0.173347441487236
40
0.181879376402736
40
0.198943246233734
40
0.216007116064733
40
0.224539050980232
40
0.233070985895731
40
0.24160292081123
40
0.25013485572673
40
0.258666790642229
40
0.267198725557728
40
0.284262595388727
40
0.292794530304226
40
0.301326465219725
40
0.318390335050724
40
0.335454204881722
40
0.343986139797221
40
0.352518074712721
40
0.369581944543719
40
0.378113879459218
40
0.386645814374718
40
0.395177749290217
40
0.403709684205716
40
0.420773554036715
40
0.429305488952214
40
0.437837423867713
40
0.446369358783212
40
0.454901293698712
40
0.47196516352971
40
0.48049709844521
40
0.489029033360709
40
0.497560968276208
40
0.506092903191707
40
0.523156773022706
40
0.531688707938205
40
0.540220642853704
40
0.548752577769204
40
0.557284512684703
40
0.574348382515701
40
0.582880317431201
40
0.5914122523467
40
0.59567821980445
40
0.599944187262199
40
0.608476122177698
40
0.625539992008697
40
0.634071926924196
40
0.642603861839695
40
0.651135796755195
40
0.659667731670694
40
0.676731601501693
40
0.685263536417192
40
0.693795471332691
40
0.70232740624819
40
0.71085934116369
40
0.719391276079189
40
0.727923210994688
40
0.736455145910187
40
0.744987080825687
40
0.762050950656685
40
0.770582885572184
40
0.779114820487684
40
0.796178690318682
40
0.804710625234181
40
0.813242560149681
40
0.830306429980679
40
0.838838364896178
40
0.847370299811678
40
0.855902234727177
40
0.864434169642676
40
0.881498039473675
40
0.890029974389174
40
0.898561909304673
40
0.907093844220172
40
0.915625779135672
40
0.924157714051171
40
0.93268964896667
40
0.94122158388217
40
0.949753518797669
40
0.958285453713168
40
0.966817388628667
40
0.975349323544166
40
0.983881258459666
40
0.992413193375165
40
1
40
1
40
1
40
1
41
1
10
-0.394976888875306
20
-5.38678189578289
30
0
41
1
10
-0.394976888875306
20
-5.4065930765673
30
0
41
1
10
-0.394976888875306
20
-5.48871660168982
30
0
41
1
10
-0.394976888875306
20
-5.63252719489225
30
0
41
1
10
-0.394976888875306
20
-5.8174145162354
30
0
41
1
10
-0.394976888875306
20
-6.00101977124669
30
0
41
1
10
-0.394976888875306
20
-6.18333830919048
30
0
41
1
10
-0.394976888875306
20
-6.3643662218949
30
0
41
1
10
-0.394976888875306
20
-6.54409937286439
30
0
41
1
10
-0.394976888875306
20
-6.72253430941348
30
0
41
1
10
-0.394976888875306
20
-6.89966740060396
30
0
41
1
10
-0.394976888875306
20
-7.13420903787926
30
0
41
1
10
-0.394976888875306
20
-7.42389186204957
30
0
41
1
10
-0.394976888875306
20
-7.76637138106329
30
0
41
1
10
-0.394976888875306
20
-8.04728288344248
30
0
41
1
10
-0.394976888875306
20
-8.26952736598562
30
0
41
1
10
-0.394976888875306
20
-8.434820354761
30
0
41
1
10
-0.394976888875306
20
-8.59878513137221
30
0
41
1
10
-0.394976888875306
20
-8.76141979186249
30
0
41
1
10
-0.394976888875306
20
-8.922721214403
30
0
41
1
10
-0.394976888875306
20
-9.1360908691222
30
0
41
1
10
-0.394976888875306
20
-9.39928045092248
30
0
41
1
10
-0.394976888875306
20
-9.65799296546987
30
0
41
1
10
-0.394976888875306
20
-9.86240080704218
30
0
41
1
10
-0.394976888875306
20
-10.0143015815252
30
0
41
1
10
-0.394976888875306
20
-10.1648480067744
30
0
41
1
10
-0.394976888875306
20
-10.3140380843155
30
0
41
1
10
-0.394976888875306
20
-10.4618684189216
30
0
41
1
10
-0.394976888875306
20
-10.6572263081632
30
0
41
1
10
-0.394976888875306
20
-10.8496518506122
30
0
41
1
10
-0.394976888875306
20
-11.0395280782787
30
0
41
1
10
-0.394976888875306
20
-11.2275701299333
30
0
41
1
10
-0.394976888875306
20
-11.4590305143918
30
0
41
1
10
-0.394976888875306
20
-11.685867652055
30
0
41
1
10
-0.394976888875306
20
-11.864654349678
30
0
41
1
10
-0.394976888875306
20
-12.0415756040849
30
0
41
1
10
-0.394976888875306
20
-12.2155153161813
30
0
41
1
10
-0.394976888875306
20
-12.3868007979199
30
0
41
1
10
-0.394976888875306
20
-12.5138050519686
30
0
41
1
10
-0.394976888875306
20
-12.6393872302303
30
0
41
1
10
-0.394976888875306
20
-12.8049814458532
30
0
41
1
10
-0.394976888875306
20
-12.9675509360494
30
0
41
1
10
-0.394976888875306
20
-13.1273919665529
30
0
41
1
10
-0.394976888875306
20
-13.2457849051211
30
0
41
1
10
-0.394976888875306
20
-13.3627236547323
30
0
41
1
10
-0.394976888875306
20
-13.5167448476072
30
0
41
1
10
-0.394976888875306
20
-13.6676860552913
30
0
41
1
10
-0.394976888875306
20
-13.8158144768541
30
0
41
1
10
-0.394976888875306
20
-13.9253889718329
30
0
41
1
10
-0.394976888875306
20
-14.0334711580348
30
0
41
1
10
-0.394976888875306
20
-14.1756274475866
30
0
41
1
10
-0.394976888875306
20
-14.3146351237356
30
0
41
1
10
-0.394976888875306
20
-14.4507333681675
30
0
41
1
10
-0.394976888875306
20
-14.5512443837086
30
0
41
1
10
-0.394976888875306
20
-14.6502180419884
30
0
41
1
10
-0.394976888875306
20
-14.780164253239
30
0
41
1
10
-0.394976888875306
20
-14.9068780878822
30
0
41
1
10
-0.394976888875306
20
-15.0305708978545
30
0
41
1
10
-0.394976888875306
20
-15.1065165223896
30
0
41
1
10
-0.394976888875306
20
-15.1665127141503
30
0
41
1
10
-0.394976888875306
20
-15.2259771214207
30
0
41
1
10
-0.394976888875306
20
-15.3286250474485
30
0
41
1
10
-0.394976888875306
20
-15.4426196109061
30
0
41
1
10
-0.394976888875306
20
-15.5534637367265
30
0
41
1
10
-0.394976888875306
20
-15.6349267624759
30
0
41
1
10
-0.394976888875306
20
-15.7147364921469
30
0
41
1
10
-0.394976888875306
20
-15.8189643831875
30
0
41
1
10
-0.394976888875306
20
-15.9197362187748
30
0
41
1
10
-0.394976888875306
20
-16.0172057969154
30
0
41
1
10
-0.394976888875306
20
-16.0885678110446
30
0
41
1
10
-0.394976888875306
20
-16.1582019472912
30
0
41
1
10
-0.394976888875306
20
-16.2260943811825
30
0
41
1
10
-0.394976888875306
20
-16.2922298358683
30
0
41
1
10
-0.394976888875306
20
-16.3565947902754
30
0
41
1
10
-0.394976888875306
20
-16.4191737297992
30
0
41
1
10
-0.394976888875306
20
-16.5002370830775
30
0
41
1
10
-0.394976888875306
20
-16.5775834628441
30
0
41
1
10
-0.394976888875306
20
-16.6513062771915
30
0
41
1
10
-0.394976888875306
20
-16.7225357579897
30
0
41
1
10
-0.394976888875306
20
-16.7899145981056
30
0
41
1
10
-0.394976888875306
20
-16.8535135500207
30
0
41
1
10
-0.394976888875306
20
-16.9145141001581
30
0
41
1
10
-0.394976888875306
20
-16.9715145305624
30
0
41
1
10
-0.394976888875306
20
-17.024552403858
30
0
41
1
10
-0.394976888875306
20
-17.0622798511847
30
0
41
1
10
-0.394976888875306
20
-17.0979462837243
30
0
41
1
10
-0.394976888875306
20
-17.1427382787905
30
0
41
1
10
-0.394976888875306
20
-17.1832568369982
30
0
41
1
10
-0.394976888875306
20
-17.2194882612007
30
0
41
1
10
-0.394976888875306
20
-17.2444531170066
30
0
41
1
10
-0.394976888875306
20
-17.2671905287463
30
0
41
1
10
-0.394976888875306
20
-17.2876678382251
30
0
41
1
10
-0.394976888875306
20
-17.3058521626298
30
0
41
1
10
-0.394976888875306
20
-17.3217086355548
30
0
41
1
10
-0.394976888875306
20
-17.3352007360526
30
0
41
1
10
-0.394976888875306
20
-17.3462909802274
30
0
41
1
10
-0.394976888875306
20
-17.3549392880652
30
0
41
1
10
-0.394976888875306
20
-17.3611046305144
30
0
41
1
10
-0.394976888875306
20
-17.3647432146661
30
0
41
1
10
-0.394976888875306
20
-17.3658102005923
30
0
41
1
10
-0.394976888875334
20
-17.3643150511111
30
0
41
1
10
-0.394976888875362
20
-17.3617494021836
30
0
41
1
10
-0.394976888875306
20
-17.3601838595921
30
0
0
SPLINE
5
194
100
AcDbEntity
8
SK1
62
256
6
ByLayer
370
18
48
1
60
0
100
AcDbSpline
70
4
71
3
72
106
73
102
40
0
40
0
40
0
40
0
40
0.0075864937645309
40
0.0161184314976588
40
0.0246503692307868
40
0.0331823069639148
40
0.0417142446970428
40
0.0502461824301707
40
0.0587781201632987
40
0.0673100578964267
40
0.0758419956295547
40
0.0843739333626826
40
0.0929058710958106
40
0.101437808828939
40
0.109969746562066
40
0.118501684295195
40
0.13556555976145
40
0.144097497494578
40
0.152629435227706
40
0.161161372960834
40
0.169693310693962
40
0.186757186160218
40
0.195289123893346
40
0.203821061626474
40
0.22088493709273
40
0.229416874825858
40
0.237948812558986
40
0.255012688025242
40
0.26354462575837
40
0.272076563491498
40
0.280608501224626
40
0.289140438957754
40
0.297672376690882
40
0.30620431442401
40
0.314736252157138
40
0.323268189890266
40
0.340332065356522
40
0.34886400308965
40
0.357395940822778
40
0.365927878555906
40
0.374459816289034
40
0.39152369175529
40
0.400055629488418
40
0.408587567221545
40
0.417119504954673
40
0.425651442687801
40
0.442715318154057
40
0.451247255887185
40
0.459779193620313
40
0.468311131353441
40
0.476843069086569
40
0.493906944552825
40
0.502438882285953
40
0.510970820019081
40
0.519502757752209
40
0.528034695485337
40
0.545098570951593
40
0.553630508684721
40
0.562162446417849
40
0.570694384150977
40
0.579226321884105
40
0.596290197350361
40
0.604822135083489
40
0.613354072816617
40
0.621886010549745
40
0.630417948282873
40
0.647481823749129
40
0.656013761482257
40
0.664545699215385
40
0.681609574681641
40
0.698673450147897
40
0.707205387881024
40
0.715737325614152
40
0.732801201080408
40
0.741333138813536
40
0.749865076546664
40
0.758397014279792
40
0.76692895201292
40
0.775460889746048
40
0.783992827479176
40
0.801056702945432
40
0.818120578411688
40
0.826652516144816
40
0.835184453877944
40
0.843716391611072
40
0.8522483293442
40
0.860780267077328
40
0.869312204810456
40
0.886376080276712
40
0.903439955742968
40
0.920503831209224
40
0.929035768942352
40
0.93756770667548
40
0.946099644408608
40
0.954631582141736
40
0.963163519874864
40
0.971695457607992
40
0.98022739534112
40
0.988759333074248
40
0.997291270807376
40
1
40
1
40
1
40
1
41
1
10
-0.394976888875277
20
17.3601838881574
30
0
41
1
10
-0.394976888875334
20
17.3617494126269
30
0
41
1
10
-0.394976888875277
20
17.3643151424055
30
0
41
1
10
-0.394976888875277
20
17.3658104187982
30
0
41
1
10
-0.394976888875277
20
17.364743357607
30
0
41
1
10
-0.394976888875277
20
17.3611046370287
30
0
41
1
10
-0.394976888875277
20
17.3549392673806
30
0
41
1
10
-0.394976888875277
20
17.3462909837355
30
0
41
1
10
-0.394976888875277
20
17.3352007293143
30
0
41
1
10
-0.394976888875277
20
17.3217086001335
30
0
41
1
10
-0.394976888875277
20
17.3058521283006
30
0
41
1
10
-0.394976888875277
20
17.2876678324761
30
0
41
1
10
-0.394976888875277
20
17.267190526317
30
0
41
1
10
-0.394976888875277
20
17.2444530966284
30
0
41
1
10
-0.394976888875277
20
17.2194882282903
30
0
41
1
10
-0.394976888875277
20
17.1832568130363
30
0
41
1
10
-0.394976888875277
20
17.1427382851614
30
0
41
1
10
-0.394976888875277
20
17.0979462613767
30
0
41
1
10
-0.394976888875277
20
17.0622798138473
30
0
41
1
10
-0.394976888875277
20
17.0245523789023
30
0
41
1
10
-0.394976888875277
20
16.9715145338597
30
0
41
1
10
-0.394976888875277
20
16.9145140859045
30
0
41
1
10
-0.394976888875277
20
16.8535135157982
30
0
41
1
10
-0.394976888875277
20
16.7899145739052
30
0
41
1
10
-0.394976888875277
20
16.7225357594453
30
0
41
1
10
-0.394976888875277
20
16.6513062647865
30
0
41
1
10
-0.394976888875277
20
16.577583428992
30
0
41
1
10
-0.394976888875277
20
16.5002370605308
30
0
41
1
10
-0.394976888875277
20
16.4191737242595
30
0
41
1
10
-0.394976888875277
20
16.3565947837564
30
0
41
1
10
-0.394976888875277
20
16.2922298184193
30
0
41
1
10
-0.394976888875277
20
16.2260943534788
30
0
41
1
10
-0.394976888875277
20
16.1582019227301
30
0
41
1
10
-0.394976888875277
20
16.0885677968918
30
0
41
1
10
-0.394976888875277
20
16.0172057910894
30
0
41
1
10
-0.394976888875277
20
15.9197362080175
30
0
41
1
10
-0.394976888875277
20
15.8189643575456
30
0
41
1
10
-0.394976888875277
20
15.7147364711228
30
0
41
1
10
-0.394976888875277
20
15.6349267495635
30
0
41
1
10
-0.394976888875277
20
15.553463729323
30
0
41
1
10
-0.394976888875277
20
15.4426195996911
30
0
41
1
10
-0.394976888875277
20
15.3286250260664
30
0
41
1
10
-0.394976888875277
20
15.2112966721243
30
0
41
1
10
-0.394976888875277
20
15.1217290697223
30
0
41
1
10
-0.394976888875277
20
15.0305709686995
30
0
41
1
10
-0.394976888875277
20
14.906878048735
30
0
41
1
10
-0.394976888875277
20
14.7801642402503
30
0
41
1
10
-0.394976888875277
20
14.6502180265082
30
0
41
1
10
-0.394976888875277
20
14.5512443698349
30
0
41
1
10
-0.394976888875277
20
14.4507333574048
30
0
41
1
10
-0.394976888875277
20
14.3146351144528
30
0
41
1
10
-0.394976888875277
20
14.1756274353422
30
0
41
1
10
-0.394976888875277
20
14.0334711437704
30
0
41
1
10
-0.394976888875277
20
13.9253889575191
30
0
41
1
10
-0.394976888875277
20
13.8158144643309
30
0
41
1
10
-0.394976888875277
20
13.6676860465324
30
0
41
1
10
-0.394976888875277
20
13.5167448397425
30
0
41
1
10
-0.394976888875277
20
13.3627236430939
30
0
41
1
10
-0.394976888875277
20
13.2457848907918
30
0
41
1
10
-0.394976888875277
20
13.127391952352
30
0
41
1
10
-0.394976888875277
20
12.9675509274721
30
0
41
1
10
-0.394976888875277
20
12.8049814419576
30
0
41
1
10
-0.394976888875277
20
12.6393872212047
30
0
41
1
10
-0.394976888875277
20
12.5138050377602
30
0
41
1
10
-0.394976888875277
20
12.3868007822861
30
0
41
1
10
-0.394976888875277
20
12.2155153079022
30
0
41
1
10
-0.394976888875277
20
12.0415756036957
30
0
41
1
10
-0.394976888875277
20
11.8646543426879
30
0
41
1
10
-0.394976888875277
20
11.6858676336886
30
0
41
1
10
-0.394976888875277
20
11.4590305058839
30
0
41
1
10
-0.394976888875277
20
11.2275701322441
30
0
41
1
10
-0.394976888875277
20
11.0395280715926
30
0
41
1
10
-0.394976888875277
20
10.8496518299165
30
0
41
1
10
-0.394976888875277
20
10.6572262982852
30
0
41
1
10
-0.394976888875277
20
10.4618684218406
30
0
41
1
10
-0.394976888875277
20
10.3140380853821
30
0
41
1
10
-0.394976888875277
20
10.1648479968029
30
0
41
1
10
-0.394976888875277
20
10.0143015620689
30
0
41
1
10
-0.394976888875277
20
9.86240079247779
30
0
41
1
10
-0.394976888875277
20
9.65799297250354
30
0
41
1
10
-0.394976888875277
20
9.3992804435735
30
0
41
1
10
-0.394976888875277
20
9.13609084815204
30
0
41
1
10
-0.394976888875277
20
8.92272120904667
30
0
41
1
10
-0.394976888875277
20
8.76141979935898
30
0
41
1
10
-0.394976888875277
20
8.59878513251641
30
0
41
1
10
-0.394976888875277
20
8.43482033812748
30
0
41
1
10
-0.394976888875277
20
8.26952734508268
30
0
41
1
10
-0.394976888875277
20
8.04728288893983
30
0
41
1
10
-0.394976888875277
20
7.76637137475095
30
0
41
1
10
-0.394976888875277
20
7.42389184310318
30
0
41
1
10
-0.394976888875277
20
7.1342090482905
30
0
41
1
10
-0.394976888875277
20
6.89966739484251
30
0
41
1
10
-0.394976888875277
20
6.7225342898117
30
0
41
1
10
-0.394976888875277
20
6.54409938064705
30
0
41
1
10
-0.394976888875277
20
6.36436626337326
30
0
41
1
10
-0.394976888875277
20
6.18333822517317
30
0
41
1
10
-0.394976888875277
20
6.0010194773844
30
0
41
1
10
-0.394976888875277
20
5.81741425905383
30
0
41
1
10
-0.394976888875277
20
5.63252720020009
30
0
41
1
10
-0.394976888875277
20
5.48871675629277
30
0
41
1
10
-0.394976888875277
20
5.40659331253005
30
0
41
1
10
-0.394976888875277
20
5.38678223324203
30
0
0
SPLINE
5
195
100
AcDbEntity
8
SK1
62
256
6
ByLayer
370
18
48
1
60
0
100
AcDbSpline
70
4
71
3
72
288
73
284
40
0
40
0
40
0
40
0
40
0.0022851203151982
40
0.0057901609011196
40
0.009295201487041
40
0.0128002420729625
40
0.0163052826588839
40
0.0198103232448053
40
0.0233153638307267
40
0.0268204044166482
40
0.0303254450025696
40
0.033830485588491
40
0.0373355261744125
40
0.0408405667603339
40
0.0443456073462553
40
0.0513556885180981
40
0.0548607291040196
40
0.058365769689941
40
0.0618708102758624
40
0.0653758508617838
40
0.0723859320336267
40
0.0758909726195481
40
0.0793960132054696
40
0.0864060943773124
40
0.0899111349632338
40
0.0934161755491552
40
0.100426256720998
40
0.103931297306919
40
0.107436337892841
40
0.110941378478762
40
0.114446419064684
40
0.117951459650605
40
0.121456500236527
40
0.124961540822448
40
0.12846658140837
40
0.135476662580212
40
0.138981703166134
40
0.142486743752055
40
0.145991784337977
40
0.149496824923898
40
0.156506906095741
40
0.160011946681662
40
0.163516987267584
40
0.167022027853505
40
0.170527068439427
40
0.177537149611269
40
0.181042190197191
40
0.184547230783112
40
0.188052271369034
40
0.191557311954955
40
0.198567393126798
40
0.202072433712719
40
0.205577474298641
40
0.209082514884562
40
0.212587555470484
40
0.219597636642327
40
0.223102677228248
40
0.226607717814169
40
0.230112758400091
40
0.233617798986012
40
0.240627880157855
40
0.244132920743776
40
0.247637961329698
40
0.251143001915619
40
0.254648042501541
40
0.261658123673383
40
0.265163164259305
40
0.268668204845226
40
0.275678286017069
40
0.282688367188912
40
0.286193407774833
40
0.289698448360755
40
0.296708529532598
40
0.300213570118519
40
0.303718610704441
40
0.307223651290362
40
0.310728691876283
40
0.314233732462205
40
0.317738773048126
40
0.324748854219969
40
0.331758935391812
40
0.335263975977734
40
0.338769016563655
40
0.342274057149576
40
0.345779097735498
40
0.349284138321419
40
0.352789178907341
40
0.359799260079184
40
0.366809341251026
40
0.373819422422869
40
0.377324463008791
40
0.380829503594712
40
0.384334544180633
40
0.387839584766555
40
0.391344625352476
40
0.394849665938398
40
0.398354706524319
40
0.401859747110241
40
0.405364787696162
40
0.408869828282083
40
0.412374868868005
40
0.415879909453926
40
0.419384950039848
40
0.422889990625769
40
0.42639503121169
40
0.429900071797612
40
0.433405112383533
40
0.435157632676494
40
0.436910152969455
40
0.438662673262415
40
0.440415193555376
40
0.443920234141298
40
0.447425274727219
40
0.44917779502018
40
0.45093031531314
40
0.452682835606101
40
0.454435355899062
40
0.456187876192023
40
0.457940396484983
40
0.461445437070905
40
0.463197957363865
40
0.464950477656826
40
0.466702997949787
40
0.468455518242748
40
0.470208038535708
40
0.471960558828669
40
0.47371307912163
40
0.47546559941459
40
0.477218119707551
40
0.478970640000512
40
0.480723160293473
40
0.482475680586433
40
0.484228200879394
40
0.485980721172355
40
0.487733241465315
40
0.489485761758276
40
0.491238282051237
40
0.492990802344198
40
0.494743322637158
40
0.496495842930119
40
0.49824836322308
40
0.50000088351604
40
0.501753403809001
40
0.503505924101962
40
0.505258444394923
40
0.507010964687883
40
0.508763484980844
40
0.510516005273805
40
0.512268525566765
40
0.514021045859726
40
0.515773566152687
40
0.517526086445647
40
0.519278606738608
40
0.521031127031569
40
0.52278364732453
40
0.52453616761749
40
0.526288687910451
40
0.528041208203412
40
0.529793728496373
40
0.531546248789333
40
0.533298769082294
40
0.535051289375255
40
0.536803809668215
40
0.538556329961176
40
0.540308850254137
40
0.542061370547098
40
0.543813890840058
40
0.545566411133019
40
0.54907145171894
40
0.550823972011901
40
0.552576492304862
40
0.556081532890783
40
0.559586573476705
40
0.561339093769665
40
0.563091614062626
40
0.564844134355587
40
0.566596654648547
40
0.570101695234469
40
0.57360673582039
40
0.577111776406312
40
0.580616816992233
40
0.584121857578154
40
0.587626898164076
40
0.591131938749997
40
0.594636979335919
40
0.59814201992184
40
0.601647060507762
40
0.605152101093683
40
0.608657141679605
40
0.612162182265526
40
0.615667222851447
40
0.619172263437369
40
0.62267730402329
40
0.626182344609212
40
0.633192425781054
40
0.640202506952897
40
0.64721258812474
40
0.650717628710662
40
0.654222669296583
40
0.657727709882504
40
0.661232750468426
40
0.664737791054347
40
0.668242831640269
40
0.675252912812112
40
0.682262993983954
40
0.685768034569876
40
0.689273075155797
40
0.692778115741719
40
0.69628315632764
40
0.699788196913561
40
0.703293237499483
40
0.710303318671326
40
0.713808359257247
40
0.717313399843169
40
0.724323481015012
40
0.731333562186854
40
0.734838602772776
40
0.738343643358697
40
0.74535372453054
40
0.748858765116462
40
0.752363805702383
40
0.755868846288304
40
0.759373886874226
40
0.766383968046069
40
0.76988900863199
40
0.773394049217911
40
0.776899089803833
40
0.780404130389754
40
0.787414211561597
40
0.790919252147519
40
0.79442429273344
40
0.797929333319361
40
0.801434373905283
40
0.808444455077126
40
0.811949495663047
40
0.815454536248968
40
0.81895957683489
40
0.822464617420811
40
0.829474698592654
40
0.832979739178576
40
0.836484779764497
40
0.838237300057458
40
0.839989820350418
40
0.84349486093634
40
0.850504942108183
40
0.854009982694104
40
0.857515023280025
40
0.861020063865947
40
0.864525104451868
40
0.871535185623711
40
0.875040226209633
40
0.878545266795554
40
0.882050307381476
40
0.885555347967397
40
0.889060388553318
40
0.89256542913924
40
0.896070469725161
40
0.899575510311083
40
0.906585591482926
40
0.910090632068847
40
0.913595672654768
40
0.920605753826611
40
0.924110794412533
40
0.927615834998454
40
0.934625916170297
40
0.938130956756218
40
0.94163599734214
40
0.945141037928061
40
0.948646078513983
40
0.955656159685826
40
0.959161200271747
40
0.962666240857668
40
0.96617128144359
40
0.969676322029511
40
0.973181362615433
40
0.976686403201354
40
0.980191443787275
40
0.983696484373197
40
0.987201524959118
40
0.99070656554504
40
0.994211606130961
40
0.997716646716883
40
1
40
1
40
1
40
1
41
1
10
-30
20
15.9926656765899
30
0
41
1
10
-30
20
15.9930575044733
30
0
41
1
10
-29.9999999999999
20
15.9936130011855
30
0
41
1
10
-30
20
15.992743696334
30
0
41
1
10
-30
20
15.9893850921089
30
0
41
1
10
-30
20
15.9836860314146
30
0
41
1
10
-30
20
15.9756808210229
30
0
41
1
10
-30
20
15.9654018084482
30
0
41
1
10
-30
20
15.9528811264941
30
0
41
1
10
-30
20
15.9381491278438
30
0
41
1
10
-30
20
15.9212355486336
30
0
41
1
10
-30
20
15.9021692443495
30
0
41
1
10
-30
20
15.8809772874924
30
0
41
1
10
-30
20
15.85768719628
30
0
41
1
10
-30
20
15.8237020449635
30
0
41
1
10
-30
20
15.786151572388
30
0
41
1
10
-30
20
15.7440467976174
30
0
41
1
10
-30
20
15.7106366986068
30
0
41
1
10
-30
20
15.6752710038507
30
0
41
1
10
-30
20
15.6253102414824
30
0
41
1
10
-30
20
15.5722298833997
30
0
41
1
10
-30
20
15.5146768571488
30
0
41
1
10
-30
20
15.454635155867
30
0
41
1
10
-30
20
15.3917322415494
30
0
41
1
10
-30
20
15.3243986601424
30
0
41
1
10
-30
20
15.2546726017927
30
0
41
1
10
-30
20
15.1823145630236
30
0
41
1
10
-30
20
15.1055630554725
30
0
41
1
10
-30
20
15.0465122402176
30
0
41
1
10
-30
20
14.9857535165871
30
0
41
1
10
-30
20
14.9233034368069
30
0
41
1
10
-30
20
14.8591738020486
30
0
41
1
10
-30
20
14.7933781380804
30
0
41
1
10
-30
20
14.7259318150055
30
0
41
1
10
-30
20
14.6334478809414
30
0
41
1
10
-30
20
14.5388306139923
30
0
41
1
10
-30
20
14.4398724968666
30
0
41
1
10
-30
20
14.3643499358608
30
0
41
1
10
-30
20
14.2872489988172
30
0
41
1
10
-30
20
14.1819460940194
30
0
41
1
10
-30
20
14.0747689624993
30
0
41
1
10
-30
20
13.9632604256822
30
0
41
1
10
-30
20
13.8784200007502
30
0
41
1
10
-30
20
13.7920640526129
30
0
41
1
10
-30
20
13.674463030797
30
0
41
1
10
-30
20
13.5552283874056
30
0
41
1
10
-30
20
13.4316550911985
30
0
41
1
10
-30
20
13.3378530670951
30
0
41
1
10
-30
20
13.2425907988595
30
0
41
1
10
-30
20
13.1131460860381
30
0
41
1
10
-30
20
12.9822967545724
30
0
41
1
10
-30
20
12.847084683004
30
0
41
1
10
-30
20
12.7446351532221
30
0
41
1
10
-30
20
12.6407746180399
30
0
41
1
10
-30
20
12.499887311655
30
0
41
1
10
-30
20
12.3578191289812
30
0
41
1
10
-30
20
12.2113468162578
30
0
41
1
10
-30
20
12.100530667573
30
0
41
1
10
-30
20
11.9883478761208
30
0
41
1
10
-30
20
11.836377249174
30
0
41
1
10
-30
20
11.6834503922585
30
0
41
1
10
-30
20
11.5260594948949
30
0
41
1
10
-30
20
11.407132436675
30
0
41
1
10
-30
20
11.2868794886981
30
0
41
1
10
-30
20
11.1241532157818
30
0
41
1
10
-30
20
10.9607029988619
30
0
41
1
10
-30
20
10.7927086404326
30
0
41
1
10
-30
20
10.6229844866849
30
0
41
1
10
-30
20
10.4091173939315
30
0
41
1
10
-30
20
10.1909959678347
30
0
41
1
10
-30
20
10.0126979588287
30
0
41
1
10
-30
20
9.83272430289387
30
0
41
1
10
-30
20
9.65245023276202
30
0
41
1
10
-30
20
9.46744871362012
30
0
41
1
10
-30
20
9.32804093460695
30
0
41
1
10
-30
20
9.18740563851227
30
0
41
1
10
-30
20
9.04555437859216
30
0
41
1
10
-30
20
8.90249044231985
30
0
41
1
10
-30
20
8.70931958714525
30
0
41
1
10
-30
20
8.46674616603485
30
0
41
1
10
-30
20
8.2202168629417
30
0
41
1
10
-30
20
8.0190683664558
30
0
41
1
10
-30
20
7.86773085832672
30
0
41
1
10
-30
20
7.71524241280145
30
0
41
1
10
-30
20
7.56161298420648
30
0
41
1
10
-30
20
7.40685260452801
30
0
41
1
10
-30
20
7.19804202206527
30
0
41
1
10
-30
20
6.93651252502838
30
0
41
1
10
-30
20
6.61705894701075
30
0
41
1
10
-30
20
6.34834996432818
30
0
41
1
10
-30
20
6.12929373929518
30
0
41
1
10
-30
20
5.9648494511537
30
0
41
1
10
-30
20
5.79939743818983
30
0
41
1
10
-30
20
5.63295542814626
30
0
41
1
10
-30
20
5.4655408318975
30
0
41
1
10
-30
20
5.297173357275
30
0
41
1
10
-30
20
5.1278759130733
30
0
41
1
10
-30
20
4.95767063849863
30
0
41
1
10
-30
20
4.78658071628465
30
0
41
1
10
-30
20
4.61463355062486
30
0
41
1
10
-30
20
4.44186113006072
30
0
41
1
10
-30
20
4.26829321973952
30
0
41
1
10
-30
20
4.09396155182324
30
0
41
1
10
-30
20
3.91890592173871
30
0
41
1
10
-30
20
3.74316620306939
30
0
41
1
10
-30
20
3.56678705857652
30
0
41
1
10
-30
20
3.42015123791839
30
0
41
1
10
-30
20
3.30098109847953
30
0
41
1
10
-30
20
3.21216327477836
30
0
41
1
10
-30
20
3.12322377081895
30
0
41
1
10
-30
20
3.00356413190354
30
0
41
1
10
-30
20
2.85589664233004
30
0
41
1
10
-30
20
2.70788037697059
30
0
41
1
10
-30
20
2.58749550859636
30
0
41
1
10
-30
20
2.49793822974368
30
0
41
1
10
-30
20
2.40833000131909
30
0
41
1
10
-30
20
2.31867596083529
30
0
41
1
10
-30
20
2.22899146909504
30
0
41
1
10
-30
20
2.10827328924759
30
0
41
1
10
-30
20
1.99097459417123
30
0
41
1
10
-30
20
1.8701246771499
30
0
41
1
10
-30
20
1.7804303168304
30
0
41
1
10
-30
20
1.69076251244056
30
0
41
1
10
-30
20
1.60113247848608
30
0
41
1
10
-30
20
1.51155313609786
30
0
41
1
10
-30
20
1.42202575772706
30
0
41
1
10
-30
20
1.33256776537962
30
0
41
1
10
-30
20
1.2431774150908
30
0
41
1
10
-30
20
1.15386860885195
30
0
41
1
10
-30
20
1.0646401367365
30
0
41
1
10
-30
20
0.975500136218301
30
0
41
1
10
-30
20
0.886447988926875
30
0
41
1
10
-30
20
0.797485776681185
30
0
41
1
10
-30
20
0.708610852102652
30
0
41
1
10
-30
20
0.619820737442808
30
0
41
1
10
-30
20
0.531109764951282
30
0
41
1
10
-30
20
0.442471434007672
30
0
41
1
10
-30
20
0.353896007963499
30
0
41
1
10
-30
20
0.26537387921428
30
0
41
1
10
-30
20
0.17689237169219
30
0
41
1
10
-30
20
0.0884392148654172
30
0
41
1
10
-30
20
2.04974242E-08
30
0
41
1
10
-30
20
-0.0884392031952359
30
0
41
1
10
-30
20
-0.176892414719902
30
0
41
1
10
-30
20
-0.265373915570109
30
0
41
1
10
-30
20
-0.353895962579457
30
0
41
1
10
-30
20
-0.442471374506795
30
0
41
1
10
-30
20
-0.531109813902617
30
0
41
1
10
-30
20
-0.619820822982092
30
0
41
1
10
-30
20
-0.708610806550041
30
0
41
1
10
-30
20
-0.797485667180126
30
0
41
1
10
-30
20
-0.886448026006804
30
0
41
1
10
-30
20
-0.975500272783734
30
0
41
1
10
-30
20
-1.06464012636246
30
0
41
1
10
-30
20
-1.15386845800864
30
0
41
1
10
-30
20
-1.24317738635403
30
0
41
1
10
-30
20
-1.33256791795023
30
0
41
1
10
-30
20
-1.42202585063242
30
0
41
1
10
-30
20
-1.51155302070467
30
0
41
1
10
-30
20
-1.60113232466111
30
0
41
1
10
-30
20
-1.69076256252151
30
0
41
1
10
-30
20
-1.78043050963586
30
0
41
1
10
-30
20
-1.87012473193454
30
0
41
1
10
-30
20
-1.95984062320619
30
0
41
1
10
-30
20
-2.04956121840732
30
0
41
1
10
-30
20
-2.13928298465066
30
0
41
1
10
-30
20
-2.22899154181982
30
0
41
1
10
-30
20
-2.34971237639809
30
0
41
1
10
-30
20
-2.46705810448157
30
0
41
1
10
-30
20
-2.58749567267537
30
0
41
1
10
-30
20
-2.7078805675516
30
0
41
1
10
-30
20
-2.85589666602095
30
0
41
1
10
-30
20
-3.003563949209
30
0
41
1
10
-30
20
-3.12322374659232
30
0
41
1
10
-30
20
-3.21216341650839
30
0
41
1
10
-30
20
-3.30098129392067
30
0
41
1
10
-30
20
-3.42015124315614
30
0
41
1
10
-30
20
-3.56678672363674
30
0
41
1
10
-30
20
-3.74316585626096
30
0
41
1
10
-30
20
-3.91890584757371
30
0
41
1
10
-30
20
-4.09396100129442
30
0
41
1
10
-30
20
-4.26829259541549
30
0
41
1
10
-30
20
-4.44186183082064
30
0
41
1
10
-30
20
-4.6146341491438
30
0
41
1
10
-30
20
-4.7865802102549
30
0
41
1
10
-30
20
-4.9576712305628
30
0
41
1
10
-30
20
-5.12787786255657
30
0
41
1
10
-30
20
-5.29717415068041
30
0
41
1
10
-30
20
-5.46553992297873
30
0
41
1
10
-30
20
-5.63295448869488
30
0
41
1
10
-30
20
-5.79939725011724
30
0
41
1
10
-30
20
-5.96484950556558
30
0
41
1
10
-30
20
-6.12929365354827
30
0
41
1
10
-30
20
-6.34834993475849
30
0
41
1
10
-30
20
-6.61705901965067
30
0
41
1
10
-30
20
-6.93651248001376
30
0
41
1
10
-30
20
-7.19804203228605
30
0
41
1
10
-30
20
-7.40685270744592
30
0
41
1
10
-30
20
-7.5616129798685
30
0
41
1
10
-30
20
-7.71524232371229
30
0
41
1
10
-30
20
-7.86773082006809
30
0
41
1
10
-30
20
-8.01906843480589
30
0
41
1
10
-30
20
-8.22021692135613
30
0
41
1
10
-30
20
-8.46674612315104
30
0
41
1
10
-30
20
-8.70931957903707
30
0
41
1
10
-30
20
-8.90249052457435
30
0
41
1
10
-30
20
-9.04555441784279
30
0
41
1
10
-30
20
-9.1874056059394
30
0
41
1
10
-30
20
-9.32804088163149
30
0
41
1
10
-30
20
-9.46744870809559
30
0
41
1
10
-30
20
-9.65245029192153
30
0
41
1
10
-30
20
-9.83272433616028
30
0
41
1
10
-30
20
-10.0126979221092
30
0
41
1
10
-30
20
-10.1909959517429
30
0
41
1
10
-30
20
-10.4091174330404
30
0
41
1
10
-30
20
-10.622984509075
30
0
41
1
10
-30
20
-10.7927086151922
30
0
41
1
10
-30
20
-10.9607029915804
30
0
41
1
10
-30
20
-11.1241532476502
30
0
41
1
10
-30
20
-11.286879520772
30
0
41
1
10
-30
20
-11.4071324437642
30
0
41
1
10
-30
20
-11.526059483736
30
0
41
1
10
-30
20
-11.6834503898541
30
0
41
1
10
-30
20
-11.8363772717574
30
0
41
1
10
-30
20
-11.9883479026382
30
0
41
1
10
-30
20
-12.100530681097
30
0
41
1
10
-30
20
-12.2113468177929
30
0
41
1
10
-30
20
-12.3578191303264
30
0
41
1
10
-30
20
-12.4998873251013
30
0
41
1
10
-30
20
-12.640774639564
30
0
41
1
10
-30
20
-12.7446351726737
30
0
41
1
10
-30
20
-12.8470846962098
30
0
41
1
10
-30
20
-12.982296760346
30
0
41
1
10
-30
20
-13.1131460918651
30
0
41
1
10
-30
20
-13.2425908150843
30
0
41
1
10
-30
20
-13.3378530905646
30
0
41
1
10
-30
20
-13.4316551022429
30
0
41
1
10
-30
20
-13.555228443938
30
0
41
1
10
-30
20
-13.6744629632361
30
0
41
1
10
-30
20
-13.7920640428986
30
0
41
1
10
-30
20
-13.863808410054
30
0
41
1
10
-30
20
-13.9208384799595
30
0
41
1
10
-30
20
-13.9773600368973
30
0
41
1
10
-30
20
-14.0747689786766
30
0
41
1
10
-30
20
-14.1819460903517
30
0
41
1
10
-30
20
-14.287249006353
30
0
41
1
10
-30
20
-14.3643499644422
30
0
41
1
10
-30
20
-14.4398725346097
30
0
41
1
10
-30
20
-14.5388306330264
30
0
41
1
10
-30
20
-14.6334478734244
30
0
41
1
10
-30
20
-14.7259318226356
30
0
41
1
10
-30
20
-14.7933781715369
30
0
41
1
10
-30
20
-14.8591738437124
30
0
41
1
10
-30
20
-14.9233034607296
30
0
41
1
10
-30
20
-14.9857535133678
30
0
41
1
10
-30
20
-15.0465122321639
30
0
41
1
10
-30
20
-15.1055630695375
30
0
41
1
10
-30
20
-15.1823146060512
30
0
41
1
10
-30
20
-15.2546726312332
30
0
41
1
10
-30
20
-15.3243986497296
30
0
41
1
10
-30
20
-15.3917322452795
30
0
41
1
10
-30
20
-15.4546352005829
30
0
41
1
10
-30
20
-15.514676887791
30
0
41
1
10
-30
20
-15.5722298782127
30
0
41
1
10
-30
20
-15.6253102421943
30
0
41
1
10
-30
20
-15.6752710489662
30
0
41
1
10
-30
20
-15.7106367362117
30
0
41
1
10
-30
20
-15.7440468008704
30
0
41
1
10
-30
20
-15.7861515665345
30
0
41
1
10
-30
20
-15.8237020814765
30
0
41
1
10
-30
20
-15.8576872273509
30
0
41
1
10
-30
20
-15.8809772969169
30
0
41
1
10
-30
20
-15.9021692417172
30
0
41
1
10
-30
20
-15.921235563756
30
0
41
1
10
-30
20
-15.9381491696965
30
0
41
1
10
-30
20
-15.9528811556007
30
0
41
1
10
-30
20
-15.9654018081648
30
0
41
1
10
-30
20
-15.9756808201301
30
0
41
1
10
-30
20
-15.9836860510364
30
0
41
1
10
-30
20
-15.989385071505
30
0
41
1
10
-30
20
-15.992743547039
30
0
41
1
10
-30
20
-15.993612629471
30
0
41
1
10
-30
20
-15.9930576905212
30
0
41
1
10
-30
20
-15.9926664631242
30
0
0
SPLINE
5
196
100
AcDbEntity
8
1
62
256
6
ByLayer
370
18
48
1
60
0
100
AcDbSpline
70
4
71
3
72
8
73
4
40
0
40
0
40
0
40
0
40
1
40
1
40
1
40
1
41
1
10
17.4303191742212
20
-9.59305529103452
30
0
41
1
10
17.4387366965278
20
-9.39984591774791
30
0
41
1
10
17.4487055135922
20
-9.19753002275883
30
0
41
1
10
17.458243467476
20
-8.99011485220629
30
0
0
SPLINE
5
197
100
AcDbEntity
8
1
62
256
6
ByLayer
370
18
48
1
60
0
100
AcDbSpline
70
4
71
2
72
8
73
5
40
0
40
0
40
0
40
0.513016418671537
40
0.769524628007305
40
1
40
1
40
1
41
1.02613459695995
10
33.5328081549335
20
15.8491477914787
30
0
41
1.02613459695995
10
32.5951390476119
20
15.6953382863273
30
0
41
1.02613459695995
10
31.2258618499203
20
16.1875462785822
30
0
41
1.02613459695995
10
30.4067492165406
20
16.7425425388923
30
0
41
1.02613459695995
10
30.0621420524043
20
17.0931373907778
30
0
0
SPLINE
5
198
100
AcDbEntity
8
1
62
256
6
ByLayer
370
18
48
1
60
0
100
AcDbSpline
70
4
71
3
72
12
73
8
40
0
40
0
40
0
40
0
40
0.761200494801647
40
0.761200494801647
40
0.993628357072295
40
0.993628357072295
40
1
40
1
40
1
40
1
41
1
10
25.5762448610871
20
30.8566878951277
30
0
41
1
10
25.9481686819006
20
30.8892270131289
30
0
41
1
10
26.3232246390567
20
30.9220401575525
30
0
41
1
10
26.9088726065594
20
30.973277715502
30
0
41
1
10
27.0615103544731
20
30.9866317880642
30
0
41
1
10
27.2322435162332
20
31.0015690041992
30
0
41
1
10
27.2368251139974
20
31.0019698420642
30
0
41
1
10
27.2414171733783
20
31.0023715952021
30
0
0
SPLINE
5
199
100
AcDbEntity
8
1
62
256
6
ByLayer
370
18
48
1
60
0
100
AcDbSpline
70
4
71
3
72
12
73
8
40
0
40
0
40
0
40
0
40
0.392678099449897
40
0.392678099449897
40
0.791279335966105
40
0.791279335966105
40
1
40
1
40
1
40
1
41
1
10
38.4054255680935
20
24.9419021159249
30
0
41
1
10
38.3863543026409
20
24.9428693539811
30
0
41
1
10
38.3661176238033
20
24.9429396857035
30
0
41
1
10
38.3259730973136
20
24.9408438907764
30
0
41
1
10
38.3055888160726
20
24.9386019216422
30
0
41
1
10
38.276956935852
20
24.9337878950343
30
0
41
1
10
38.2673714506866
20
24.931859583935
30
0
41
1
10
38.2582497032035
20
24.9297403479307
30
0
0
SPLINE
5
19A
100
AcDbEntity
8
1
62
256
6
ByLayer
370
18
48
1
60
0
100
AcDbSpline
70
4
71
3
72
12
73
8
40
0
40
0
40
0
40
0
40
0.392678099452531
40
0.392678099452531
40
0.791279335968769
40
0.791279335968769
40
1
40
1
40
1
40
1
41
1
10
38.0434690849609
20
27.2557434893932
30
0
41
1
10
38.0610497317403
20
27.2532856326637
30
0
41
1
10
38.0802551763203
20
27.2521840666836
30
0
41
1
10
38.1196771475796
20
27.2535573063801
30
0
41
1
10
38.1403926415968
20
27.2561304882907
30
0
41
1
10
38.1704683931384
20
27.2623883862197
30
0
41
1
10
38.180722868692
20
27.2649856877072
30
0
41
1
10
38.1906449498509
20
27.2679052573875
30
0
0
SPLINE
5
19B
100
AcDbEntity
8
1
62
256
6
ByLayer
370
18
48
1
60
0
100
AcDbSpline
70
4
71
3
72
14
73
10
40
0
40
0
40
0
40
0
40
0.164525200330955
40
0.164525200330955
40
0.540804984924846
40
0.540804984924846
40
0.917041398719713
40
0.917041398719713
40
1
40
1
40
1
40
1
41
1
10
37.3144986275354
20
25.3734217650164
30
0
41
1
10
37.3108847623581
20
25.3801471634849
30
0
41
1
10
37.3070376724333
20
25.3869948714943
30
0
41
1
10
37.2937366903229
20
25.4095961440128
30
0
41
1
10
37.2831567847336
20
25.4258908208618
30
0
41
1
10
37.2608396764109
20
25.4569993925084
30
0
41
1
10
37.2488566547327
20
25.4721634809616
30
0
41
1
10
37.234391361627
20
25.4889692551081
30
0
41
1
10
37.2317590836542
20
25.4919687695724
30
0
41
1
10
37.2291312833988
20
25.4949080182228
30
0
0
SPLINE
5
19C
100
AcDbEntity
8
1
62
256
6
ByLayer
370
18
48
1
60
0
100
AcDbSpline
70
4
71
3
72
14
73
10
40
0
40
0
40
0
40
0
40
0.0829586012803263
40
0.0829586012803263
40
0.459195015075141
40
0.459195015075141
40
0.835474799669042
40
0.835474799669042
40
1
40
1
40
1
40
1
41
1
10
37.1335203859677
20
26.5303424517498
30
0
41
1
10
37.1355963778496
20
26.533379105492
30
0
41
1
10
37.1376639837218
20
26.5364948033346
30
0
41
1
10
37.1489565227526
20
26.5540489076804
30
0
41
1
10
37.1580426168217
20
26.5702575882155
30
0
41
1
10
37.1743421229071
20
26.6043176608467
30
0
41
1
10
37.1817334072536
20
26.6225546986765
30
0
41
1
10
37.1905673701479
20
26.6483297685603
30
0
41
1
10
37.1930551797664
20
26.6562026172216
30
0
41
1
10
37.1953289067239
20
26.6639904729506
30
0
0
SPLINE
5
19D
100
AcDbEntity
8
1
62
256
6
ByLayer
370
18
48
1
60
0
100
AcDbSpline
70
4
71
3
72
14
73
10
40
0
40
0
40
0
40
0
40
0.08295860128024
40
0.08295860128024
40
0.459195015075154
40
0.459195015075154
40
0.835474799669116
40
0.835474799669116
40
1
40
1
40
1
40
1
41
1
10
39.3153742670863
20
25.6673031535679
30
0
41
1
10
39.3129807472499
20
25.6639489718711
30
0
41
1
10
39.3106164352656
20
25.6605365679166
30
0
41
1
10
39.297819426414
20
25.6414779937499
30
0
41
1
10
39.2879741601043
20
25.6245101409743
30
0
41
1
10
39.2714135213237
20
25.5901889356478
30
0
41
1
10
39.2645207568816
20
25.5724504177225
30
0
41
1
10
39.2571526135653
20
25.5481411674166
30
0
41
1
10
39.2552116533888
20
25.5408151681973
30
0
41
1
10
39.2535657463299
20
25.533655132367
30
0
0
SPLINE
5
19E
100
AcDbEntity
8
1
62
256
6
ByLayer
370
18
48
1
60
0
100
AcDbSpline
70
4
71
3
72
14
73
10
40
0
40
0
40
0
40
0
40
0.164525200330944
40
0.164525200330944
40
0.540804984924836
40
0.540804984924836
40
0.917041398719715
40
0.917041398719715
40
1
40
1
40
1
40
1
41
1
10
39.1343960255185
20
26.8242238403012
30
0
41
1
10
39.1373820707971
20
26.8168706219341
30
0
41
1
10
39.1406823112799
20
26.8094760644825
30
0
41
1
10
39.1525174738123
20
26.7854089723862
30
0
41
1
10
39.1625988594972
20
26.7686157756327
30
0
41
1
10
39.1851771005151
20
26.7377683366813
30
0
41
1
10
39.1979192944339
20
26.7233634204688
30
0
41
1
10
39.2138890573604
20
26.7080621161431
30
0
41
1
10
39.2168180414453
20
26.7053593077907
30
0
41
1
10
39.2197633696553
20
26.702737587095
30
0
0
SPLINE
5
19F
100
AcDbEntity
8
1
62
256
6
ByLayer
370
18
48
1
60
0
100
AcDbSpline
70
4
71
3
72
8
73
4
40
0
40
0
40
0
40
0
40
1
40
1
40
1
40
1
41
1
10
37.5725947950024
20
21.8316883795213
30
0
41
1
10
36.6629674960166
20
21.7565220050633
30
0
41
1
10
35.7429990507977
20
22.0245440549517
30
0
41
1
10
35.0126238222732
20
22.5538012263623
30
0
0
SPLINE
5
1A0
100
AcDbEntity
8
1
62
256
6
ByLayer
370
18
48
1
60
0
100
AcDbSpline
70
4
71
3
72
12
73
8
40
0
40
0
40
0
40
0
40
0.500000000000001
40
0.500000000000001
40
0.750000000000001
40
0.750000000000001
40
1
40
1
40
1
40
1
41
1
10
31.9657742403781
20
20.6748370351443
30
0
41
1
10
31.8459365471937
20
20.7573957611353
30
0
41
1
10
31.72928245727
20
20.8404087714723
30
0
41
1
10
31.5592032441547
20
20.966072023434
30
0
41
1
10
31.5032998122208
20
21.0080721277893
30
0
41
1
10
31.39379587619
20
21.0935687073903
30
0
41
1
10
31.3081767875416
20
21.1162714699323
30
0
41
1
10
31.3005426006858
20
21.1989471915919
30
0
0
SPLINE
5
1A1
100
AcDbEntity
8
1
62
256
6
ByLayer
370
18
48
1
60
0
100
AcDbSpline
70
4
71
3
72
8
73
4
40
0
40
0
40
0
40
0
40
1
40
1
40
1
40
1
41
1
10
39.9031497390558
20
32.9146095914988
30
0
41
1
10
39.6867076020783
20
32.9008014462306
30
0
41
1
10
39.4706826794457
20
32.8871619592514
30
0
41
1
10
39.2558392399935
20
32.8739497992196
30
0
0
SPLINE
5
1A2
100
AcDbEntity
8
1
62
256
6
ByLayer
370
18
48
1
60
0
100
AcDbSpline
70
4
71
3
72
16
73
12
40
0
40
0
40
0
40
0
40
0.25
40
0.25
40
0.5
40
0.5
40
0.749999999999999
40
0.749999999999999
40
0.875
40
0.875
40
1
40
1
40
1
40
1
41
1
10
54.1118934292916
20
29.008179848113
30
0
41
1
10
52.997924059844
20
29.2195897008624
30
0
41
1
10
51.8399366517846
20
29.4582492016311
30
0
41
1
10
49.3433930037468
20
30.0473504921621
30
0
41
1
10
48.0861995587597
20
30.3456462801111
30
0
41
1
10
45.5436985868307
20
30.9748985184228
30
0
41
1
10
44.2012782905089
20
31.333518202316
30
0
41
1
10
42.3178510008545
20
31.9277592718712
30
0
41
1
10
41.7128242200219
20
32.1357350941259
30
0
41
1
10
40.6702539875889
20
32.5417820721857
30
0
41
1
10
40.2437040574969
20
32.73591914338
30
0
41
1
10
39.9031497390513
20
32.9146095914983
30
0
0
SPLINE
5
1A3
100
AcDbEntity
8
1
62
256
6
ByLayer
370
18
48
1
60
0
100
AcDbSpline
70
4
71
3
72
8
73
4
40
0
40
0
40
0
40
0
40
1
40
1
40
1
40
1
41
1
10
38.8479244194529
20
30.231587296949
30
0
41
1
10
39.2396606294167
20
30.2639581269359
30
0
41
1
10
39.6280538274097
20
30.2439379429058
30
0
41
1
10
40.0133093303211
20
30.1757783984309
30
0
0
SPLINE
5
1A4
100
AcDbEntity
8
1
62
256
6
ByLayer
370
18
48
1
60
0
100
AcDbSpline
70
4
71
3
72
13
73
9
40
0
40
0
40
0
40
0
40
0.250661764437225
40
0.250661764437225
40
0.250661764437225
40
0.653096502165463
40
0.653096502165463
40
1
40
1
40
1
40
1
41
1
10
43.2448957450557
20
24.7897352317041
30
0
41
1
10
43.3374398809192
20
25.0639733672253
30
0
41
1
10
43.4011786743706
20
25.3502789162697
30
0
41
1
10
43.4342238911232
20
25.6392067922956
30
0
41
1
10
43.4868188022156
20
26.0990656597818
30
0
41
1
10
43.4616107307391
20
26.5761738412161
30
0
41
1
10
43.2736201627187
20
27.4246281106967
30
0
41
1
10
43.1282640646095
20
27.8104350123357
30
0
41
1
10
42.9333071589407
20
28.1641366841151
30
0
0
SPLINE
5
1A5
100
AcDbEntity
8
1
62
256
6
ByLayer
370
18
48
1
60
0
100
AcDbSpline
70
4
71
3
72
12
73
8
40
0
40
0
40
0
40
0
40
0.2527496201422
40
0.2527496201422
40
0.674711209428767
40
0.674711209428767
40
1
40
1
40
1
40
1
41
1
10
27.4229814259988
20
17.8683222117897
30
0
41
1
10
27.4872125464906
20
17.7881479971678
30
0
41
1
10
27.5596788132306
20
17.7099923709251
30
0
41
1
10
27.7738796497805
20
17.5130279849668
30
0
41
1
10
27.9328030952007
20
17.3997707202008
30
0
41
1
10
28.2469278321609
20
17.2378640022808
30
0
41
1
10
28.3978057502535
20
17.1790470296799
30
0
41
1
10
28.5531236427471
20
17.1367611643945
30
0
0
SPLINE
5
1A6
100
AcDbEntity
8
1
62
256
6
ByLayer
370
18
48
1
60
0
100
AcDbSpline
70
4
71
3
72
16
73
12
40
0
40
0
40
0
40
0
40
0.0076436986798962
40
0.0076436986798962
40
0.0409116539642707
40
0.0409116539642707
40
0.185161591066357
40
0.185161591066357
40
0.76103989734915
40
0.76103989734915
40
1
40
1
40
1
40
1
41
1
10
26.7714768014952
20
19.9853287802228
30
0
41
1
10
26.7718041891531
20
19.981783280042
30
0
41
1
10
26.772094704783
20
19.9782118352159
30
0
41
1
10
26.773442206078
20
19.9592440458176
30
0
41
1
10
26.7738444369096
20
19.94386163227
30
0
41
1
10
26.7748095616949
20
19.8656828372314
30
0
41
1
10
26.7736434574604
20
19.807454488361
30
0
41
1
10
26.7785011736327
20
19.5154408872935
30
0
41
1
10
26.8041008135673
20
19.2868978799837
30
0
41
1
10
26.8766463919731
20
18.9712025789106
30
0
41
1
10
26.9023880869069
20
18.879309260683
30
0
41
1
10
26.9327426158304
20
18.7887871094091
30
0
0
SPLINE
5
1A7
100
AcDbEntity
8
1
62
256
6
ByLayer
370
18
48
1
60
0
100
AcDbSpline
70
4
71
3
72
11
73
7
40
0
40
0
40
0
40
0
40
0.379738014043153
40
0.569607021064729
40
0.759476028086306
40
1
40
1
40
1
40
1
41
1.02830968163241
10
39.5206971103132
20
32.3338752695842
30
0
41
1.02566133279165
10
42.0387801253052
20
31.8819717195927
30
0
41
1.02050308371814
10
45.2875379762574
20
30.9760235972899
30
0
41
1.01332460673153
10
50.4415079614822
20
28.7580891537966
30
0
41
1.0120630214142
10
52.4730458285485
20
28.7753539419002
30
0
41
1.00944729087556
10
54.2869190906345
20
28.2002255230649
30
0
41
1.00885690313847
10
55.074927173279
20
28.0190983715741
30
0
0
SPLINE
5
1A8
100
AcDbEntity
8
1
62
256
6
ByLayer
370
18
48
1
60
0
100
AcDbSpline
70
4
71
3
72
8
73
4
40
0
40
0
40
0
40
0
40
1
40
1
40
1
40
1
41
1
10
54.7402706465383
20
28.4144171349897
30
0
41
1
10
54.8677041610669
20
28.2921481394759
30
0
41
1
10
54.9809207548016
20
28.157130284893
30
0
41
1
10
55.0749271809785
20
28.0190983698043
30
0
0
SPLINE
5
1A9
100
AcDbEntity
8
1
62
256
6
ByLayer
370
18
48
1
60
0
100
AcDbSpline
70
4
71
3
72
8
73
4
40
0
40
0
40
0
40
0
40
1
40
1
40
1
40
1
41
1
10
29.6792424745925
20
17.0790715432592
30
0
41
1
10
29.5268678705901
20
17.0592816058918
30
0
41
1
10
29.3727959740354
20
17.0489628539228
30
0
41
1
10
29.2171512213445
20
17.0492047925545
30
0
0
SPLINE
5
1AA
100
AcDbEntity
8
1
62
256
6
ByLayer
370
18
48
1
60
0
100
AcDbSpline
70
4
71
3
72
8
73
4
40
0
40
0
40
0
40
0
40
1
40
1
40
1
40
1
41
1
10
54.492154678761
20
24.8900761380424
30
0
41
1
10
54.6608008115663
20
25.1287364741977
30
0
41
1
10
54.8302185043562
20
25.3689557323935
30
0
41
1
10
54.9992806400262
20
25.6094244710695
30
0
0
SPLINE
5
1AB
100
AcDbEntity
8
1
62
256
6
ByLayer
370
18
48
1
60
0
100
AcDbSpline
70
4
71
2
72
6
73
3
40
0
40
0
40
0
40
1
40
1
40
1
41
1.0087712828333
10
55.3570073517961
20
26.3638267254373
30
0
41
1.0087712828333
10
55.2929019852541
20
27.0580666674829
30
0
41
1.0087712828333
10
55.2287966187121
20
27.7523066095285
30
0
0
SPLINE
5
1AC
100
AcDbEntity
8
1
62
256
6
ByLayer
370
18
48
1
60
0
100
AcDbSpline
70
4
71
2
72
6
73
3
40
0
40
0
40
0
40
1
40
1
40
1
41
0.941103849192081
10
40.7441521718884
20
22.2609918797285
30
0
41
0.915286811754989
10
40.8185645377416
20
20.427792779773
30
0
41
1.02830968163241
10
40.6996858691271
20
19.5658164978543
30
0
0
SPLINE
5
1AD
100
AcDbEntity
8
1
62
256
6
ByLayer
370
18
48
1
60
0
100
AcDbSpline
70
4
71
3
72
11
73
7
40
0
40
0
40
0
40
0
40
0.268536746003808
40
0.487975722202665
40
0.707414698401523
40
1
40
1
40
1
40
1
41
1.0249090909279
10
42.9333071066561
20
28.1641366814822
30
0
41
1.0229768070834
10
44.2846610335279
20
28.2321879458589
30
0
41
1.0191099966158
10
46.6510820049448
20
28.2997015066502
30
0
41
1.01332460673153
10
50.5286568256387
20
28.0903953290236
30
0
41
1.01203732298747
10
52.6176591969637
20
28.0781768562968
30
0
41
1.00929221524307
10
54.4282800999463
20
27.8926309250882
30
0
41
1.0087712828333
10
55.2287966187121
20
27.7523066095285
30
0
0
SPLINE
5
1AE
100
AcDbEntity
8
1
62
256
6
ByLayer
370
18
48
1
60
0
100
AcDbSpline
70
4
71
3
72
11
73
7
40
0
40
0
40
0
40
0
40
0.268536746558077
40
0.487975722590654
40
0.707414698623231
40
1
40
1
40
1
40
1
41
1.02490909094425
10
43.2448956816293
20
24.7897352254836
30
0
41
1.02297680709541
10
44.5903487980546
20
24.9216903623536
30
0
41
1.019109996622
10
46.9399257072495
20
25.1716195874796
30
0
41
1.01332460673153
10
50.7433795829383
20
25.7650188024577
30
0
41
1.01203732298747
10
52.8164511013947
20
25.9253262034569
30
0
41
1.00929221524307
10
54.5839818126913
20
26.2064328130532
30
0
41
1.0087712828333
10
55.3570073517961
20
26.3638267254373
30
0
0
SPLINE
5
1AF
100
AcDbEntity
8
1
62
256
6
ByLayer
370
18
48
1
60
0
100
AcDbSpline
70
4
71
3
72
10
73
6
40
0
40
0
40
0
40
0
40
0.325288492889665
40
0.325288492889665
40
1
40
1
40
1
40
1
41
1
10
25.9580696308423
20
29.3441735475862
30
0
41
1
10
25.9757635898013
20
29.4467460275037
30
0
41
1
10
25.9988722264537
20
29.545649190309
30
0
41
1
10
26.087266599465
20
29.8393643007092
30
0
41
1
10
26.171826285891
20
30.025888931697
30
0
41
1
10
26.28438021481
20
30.1989971852077
30
0
0
SPLINE
5
1B0
100
AcDbEntity
8
1
62
256
6
ByLayer
370
18
48
1
60
0
100
AcDbSpline
70
4
71
3
72
12
73
8
40
0
40
0
40
0
40
0
40
0.418782075282772
40
0.418782075282772
40
0.706182120811188
40
0.706182120811188
40
1
40
1
40
1
40
1
41
1
10
55.0749271809785
20
28.0190983698043
30
0
41
1
10
55.0972257085377
20
27.9859493480284
30
0
41
1
10
55.119003521403
20
27.9501135516848
30
0
41
1
10
55.1531083180197
20
27.8880168133647
30
0
41
1
10
55.1663981681349
20
27.8620289163401
30
0
41
1
10
55.1916026109512
20
27.8090394788519
30
0
41
1
10
55.2035511735893
20
27.7818783356924
30
0
41
1
10
55.2145537607148
20
27.7547953401247
30
0
0
SPLINE
5
1B1
100
AcDbEntity
8
1
62
256
6
ByLayer
370
18
48
1
60
0
100
AcDbSpline
70
4
71
2
72
6
73
3
40
0
40
0
40
0
40
1
40
1
40
1
41
1.02830968163241
10
40.6996858691271
20
19.5658164978543
30
0
41
1.02830968163241
10
40.6353004570909
20
19.0989648858406
30
0
41
1.02830968163241
10
40.5709150450548
20
18.632113273827
30
0
0
SPLINE
5
1B2
100
AcDbEntity
8
1
62
256
6
ByLayer
370
18
48
1
60
0
100
AcDbSpline
70
4
71
3
72
8
73
4
40
0
40
0
40
0
40
0
40
1
40
1
40
1
40
1
41
1
10
26.9327426158305
20
18.788787109409
30
0
41
1
10
27.0478528212356
20
18.4455097206177
30
0
41
1
10
27.2070297534552
20
18.1378762163083
30
0
41
1
10
27.4229814260173
20
17.868322211781
30
0
0
SPLINE
5
1B3
100
AcDbEntity
8
1
62
256
6
ByLayer
370
18
48
1
60
0
100
AcDbSpline
70
4
71
3
72
8
73
4
40
0
40
0
40
0
40
0
40
1
40
1
40
1
40
1
41
1
10
39.6080309084508
20
21.9998851269798
30
0
41
1
10
39.9997671182861
20
22.0322559569561
30
0
41
1
10
40.3780927407671
20
22.1212642884882
30
0
41
1
10
40.7441521687209
20
22.2609918929724
30
0
0
SPLINE
5
1B4
100
AcDbEntity
8
1
62
256
6
ByLayer
370
18
48
1
60
0
100
AcDbSpline
70
4
71
3
72
16
73
12
40
0
40
0
40
0
40
0
40
0.125
40
0.125
40
0.25
40
0.25
40
0.5
40
0.5
40
0.75
40
0.75
40
1
40
1
40
1
40
1
41
1
10
41.218225544119
20
18.6727730661056
30
0
41
1
10
41.511814890641
20
19.0069349390741
30
0
41
1
10
41.8870402726295
20
19.360174032767
30
0
41
1
10
42.8346710107554
20
20.0815770580009
30
0
41
1
10
43.3886318736862
20
20.4367012113348
30
0
41
1
10
45.1422752748789
20
21.4342691049682
30
0
41
1
10
46.3856908566494
20
21.9905143065546
30
0
41
1
10
48.7631803194731
20
22.9440727881925
30
0
41
1
10
49.9381785371999
20
23.3860829461293
30
0
41
1
10
52.2854648447185
20
24.2632485303263
30
0
41
1
10
53.4175059885558
20
24.6070224304946
30
0
41
1
10
54.492154678761
20
24.8900761380424
30
0
0
SPLINE
5
1B5
100
AcDbEntity
8
1
62
256
6
ByLayer
370
18
48
1
60
0
100
AcDbSpline
70
4
71
3
72
8
73
4
40
0
40
0
40
0
40
0
40
1
40
1
40
1
40
1
41
1
10
41.2182255441084
20
18.6727730661049
30
0
41
1
10
41.0017834071339
20
18.6589649208372
30
0
41
1
10
40.7857584845041
20
18.6453254338584
30
0
41
1
10
40.5709150450548
20
18.632113273827
30
0
0
SPLINE
5
1B6
100
AcDbEntity
8
1
62
256
6
ByLayer
370
18
48
1
60
0
100
AcDbSpline
70
4
71
3
72
10
73
6
40
0
40
0
40
0
40
0
40
0.474805431212337
40
0.474805431212337
40
1
40
1
40
1
40
1
41
1
10
33.9429554955202
20
23.0171373023975
30
0
41
1
10
34.1261210779198
20
22.9805594393352
30
0
41
1
10
34.3063395395024
20
22.9256562584627
30
0
41
1
10
34.6672068151287
20
22.7742777804057
30
0
41
1
10
34.8482044095604
20
22.6729456741732
30
0
41
1
10
35.0126238222732
20
22.5538012263623
30
0
0
SPLINE
5
1B7
100
AcDbEntity
8
1
62
256
6
ByLayer
370
18
48
1
60
0
100
AcDbSpline
70
4
71
3
72
10
73
6
40
0
40
0
40
0
40
0
40
0.465995854460553
40
0.465995854460553
40
1
40
1
40
1
40
1
41
1
10
34.4172956630581
20
29.0010085203242
30
0
41
1
10
34.2922746278663
20
28.8793064182606
30
0
41
1
10
34.1520472105208
20
28.7678217182403
30
0
41
1
10
33.8294566249463
20
28.5596320810456
30
0
41
1
10
33.641809980814
20
28.4660665137368
30
0
41
1
10
33.446476441648
20
28.3938414409082
30
0
0
SPLINE
5
1B8
100
AcDbEntity
8
1
62
256
6
ByLayer
370
18
48
1
60
0
100
AcDbSpline
70
4
71
3
72
8
73
4
40
0
40
0
40
0
40
0
40
1
40
1
40
1
40
1
41
1
10
54.1118934292916
20
29.0081798481129
30
0
41
1
10
54.3205415186401
20
28.8136322098073
30
0
41
1
10
54.5304110198782
20
28.615771746024
30
0
41
1
10
54.7402706465383
20
28.4144171349897
30
0
0
SPLINE
5
1B9
100
AcDbEntity
8
1
62
256
6
ByLayer
370
18
48
1
60
0
100
AcDbSpline
70
4
71
3
72
8
73
4
40
0
40
0
40
0
40
0
40
1
40
1
40
1
40
1
41
1
10
31.0856455535072
20
30.2063399580851
30
0
41
1
10
30.657544440648
20
30.8431068999535
30
0
41
1
10
30.3772539587544
20
31.3392404336477
30
0
41
1
10
29.9674655883524
20
31.5444510969978
30
0
0
SPLINE
5
1BA
100
AcDbEntity
8
1
62
256
6
ByLayer
370
18
48
1
60
0
100
AcDbSpline
70
4
71
3
72
13
73
9
40
0
40
0
40
0
40
0
40
0.287856992129663
40
0.287856992129663
40
0.605626331970863
40
0.605626331970863
40
0.605626331970863
40
1
40
1
40
1
40
1
41
1
10
42.9333071589407
20
28.1641366841151
30
0
41
1
10
42.7634362020701
20
28.4722303323775
30
0
41
1
10
42.5449297321927
20
28.7569978920471
30
0
41
1
10
42.02214717866
20
29.27552352603
30
0
41
1
10
41.705682155706
20
29.507831336261
30
0
41
1
10
41.3672109243254
20
29.6936039546342
30
0
41
1
10
40.9491097403781
20
29.9230821036927
30
0
41
1
10
40.4852413582656
20
30.0878281352178
30
0
41
1
10
40.0133093326677
20
30.1757783980157
30
0
0
SPLINE
5
1BB
100
AcDbEntity
8
1
62
256
6
ByLayer
370
18
48
1
60
0
100
AcDbSpline
70
4
71
3
72
14
73
10
40
0
40
0
40
0
40
0
40
0.0151857536690264
40
0.0151857536690264
40
0.0655730315774958
40
0.0655730315774958
40
0.287642754348331
40
0.287642754348331
40
1
40
1
40
1
40
1
41
1
10
26.0058755667937
20
28.2765372309389
30
0
41
1
10
26.0052256204276
20
28.2835759353698
30
0
41
1
10
26.0044216299578
20
28.2905586608266
30
0
41
1
10
26.0005314777017
20
28.3195395137234
30
0
41
1
10
25.9965823172315
20
28.3396530035598
30
0
41
1
10
25.9761089286841
20
28.4434332617574
30
0
41
1
10
25.9610129290765
20
28.5200206166984
30
0
41
1
10
25.9150303975654
20
28.8478975802482
30
0
41
1
10
25.9155970392606
20
29.0979584943503
30
0
41
1
10
25.9580696308422
20
29.344173547586
30
0
0
SPLINE
5
1BC
100
AcDbEntity
8
1
62
256
6
ByLayer
370
18
48
1
60
0
100
AcDbSpline
70
4
71
3
72
11
73
7
40
0
40
0
40
0
40
0
40
0.379738014043147
40
0.569607021064721
40
0.759476028086294
40
1
40
1
40
1
40
1
41
1.02830968163241
10
40.6996858691271
20
19.5658164978543
30
0
41
1.02566133279166
10
43.0893203100561
20
20.5049685709931
30
0
41
1.02050308371814
10
46.1124488628195
20
22.0425112099866
30
0
41
1.01332460673153
10
50.7837086420513
20
25.0521688313617
30
0
41
1.0120630214142
10
52.8076159418014
20
25.1520701427274
30
0
41
1.00944729087555
10
54.5017934212666
20
25.8732075073708
30
0
41
1.00885690313847
10
55.2542847854277
20
26.0767146838995
30
0
0
SPLINE
5
1BD
100
AcDbEntity
8
1
62
256
6
ByLayer
370
18
48
1
60
0
100
AcDbSpline
70
4
71
3
72
12
73
8
40
0
40
0
40
0
40
0
40
0.499999999999999
40
0.499999999999999
40
0.749999999999999
40
0.749999999999999
40
1
40
1
40
1
40
1
41
1
10
31.0856455535004
20
30.2063399580773
30
0
41
1
10
30.984079438133
20
30.0910235324376
30
0
41
1
10
30.8857933074842
20
29.9751176117955
30
0
41
1
10
30.7434876854599
20
29.8000020474178
30
0
41
1
10
30.6968657478948
20
29.7414866339563
30
0
41
1
10
30.6061807700423
20
29.623180113445
30
0
41
1
10
30.5273071791256
20
29.5728313639658
30
0
41
1
10
30.5349413659837
20
29.4901556423067
30
0
0
SPLINE
5
1BE
100
AcDbEntity
8
1
62
256
6
ByLayer
370
18
48
1
60
0
100
AcDbSpline
70
4
71
3
72
12
73
8
40
0
40
0
40
0
40
0
40
0.407174084711923
40
0.407174084711923
40
0.699511272430921
40
0.699511272430921
40
1
40
1
40
1
40
1
41
1
10
55.3432524670218
20
26.3610308672322
30
0
41
1
10
55.3349836333155
20
26.3233354051077
30
0
41
1
10
55.325002486996
20
26.2844461357222
30
0
41
1
10
55.3052589283456
20
26.2175833401307
30
0
41
1
10
55.2961683486202
20
26.1894148139084
30
0
41
1
10
55.2763820635662
20
26.132929125091
30
0
41
1
10
55.2655718028819
20
26.1044161014164
30
0
41
1
10
55.2542847927801
20
26.0767146858879
30
0
0
SPLINE
5
1BF
100
AcDbEntity
8
1
62
256
6
ByLayer
370
18
48
1
60
0
100
AcDbSpline
70
4
71
3
72
18
73
14
40
0
40
0
40
0
40
0
40
0.148865436690722
40
0.148865436690722
40
0.336868556410371
40
0.336868556410371
40
0.519491108027861
40
0.519491108027861
40
0.711563055534805
40
0.711563055534805
40
0.930180979444751
40
0.930180979444751
40
1
40
1
40
1
40
1
41
1
10
48.6180905642336
20
21.7431626447184
30
0
41
1
10
48.6173650060381
20
21.7504615155629
30
0
41
1
10
48.6192818551378
20
21.7590712155411
30
0
41
1
10
48.6297651734448
20
21.7806658590329
30
0
41
1
10
48.6401578441975
20
21.7945304577112
30
0
41
1
10
48.6678129566192
20
21.8230864490629
30
0
41
1
10
48.685195653047
20
21.838095156147
30
0
41
1
10
48.7253282223159
20
21.8684416609753
30
0
41
1
10
48.7487594284718
20
21.8841173574102
30
0
41
1
10
48.8011199217705
20
21.9158533260379
30
0
41
1
10
48.83095806679
20
21.9320486394379
30
0
41
1
10
48.8704217645985
20
21.9515051984586
30
0
41
1
10
48.8800523968478
20
21.9561029745544
30
0
41
1
10
48.8896811799659
20
21.9605571649693
30
0
0
SPLINE
5
1C0
100
AcDbEntity
8
1
62
256
6
ByLayer
370
18
48
1
60
0
100
AcDbSpline
70
4
71
2
72
6
73
3
40
0
40
0
40
0
40
1
40
1
40
1
41
1.02830968163241
10
39.2558392399935
20
32.8739497992195
30
0
41
1.02830968163241
10
39.3882681751533
20
32.6039125344019
30
0
41
1.02830968163241
10
39.5206971103132
20
32.3338752695842
30
0
0
SPLINE
5
1C1
100
AcDbEntity
8
1
62
256
6
ByLayer
370
18
48
1
60
0
100
AcDbSpline
70
4
71
2
72
6
73
3
40
0
40
0
40
0
40
1
40
1
40
1
41
1.02830968163241
10
39.5206971103132
20
32.3338752695842
30
0
41
0.915286811692243
10
39.7652086387759
20
31.8352891842792
30
0
41
0.941103849220746
10
40.0133093310094
20
30.1757784091076
30
0
0
SPLINE
5
1C2
100
AcDbEntity
8
1
62
256
6
ByLayer
370
18
48
1
60
0
100
AcDbSpline
70
4
71
3
72
8
73
4
40
0
40
0
40
0
40
0
40
1
40
1
40
1
40
1
41
1
10
34.4172956630581
20
29.0010085203242
30
0
41
1
10
35.0492248651921
20
29.6161618994101
30
0
41
1
10
35.8845475074392
20
29.9867108526327
30
0
41
1
10
36.8124883060046
20
30.0633905494905
30
0
0
SPLINE
5
1C3
100
AcDbEntity
8
1
62
256
6
ByLayer
370
18
48
1
60
0
100
AcDbSpline
70
4
71
3
72
8
73
4
40
0
40
0
40
0
40
0
40
1
40
1
40
1
40
1
41
1
10
55.2542847927801
20
26.0767146858879
30
0
41
1
10
55.187961755895
20
25.914944640326
30
0
41
1
10
55.1019406059525
20
25.7554448228235
30
0
41
1
10
54.9992806400262
20
25.6094244710695
30
0
0
SPLINE
5
1C4
100
AcDbEntity
8
1
62
256
6
ByLayer
370
18
48
1
60
0
100
AcDbSpline
70
4
71
3
72
8
73
4
40
0
40
0
40
0
40
0
40
1
40
1
40
1
40
1
41
1
10
33.0780661395942
20
23.0344236626321
30
0
41
1
10
33.3611664165392
20
23.067397954415
30
0
41
1
10
33.6555941727008
20
23.063984671453
30
0
41
1
10
33.9429554955202
20
23.0171373023975
30
0
0
SPLINE
5
1C5
100
AcDbEntity
8
1
62
256
6
ByLayer
370
18
48
1
60
0
100
AcDbSpline
70
4
71
3
72
12
73
8
40
0
40
0
40
0
40
0
40
0.322961595764271
40
0.322961595764271
40
0.710971356423584
40
0.710971356423584
40
1
40
1
40
1
40
1
41
1
10
40.7441521713108
20
22.2609918939609
30
0
41
1
10
41.11264661622
20
22.4010409333298
30
0
41
1
10
41.4654008954937
20
22.5951034010673
30
0
41
1
10
42.1626269929981
20
23.1107948961899
30
0
41
1
10
42.5022862653164
20
23.4579711230487
30
0
41
1
10
42.9698029470073
20
24.1381401264623
30
0
41
1
10
43.1333831412185
20
24.4593903117257
30
0
41
1
10
43.2448957450557
20
24.7897352317041
30
0
0
SPLINE
5
1C6
100
AcDbEntity
8
1
62
256
6
ByLayer
370
18
48
1
60
0
100
AcDbSpline
70
4
71
3
72
8
73
4
40
0
40
0
40
0
40
0
40
1
40
1
40
1
40
1
41
1
10
31.1464543471663
20
18.7763923252679
30
0
41
1
10
31.5012325872879
20
19.2016240934425
30
0
41
1
10
31.6678208116189
20
19.8713490349038
30
0
41
1
10
31.9657742403861
20
20.6748370351387
30
0
0
SPLINE
5
1C7
100
AcDbEntity
8
1
62
256
6
ByLayer
370
18
48
1
60
0
100
AcDbSpline
70
4
71
3
72
10
73
6
40
0
40
0
40
0
40
0
40
0.494168352806882
40
0.494168352806882
40
1
40
1
40
1
40
1
41
1
10
29.2171512213445
20
17.0492047925545
30
0
41
1
10
29.1141578153992
20
17.0493648884348
30
0
41
1
10
29.0067054559567
20
17.05548057321
30
0
41
1
10
28.7896019254927
20
17.0822098136806
30
0
41
1
10
28.6784685532456
20
17.1033906491988
30
0
41
1
10
28.5708996912633
20
17.1319792418977
30
0
0
SPLINE
5
1C8
100
AcDbEntity
8
1
62
256
6
ByLayer
370
18
48
1
60
0
100
AcDbSpline
70
4
71
3
72
18
73
14
40
0
40
0
40
0
40
0
40
0.0384430513828737
40
0.0384430513828737
40
0.294505767099358
40
0.294505767099358
40
0.507931675708709
40
0.507931675708709
40
0.723079147095951
40
0.723079147095951
40
0.912685296049715
40
0.912685296049715
40
1
40
1
40
1
40
1
41
1
10
48.0733997037198
20
30.8006158890829
30
0
41
1
10
48.067721131119
20
30.8021637872812
30
0
41
1
10
48.0620373374005
20
30.8037318992803
30
0
41
1
10
48.0188458475153
20
30.8157944984541
30
0
41
1
10
47.9808219485479
20
30.8272725726543
30
0
41
1
10
47.9159748282916
20
30.8487398352908
30
0
41
1
10
47.8876447862747
20
30.8589011727107
30
0
41
1
10
47.8385712381417
20
30.8784297989454
30
0
41
1
10
47.8171969196331
20
30.8880827279526
30
0
41
1
10
47.7880023737473
20
30.9039858457363
30
0
41
1
10
47.778491648572
20
30.9107155759135
30
0
41
1
10
47.7717311559207
20
30.918678616656
30
0
41
1
10
47.770591919755
20
30.9209614623732
30
0
41
1
10
47.7704373408891
20
30.9229670260281
30
0
0
SPLINE
5
1C9
100
AcDbEntity
8
1
62
256
6
ByLayer
370
18
48
1
60
0
100
AcDbSpline
70
4
71
3
72
8
73
4
40
0
40
0
40
0
40
0
40
1
40
1
40
1
40
1
41
1
10
32.6018548452823
20
28.1916346606851
30
0
41
1
10
32.8849551222273
20
28.224608952468
30
0
41
1
10
33.1729527026948
20
28.290832348025
30
0
41
1
10
33.446476441648
20
28.3938414409082
30
0
0
SPLINE
5
1CA
100
AcDbEntity
8
1
62
256
6
ByLayer
370
18
48
1
60
0
100
AcDbSpline
70
4
71
3
72
8
73
4
40
0
40
0
40
0
40
0
40
1
40
1
40
1
40
1
41
1
10
33.5328081549334
20
15.8491477914787
30
0
41
1
10
33.6170224354759
20
14.9371349539121
30
0
41
1
10
33.4932366602594
20
14.0323297894954
30
0
41
1
10
33.1889311475585
20
13.3355981396478
30
0
0
SPLINE
5
1CB
100
AcDbEntity
8
1
62
256
6
ByLayer
370
18
48
1
60
0
100
AcDbSpline
70
4
71
3
72
8
73
4
40
0
40
0
40
0
40
0
40
1
40
1
40
1
40
1
41
1
10
21.4150979665881
20
-24.6479715189708
30
0
41
1
10
21.2634715016933
20
-24.6479715189708
30
0
41
1
10
21.1115905576072
20
-24.6462211497246
30
0
41
1
10
20.9609847588646
20
-24.6427113305059
30
0
0
SPLINE
5
1CC
100
AcDbEntity
8
1
62
256
6
ByLayer
370
18
48
1
60
0
100
AcDbSpline
70
4
71
3
72
8
73
4
40
0
40
0
40
0
40
0
40
1
40
1
40
1
40
1
41
1
10
20.9609847588646
20
-24.6427113305059
30
0
41
1
10
20.9475812745096
20
-24.5913467317343
30
0
41
1
10
20.934183755441
20
-24.5399825588158
30
0
41
1
10
20.92079238
20
-24.4886190390077
30
0
0
SPLINE
5
1CD
100
AcDbEntity
8
1
62
256
6
ByLayer
370
18
48
1
60
0
100
AcDbSpline
70
4
71
2
72
11
73
8
40
0
40
0
40
0
40
0.0353878362392897
40
0.324771485367503
40
0.517693918119645
40
0.710616350871787
40
0.807077567247858
40
1
40
1
40
1
41
1
10
28.7007775849689
20
12.4583592307026
30
0
41
1
10
28.620796178973
20
12.507666251225
30
0
41
1
10
27.8944799708472
20
12.9997875577287
30
0
41
1
10
27.0158464684222
20
14.1390573704655
30
0
41
1
10
26.4150872257413
20
15.5190425681806
30
0
41
1
10
26.2820085282296
20
16.0543267050384
30
0
41
1
10
26.1494950351755
20
16.6773659330091
30
0
41
1
10
26.1089267696337
20
17.1162615261762
30
0
0
SPLINE
5
1CE
100
AcDbEntity
8
1
62
256
6
ByLayer
370
18
48
1
60
0
100
AcDbSpline
70
4
71
2
72
6
73
3
40
0
40
0
40
0
40
1
40
1
40
1
41
1
10
23.7640201756277
20
30.6981451073605
30
0
41
1
10
23.4273125797366
20
30.4622281309592
30
0
41
1
10
23.1712948995387
20
30.0691690863951
30
0
0
SPLINE
5
1CF
100
AcDbEntity
8
1
62
256
6
ByLayer
370
18
48
1
60
0
100
AcDbSpline
70
4
71
3
72
10
73
6
40
0
40
0
40
0
40
0
40
0.402044102652639
40
0.402044102652639
40
1
40
1
40
1
40
1
41
1
10
8.5386751345948
20
-15.6264181175896
30
0
41
1
10
8.45565130451814
20
-15.5634371823532
30
0
41
1
10
8.38116512940175
20
-15.5084417956535
30
0
41
1
10
8.22555738648487
20
-15.3873530726881
30
0
41
1
10
8.15478441768147
20
-15.3245036331396
30
0
41
1
10
8.1056624327025
20
-15.2776332060813
30
0
0
SPLINE
5
1D0
100
AcDbEntity
8
1
62
256
6
ByLayer
370
18
48
1
60
0
100
AcDbSpline
70
4
71
3
72
10
73
6
40
0
40
0
40
0
40
0
40
0.557501663665875
40
0.557501663665875
40
1
40
1
40
1
40
1
41
1
10
11.8943375672974
20
-15.2776332060815
30
0
41
1
10
11.8484634024224
20
-15.3214046802911
30
0
41
1
10
11.7837991840743
20
-15.3793044422495
30
0
41
1
10
11.633322851829
20
-15.4976441747707
30
0
41
1
10
11.5524968190072
20
-15.5572561083222
30
0
41
1
10
11.4613248654052
20
-15.6264181175896
30
0
0
SPLINE
5
1D1
100
AcDbEntity
8
1
62
256
6
ByLayer
370
18
48
1
60
0
100
AcDbSpline
70
4
71
2
72
6
73
3
40
0
40
0
40
0
40
1
40
1
40
1
41
1
10
26.1089267696337
20
17.1162615261762
30
0
41
1
10
26.0615941248843
20
17.1171379521533
30
0
41
1
10
26.0142614801349
20
17.1180143781304
30
0
0
SPLINE
5
1D2
100
AcDbEntity
8
1
62
256
6
ByLayer
370
18
48
1
60
0
100
AcDbSpline
70
4
71
3
72
8
73
4
40
0
40
0
40
0
40
0
40
1
40
1
40
1
40
1
41
1
10
19.5055592076017
20
24.3908248211773
30
0
41
1
10
19.9213308899405
20
22.0080844508682
30
0
41
1
10
20.5879197082941
20
19.6745004812593
30
0
41
1
10
21.4150979665882
20
17.3777301312646
30
0
0
SPLINE
5
1D3
100
AcDbEntity
8
1
62
256
6
ByLayer
370
18
48
1
60
0
100
AcDbSpline
70
4
71
3
72
16
73
12
40
0
40
0
40
0
40
0
40
0.11143027962805
40
0.11143027962805
40
0.248747543515472
40
0.248747543515472
40
0.465535329195252
40
0.465535329195252
40
0.88385535186756
40
0.88385535186756
40
1
40
1
40
1
40
1
41
1
10
8.53867513459483
20
23.8391299750503
30
0
41
1
10
8.51081528400582
20
23.8391299750503
30
0
41
1
10
8.48260885722451
20
23.8375361275706
30
0
41
1
10
8.42415079676073
20
23.831150658589
30
0
41
1
10
8.39395861076946
20
23.825666877018
30
0
41
1
10
8.32484624564248
20
23.8089605749788
30
0
41
1
10
8.28921459142958
20
23.796037970776
30
0
41
1
10
8.20100610925402
20
23.7556824246832
30
0
41
1
10
8.16026799314915
20
23.7250165399981
30
0
41
1
10
8.12070829847323
20
23.6845451449633
30
0
41
1
10
8.11283840142693
20
23.6755726082077
30
0
41
1
10
8.10566243270247
20
23.6665017920809
30
0
0
SPLINE
5
1D4
100
AcDbEntity
8
1
62
256
6
ByLayer
370
18
48
1
60
0
100
AcDbSpline
70
4
71
2
72
11
73
8
40
0
40
0
40
0
40
0.0610623745695938
40
0.342743662198716
40
0.530531187284797
40
0.718318712370878
40
0.812212474913919
40
1
40
1
40
1
41
1
10
28.9195481627643
20
12.3829838625407
30
0
41
1
10
28.7766139020521
20
12.4644790829597
30
0
41
1
10
27.989145260346
20
12.9980347057745
30
0
41
1
10
27.110511757921
20
14.1373045185113
30
0
41
1
10
26.5097525152401
20
15.5172897162264
30
0
41
1
10
26.3766738177284
20
16.0525738530842
30
0
41
1
10
26.2441603246743
20
16.6756130810549
30
0
41
1
10
26.2035920591325
20
17.114508674222
30
0
0
SPLINE
5
1D5
100
AcDbEntity
8
1
62
256
6
ByLayer
370
18
48
1
60
0
100
AcDbSpline
70
4
71
3
72
8
73
4
40
0
40
0
40
0
40
0
40
1
40
1
40
1
40
1
41
1
10
23.1713776102781
20
30.0688859373309
30
0
41
1
10
23.1535960524634
20
30.2618077280992
30
0
41
1
10
23.1488724838239
20
30.4537209874404
30
0
41
1
10
23.1546342170677
20
30.6448244163911
30
0
0
SPLINE
5
1D6
100
AcDbEntity
8
1
62
256
6
ByLayer
370
18
48
1
60
0
100
AcDbSpline
70
4
71
3
72
10
73
6
40
0
40
0
40
0
40
0
40
0.5
40
0.5
40
1
40
1
40
1
40
1
41
1
10
28.4814345406604
20
12.5399342739059
30
0
41
1
10
27.3387696630401
20
12.9808758992073
30
0
41
1
10
26.376874762171
20
13.7833390806801
30
0
41
1
10
24.9620252142527
20
15.7646548360253
30
0
41
1
10
24.388607294187
20
16.8889329586974
30
0
41
1
10
24.2753675699005
20
18.1130393845276
30
0
0
SPLINE
5
1D7
100
AcDbEntity
8
1
62
256
6
ByLayer
370
18
48
1
60
0
100
AcDbSpline
70
4
71
3
72
12
73
8
40
0
40
0
40
0
40
0
40
0.319932000007832
40
0.319932000007832
40
0.659954096648664
40
0.659954096648664
40
1
40
1
40
1
40
1
41
1
10
28.7007775845533
20
12.458359231168
30
0
41
1
10
28.6772830854294
20
12.466771825999
30
0
41
1
10
28.65382053129
20
12.4752764042514
30
0
41
1
10
28.6054903592575
20
12.49300881587
30
0
41
1
10
28.5806266043148
20
12.5022486853341
30
0
41
1
10
28.5309739583776
20
12.5209359320975
30
0
41
1
10
28.5061846380626
20
12.5303834875003
30
0
41
1
10
28.4814345394597
20
12.5399342743692
30
0
0
SPLINE
5
1D8
100
AcDbEntity
8
1
62
256
6
ByLayer
370
18
48
1
60
0
100
AcDbSpline
70
4
71
3
72
8
73
4
40
0
40
0
40
0
40
0
40
1
40
1
40
1
40
1
41
1
10
22.4715449271414
20
30.5850618473853
30
0
41
1
10
22.3410440887561
20
30.0876110960848
30
0
41
1
10
22.2107147164091
20
29.590113763224
30
0
41
1
10
22.0805837279229
20
29.0925627729474
30
0
0
SPLINE
5
1D9
100
AcDbEntity
8
1
62
256
6
ByLayer
370
18
48
1
60
0
100
AcDbSpline
70
4
71
3
72
15
73
11
40
0
40
0
40
0
40
0
40
0.28780121790606
40
0.28780121790606
40
0.580633313242756
40
0.580633313242756
40
0.871071532394782
40
0.871071532394782
40
0.871071532394782
40
1
40
1
40
1
40
1
41
1
10
33.1889311475585
20
13.3355981396478
30
0
41
1
10
32.8816935971594
20
13.022012622083
30
0
41
1
10
32.5169479141959
20
12.7564565659875
30
0
41
1
10
31.72308622173
20
12.3624231363479
30
0
41
1
10
31.2818240718375
20
12.2317707171434
30
0
41
1
10
30.3950697950745
20
12.1249043058706
30
0
41
1
10
29.9387555912959
20
12.1444737624322
30
0
41
1
10
29.500570716099
20
12.2300574058649
30
0
41
1
10
29.304126362966
20
12.2684257394715
30
0
41
1
10
29.1097631385391
20
12.3199941743898
30
0
41
1
10
28.9195481627681
20
12.3829838625386
30
0
0
SPLINE
5
1DA
100
AcDbEntity
8
1
62
256
6
ByLayer
370
18
48
1
60
0
100
AcDbSpline
70
4
71
3
72
16
73
12
40
0
40
0
40
0
40
0
40
0.461208588217088
40
0.461208588217088
40
0.643534962278544
40
0.643534962278544
40
0.82840847297529
40
0.82840847297529
40
0.943003644159989
40
0.943003644159989
40
1
40
1
40
1
40
1
41
1
10
8.10566243270262
20
8.05584836782774
30
0
41
1
10
8.13394960848487
20
7.95080268681443
30
0
41
1
10
8.17266608070923
20
7.84628670970801
30
0
41
1
10
8.25268397516851
20
7.71442469145123
30
0
41
1
10
8.27872153625233
20
7.67825379650725
30
0
41
1
10
8.33934560108361
20
7.61290523367225
30
0
41
1
10
8.37482777731265
20
7.58305923051407
30
0
41
1
10
8.44007741480422
20
7.54855881865589
30
0
41
1
10
8.46752172250564
20
7.5385201810229
30
0
41
1
10
8.50983152523006
20
7.53097042135255
30
0
41
1
10
8.5242826069246
20
7.5296667942647
30
0
41
1
10
8.53867513459477
20
7.5296667942647
30
0
0
SPLINE
5
1DB
100
AcDbEntity
8
1
62
256
6
ByLayer
370
18
48
1
60
0
100
AcDbSpline
70
4
71
3
72
16
73
12
40
0
40
0
40
0
40
0
40
0.461208588217094
40
0.461208588217094
40
0.643534962278546
40
0.643534962278546
40
0.828408472975285
40
0.828408472975285
40
0.943003644159988
40
0.943003644159988
40
1
40
1
40
1
40
1
41
1
10
8.10566243270256
20
-23.6665017920809
30
0
41
1
10
8.13394960848484
20
-23.7022583261632
30
0
41
1
10
8.17266608070921
20
-23.7370095736338
30
0
41
1
10
8.25268397516845
20
-23.7800170858174
30
0
41
1
10
8.27872153625231
20
-23.7917125768793
30
0
41
1
10
8.33934560108358
20
-23.8127037684951
30
0
41
1
10
8.37482777731259
20
-23.8222104320954
30
0
41
1
10
8.44007741480419
20
-23.8331586856493
30
0
41
1
10
8.46752172250561
20
-23.836332378473
30
0
41
1
10
8.50983152523003
20
-23.8387183279986
30
0
41
1
10
8.52428260692457
20
-23.8391299750505
30
0
41
1
10
8.53867513459471
20
-23.8391299750505
30
0
0
SPLINE
5
1DC
100
AcDbEntity
8
1
62
256
6
ByLayer
370
18
48
1
60
0
100
AcDbSpline
70
4
71
2
72
11
73
8
40
0
40
0
40
0
40
0.0079111861631955
40
0.305537830314237
40
0.503955593081598
40
0.702373355848959
40
0.801582237232639
40
1
40
1
40
1
41
1.02613459695995
10
28.4814345406604
20
12.5399342739059
30
0
41
1.02613459695995
10
28.4641923337595
20
12.5513860627765
30
0
41
1.02613459695995
10
27.7998146813484
20
13.0015404096829
30
0
41
1.02613459695995
10
26.9211811789234
20
14.1408102224196
30
0
41
1.02613459695995
10
26.3204219362425
20
15.5207954201347
30
0
41
1.02613459695995
10
26.1873432387308
20
16.0560795569925
30
0
41
1.02613459695995
10
26.0548297456767
20
16.6791187849633
30
0
41
1.02613459695995
10
26.0142614801349
20
17.1180143781304
30
0
0
SPLINE
5
1DD
100
AcDbEntity
8
1
62
256
6
ByLayer
370
18
48
1
60
0
100
AcDbSpline
70
4
71
3
72
16
73
12
40
0
40
0
40
0
40
0
40
0.111430279628047
40
0.111430279628047
40
0.248747543515475
40
0.248747543515475
40
0.465535329195272
40
0.465535329195272
40
0.883855351867603
40
0.883855351867603
40
1
40
1
40
1
40
1
41
1
10
11.4613248654052
20
7.52966679426501
30
0
41
1
10
11.4891847159942
20
7.52966679426501
30
0
41
1
10
11.5173911427755
20
7.53471706780854
30
0
41
1
10
11.5758492032393
20
7.55489210221026
30
0
41
1
10
11.6060413892306
20
7.57218953888443
30
0
41
1
10
11.6751537543576
20
7.62460019394089
30
0
41
1
10
11.7107854085705
20
7.66489294253907
30
0
41
1
10
11.798993890746
20
7.78941367630352
30
0
41
1
10
11.8397320068509
20
7.88247511004147
30
0
41
1
10
11.8792917015268
20
8.00269269538009
30
0
41
1
10
11.8871615985731
20
8.02920008991578
30
0
41
1
10
11.8943375672976
20
8.05584836782768
30
0
0
SPLINE
5
1DE
100
AcDbEntity
8
1
62
256
6
ByLayer
370
18
48
1
60
0
100
AcDbSpline
70
4
71
2
72
6
73
3
40
0
40
0
40
0
40
1
40
1
40
1
41
1
10
26.2035920591325
20
17.114508674222
30
0
41
1
10
26.1562594143831
20
17.1153851001991
30
0
41
1
10
26.1089267696337
20
17.1162615261762
30
0
0
SPLINE
5
1DF
100
AcDbEntity
8
1
62
256
6
ByLayer
370
18
48
1
60
0
100
AcDbSpline
70
4
71
3
72
16
73
12
40
0
40
0
40
0
40
0
40
0.111430279628047
40
0.111430279628047
40
0.248747543515467
40
0.248747543515467
40
0.465535329195252
40
0.465535329195252
40
0.883855351867553
40
0.883855351867553
40
1
40
1
40
1
40
1
41
1
10
8.5386751345948
20
-7.52966679426504
30
0
41
1
10
8.51081528400576
20
-7.52966679426504
30
0
41
1
10
8.48260885722448
20
-7.53471706780857
30
0
41
1
10
8.4241507967607
20
-7.55489210221029
30
0
41
1
10
8.39395861076943
20
-7.57218953888446
30
0
41
1
10
8.32484624564242
20
-7.62460019394092
30
0
41
1
10
8.28921459142953
20
-7.6648929425391
30
0
41
1
10
8.20100610925397
20
-7.78941367630352
30
0
41
1
10
8.16026799314912
20
-7.8824751100415
30
0
41
1
10
8.12070829847318
20
-8.00269269538009
30
0
41
1
10
8.11283840142687
20
-8.02920008991578
30
0
41
1
10
8.10566243270245
20
-8.05584836782771
30
0
0
SPLINE
5
1E0
100
AcDbEntity
8
1
62
256
6
ByLayer
370
18
48
1
60
0
100
AcDbSpline
70
4
71
3
72
12
73
8
40
0
40
0
40
0
40
0
40
0.323508413868213
40
0.323508413868213
40
0.661742854657685
40
0.661742854657685
40
1
40
1
40
1
40
1
41
1
10
28.9195481598863
20
12.3829838643808
30
0
41
1
10
28.8958625023052
20
12.390827369767
30
0
41
1
10
28.8722063750464
20
12.3987630878628
30
0
41
1
10
28.8238800666187
20
12.4151840234727
30
0
41
1
10
28.7992123375901
20
12.4236779476997
30
0
41
1
10
28.7499440966911
20
12.4408674135826
30
0
41
1
10
28.7253431759267
20
12.449563113035
30
0
41
1
10
28.7007775843344
20
12.4583592302737
30
0
0
SPLINE
5
1E1
100
AcDbEntity
8
1
62
256
6
ByLayer
370
18
48
1
60
0
100
AcDbSpline
70
4
71
3
72
16
73
12
40
0
40
0
40
0
40
0
40
0.461208588217085
40
0.461208588217085
40
0.643534962278541
40
0.643534962278541
40
0.828408472975291
40
0.828408472975291
40
0.943003644159993
40
0.943003644159993
40
1
40
1
40
1
40
1
41
1
10
11.8943375672974
20
23.6665017920809
30
0
41
1
10
11.8660503915152
20
23.7022583261632
30
0
41
1
10
11.8273339192908
20
23.7370095736338
30
0
41
1
10
11.7473160248315
20
23.7800170858174
30
0
41
1
10
11.7212784637477
20
23.7917125768793
30
0
41
1
10
11.6606543989164
20
23.8127037684951
30
0
41
1
10
11.6251722226874
20
23.8222104320954
30
0
41
1
10
11.5599225851958
20
23.8331586856493
30
0
41
1
10
11.5324782774944
20
23.836332378473
30
0
41
1
10
11.49016847477
20
23.8387183279986
30
0
41
1
10
11.4757173930754
20
23.8391299750505
30
0
41
1
10
11.4613248654053
20
23.8391299750505
30
0
0
SPLINE
5
1E2
100
AcDbEntity
8
1
62
256
6
ByLayer
370
18
48
1
60
0
100
AcDbSpline
70
4
71
3
72
8
73
4
40
0
40
0
40
0
40
0
40
1
40
1
40
1
40
1
41
1
10
23.1546342170614
20
30.6448244164012
30
0
41
1
10
23.3449649391599
20
30.6614761968977
30
0
41
1
10
23.5541494082543
20
30.6797774665206
30
0
41
1
10
23.7640349598852
20
30.6981400729176
30
0
0
SPLINE
5
1E3
100
AcDbEntity
8
1
62
256
6
ByLayer
370
18
48
1
60
0
100
AcDbSpline
70
4
71
3
72
10
73
6
40
0
40
0
40
0
40
0
40
0.420519290906198
40
0.420519290906198
40
1
40
1
40
1
40
1
41
1
10
11.4613248654052
20
-13.6906253919194
30
0
41
1
10
11.5453800896752
20
-13.7543887310852
30
0
41
1
10
11.622166863908
20
-13.8387345203577
30
0
41
1
10
11.7759013620284
20
-14.060958439368
30
0
41
1
10
11.8455749346608
20
-14.2106220260311
30
0
41
1
10
11.8943375672975
20
-14.3682408325643
30
0
0
SPLINE
5
1E4
100
AcDbEntity
8
1
62
256
6
ByLayer
370
18
48
1
60
0
100
AcDbSpline
70
4
71
3
72
8
73
4
40
0
40
0
40
0
40
0
40
1
40
1
40
1
40
1
41
1
10
22.0805837279229
20
29.0925627729473
30
0
41
1
10
21.6868527924312
20
27.5871471979537
30
0
41
1
10
21.2988534235794
20
26.0896651831601
30
0
41
1
10
20.92079238
20
24.5999813923864
30
0
0
SPLINE
5
1E5
100
AcDbEntity
8
1
62
256
6
ByLayer
370
18
48
1
60
0
100
AcDbSpline
70
4
71
3
72
14
73
10
40
0
40
0
40
0
40
0
40
0.284512647929835
40
0.284512647929835
40
0.612903731782079
40
0.612903731782079
40
0.949298483480042
40
0.949298483480042
40
1
40
1
40
1
40
1
41
1
10
19.5055592076019
20
24.3908248211772
30
0
41
1
10
19.1704404540334
20
24.3498801762248
30
0
41
1
10
18.8597496218965
20
24.2954886736539
30
0
41
1
10
18.2835116525487
20
24.1494135952404
30
0
41
1
10
18.0249815792796
20
24.0510028626091
30
0
41
1
10
17.6392199403027
20
23.8174123097642
30
0
41
1
10
17.5100639463551
20
23.6782359586606
30
0
41
1
10
17.4432353915026
20
23.5027996833026
30
0
41
1
10
17.4359824174511
20
23.4792306731536
30
0
41
1
10
17.4303191742212
20
23.4553549429959
30
0
0
SPLINE
5
1E6
100
AcDbEntity
8
1
62
256
6
ByLayer
370
18
48
1
60
0
100
AcDbSpline
70
4
71
3
72
14
73
10
40
0
40
0
40
0
40
0
40
0.257146777765879
40
0.257146777765879
40
0.515043459777444
40
0.515043459777444
40
0.762218147059628
40
0.762218147059628
40
1
40
1
40
1
40
1
41
1
10
17.4303191742212
20
-23.4553549429959
30
0
41
1
10
17.4691434490961
20
-23.6190346355062
30
0
41
1
10
17.5852680371712
20
-23.7696203769468
30
0
41
1
10
17.9643662295079
20
-24.0254564367266
30
0
41
1
10
18.233500730627
20
-24.1343161849438
30
0
41
1
10
18.8755030997166
20
-24.301589819967
30
0
41
1
10
19.2526493539829
20
-24.3645598084091
30
0
41
1
10
20.053239606227
20
-24.451099076883
30
0
41
1
10
20.4852178413433
20
-24.4774760852936
30
0
41
1
10
20.92079238
20
-24.4886190390077
30
0
0
SPLINE
5
1E7
100
AcDbEntity
8
1
62
256
6
ByLayer
370
18
48
1
60
0
100
AcDbSpline
70
4
71
3
72
16
73
12
40
0
40
0
40
0
40
0
40
0.111430279628052
40
0.111430279628052
40
0.248747543515474
40
0.248747543515474
40
0.465535329195271
40
0.465535329195271
40
0.883855351867598
40
0.883855351867598
40
1
40
1
40
1
40
1
41
1
10
11.4613248654052
20
-23.8391299750503
30
0
41
1
10
11.4891847159942
20
-23.8391299750503
30
0
41
1
10
11.5173911427755
20
-23.8375361275706
30
0
41
1
10
11.5758492032393
20
-23.831150658589
30
0
41
1
10
11.6060413892305
20
-23.825666877018
30
0
41
1
10
11.6751537543576
20
-23.8089605749788
30
0
41
1
10
11.7107854085704
20
-23.796037970776
30
0
41
1
10
11.798993890746
20
-23.7556824246832
30
0
41
1
10
11.8397320068509
20
-23.7250165399981
30
0
41
1
10
11.8792917015268
20
-23.6845451449633
30
0
41
1
10
11.8871615985731
20
-23.6755726082078
30
0
41
1
10
11.8943375672975
20
-23.6665017920809
30
0
0
SPLINE
5
1E8
100
AcDbEntity
8
1
62
256
6
ByLayer
370
18
48
1
60
0
100
AcDbSpline
70
4
71
2
72
8
73
5
40
0
40
0
40
0
40
0.451218356373189
40
0.451218356373189
40
1
40
1
40
1
41
1
10
24.2753338489298
20
18.1127300692201
30
0
41
1
10
24.6366676548988
20
17.6698205792584
30
0
41
1
10
25.0593206582321
20
17.4137559302021
30
0
41
1
10
25.5327469399204
20
17.1269302511736
30
0
41
1
10
26.0142614801349
20
17.1180143781304
30
0
0
SPLINE
5
1E9
100
AcDbEntity
8
1
62
256
6
ByLayer
370
18
48
1
60
0
100
AcDbSpline
70
4
71
3
72
10
73
6
40
0
40
0
40
0
40
0
40
0.578104426482813
40
0.578104426482813
40
1
40
1
40
1
40
1
41
1
10
8.10566243270256
20
-14.3682408325648
30
0
41
1
10
8.15431207153043
20
-14.2109872636803
30
0
41
1
10
8.22377139565089
20
-14.0616626119233
30
0
41
1
10
8.37734423169181
20
-13.839273457025
30
0
41
1
10
8.45435152708336
20
-13.7545923235662
30
0
41
1
10
8.5386751345948
20
-13.6906253919194
30
0
0
SPLINE
5
1EA
100
AcDbEntity
8
1
62
256
6
ByLayer
370
18
48
1
60
0
100
AcDbSpline
70
4
71
3
72
16
73
12
40
0
40
0
40
0
40
0
40
0.461208588217066
40
0.461208588217066
40
0.643534962278522
40
0.643534962278522
40
0.828408472975271
40
0.828408472975271
40
0.943003644159981
40
0.943003644159981
40
1
40
1
40
1
40
1
41
1
10
11.8943375672974
20
-8.05584836782776
30
0
41
1
10
11.8660503915151
20
-7.95080268681445
30
0
41
1
10
11.8273339192908
20
-7.84628670970801
30
0
41
1
10
11.7473160248315
20
-7.71442469145126
30
0
41
1
10
11.7212784637477
20
-7.67825379650728
30
0
41
1
10
11.6606543989164
20
-7.61290523367228
30
0
41
1
10
11.6251722226874
20
-7.5830592305141
30
0
41
1
10
11.5599225851958
20
-7.54855881865592
30
0
41
1
10
11.5324782774944
20
-7.5385201810229
30
0
41
1
10
11.4901684747699
20
-7.53097042135258
30
0
41
1
10
11.4757173930754
20
-7.52966679426473
30
0
41
1
10
11.4613248654053
20
-7.52966679426473
30
0
0
SPLINE
5
1EB
100
AcDbEntity
8
1
62
256
6
ByLayer
370
18
48
1
60
0
100
AcDbSpline
70
4
71
3
72
8
73
4
40
0
40
0
40
0
40
0
40
1
40
1
40
1
40
1
41
1
10
19.5055592076018
20
24.3908248211773
30
0
41
1
10
19.889097182104
20
24.4890025286451
30
0
41
1
10
20.3732546230236
20
24.5572238151665
30
0
41
1
10
20.92079238
20
24.5999813923864
30
0
0
SPLINE
5
1EC
100
AcDbEntity
8
SK1
62
256
6
ByLayer
370
18
48
1
60
0
100
AcDbSpline
70
4
71
3
72
22
73
18
40
0
40
0
40
0
40
0
40
0.359503326352592
40
0.359503326352592
40
0.722215553677066
40
0.722215553677066
40
0.826527133697721
40
0.826527133697721
40
0.863141914878009
40
0.863141914878009
40
0.900378805007221
40
0.900378805007221
40
0.933500873078508
40
0.933500873078508
40
0.972947835056124
40
0.972947835056124
40
1
40
1
40
1
40
1
41
1
10
-1.30710678118655
20
3.91806548153781
30
0
41
1
10
-1.26486058419175
20
4.15139729989579
30
0
41
1
10
-1.21446435132793
20
4.3814323255595
30
0
41
1
10
-1.08204001032738
20
4.82987250608483
30
0
41
1
10
-1.00537527699572
20
5.05527264511531
30
0
41
1
10
-0.832356114396674
20
5.30654108347395
30
0
41
1
10
-0.78723829488635
20
5.36152992388779
30
0
41
1
10
-0.709490490588564
20
5.41877880440927
30
0
41
1
10
-0.687203973712826
20
5.43218986569767
30
0
41
1
10
-0.639076749164019
20
5.45244590583036
30
0
41
1
10
-0.612446414061679
20
5.45928056674788
30
0
41
1
10
-0.562058433231044
20
5.46233960302246
30
0
41
1
10
-0.537713914852588
20
5.45964677314575
30
0
41
1
10
-0.488053852696936
20
5.44628701250068
30
0
41
1
10
-0.462609559288751
20
5.43420976008088
30
0
41
1
10
-0.423860760477311
20
5.40985221311715
30
0
41
1
10
-0.408979654247759
20
5.39867780521598
30
0
41
1
10
-0.394976888875391
20
5.38678223323953
30
0
0
SPLINE
5
1ED
100
AcDbEntity
8
SK1
62
256
6
ByLayer
370
18
48
1
60
0
100
AcDbSpline
70
4
71
3
72
22
73
18
40
0
40
0
40
0
40
0
40
0.0394331151890913
40
0.0394331151890913
40
0.0795339708694829
40
0.0795339708694829
40
0.109637917244288
40
0.109637917244288
40
0.13957706301322
40
0.13957706301322
40
0.189266399657458
40
0.189266399657458
40
0.289571152403382
40
0.289571152403382
40
0.658284396834382
40
0.658284396834382
40
1
40
1
40
1
40
1
41
1
10
-0.394976888875306
20
-5.38678189578292
30
0
41
1
10
-0.415237014773396
20
-5.40399317028476
30
0
41
1
10
-0.437419275645482
20
-5.41977813092004
30
0
41
1
10
-0.486103141154984
20
-5.44521655864725
30
0
41
1
10
-0.51341298093098
20
-5.45496005292577
30
0
41
1
10
-0.562874322366525
20
-5.46212264681108
30
0
41
1
10
-0.585106616517606
20
-5.46199323188387
30
0
41
1
10
-0.627692822126733
20
-5.45533455005088
30
0
41
1
10
-0.648523068172722
20
-5.44883772858989
30
0
41
1
10
-0.699826196362153
20
-5.42613682765011
30
0
41
1
10
-0.728695564403466
20
-5.40623396070797
30
0
41
1
10
-0.806075449923839
20
-5.34007786619352
30
0
41
1
10
-0.847522380016557
20
-5.28655870152033
30
0
41
1
10
-1.01570466784386
20
-5.03084699030373
30
0
41
1
10
-1.09210771407481
20
-4.80149729085085
30
0
41
1
10
-1.21929875138235
20
-4.35887826398974
30
0
41
1
10
-1.26692602208391
20
-4.13998960128646
30
0
41
1
10
-1.30710678118655
20
-3.91806548057696
30
0
0
SPLINE
5
1EE
100
AcDbEntity
8
SK1
62
256
6
ByLayer
370
18
48
1
60
0
100
AcDbSpline
70
4
71
3
72
10
73
6
40
0
40
0
40
0
40
0
40
0.5
40
0.5
40
1
40
1
40
1
40
1
41
1
10
-1.30710678118655
20
3.91806548153784
30
0
41
1
10
-1.53227959010832
20
2.67440369212437
30
0
41
1
10
-1.71681589069689
20
1.34075776539186
30
0
41
1
10
-1.71598271729604
20
-1.35050010337164
30
0
41
1
10
-1.53230696904976
20
-2.67425240209695
30
0
41
1
10
-1.30710678118655
20
-3.91806548057698
30
0
0
SPLINE
5
1EF
100
AcDbEntity
8
SK1
62
256
6
ByLayer
370
18
48
1
60
0
100
AcDbSpline
70
4
71
3
72
22
73
18
40
0
40
0
40
0
40
0
40
0.0260455644157247
40
0.0260455644157247
40
0.0526262165848557
40
0.0526262165848557
40
0.0706056579866929
40
0.0706056579866929
40
0.0884949509195805
40
0.0884949509195805
40
0.11748921873202
40
0.11748921873202
40
0.17459086731972
40
0.17459086731972
40
0.37652425293745
40
0.37652425293745
40
1
40
1
40
1
40
1
41
1
10
-0.394976888872947
20
5.38678223324206
30
0
41
1
10
-0.389612432086409
20
5.38222504185003
30
0
41
1
10
-0.383763200778958
20
5.37811700449893
30
0
41
1
10
-0.3709728888754
20
5.37184824531644
30
0
41
1
10
-0.363785592650885
20
5.36968256852501
30
0
41
1
10
-0.351475656346565
20
5.3691458249703
30
0
41
1
10
-0.346317238365032
20
5.36979468027801
30
0
41
1
10
-0.336550133197363
20
5.3727304206256
30
0
41
1
10
-0.331829865964096
20
5.3750241182685
30
0
41
1
10
-0.320511111438321
20
5.38234306083376
30
0
41
1
10
-0.314321448136155
20
5.3882440687963
30
0
41
1
10
-0.298260159254511
20
5.40702817233921
30
0
41
1
10
-0.290032841564653
20
5.42147709180321
30
0
41
1
10
-0.258449669573651
20
5.48745345024415
30
0
41
1
10
-0.24608390551893
20
5.5434138926733
30
0
41
1
10
-0.204764795451894
20
5.7670899064446
30
0
41
1
10
-0.200000000000358
20
5.93709576978202
30
0
41
1
10
-0.200000000000358
20
6.10344667966001
30
0
0
SPLINE
5
1F0
100
AcDbEntity
8
SK1
62
256
6
ByLayer
370
18
48
1
60
0
100
AcDbSpline
70
4
71
3
72
24
73
20
40
0
40
0
40
0
40
0
40
0.469770575826712
40
0.469770575826712
40
0.663612078687295
40
0.663612078687295
40
0.860454184613411
40
0.860454184613411
40
0.903064590395674
40
0.903064590395674
40
0.923089343972159
40
0.923089343972159
40
0.943389594779288
40
0.943389594779288
40
0.961332284531898
40
0.961332284531898
40
0.988068136377815
40
0.988068136377815
40
1
40
1
40
1
40
1
41
1
10
-0.199999999999989
20
-6.10344849123027
30
0
41
1
10
-0.199999999999989
20
-5.97798788494984
30
0
41
1
10
-0.204016575726513
20
-5.8509635670122
30
0
41
1
10
-0.223752631922082
20
-5.67079358995508
30
0
41
1
10
-0.231244965282229
20
-5.61789623093799
30
0
41
1
10
-0.253819137983157
20
-5.51250015101135
30
0
41
1
10
-0.267096215270385
20
-5.45724004647028
30
0
41
1
10
-0.303692478692511
20
-5.40035311573845
30
0
41
1
10
-0.311479622041333
20
-5.39039941672755
30
0
41
1
10
-0.32547775761438
20
-5.37891036834915
30
0
41
1
10
-0.330455622185014
20
-5.3756771312581
30
0
41
1
10
-0.341078704143143
20
-5.37102422840917
30
0
41
1
10
-0.346883276538165
20
-5.36960762575521
30
0
41
1
10
-0.357630415747792
20
-5.36914354197148
30
0
41
1
10
-0.362713068049601
20
-5.36981917830482
30
0
41
1
10
-0.37458340180882
20
-5.37316903610403
30
0
41
1
10
-0.3812109954861
20
-5.37664910167555
30
0
41
1
10
-0.38989246528871
20
-5.38265091141974
30
0
41
1
10
-0.392483363308571
20
-5.38466360919151
30
0
41
1
10
-0.394976888875334
20
-5.38678189578178
30
0
0
INSERT
5
202
100
AcDbEntity
8
2
62
256
6
ByLayer
370
25
48
1
60
0
100
AcDbBlockReference
2
DimnDraft3D11
10
0
20
0
30
0
41
1
42
1
43
1
50
0
210
0
220
0
230
1
0
INSERT
5
210
100
AcDbEntity
8
2
62
256
6
ByLayer
370
25
48
1
60
0
100
AcDbBlockReference
2
DimnDraft3D22
10
0
20
0
30
0
41
1
42
1
43
1
50
0
210
0
220
0
230
1
0
INSERT
5
21E
100
AcDbEntity
8
2
62
256
6
ByLayer
370
25
48
1
60
0
100
AcDbBlockReference
2
DimnDraft3D33
10
0
20
0
30
0
41
1
42
1
43
1
50
0
210
0
220
0
230
1
0
LINE
5
72
100
AcDbEntity
8
1
62
256
6
ByLayer
370
18
48
1
60
0
100
AcDbLine
10
21.532412
20
-0.557836
30
0
11
16.855507
21
-3.978442
31
0
39
0
210
0
220
0
230
1
0
LINE
5
74
100
AcDbEntity
8
1
62
256
6
ByLayer
370
18
48
1
60
0
100
AcDbLine
10
16.981359
20
-9.337639
30
0
11
24.129905
21
-4.109319
31
0
39
0
210
0
220
0
230
1
0
LINE
5
75
100
AcDbEntity
8
1
62
256
6
ByLayer
370
18
48
1
60
0
100
AcDbLine
10
30.112554
20
32.10257
30
0
11
29.481358
21
31.99468
31
0
39
0
210
0
220
0
230
1
0
LINE
5
76
100
AcDbEntity
8
1
62
256
6
ByLayer
370
18
48
1
60
0
100
AcDbLine
10
36.865252
20
26.253057
30
0
11
37.086675
21
26.474481
31
0
39
0
210
0
220
0
230
1
0
LINE
5
77
100
AcDbEntity
8
1
62
256
6
ByLayer
370
18
48
1
60
0
100
AcDbLine
10
39.36222
20
25.723165
30
0
11
39.140797
21
25.501742
31
0
39
0
210
0
220
0
230
1
0
LINE
5
78
100
AcDbEntity
8
1
62
256
6
ByLayer
370
18
48
1
60
0
100
AcDbLine
10
40.728121
20
22.945642
30
0
11
40.967573
21
23.185095
31
0
39
0
210
0
220
0
230
1
0
LINE
5
79
100
AcDbEntity
8
1
62
256
6
ByLayer
370
18
48
1
60
0
100
AcDbLine
10
35.310719
20
28.841949
30
0
11
35.071266
21
28.602496
31
0
39
0
210
0
220
0
230
1
0
LINE
5
7A
100
AcDbEntity
8
1
62
256
6
ByLayer
370
18
48
1
60
0
100
AcDbLine
10
0.3
20
-25
30
0
11
20.920792
21
-25
31
0
39
0
210
0
220
0
230
1
0
LINE
5
7B
100
AcDbEntity
8
1
62
256
6
ByLayer
370
18
48
1
60
0
100
AcDbLine
10
0.3
20
25
30
0
11
0
21
24.7
31
0
39
0
210
0
220
0
230
1
0
LINE
5
7C
100
AcDbEntity
8
1
62
256
6
ByLayer
370
18
48
1
60
0
100
AcDbLine
10
0
20
-24.7
30
0
11
0.3
21
-25
31
0
39
0
210
0
220
0
230
1
0
LINE
5
7D
100
AcDbEntity
8
1
62
256
6
ByLayer
370
18
48
1
60
0
100
AcDbLine
10
20.960985
20
-25.15
30
0
11
22
21
-25.15
31
0
39
0
210
0
220
0
230
1
0
LINE
5
7E
100
AcDbEntity
8
1
62
256
6
ByLayer
370
18
48
1
60
0
100
AcDbLine
10
20.920792
20
-25
30
0
11
20.960985
21
-25.15
31
0
39
0
210
0
220
0
230
1
0
LINE
5
7F
100
AcDbEntity
8
1
62
256
6
ByLayer
370
18
48
1
60
0
100
AcDbLine
10
20.920792
20
25
30
0
11
0.3
21
25
31
0
39
0
210
0
220
0
230
1
0
LINE
5
80
100
AcDbEntity
8
1
62
256
6
ByLayer
370
18
48
1
60
0
100
AcDbLine
10
22.418435
20
30.589278
30
0
11
20.920792
21
25
31
0
39
0
210
0
220
0
230
1
0
LINE
5
81
100
AcDbEntity
8
1
62
256
6
ByLayer
370
18
48
1
60
0
100
AcDbLine
10
24.163586
20
-4.042423
30
0
11
24.210928
21
-3.702871
31
0
39
0
210
0
220
0
230
1
0
LINE
5
82
100
AcDbEntity
8
1
62
256
6
ByLayer
370
18
48
1
60
0
100
AcDbLine
10
21.944303
20
-0.603775
30
0
11
21.606369
21
-0.546007
31
0
39
0
210
0
220
0
230
1
0
LINE
5
83
100
AcDbEntity
8
1
62
256
6
ByLayer
370
18
48
1
60
0
100
AcDbLine
10
38.06964
20
24.821323
30
0
11
37.885094
21
24.636778
31
0
39
0
210
0
220
0
230
1
0
LINE
5
84
100
AcDbEntity
8
1
62
256
6
ByLayer
370
18
48
1
60
0
100
AcDbLine
10
38.157832
20
27.154899
30
0
11
38.379255
21
27.376322
31
0
39
0
210
0
220
0
230
1
0
LINE
5
85
100
AcDbEntity
8
1
62
256
6
ByLayer
370
18
48
1
60
0
100
AcDbLine
10
33.166697
20
28.238642
30
0
11
33.71941
21
28.511041
31
0
39
0
210
0
220
0
230
1
0
LINE
5
86
100
AcDbEntity
8
1
62
256
6
ByLayer
370
18
48
1
60
0
100
AcDbLine
10
28.824781
20
31.781753
30
0
11
27.206601
21
30.984249
31
0
39
0
210
0
220
0
230
1
0
LINE
5
87
100
AcDbEntity
8
1
62
256
6
ByLayer
370
18
48
1
60
0
100
AcDbLine
10
25.936086
20
28.716712
30
0
11
26.78828
21
19.487739
31
0
39
0
210
0
220
0
230
1
0
LINE
5
88
100
AcDbEntity
8
80
62
256
6
ByLayer
370
18
48
1
60
0
100
AcDbLine
10
0
20
0
30
0
11
-5
21
0
31
0
39
0
210
0
220
0
230
1
0
LINE
5
89
100
AcDbEntity
8
4
62
256
6
ByLayer
370
18
48
0.05
60
0
100
AcDbLine
10
0
20
0
30
0
11
52
21
0
31
0
39
0
210
0
220
0
230
1
0
LINE
5
8B
100
AcDbEntity
8
81
62
256
6
ByLayer
370
18
48
1
60
0
100
AcDbLine
10
52
20
35
30
0
11
62
21
35
31
0
39
0
210
0
220
0
230
1
0
LINE
5
8C
100
AcDbEntity
8
SK4
62
256
6
ByLayer
370
18
48
0.05
60
0
100
AcDbLine
10
-35
20
0
30
0
11
52
21
0
31
0
39
0
210
0
220
0
230
1
0
LINE
5
8E
100
AcDbEntity
8
1
62
256
6
ByLayer
370
18
48
1
60
0
100
AcDbLine
10
36.355813
20
29.838323
30
0
11
37.317733
21
29.916278
31
0
39
0
210
0
220
0
230
1
0
LINE
5
8F
100
AcDbEntity
8
1
62
256
6
ByLayer
370
18
48
1
60
0
100
AcDbLine
10
38.245374
20
29.991455
30
0
11
38.383375
21
30.002639
31
0
39
0
210
0
220
0
230
1
0
LINE
5
90
100
AcDbEntity
8
1
62
256
6
ByLayer
370
18
48
1
60
0
100
AcDbLine
10
54.492155
20
24.890076
30
0
11
54.148638
21
24.434091
31
0
39
0
210
0
220
0
230
1
0
LINE
5
91
100
AcDbEntity
8
1
62
256
6
ByLayer
370
18
48
1
60
0
100
AcDbLine
10
51.078577
20
22.920874
30
0
11
50.352625
21
22.585055
31
0
39
0
210
0
220
0
230
1
0
LINE
5
92
100
AcDbEntity
8
1
62
256
6
ByLayer
370
18
48
1
60
0
100
AcDbLine
10
49.631127
20
30.398645
30
0
11
50.407632
21
30.186981
31
0
39
0
210
0
220
0
230
1
0
LINE
5
93
100
AcDbEntity
8
1
62
256
6
ByLayer
370
18
48
1
60
0
100
AcDbLine
10
54.111893
20
29.00818
30
0
11
53.704119
21
29.248085
31
0
39
0
210
0
220
0
230
1
0
LINE
5
94
100
AcDbEntity
8
1
62
256
6
ByLayer
370
18
48
1
60
0
100
AcDbLine
10
40.728121
20
22.945642
30
0
11
40.728258
21
22.945779
31
0
39
0
210
0
220
0
230
1
0
LINE
5
95
100
AcDbEntity
8
1
62
256
6
ByLayer
370
18
48
1
60
0
100
AcDbLine
10
51.078594
20
22.920883
30
0
11
49.967472
21
22.370991
31
0
39
0
210
0
220
0
230
1
0
LINE
5
96
100
AcDbEntity
8
1
62
256
6
ByLayer
370
18
48
1
60
0
100
AcDbLine
10
53.555056
20
23.730793
30
0
11
53.332574
21
23.990473
31
0
39
0
210
0
220
0
230
1
0
LINE
5
97
100
AcDbEntity
8
1
62
256
6
ByLayer
370
18
48
1
60
0
100
AcDbLine
10
52.983464
20
29.920945
30
0
11
52.822249
21
29.517125
31
0
39
0
210
0
220
0
230
1
0
LINE
5
98
100
AcDbEntity
8
1
62
256
6
ByLayer
370
18
48
1
60
0
100
AcDbLine
10
50.407651
20
30.186975
30
0
11
49.212573
21
30.546296
31
0
39
0
210
0
220
0
230
1
0
LINE
5
99
100
AcDbEntity
8
1
62
256
6
ByLayer
370
18
48
1
60
0
100
AcDbLine
10
37.913993
20
24.654199
30
0
11
38.017498
21
24.757704
31
0
39
0
210
0
220
0
230
1
0
LINE
5
9A
100
AcDbEntity
8
1
62
256
6
ByLayer
370
18
48
1
60
0
100
AcDbLine
10
20.920792
20
25
30
0
11
20.920792
21
24.599981
31
0
39
0
210
0
220
0
230
1
0
LINE
5
9B
100
AcDbEntity
8
1
62
256
6
ByLayer
370
18
48
1
60
0
100
AcDbLine
10
20.920792
20
-24.488619
30
0
11
20.920792
21
-25
31
0
39
0
210
0
220
0
230
1
0
LINE
5
9C
100
AcDbEntity
8
1
62
256
6
ByLayer
370
18
48
1
60
0
100
AcDbLine
10
0.3
20
-25
30
0
11
0.3
21
25
31
0
39
0
210
0
220
0
230
1
0
LINE
5
9D
100
AcDbEntity
8
1
62
256
6
ByLayer
370
18
48
1
60
0
100
AcDbLine
10
0
20
-24.7
30
0
11
0
21
24.7
31
0
39
0
210
0
220
0
230
1
0
LINE
5
9E
100
AcDbEntity
8
SK1
62
256
6
ByLayer
370
18
48
1
60
0
100
AcDbLine
10
-0.2
20
6.103447
30
0
11
-0.2
21
17.833485
31
0
39
0
210
0
220
0
230
1
0
LINE
5
A0
100
AcDbEntity
8
SK1
62
256
6
ByLayer
370
18
48
1
60
0
100
AcDbLine
10
-0.2
20
-17.833485
30
0
11
-0.2
21
-6.103448
31
0
39
0
210
0
220
0
230
1
0
LINE
5
A1
100
AcDbEntity
8
1
62
256
6
ByLayer
370
18
48
1
60
0
100
AcDbLine
10
21.415098
20
17.37773
30
0
11
21.415098
21
-0.644073
31
0
39
0
210
0
220
0
230
1
0
LINE
5
A2
100
AcDbEntity
8
1
62
256
6
ByLayer
370
18
48
1
60
0
100
AcDbLine
10
21.415098
20
-6.094281
30
0
11
21.415098
21
-24.647972
31
0
39
0
210
0
220
0
230
1
0
LINE
5
A3
100
AcDbEntity
8
1
62
256
6
ByLayer
370
18
48
1
60
0
100
AcDbLine
10
49.027393
20
32.908397
30
0
11
47.386736
21
31.282136
31
0
39
0
210
0
220
0
230
1
0
LINE
5
A4
100
AcDbEntity
8
1
62
256
6
ByLayer
370
18
48
1
60
0
100
AcDbLine
10
51.159537
20
17.84332
30
0
11
48.090964
21
20.911894
31
0
39
0
210
0
220
0
230
1
0
LINE
5
A5
100
AcDbEntity
8
1
62
256
6
ByLayer
370
18
48
1
60
0
100
AcDbLine
10
34.065697
20
17.8209
30
0
11
34.237004
21
15.965699
31
0
39
0
210
0
220
0
230
1
0
LINE
5
A6
100
AcDbEntity
8
1
62
256
6
ByLayer
370
18
48
1
60
0
100
AcDbLine
10
49.027393
20
32.908397
30
0
11
43.26896
21
32.4046
31
0
39
0
210
0
220
0
230
1
0
LINE
5
A7
100
AcDbEntity
8
1
62
256
6
ByLayer
370
18
48
1
60
0
100
AcDbLine
10
22
20
-24.647972
30
0
11
22
21
-25.15
31
0
39
0
210
0
220
0
230
1
0
LINE
5
A8
100
AcDbEntity
8
1
62
256
6
ByLayer
370
18
48
1
60
0
100
AcDbLine
10
20.960985
20
-25.15
30
0
11
20.960985
21
-24.642711
31
0
39
0
210
0
220
0
230
1
0
LINE
5
A9
100
AcDbEntity
8
1
62
256
6
ByLayer
370
18
48
1
60
0
100
AcDbLine
10
48.104013
20
20.917887
30
0
11
48.830476
21
20.191423
31
0
39
0
210
0
220
0
230
1
0
LINE
5
AA
100
AcDbEntity
8
1
62
256
6
ByLayer
370
18
48
1
60
0
100
AcDbLine
10
49.27578
20
32.930129
30
0
11
49.027393
21
32.908397
31
0
39
0
210
0
220
0
230
1
0
LINE
5
AB
100
AcDbEntity
8
1
62
256
6
ByLayer
370
18
48
1
60
0
100
AcDbLine
10
47.576067
20
31.230412
30
0
11
51.117023
21
34.771369
31
0
39
0
210
0
220
0
230
1
0
LINE
5
AC
100
AcDbEntity
8
1
62
256
6
ByLayer
370
18
48
1
60
0
100
AcDbLine
10
51.198956
20
18.015322
30
0
11
48.23549
21
20.978789
31
0
39
0
210
0
220
0
230
1
0
LINE
5
AD
100
AcDbEntity
8
1
62
256
6
ByLayer
370
18
48
1
60
0
100
AcDbLine
10
51.154662
20
17.971027
30
0
11
51.198956
21
18.015322
31
0
39
0
210
0
220
0
230
1
0
LINE
5
AE
100
AcDbEntity
8
1
62
256
6
ByLayer
370
18
48
1
60
0
100
AcDbLine
10
60.09728
20
25.791113
30
0
11
52.316026
21
18.00986
31
0
39
0
210
0
220
0
230
1
0
LINE
5
AF
100
AcDbEntity
8
1
62
256
6
ByLayer
370
18
48
1
60
0
100
AcDbLine
10
39.062801
20
25.01625
30
0
11
39.284224
21
25.237673
31
0
39
0
210
0
220
0
230
1
0
LINE
5
B0
100
AcDbEntity
8
1
62
256
6
ByLayer
370
18
48
1
60
0
100
AcDbLine
10
38.888919
20
26.899329
30
0
11
39.110342
21
27.120752
31
0
39
0
210
0
220
0
230
1
0
LINE
5
B1
100
AcDbEntity
8
1
62
256
6
ByLayer
370
18
48
1
60
0
100
AcDbLine
10
39.26975
20
26.357369
30
0
11
39.491173
21
26.578792
31
0
39
0
210
0
220
0
230
1
0
LINE
5
B2
100
AcDbEntity
8
1
62
256
6
ByLayer
370
18
48
1
60
0
100
AcDbLine
10
36.667515
20
26.142335
30
0
11
36.888938
21
26.363758
31
0
39
0
210
0
220
0
230
1
0
LINE
5
B3
100
AcDbEntity
8
1
62
256
6
ByLayer
370
18
48
1
60
0
100
AcDbLine
10
37.55341
20
27.164264
30
0
11
37.774833
21
27.385687
31
0
39
0
210
0
220
0
230
1
0
LINE
5
B4
100
AcDbEntity
8
1
62
256
6
ByLayer
370
18
48
1
60
0
100
AcDbLine
10
31.300543
20
21.198947
30
0
11
28.136665
21
20.658148
31
0
39
0
210
0
220
0
230
1
0
LINE
5
B5
100
AcDbEntity
8
1
62
256
6
ByLayer
370
18
48
1
60
0
100
AcDbLine
10
49.10925
20
30.518258
30
0
11
49.135684
21
30.513471
31
0
39
0
210
0
220
0
230
1
0
LINE
5
B6
100
AcDbEntity
8
1
62
256
6
ByLayer
370
18
48
1
60
0
100
AcDbLine
10
30.534941
20
29.490156
30
0
11
27.371064
21
28.949356
31
0
39
0
210
0
220
0
230
1
0
LINE
5
B7
100
AcDbEntity
8
1
62
256
6
ByLayer
370
18
48
1
60
0
100
AcDbLine
10
29.638476
20
27.745192
30
0
11
30.114687
21
22.587981
31
0
39
0
210
0
220
0
230
1
0
LINE
5
B8
100
AcDbEntity
8
1
62
256
6
ByLayer
370
18
48
1
60
0
100
AcDbLine
10
30.679636
20
27.923157
30
0
11
30.534941
21
29.490156
31
0
39
0
210
0
220
0
230
1
0
LINE
5
B9
100
AcDbEntity
8
1
62
256
6
ByLayer
370
18
48
1
60
0
100
AcDbLine
10
28.136665
20
20.658148
30
0
11
27.371064
21
28.949356
31
0
39
0
210
0
220
0
230
1
0
LINE
5
BA
100
AcDbEntity
8
1
62
256
6
ByLayer
370
18
48
1
60
0
100
AcDbLine
10
29.967466
20
31.544451
30
0
11
39.520697
21
32.333875
31
0
39
0
210
0
220
0
230
1
0
LINE
5
BB
100
AcDbEntity
8
1
62
256
6
ByLayer
370
18
48
1
60
0
100
AcDbLine
10
36.812488
20
30.063391
30
0
11
36.355813
21
29.838323
31
0
39
0
210
0
220
0
230
1
0
LINE
5
BC
100
AcDbEntity
8
1
62
256
6
ByLayer
370
18
48
1
60
0
100
AcDbLine
10
31.84743
20
17.911255
30
0
11
31.113107
21
17.785737
31
0
39
0
210
0
220
0
230
1
0
LINE
5
BD
100
AcDbEntity
8
1
62
256
6
ByLayer
370
18
48
1
60
0
100
AcDbLine
10
39.90315
20
32.91461
30
0
11
41.73623
21
32.822404
31
0
39
0
210
0
220
0
230
1
0
LINE
5
BE
100
AcDbEntity
8
1
62
256
6
ByLayer
370
18
48
1
60
0
100
AcDbLine
10
38.847924
20
30.231587
30
0
11
38.383375
21
30.002639
31
0
39
0
210
0
220
0
230
1
0
LINE
5
BF
100
AcDbEntity
8
1
62
256
6
ByLayer
370
18
48
1
60
0
100
AcDbLine
10
31.998174
20
17.436121
30
0
11
34.231718
21
17.851767
31
0
39
0
210
0
220
0
230
1
0
LINE
5
C0
100
AcDbEntity
8
1
62
256
6
ByLayer
370
18
48
1
60
0
100
AcDbLine
10
32.100914
20
27.944751
30
0
11
29.638476
21
27.745192
31
0
39
0
210
0
220
0
230
1
0
LINE
5
C1
100
AcDbEntity
8
1
62
256
6
ByLayer
370
18
48
1
60
0
100
AcDbLine
10
49.858093
20
22.408536
30
0
11
48.889681
21
21.960557
31
0
39
0
210
0
220
0
230
1
0
LINE
5
C2
100
AcDbEntity
8
1
62
256
6
ByLayer
370
18
48
1
60
0
100
AcDbLine
10
47.766002
20
31.178774
30
0
11
41.73623
21
32.822404
31
0
39
0
210
0
220
0
230
1
0
LINE
5
C3
100
AcDbEntity
8
1
62
256
6
ByLayer
370
18
48
1
60
0
100
AcDbLine
10
43.051306
20
18.580567
30
0
11
48.688513
21
21.188289
31
0
39
0
210
0
220
0
230
1
0
LINE
5
C4
100
AcDbEntity
8
1
62
256
6
ByLayer
370
18
48
1
60
0
100
AcDbLine
10
49.883514
20
22.414714
30
0
11
49.858093
21
22.408536
31
0
39
0
210
0
220
0
230
1
0
LINE
5
C5
100
AcDbEntity
8
1
62
256
6
ByLayer
370
18
48
1
60
0
100
AcDbLine
10
30.114687
20
22.587981
30
0
11
31.155848
21
22.765946
31
0
39
0
210
0
220
0
230
1
0
LINE
5
C6
100
AcDbEntity
8
1
62
256
6
ByLayer
370
18
48
1
60
0
100
AcDbLine
10
29.679242
20
17.079072
30
0
11
31.113107
21
17.785737
31
0
39
0
210
0
220
0
230
1
0
LINE
5
C7
100
AcDbEntity
8
1
62
256
6
ByLayer
370
18
48
1
60
0
100
AcDbLine
10
29.638476
20
27.745192
30
0
11
30.679636
21
27.923157
31
0
39
0
210
0
220
0
230
1
0
LINE
5
C8
100
AcDbEntity
8
1
62
256
6
ByLayer
370
18
48
1
60
0
100
AcDbLine
10
26.771477
20
19.985329
30
0
11
26.005876
21
28.276537
31
0
39
0
210
0
220
0
230
1
0
LINE
5
C9
100
AcDbEntity
8
1
62
256
6
ByLayer
370
18
48
1
60
0
100
AcDbLine
10
48.0734
20
30.800616
30
0
11
49.10925
21
30.518258
31
0
39
0
210
0
220
0
230
1
0
LINE
5
CA
100
AcDbEntity
8
1
62
256
6
ByLayer
370
18
48
1
60
0
100
AcDbLine
10
26.771477
20
19.985329
30
0
11
28.136665
21
20.658148
31
0
39
0
210
0
220
0
230
1
0
LINE
5
CB
100
AcDbEntity
8
1
62
256
6
ByLayer
370
18
48
1
60
0
100
AcDbLine
10
32.601855
20
28.191635
30
0
11
32.100914
21
27.944751
31
0
39
0
210
0
220
0
230
1
0
LINE
5
CC
100
AcDbEntity
8
1
62
256
6
ByLayer
370
18
48
1
60
0
100
AcDbLine
10
36.812488
20
30.063391
30
0
11
38.847924
21
30.231587
31
0
39
0
210
0
220
0
230
1
0
LINE
5
CD
100
AcDbEntity
8
1
62
256
6
ByLayer
370
18
48
1
60
0
100
AcDbLine
10
31.300543
20
21.198947
30
0
11
31.155848
21
22.765946
31
0
39
0
210
0
220
0
230
1
0
LINE
5
CE
100
AcDbEntity
8
1
62
256
6
ByLayer
370
18
48
1
60
0
100
AcDbLine
10
31.146454
20
18.776392
30
0
11
40.699686
21
19.565816
31
0
39
0
210
0
220
0
230
1
0
LINE
5
CF
100
AcDbEntity
8
1
62
256
6
ByLayer
370
18
48
1
60
0
100
AcDbLine
10
40.570915
20
18.632113
30
0
11
31.84743
21
17.911255
31
0
39
0
210
0
220
0
230
1
0
LINE
5
D0
100
AcDbEntity
8
1
62
256
6
ByLayer
370
18
48
1
60
0
100
AcDbLine
10
39.608031
20
21.999885
30
0
11
37.572595
21
21.831688
31
0
39
0
210
0
220
0
230
1
0
LINE
5
D1
100
AcDbEntity
8
1
62
256
6
ByLayer
370
18
48
1
60
0
100
AcDbLine
10
34.231718
20
17.851767
30
0
11
43.051306
21
18.580567
31
0
39
0
210
0
220
0
230
1
0
LINE
5
D2
100
AcDbEntity
8
1
62
256
6
ByLayer
370
18
48
1
60
0
100
AcDbLine
10
30.532354
20
32.153091
30
0
11
39.255839
21
32.87395
31
0
39
0
210
0
220
0
230
1
0
LINE
5
D3
100
AcDbEntity
8
1
62
256
6
ByLayer
370
18
48
1
60
0
100
AcDbLine
10
41.218226
20
18.672773
30
0
11
43.051306
21
18.580567
31
0
39
0
210
0
220
0
230
1
0
LINE
5
D4
100
AcDbEntity
8
1
62
256
6
ByLayer
370
18
48
1
60
0
100
AcDbLine
10
26.005876
20
28.276537
30
0
11
27.371064
21
28.949356
31
0
39
0
210
0
220
0
230
1
0
LINE
5
D5
100
AcDbEntity
8
1
62
256
6
ByLayer
370
18
48
1
60
0
100
AcDbLine
10
50.909102
20
22.294735
30
0
11
50.762445
21
22.348735
31
0
39
0
210
0
220
0
230
1
0
LINE
5
D6
100
AcDbEntity
8
1
62
256
6
ByLayer
370
18
48
1
60
0
100
AcDbLine
10
54.727414
20
23.851994
30
0
11
55.465272
21
25.137278
31
0
39
0
210
0
220
0
230
1
0
LINE
5
D7
100
AcDbEntity
8
1
62
256
6
ByLayer
370
18
48
1
60
0
100
AcDbLine
10
50.114384
20
30.901273
30
0
11
49.496221
21
31.45367
31
0
39
0
210
0
220
0
230
1
0
LINE
5
D8
100
AcDbEntity
8
1
62
256
6
ByLayer
370
18
48
1
60
0
100
AcDbLine
10
54.446552
20
23.67259
30
0
11
52.237686
21
22.404521
31
0
39
0
210
0
220
0
230
1
0
LINE
5
D9
100
AcDbEntity
8
1
62
256
6
ByLayer
370
18
48
1
60
0
100
AcDbLine
10
49.979845
20
30.824037
30
0
11
49.68876
21
30.725342
31
0
39
0
210
0
220
0
230
1
0
LINE
5
DA
100
AcDbEntity
8
1
62
256
6
ByLayer
370
18
48
1
60
0
100
AcDbLine
10
52.186659
20
21.182934
30
0
11
50.457802
21
21.040071
31
0
39
0
210
0
220
0
230
1
0
LINE
5
DB
100
AcDbEntity
8
1
62
256
6
ByLayer
370
18
48
1
60
0
100
AcDbLine
10
50.114384
20
30.901273
30
0
11
49.979845
21
30.824037
31
0
39
0
210
0
220
0
230
1
0
LINE
5
DC
100
AcDbEntity
8
1
62
256
6
ByLayer
370
18
48
1
60
0
100
AcDbLine
10
49.979845
20
30.824037
30
0
11
52.983464
21
29.920945
31
0
39
0
210
0
220
0
230
1
0
LINE
5
DD
100
AcDbEntity
8
1
62
256
6
ByLayer
370
18
48
1
60
0
100
AcDbLine
10
55.122529
20
28.849069
30
0
11
55.72743
21
29.30144
31
0
39
0
210
0
220
0
230
1
0
LINE
5
DE
100
AcDbEntity
8
1
62
256
6
ByLayer
370
18
48
1
60
0
100
AcDbLine
10
53.850791
20
30.124487
30
0
11
51.442967
21
31.011059
31
0
39
0
210
0
220
0
230
1
0
LINE
5
DF
100
AcDbEntity
8
1
62
256
6
ByLayer
370
18
48
1
60
0
100
AcDbLine
10
50.457802
20
21.040071
30
0
11
50.909102
21
22.294735
31
0
39
0
210
0
220
0
230
1
0
LINE
5
E0
100
AcDbEntity
8
1
62
256
6
ByLayer
370
18
48
1
60
0
100
AcDbLine
10
48.956729
20
31.143958
30
0
11
49.496221
21
31.45367
31
0
39
0
210
0
220
0
230
1
0
LINE
5
E1
100
AcDbEntity
8
1
62
256
6
ByLayer
370
18
48
1
60
0
100
AcDbLine
10
54.446552
20
23.67259
30
0
11
54.569094
21
22.550645
31
0
39
0
210
0
220
0
230
1
0
LINE
5
E2
100
AcDbEntity
8
1
62
256
6
ByLayer
370
18
48
1
60
0
100
AcDbLine
10
53.850791
20
30.124487
30
0
11
53.822104
21
30.640296
31
0
39
0
210
0
220
0
230
1
0
LINE
5
E3
100
AcDbEntity
8
1
62
256
6
ByLayer
370
18
48
1
60
0
100
AcDbLine
10
51.442967
20
31.011059
30
0
11
50.114384
21
30.901273
31
0
39
0
210
0
220
0
230
1
0
LINE
5
E4
100
AcDbEntity
8
1
62
256
6
ByLayer
370
18
48
1
60
0
100
AcDbLine
10
53.822104
20
30.640296
30
0
11
51.225078
21
31.596533
31
0
39
0
210
0
220
0
230
1
0
LINE
5
E5
100
AcDbEntity
8
1
62
256
6
ByLayer
370
18
48
1
60
0
100
AcDbLine
10
50.461922
20
22.352252
30
0
11
50.762445
21
22.348735
31
0
39
0
210
0
220
0
230
1
0
LINE
5
E6
100
AcDbEntity
8
1
62
256
6
ByLayer
370
18
48
1
60
0
100
AcDbLine
10
50.762445
20
22.348735
30
0
11
53.555056
21
23.730793
31
0
39
0
210
0
220
0
230
1
0
LINE
5
E7
100
AcDbEntity
8
1
62
256
6
ByLayer
370
18
48
1
60
0
100
AcDbLine
10
49.68876
20
30.725342
30
0
11
48.956729
21
31.143958
31
0
39
0
210
0
220
0
230
1
0
LINE
5
E8
100
AcDbEntity
8
1
62
256
6
ByLayer
370
18
48
1
60
0
100
AcDbLine
10
52.237686
20
22.404521
30
0
11
50.909102
21
22.294735
31
0
39
0
210
0
220
0
230
1
0
LINE
5
E9
100
AcDbEntity
8
1
62
256
6
ByLayer
370
18
48
1
60
0
100
AcDbLine
10
54.160281
20
29.993866
30
0
11
55.122529
21
28.849069
31
0
39
0
210
0
220
0
230
1
0
LINE
5
EA
100
AcDbEntity
8
1
62
256
6
ByLayer
370
18
48
1
60
0
100
AcDbLine
10
51.225078
20
31.596533
30
0
11
49.496221
21
31.45367
31
0
39
0
210
0
220
0
230
1
0
LINE
5
EB
100
AcDbEntity
8
1
62
256
6
ByLayer
370
18
48
1
60
0
100
AcDbLine
10
49.869716
20
21.256607
30
0
11
50.457802
21
21.040071
31
0
39
0
210
0
220
0
230
1
0
LINE
5
EC
100
AcDbEntity
8
1
62
256
6
ByLayer
370
18
48
1
60
0
100
AcDbLine
10
55.465272
20
25.137278
30
0
11
56.200178
21
24.18173
31
0
39
0
210
0
220
0
230
1
0
LINE
5
ED
100
AcDbEntity
8
1
62
256
6
ByLayer
370
18
48
1
60
0
100
AcDbLine
10
52.237686
20
22.404521
30
0
11
52.186659
21
21.182934
31
0
39
0
210
0
220
0
230
1
0
LINE
5
EE
100
AcDbEntity
8
1
62
256
6
ByLayer
370
18
48
1
60
0
100
AcDbLine
10
54.569094
20
22.550645
30
0
11
52.186659
21
21.182934
31
0
39
0
210
0
220
0
230
1
0
LINE
5
EF
100
AcDbEntity
8
1
62
256
6
ByLayer
370
18
48
1
60
0
100
AcDbLine
10
50.461922
20
22.352252
30
0
11
49.869716
21
21.256607
31
0
39
0
210
0
220
0
230
1
0
LINE
5
F0
100
AcDbEntity
8
1
62
256
6
ByLayer
370
18
48
1
60
0
100
AcDbLine
10
51.442967
20
31.011059
30
0
11
51.225078
21
31.596533
31
0
39
0
210
0
220
0
230
1
0
LINE
5
F1
100
AcDbEntity
8
1
62
256
6
ByLayer
370
18
48
1
60
0
100
AcDbLine
10
11.461325
20
7.529667
30
0
11
11.461325
21
23.83913
31
0
39
0
210
0
220
0
230
1
0
LINE
5
F2
100
AcDbEntity
8
1
62
256
6
ByLayer
370
18
48
1
60
0
100
AcDbLine
10
8.538675
20
-23.83913
30
0
11
11.461325
21
-23.83913
31
0
39
0
210
0
220
0
230
1
0
LINE
5
F3
100
AcDbEntity
8
1
62
256
6
ByLayer
370
18
48
1
60
0
100
AcDbLine
10
17.430319
20
-3.434142
30
0
11
16.856727
21
-3.853657
31
0
39
0
210
0
220
0
230
1
0
LINE
5
F4
100
AcDbEntity
8
1
62
256
6
ByLayer
370
18
48
1
60
0
100
AcDbLine
10
11.461325
20
-23.83913
30
0
11
11.461325
21
-15.626418
31
0
39
0
210
0
220
0
230
1
0
LINE
5
F5
100
AcDbEntity
8
1
62
256
6
ByLayer
370
18
48
1
60
0
100
AcDbLine
10
8.105662
20
8.055848
30
0
11
8.105662
21
23.666502
31
0
39
0
210
0
220
0
230
1
0
LINE
5
F6
100
AcDbEntity
8
1
62
256
6
ByLayer
370
18
48
1
60
0
100
AcDbLine
10
23.76401
20
30.698138
30
0
11
25.577439
21
30.856792
31
0
39
0
210
0
220
0
230
1
0
LINE
5
F7
100
AcDbEntity
8
1
62
256
6
ByLayer
370
18
48
1
60
0
100
AcDbLine
10
22
20
-24.647972
30
0
11
21.415098
21
-24.647972
31
0
39
0
210
0
220
0
230
1
0
LINE
5
F8
100
AcDbEntity
8
1
62
256
6
ByLayer
370
18
48
1
60
0
100
AcDbLine
10
8.538675
20
7.529667
30
0
11
11.461325
21
7.529667
31
0
39
0
210
0
220
0
230
1
0
LINE
5
F9
100
AcDbEntity
8
1
62
256
6
ByLayer
370
18
48
1
60
0
100
AcDbLine
10
8.538675
20
7.529667
30
0
11
8.538675
21
23.83913
31
0
39
0
210
0
220
0
230
1
0
LINE
5
FA
100
AcDbEntity
8
1
62
256
6
ByLayer
370
18
48
1
60
0
100
AcDbLine
10
11.894338
20
-23.666502
30
0
11
11.894338
21
-15.277633
31
0
39
0
210
0
220
0
230
1
0
LINE
5
FB
100
AcDbEntity
8
1
62
256
6
ByLayer
370
18
48
1
60
0
100
AcDbLine
10
46.873948
20
22.251761
30
0
11
45.197426
21
23.928283
31
0
39
0
210
0
220
0
230
1
0
LINE
5
FC
100
AcDbEntity
8
1
62
256
6
ByLayer
370
18
48
1
60
0
100
AcDbLine
10
11.461325
20
23.83913
30
0
11
8.538675
21
23.83913
31
0
39
0
210
0
220
0
230
1
0
LINE
5
FD
100
AcDbEntity
8
1
62
256
6
ByLayer
370
18
48
1
60
0
100
AcDbLine
10
11.894338
20
-14.368241
30
0
11
11.894338
21
-8.055848
31
0
39
0
210
0
220
0
230
1
0
LINE
5
FE
100
AcDbEntity
8
1
62
256
6
ByLayer
370
18
48
1
60
0
100
AcDbLine
10
17.628994
20
-3.288835
30
0
11
17.430319
21
-3.434142
31
0
39
0
210
0
220
0
230
1
0
LINE
5
FF
100
AcDbEntity
8
1
62
256
6
ByLayer
370
18
48
1
60
0
100
AcDbLine
10
35.763594
20
2.447376
30
0
11
24.987511
21
-8.328706
31
0
39
0
210
0
220
0
230
1
0
LINE
5
100
100
AcDbEntity
8
1
62
256
6
ByLayer
370
18
48
1
60
0
100
AcDbLine
10
8.105662
20
-23.666502
30
0
11
8.105662
21
-15.277633
31
0
39
0
210
0
220
0
230
1
0
LINE
5
101
100
AcDbEntity
8
1
62
256
6
ByLayer
370
18
48
1
60
0
100
AcDbLine
10
11.461325
20
-7.529667
30
0
11
8.538675
21
-7.529667
31
0
39
0
210
0
220
0
230
1
0
LINE
5
102
100
AcDbEntity
8
1
62
256
6
ByLayer
370
18
48
1
60
0
100
AcDbLine
10
22.080584
20
16.130386
30
0
11
22.080584
21
29.092563
31
0
39
0
210
0
220
0
230
1
0
LINE
5
103
100
AcDbEntity
8
1
62
256
6
ByLayer
370
18
48
1
60
0
100
AcDbLine
10
8.538675
20
-23.83913
30
0
11
8.538675
21
-15.626418
31
0
39
0
210
0
220
0
230
1
0
LINE
5
104
100
AcDbEntity
8
1
62
256
6
ByLayer
370
18
48
1
60
0
100
AcDbLine
10
11.461325
20
-13.690625
30
0
11
11.461325
21
-7.529667
31
0
39
0
210
0
220
0
230
1
0
LINE
5
105
100
AcDbEntity
8
1
62
256
6
ByLayer
370
18
48
1
60
0
100
AcDbLine
10
24.275404
20
18.112644
30
0
11
23.171344
21
30.069245
31
0
39
0
210
0
220
0
230
1
0
LINE
5
106
100
AcDbEntity
8
1
62
256
6
ByLayer
370
18
48
1
60
0
100
AcDbLine
10
51.220963
20
17.904746
30
0
11
51.159537
21
17.84332
31
0
39
0
210
0
220
0
230
1
0
LINE
5
107
100
AcDbEntity
8
1
62
256
6
ByLayer
370
18
48
1
60
0
100
AcDbLine
10
22.080584
20
16.130386
30
0
11
35.763594
21
2.447376
31
0
39
0
210
0
220
0
230
1
0
LINE
5
108
100
AcDbEntity
8
1
62
256
6
ByLayer
370
18
48
1
60
0
100
AcDbLine
10
11.894338
20
8.055848
30
0
11
11.894338
21
23.666502
31
0
39
0
210
0
220
0
230
1
0
LINE
5
109
100
AcDbEntity
8
1
62
256
6
ByLayer
370
18
48
1
60
0
100
AcDbLine
10
34.237004
20
15.965699
30
0
11
33.532808
21
15.849148
31
0
39
0
210
0
220
0
230
1
0
LINE
5
10A
100
AcDbEntity
8
1
62
256
6
ByLayer
370
18
48
1
60
0
100
AcDbLine
10
51.220963
20
17.904746
30
0
11
49.476601
21
19.649108
31
0
39
0
210
0
220
0
230
1
0
LINE
5
10B
100
AcDbEntity
8
1
62
256
6
ByLayer
370
18
48
1
60
0
100
AcDbLine
10
22
20
-24.647972
30
0
11
22
21
-15.541196
31
0
39
0
210
0
220
0
230
1
0
LINE
5
10C
100
AcDbEntity
8
1
62
256
6
ByLayer
370
18
48
1
60
0
100
AcDbLine
10
17.430319
20
23.455355
30
0
11
17.430319
21
-3.434142
31
0
39
0
210
0
220
0
230
1
0
LINE
5
10D
100
AcDbEntity
8
1
62
256
6
ByLayer
370
18
48
1
60
0
100
AcDbLine
10
8.105662
20
-14.368241
30
0
11
8.105662
21
-8.055848
31
0
39
0
210
0
220
0
230
1
0
LINE
5
10E
100
AcDbEntity
8
1
62
256
6
ByLayer
370
18
48
1
60
0
100
AcDbLine
10
16.856727
20
-3.853657
30
0
11
16.845553
21
-5.071794
31
0
39
0
210
0
220
0
230
1
0
LINE
5
10F
100
AcDbEntity
8
1
62
256
6
ByLayer
370
18
48
1
60
0
100
AcDbLine
10
35.763594
20
2.447376
30
0
11
51.159537
21
17.84332
31
0
39
0
210
0
220
0
230
1
0
LINE
5
110
100
AcDbEntity
8
1
62
256
6
ByLayer
370
18
48
1
60
0
100
AcDbLine
10
17.430319
20
-9.593055
30
0
11
17.430319
21
-23.455355
31
0
39
0
210
0
220
0
230
1
0
LINE
5
111
100
AcDbEntity
8
1
62
256
6
ByLayer
370
18
48
1
60
0
100
AcDbLine
10
23.154634
20
30.644824
30
0
11
22.471545
21
30.585062
31
0
39
0
210
0
220
0
230
1
0
LINE
5
112
100
AcDbEntity
8
1
62
256
6
ByLayer
370
18
48
1
60
0
100
AcDbLine
10
8.538675
20
-13.690625
30
0
11
8.538675
21
-7.529667
31
0
39
0
210
0
220
0
230
1
0
LINE
5
113
100
AcDbEntity
8
1
62
256
6
ByLayer
370
18
48
1
60
0
100
AcDbLine
10
16.995483
20
-9.414796
30
0
11
17.254002
21
-10.646285
31
0
39
0
210
0
220
0
230
1
0
LINE
5
114
100
AcDbEntity
8
SK1
62
256
6
ByLayer
370
18
48
1
60
0
100
AcDbLine
10
-1.307107
20
-3.918065
30
0
11
-1.307107
21
3.918065
31
0
39
0
210
0
220
0
230
1
0
LINE
5
115
100
AcDbEntity
8
1
62
256
6
ByLayer
370
18
48
1
60
0
100
AcDbLine
10
51.534649
20
17.228482
30
0
11
52.316026
21
18.00986
31
0
39
0
210
0
220
0
230
1
0
LINE
5
116
100
AcDbEntity
8
1
62
256
6
ByLayer
370
18
48
1
60
0
100
AcDbLine
10
52.234093
20
34.765907
30
0
11
60.091817
21
26.908183
31
0
39
0
210
0
220
0
230
1
0
MTEXT
5
1F1
100
AcDbEntity
8
SK6
62
256
6
ByLayer
370
18
48
1
60
0
100
AcDbMText
10
-6.462045
20
-35.935741
30
0
210
0
220
0
230
1
1
\W0.7312;C5-CSSNR-35052-12-4
40
3.5
41
0
44
1.084337
50
0
71
7
72
5
7
iso_b_vert
0
DIMENSION
5
22C
100
AcDbEntity
8
2
62
256
6
ByLayer
370
13
48
1
60
0
100
AcDbDimension
2
DimnDraft3D4
10
105.25
20
26.677308
30
0
11
105.25
21
8.057075
31
0
70
32
71
5
72
1
41
1
210
0
220
0
230
1
3
Standard
100
AcDbAlignedDimension
13
54
23
0
33
0
14
62.322692
24
26.677308
34
0
50
90
100
AcDbRotatedDimension
1001
ACAD
1000
DSTYLE
1002
{
1070
    74
1070
     0
1070
   279
1070
     0
1070
   172
1070
     1
1070
   173
1070
     1
1070
   340
1005
1F2
1070
    77
1070
     1
1070
    73
1070
     0
1070
   171
1070
     3
1070
   274
1070
     4
1070
   177
1070
     2
1070
   176
1070
     2
1070
   178
1070
     7
1070
    78
1070
     8
1070
    41
1041
3.175
1070
   147
1041
2.25
1070
    42
1041
2.0
1070
    44
1041
2.0
1070
   140
1041
4.5
1070
   343
1005
22D
1070
   344
1005
22D
1002
}
0
DIMENSION
5
242
100
AcDbEntity
8
SK2
62
256
6
ByLayer
370
13
48
1
60
0
100
AcDbDimension
2
DimnDraft3D5
10
-37.75
20
25
30
0
11
-37.75
21
-2.688158
31
0
70
32
71
5
72
1
41
1
210
0
220
0
230
1
3
Standard
100
AcDbAlignedDimension
13
-2
23
-25
33
0
14
-2
24
25
34
0
50
90
100
AcDbRotatedDimension
1001
ACAD
1000
DSTYLE
1002
{
1070
    74
1070
     0
1070
   279
1070
     0
1070
   172
1070
     1
1070
   173
1070
     1
1070
   340
1005
1F2
1070
    77
1070
     1
1070
    73
1070
     0
1070
   171
1070
     3
1070
   274
1070
     4
1070
   177
1070
     2
1070
   176
1070
     2
1070
   178
1070
     7
1070
    78
1070
     8
1070
    41
1041
3.175
1070
   147
1041
2.25
1070
    42
1041
2.0
1070
    44
1041
2.0
1070
   140
1041
4.5
1070
   343
1005
22D
1070
   344
1005
22D
1002
}
0
DIMENSION
5
250
100
AcDbEntity
8
2
62
256
6
ByLayer
370
13
48
1
60
0
100
AcDbDimension
2
DimnDraft3D6
10
60.322692
20
26.677308
30
0
11
74.760347
21
-8.178275
31
0
70
34
71
5
72
1
41
1
210
0
220
0
230
1
3
Standard
100
AcDb2LineAngularDimension
13
60.322692
23
26.677308
33
0
14
60.322692
24
26.348526
34
0
15
60.651474
25
26.348526
35
0
16
76.482423
26
-12.335733
36
0
40
0
0
ENDSEC
0
SECTION
2
OBJECTS
0
DICTIONARY
5
2bb
330
0
100
AcDbDictionary
280
0
281
1
3
ACAD_GROUP
350
2bc
3
ACAD_MLINESTYLE
350
2bd
0
DICTIONARY
5
2bc
330
0
100
AcDbDictionary
280
0
281
1
0
DICTIONARY
5
2bd
330
0
100
AcDbDictionary
280
0
281
1
3
Standard
350
18
0
MLINESTYLE
5
18
330
2bd
100
AcDbMlineStyle
2
Standard
70
0
3

62
256
51
90
52
90
71
2
49
-0.5
62
256
6
ByLayer
49
0.5
62
256
6
ByLayer
0
RASTERVARIABLES
5
2a9
330

100
AcDbRasterVariables
90
0
70
1
71
1
72
1
0
ENDSEC
0
EOF
