0
SECTION
2
HEADER
9
$ACADVER
1
AC1015
9
$DWGCODEPAGE
3
ANSI_1252
9
$HANDSEED
5
2a8
9
$ANGBASE
50
0
9
$ANGDIR
70
0
9
$ATTMODE
70
1
9
$AUNITS
70
0
9
$AUPREC
70
0
9
$CECOLOR
62
256
9
$CELTSCALE
40
1
9
$CELTYPE
6
ByLayer
9
$CELWEIGHT
370
18
9
$CLAYER
8
0
9
$CMLJUST
70
0
9
$CMLSCALE
40
1
9
$CMLSTYLE
2
Standard
9
$DIMSTYLE
2
Standard
9
$TEXTSIZE
40
0.2
9
$TEXTSTYLE
7
Standard
9
$LUNITS
70
2
9
$LUPREC
70
4
9
$EXTNAMES
290
1
9
$INSUNITS
70
4
9
$LTSCALE
40
1
9
$LWDISPLAY
290
1
9
$PDMODE
70
0
9
$PDSIZE
40
0
9
$PLINEGEN
70
0
0
ENDSEC
0
SECTION
2
CLASSES
0
CLASS
1
RASTERVARIABLES
2
AcDbRasterVariables
3
ISM
90
0
280
0
281
0
0
ENDSEC
0
SECTION
2
TABLES
0
TABLE
2
VPORT
5
29e
100
AcDbSymbolTable
0
VPORT
5
1
100
AcDbSymbolTableRecord
100
AcDbViewportTableRecord
2
*Active
70
0
10
0
20
0
11
1
21
1
12
-1
22
1
13
0
23
0
14
0.5
24
0.5
15
10
25
10
16
0
26
0
36
1
17
0
27
0
37
0
0
ENDTAB
0
TABLE
2
LTYPE
5
29f
100
AcDbSymbolTable
0
LTYPE
5
14
100
AcDbSymbolTableRecord
100
AcDbLinetypeTableRecord
70
0
2
ByBlock
3

72
65
73
0
40
0
0
LTYPE
5
15
100
AcDbSymbolTableRecord
100
AcDbLinetypeTableRecord
70
0
2
ByLayer
3

72
65
73
0
40
0
0
LTYPE
5
16
100
AcDbSymbolTableRecord
100
AcDbLinetypeTableRecord
70
0
2
CONTINUOUS
3
Solid line
72
65
73
0
40
0
0
LTYPE
5
6A
100
AcDbSymbolTableRecord
100
AcDbLinetypeTableRecord
70
0
2
CENTER
3
____ _ ____ _ ____ _ ____
72
65
73
4
40
47.5
49
22
74
0
49
-8.5
74
0
49
8.5
74
0
49
-8.5
74
0
0
LTYPE
5
6B
100
AcDbSymbolTableRecord
100
AcDbLinetypeTableRecord
70
0
2
DASHED
3
__ __ __ __ __ __ __ __ __
72
65
73
2
40
25.72
49
12.86
74
0
49
-12.86
74
0
0
ENDTAB
0
TABLE
2
LAYER
5
2a0
100
AcDbSymbolTable
0
LAYER
5
10
100
AcDbSymbolTableRecord
100
AcDbLayerTableRecord
2
0
70
0
62
7
6
CONTINUOUS
290
1
370
-3
390
0
0
LAYER
5
6D
100
AcDbSymbolTableRecord
100
AcDbLayerTableRecord
2
2
70
0
62
7
6
CONTINUOUS
290
1
370
-3
390
0
0
LAYER
5
6F
100
AcDbSymbolTableRecord
100
AcDbLayerTableRecord
2
80
70
0
62
-6
6
CONTINUOUS
290
1
370
-3
390
0
0
LAYER
5
71
100
AcDbSymbolTableRecord
100
AcDbLayerTableRecord
2
81
70
0
62
-3
6
CONTINUOUS
290
1
370
-3
390
0
0
LAYER
5
73
100
AcDbSymbolTableRecord
100
AcDbLayerTableRecord
2
1
70
0
62
4
6
CONTINUOUS
290
1
370
-3
390
0
0
LAYER
5
89
100
AcDbSymbolTableRecord
100
AcDbLayerTableRecord
2
4
70
0
62
-2
6
CENTER
290
1
370
-3
390
0
0
LAYER
5
28a
100
AcDbSymbolTableRecord
100
AcDbLayerTableRecord
2
SK4
70
0
62
2
6
CENTER
290
1
370
-3
390
0
0
LAYER
5
28b
100
AcDbSymbolTableRecord
100
AcDbLayerTableRecord
2
SK1
70
0
62
4
6
CONTINUOUS
290
1
370
-3
390
0
0
LAYER
5
28c
100
AcDbSymbolTableRecord
100
AcDbLayerTableRecord
2
SK6
70
0
62
5
6
CONTINUOUS
290
1
370
-3
390
0
0
LAYER
5
28d
100
AcDbSymbolTableRecord
100
AcDbLayerTableRecord
2
SK2
70
0
62
7
6
CONTINUOUS
290
1
370
-3
390
0
0
ENDTAB
0
TABLE
2
STYLE
5
2a1
100
AcDbSymbolTable
0
STYLE
5
11
100
AcDbSymbolTableRecord
100
AcDbTextStyleTableRecord
2
Standard
3
txt
70
0
71
0
40
0
41
1
42
0
50
0
0
STYLE
5
1EE
100
AcDbSymbolTableRecord
100
AcDbTextStyleTableRecord
2
iso_b_vert
3
simplex.shx
70
0
71
0
40
0
41
1
42
0
50
0
0
STYLE
5
1EF
100
AcDbSymbolTableRecord
100
AcDbTextStyleTableRecord
2
DWGDirectTextStyle
3
simplex
70
0
71
0
40
0
41
1
42
0
50
0
0
ENDTAB
0
TABLE
2
DIMSTYLE
5
2a2
100
AcDbSymbolTable
100
AcDbDimStyleTable
0
DIMSTYLE
105
27
100
AcDbSymbolTableRecord
100
AcDbDimStyleTableRecord
2
Standard
70
0
3
<>
41
0.18
42
0.0625
44
0.18
140
0.18
147
0.09
73
0
74
0
77
1
271
2
275
0
278
52
280
0
340
11
0
ENDTAB
0
TABLE
2
VIEW
5
2a3
100
AcDbSymbolTable
0
ENDTAB
0
TABLE
2
UCS
5
2a4
100
AcDbSymbolTable
0
ENDTAB
0
TABLE
2
APPID
5
2a5
100
AcDbSymbolTable
0
APPID
5
12
100
AcDbSymbolTableRecord
100
AcDbRegAppTableRecord
2
ACAD
70
0
0
ENDTAB
0
TABLE
2
BLOCK_RECORD
5
2a6
100
AcDbSymbolTable
0
BLOCK_RECORD
5
1F
100
AcDbSymbolTableRecord
100
AcDbBlockTableRecord
2
*Model_Space
340
0
70
0
0
BLOCK_RECORD
5
1B
100
AcDbSymbolTableRecord
100
AcDbBlockTableRecord
2
*Paper_Space
340
0
70
0
0
BLOCK_RECORD
5
23
100
AcDbSymbolTableRecord
100
AcDbBlockTableRecord
2
*Paper_Space0
340
0
70
0
0
BLOCK_RECORD
5
1F1
100
AcDbSymbolTableRecord
100
AcDbBlockTableRecord
2
DimnDraft3D1
340
0
70
0
0
BLOCK_RECORD
5
1FF
100
AcDbSymbolTableRecord
100
AcDbBlockTableRecord
2
_CLOSED
340
0
70
0
0
BLOCK_RECORD
5
206
100
AcDbSymbolTableRecord
100
AcDbBlockTableRecord
2
DimnDraft3D2
340
0
70
0
0
BLOCK_RECORD
5
214
100
AcDbSymbolTableRecord
100
AcDbBlockTableRecord
2
DimnDraft3D3
340
0
70
0
0
BLOCK_RECORD
5
223
100
AcDbSymbolTableRecord
100
AcDbBlockTableRecord
2
DimnDraft3D4
340
0
70
0
0
ENDTAB
0
ENDSEC
0
SECTION
2
BLOCKS
0
BLOCK
5
20
100
AcDbEntity
8
0
100
AcDbBlockBegin
2
*Model_Space
70
0
10
0
20
0
30
0
3
*Model_Space
0
ENDBLK
5
21
100
AcDbEntity
8
0
100
AcDbBlockEnd
0
BLOCK
5
1C
100
AcDbEntity
8
0
100
AcDbBlockBegin
2
*Paper_Space
70
0
10
0
20
0
30
0
3
*Paper_Space
0
ENDBLK
5
1D
100
AcDbEntity
8
0
100
AcDbBlockEnd
0
BLOCK
5
24
100
AcDbEntity
8
0
100
AcDbBlockBegin
2
*Paper_Space0
70
0
10
0
20
0
30
0
3
*Paper_Space0
0
ENDBLK
5
25
100
AcDbEntity
8
0
100
AcDbBlockEnd
0
BLOCK
5
1FC
100
AcDbEntity
8
0
100
AcDbBlockBegin
2
DimnDraft3D1
70
0
10
0
20
0
30
0
3
DimnDraft3D1
0
MTEXT
5
1F2
100
AcDbEntity
8
2
62
256
6
ByLayer
370
18
48
1
60
0
100
AcDbMText
10
75.740889
20
-19.242173
30
0
210
0
220
0
230
1
1
\W0.7399;75%%d
40
4.5
41
0
44
1.084337
50
307.5
71
7
72
5
7
iso_b_vert
0
LINE
5
1F3
100
AcDbEntity
8
2
62
256
6
ByLayer
370
13
48
1
60
0
100
AcDbLine
10
62
20
-35
30
0
11
82.955844
21
-35
31
0
39
0
210
0
220
0
230
1
0
LINE
5
1F4
100
AcDbEntity
8
2
62
256
6
ByLayer
370
13
48
1
60
0
100
AcDbLine
10
61.708206
20
-28.62489
30
0
11
65.94141
21
-12.826357
31
0
39
0
210
0
220
0
230
1
0
ARC
5
1F5
100
AcDbEntity
8
2
62
256
6
ByLayer
370
13
48
1
60
0
100
AcDbCircle
39
0
10
60
20
-35
30
0
40
20.9558441227157
210
0
220
0
230
1
100
AcDbArc
50
0
51
75
0
LINE
5
1F6
100
AcDbEntity
8
2
62
256
6
ByLayer
370
13
48
1
60
0
100
AcDbLine
10
80.955844
20
-35
30
0
11
80.418144
21
-31.843069
31
0
39
0
210
0
220
0
230
1
0
LINE
5
1F7
100
AcDbEntity
8
2
62
256
6
ByLayer
370
13
48
1
60
0
100
AcDbLine
10
80.955844
20
-35
30
0
11
81.25354
21
-31.811468
31
0
39
0
210
0
220
0
230
1
0
LINE
5
1F8
100
AcDbEntity
8
2
62
256
6
ByLayer
370
13
48
1
60
0
100
AcDbLine
10
80.418144
20
-31.843069
30
0
11
81.25354
21
-31.811468
31
0
39
0
210
0
220
0
230
1
0
LINE
5
1F9
100
AcDbEntity
8
2
62
256
6
ByLayer
370
13
48
1
60
0
100
AcDbLine
10
65.423772
20
-14.758209
30
0
11
68.580703
21
-15.295909
31
0
39
0
210
0
220
0
230
1
0
LINE
5
1FA
100
AcDbEntity
8
2
62
256
6
ByLayer
370
13
48
1
60
0
100
AcDbLine
10
65.423772
20
-14.758209
30
0
11
68.333969
21
-16.094662
31
0
39
0
210
0
220
0
230
1
0
LINE
5
1FB
100
AcDbEntity
8
2
62
256
6
ByLayer
370
13
48
1
60
0
100
AcDbLine
10
68.580703
20
-15.295909
30
0
11
68.333969
21
-16.094662
31
0
39
0
210
0
220
0
230
1
0
ENDBLK
5
1FD
100
AcDbEntity
8
0
100
AcDbBlockEnd
0
BLOCK
5
200
100
AcDbEntity
8
0
100
AcDbBlockBegin
2
_CLOSED
70
0
10
0
20
0
30
0
3
_CLOSED
0
LINE
5
202
100
AcDbEntity
8
0
62
256
6
ByLayer
370
-2
48
1
60
0
100
AcDbLine
10
-1
20
0.166667
30
0
11
0
21
0
31
0
39
0
210
0
220
0
230
1
0
LINE
5
203
100
AcDbEntity
8
0
62
256
6
ByLayer
370
-2
48
1
60
0
100
AcDbLine
10
0
20
0
30
0
11
-1
21
-0.166667
31
0
39
0
210
0
220
0
230
1
0
LINE
5
204
100
AcDbEntity
8
0
62
256
6
ByLayer
370
-2
48
1
60
0
100
AcDbLine
10
-1
20
0.166667
30
0
11
-1
21
-0.166667
31
0
39
0
210
0
220
0
230
1
0
LINE
5
205
100
AcDbEntity
8
0
62
256
6
ByLayer
370
-2
48
1
60
0
100
AcDbLine
10
0
20
0
30
0
11
-1
21
0
31
0
39
0
210
0
220
0
230
1
0
ENDBLK
5
201
100
AcDbEntity
8
0
100
AcDbBlockEnd
0
BLOCK
5
211
100
AcDbEntity
8
0
100
AcDbBlockBegin
2
DimnDraft3D2
70
0
10
0
20
0
30
0
3
DimnDraft3D2
0
MTEXT
5
207
100
AcDbEntity
8
2
62
256
6
ByLayer
370
18
48
1
60
0
100
AcDbMText
10
25.843421
20
-49.125
30
0
210
0
220
0
230
1
1
\W0.7346;60.0
40
4.5
41
0
44
1.084337
50
0
71
7
72
5
7
iso_b_vert
0
LINE
5
208
100
AcDbEntity
8
2
62
256
6
ByLayer
370
13
48
1
60
0
100
AcDbLine
10
0
20
-27
30
0
11
0
21
-52.25
31
0
39
0
210
0
220
0
230
1
0
LINE
5
209
100
AcDbEntity
8
2
62
256
6
ByLayer
370
13
48
1
60
0
100
AcDbLine
10
60
20
-37
30
0
11
60
21
-52.25
31
0
39
0
210
0
220
0
230
1
0
LINE
5
20A
100
AcDbEntity
8
2
62
256
6
ByLayer
370
13
48
1
60
0
100
AcDbLine
10
0
20
-50.25
30
0
11
60
21
-50.25
31
0
39
0
210
0
220
0
230
1
0
LINE
5
20B
100
AcDbEntity
8
2
62
256
6
ByLayer
370
13
48
1
60
0
100
AcDbLine
10
0
20
-50.25
30
0
11
3.174998
21
-49.832003
31
0
39
0
210
0
220
0
230
1
0
LINE
5
20C
100
AcDbEntity
8
2
62
256
6
ByLayer
370
13
48
1
60
0
100
AcDbLine
10
0
20
-50.25
30
0
11
3.175002
21
-50.667997
31
0
39
0
210
0
220
0
230
1
0
LINE
5
20D
100
AcDbEntity
8
2
62
256
6
ByLayer
370
13
48
1
60
0
100
AcDbLine
10
3.174998
20
-49.832003
30
0
11
3.175002
21
-50.667997
31
0
39
0
210
0
220
0
230
1
0
LINE
5
20E
100
AcDbEntity
8
2
62
256
6
ByLayer
370
13
48
1
60
0
100
AcDbLine
10
60
20
-50.25
30
0
11
56.825002
21
-50.667997
31
0
39
0
210
0
220
0
230
1
0
LINE
5
20F
100
AcDbEntity
8
2
62
256
6
ByLayer
370
13
48
1
60
0
100
AcDbLine
10
60
20
-50.25
30
0
11
56.824998
21
-49.832003
31
0
39
0
210
0
220
0
230
1
0
LINE
5
210
100
AcDbEntity
8
2
62
256
6
ByLayer
370
13
48
1
60
0
100
AcDbLine
10
56.825002
20
-50.667997
30
0
11
56.824998
21
-49.832003
31
0
39
0
210
0
220
0
230
1
0
ENDBLK
5
212
100
AcDbEntity
8
0
100
AcDbBlockEnd
0
BLOCK
5
220
100
AcDbEntity
8
0
100
AcDbBlockBegin
2
DimnDraft3D3
70
0
10
0
20
0
30
0
3
DimnDraft3D3
0
MTEXT
5
215
100
AcDbEntity
8
SK2
62
256
6
ByLayer
370
18
48
1
60
0
100
AcDbMText
10
-38.875
20
-1.563158
30
0
210
0
220
0
230
1
1
\W0.6740;50
40
4.5
41
0
44
1.084337
50
90
71
7
72
5
7
iso_b_vert
0
LINE
5
217
100
AcDbEntity
8
SK2
62
256
6
ByLayer
370
13
48
1
60
0
100
AcDbLine
10
-2
20
-25
30
0
11
-39.75
21
-25
31
0
39
0
210
0
220
0
230
1
0
LINE
5
218
100
AcDbEntity
8
SK2
62
256
6
ByLayer
370
13
48
1
60
0
100
AcDbLine
10
-2
20
25
30
0
11
-39.75
21
25
31
0
39
0
210
0
220
0
230
1
0
LINE
5
219
100
AcDbEntity
8
SK2
62
256
6
ByLayer
370
13
48
1
60
0
100
AcDbLine
10
-37.75
20
-25
30
0
11
-37.75
21
25
31
0
39
0
210
0
220
0
230
1
0
LINE
5
21A
100
AcDbEntity
8
SK2
62
256
6
ByLayer
370
13
48
1
60
0
100
AcDbLine
10
-37.75
20
-25
30
0
11
-38.167997
21
-21.825002
31
0
39
0
210
0
220
0
230
1
0
LINE
5
21B
100
AcDbEntity
8
SK2
62
256
6
ByLayer
370
13
48
1
60
0
100
AcDbLine
10
-37.75
20
-25
30
0
11
-37.332003
21
-21.824998
31
0
39
0
210
0
220
0
230
1
0
LINE
5
21C
100
AcDbEntity
8
SK2
62
256
6
ByLayer
370
13
48
1
60
0
100
AcDbLine
10
-38.167997
20
-21.825002
30
0
11
-37.332003
21
-21.824998
31
0
39
0
210
0
220
0
230
1
0
LINE
5
21D
100
AcDbEntity
8
SK2
62
256
6
ByLayer
370
13
48
1
60
0
100
AcDbLine
10
-37.75
20
25
30
0
11
-37.332003
21
21.825002
31
0
39
0
210
0
220
0
230
1
0
LINE
5
21E
100
AcDbEntity
8
SK2
62
256
6
ByLayer
370
13
48
1
60
0
100
AcDbLine
10
-37.75
20
25
30
0
11
-38.167997
21
21.824998
31
0
39
0
210
0
220
0
230
1
0
LINE
5
21F
100
AcDbEntity
8
SK2
62
256
6
ByLayer
370
13
48
1
60
0
100
AcDbLine
10
-37.332003
20
21.825002
30
0
11
-38.167997
21
21.824998
31
0
39
0
210
0
220
0
230
1
0
ENDBLK
5
221
100
AcDbEntity
8
0
100
AcDbBlockEnd
0
BLOCK
5
22E
100
AcDbEntity
8
0
100
AcDbBlockBegin
2
DimnDraft3D4
70
0
10
0
20
0
30
0
3
DimnDraft3D4
0
MTEXT
5
224
100
AcDbEntity
8
2
62
256
6
ByLayer
370
18
48
1
60
0
100
AcDbMText
10
99.125
20
-21.656579
30
0
210
0
220
0
230
1
1
\W0.7346;35.0
40
4.5
41
0
44
1.084337
50
90
71
7
72
5
7
iso_b_vert
0
LINE
5
225
100
AcDbEntity
8
2
62
256
6
ByLayer
370
13
48
1
60
0
100
AcDbLine
10
62
20
0
30
0
11
102.25
21
0
31
0
39
0
210
0
220
0
230
1
0
LINE
5
226
100
AcDbEntity
8
2
62
256
6
ByLayer
370
13
48
1
60
0
100
AcDbLine
10
62
20
-35
30
0
11
102.25
21
-35
31
0
39
0
210
0
220
0
230
1
0
LINE
5
227
100
AcDbEntity
8
2
62
256
6
ByLayer
370
13
48
1
60
0
100
AcDbLine
10
100.25
20
0
30
0
11
100.25
21
-35
31
0
39
0
210
0
220
0
230
1
0
LINE
5
228
100
AcDbEntity
8
2
62
256
6
ByLayer
370
13
48
1
60
0
100
AcDbLine
10
100.25
20
0
30
0
11
100.667997
21
-3.174998
31
0
39
0
210
0
220
0
230
1
0
LINE
5
229
100
AcDbEntity
8
2
62
256
6
ByLayer
370
13
48
1
60
0
100
AcDbLine
10
100.25
20
0
30
0
11
99.832003
21
-3.175002
31
0
39
0
210
0
220
0
230
1
0
LINE
5
22A
100
AcDbEntity
8
2
62
256
6
ByLayer
370
13
48
1
60
0
100
AcDbLine
10
100.667997
20
-3.174998
30
0
11
99.832003
21
-3.175002
31
0
39
0
210
0
220
0
230
1
0
LINE
5
22B
100
AcDbEntity
8
2
62
256
6
ByLayer
370
13
48
1
60
0
100
AcDbLine
10
100.25
20
-35
30
0
11
99.832003
21
-31.825002
31
0
39
0
210
0
220
0
230
1
0
LINE
5
22C
100
AcDbEntity
8
2
62
256
6
ByLayer
370
13
48
1
60
0
100
AcDbLine
10
100.25
20
-35
30
0
11
100.667997
21
-31.824998
31
0
39
0
210
0
220
0
230
1
0
LINE
5
22D
100
AcDbEntity
8
2
62
256
6
ByLayer
370
13
48
1
60
0
100
AcDbLine
10
99.832003
20
-31.825002
30
0
11
100.667997
21
-31.824998
31
0
39
0
210
0
220
0
230
1
0
ENDBLK
5
22F
100
AcDbEntity
8
0
100
AcDbBlockEnd
0
ENDSEC
0
SECTION
2
ENTITIES
0
ARC
5
115
100
AcDbEntity
8
SK1
62
256
6
ByLayer
370
18
48
1
60
0
100
AcDbCircle
39
0
10
0.6
20
-18.75
30
0
40
1.00000000000001
210
0
220
0
230
-1
100
AcDbArc
50
113.578178
51
126.869898
0
ARC
5
116
100
AcDbEntity
8
SK1
62
256
6
ByLayer
370
18
48
1
60
0
100
AcDbCircle
39
0
10
0.6
20
18.75
30
0
40
1.00000000000001
210
0
220
0
230
-1
100
AcDbArc
50
233.130102
51
246.421822
0
ELLIPSE
5
117
100
AcDbEntity
8
1
62
256
6
ByLayer
370
18
48
1
60
0
100
AcDbEllipse
10
61.670339
20
-22.526685
30
0
11
-0.687407664253898
21
-0.396875000000001
31
0
210
0
220
0
230
1
40
0.989133
41
-3.14157777036927
42
-2.3507312816708
0
ELLIPSE
5
118
100
AcDbEntity
8
1
62
256
6
ByLayer
370
18
48
1
60
0
100
AcDbEllipse
10
50.285189
20
-6.63475
30
0
11
-2.67584502444749
21
-1.35663164731542
31
0
210
0
220
0
230
1
40
0.87742
41
3.12673032973147
42
-1.60104749617776
0
ELLIPSE
5
119
100
AcDbEntity
8
1
62
256
6
ByLayer
370
18
48
1
60
0
100
AcDbEllipse
10
50.150392
20
-16.050675
30
0
11
3.61188974365708
21
2.04371046864882
31
0
210
0
220
0
230
1
40
0.986425
41
-3.05341767218227
42
-0.0732243651094785
0
ELLIPSE
5
11A
100
AcDbEntity
8
1
62
256
6
ByLayer
370
18
48
1
60
0
100
AcDbEllipse
10
17.329058
20
-18.162527
30
0
11
-0.019480618279203
21
2.6937781857743
31
0
210
0
220
0
230
1
40
0.082838
41
-0.531252014108375
42
-0.0429232448155055
0
ELLIPSE
5
11B
100
AcDbEntity
8
1
62
256
6
ByLayer
370
18
48
1
60
0
100
AcDbEllipse
10
55.470371
20
-27.503237
30
0
11
-4.76313972081441
21
-2.75
31
0
210
0
220
0
230
1
40
0.989133
41
-2.7870635946694
42
-2.61226757520887
0
ELLIPSE
5
11C
100
AcDbEntity
8
1
62
256
6
ByLayer
370
18
48
1
60
0
100
AcDbEllipse
10
49.92549
20
-15.381338
30
0
11
0.995929214352099
21
0.575000000000009
31
0
210
0
220
0
230
1
40
0.989133
41
1.16308754848266
42
1.75576822926322
0
ELLIPSE
5
11D
100
AcDbEntity
8
1
62
256
6
ByLayer
370
18
48
1
60
0
100
AcDbEllipse
10
49.92549
20
-15.381338
30
0
11
0.995929214352099
21
0.575000000000009
31
0
210
0
220
0
230
1
40
0.989133
41
2.45251488008976
42
0
0
ELLIPSE
5
11E
100
AcDbEntity
8
1
62
256
6
ByLayer
370
18
48
1
60
0
100
AcDbEllipse
10
49.92549
20
-15.381338
30
0
11
0.995929214352099
21
0.575000000000009
31
0
210
0
220
0
230
1
40
0.989133
41
0
42
0.50914561334001
0
ELLIPSE
5
11F
100
AcDbEntity
8
1
62
256
6
ByLayer
370
18
48
1
60
0
100
AcDbEllipse
10
10
20
-17.843094
30
0
11
2
21
0
31
0
210
0
220
0
230
1
40
0.580703
41
-2.86316899596237
42
-0.278325648826447
0
ELLIPSE
5
120
100
AcDbEntity
8
1
62
256
6
ByLayer
370
18
48
1
60
0
100
AcDbEllipse
10
49.863005
20
-15.27311
30
0
11
0.995929214352099
21
0.575000000000009
31
0
210
0
220
0
230
1
40
0.989133
41
-3.08670217648997
42
-0.0548687089901155
0
ELLIPSE
5
121
100
AcDbEntity
8
1
62
256
6
ByLayer
370
18
48
1
60
0
100
AcDbEllipse
10
44.640194
20
-44.692954
30
0
11
-7.97230194952999
21
-13.1034446554076
31
0
210
0
220
0
230
1
40
0.524999
41
-2.59482451835129
42
-2.58381158417474
0
ELLIPSE
5
122
100
AcDbEntity
8
1
62
256
6
ByLayer
370
18
48
1
60
0
100
AcDbEllipse
10
55.720312
20
-27.936149
30
0
11
2.90477494116408
21
1.6770725942164
31
0
210
0
220
0
230
1
40
0.989133
41
-2.84815011848921
42
-1.79770952456552
0
ELLIPSE
5
123
100
AcDbEntity
8
1
62
256
6
ByLayer
370
18
48
1
60
0
100
AcDbEllipse
10
55.720312
20
-27.936149
30
0
11
2.90477494116408
21
1.6770725942164
31
0
210
0
220
0
230
1
40
0.989133
41
-1.48925736546221
42
-0.457049043256971
0
ELLIPSE
5
124
100
AcDbEntity
8
1
62
256
6
ByLayer
370
18
48
1
60
0
100
AcDbEllipse
10
53.698017
20
-6.701374
30
0
11
-19.8807233970816
21
32.10838254702
31
0
210
0
220
0
230
1
40
0.003891
41
-1.57320536608844
42
-1.51924516517002
0
ELLIPSE
5
125
100
AcDbEntity
8
1
62
256
6
ByLayer
370
18
48
1
60
0
100
AcDbEllipse
10
53.698017
20
-6.701374
30
0
11
-19.8807233970816
21
32.10838254702
31
0
210
0
220
0
230
1
40
0.003891
41
-1.4512783856301
42
-0.895126969638207
0
ELLIPSE
5
126
100
AcDbEntity
8
1
62
256
6
ByLayer
370
18
48
1
60
0
100
AcDbEllipse
10
55.668854
20
-27.84702
30
0
11
4.13660254037842
21
2.38826859021802
31
0
210
0
220
0
230
1
40
0.989133
41
0.448056941986273
42
0.464028877238195
0
ELLIPSE
5
127
100
AcDbEntity
8
1
62
256
6
ByLayer
370
18
48
1
60
0
100
AcDbEllipse
10
55.668854
20
-27.84702
30
0
11
4.13660254037842
21
2.38826859021802
31
0
210
0
220
0
230
1
40
0.989133
41
2.51301393229153
42
2.52992920344713
0
ELLIPSE
5
128
100
AcDbEntity
8
1
62
256
6
ByLayer
370
18
48
1
60
0
100
AcDbEllipse
10
55.470371
20
-27.503237
30
0
11
-4.76313972081441
21
-2.75
31
0
210
0
220
0
230
1
40
0.989133
41
-0.705420310205842
42
-0.518135567076781
0
ELLIPSE
5
129
100
AcDbEntity
8
1
62
256
6
ByLayer
370
18
48
1
60
0
100
AcDbEllipse
10
60.490265
20
-22.727767
30
0
11
1.37481532850777
21
0.793750000000001
31
0
210
0
220
0
230
1
40
0.989133
41
0.162419990279934
42
0.408593389014266
0
ELLIPSE
5
12A
100
AcDbEntity
8
1
62
256
6
ByLayer
370
18
48
1
60
0
100
AcDbEllipse
10
24.872993
20
-21.139279
30
0
11
0.80750412170526
21
2.04644498910404
31
0
210
0
220
0
230
1
40
0.136246
41
-3.14153382571667
42
-0.0565503634288103
0
ELLIPSE
5
12B
100
AcDbEntity
8
1
62
256
6
ByLayer
370
18
48
1
60
0
100
AcDbEllipse
10
25.103375
20
-21.230185
30
0
11
-0.7157422896933
21
-1.8138944221604
31
0
210
0
220
0
230
1
40
0.136246
41
0.138018341800543
42
3.00357746217676
0
ELLIPSE
5
12C
100
AcDbEntity
8
1
62
256
6
ByLayer
370
18
48
1
60
0
100
AcDbEllipse
10
48.678567
20
-15.285511
30
0
11
-0.329089653438086
21
-0.19
31
0
210
0
220
0
230
1
40
0.989133
41
0.455618177146684
42
0.812068914915986
0
ELLIPSE
5
12D
100
AcDbEntity
8
1
62
256
6
ByLayer
370
18
48
1
60
0
100
AcDbEllipse
10
50.642617
20
-14.354435
30
0
11
-0.329089653438086
21
-0.19
31
0
210
0
220
0
230
1
40
0.989133
41
2.16591723051741
42
2.68595077986918
0
ELLIPSE
5
12E
100
AcDbEntity
8
1
62
256
6
ByLayer
370
18
48
1
60
0
100
AcDbEllipse
10
48.487854
20
-16.062863
30
0
11
0.368060796608384
21
0.212500000000003
31
0
210
0
220
0
230
1
40
0.989133
41
-1.50816587379514E-05
42
0.812068914915948
0
ELLIPSE
5
12F
100
AcDbEntity
8
1
62
256
6
ByLayer
370
18
48
1
60
0
100
AcDbEllipse
10
51.363126
20
-14.699813
30
0
11
0.368060796608384
21
0.212500000000003
31
0
210
0
220
0
230
1
40
0.989133
41
2.16591723051742
42
3.14157944955828
0
ELLIPSE
5
130
100
AcDbEntity
8
1
62
256
6
ByLayer
370
18
48
1
60
0
100
AcDbEllipse
10
49.208363
20
-16.408241
30
0
11
-0.329089653438086
21
-0.19
31
0
210
0
220
0
230
1
40
0.989133
41
0.455615844141968
42
1.85926646611257
0
ELLIPSE
5
131
100
AcDbEntity
8
1
62
256
6
ByLayer
370
18
48
1
60
0
100
AcDbEllipse
10
51.172413
20
-15.477165
30
0
11
-0.329089653438086
21
-0.19
31
0
210
0
220
0
230
1
40
0.989133
41
1.11871967932082
42
2.68591227252
0
ELLIPSE
5
132
100
AcDbEntity
8
1
62
256
6
ByLayer
370
18
48
1
60
0
100
AcDbEllipse
10
49.848302
20
-15.247645
30
0
11
3.46410161513774
21
2.00000000000003
31
0
210
0
220
0
230
1
40
0.989133
41
1.05191587274161
42
3.1415055875233
0
ELLIPSE
5
133
100
AcDbEntity
8
1
62
256
6
ByLayer
370
18
48
1
60
0
100
AcDbEllipse
10
49.848302
20
-15.247645
30
0
11
3.46410161513774
21
2.00000000000003
31
0
210
0
220
0
230
1
40
0.989133
41
-0.509417668450814
42
-4.48968146700254E-16
0
ELLIPSE
5
134
100
AcDbEntity
8
1
62
256
6
ByLayer
370
18
48
1
60
0
100
AcDbEllipse
10
49.848302
20
-15.247645
30
0
11
3.46410161513774
21
2.00000000000003
31
0
210
0
220
0
230
1
40
0.989133
41
1.11311519650023E-05
42
1.05191587274161
0
ELLIPSE
5
135
100
AcDbEntity
8
1
62
256
6
ByLayer
370
18
48
1
60
0
100
AcDbEllipse
10
49.700188
20
-11.060953
30
0
11
-2.37671399908542
21
-6.64255980860302
31
0
210
0
220
0
230
1
40
0.079636
41
1.69666588623278
42
2.16072941454527
0
ELLIPSE
5
136
100
AcDbEntity
8
1
62
256
6
ByLayer
370
18
48
1
60
0
100
AcDbEllipse
10
54.393159
20
-15.090018
30
0
11
-1.65897349341165
21
9.76337189294685
31
0
210
0
220
0
230
1
40
0.120053
41
-0.405636164514344
42
0.313564735430403
0
ELLIPSE
5
137
100
AcDbEntity
8
1
62
256
6
ByLayer
370
18
48
1
60
0
100
AcDbEllipse
10
58.195565
20
-24.612526
30
0
11
-0.0496926783518897
21
1.07977848158637
31
0
210
0
220
0
230
1
40
0.185902
41
-1.34600584412321
42
-0.82240706854053
0
ELLIPSE
5
138
100
AcDbEntity
8
1
62
256
6
ByLayer
370
18
48
1
60
0
100
AcDbEllipse
10
58.34451
20
-27.710024
30
0
11
-2.71513487581148
21
-5.80930991355634
31
0
210
0
220
0
230
1
40
0.538155
41
-2.47930046019504
42
-2.39956219272961
0
ELLIPSE
5
139
100
AcDbEntity
8
1
62
256
6
ByLayer
370
18
48
1
60
0
100
AcDbEllipse
10
45.769783
20
-12.924198
30
0
11
-2.14181601709118
21
4.51803321689114
31
0
210
0
220
0
230
1
40
0.012014
41
-1.34976663131176
42
-0.908735525955462
0
ELLIPSE
5
13A
100
AcDbEntity
8
1
62
256
6
ByLayer
370
18
48
1
60
0
100
AcDbEllipse
10
49.424228
20
-5.004077
30
0
11
-2.32205439087649
21
-1.8989640405369
31
0
210
0
220
0
230
1
40
0.996387
41
-3.04014648626333
42
-3.03403515209074
0
ELLIPSE
5
13B
100
AcDbEntity
8
1
62
256
6
ByLayer
370
18
48
1
60
0
100
AcDbEllipse
10
46.839552
20
-18.670876
30
0
11
-6.64411661335014
21
7.3986055294083
31
0
210
0
220
0
230
1
40
0.127121
41
-0.317570148361984
42
0.4016307515829
0
ELLIPSE
5
13C
100
AcDbEntity
8
1
62
256
6
ByLayer
370
18
48
1
60
0
100
AcDbEllipse
10
41.8725
20
-8.585264
30
0
11
-2.40705768520108
21
-1.79481675247914
31
0
210
0
220
0
230
1
40
0.996089
41
-0.550178429493247
42
-0.544070396401805
0
ELLIPSE
5
13D
100
AcDbEntity
8
1
62
256
6
ByLayer
370
18
48
1
60
0
100
AcDbEllipse
10
46.537793
20
-12.560116
30
0
11
-6.63668369258399
21
2.37461151936832
31
0
210
0
220
0
230
1
40
0.067687
41
0.993008307468569
42
1.45707183579113
0
ELLIPSE
5
13E
100
AcDbEntity
8
1
62
256
6
ByLayer
370
18
48
1
60
0
100
AcDbEllipse
10
51.593325
20
-27.74238
30
0
11
-0.807544899058871
21
0.719666776414831
31
0
210
0
220
0
230
1
40
0.206174
41
0.813128055349597
42
1.33672683086621
0
ELLIPSE
5
13F
100
AcDbEntity
8
1
62
256
6
ByLayer
370
18
48
1
60
0
100
AcDbEllipse
10
38.238301
20
-7.73346
30
0
11
2.99854242392764
21
-6.3252465036476
31
0
210
0
220
0
230
1
40
0.012014
41
-1.21755960211357
42
-0.810298218555907
0
ELLIPSE
5
140
100
AcDbEntity
8
1
62
256
6
ByLayer
370
18
48
1
60
0
100
AcDbEllipse
10
53.901097
20
-29.816465
30
0
11
-6.62258617567433
21
1.11228577135685
31
0
210
0
220
0
230
1
40
0.544992
41
-0.828293084201111
42
-0.748554815771975
0
ELLIPSE
5
141
100
AcDbEntity
8
1
62
256
6
ByLayer
370
18
48
1
60
0
100
AcDbEllipse
10
50.468198
20
-10.69687
30
0
11
-2.14181601709118
21
4.51803321689114
31
0
210
0
220
0
230
1
40
0.012014
41
-1.34976663131171
42
-0.908735525955461
0
ELLIPSE
5
142
100
AcDbEntity
8
1
62
256
6
ByLayer
370
18
48
1
60
0
100
AcDbEllipse
10
42.731582
20
-10.215608
30
0
11
-2.675845024447
21
-1.35663164731624
31
0
210
0
220
0
230
1
40
0.87742
41
-1.60104749617812
42
-0.030251169383162
0
ELLIPSE
5
143
100
AcDbEntity
8
1
62
256
6
ByLayer
370
18
48
1
60
0
100
AcDbEllipse
10
50.090893
20
-15.667824
30
0
11
1.01757984944671
21
0.587500000000009
31
0
210
0
220
0
230
1
40
0.989133
41
-1.19224465697348
42
-1.0657569535761
0
ELLIPSE
5
144
100
AcDbEntity
8
1
62
256
6
ByLayer
370
18
48
1
60
0
100
AcDbEllipse
10
50.090893
20
-15.667824
30
0
11
1.01757984944671
21
0.587500000000009
31
0
210
0
220
0
230
1
40
0.989133
41
-2.23944220817009
42
-2.11295450477269
0
ELLIPSE
5
145
100
AcDbEntity
8
1
62
256
6
ByLayer
370
18
48
1
60
0
100
AcDbEllipse
10
50.455286
20
-16.504068
30
0
11
-0.329089653438086
21
-0.19
31
0
210
0
220
0
230
1
40
0.989133
41
0.0715221281242161
42
2.90646401730919
0
ELLIPSE
5
146
100
AcDbEntity
8
1
62
256
6
ByLayer
370
18
48
1
60
0
100
AcDbEllipse
10
50.228015
20
-14.094345
30
0
11
0.368060796608384
21
0.212500000000003
31
0
210
0
220
0
230
1
40
0.989133
41
-2.00056263792295
42
-1.28232618747721
0
ELLIPSE
5
147
100
AcDbEntity
8
1
62
256
6
ByLayer
370
18
48
1
60
0
100
AcDbEllipse
10
51.528529
20
-14.986299
30
0
11
0.368060796608384
21
0.212500000000003
31
0
210
0
220
0
230
1
40
0.989133
41
2.16591723051742
42
2.88415368096316
0
ELLIPSE
5
148
100
AcDbEntity
8
1
62
256
6
ByLayer
370
18
48
1
60
0
100
AcDbEllipse
10
51.337815
20
-15.763651
30
0
11
-0.329089653438086
21
-0.19
31
0
210
0
220
0
230
1
40
0.989133
41
1.11871967932082
42
-2.3295237386738
0
ELLIPSE
5
149
100
AcDbEntity
8
1
62
256
6
ByLayer
370
18
48
1
60
0
100
AcDbEllipse
10
48.653257
20
-16.349349
30
0
11
0.368060796608384
21
0.212500000000003
31
0
210
0
220
0
230
1
40
0.989133
41
0.0938324644702496
42
0.812068914915987
0
ELLIPSE
5
14A
100
AcDbEntity
8
1
62
256
6
ByLayer
370
18
48
1
60
0
100
AcDbEllipse
10
49.953771
20
-17.241303
30
0
11
0.368060796608384
21
0.212500000000003
31
0
210
0
220
0
230
1
40
0.989133
41
1.14103001566685
42
1.85926646611258
0
ELLIPSE
5
14B
100
AcDbEntity
8
1
62
256
6
ByLayer
370
18
48
1
60
0
100
AcDbEllipse
10
48.653257
20
-16.349349
30
0
11
0.368060796608384
21
0.212500000000003
31
0
210
0
220
0
230
1
40
0.989133
41
-0.975675423072374
42
-0.257438972626636
0
ELLIPSE
5
14C
100
AcDbEntity
8
1
62
256
6
ByLayer
370
18
48
1
60
0
100
AcDbEllipse
10
50.090893
20
-15.667824
30
0
11
-1.99185842870421
21
-1.15
31
0
210
0
220
0
230
1
40
0.989133
41
0
42
6.28318530717959
0
ELLIPSE
5
14D
100
AcDbEntity
8
1
62
256
6
ByLayer
370
18
48
1
60
0
100
AcDbEllipse
10
50.090893
20
-15.667824
30
0
11
1.01757984944671
21
0.587500000000009
31
0
210
0
220
0
230
1
40
0.989133
41
1.9493479966163
42
2.07583570001371
0
ELLIPSE
5
14E
100
AcDbEntity
8
1
62
256
6
ByLayer
370
18
48
1
60
0
100
AcDbEllipse
10
48.790378
20
-14.77587
30
0
11
0.368060796608384
21
0.212500000000003
31
0
210
0
220
0
230
1
40
0.989133
41
-0.953365086726346
42
-0.235128636280598
0
ELLIPSE
5
14F
100
AcDbEntity
8
1
62
256
6
ByLayer
370
18
48
1
60
0
100
AcDbEllipse
10
48.84397
20
-15.571997
30
0
11
-0.329089653438086
21
-0.19
31
0
210
0
220
0
230
1
40
0.989133
41
-2.02287297426896
42
0.812068914915983
0
ELLIPSE
5
150
100
AcDbEntity
8
1
62
256
6
ByLayer
370
18
48
1
60
0
100
AcDbEllipse
10
49.373766
20
-16.694727
30
0
11
-0.329089653438086
21
-0.19
31
0
210
0
220
0
230
1
40
0.989133
41
-0.975675423072353
42
1.85926646611259
0
ELLIPSE
5
151
100
AcDbEntity
8
1
62
256
6
ByLayer
370
18
48
1
60
0
100
AcDbEllipse
10
49.788368
20
-16.954817
30
0
11
0.368060796608384
21
0.212500000000003
31
0
210
0
220
0
230
1
40
0.989133
41
0.0715221281242196
42
1.85926646611258
0
ELLIPSE
5
152
100
AcDbEntity
8
1
62
256
6
ByLayer
370
18
48
1
60
0
100
AcDbEllipse
10
51.528529
20
-14.986299
30
0
11
0.368060796608384
21
0.212500000000003
31
0
210
0
220
0
230
1
40
0.989133
41
-3.04776018911956
42
-2.3295237386738
0
ELLIPSE
5
153
100
AcDbEntity
8
1
62
256
6
ByLayer
370
18
48
1
60
0
100
AcDbEllipse
10
51.226004
20
-16.273292
30
0
11
0.368060796608384
21
0.212500000000003
31
0
210
0
220
0
230
1
40
0.989133
41
1.11871967932082
42
2.90646401730919
0
ELLIPSE
5
154
100
AcDbEntity
8
1
62
256
6
ByLayer
370
18
48
1
60
0
100
AcDbEllipse
10
50.090893
20
-15.667824
30
0
11
1.01757984944671
21
0.587500000000009
31
0
210
0
220
0
230
1
40
0.989133
41
2.99654554781291
42
3.12303325121031
0
ELLIPSE
5
155
100
AcDbEntity
8
1
62
256
6
ByLayer
370
18
48
1
60
0
100
AcDbEllipse
10
50.090893
20
-15.667824
30
0
11
1.01757984944671
21
0.587500000000009
31
0
210
0
220
0
230
1
40
0.989133
41
-0.145047105776895
42
-0.0185594023794997
0
ELLIPSE
5
156
100
AcDbEntity
8
1
62
256
6
ByLayer
370
18
48
1
60
0
100
AcDbEllipse
10
49.953771
20
-17.241303
30
0
11
0.368060796608384
21
0.212500000000003
31
0
210
0
220
0
230
1
40
0.989133
41
0.0715221281242196
42
0.789758578569966
0
ELLIPSE
5
157
100
AcDbEntity
8
1
62
256
6
ByLayer
370
18
48
1
60
0
100
AcDbEllipse
10
50.090893
20
-15.667824
30
0
11
1.01757984944671
21
0.587500000000009
31
0
210
0
220
0
230
1
40
0.989133
41
0.902150445419708
42
1.02863814881711
0
ELLIPSE
5
158
100
AcDbEntity
8
1
62
256
6
ByLayer
370
18
48
1
60
0
100
AcDbEllipse
10
49.561097
20
-14.545094
30
0
11
-0.329089653438086
21
-0.19
31
0
210
0
220
0
230
1
40
0.989133
41
-3.07007052546558
42
-0.235128636280589
0
ELLIPSE
5
159
100
AcDbEntity
8
1
62
256
6
ByLayer
370
18
48
1
60
0
100
AcDbEllipse
10
50.027173
20
-15.557458
30
0
11
-3.46410161513775
21
-2
31
0
210
0
220
0
230
1
40
0.989133
41
0
42
6.28318530717959
0
ELLIPSE
5
15A
100
AcDbEntity
8
1
62
256
6
ByLayer
370
18
48
1
60
0
100
AcDbEllipse
10
50.228015
20
-14.094345
30
0
11
0.368060796608384
21
0.212500000000003
31
0
210
0
220
0
230
1
40
0.989133
41
-3.07007052546559
42
-2.35183407501985
0
ELLIPSE
5
15B
100
AcDbEntity
8
1
62
256
6
ByLayer
370
18
48
1
60
0
100
AcDbEllipse
10
51.391407
20
-16.559778
30
0
11
0.368060796608384
21
0.212500000000003
31
0
210
0
220
0
230
1
40
0.989133
41
1.11871967932078
42
1.83695612976658
0
ELLIPSE
5
15C
100
AcDbEntity
8
1
62
256
6
ByLayer
370
18
48
1
60
0
100
AcDbEllipse
10
50.80802
20
-14.640921
30
0
11
-0.329089653438086
21
-0.19
31
0
210
0
220
0
230
1
40
0.989133
41
2.16591723051742
42
-1.28232618747718
0
ELLIPSE
5
15D
100
AcDbEntity
8
1
62
256
6
ByLayer
370
18
48
1
60
0
100
AcDbEllipse
10
50.620688
20
-16.790554
30
0
11
-0.329089653438086
21
-0.19
31
0
210
0
220
0
230
1
40
0.989133
41
0.0715221281242349
42
2.90646401730918
0
ELLIPSE
5
15E
100
AcDbEntity
8
1
62
256
6
ByLayer
370
18
48
1
60
0
100
AcDbEllipse
10
51.391407
20
-16.559778
30
0
11
0.368060796608384
21
0.212500000000003
31
0
210
0
220
0
230
1
40
0.989133
41
2.18822756686341
42
2.90646401730919
0
ELLIPSE
5
15F
100
AcDbEntity
8
1
62
256
6
ByLayer
370
18
48
1
60
0
100
AcDbEllipse
10
48.790378
20
-14.77587
30
0
11
0.368060796608384
21
0.212500000000003
31
0
210
0
220
0
230
1
40
0.989133
41
-2.02287297426901
42
-1.30463652382326
0
ELLIPSE
5
160
100
AcDbEntity
8
1
62
256
6
ByLayer
370
18
48
1
60
0
100
AcDbEllipse
10
55.973601
20
-28.472912
30
0
11
-3.10814157129579
21
-1.7944863728671
31
0
210
0
220
0
230
1
40
0.989133
41
0.354529058920387
42
0.448293558478343
0
ELLIPSE
5
161
100
AcDbEntity
8
1
62
256
6
ByLayer
370
18
48
1
60
0
100
AcDbEllipse
10
55.973601
20
-28.472912
30
0
11
2.82540892210389
21
1.63125060174748
31
0
210
0
220
0
230
1
40
0.989133
41
-2.26346481907111
42
-1.04173434267507
0
ELLIPSE
5
162
100
AcDbEntity
8
1
62
256
6
ByLayer
370
18
48
1
60
0
100
AcDbEllipse
10
55.723659
20
-28.040001
30
0
11
-3.89711431702997
21
-2.25000000000001
31
0
210
0
220
0
230
1
40
0.989133
41
2.09985831091472
42
2.62345708651302
0
ELLIPSE
5
163
100
AcDbEntity
8
1
62
256
6
ByLayer
370
18
48
1
60
0
100
AcDbEllipse
10
55.723659
20
-28.040001
30
0
11
-3.89711431702997
21
-2.25000000000001
31
0
210
0
220
0
230
1
40
0.989133
41
0.878127834518683
42
2.09985831091472
0
ELLIPSE
5
164
100
AcDbEntity
8
1
62
256
6
ByLayer
370
18
48
1
60
0
100
AcDbEllipse
10
57.323947
20
-23.754141
30
0
11
-2.2054997221744
21
-8.62477983157554
31
0
210
0
220
0
230
1
40
0.72878
41
-0.951367354384356
42
-0.887796694198365
0
ELLIPSE
5
165
100
AcDbEntity
8
1
62
256
6
ByLayer
370
18
48
1
60
0
100
AcDbEllipse
10
55.723659
20
-28.040001
30
0
11
-3.89711431702997
21
-2.25000000000001
31
0
210
0
220
0
230
1
40
0.989133
41
0.354529058920384
42
0.878127834518683
0
ELLIPSE
5
166
100
AcDbEntity
8
1
62
256
6
ByLayer
370
18
48
1
60
0
100
AcDbEllipse
10
55.918105
20
-30.8138
30
0
11
-1.83370641084306
21
-1.09537195741871
31
0
210
0
220
0
230
1
40
0.675933
41
-0.346851824194694
42
0.674105736252429
0
ELLIPSE
5
167
100
AcDbEntity
8
1
62
256
6
ByLayer
370
18
48
1
60
0
100
AcDbEllipse
10
57.89586
20
-29.876227
30
0
11
-1.83288704897642
21
-0.816092223043263
31
0
210
0
220
0
230
1
40
0.723309
41
2.35915775076887
42
-2.9030699959638
0
ELLIPSE
5
168
100
AcDbEntity
8
1
62
256
6
ByLayer
370
18
48
1
60
0
100
AcDbEllipse
10
51.211962
20
-26.651584
30
0
11
-8.47598197224385
21
3.2892252718668
31
0
210
0
220
0
230
1
40
0.72417
41
-2.31045033202301
42
-2.24687967209149
0
ELLIPSE
5
169
100
AcDbEntity
8
1
62
256
6
ByLayer
370
18
48
1
60
0
100
AcDbEllipse
10
55.973601
20
-28.472912
30
0
11
-3.10814157129579
21
-1.7944863728671
31
0
210
0
220
0
230
1
40
0.989133
41
2.52969258695506
42
2.62345708651302
0
ELLIPSE
5
16A
100
AcDbEntity
8
1
62
256
6
ByLayer
370
18
48
1
60
0
100
AcDbEllipse
10
10
20
-17.843094
30
0
11
1.65
21
0
31
0
210
0
220
0
230
1
40
0.580703
41
0
42
6.28318530717959
0
ELLIPSE
5
16B
100
AcDbEntity
8
1
62
256
6
ByLayer
370
18
48
1
60
0
100
AcDbEllipse
10
18.187217
20
0
30
0
11
1.53075794227798E-15
21
25.0000000000001
31
0
210
0
220
0
230
1
40
0.087489
41
0.353363115402329
42
2.78822953818746
0
ELLIPSE
5
16C
100
AcDbEntity
8
1
62
256
6
ByLayer
370
18
48
1
60
0
100
AcDbEllipse
10
10
20
-15.807097
30
0
11
-1.88518478424619
21
-3.17407998038192
31
0
210
0
220
0
230
1
40
0.21042
41
-0.666992228074264
42
-0.013980295021225
0
ELLIPSE
5
16D
100
AcDbEntity
8
1
62
256
6
ByLayer
370
18
48
1
60
0
100
AcDbEllipse
10
44.791805
20
-44.955562
30
0
11
12.1243556529818
21
6.99999999999996
31
0
210
0
220
0
230
1
40
0.989133
41
0.837479346259619
42
0.875495518468887
0
ELLIPSE
5
16E
100
AcDbEntity
8
1
62
256
6
ByLayer
370
18
48
1
60
0
100
AcDbEllipse
10
21.056258
20
0
30
0
11
-11.7092723497278
21
24.6771864409381
31
0
210
0
220
0
230
1
40
0.341999
41
0.167213071908976
42
1.08183270048926
0
ELLIPSE
5
16F
100
AcDbEntity
8
1
62
256
6
ByLayer
370
18
48
1
60
0
100
AcDbEllipse
10
-1.056258
20
0
30
0
11
-11.709272349727
21
24.677186440937
31
0
210
0
220
0
230
1
40
0.341999
41
-2.97437958168081
42
-2.0597599531005
0
ELLIPSE
5
170
100
AcDbEntity
8
1
62
256
6
ByLayer
370
18
48
1
60
0
100
AcDbEllipse
10
10
20
-18.309067
30
0
11
-2.00000000000002
21
2.02127811016475E-15
31
0
210
0
220
0
230
1
40
0.716939
41
0.75150462149233
42
2.39008803209747
0
ELLIPSE
5
171
100
AcDbEntity
8
1
62
256
6
ByLayer
370
18
48
1
60
0
100
AcDbEllipse
10
10
20
-15.807097
30
0
11
-1.88518478424961
21
3.17407998038681
31
0
210
0
220
0
230
1
40
0.21042
41
-3.1276123585686
42
-2.4746004255161
0
ELLIPSE
5
172
100
AcDbEntity
8
1
62
256
6
ByLayer
370
18
48
1
60
0
100
AcDbEllipse
10
-9.717136
20
95.750227
30
0
11
-72.7823127490893
21
117.55207152166
31
0
210
0
220
0
230
1
40
0.002409
41
-2.92594166561857
42
-2.73429435853928
0
ELLIPSE
5
173
100
AcDbEntity
8
1
62
256
6
ByLayer
370
18
48
1
60
0
100
AcDbEllipse
10
49.567816
20
0
30
0
11
-15.5722183088845
21
25.1499270213088
31
0
210
0
220
0
230
1
40
0.003891
41
-0.895126969641688
42
0.197731592218653
0
ELLIPSE
5
174
100
AcDbEntity
8
1
62
256
6
ByLayer
370
18
48
1
60
0
100
AcDbEllipse
10
22.383226
20
-27.549116
30
0
11
-3.99921161988446
21
0.714313508914628
31
0
210
0
220
0
230
1
40
0.111173
41
-1.47736331129383
42
-1.3682431550381
0
ELLIPSE
5
175
100
AcDbEntity
8
1
62
256
6
ByLayer
370
18
48
1
60
0
100
AcDbEllipse
10
17.329058
20
-18.162527
30
0
11
-0.0194806182793398
21
2.69377818577561
31
0
210
0
220
0
230
1
40
0.082838
41
1.02947826969416
42
-2.7595891009019
0
ELLIPSE
5
176
100
AcDbEntity
8
1
62
256
6
ByLayer
370
18
48
1
60
0
100
AcDbEllipse
10
-1.056258
20
0
30
0
11
-11.7092723497277
21
-24.677186440938
31
0
210
0
220
0
230
1
40
0.341999
41
2.05975995310053
42
2.97437958168082
0
ELLIPSE
5
177
100
AcDbEntity
8
1
62
256
6
ByLayer
370
18
48
1
60
0
100
AcDbEllipse
10
37.157547
20
-9.778732
30
0
11
-2.37862092371851
21
5.06509286143208
31
0
210
0
220
0
230
1
40
0.714768
41
2.45450872092622
42
-3.13899178028862
0
ELLIPSE
5
178
100
AcDbEntity
8
1
62
256
6
ByLayer
370
18
48
1
60
0
100
AcDbEllipse
10
58.116489
20
-23.14359
30
0
11
-2.73364581721171
21
-0.0882571530531639
31
0
210
0
220
0
230
1
40
0.523705
41
-2.42025200994356
42
-2.07792152494768
0
ELLIPSE
5
179
100
AcDbEntity
8
1
62
256
6
ByLayer
370
18
48
1
60
0
100
AcDbEllipse
10
21.056258
20
0
30
0
11
-11.7092723497275
21
-24.6771864409378
31
0
210
0
220
0
230
1
40
0.341999
41
-1.08183270048927
42
-0.167213071908978
0
ELLIPSE
5
17A
100
AcDbEntity
8
1
62
256
6
ByLayer
370
18
48
1
60
0
100
AcDbEllipse
10
10
20
-18.309067
30
0
11
-2.00000000000004
21
2.02127811016477E-15
31
0
210
0
220
0
230
1
40
0.716939
41
-2.39008803209746
42
-0.751504621492336
0
ELLIPSE
5
17B
100
AcDbEntity
8
1
62
256
6
ByLayer
370
18
48
1
60
0
100
AcDbEllipse
10
62.254027
20
-23.537661
30
0
11
-0.687407664253898
21
-0.396875000000001
31
0
210
0
220
0
230
1
40
0.989133
41
2.36165769871387
42
-2.35073128167079
0
ELLIPSE
5
17C
100
AcDbEntity
8
1
62
256
6
ByLayer
370
18
48
1
60
0
100
AcDbEllipse
10
48.686714
20
-31.468814
30
0
11
-0.687407664253898
21
-0.396875000000001
31
0
210
0
220
0
230
1
40
0.989133
41
-0.779934954875902
42
0.790861371918978
0
ELLIPSE
5
17D
100
AcDbEntity
8
1
62
256
6
ByLayer
370
18
48
1
60
0
100
AcDbEllipse
10
59.393656
20
-34.21271
30
0
11
-0.687407664253898
21
-0.396875000000001
31
0
210
0
220
0
230
1
40
0.989133
41
0.790861371918991
42
2.36165769871387
0
POINT
5
6C
100
AcDbEntity
8
2
62
256
6
ByLayer
370
18
48
1
60
0
100
AcDbPoint
10
60
20
35
30
0
39
0
210
0
220
0
230
1
50
360
0
POINT
5
6E
100
AcDbEntity
8
80
62
256
6
ByLayer
370
18
48
1
60
0
100
AcDbPoint
10
0
20
0
30
0
39
0
210
0
220
0
230
1
50
360
0
POINT
5
70
100
AcDbEntity
8
81
62
256
6
ByLayer
370
18
48
1
60
0
100
AcDbPoint
10
60
20
-35
30
0
39
0
210
0
220
0
230
1
50
360
0
SPLINE
5
17E
100
AcDbEntity
8
SK1
62
256
6
ByLayer
370
18
48
1
60
0
100
AcDbSpline
70
4
71
3
72
13
73
9
40
0
40
0
40
0
40
0
40
0.239456135686852
40
0.368359721835155
40
0.499998983918667
40
0.631638415195385
40
0.7605424677172
40
1
40
1
40
1
40
1
41
1
10
-2.19999999999999
20
-17.5200987347078
30
0
41
1
10
-2.19909198642125
20
-17.4940412586114
30
0
41
1
10
-2.19103284106788
20
-17.4566686743027
30
0
41
1
10
-2.16563592203161
20
-17.4104495005037
30
0
41
1
10
-2.13886378679047
20
-17.3791679466684
30
0
41
1
10
-2.10627712749664
20
-17.3540005764861
30
0
41
1
10
-2.05884064233982
20
-17.3309567740351
30
0
41
1
10
-2.02111030872965
20
-17.324784519015
30
0
41
1
10
-1.99503997793928
20
-17.3251861589552
30
0
0
SPLINE
5
17F
100
AcDbEntity
8
SK1
62
256
6
ByLayer
370
18
48
1
60
0
100
AcDbSpline
70
4
71
3
72
13
73
9
40
0
40
0
40
0
40
0
40
0.239457532237385
40
0.368361584743632
40
0.500001016014352
40
0.631640278103004
40
0.760543864266449
40
1
40
1
40
1
40
1
41
1
10
-1.99503997793928
20
17.3251859759625
30
0
41
1
10
-2.02111030873061
20
17.3247843360228
30
0
41
1
10
-2.05884064234166
20
17.3309565910454
30
0
41
1
10
-2.106277127498
20
17.3540003935063
30
0
41
1
10
-2.13886378679174
20
17.3791677636994
30
0
41
1
10
-2.16563592203255
20
17.4104493175479
30
0
41
1
10
-2.19103284106862
20
17.4566684913667
30
0
41
1
10
-2.19909198642199
20
17.4940410756898
30
0
41
1
10
-2.19999999999999
20
17.520098551796
30
0
0
SPLINE
5
180
100
AcDbEntity
8
SK1
62
256
6
ByLayer
370
18
48
1
60
0
100
AcDbSpline
70
4
71
2
72
6
73
3
40
0
40
0
40
0
40
1
40
1
40
1
41
1
10
-28.5
20
-16.854272429841
30
0
41
1
10
-15.3499999999294
20
-17.1845422725478
30
0
41
1
10
-2.19999999999999
20
-17.5148117187522
30
0
0
SPLINE
5
181
100
AcDbEntity
8
SK1
62
256
6
ByLayer
370
18
48
1
60
0
100
AcDbSpline
70
4
71
2
72
6
73
3
40
0
40
0
40
0
40
1
40
1
40
1
41
1
10
-2.19999999999999
20
17.5148116792767
30
0
41
1
10
-15.3499999999286
20
17.1845422635703
30
0
41
1
10
-28.5
20
16.8542724489282
30
0
0
SPLINE
5
182
100
AcDbEntity
8
SK1
62
256
6
ByLayer
370
18
48
1
60
0
100
AcDbSpline
70
4
71
2
72
6
73
3
40
0
40
0
40
0
40
1
40
1
40
1
41
1
10
-1.99503997793928
20
-17.3199593319919
30
0
41
1
10
-1.19500843340703
20
-17.3400525762132
30
0
41
1
10
-0.394976888875277
20
-17.3601458189993
30
0
0
SPLINE
5
183
100
AcDbEntity
8
SK1
62
256
6
ByLayer
370
18
48
1
60
0
100
AcDbSpline
70
4
71
2
72
6
73
3
40
0
40
0
40
0
40
1
40
1
40
1
41
1
10
-0.394976888875277
20
17.3601457933935
30
0
41
1
10
-1.19500843340703
20
17.340052552406
30
0
41
1
10
-1.99503997793928
20
17.3199593099743
30
0
0
SPLINE
5
184
100
AcDbEntity
8
SK1
62
256
6
ByLayer
370
18
48
1
60
0
100
AcDbSpline
70
4
71
2
72
6
73
3
40
0
40
0
40
0
40
1
40
1
40
1
41
1
10
-28.5
20
16.8584504491481
30
0
41
1
10
-29.2499999991495
20
16.4254650261933
30
0
41
1
10
-30
20
15.9924794145163
30
0
0
SPLINE
5
185
100
AcDbEntity
8
SK1
62
256
6
ByLayer
370
18
48
1
60
0
100
AcDbSpline
70
4
71
2
72
6
73
3
40
0
40
0
40
0
40
1
40
1
40
1
41
1
10
-30
20
-15.99247954079
30
0
41
1
10
-29.2499999991495
20
-16.4254651505507
30
0
41
1
10
-28.5
20
-16.8584505716142
30
0
0
SPLINE
5
186
100
AcDbEntity
8
SK1
62
256
6
ByLayer
370
18
48
1
60
0
100
AcDbSpline
70
4
71
2
72
6
73
3
40
0
40
0
40
0
40
1
40
1
40
1
41
1
10
-0.258658740615658
20
17.4310145299902
30
0
41
1
10
-0.305277226309727
20
17.3671842624703
30
0
41
1
10
-0.394976888875277
20
17.359696795897
30
0
0
SPLINE
5
187
100
AcDbEntity
8
SK1
62
256
6
ByLayer
370
18
48
1
60
0
100
AcDbSpline
70
4
71
2
72
6
73
3
40
0
40
0
40
0
40
1
40
1
40
1
41
1
10
-0.394976888875277
20
-17.3596982935394
30
0
41
1
10
-0.305123774552612
20
-17.3672404580573
30
0
41
1
10
-0.258442643302431
20
-17.4312381196178
30
0
0
SPLINE
5
188
100
AcDbEntity
8
1
62
256
6
ByLayer
370
18
48
1
60
0
100
AcDbSpline
70
4
71
2
72
6
73
3
40
0
40
0
40
0
40
1
40
1
40
1
41
0.907631749595653
10
50.6868877949835
20
-1.82392012626329
30
0
41
0.893002638943504
10
50.6410826518441
20
-2.05379664919454
30
0
41
0.885109555009545
10
50.5414838696795
20
-2.29071006622365
30
0
0
SPLINE
5
189
100
AcDbEntity
8
1
62
256
6
ByLayer
370
18
48
1
60
0
100
AcDbSpline
70
4
71
3
72
10
73
6
40
0
40
0
40
0
40
0
40
0.852860150120766
40
0.852860150120766
40
1
40
1
40
1
40
1
41
1
10
50.6868968437962
20
-1.82387471145253
30
0
41
1
10
50.8073164883094
20
-2.01572453196931
30
0
41
1
10
50.9302670851844
20
-2.21166679349724
30
0
41
1
10
51.0969198327708
20
-2.47809679778061
30
0
41
1
10
51.1216952045359
20
-2.51770762122743
30
0
41
1
10
51.1472376856979
20
-2.55857210070494
30
0
0
SPLINE
5
18A
100
AcDbEntity
8
SK1
62
256
6
ByLayer
370
18
48
1
60
0
100
AcDbSpline
70
4
71
3
72
284
73
280
40
0
40
0
40
0
40
0
40
0.0001430966821617
40
0.0037135041867767
40
0.0072839116913918
40
0.0108543191960068
40
0.0144247267006218
40
0.0179951342052369
40
0.0215655417098519
40
0.025135949214467
40
0.028706356719082
40
0.0322767642236971
40
0.0358471717283121
40
0.0429879867375422
40
0.0465583942421572
40
0.0501288017467723
40
0.0536992092513873
40
0.0572696167560024
40
0.0644104317652325
40
0.0679808392698475
40
0.0715512467744625
40
0.0786920617836926
40
0.0822624692883077
40
0.0858328767929227
40
0.0929736918021528
40
0.0965440993067678
40
0.100114506811383
40
0.103684914315998
40
0.107255321820613
40
0.110825729325228
40
0.114396136829843
40
0.117966544334458
40
0.121536951839073
40
0.128677766848303
40
0.132248174352918
40
0.135818581857533
40
0.139388989362148
40
0.142959396866763
40
0.150100211875994
40
0.153670619380608
40
0.157241026885224
40
0.160811434389839
40
0.164381841894454
40
0.171522656903684
40
0.175093064408299
40
0.178663471912914
40
0.182233879417529
40
0.185804286922144
40
0.192945101931374
40
0.196515509435989
40
0.200085916940604
40
0.203656324445219
40
0.207226731949834
40
0.214367546959064
40
0.217937954463679
40
0.221508361968294
40
0.225078769472909
40
0.228649176977524
40
0.235789991986754
40
0.23936039949137
40
0.242930806995985
40
0.2465012145006
40
0.250071622005215
40
0.257212437014445
40
0.26078284451906
40
0.264353252023675
40
0.271494067032905
40
0.278634882042135
40
0.28220528954675
40
0.285775697051365
40
0.292916512060595
40
0.29648691956521
40
0.300057327069825
40
0.30362773457444
40
0.307198142079055
40
0.31076854958367
40
0.314338957088286
40
0.321479772097515
40
0.328620587106746
40
0.332190994611361
40
0.335761402115976
40
0.339331809620591
40
0.342902217125206
40
0.346472624629821
40
0.350043032134436
40
0.357183847143666
40
0.364324662152896
40
0.371465477162126
40
0.375035884666741
40
0.378606292171356
40
0.382176699675971
40
0.385747107180586
40
0.389317514685201
40
0.392887922189816
40
0.396458329694431
40
0.400028737199046
40
0.403599144703661
40
0.407169552208277
40
0.410739959712892
40
0.414310367217507
40
0.417880774722122
40
0.421451182226737
40
0.425021589731352
40
0.428591997235967
40
0.432162404740582
40
0.433947608492889
40
0.435732812245197
40
0.437518015997505
40
0.439303219749812
40
0.442873627254427
40
0.446444034759042
40
0.448229238511349
40
0.450014442263657
40
0.451799646015965
40
0.453584849768272
40
0.45537005352058
40
0.457155257272887
40
0.460725664777502
40
0.46251086852981
40
0.464296072282117
40
0.466081276034425
40
0.467866479786732
40
0.46965168353904
40
0.471436887291347
40
0.473222091043655
40
0.475007294795962
40
0.47679249854827
40
0.478577702300577
40
0.480362906052885
40
0.482148109805193
40
0.4839333135575
40
0.485718517309807
40
0.487503721062115
40
0.489288924814422
40
0.49107412856673
40
0.492859332319038
40
0.494644536071345
40
0.496429739823653
40
0.49821494357596
40
0.500000147328268
40
0.501785351080575
40
0.503570554832883
40
0.50535575858519
40
0.507140962337498
40
0.508926166089805
40
0.510711369842113
40
0.51249657359442
40
0.514281777346728
40
0.516066981099035
40
0.517852184851343
40
0.51963738860365
40
0.521422592355958
40
0.523207796108265
40
0.524992999860573
40
0.526778203612881
40
0.528563407365188
40
0.530348611117496
40
0.532133814869803
40
0.533919018622111
40
0.535704222374418
40
0.537489426126726
40
0.539274629879033
40
0.541059833631341
40
0.542845037383648
40
0.544630241135956
40
0.546415444888263
40
0.549985852392878
40
0.551771056145186
40
0.553556259897493
40
0.557126667402108
40
0.560697074906723
40
0.562482278659031
40
0.564267482411338
40
0.566052686163646
40
0.567837889915953
40
0.571408297420569
40
0.574978704925184
40
0.578549112429799
40
0.582119519934414
40
0.585689927439029
40
0.589260334943644
40
0.592830742448259
40
0.596401149952874
40
0.599971557457489
40
0.603541964962104
40
0.607112372466719
40
0.610682779971334
40
0.614253187475949
40
0.617823594980564
40
0.621394002485179
40
0.624964409989794
40
0.628534817494409
40
0.635675632503639
40
0.642816447512869
40
0.6499572625221
40
0.653527670026715
40
0.65709807753133
40
0.660668485035945
40
0.66423889254056
40
0.667809300045175
40
0.67137970754979
40
0.67852052255902
40
0.68566133756825
40
0.689231745072865
40
0.69280215257748
40
0.696372560082095
40
0.69994296758671
40
0.703513375091325
40
0.70708378259594
40
0.71422459760517
40
0.717795005109785
40
0.7213654126144
40
0.72850622762363
40
0.73564704263286
40
0.739217450137476
40
0.742787857642091
40
0.749928672651321
40
0.753499080155936
40
0.757069487660551
40
0.760639895165166
40
0.764210302669781
40
0.771351117679011
40
0.774921525183626
40
0.778491932688241
40
0.782062340192856
40
0.785632747697471
40
0.792773562706701
40
0.796343970211316
40
0.799914377715931
40
0.803484785220546
40
0.807055192725161
40
0.814196007734391
40
0.817766415239007
40
0.821336822743622
40
0.824907230248237
40
0.828477637752852
40
0.835618452762082
40
0.839188860266697
40
0.842759267771312
40
0.844544471523619
40
0.846329675275927
40
0.849900082780542
40
0.857040897789772
40
0.860611305294387
40
0.864181712799002
40
0.867752120303617
40
0.871322527808232
40
0.878463342817462
40
0.882033750322077
40
0.885604157826692
40
0.889174565331307
40
0.892744972835922
40
0.896315380340537
40
0.899885787845152
40
0.903456195349768
40
0.907026602854383
40
0.914167417863613
40
0.917737825368228
40
0.921308232872843
40
0.928449047882073
40
0.932019455386688
40
0.935589862891303
40
0.942730677900533
40
0.946301085405148
40
0.949871492909763
40
0.953441900414378
40
0.957012307918993
40
0.964153122928223
40
0.967723530432838
40
0.971293937937453
40
0.974864345442068
40
0.978434752946683
40
0.982005160451298
40
0.985575567955914
40
0.989145975460528
40
0.992716382965144
40
0.996286790469759
40
0.999857197974374
40
1
40
1
40
1
40
1
41
1
10
-1.99503997793928
20
-17.320689212063
30
0
41
1
10
-1.99503997793928
20
-17.3206252196247
30
0
41
1
10
-1.99503997793928
20
-17.3189470225139
30
0
41
1
10
-1.99503997793928
20
-17.3147637003649
30
0
41
1
10
-1.99503997793928
20
-17.3061342577567
30
0
41
1
10
-1.99503997793928
20
-17.295067771448
30
0
41
1
10
-1.99503997793928
20
-17.2816041041457
30
0
41
1
10
-1.99503997793928
20
-17.2657805776118
30
0
41
1
10
-1.99503997793928
20
-17.2476335117891
30
0
41
1
10
-1.99503997793928
20
-17.2271975457697
30
0
41
1
10
-1.99503997793928
20
-17.2045053960087
30
0
41
1
10
-1.99503997793928
20
-17.1795895960111
30
0
41
1
10
-1.99503997793928
20
-17.143423992764
30
0
41
1
10
-1.99503997793928
20
-17.1029924242496
30
0
41
1
10
-1.99503997793928
20
-17.0582791326422
30
0
41
1
10
-1.99503997793928
20
-17.0226787925821
30
0
41
1
10
-1.99503997793928
20
-16.9850205529168
30
0
41
1
10
-1.99503997793928
20
-16.9320728615657
30
0
41
1
10
-1.99503997793928
20
-16.8751872660894
30
0
41
1
10
-1.99503997793928
20
-16.8142877036056
30
0
41
1
10
-1.99503997793928
20
-16.7507929832779
30
0
41
1
10
-1.99503997793928
20
-16.6835453056651
30
0
41
1
10
-1.99503997793928
20
-16.6124299551482
30
0
41
1
10
-1.99503997793928
20
-16.5388242186582
30
0
41
1
10
-1.99503997793928
20
-16.4616240004255
30
0
41
1
10
-1.99503997793928
20
-16.3806869939664
30
0
41
1
10
-1.99503997793928
20
-16.3182114219941
30
0
41
1
10
-1.99503997793928
20
-16.2539521138773
30
0
41
1
10
-1.99503997793928
20
-16.1879246249361
30
0
41
1
10
-1.99503997793928
20
-16.1201424382026
30
0
41
1
10
-1.99503997793928
20
-16.0506207732709
30
0
41
1
10
-1.99503997793928
20
-15.979373490825
30
0
41
1
10
-1.99503997793928
20
-15.8820499794418
30
0
41
1
10
-1.99503997793928
20
-15.7814584486047
30
0
41
1
10
-1.99503997793928
20
-15.677384958149
30
0
41
1
10
-1.99503997793928
20
-15.5977008436634
30
0
41
1
10
-1.99503997793928
20
-15.5163656256123
30
0
41
1
10
-1.99503997793928
20
-15.4056838451686
30
0
41
1
10
-1.99503997793928
20
-15.2918890118945
30
0
41
1
10
-1.99503997793928
20
-15.1747311694574
30
0
41
1
10
-1.99503997793928
20
-15.0853020659337
30
0
41
1
10
-1.99503997793928
20
-14.9942846604514
30
0
41
1
10
-1.99503997793928
20
-14.8707702235387
30
0
41
1
10
-1.99503997793928
20
-14.7442755428493
30
0
41
1
10
-1.99503997793928
20
-14.6145160455858
30
0
41
1
10
-1.99503997793928
20
-14.5156939096276
30
0
41
1
10
-1.99503997793928
20
-14.4153366771621
30
0
41
1
10
-1.99503997793928
20
-14.2794333721973
30
0
41
1
10
-1.99503997793928
20
-14.1406647198644
30
0
41
1
10
-1.99503997793928
20
-13.9987118830366
30
0
41
1
10
-1.99503997793928
20
-13.8907947247769
30
0
41
1
10
-1.99503997793928
20
-13.7813876415877
30
0
41
1
10
-1.99503997793928
20
-13.6334713769854
30
0
41
1
10
-1.99503997793928
20
-13.482790135872
30
0
41
1
10
-1.99503997793928
20
-13.328990109671
30
0
41
1
10
-1.99503997793928
20
-13.2122307400427
30
0
41
1
10
-1.99503997793928
20
-13.09401974916
30
0
41
1
10
-1.99503997793928
20
-12.9344093145834
30
0
41
1
10
-1.99503997793928
20
-12.7721223429484
30
0
41
1
10
-1.99503997793928
20
-12.606768466692
30
0
41
1
10
-1.99503997793928
20
-12.4813812679684
30
0
41
1
10
-1.99503997793928
20
-12.3545748152048
30
0
41
1
10
-1.99503997793928
20
-12.1835401119863
30
0
41
1
10
-1.99503997793928
20
-12.0099077332894
30
0
41
1
10
-1.99503997793928
20
-11.8332480165124
30
0
41
1
10
-1.99503997793928
20
-11.6547268261542
30
0
41
1
10
-1.99503997793928
20
-11.4282697000141
30
0
41
1
10
-1.99503997793928
20
-11.1972001365959
30
0
41
1
10
-1.99503997793928
20
-11.00944356136
30
0
41
1
10
-1.99503997793928
20
-10.8198574498995
30
0
41
1
10
-1.99503997793928
20
-10.627787937013
30
0
41
1
10
-1.99503997793928
20
-10.4327334855784
30
0
41
1
10
-1.99503997793928
20
-10.2851499168301
30
0
41
1
10
-1.99503997793928
20
-10.13621047024
30
0
41
1
10
-1.99503997793928
20
-9.98591879047714
30
0
41
1
10
-1.99503997793928
20
-9.83427692622885
30
0
41
1
10
-1.99503997793928
20
-9.63019833168175
30
0
41
1
10
-1.99503997793928
20
-9.37195865327328
30
0
41
1
10
-1.99503997793928
20
-9.1092571782612
30
0
41
1
10
-1.99503997793928
20
-8.89624559944801
30
0
41
1
10
-1.99503997793928
20
-8.73523611643316
30
0
41
1
10
-1.99503997793928
20
-8.57289871794615
30
0
41
1
10
-1.99503997793928
20
-8.40923673354897
30
0
41
1
10
-1.99503997793928
20
-8.24425232954013
30
0
41
1
10
-1.99503997793928
20
-8.0224014648056
30
0
41
1
10
-1.99503997793928
20
-7.7420578132905
30
0
41
1
10
-1.99503997793928
20
-7.40025290593451
30
0
41
1
10
-1.99503997793928
20
-7.11118461088941
30
0
41
1
10
-1.99503997793928
20
-6.87709665618266
30
0
41
1
10
-1.99503997793928
20
-6.70033531356589
30
0
41
1
10
-1.99503997793928
20
-6.52228078287743
30
0
41
1
10
-1.99503997793928
20
-6.3429370741791
30
0
41
1
10
-1.99503997793928
20
-6.16230788845579
30
0
41
1
10
-1.99503997793928
20
-5.98039789106801
30
0
41
1
10
-1.99503997793928
20
-5.79721186805691
30
0
41
1
10
-1.99503997793928
20
-5.61275496243289
30
0
41
1
10
-1.99503997793928
20
-5.42703270327695
30
0
41
1
10
-1.99503997793928
20
-5.24005175731475
30
0
41
1
10
-1.99503997793928
20
-5.05181945337139
30
0
41
1
10
-1.99503997793928
20
-4.86234332329403
30
0
41
1
10
-1.99503997793928
20
-4.67163207713236
30
0
41
1
10
-1.99503997793928
20
-4.47969614999016
30
0
41
1
10
-1.99503997793928
20
-4.28654656517494
30
0
41
1
10
-1.99503997793928
20
-4.09219634432211
30
0
41
1
10
-1.99503997793928
20
-3.92934661081907
30
0
41
1
10
-1.99503997793928
20
-3.7982972967292
30
0
41
1
10
-1.99503997793928
20
-3.69979994526253
30
0
41
1
10
-1.99503997793928
20
-3.6010147061962
30
0
41
1
10
-1.99503997793928
20
-3.46881385164499
30
0
41
1
10
-1.99503997793928
20
-3.30310841087518
30
0
41
1
10
-1.99503997793928
20
-3.13647579824178
30
0
41
1
10
-1.99503997793928
20
-3.00241852965871
30
0
41
1
10
-1.99503997793928
20
-2.90170218623106
30
0
41
1
10
-1.99503997793928
20
-2.80072442890969
30
0
41
1
10
-1.99503997793928
20
-2.69948931487846
30
0
41
1
10
-1.99503997793928
20
-2.5980019734576
30
0
41
1
10
-1.99503997793928
20
-2.46222694501739
30
0
41
1
10
-1.99503997793928
20
-2.3263670801044
30
0
41
1
10
-1.99503997793928
20
-2.18963187963746
30
0
41
1
10
-1.99503997793928
20
-2.08696367451518
30
0
41
1
10
-1.99503997793928
20
-1.98407765086858
30
0
41
1
10
-1.99503997793928
20
-1.88098143773604
30
0
41
1
10
-1.99503997793928
20
-1.77768276547397
30
0
41
1
10
-1.99503997793928
20
-1.67418894734925
30
0
41
1
10
-1.99503997793928
20
-1.57050946303122
30
0
41
1
10
-1.99503997793928
20
-1.46665209995737
30
0
41
1
10
-1.99503997793928
20
-1.36262724011792
30
0
41
1
10
-1.99503997793928
20
-1.25844372920938
30
0
41
1
10
-1.99503997793928
20
-1.15411255471386
30
0
41
1
10
-1.99503997793928
20
-1.04964378000579
30
0
41
1
10
-1.99503997793928
20
-0.945048899580655
30
0
41
1
10
-1.99503997793928
20
-0.840338961204225
30
0
41
1
10
-1.99503997793928
20
-0.735526073032332
30
0
41
1
10
-1.99503997793928
20
-0.630622105582688
30
0
41
1
10
-1.99503997793928
20
-0.525639721157262
30
0
41
1
10
-1.99503997793928
20
-0.420591350928703
30
0
41
1
10
-1.99503997793928
20
-0.315490126623814
30
0
41
1
10
-1.99503997793928
20
-0.210348939519435
30
0
41
1
10
-1.99503997793928
20
-0.105181165306249
30
0
41
1
10
-1.99503997793928
20
2.6093687E-09
30
0
41
1
10
-1.99503997793928
20
0.10518117389941
30
0
41
1
10
-1.99503997793928
20
0.21034895445402
30
0
41
1
10
-1.99503997793928
20
0.315490140896543
30
0
41
1
10
-1.99503997793928
20
0.420591355720489
30
0
41
1
10
-1.99503997793928
20
0.525639723935797
30
0
41
1
10
-1.99503997793928
20
0.630622120770227
30
0
41
1
10
-1.99503997793928
20
0.735526093018507
30
0
41
1
10
-1.99503997793928
20
0.840338966235578
30
0
41
1
10
-1.99503997793928
20
0.945048896197648
30
0
41
1
10
-1.99503997793928
20
1.04964379294299
30
0
41
1
10
-1.99503997793928
20
1.15411258033262
30
0
41
1
10
-1.99503997793928
20
1.25844373877697
30
0
41
1
10
-1.99503997793928
20
1.36262723194542
30
0
41
1
10
-1.99503997793928
20
1.46665210416356
30
0
41
1
10
-1.99503997793928
20
1.57050948928742
30
0
41
1
10
-1.99503997793928
20
1.67418896894682
30
0
41
1
10
-1.99503997793928
20
1.77768276258209
30
0
41
1
10
-1.99503997793928
20
1.88098142742643
30
0
41
1
10
-1.99503997793928
20
1.98407766278629
30
0
41
1
10
-1.99503997793928
20
2.08696370566375
30
0
41
1
10
-1.99503997793928
20
2.18963189754737
30
0
41
1
10
-1.99503997793928
20
2.29207637206397
30
0
41
1
10
-1.99503997793928
20
2.39428973936722
30
0
41
1
10
-1.99503997793928
20
2.49626703199883
30
0
41
1
10
-1.99503997793928
20
2.59800197223717
30
0
41
1
10
-1.99503997793928
20
2.73345090264118
30
0
41
1
10
-1.99503997793928
20
2.86801083241156
30
0
41
1
10
-1.99503997793928
20
3.00241855173454
30
0
41
1
10
-1.99503997793928
20
3.13647582573117
30
0
41
1
10
-1.99503997793928
20
3.30310842941955
30
0
41
1
10
-1.99503997793928
20
3.46881383607317
30
0
41
1
10
-1.99503997793928
20
3.60101470543907
30
0
41
1
10
-1.99503997793928
20
3.69979996514493
30
0
41
1
10
-1.99503997793928
20
3.79829732832764
30
0
41
1
10
-1.99503997793928
20
3.92934662557204
30
0
41
1
10
-1.99503997793928
20
4.09219631216948
30
0
41
1
10
-1.99503997793928
20
4.28654650347451
30
0
41
1
10
-1.99503997793928
20
4.47969611179559
30
0
41
1
10
-1.99503997793928
20
4.67163198724225
30
0
41
1
10
-1.99503997793928
20
4.86234315765492
30
0
41
1
10
-1.99503997793928
20
5.05181944357969
30
0
41
1
10
-1.99503997793928
20
5.24005183821342
30
0
41
1
10
-1.99503997793928
20
5.42703263168386
30
0
41
1
10
-1.99503997793928
20
5.61275497462711
30
0
41
1
10
-1.99503997793928
20
5.79721217482029
30
0
41
1
10
-1.99503997793928
20
5.98039819956611
30
0
41
1
10
-1.99503997793928
20
6.16230794338162
30
0
41
1
10
-1.99503997793928
20
6.34293700639154
30
0
41
1
10
-1.99503997793928
20
6.52228076981257
30
0
41
1
10
-1.99503997793928
20
6.70033533418757
30
0
41
1
10
-1.99503997793928
20
6.87709665926303
30
0
41
1
10
-1.99503997793928
20
7.11118459991687
30
0
41
1
10
-1.99503997793928
20
7.40025292645402
30
0
41
1
10
-1.99503997793928
20
7.74205781809903
30
0
41
1
10
-1.99503997793928
20
8.02240145976876
30
0
41
1
10
-1.99503997793928
20
8.24425235284596
30
0
41
1
10
-1.99503997793928
20
8.40923674956807
30
0
41
1
10
-1.99503997793928
20
8.57289871422529
30
0
41
1
10
-1.99503997793928
20
8.73523610803539
30
0
41
1
10
-1.99503997793928
20
8.89624560664996
30
0
41
1
10
-1.99503997793928
20
9.10925720032841
30
0
41
1
10
-1.99503997793928
20
9.37195865915049
30
0
41
1
10
-1.99503997793928
20
9.6301983246166
30
0
41
1
10
-1.99503997793928
20
9.83427694277646
30
0
41
1
10
-1.99503997793928
20
9.98591881051331
30
0
41
1
10
-1.99503997793928
20
10.1362104789651
30
0
41
1
10
-1.99503997793928
20
10.2851499142426
30
0
41
1
10
-1.99503997793928
20
10.432733482583
30
0
41
1
10
-1.99503997793928
20
10.6277879483349
30
0
41
1
10
-1.99503997793928
20
10.8198574709635
30
0
41
1
10
-1.99503997793928
20
11.0094435667743
30
0
41
1
10
-1.99503997793928
20
11.1972001338813
30
0
41
1
10
-1.99503997793928
20
11.4282697094187
30
0
41
1
10
-1.99503997793928
20
11.6547268446385
30
0
41
1
10
-1.99503997793928
20
11.8332480225582
30
0
41
1
10
-1.99503997793928
20
12.0099077334538
30
0
41
1
10
-1.99503997793928
20
12.1835401209566
30
0
41
1
10
-1.99503997793928
20
12.3545748313203
30
0
41
1
10
-1.99503997793928
20
12.4813812819682
30
0
41
1
10
-1.99503997793928
20
12.6067684751262
30
0
41
1
10
-1.99503997793928
20
12.7721223466594
30
0
41
1
10
-1.99503997793928
20
12.9344093235711
30
0
41
1
10
-1.99503997793928
20
13.0940197637218
30
0
41
1
10
-1.99503997793928
20
13.2122307543484
30
0
41
1
10
-1.99503997793928
20
13.3289901210133
30
0
41
1
10
-1.99503997793928
20
13.4827901435456
30
0
41
1
10
-1.99503997793928
20
13.6334713858817
30
0
41
1
10
-1.99503997793928
20
13.7813876543746
30
0
41
1
10
-1.99503997793928
20
13.8907947392413
30
0
41
1
10
-1.99503997793928
20
13.99871189727
30
0
41
1
10
-1.99503997793928
20
14.1406647319193
30
0
41
1
10
-1.99503997793928
20
14.2794333813788
30
0
41
1
10
-1.99503997793928
20
14.4153366880849
30
0
41
1
10
-1.99503997793928
20
14.5156939237825
30
0
41
1
10
-1.99503997793928
20
14.614516060936
30
0
41
1
10
-1.99503997793928
20
14.7442755571137
30
0
41
1
10
-1.99503997793928
20
14.8707702595594
30
0
41
1
10
-1.99503997793928
20
14.9942845913974
30
0
41
1
10
-1.99503997793928
20
15.070107125687
30
0
41
1
10
-1.99503997793928
20
15.130016414734
30
0
41
1
10
-1.99503997793928
20
15.1893946011099
30
0
41
1
10
-1.99503997793928
20
15.2918890331241
30
0
41
1
10
-1.99503997793928
20
15.4056838559475
30
0
41
1
10
-1.99503997793928
20
15.5163656330196
30
0
41
1
10
-1.99503997793928
20
15.5977008570348
30
0
41
1
10
-1.99503997793928
20
15.677384979663
30
0
41
1
10
-1.99503997793928
20
15.781458474053
30
0
41
1
10
-1.99503997793928
20
15.8820499896637
30
0
41
1
10
-1.99503997793928
20
15.9793734967038
30
0
41
1
10
-1.99503997793928
20
16.0506207879892
30
0
41
1
10
-1.99503997793928
20
16.1201424632647
30
0
41
1
10
-1.99503997793928
20
16.1879246525291
30
0
41
1
10
-1.99503997793928
20
16.2539521307207
30
0
41
1
10
-1.99503997793928
20
16.3182114280861
30
0
41
1
10
-1.99503997793928
20
16.3806869997558
30
0
41
1
10
-1.99503997793928
20
16.4616240235723
30
0
41
1
10
-1.99503997793928
20
16.538824252381
30
0
41
1
10
-1.99503997793928
20
16.6124299668847
30
0
41
1
10
-1.99503997793928
20
16.6835453043615
30
0
41
1
10
-1.99503997793928
20
16.7507930080793
30
0
41
1
10
-1.99503997793928
20
16.8142877377232
30
0
41
1
10
-1.99503997793928
20
16.8751872797734
30
0
41
1
10
-1.99503997793928
20
16.9320728583858
30
0
41
1
10
-1.99503997793928
20
16.9850205784631
30
0
41
1
10
-1.99503997793928
20
17.0226788299273
30
0
41
1
10
-1.99503997793928
20
17.0582791544304
30
0
41
1
10
-1.99503997793928
20
17.1029924178939
30
0
41
1
10
-1.99503997793928
20
17.1434240170936
30
0
41
1
10
-1.99503997793928
20
17.1795896288677
30
0
41
1
10
-1.99503997793928
20
17.204505416066
30
0
41
1
10
-1.99503997793928
20
17.2271975480507
30
0
41
1
10
-1.99503997793928
20
17.2476335178127
30
0
41
1
10
-1.99503997793928
20
17.2657806121613
30
0
41
1
10
-1.99503997793928
20
17.2816041393821
30
0
41
1
10
-1.99503997793928
20
17.2950677779805
30
0
41
1
10
-1.99503997793928
20
17.3061342543252
30
0
41
1
10
-1.99503997793928
20
17.3147637210185
30
0
41
1
10
-1.99503997793928
20
17.3189468551844
30
0
41
1
10
-1.99503997793926
20
17.3206249260582
30
0
41
1
10
-1.99503997793926
20
17.3206887883549
30
0
0
SPLINE
5
18B
100
AcDbEntity
8
SK1
62
256
6
ByLayer
370
18
48
1
60
0
100
AcDbSpline
70
4
71
3
72
282
73
278
40
0
40
0
40
0
40
0
40
0.0031455789259344
40
0.0067200705911304
40
0.0102945622563263
40
0.0138690539215222
40
0.0174435455867181
40
0.0210180372519141
40
0.02459252891711
40
0.0281670205823059
40
0.0317415122475019
40
0.0353160039126978
40
0.0424649872430896
40
0.0460394789082856
40
0.0496139705734815
40
0.0531884622386774
40
0.0567629539038734
40
0.0639119372342652
40
0.0674864288994611
40
0.0710609205646571
40
0.0782099038950489
40
0.0817843955602449
40
0.0853588872254408
40
0.0925078705558326
40
0.0960823622210286
40
0.0996568538862245
40
0.10323134555142
40
0.106805837216616
40
0.110380328881812
40
0.113954820547008
40
0.117529312212204
40
0.1211038038774
40
0.128252787207792
40
0.131827278872988
40
0.135401770538184
40
0.13897626220338
40
0.142550753868576
40
0.149699737198968
40
0.153274228864163
40
0.156848720529359
40
0.160423212194555
40
0.163997703859751
40
0.171146687190143
40
0.174721178855339
40
0.178295670520535
40
0.181870162185731
40
0.185444653850927
40
0.192593637181319
40
0.196168128846515
40
0.19974262051171
40
0.203317112176906
40
0.206891603842102
40
0.214040587172494
40
0.21761507883769
40
0.221189570502886
40
0.224764062168082
40
0.228338553833278
40
0.23548753716367
40
0.239062028828866
40
0.242636520494062
40
0.246211012159258
40
0.249785503824453
40
0.256934487154845
40
0.260508978820041
40
0.264083470485237
40
0.271232453815629
40
0.278381437146021
40
0.281955928811217
40
0.285530420476413
40
0.292679403806805
40
0.296253895472001
40
0.299828387137197
40
0.303402878802392
40
0.306977370467588
40
0.310551862132784
40
0.31412635379798
40
0.321275337128372
40
0.328424320458764
40
0.33199881212396
40
0.335573303789156
40
0.339147795454352
40
0.342722287119548
40
0.346296778784744
40
0.349871270449939
40
0.357020253780331
40
0.364169237110723
40
0.371318220441115
40
0.374892712106311
40
0.378467203771507
40
0.382041695436703
40
0.385616187101899
40
0.389190678767095
40
0.392765170432291
40
0.396339662097487
40
0.399914153762683
40
0.403488645427878
40
0.407063137093074
40
0.41063762875827
40
0.414212120423466
40
0.417786612088662
40
0.421361103753858
40
0.424935595419054
40
0.42851008708425
40
0.432084578749446
40
0.433871824582044
40
0.435659070414642
40
0.43744631624724
40
0.439233562079838
40
0.442808053745034
40
0.44638254541023
40
0.448169791242828
40
0.449957037075426
40
0.451744282908023
40
0.453531528740622
40
0.455318774573219
40
0.457106020405817
40
0.460680512071013
40
0.462467757903611
40
0.464255003736209
40
0.466042249568807
40
0.467829495401405
40
0.469616741234003
40
0.471403987066601
40
0.473191232899199
40
0.474978478731797
40
0.476765724564395
40
0.478552970396993
40
0.480340216229591
40
0.482127462062189
40
0.483914707894787
40
0.485701953727385
40
0.487489199559983
40
0.489276445392581
40
0.491063691225179
40
0.492850937057777
40
0.494638182890375
40
0.496425428722973
40
0.498212674555571
40
0.499999920388168
40
0.501787166220767
40
0.503574412053365
40
0.505361657885962
40
0.50714890371856
40
0.508936149551158
40
0.510723395383756
40
0.512510641216354
40
0.514297887048952
40
0.51608513288155
40
0.517872378714148
40
0.519659624546746
40
0.521446870379344
40
0.523234116211942
40
0.52502136204454
40
0.526808607877138
40
0.528595853709736
40
0.530383099542334
40
0.532170345374932
40
0.53395759120753
40
0.535744837040128
40
0.537532082872726
40
0.539319328705324
40
0.541106574537922
40
0.54289382037052
40
0.544681066203118
40
0.546468312035716
40
0.550042803700912
40
0.55183004953351
40
0.553617295366107
40
0.557191787031303
40
0.560766278696499
40
0.562553524529097
40
0.564340770361695
40
0.566128016194293
40
0.567915262026891
40
0.571489753692087
40
0.575064245357283
40
0.578638737022479
40
0.582213228687675
40
0.585787720352871
40
0.589362212018067
40
0.592936703683263
40
0.596511195348459
40
0.600085687013655
40
0.60366017867885
40
0.607234670344046
40
0.610809162009242
40
0.614383653674438
40
0.617958145339634
40
0.62153263700483
40
0.625107128670026
40
0.628681620335222
40
0.635830603665614
40
0.642979586996006
40
0.650128570326398
40
0.653703061991594
40
0.657277553656789
40
0.660852045321985
40
0.664426536987181
40
0.668001028652377
40
0.671575520317573
40
0.678724503647965
40
0.685873486978357
40
0.689447978643553
40
0.693022470308749
40
0.696596961973945
40
0.700171453639141
40
0.703745945304337
40
0.707320436969533
40
0.714469420299924
40
0.71804391196512
40
0.721618403630316
40
0.728767386960708
40
0.7359163702911
40
0.739490861956296
40
0.743065353621492
40
0.750214336951884
40
0.753788828617079
40
0.757363320282275
40
0.760937811947471
40
0.764512303612667
40
0.771661286943059
40
0.775235778608255
40
0.778810270273451
40
0.782384761938647
40
0.785959253603843
40
0.793108236934235
40
0.796682728599431
40
0.800257220264627
40
0.803831711929822
40
0.807406203595018
40
0.81455518692541
40
0.818129678590606
40
0.821704170255802
40
0.825278661920998
40
0.828853153586194
40
0.836002136916586
40
0.839576628581782
40
0.843151120246978
40
0.844938366079576
40
0.846725611912174
40
0.85030010357737
40
0.857449086907761
40
0.861023578572957
40
0.864598070238153
40
0.868172561903349
40
0.871747053568545
40
0.878896036898937
40
0.882470528564133
40
0.886045020229329
40
0.889619511894525
40
0.893194003559721
40
0.896768495224917
40
0.900342986890113
40
0.903917478555309
40
0.907491970220504
40
0.914640953550896
40
0.918215445216092
40
0.921789936881288
40
0.92893892021168
40
0.932513411876876
40
0.936087903542072
40
0.943236886872464
40
0.94681137853766
40
0.950385870202856
40
0.953960361868052
40
0.957534853533247
40
0.964683836863639
40
0.968258328528835
40
0.971832820194031
40
0.975407311859227
40
0.978981803524423
40
0.982556295189619
40
0.986130786854815
40
0.989705278520011
40
0.993279770185207
40
0.996854261850403
40
1
40
1
40
1
40
1
41
1
10
-2.19999999999996
20
-17.5147448898181
30
0
41
1
10
-2.19999999999996
20
-17.5132050221523
30
0
41
1
10
-2.19999999999996
20
-17.5092143226125
30
0
41
1
10
-2.19999999999999
20
-17.5008423359265
30
0
41
1
10
-2.19999999999999
20
-17.4896606050755
30
0
41
1
10
-2.19999999999999
20
-17.4760589345483
30
0
41
1
10
-2.19999999999999
20
-17.4600756660116
30
0
41
1
10
-2.19999999999999
20
-17.4417480829298
30
0
41
1
10
-2.19999999999999
20
-17.4211116708093
30
0
41
1
10
-2.19999999999999
20
-17.3981999720817
30
0
41
1
10
-2.19999999999999
20
-17.373046254225
30
0
41
1
10
-2.19999999999999
20
-17.3365615480365
30
0
41
1
10
-2.19999999999999
20
-17.2957083393221
30
0
41
1
10
-2.19999999999999
20
-17.2506132986913
30
0
41
1
10
-2.19999999999999
20
-17.2146924230801
30
0
41
1
10
-2.19999999999999
20
-17.1766986759847
30
0
41
1
10
-2.19999999999999
20
-17.1233138560685
30
0
41
1
10
-2.19999999999999
20
-17.0658713749173
30
0
41
1
10
-2.19999999999999
20
-17.0044820563696
30
0
41
1
10
-2.19999999999999
20
-16.9404819965209
30
0
41
1
10
-2.19999999999999
20
-16.8725984751516
30
0
41
1
10
-2.19999999999999
20
-16.8009296734765
30
0
41
1
10
-2.19999999999999
20
-16.72675615712
30
0
41
1
10
-2.19999999999999
20
-16.6488472996884
30
0
41
1
10
-2.19999999999999
20
-16.5672977573629
30
0
41
1
10
-2.19999999999999
20
-16.5043209819811
30
0
41
1
10
-2.19999999999999
20
-16.4395493732765
30
0
41
1
10
-2.19999999999999
20
-16.3729983406747
30
0
41
1
10
-2.19999999999999
20
-16.3046816133433
30
0
41
1
10
-2.19999999999999
20
-16.2346146587631
30
0
41
1
10
-2.19999999999999
20
-16.1628111167189
30
0
41
1
10
-2.19999999999999
20
-16.0647793469533
30
0
41
1
10
-2.19999999999999
20
-15.9633134995801
30
0
41
1
10
-2.19999999999999
20
-15.8584913887799
30
0
41
1
10
-2.19999999999999
20
-15.7781982427732
30
0
41
1
10
-2.19999999999999
20
-15.6962433497342
30
0
41
1
10
-2.19999999999999
20
-15.5847743861311
30
0
41
1
10
-2.19999999999999
20
-15.4700110710185
30
0
41
1
10
-2.19999999999999
20
-15.3520264687641
30
0
41
1
10
-2.19999999999999
20
-15.2619258251736
30
0
41
1
10
-2.19999999999999
20
-15.1702262286607
30
0
41
1
10
-2.19999999999999
20
-15.0458463802595
30
0
41
1
10
-2.19999999999999
20
-14.9182892137509
30
0
41
1
10
-2.19999999999999
20
-14.7876243835494
30
0
41
1
10
-2.19999999999999
20
-14.6880675684927
30
0
41
1
10
-2.19999999999999
20
-14.5869647024964
30
0
41
1
10
-2.19999999999999
20
-14.4501162009323
30
0
41
1
10
-2.19999999999999
20
-14.310188578504
30
0
41
1
10
-2.19999999999999
20
-14.1672492498436
30
0
41
1
10
-2.19999999999999
20
-14.0585319196999
30
0
41
1
10
-2.19999999999999
20
-13.9483131149779
30
0
41
1
10
-2.19999999999999
20
-13.7993681823229
30
0
41
1
10
-2.19999999999999
20
-13.6474264445925
30
0
41
1
10
-2.19999999999999
20
-13.4925540283558
30
0
41
1
10
-2.19999999999999
20
-13.3749248852381
30
0
41
1
10
-2.19999999999999
20
-13.2558316845062
30
0
41
1
10
-2.19999999999999
20
-13.0951031858018
30
0
41
1
10
-2.19999999999999
20
-12.9314463879873
30
0
41
1
10
-2.19999999999999
20
-12.7649271524075
30
0
41
1
10
-2.19999999999999
20
-12.6385945304865
30
0
41
1
10
-2.19999999999999
20
-12.510828990928
30
0
41
1
10
-2.19999999999999
20
-12.3385783725546
30
0
41
1
10
-2.19999999999999
20
-12.1634558634281
30
0
41
1
10
-2.19999999999999
20
-11.9855279960913
30
0
41
1
10
-2.19999999999999
20
-11.8057193844339
30
0
41
1
10
-2.19999999999999
20
-11.5774197426994
30
0
41
1
10
-2.19999999999999
20
-11.3444552561941
30
0
41
1
10
-2.19999999999999
20
-11.1553144466797
30
0
41
1
10
-2.19999999999999
20
-10.96432157968
30
0
41
1
10
-2.19999999999999
20
-10.7705258372791
30
0
41
1
10
-2.19999999999999
20
-10.5740001677826
30
0
41
1
10
-2.19999999999999
20
-10.4252200954492
30
0
41
1
10
-2.19999999999999
20
-10.2750653600417
30
0
41
1
10
-2.19999999999999
20
-10.1235384488298
30
0
41
1
10
-2.19999999999999
20
-9.97064122920807
30
0
41
1
10
-2.19999999999999
20
-9.76496631801302
30
0
41
1
10
-2.19999999999999
20
-9.50443392738597
30
0
41
1
10
-2.19999999999999
20
-9.23936570098886
30
0
41
1
10
-2.19999999999999
20
-9.02461799380217
30
0
41
1
10
-2.19999999999999
20
-8.86219304475887
30
0
41
1
10
-2.19999999999999
20
-8.69841428000512
30
0
41
1
10
-2.19999999999999
20
-8.53328405958746
30
0
41
1
10
-2.19999999999999
20
-8.36680339868337
30
0
41
1
10
-2.19999999999999
20
-8.14304412571011
30
0
41
1
10
-2.19999999999999
20
-7.85994707617317
30
0
41
1
10
-2.19999999999999
20
-7.51487111531026
30
0
41
1
10
-2.19999999999999
20
-7.22282329277962
30
0
41
1
10
-2.19999999999999
20
-6.98653548716825
30
0
41
1
10
-2.19999999999999
20
-6.80797157864473
30
0
41
1
10
-2.19999999999999
20
-6.62807270531451
30
0
41
1
10
-2.19999999999999
20
-6.44684086969582
30
0
41
1
10
-2.19999999999999
20
-6.26427776637016
30
0
41
1
10
-2.19999999999999
20
-6.0803858592752
30
0
41
1
10
-2.19999999999999
20
-5.89516728223867
30
0
41
1
10
-2.19999999999999
20
-5.70862469092603
30
0
41
1
10
-2.19999999999999
20
-5.52076103085633
30
0
41
1
10
-2.19999999999999
20
-5.33157993388585
30
0
41
1
10
-2.19999999999999
20
-5.14108511996025
30
0
41
1
10
-2.19999999999999
20
-4.94928086714648
30
0
41
1
10
-2.19999999999999
20
-4.75617251627347
30
0
41
1
10
-2.19999999999999
20
-4.56176620564526
30
0
41
1
10
-2.19999999999999
20
-4.36606873641344
30
0
41
1
10
-2.19999999999999
20
-4.16908849962459
30
0
41
1
10
-2.19999999999999
20
-4.00386590607064
30
0
41
1
10
-2.19999999999999
20
-3.87107810854147
30
0
41
1
10
-2.19999999999999
20
-3.77116418570387
30
0
41
1
10
-2.19999999999999
20
-3.67093805129474
30
0
41
1
10
-2.19999999999999
20
-3.5369018254882
30
0
41
1
10
-2.19999999999999
20
-3.36855658184018
30
0
41
1
10
-2.19999999999999
20
-3.19919951970698
30
0
41
1
10
-2.19999999999999
20
-3.06314133422208
30
0
41
1
10
-2.19999999999999
20
-2.96079189341756
30
0
41
1
10
-2.19999999999999
20
-2.85815023786418
30
0
41
1
10
-2.19999999999999
20
-2.75522026664268
30
0
41
1
10
-2.19999999999999
20
-2.65200561172494
30
0
41
1
10
-2.19999999999999
20
-2.51402705629772
30
0
41
1
10
-2.19999999999999
20
-2.375450816946
30
0
41
1
10
-2.19999999999999
20
-2.23639085040648
30
0
41
1
10
-2.19999999999999
20
-2.13182395998015
30
0
41
1
10
-2.19999999999999
20
-2.02700348752293
30
0
41
1
10
-2.19999999999999
20
-1.92193653735015
30
0
41
1
10
-2.19999999999999
20
-1.81663008016324
30
0
41
1
10
-2.19999999999999
20
-1.71109231328518
30
0
41
1
10
-2.19999999999999
20
-1.60533155404698
30
0
41
1
10
-2.19999999999999
20
-1.49935698477981
30
0
41
1
10
-2.19999999999999
20
-1.39317847233161
30
0
41
1
10
-2.19999999999999
20
-1.28680633401083
30
0
41
1
10
-2.19999999999999
20
-1.18025197439016
30
0
41
1
10
-2.19999999999999
20
-1.073527020087
30
0
41
1
10
-2.19999999999999
20
-0.96664434311532
30
0
41
1
10
-2.19999999999999
20
-0.859616995486334
30
0
41
1
10
-2.19999999999999
20
-0.752459219961509
30
0
41
1
10
-2.19999999999999
20
-0.645185453734172
30
0
41
1
10
-2.19999999999999
20
-0.537811163545626
30
0
41
1
10
-2.19999999999999
20
-0.430352024765995
30
0
41
1
10
-2.19999999999999
20
-0.322824496958617
30
0
41
1
10
-2.19999999999999
20
-0.215245213108545
30
0
41
1
10
-2.19999999999999
20
-0.107631302158183
30
0
41
1
10
-2.19999999999999
20
5.9909553E-09
30
0
41
1
10
-2.19999999999999
20
0.107631313716837
30
0
41
1
10
-2.19999999999999
20
0.21524522393176
30
0
41
1
10
-2.19999999999999
20
0.322824507999513
30
0
41
1
10
-2.19999999999999
20
0.430352036900842
30
0
41
1
10
-2.19999999999999
20
0.537811175438549
30
0
41
1
10
-2.19999999999999
20
0.645185463980482
30
0
41
1
10
-2.19999999999999
20
0.752459230354134
30
0
41
1
10
-2.19999999999999
20
0.859617007920519
30
0
41
1
10
-2.19999999999999
20
0.966644355262389
30
0
41
1
10
-2.19999999999999
20
1.07352702949097
30
0
41
1
10
-2.19999999999999
20
1.18025198377217
30
0
41
1
10
-2.19999999999999
20
1.2868063464968
30
0
41
1
10
-2.19999999999999
20
1.39317848503856
30
0
41
1
10
-2.19999999999999
20
1.49935699380708
30
0
41
1
10
-2.19999999999999
20
1.60533156181745
30
0
41
1
10
-2.19999999999999
20
1.71109232444707
30
0
41
1
10
-2.19999999999999
20
1.81663009373557
30
0
41
1
10
-2.19999999999999
20
1.92193654804359
30
0
41
1
10
-2.19999999999999
20
2.02700349385552
30
0
41
1
10
-2.19999999999999
20
2.13182396747069
30
0
41
1
10
-2.19999999999999
20
2.23639086291988
30
0
41
1
10
-2.19999999999999
20
2.34069812940876
30
0
41
1
10
-2.19999999999999
20
2.44473977839391
30
0
41
1
10
-2.19999999999999
20
2.54851063247165
30
0
41
1
10
-2.19999999999999
20
2.65200559968281
30
0
41
1
10
-2.19999999999999
20
2.78960994504098
30
0
41
1
10
-2.19999999999999
20
2.92668912429065
30
0
41
1
10
-2.19999999999999
20
3.06314133551615
30
0
41
1
10
-2.19999999999999
20
3.19919952332836
30
0
41
1
10
-2.19999999999999
20
3.36855659963138
30
0
41
1
10
-2.19999999999999
20
3.53690183437428
30
0
41
1
10
-2.19999999999999
20
3.67093805397229
30
0
41
1
10
-2.19999999999999
20
3.77116418775421
30
0
41
1
10
-2.19999999999999
20
3.87107811616198
30
0
41
1
10
-2.19999999999999
20
4.00386592221614
30
0
41
1
10
-2.19999999999999
20
4.169088511784
30
0
41
1
10
-2.19999999999999
20
4.36606871643775
30
0
41
1
10
-2.19999999999999
20
4.56176617271484
30
0
41
1
10
-2.19999999999999
20
4.75617249379653
30
0
41
1
10
-2.19999999999999
20
4.94928076863457
30
0
41
1
10
-2.19999999999999
20
5.14108500618136
30
0
41
1
10
-2.19999999999999
20
5.33157993903225
30
0
41
1
10
-2.19999999999999
20
5.52076102284181
30
0
41
1
10
-2.19999999999999
20
5.70862461825791
30
0
41
1
10
-2.19999999999999
20
5.89516734859464
30
0
41
1
10
-2.19999999999999
20
6.0803860968085
30
0
41
1
10
-2.19999999999999
20
6.26427796235188
30
0
41
1
10
-2.19999999999999
20
6.44684092947378
30
0
41
1
10
-2.19999999999999
20
6.62807271786153
30
0
41
1
10
-2.19999999999999
20
6.80797159432129
30
0
41
1
10
-2.19999999999999
20
6.98653550324826
30
0
41
1
10
-2.19999999999999
20
7.22282328452872
30
0
41
1
10
-2.19999999999999
20
7.51487112820209
30
0
41
1
10
-2.19999999999999
20
7.85994708827315
30
0
41
1
10
-2.19999999999999
20
8.14304411844034
30
0
41
1
10
-2.19999999999999
20
8.36680341033821
30
0
41
1
10
-2.19999999999999
20
8.53328407858575
30
0
41
1
10
-2.19999999999999
20
8.69841428877766
30
0
41
1
10
-2.19999999999999
20
8.86219304073114
30
0
41
1
10
-2.19999999999999
20
9.02461799205523
30
0
41
1
10
-2.19999999999999
20
9.23936571773672
30
0
41
1
10
-2.19999999999999
20
9.50443394039922
30
0
41
1
10
-2.19999999999999
20
9.76496631110049
30
0
41
1
10
-2.19999999999999
20
9.97064123613964
30
0
41
1
10
-2.19999999999999
20
10.123538466054
30
0
41
1
10
-2.19999999999999
20
10.2750653748105
30
0
41
1
10
-2.19999999999999
20
10.4252201002359
30
0
41
1
10
-2.19999999999999
20
10.5740001651574
30
0
41
1
10
-2.19999999999999
20
10.7705258416001
30
0
41
1
10
-2.19999999999999
20
10.9643215989582
30
0
41
1
10
-2.19999999999999
20
11.1553144582602
30
0
41
1
10
-2.19999999999999
20
11.3444552554371
30
0
41
1
10
-2.19999999999999
20
11.5774197477568
30
0
41
1
10
-2.19999999999999
20
11.8057194023465
30
0
41
1
10
-2.19999999999999
20
11.9855280067157
30
0
41
1
10
-2.19999999999999
20
12.1634558646821
30
0
41
1
10
-2.19999999999999
20
12.3385783781737
30
0
41
1
10
-2.19999999999999
20
12.510829004708
30
0
41
1
10
-2.19999999999999
20
12.6385945454976
30
0
41
1
10
-2.19999999999999
20
12.7649271637091
30
0
41
1
10
-2.19999999999999
20
12.9314463925932
30
0
41
1
10
-2.19999999999999
20
13.0951031927999
30
0
41
1
10
-2.19999999999999
20
13.2558316973182
30
0
41
1
10
-2.19999999999999
20
13.3749248996582
30
0
41
1
10
-2.19999999999999
20
13.4925540411334
30
0
41
1
10
-2.19999999999999
20
13.6474264531923
30
0
41
1
10
-2.19999999999999
20
13.7993681905533
30
0
41
1
10
-2.19999999999999
20
13.9483131264862
30
0
41
1
10
-2.19999999999999
20
14.0585319334344
30
0
41
1
10
-2.19999999999999
20
14.1672492642274
30
0
41
1
10
-2.19999999999999
20
14.3101885914782
30
0
41
1
10
-2.19999999999999
20
14.4501162106047
30
0
41
1
10
-2.19999999999999
20
14.5869647126432
30
0
41
1
10
-2.19999999999999
20
14.6880675812844
30
0
41
1
10
-2.19999999999999
20
14.7876243995297
30
0
41
1
10
-2.19999999999999
20
14.9182892218295
30
0
41
1
10
-2.19999999999999
20
15.0458464314392
30
0
41
1
10
-2.19999999999999
20
15.1702261509224
30
0
41
1
10
-2.19999999999999
20
15.2466455133785
30
0
41
1
10
-2.19999999999999
20
15.3069761679616
30
0
41
1
10
-2.19999999999999
20
15.3667724139347
30
0
41
1
10
-2.19999999999999
20
15.4700110929875
30
0
41
1
10
-2.19999999999999
20
15.5847743990242
30
0
41
1
10
-2.19999999999999
20
15.6962433571227
30
0
41
1
10
-2.19999999999999
20
15.7781982539187
30
0
41
1
10
-2.19999999999999
20
15.8584914079188
30
0
41
1
10
-2.19999999999999
20
15.9633135259672
30
0
41
1
10
-2.19999999999999
20
16.0647793597711
30
0
41
1
10
-2.19999999999999
20
16.1628111223414
30
0
41
1
10
-2.19999999999999
20
16.2346146707391
30
0
41
1
10
-2.19999999999999
20
16.3046816359758
30
0
41
1
10
-2.19999999999999
20
16.3729983688048
30
0
41
1
10
-2.19999999999999
20
16.439549393056
30
0
41
1
10
-2.19999999999999
20
16.5043209901434
30
0
41
1
10
-2.19999999999999
20
16.5672977619412
30
0
41
1
10
-2.19999999999999
20
16.6488473199257
30
0
41
1
10
-2.19999999999999
20
16.7267561914694
30
0
41
1
10
-2.19999999999999
20
16.8009296884544
30
0
41
1
10
-2.19999999999999
20
16.8725984731112
30
0
41
1
10
-2.19999999999999
20
16.9404820184079
30
0
41
1
10
-2.19999999999999
20
17.0044820909957
30
0
41
1
10
-2.19999999999999
20
17.0658713913631
30
0
41
1
10
-2.19999999999999
20
17.123313852319
30
0
41
1
10
-2.19999999999999
20
17.1766986986672
30
0
41
1
10
-2.19999999999999
20
17.2146924603873
30
0
41
1
10
-2.19999999999999
20
17.250613323192
30
0
41
1
10
-2.19999999999999
20
17.2957083328928
30
0
41
1
10
-2.19999999999999
20
17.3365615705832
30
0
41
1
10
-2.19999999999999
20
17.3730462873428
30
0
41
1
10
-2.19999999999999
20
17.398199993695
30
0
41
1
10
-2.19999999999999
20
17.4211116738093
30
0
41
1
10
-2.19999999999999
20
17.4417480876219
30
0
41
1
10
-2.19999999999999
20
17.4600756994924
30
0
41
1
10
-2.19999999999999
20
17.4760589706817
30
0
41
1
10
-2.19999999999999
20
17.4896606126055
30
0
41
1
10
-2.19999999999999
20
17.5008423321234
30
0
41
1
10
-2.19999999999999
20
17.5092144719208
30
0
41
1
10
-2.20000000000002
20
17.5132052168486
30
0
41
1
10
-2.19999999999999
20
17.5147451091238
30
0
0
SPLINE
5
18C
100
AcDbEntity
8
SK1
62
256
6
ByLayer
370
18
48
1
60
0
100
AcDbSpline
70
4
71
3
72
287
73
283
40
0
40
0
40
0
40
0
40
0.0019139616007271
40
0.0054377006297872
40
0.0089614396588473
40
0.0124851786879075
40
0.0160089177169676
40
0.0195326567460278
40
0.0230563957750879
40
0.0265801348041481
40
0.0301038738332083
40
0.0336276128622684
40
0.0371513518913286
40
0.0441988299494488
40
0.047722568978509
40
0.0512463080075691
40
0.0547700470366293
40
0.0582937860656895
40
0.0653412641238097
40
0.0688650031528699
40
0.07238874218193
40
0.0794362202400503
40
0.0829599592691105
40
0.0864836982981707
40
0.093531176356291
40
0.0970549153853512
40
0.100578654414411
40
0.104102393443471
40
0.107626132472531
40
0.111149871501592
40
0.114673610530652
40
0.118197349559712
40
0.121721088588772
40
0.128768566646893
40
0.132292305675953
40
0.135816044705013
40
0.139339783734073
40
0.142863522763133
40
0.149911000821253
40
0.153434739850314
40
0.156958478879374
40
0.160482217908434
40
0.164005956937494
40
0.171053434995614
40
0.174577174024674
40
0.178100913053735
40
0.181624652082795
40
0.185148391111855
40
0.192195869169975
40
0.195719608199035
40
0.199243347228096
40
0.202767086257156
40
0.206290825286216
40
0.213338303344336
40
0.216862042373396
40
0.220385781402456
40
0.223909520431516
40
0.227433259460577
40
0.234480737518697
40
0.238004476547757
40
0.241528215576817
40
0.245051954605877
40
0.248575693634938
40
0.255623171693058
40
0.259146910722118
40
0.262670649751178
40
0.269718127809298
40
0.276765605867419
40
0.280289344896479
40
0.283813083925539
40
0.290860561983659
40
0.29438430101272
40
0.29790804004178
40
0.30143177907084
40
0.3049555180999
40
0.30847925712896
40
0.31200299615802
40
0.319050474216141
40
0.326097952274261
40
0.329621691303321
40
0.333145430332381
40
0.336669169361441
40
0.340192908390501
40
0.343716647419561
40
0.347240386448622
40
0.354287864506742
40
0.361335342564862
40
0.368382820622983
40
0.371906559652043
40
0.375430298681103
40
0.378954037710163
40
0.382477776739223
40
0.386001515768283
40
0.389525254797344
40
0.393048993826404
40
0.396572732855464
40
0.400096471884524
40
0.403620210913584
40
0.407143949942644
40
0.410667688971704
40
0.414191428000765
40
0.417715167029825
40
0.421238906058885
40
0.424762645087945
40
0.428286384117005
40
0.430048253631535
40
0.431810123146065
40
0.433571992660595
40
0.435333862175125
40
0.438857601204185
40
0.442381340233246
40
0.444143209747776
40
0.445905079262306
40
0.447666948776836
40
0.449428818291366
40
0.451190687805896
40
0.452952557320426
40
0.456476296349486
40
0.458238165864016
40
0.460000035378546
40
0.461761904893077
40
0.463523774407607
40
0.465285643922137
40
0.467047513436667
40
0.468809382951197
40
0.470571252465727
40
0.472333121980257
40
0.474094991494787
40
0.475856861009317
40
0.477618730523847
40
0.479380600038377
40
0.481142469552907
40
0.482904339067438
40
0.484666208581968
40
0.486428078096498
40
0.488189947611028
40
0.489951817125558
40
0.491713686640088
40
0.493475556154618
40
0.495237425669148
40
0.496999295183678
40
0.498761164698208
40
0.500523034212738
40
0.502284903727268
40
0.504046773241798
40
0.505808642756328
40
0.507570512270859
40
0.509332381785389
40
0.511094251299919
40
0.512856120814449
40
0.514617990328979
40
0.516379859843509
40
0.518141729358039
40
0.519903598872569
40
0.521665468387099
40
0.523427337901629
40
0.525189207416159
40
0.526951076930689
40
0.528712946445219
40
0.530474815959749
40
0.532236685474279
40
0.53399855498881
40
0.53576042450334
40
0.53752229401787
40
0.5392841635324
40
0.54104603304693
40
0.54456977207599
40
0.54633164159052
40
0.54809351110505
40
0.55161725013411
40
0.55514098916317
40
0.5569028586777
40
0.55866472819223
40
0.560426597706761
40
0.562188467221291
40
0.565712206250351
40
0.569235945279411
40
0.572759684308471
40
0.576283423337531
40
0.579807162366591
40
0.583330901395652
40
0.586854640424712
40
0.590378379453772
40
0.593902118482832
40
0.597425857511892
40
0.600949596540952
40
0.604473335570012
40
0.607997074599072
40
0.611520813628133
40
0.615044552657193
40
0.618568291686253
40
0.622092030715313
40
0.629139508773434
40
0.636186986831554
40
0.643234464889674
40
0.646758203918734
40
0.650281942947794
40
0.653805681976855
40
0.657329421005915
40
0.660853160034975
40
0.664376899064035
40
0.671424377122155
40
0.678471855180276
40
0.681995594209336
40
0.685519333238396
40
0.689043072267456
40
0.692566811296516
40
0.696090550325576
40
0.699614289354637
40
0.706661767412757
40
0.710185506441817
40
0.713709245470877
40
0.720756723528998
40
0.727804201587117
40
0.731327940616178
40
0.734851679645238
40
0.741899157703358
40
0.745422896732418
40
0.748946635761479
40
0.752470374790539
40
0.755994113819599
40
0.763041591877719
40
0.766565330906779
40
0.770089069935839
40
0.773612808964899
40
0.77713654799396
40
0.78418402605208
40
0.78770776508114
40
0.7912315041102
40
0.79475524313926
40
0.798278982168321
40
0.805326460226441
40
0.808850199255501
40
0.812373938284561
40
0.815897677313621
40
0.819421416342682
40
0.826468894400802
40
0.829992633429862
40
0.833516372458922
40
0.835278241973452
40
0.837040111487983
40
0.840563850517043
40
0.847611328575163
40
0.851135067604223
40
0.854658806633283
40
0.858182545662343
40
0.861706284691403
40
0.868753762749524
40
0.872277501778584
40
0.875801240807644
40
0.879324979836704
40
0.882848718865764
40
0.886372457894824
40
0.889896196923885
40
0.893419935952945
40
0.896943674982005
40
0.903991153040125
40
0.907514892069185
40
0.911038631098245
40
0.918086109156366
40
0.921609848185426
40
0.925133587214486
40
0.932181065272606
40
0.935704804301666
40
0.939228543330726
40
0.942752282359787
40
0.946276021388847
40
0.953323499446967
40
0.956847238476027
40
0.960370977505088
40
0.963894716534148
40
0.967418455563208
40
0.970942194592268
40
0.974465933621328
40
0.977989672650388
40
0.981513411679448
40
0.985037150708509
40
0.988560889737569
40
0.992084628766629
40
0.995608367795689
40
0.999132106824749
40
1
40
1
40
1
40
1
41
1
10
-28.5
20
-16.8570111720127
30
0
41
1
10
-28.5
20
-16.8563913811379
30
0
41
1
10
-28.5
20
-16.8542840086147
30
0
41
1
10
-28.5
20
-16.8492032887544
30
0
41
1
10
-28.5
20
-16.8407921788659
30
0
41
1
10
-28.5
20
-16.8300011209595
30
0
41
1
10
-28.5
20
-16.8168672741156
30
0
41
1
10
-28.5
20
-16.8014255225769
30
0
41
1
10
-28.5
20
-16.783709883521
30
0
41
1
10
-28.5
20
-16.7637529731542
30
0
41
1
10
-28.5
20
-16.7415855338906
30
0
41
1
10
-28.5
20
-16.7172383450784
30
0
41
1
10
-28.5
20
-16.6818353810987
30
0
41
1
10
-28.5
20
-16.642411510514
30
0
41
1
10
-28.5
20
-16.5986105790194
30
0
41
1
10
-28.5
20
-16.5637763020887
30
0
41
1
10
-28.5
20
-16.5269199075572
30
0
41
1
10
-28.5
20
-16.4750169305147
30
0
41
1
10
-28.5
20
-16.4194622625482
30
0
41
1
10
-28.5
20
-16.3597331913305
30
0
41
1
10
-28.5
20
-16.2974462059125
30
0
41
1
10
-28.5
20
-16.2317181614777
30
0
41
1
10
-28.5
20
-16.1619255301562
30
0
41
1
10
-28.5
20
-16.0896767577218
30
0
41
1
10
-28.5
20
-16.0141701499498
30
0
41
1
10
-28.5
20
-15.9346970720351
30
0
41
1
10
-28.5
20
-15.8734193498834
30
0
41
1
10
-28.5
20
-15.8103844132608
30
0
41
1
10
-28.5
20
-15.745608166167
30
0
41
1
10
-28.5
20
-15.6791035033831
30
0
41
1
10
-28.5
20
-15.6108850520675
30
0
41
1
10
-28.5
20
-15.5409672008416
30
0
41
1
10
-28.5
20
-15.4453363897878
30
0
41
1
10
-28.5
20
-15.3468344295442
30
0
41
1
10
-28.5
20
-15.2445501023872
30
0
41
1
10
-28.5
20
-15.1663215412447
30
0
41
1
10
-28.5
20
-15.0864673138636
30
0
41
1
10
-28.5
20
-14.9776668598204
30
0
41
1
10
-28.5
20
-14.8661866472663
30
0
41
1
10
-28.5
20
-14.7510047173632
30
0
41
1
10
-28.5
20
-14.6631805593238
30
0
41
1
10
-28.5
20
-14.5737935545692
30
0
41
1
10
-28.5
20
-14.4523474056541
30
0
41
1
10
-28.5
20
-14.3283920102608
30
0
41
1
10
-28.5
20
-14.2007962111626
30
0
41
1
10
-28.5
20
-14.1037299196573
30
0
41
1
10
-28.5
20
-14.0051547121626
30
0
41
1
10
-28.5
20
-13.8715103774192
30
0
41
1
10
-28.5
20
-13.7355116027341
30
0
41
1
10
-28.5
20
-13.5959164295663
30
0
41
1
10
-28.5
20
-13.4899116400767
30
0
41
1
10
-28.5
20
-13.3824445287113
30
0
41
1
10
-28.5
20
-13.2369867267196
30
0
41
1
10
-28.5
20
-13.0893180063072
30
0
41
1
10
-28.5
20
-12.9380809359595
30
0
41
1
10
-28.5
20
-12.8234002792818
30
0
41
1
10
-28.5
20
-12.7072977235968
30
0
41
1
10
-28.5
20
-12.550359403554
30
0
41
1
10
-28.5
20
-12.3913462445321
30
0
41
1
10
-28.5
20
-12.2287775158425
30
0
41
1
10
-28.5
20
-12.1056498288981
30
0
41
1
10
-28.5
20
-11.9811355431936
30
0
41
1
10
-28.5
20
-11.8130068133241
30
0
41
1
10
-28.5
20
-11.642935768078
30
0
41
1
10
-28.5
20
-11.4693068645233
30
0
41
1
10
-28.5
20
-11.2938625434425
30
0
41
1
10
-28.5
20
-11.0718089327865
30
0
41
1
10
-28.5
20
-10.8452681360072
30
0
41
1
10
-28.5
20
-10.6608198079832
30
0
41
1
10
-28.5
20
-10.4745957683654
30
0
41
1
10
-28.5
20
-10.2866518533399
30
0
41
1
10
-28.5
20
-10.0951135357909
30
0
41
1
10
-28.5
20
-9.9503895477591
30
0
41
1
10
-28.5
20
-9.8043545776041
30
0
41
1
10
-28.5
20
-9.65701503611822
30
0
41
1
10
-28.5
20
-9.50837340526911
30
0
41
1
10
-28.5
20
-9.30810992365676
30
0
41
1
10
-28.5
20
-9.05534970701541
30
0
41
1
10
-28.5
20
-8.79830464348922
30
0
41
1
10
-28.5
20
-8.58944232029054
30
0
41
1
10
-28.5
20
-8.43181572672981
30
0
41
1
10
-28.5
20
-8.27292311790592
30
0
41
1
10
-28.5
20
-8.11277014047184
30
0
41
1
10
-28.5
20
-7.9513617118449
30
0
41
1
10
-28.5
20
-7.73407184255308
30
0
41
1
10
-28.5
20
-7.46030866767529
30
0
41
1
10
-28.5
20
-7.12632140637373
30
0
41
1
10
-28.5
20
-6.84437402550569
30
0
41
1
10
-28.5
20
-6.61554359890371
30
0
41
1
10
-28.5
20
-6.44309029411605
30
0
41
1
10
-28.5
20
-6.26944364545889
30
0
41
1
10
-28.5
20
-6.09461246091772
30
0
41
1
10
-28.5
20
-5.91860523667609
30
0
41
1
10
-28.5
20
-5.74143189937953
30
0
41
1
10
-28.5
20
-5.56310357372001
30
0
41
1
10
-28.5
20
-5.38363134733163
30
0
41
1
10
-28.5
20
-5.20302692387261
30
0
41
1
10
-28.5
20
-5.0213042232472
30
0
41
1
10
-28.5
20
-4.83847919931264
30
0
41
1
10
-28.5
20
-4.65456716028004
30
0
41
1
10
-28.5
20
-4.46958486845949
30
0
41
1
10
-28.5
20
-4.28355302808069
30
0
41
1
10
-28.5
20
-4.09649275318182
30
0
41
1
10
-28.5
20
-3.90842813226232
30
0
41
1
10
-28.5
20
-3.75124940963562
30
0
41
1
10
-28.5
20
-3.6243549796439
30
0
41
1
10
-28.5
20
-3.5292431593418
30
0
41
1
10
-28.5
20
-3.43390158445521
30
0
41
1
10
-28.5
20
-3.30608717079298
30
0
41
1
10
-28.5
20
-3.14669072023423
30
0
41
1
10
-28.5
20
-2.9865693987912
30
0
41
1
10
-28.5
20
-2.85729421649611
30
0
41
1
10
-28.5
20
-2.76048089001324
30
0
41
1
10
-28.5
20
-2.66347976206254
30
0
41
1
10
-28.5
20
-2.56629526768592
30
0
41
1
10
-28.5
20
-2.46893611478751
30
0
41
1
10
-28.5
20
-2.33842740009587
30
0
41
1
10
-28.5
20
-2.20905952740142
30
0
41
1
10
-28.5
20
-2.07788039572898
30
0
41
1
10
-28.5
20
-1.97974994874616
30
0
41
1
10
-28.5
20
-1.88148715614122
30
0
41
1
10
-28.5
20
-1.78310090101277
30
0
41
1
10
-28.5
20
-1.68460072925305
30
0
41
1
10
-28.5
20
-1.58599184128096
30
0
41
1
10
-28.5
20
-1.48728649469356
30
0
41
1
10
-28.5
20
-1.38848914320587
30
0
41
1
10
-28.5
20
-1.28961139997082
30
0
41
1
10
-28.5
20
-1.19065859360987
30
0
41
1
10
-28.5
20
-1.09164071478048
30
0
41
1
10
-28.5
20
-0.992564090788449
30
0
41
1
10
-28.5
20
-0.893436923932512
30
0
41
1
10
-28.5
20
-0.794265471937138
30
0
41
1
10
-28.5
20
-0.695056741362833
30
0
41
1
10
-28.5
20
-0.595816468507252
30
0
41
1
10
-28.5
20
-0.49655061320999
30
0
41
1
10
-28.5
20
-0.397263853181812
30
0
41
1
10
-28.5
20
-0.297961366795107
30
0
41
1
10
-28.5
20
-0.198647102840709
30
0
41
1
10
-28.5
20
-0.0993254669347436
30
0
41
1
10
-28.5
20
-5.4725149E-09
30
0
41
1
10
-28.5
20
0.0993254684405827
30
0
41
1
10
-28.5
20
0.198647127601248
30
0
41
1
10
-28.5
20
0.297961388791691
30
0
41
1
10
-28.5
20
0.397263840424017
30
0
41
1
10
-28.5
20
0.496550594205559
30
0
41
1
10
-28.5
20
0.595816495504096
30
0
41
1
10
-28.5
20
0.695056784277028
30
0
41
1
10
-28.5
20
0.794265459276176
30
0
41
1
10
-28.5
20
0.89343688343348
30
0
41
1
10
-28.5
20
0.992564112169902
30
0
41
1
10
-28.5
20
1.09164077920423
30
0
41
1
10
-28.5
20
1.19065859620264
30
0
41
1
10
-28.5
20
1.28961134189754
30
0
41
1
10
-28.5
20
1.38848913588993
30
0
41
1
10
-28.5
20
1.48728656512978
30
0
41
1
10
-28.5
20
1.58599188781932
30
0
41
1
10
-28.5
20
1.6846006870125
30
0
41
1
10
-28.5
20
1.78310084050699
30
0
41
1
10
-28.5
20
1.88148718140701
30
0
41
1
10
-28.5
20
1.9797500364362
30
0
41
1
10
-28.5
20
2.0778804265363
30
0
41
1
10
-28.5
20
2.17587292609085
30
0
41
1
10
-28.5
20
2.27371679621319
30
0
41
1
10
-28.5
20
2.37140757120355
30
0
41
1
10
-28.5
20
2.46893613943033
30
0
41
1
10
-28.5
20
2.59923374131699
30
0
41
1
10
-28.5
20
2.72777279716706
30
0
41
1
10
-28.5
20
2.8572942882393
30
0
41
1
10
-28.5
20
2.98656948332388
30
0
41
1
10
-28.5
20
3.14669074057869
30
0
41
1
10
-28.5
20
3.30608709676801
30
0
41
1
10
-28.5
20
3.43390157548936
30
0
41
1
10
-28.5
20
3.52924322184191
30
0
41
1
10
-28.5
20
3.62435506854831
30
0
41
1
10
-28.5
20
3.75124942106058
30
0
41
1
10
-28.5
20
3.90842799420628
30
0
41
1
10
-28.5
20
4.09649259176146
30
0
41
1
10
-28.5
20
4.28355297730505
30
0
41
1
10
-28.5
20
4.4695846174555
30
0
41
1
10
-28.5
20
4.65456683421039
30
0
41
1
10
-28.5
20
4.83847943804494
30
0
41
1
10
-28.5
20
5.0213044851898
30
0
41
1
10
-28.5
20
5.2030267003301
30
0
41
1
10
-28.5
20
5.38363156234237
30
0
41
1
10
-28.5
20
5.56310445504442
30
0
41
1
10
-28.5
20
5.74143237747984
30
0
41
1
10
-28.5
20
5.91860495448572
30
0
41
1
10
-28.5
20
6.09461208825527
30
0
41
1
10
-28.5
20
6.26944357118299
30
0
41
1
10
-28.5
20
6.4430903265563
30
0
41
1
10
-28.5
20
6.61554357091572
30
0
41
1
10
-28.5
20
6.84437400802861
30
0
41
1
10
-28.5
20
7.12632144512301
30
0
41
1
10
-28.5
20
7.46030865505762
30
0
41
1
10
-28.5
20
7.73407184285281
30
0
41
1
10
-28.5
20
7.95136176299604
30
0
41
1
10
-28.5
20
8.11277014937085
30
0
41
1
10
-28.5
20
8.27292308432649
30
0
41
1
10
-28.5
20
8.43181570788789
30
0
41
1
10
-28.5
20
8.5894423488798
30
0
41
1
10
-28.5
20
8.79830467826932
30
0
41
1
10
-28.5
20
9.05534969583792
30
0
41
1
10
-28.5
20
9.30810991622687
30
0
41
1
10
-28.5
20
9.50837344479851
30
0
41
1
10
-28.5
20
9.65701506287493
30
0
41
1
10
-28.5
20
9.80435457188474
30
0
41
1
10
-28.5
20
9.95038952754788
30
0
41
1
10
-28.5
20
10.095113531911
30
0
41
1
10
-28.5
20
10.2866518813937
30
0
41
1
10
-28.5
20
10.4745957936973
30
0
41
1
10
-28.5
20
10.6608197986608
30
0
41
1
10
-28.5
20
10.8452681286137
30
0
41
1
10
-28.5
20
11.0718089525805
30
0
41
1
10
-28.5
20
11.2938625632929
30
0
41
1
10
-28.5
20
11.4693068596265
30
0
41
1
10
-28.5
20
11.6429357656381
30
0
41
1
10
-28.5
20
11.8130068303033
30
0
41
1
10
-28.5
20
11.9811355648908
30
0
41
1
10
-28.5
20
12.1056498404809
30
0
41
1
10
-28.5
20
12.2287775174238
30
0
41
1
10
-28.5
20
12.3913462461042
30
0
41
1
10
-28.5
20
12.5503594172971
30
0
41
1
10
-28.5
20
12.7072977423403
30
0
41
1
10
-28.5
20
12.8234002933141
30
0
41
1
10
-28.5
20
12.9380809438717
30
0
41
1
10
-28.5
20
13.0893180117675
30
0
41
1
10
-28.5
20
13.2369867372074
30
0
41
1
10
-28.5
20
13.3824445445542
30
0
41
1
10
-28.5
20
13.4899116562855
30
0
41
1
10
-28.5
20
13.5959164434403
30
0
41
1
10
-28.5
20
13.7355116125921
30
0
41
1
10
-28.5
20
13.8715103854275
30
0
41
1
10
-28.5
20
14.0051547249398
30
0
41
1
10
-28.5
20
14.1037299370701
30
0
41
1
10
-28.5
20
14.2007962250068
30
0
41
1
10
-28.5
20
14.328392039309
30
0
41
1
10
-28.5
20
14.452347405446
30
0
41
1
10
-28.5
20
14.5737935062701
30
0
41
1
10
-28.5
20
14.6481896525931
30
0
41
1
10
-28.5
20
14.7070919001429
30
0
41
1
10
-28.5
20
14.7654709460418
30
0
41
1
10
-28.5
20
14.8661866667289
30
0
41
1
10
-28.5
20
14.9776668655465
30
0
41
1
10
-28.5
20
15.086467321316
30
0
41
1
10
-28.5
20
15.1663215599361
30
0
41
1
10
-28.5
20
15.2445501295776
30
0
41
1
10
-28.5
20
15.3468344527491
30
0
41
1
10
-28.5
20
15.4453363938053
30
0
41
1
10
-28.5
20
15.5409672073329
30
0
41
1
10
-28.5
20
15.6108850733398
30
0
41
1
10
-28.5
20
15.679103534252
30
0
41
1
10
-28.5
20
15.7456081924762
30
0
41
1
10
-28.5
20
15.810384423087
30
0
41
1
10
-28.5
20
15.8734193510279
30
0
41
1
10
-28.5
20
15.9346970807191
30
0
41
1
10
-28.5
20
16.0141701800502
30
0
41
1
10
-28.5
20
16.0896767899468
30
0
41
1
10
-28.5
20
16.1619255341458
30
0
41
1
10
-28.5
20
16.2317181619347
30
0
41
1
10
-28.5
20
16.2974462376793
30
0
41
1
10
-28.5
20
16.3597332242326
30
0
41
1
10
-28.5
20
16.4194622696319
30
0
41
1
10
-28.5
20
16.4750169286961
30
0
41
1
10
-28.5
20
16.5269199399481
30
0
41
1
10
-28.5
20
16.5637763395248
30
0
41
1
10
-28.5
20
16.5986105943247
30
0
41
1
10
-28.5
20
16.642411504334
30
0
41
1
10
-28.5
20
16.6818354096897
30
0
41
1
10
-28.5
20
16.7172383773105
30
0
41
1
10
-28.5
20
16.741585550229
30
0
41
1
10
-28.5
20
16.7637529737167
30
0
41
1
10
-28.5
20
16.7837098927271
30
0
41
1
10
-28.5
20
16.8014255596809
30
0
41
1
10
-28.5
20
16.816867307208
30
0
41
1
10
-28.5
20
16.8300011251081
30
0
41
1
10
-28.5
20
16.8407921763224
30
0
41
1
10
-28.5
20
16.8492033090471
30
0
41
1
10
-28.5
20
16.8551966659016
30
0
41
1
10
-28.5
20
16.8587319423621
30
0
41
1
10
-28.5
20
16.8597680746869
30
0
41
1
10
-28.5
20
16.8586398973756
30
0
41
1
10
-28.5
20
16.8573438976352
30
0
41
1
10
-28.5
20
16.8570614893007
30
0
0
SPLINE
5
18D
100
AcDbEntity
8
SK1
62
256
6
ByLayer
370
18
48
1
60
0
100
AcDbSpline
70
4
71
3
72
106
73
102
40
0
40
0
40
0
40
0
40
0.0075864935720483
40
0.0161184313068311
40
0.0246503690416139
40
0.0331823067763966
40
0.0417142445111794
40
0.0502461822459622
40
0.058778119980745
40
0.0673100577155277
40
0.0758419954503105
40
0.0843739331850933
40
0.0929058709198761
40
0.101437808654659
40
0.109969746389442
40
0.118501684124224
40
0.13556555959379
40
0.144097497328573
40
0.152629435063355
40
0.161161372798138
40
0.169693310532921
40
0.186757186002487
40
0.195289123737269
40
0.203821061472052
40
0.220884936941618
40
0.2294168746764
40
0.237948812411183
40
0.255012687880749
40
0.263544625615531
40
0.272076563350314
40
0.280608501085097
40
0.28914043881988
40
0.297672376554663
40
0.306204314289445
40
0.314736252024228
40
0.323268189759011
40
0.340332065228577
40
0.348864002963359
40
0.357395940698142
40
0.365927878432925
40
0.374459816167708
40
0.391523691637273
40
0.400055629372056
40
0.408587567106839
40
0.417119504841621
40
0.425651442576404
40
0.44271531804597
40
0.451247255780753
40
0.459779193515535
40
0.468311131250318
40
0.476843068985101
40
0.493906944454666
40
0.502438882189449
40
0.510970819924232
40
0.519502757659015
40
0.528034695393797
40
0.545098570863363
40
0.553630508598146
40
0.562162446332929
40
0.570694384067711
40
0.579226321802494
40
0.59629019727206
40
0.604822135006842
40
0.613354072741625
40
0.621886010476408
40
0.630417948211191
40
0.647481823680756
40
0.656013761415539
40
0.664545699150322
40
0.681609574619887
40
0.698673450089453
40
0.707205387824236
40
0.715737325559018
40
0.732801201028584
40
0.741333138763367
40
0.74986507649815
40
0.758397014232932
40
0.766928951967715
40
0.775460889702498
40
0.783992827437281
40
0.801056702906846
40
0.818120578376412
40
0.826652516111195
40
0.835184453845977
40
0.84371639158076
40
0.852248329315543
40
0.860780267050326
40
0.869312204785108
40
0.886376080254674
40
0.90343995572424
40
0.920503831193805
40
0.929035768928588
40
0.937567706663371
40
0.946099644398153
40
0.954631582132936
40
0.963163519867719
40
0.971695457602502
40
0.980227395337285
40
0.988759333072067
40
0.99729127080685
40
1
40
1
40
1
40
1
41
1
10
-0.394976888875277
20
-17.3601838882775
30
0
41
1
10
-0.394976888875277
20
-17.3617494126886
30
0
41
1
10
-0.394976888875277
20
-17.3643151424172
30
0
41
1
10
-0.394976888875277
20
-17.3658104187982
30
0
41
1
10
-0.394976888875277
20
-17.364743357607
30
0
41
1
10
-0.394976888875277
20
-17.3611046370287
30
0
41
1
10
-0.394976888875277
20
-17.3549392673806
30
0
41
1
10
-0.394976888875277
20
-17.3462909837355
30
0
41
1
10
-0.394976888875277
20
-17.3352007293143
30
0
41
1
10
-0.394976888875277
20
-17.3217086001335
30
0
41
1
10
-0.394976888875277
20
-17.3058521283006
30
0
41
1
10
-0.394976888875277
20
-17.2876678324761
30
0
41
1
10
-0.394976888875277
20
-17.267190526317
30
0
41
1
10
-0.394976888875277
20
-17.2444530966284
30
0
41
1
10
-0.394976888875277
20
-17.2194882282903
30
0
41
1
10
-0.394976888875277
20
-17.1832568130363
30
0
41
1
10
-0.394976888875277
20
-17.1427382851614
30
0
41
1
10
-0.394976888875277
20
-17.0979462613767
30
0
41
1
10
-0.394976888875277
20
-17.0622798138473
30
0
41
1
10
-0.394976888875277
20
-17.0245523789023
30
0
41
1
10
-0.394976888875277
20
-16.9715145338597
30
0
41
1
10
-0.394976888875277
20
-16.9145140859045
30
0
41
1
10
-0.394976888875277
20
-16.8535135157982
30
0
41
1
10
-0.394976888875277
20
-16.7899145739052
30
0
41
1
10
-0.394976888875277
20
-16.7225357594453
30
0
41
1
10
-0.394976888875277
20
-16.6513062647865
30
0
41
1
10
-0.394976888875277
20
-16.577583428992
30
0
41
1
10
-0.394976888875277
20
-16.5002370605308
30
0
41
1
10
-0.394976888875277
20
-16.4191737242595
30
0
41
1
10
-0.394976888875277
20
-16.3565947837564
30
0
41
1
10
-0.394976888875277
20
-16.2922298184193
30
0
41
1
10
-0.394976888875277
20
-16.2260943534788
30
0
41
1
10
-0.394976888875277
20
-16.1582019227301
30
0
41
1
10
-0.394976888875277
20
-16.0885677968918
30
0
41
1
10
-0.394976888875277
20
-16.0172057910894
30
0
41
1
10
-0.394976888875277
20
-15.9197362080175
30
0
41
1
10
-0.394976888875277
20
-15.8189643575456
30
0
41
1
10
-0.394976888875277
20
-15.7147364711228
30
0
41
1
10
-0.394976888875277
20
-15.6349267495635
30
0
41
1
10
-0.394976888875277
20
-15.553463729323
30
0
41
1
10
-0.394976888875277
20
-15.4426195996911
30
0
41
1
10
-0.394976888875277
20
-15.3286250260664
30
0
41
1
10
-0.394976888875277
20
-15.2112966721243
30
0
41
1
10
-0.394976888875277
20
-15.1217290697223
30
0
41
1
10
-0.394976888875277
20
-15.0305709686995
30
0
41
1
10
-0.394976888875277
20
-14.906878048735
30
0
41
1
10
-0.394976888875277
20
-14.7801642402503
30
0
41
1
10
-0.394976888875277
20
-14.6502180265082
30
0
41
1
10
-0.394976888875277
20
-14.5512443698349
30
0
41
1
10
-0.394976888875277
20
-14.4507333574048
30
0
41
1
10
-0.394976888875277
20
-14.3146351144528
30
0
41
1
10
-0.394976888875277
20
-14.1756274353422
30
0
41
1
10
-0.394976888875277
20
-14.0334711437704
30
0
41
1
10
-0.394976888875277
20
-13.9253889575191
30
0
41
1
10
-0.394976888875277
20
-13.8158144643309
30
0
41
1
10
-0.394976888875277
20
-13.6676860465324
30
0
41
1
10
-0.394976888875277
20
-13.5167448397425
30
0
41
1
10
-0.394976888875277
20
-13.3627236430939
30
0
41
1
10
-0.394976888875277
20
-13.2457848907918
30
0
41
1
10
-0.394976888875277
20
-13.127391952352
30
0
41
1
10
-0.394976888875277
20
-12.9675509274721
30
0
41
1
10
-0.394976888875277
20
-12.8049814419576
30
0
41
1
10
-0.394976888875277
20
-12.6393872212047
30
0
41
1
10
-0.394976888875277
20
-12.5138050377602
30
0
41
1
10
-0.394976888875277
20
-12.3868007822861
30
0
41
1
10
-0.394976888875277
20
-12.2155153079022
30
0
41
1
10
-0.394976888875277
20
-12.0415756036957
30
0
41
1
10
-0.394976888875277
20
-11.8646543426879
30
0
41
1
10
-0.394976888875277
20
-11.6858676336886
30
0
41
1
10
-0.394976888875277
20
-11.4590305058839
30
0
41
1
10
-0.394976888875277
20
-11.2275701322441
30
0
41
1
10
-0.394976888875277
20
-11.0395280715927
30
0
41
1
10
-0.394976888875277
20
-10.8496518299165
30
0
41
1
10
-0.394976888875277
20
-10.6572262982852
30
0
41
1
10
-0.394976888875277
20
-10.4618684218406
30
0
41
1
10
-0.394976888875277
20
-10.3140380853821
30
0
41
1
10
-0.394976888875277
20
-10.1648479968029
30
0
41
1
10
-0.394976888875277
20
-10.0143015620689
30
0
41
1
10
-0.394976888875277
20
-9.86240079247779
30
0
41
1
10
-0.394976888875277
20
-9.65799297250354
30
0
41
1
10
-0.394976888875277
20
-9.3992804435735
30
0
41
1
10
-0.394976888875277
20
-9.13609084815204
30
0
41
1
10
-0.394976888875277
20
-8.92272120904667
30
0
41
1
10
-0.394976888875277
20
-8.76141979935898
30
0
41
1
10
-0.394976888875277
20
-8.59878513251641
30
0
41
1
10
-0.394976888875277
20
-8.43482033812748
30
0
41
1
10
-0.394976888875277
20
-8.26952734508268
30
0
41
1
10
-0.394976888875277
20
-8.04728288893983
30
0
41
1
10
-0.394976888875277
20
-7.76637137475095
30
0
41
1
10
-0.394976888875277
20
-7.42389184310318
30
0
41
1
10
-0.394976888875277
20
-7.13420904829047
30
0
41
1
10
-0.394976888875277
20
-6.89966739484251
30
0
41
1
10
-0.394976888875277
20
-6.7225342898117
30
0
41
1
10
-0.394976888875277
20
-6.54409938064705
30
0
41
1
10
-0.394976888875277
20
-6.36436626337326
30
0
41
1
10
-0.394976888875277
20
-6.18333822517317
30
0
41
1
10
-0.394976888875277
20
-6.0010194773844
30
0
41
1
10
-0.394976888875277
20
-5.81741425905383
30
0
41
1
10
-0.394976888875277
20
-5.63252720020009
30
0
41
1
10
-0.394976888875277
20
-5.48871675629277
30
0
41
1
10
-0.394976888875277
20
-5.40659331253005
30
0
41
1
10
-0.394976888875277
20
-5.38678223324203
30
0
0
SPLINE
5
18E
100
AcDbEntity
8
SK1
62
256
6
ByLayer
370
18
48
1
60
0
100
AcDbSpline
70
4
71
3
72
107
73
103
40
0
40
0
40
0
40
0
40
0.0027087431771262
40
0.0112406780922318
40
0.0197726130073374
40
0.028304547922443
40
0.0368364828375486
40
0.0453684177526541
40
0.0539003526677597
40
0.0624322875828653
40
0.0709642224979709
40
0.0794961574130765
40
0.0965600272432876
40
0.113623897073499
40
0.13068776690371
40
0.139219701818816
40
0.147751636733921
40
0.156283571649027
40
0.164815506564132
40
0.173347441479238
40
0.181879376394344
40
0.198943246224555
40
0.216007116054766
40
0.224539050969871
40
0.233070985884977
40
0.241602920800083
40
0.250134855715188
40
0.258666790630294
40
0.267198725545399
40
0.28426259537561
40
0.292794530290716
40
0.301326465205822
40
0.318390335036033
40
0.335454204866244
40
0.34398613978135
40
0.352518074696455
40
0.369581944526666
40
0.378113879441772
40
0.386645814356878
40
0.395177749271983
40
0.403709684187089
40
0.4207735540173
40
0.429305488932405
40
0.437837423847511
40
0.446369358762617
40
0.454901293677722
40
0.471965163507933
40
0.480497098423039
40
0.489029033338145
40
0.49756096825325
40
0.506092903168356
40
0.523156772998567
40
0.531688707913673
40
0.540220642828778
40
0.548752577743884
40
0.557284512658989
40
0.5743483824892
40
0.582880317404306
40
0.591412252319412
40
0.595678219776964
40
0.599944187234517
40
0.608476122149623
40
0.625539991979834
40
0.63407192689494
40
0.642603861810045
40
0.651135796725151
40
0.659667731640256
40
0.676731601470467
40
0.685263536385573
40
0.693795471300679
40
0.702327406215784
40
0.71085934113089
40
0.719391276045995
40
0.727923210961101
40
0.736455145876207
40
0.744987080791312
40
0.762050950621523
40
0.770582885536629
40
0.779114820451734
40
0.796178690281946
40
0.804710625197051
40
0.813242560112157
40
0.830306429942368
40
0.838838364857474
40
0.847370299772579
40
0.855902234687685
40
0.86443416960279
40
0.881498039433001
40
0.890029974348107
40
0.898561909263213
40
0.907093844178318
40
0.915625779093424
40
0.924157714008529
40
0.932689648923635
40
0.941221583838741
40
0.949753518753846
40
0.958285453668952
40
0.966817388584057
40
0.975349323499163
40
0.983881258414269
40
0.992413193329374
40
1
40
1
40
1
40
1
41
1
10
-0.394976888875277
20
5.38678189578289
30
0
41
1
10
-0.394976888875277
20
5.4065930765673
30
0
41
1
10
-0.394976888875277
20
5.48871660168982
30
0
41
1
10
-0.394976888875277
20
5.63252719489225
30
0
41
1
10
-0.394976888875277
20
5.8174145162354
30
0
41
1
10
-0.394976888875277
20
6.00101977124669
30
0
41
1
10
-0.394976888875277
20
6.18333830919048
30
0
41
1
10
-0.394976888875277
20
6.3643662218949
30
0
41
1
10
-0.394976888875277
20
6.54409937286439
30
0
41
1
10
-0.394976888875277
20
6.72253430941348
30
0
41
1
10
-0.394976888875277
20
6.89966740060396
30
0
41
1
10
-0.394976888875277
20
7.13420903787926
30
0
41
1
10
-0.394976888875277
20
7.42389186204957
30
0
41
1
10
-0.394976888875277
20
7.76637138106329
30
0
41
1
10
-0.394976888875277
20
8.04728288344245
30
0
41
1
10
-0.394976888875277
20
8.26952736598562
30
0
41
1
10
-0.394976888875277
20
8.434820354761
30
0
41
1
10
-0.394976888875277
20
8.59878513137221
30
0
41
1
10
-0.394976888875277
20
8.76141979186249
30
0
41
1
10
-0.394976888875277
20
8.922721214403
30
0
41
1
10
-0.394976888875277
20
9.1360908691222
30
0
41
1
10
-0.394976888875277
20
9.39928045092248
30
0
41
1
10
-0.394976888875277
20
9.65799296546987
30
0
41
1
10
-0.394976888875277
20
9.86240080704218
30
0
41
1
10
-0.394976888875277
20
10.0143015815252
30
0
41
1
10
-0.394976888875277
20
10.1648480067744
30
0
41
1
10
-0.394976888875277
20
10.3140380843155
30
0
41
1
10
-0.394976888875277
20
10.4618684189216
30
0
41
1
10
-0.394976888875277
20
10.6572263081632
30
0
41
1
10
-0.394976888875277
20
10.8496518506122
30
0
41
1
10
-0.394976888875277
20
11.0395280782787
30
0
41
1
10
-0.394976888875277
20
11.2275701299333
30
0
41
1
10
-0.394976888875277
20
11.4590305143918
30
0
41
1
10
-0.394976888875277
20
11.685867652055
30
0
41
1
10
-0.394976888875277
20
11.864654349678
30
0
41
1
10
-0.394976888875277
20
12.0415756040849
30
0
41
1
10
-0.394976888875277
20
12.2155153161813
30
0
41
1
10
-0.394976888875277
20
12.3868007979199
30
0
41
1
10
-0.394976888875277
20
12.5138050519686
30
0
41
1
10
-0.394976888875277
20
12.6393872302303
30
0
41
1
10
-0.394976888875277
20
12.8049814458532
30
0
41
1
10
-0.394976888875277
20
12.9675509360494
30
0
41
1
10
-0.394976888875277
20
13.1273919665529
30
0
41
1
10
-0.394976888875277
20
13.2457849051211
30
0
41
1
10
-0.394976888875277
20
13.3627236547323
30
0
41
1
10
-0.394976888875277
20
13.5167448476072
30
0
41
1
10
-0.394976888875277
20
13.6676860552913
30
0
41
1
10
-0.394976888875277
20
13.8158144768541
30
0
41
1
10
-0.394976888875277
20
13.9253889718329
30
0
41
1
10
-0.394976888875277
20
14.0334711580348
30
0
41
1
10
-0.394976888875277
20
14.1756274475866
30
0
41
1
10
-0.394976888875277
20
14.3146351237356
30
0
41
1
10
-0.394976888875277
20
14.4507333681675
30
0
41
1
10
-0.394976888875277
20
14.5512443837086
30
0
41
1
10
-0.394976888875277
20
14.6502180419884
30
0
41
1
10
-0.394976888875277
20
14.780164253239
30
0
41
1
10
-0.394976888875277
20
14.9068780878822
30
0
41
1
10
-0.394976888875277
20
15.0305708978545
30
0
41
1
10
-0.394976888875277
20
15.1065165223896
30
0
41
1
10
-0.394976888875277
20
15.1665127141503
30
0
41
1
10
-0.394976888875277
20
15.2259771214207
30
0
41
1
10
-0.394976888875277
20
15.3286250474485
30
0
41
1
10
-0.394976888875277
20
15.4426196109061
30
0
41
1
10
-0.394976888875277
20
15.5534637367265
30
0
41
1
10
-0.394976888875277
20
15.6349267624759
30
0
41
1
10
-0.394976888875277
20
15.7147364921469
30
0
41
1
10
-0.394976888875277
20
15.8189643831875
30
0
41
1
10
-0.394976888875277
20
15.9197362187748
30
0
41
1
10
-0.394976888875277
20
16.0172057969154
30
0
41
1
10
-0.394976888875277
20
16.0885678110446
30
0
41
1
10
-0.394976888875277
20
16.1582019472912
30
0
41
1
10
-0.394976888875277
20
16.2260943811825
30
0
41
1
10
-0.394976888875277
20
16.2922298358683
30
0
41
1
10
-0.394976888875277
20
16.3565947902754
30
0
41
1
10
-0.394976888875277
20
16.4191737297992
30
0
41
1
10
-0.394976888875277
20
16.5002370830775
30
0
41
1
10
-0.394976888875277
20
16.5775834628441
30
0
41
1
10
-0.394976888875277
20
16.6513062771915
30
0
41
1
10
-0.394976888875277
20
16.7225357579897
30
0
41
1
10
-0.394976888875277
20
16.7899145981056
30
0
41
1
10
-0.394976888875277
20
16.8535135500206
30
0
41
1
10
-0.394976888875277
20
16.9145141001581
30
0
41
1
10
-0.394976888875277
20
16.9715145305624
30
0
41
1
10
-0.394976888875277
20
17.024552403858
30
0
41
1
10
-0.394976888875277
20
17.0622798511847
30
0
41
1
10
-0.394976888875277
20
17.0979462837243
30
0
41
1
10
-0.394976888875277
20
17.1427382787905
30
0
41
1
10
-0.394976888875277
20
17.1832568369982
30
0
41
1
10
-0.394976888875277
20
17.2194882612007
30
0
41
1
10
-0.394976888875277
20
17.2444531170066
30
0
41
1
10
-0.394976888875277
20
17.2671905287463
30
0
41
1
10
-0.394976888875277
20
17.2876678382251
30
0
41
1
10
-0.394976888875277
20
17.3058521626298
30
0
41
1
10
-0.394976888875277
20
17.3217086355548
30
0
41
1
10
-0.394976888875277
20
17.3352007360526
30
0
41
1
10
-0.394976888875277
20
17.3462909802274
30
0
41
1
10
-0.394976888875277
20
17.3549392880652
30
0
41
1
10
-0.394976888875277
20
17.3611046305144
30
0
41
1
10
-0.394976888875277
20
17.3647432146661
30
0
41
1
10
-0.394976888875277
20
17.3658102005923
30
0
41
1
10
-0.394976888875306
20
17.3643150511083
30
0
41
1
10
-0.394976888875306
20
17.3617494021688
30
0
41
1
10
-0.394976888875277
20
17.3601838595635
30
0
0
SPLINE
5
18F
100
AcDbEntity
8
SK1
62
256
6
ByLayer
370
18
48
1
60
0
100
AcDbSpline
70
4
71
3
72
288
73
284
40
0
40
0
40
0
40
0
40
0.0022851240206211
40
0.0057901646068633
40
0.0092952051931053
40
0.0128002457793475
40
0.0163052863655897
40
0.0198103269518318
40
0.0233153675380739
40
0.0268204081243161
40
0.0303254487105582
40
0.0338304892968003
40
0.0373355298830425
40
0.0408405704692846
40
0.0443456110555268
40
0.051355692228011
40
0.0548607328142532
40
0.0583657734004953
40
0.0618708139867375
40
0.0653758545729796
40
0.0723859357454639
40
0.075890976331706
40
0.0793960169179482
40
0.0864060980904324
40
0.0899111386766746
40
0.0934161792629167
40
0.100426260435401
40
0.103931301021643
40
0.107436341607885
40
0.110941382194127
40
0.11444642278037
40
0.117951463366612
40
0.121456503952854
40
0.124961544539096
40
0.128466585125338
40
0.135476666297823
40
0.138981706884064
40
0.142486747470307
40
0.145991788056549
40
0.149496828642791
40
0.156506909815275
40
0.160011950401517
40
0.163516990987759
40
0.167022031574002
40
0.170527072160244
40
0.177537153332728
40
0.18104219391897
40
0.184547234505212
40
0.188052275091455
40
0.191557315677697
40
0.198567396850181
40
0.202072437436423
40
0.205577478022665
40
0.209082518608907
40
0.212587559195149
40
0.219597640367634
40
0.223102680953876
40
0.226607721540118
40
0.23011276212636
40
0.233617802712602
40
0.240627883885087
40
0.244132924471329
40
0.247637965057571
40
0.251143005643813
40
0.254648046230055
40
0.26165812740254
40
0.265163167988782
40
0.268668208575024
40
0.275678289747508
40
0.282688370919992
40
0.286193411506235
40
0.289698452092477
40
0.296708533264961
40
0.300213573851203
40
0.303718614437445
40
0.307223655023687
40
0.310728695609929
40
0.314233736196172
40
0.317738776782414
40
0.324748857954898
40
0.331758939127382
40
0.335263979713624
40
0.338769020299867
40
0.342274060886109
40
0.345779101472351
40
0.349284142058593
40
0.352789182644835
40
0.35979926381732
40
0.366809344989804
40
0.373819426162288
40
0.37732446674853
40
0.380829507334772
40
0.384334547921014
40
0.387839588507256
40
0.391344629093499
40
0.394849669679741
40
0.398354710265983
40
0.401859750852225
40
0.405364791438467
40
0.408869832024709
40
0.412374872610952
40
0.415879913197194
40
0.419384953783436
40
0.422889994369678
40
0.42639503495592
40
0.429900075542162
40
0.433405116128404
40
0.435157636421525
40
0.436910156714647
40
0.438662677007768
40
0.440415197300889
40
0.443920237887131
40
0.447425278473373
40
0.449177798766494
40
0.450930319059615
40
0.452682839352736
40
0.454435359645857
40
0.456187879938978
40
0.457940400232099
40
0.461445440818341
40
0.463197961111463
40
0.464950481404584
40
0.466703001697705
40
0.468455521990826
40
0.470208042283947
40
0.471960562577068
40
0.473713082870189
40
0.47546560316331
40
0.477218123456431
40
0.478970643749552
40
0.480723164042673
40
0.482475684335794
40
0.484228204628915
40
0.485980724922036
40
0.487733245215158
40
0.489485765508278
40
0.4912382858014
40
0.492990806094521
40
0.494743326387642
40
0.496495846680763
40
0.498248366973884
40
0.500000887267005
40
0.501753407560126
40
0.503505927853247
40
0.505258448146368
40
0.507010968439489
40
0.50876348873261
40
0.510516009025731
40
0.512268529318852
40
0.514021049611974
40
0.515773569905095
40
0.517526090198216
40
0.519278610491337
40
0.521031130784458
40
0.522783651077579
40
0.5245361713707
40
0.526288691663821
40
0.528041211956942
40
0.529793732250063
40
0.531546252543184
40
0.533298772836305
40
0.535051293129426
40
0.536803813422547
40
0.538556333715668
40
0.540308854008789
40
0.542061374301911
40
0.543813894595032
40
0.545566414888153
40
0.549071455474395
40
0.550823975767516
40
0.552576496060637
40
0.556081536646879
40
0.559586577233121
40
0.561339097526242
40
0.563091617819363
40
0.564844138112485
40
0.566596658405605
40
0.570101698991848
40
0.57360673957809
40
0.577111780164332
40
0.580616820750574
40
0.584121861336816
40
0.587626901923059
40
0.591131942509301
40
0.594636983095543
40
0.598142023681785
40
0.601647064268027
40
0.605152104854269
40
0.608657145440511
40
0.612162186026754
40
0.615667226612995
40
0.619172267199238
40
0.62267730778548
40
0.626182348371722
40
0.633192429544206
40
0.640202510716691
40
0.647212591889175
40
0.650717632475417
40
0.654222673061659
40
0.657727713647901
40
0.661232754234143
40
0.664737794820386
40
0.668242835406628
40
0.675252916579112
40
0.682262997751596
40
0.685768038337838
40
0.689273078924081
40
0.692778119510323
40
0.696283160096565
40
0.699788200682807
40
0.703293241269049
40
0.710303322441533
40
0.713808363027776
40
0.717313403614018
40
0.724323484786502
40
0.731333565958986
40
0.734838606545228
40
0.73834364713147
40
0.745353728303955
40
0.748858768890197
40
0.752363809476439
40
0.755868850062681
40
0.759373890648923
40
0.766383971821408
40
0.76988901240765
40
0.773394052993892
40
0.776899093580134
40
0.780404134166376
40
0.78741421533886
40
0.790919255925102
40
0.794424296511345
40
0.797929337097587
40
0.801434377683829
40
0.808444458856313
40
0.811949499442555
40
0.815454540028797
40
0.81895958061504
40
0.822464621201282
40
0.829474702373766
40
0.832979742960008
40
0.83648478354625
40
0.838237303839371
40
0.839989824132492
40
0.843494864718735
40
0.850504945891219
40
0.854009986477461
40
0.857515027063703
40
0.861020067649945
40
0.864525108236188
40
0.871535189408672
40
0.875040229994914
40
0.878545270581156
40
0.882050311167398
40
0.88555535175364
40
0.889060392339883
40
0.892565432926125
40
0.896070473512367
40
0.899575514098609
40
0.906585595271093
40
0.910090635857335
40
0.913595676443578
40
0.920605757616062
40
0.924110798202304
40
0.927615838788546
40
0.93462591996103
40
0.938130960547273
40
0.941636001133515
40
0.945141041719756
40
0.948646082305999
40
0.955656163478483
40
0.959161204064725
40
0.962666244650967
40
0.96617128523721
40
0.969676325823452
40
0.973181366409694
40
0.976686406995936
40
0.980191447582178
40
0.98369648816842
40
0.987201528754662
40
0.990706569340905
40
0.994211609927147
40
0.997716650513389
40
1
40
1
40
1
40
1
41
1
10
-30
20
-15.9926656746839
30
0
41
1
10
-30
20
-15.9930575037623
30
0
41
1
10
-30
20
-15.993613001532
30
0
41
1
10
-30
20
-15.992743696334
30
0
41
1
10
-30
20
-15.9893850921089
30
0
41
1
10
-30
20
-15.9836860314146
30
0
41
1
10
-30
20
-15.9756808210229
30
0
41
1
10
-30
20
-15.9654018084481
30
0
41
1
10
-30
20
-15.9528811264941
30
0
41
1
10
-30
20
-15.9381491278438
30
0
41
1
10
-30
20
-15.9212355486336
30
0
41
1
10
-30
20
-15.9021692443494
30
0
41
1
10
-30
20
-15.8809772874923
30
0
41
1
10
-30
20
-15.85768719628
30
0
41
1
10
-30
20
-15.8237020449635
30
0
41
1
10
-30
20
-15.786151572388
30
0
41
1
10
-30
20
-15.7440467976174
30
0
41
1
10
-30
20
-15.7106366986067
30
0
41
1
10
-30
20
-15.6752710038507
30
0
41
1
10
-30
20
-15.6253102414823
30
0
41
1
10
-30
20
-15.5722298833996
30
0
41
1
10
-30
20
-15.5146768571488
30
0
41
1
10
-30
20
-15.454635155867
30
0
41
1
10
-30
20
-15.3917322415494
30
0
41
1
10
-30
20
-15.3243986601424
30
0
41
1
10
-30
20
-15.2546726017927
30
0
41
1
10
-30
20
-15.1823145630236
30
0
41
1
10
-30
20
-15.1055630554725
30
0
41
1
10
-30
20
-15.0465122402176
30
0
41
1
10
-30
20
-14.985753516587
30
0
41
1
10
-30
20
-14.9233034368069
30
0
41
1
10
-30
20
-14.8591738020485
30
0
41
1
10
-30
20
-14.7933781380804
30
0
41
1
10
-30
20
-14.7259318150055
30
0
41
1
10
-30
20
-14.6334478809413
30
0
41
1
10
-30
20
-14.5388306139923
30
0
41
1
10
-30
20
-14.4398724968665
30
0
41
1
10
-30
20
-14.3643499358607
30
0
41
1
10
-30
20
-14.2872489988171
30
0
41
1
10
-30
20
-14.1819460940194
30
0
41
1
10
-30
20
-14.0747689624993
30
0
41
1
10
-30
20
-13.9632604256822
30
0
41
1
10
-30
20
-13.8784200007502
30
0
41
1
10
-30
20
-13.7920640526129
30
0
41
1
10
-30
20
-13.674463030797
30
0
41
1
10
-30
20
-13.5552283874056
30
0
41
1
10
-30
20
-13.4316550911985
30
0
41
1
10
-30
20
-13.337853067095
30
0
41
1
10
-30
20
-13.2425907988595
30
0
41
1
10
-30
20
-13.1131460860381
30
0
41
1
10
-30
20
-12.9822967545723
30
0
41
1
10
-30
20
-12.847084683004
30
0
41
1
10
-30
20
-12.7446351532221
30
0
41
1
10
-30
20
-12.6407746180398
30
0
41
1
10
-30
20
-12.499887311655
30
0
41
1
10
-30
20
-12.3578191289812
30
0
41
1
10
-30
20
-12.2113468162578
30
0
41
1
10
-30
20
-12.100530667573
30
0
41
1
10
-30
20
-11.9883478761207
30
0
41
1
10
-30
20
-11.836377249174
30
0
41
1
10
-30
20
-11.6834503922585
30
0
41
1
10
-30
20
-11.5260594948948
30
0
41
1
10
-30
20
-11.4071324366749
30
0
41
1
10
-30
20
-11.2868794886981
30
0
41
1
10
-30
20
-11.1241532157817
30
0
41
1
10
-30
20
-10.9607029988619
30
0
41
1
10
-30
20
-10.7927086404325
30
0
41
1
10
-30
20
-10.6229844866849
30
0
41
1
10
-30
20
-10.4091173939315
30
0
41
1
10
-30
20
-10.1909959678347
30
0
41
1
10
-30
20
-10.0126979588287
30
0
41
1
10
-30
20
-9.83272430289384
30
0
41
1
10
-30
20
-9.65245023276196
30
0
41
1
10
-30
20
-9.46744871362009
30
0
41
1
10
-30
20
-9.32804093460692
30
0
41
1
10
-30
20
-9.18740563851225
30
0
41
1
10
-30
20
-9.0455543785921
30
0
41
1
10
-30
20
-8.90249044231979
30
0
41
1
10
-30
20
-8.70931958714519
30
0
41
1
10
-30
20
-8.46674616603482
30
0
41
1
10
-30
20
-8.22021686294167
30
0
41
1
10
-30
20
-8.01906836645577
30
0
41
1
10
-30
20
-7.86773085832667
30
0
41
1
10
-30
20
-7.71524241280142
30
0
41
1
10
-30
20
-7.56161298420645
30
0
41
1
10
-30
20
-7.40685260452798
30
0
41
1
10
-30
20
-7.19804202206524
30
0
41
1
10
-30
20
-6.93651252502835
30
0
41
1
10
-30
20
-6.61705894701072
30
0
41
1
10
-30
20
-6.34834996432815
30
0
41
1
10
-30
20
-6.12929373929515
30
0
41
1
10
-30
20
-5.96484945115367
30
0
41
1
10
-30
20
-5.7993974381898
30
0
41
1
10
-30
20
-5.63295542814623
30
0
41
1
10
-30
20
-5.46554083189747
30
0
41
1
10
-30
20
-5.29717335727497
30
0
41
1
10
-30
20
-5.12787591307327
30
0
41
1
10
-30
20
-4.9576706384986
30
0
41
1
10
-30
20
-4.78658071628459
30
0
41
1
10
-30
20
-4.6146335506248
30
0
41
1
10
-30
20
-4.44186113006066
30
0
41
1
10
-30
20
-4.26829321973949
30
0
41
1
10
-30
20
-4.09396155182321
30
0
41
1
10
-30
20
-3.91890592173866
30
0
41
1
10
-30
20
-3.74316620306936
30
0
41
1
10
-30
20
-3.56678705857649
30
0
41
1
10
-30
20
-3.42015123791836
30
0
41
1
10
-30
20
-3.3009810984795
30
0
41
1
10
-30
20
-3.21216327477833
30
0
41
1
10
-30
20
-3.12322377081893
30
0
41
1
10
-30
20
-3.00356413190352
30
0
41
1
10
-30
20
-2.85589664233001
30
0
41
1
10
-30
20
-2.70788037697056
30
0
41
1
10
-30
20
-2.58749550859633
30
0
41
1
10
-30
20
-2.49793822974365
30
0
41
1
10
-30
20
-2.40833000131903
30
0
41
1
10
-30
20
-2.31867596083524
30
0
41
1
10
-30
20
-2.22899146909501
30
0
41
1
10
-30
20
-2.10827328924756
30
0
41
1
10
-30
20
-1.99097459417121
30
0
41
1
10
-30
20
-1.87012467714985
30
0
41
1
10
-30
20
-1.78043031683035
30
0
41
1
10
-30
20
-1.69076251244053
30
0
41
1
10
-30
20
-1.60113247848605
30
0
41
1
10
-30
20
-1.51155313609783
30
0
41
1
10
-30
20
-1.422025757727
30
0
41
1
10
-30
20
-1.33256776537959
30
0
41
1
10
-30
20
-1.24317741509074
30
0
41
1
10
-30
20
-1.15386860885192
30
0
41
1
10
-30
20
-1.06464013673647
30
0
41
1
10
-30
20
-0.975500136218244
30
0
41
1
10
-30
20
-0.886447988926847
30
0
41
1
10
-30
20
-0.797485776681128
30
0
41
1
10
-30
20
-0.708610852102623
30
0
41
1
10
-30
20
-0.61982073744278
30
0
41
1
10
-30
20
-0.531109764951225
30
0
41
1
10
-30
20
-0.442471434007643
30
0
41
1
10
-30
20
-0.35389600796347
30
0
41
1
10
-30
20
-0.265373879214224
30
0
41
1
10
-30
20
-0.176892371692162
30
0
41
1
10
-30
20
-0.0884392148653887
30
0
41
1
10
-30
20
-2.04973958E-08
30
0
41
1
10
-30
20
0.0884392031952927
30
0
41
1
10
-30
20
0.17689241471993
30
0
41
1
10
-30
20
0.265373915570137
30
0
41
1
10
-30
20
0.353895962579486
30
0
41
1
10
-30
20
0.442471374506823
30
0
41
1
10
-30
20
0.531109813902646
30
0
41
1
10
-30
20
0.61982082298212
30
0
41
1
10
-30
20
0.70861080655007
30
0
41
1
10
-30
20
0.797485667180155
30
0
41
1
10
-30
20
0.886448026006832
30
0
41
1
10
-30
20
0.97550027278379
30
0
41
1
10
-30
20
1.06464012636249
30
0
41
1
10
-30
20
1.1538684580087
30
0
41
1
10
-30
20
1.24317738635406
30
0
41
1
10
-30
20
1.33256791795026
30
0
41
1
10
-30
20
1.42202585063245
30
0
41
1
10
-30
20
1.5115530207047
30
0
41
1
10
-30
20
1.60113232466117
30
0
41
1
10
-30
20
1.69076256252157
30
0
41
1
10
-30
20
1.78043050963589
30
0
41
1
10
-30
20
1.87012473193457
30
0
41
1
10
-30
20
1.95984062320625
30
0
41
1
10
-30
20
2.04956121840738
30
0
41
1
10
-30
20
2.13928298465069
30
0
41
1
10
-30
20
2.22899154181988
30
0
41
1
10
-30
20
2.34971237639814
30
0
41
1
10
-30
20
2.4670581044816
30
0
41
1
10
-30
20
2.58749567267543
30
0
41
1
10
-30
20
2.70788056755165
30
0
41
1
10
-30
20
2.85589666602098
30
0
41
1
10
-30
20
3.00356394920902
30
0
41
1
10
-30
20
3.12322374659235
30
0
41
1
10
-30
20
3.21216341650842
30
0
41
1
10
-30
20
3.3009812939207
30
0
41
1
10
-30
20
3.4201512431562
30
0
41
1
10
-30
20
3.56678672363679
30
0
41
1
10
-30
20
3.74316585626101
30
0
41
1
10
-30
20
3.91890584757377
30
0
41
1
10
-30
20
4.09396100129445
30
0
41
1
10
-30
20
4.26829259541552
30
0
41
1
10
-30
20
4.44186183082067
30
0
41
1
10
-30
20
4.61463414914383
30
0
41
1
10
-30
20
4.78658021025493
30
0
41
1
10
-30
20
4.95767123056282
30
0
41
1
10
-30
20
5.1278778625566
30
0
41
1
10
-30
20
5.29717415068043
30
0
41
1
10
-30
20
5.46553992297879
30
0
41
1
10
-30
20
5.63295448869491
30
0
41
1
10
-30
20
5.79939725011727
30
0
41
1
10
-30
20
5.96484950556561
30
0
41
1
10
-30
20
6.1292936535483
30
0
41
1
10
-30
20
6.34834993475852
30
0
41
1
10
-30
20
6.6170590196507
30
0
41
1
10
-30
20
6.93651248001379
30
0
41
1
10
-30
20
7.19804203228608
30
0
41
1
10
-30
20
7.40685270744595
30
0
41
1
10
-30
20
7.56161297986856
30
0
41
1
10
-30
20
7.71524232371232
30
0
41
1
10
-30
20
7.86773082006812
30
0
41
1
10
-30
20
8.01906843480592
30
0
41
1
10
-30
20
8.22021692135615
30
0
41
1
10
-30
20
8.46674612315107
30
0
41
1
10
-30
20
8.7093195790371
30
0
41
1
10
-30
20
8.90249052457438
30
0
41
1
10
-30
20
9.04555441784282
30
0
41
1
10
-30
20
9.18740560593943
30
0
41
1
10
-30
20
9.32804088163152
30
0
41
1
10
-30
20
9.46744870809565
30
0
41
1
10
-30
20
9.65245029192155
30
0
41
1
10
-30
20
9.83272433616031
30
0
41
1
10
-30
20
10.0126979221092
30
0
41
1
10
-30
20
10.1909959517429
30
0
41
1
10
-30
20
10.4091174330404
30
0
41
1
10
-30
20
10.6229845090751
30
0
41
1
10
-30
20
10.7927086151923
30
0
41
1
10
-30
20
10.9607029915804
30
0
41
1
10
-30
20
11.1241532476502
30
0
41
1
10
-30
20
11.286879520772
30
0
41
1
10
-30
20
11.4071324437642
30
0
41
1
10
-30
20
11.526059483736
30
0
41
1
10
-30
20
11.6834503898541
30
0
41
1
10
-30
20
11.8363772717575
30
0
41
1
10
-30
20
11.9883479026383
30
0
41
1
10
-30
20
12.100530681097
30
0
41
1
10
-30
20
12.211346817793
30
0
41
1
10
-30
20
12.3578191303265
30
0
41
1
10
-30
20
12.4998873251013
30
0
41
1
10
-30
20
12.640774639564
30
0
41
1
10
-30
20
12.7446351726738
30
0
41
1
10
-30
20
12.8470846962099
30
0
41
1
10
-30
20
12.9822967603461
30
0
41
1
10
-30
20
13.1131460918651
30
0
41
1
10
-30
20
13.2425908150843
30
0
41
1
10
-30
20
13.3378530905647
30
0
41
1
10
-30
20
13.431655102243
30
0
41
1
10
-30
20
13.5552284439381
30
0
41
1
10
-30
20
13.6744629632361
30
0
41
1
10
-30
20
13.7920640428987
30
0
41
1
10
-30
20
13.8638084100541
30
0
41
1
10
-30
20
13.9208384799595
30
0
41
1
10
-30
20
13.9773600368974
30
0
41
1
10
-30
20
14.0747689786766
30
0
41
1
10
-30
20
14.1819460903518
30
0
41
1
10
-30
20
14.2872490063531
30
0
41
1
10
-30
20
14.3643499644422
30
0
41
1
10
-30
20
14.4398725346097
30
0
41
1
10
-30
20
14.5388306330265
30
0
41
1
10
-30
20
14.6334478734244
30
0
41
1
10
-30
20
14.7259318226356
30
0
41
1
10
-30
20
14.793378171537
30
0
41
1
10
-30
20
14.8591738437125
30
0
41
1
10
-30
20
14.9233034607296
30
0
41
1
10
-30
20
14.9857535133679
30
0
41
1
10
-30
20
15.0465122321639
30
0
41
1
10
-30
20
15.1055630695376
30
0
41
1
10
-30
20
15.1823146060513
30
0
41
1
10
-30
20
15.2546726312332
30
0
41
1
10
-30
20
15.3243986497297
30
0
41
1
10
-30
20
15.3917322452796
30
0
41
1
10
-30
20
15.4546352005829
30
0
41
1
10
-30
20
15.5146768877911
30
0
41
1
10
-30
20
15.5722298782127
30
0
41
1
10
-30
20
15.6253102421943
30
0
41
1
10
-30
20
15.6752710489662
30
0
41
1
10
-30
20
15.7106367362118
30
0
41
1
10
-30
20
15.7440468008705
30
0
41
1
10
-30
20
15.7861515665346
30
0
41
1
10
-30
20
15.8237020814765
30
0
41
1
10
-30
20
15.8576872273509
30
0
41
1
10
-30
20
15.8809772969169
30
0
41
1
10
-30
20
15.9021692417172
30
0
41
1
10
-30
20
15.921235563756
30
0
41
1
10
-30
20
15.9381491696965
30
0
41
1
10
-30
20
15.9528811556007
30
0
41
1
10
-30
20
15.9654018081648
30
0
41
1
10
-30
20
15.9756808201301
30
0
41
1
10
-30
20
15.9836860510364
30
0
41
1
10
-30
20
15.989385071505
30
0
41
1
10
-30
20
15.992743547039
30
0
41
1
10
-30
20
15.9936126291161
30
0
41
1
10
-30
20
15.9930576912493
30
0
41
1
10
-30
20
15.9926664650758
30
0
0
SPLINE
5
190
100
AcDbEntity
8
1
62
256
6
ByLayer
370
18
48
1
60
0
100
AcDbSpline
70
4
71
3
72
8
73
4
40
0
40
0
40
0
40
0
40
1
40
1
40
1
40
1
41
1
10
17.4459922698658
20
-20.5915720397492
30
0
41
1
10
17.4399258674661
20
-20.6163302854367
30
0
41
1
10
17.4346634154815
20
-20.6396688044976
30
0
41
1
10
17.4303191742212
20
-20.6615352137797
30
0
0
SPLINE
5
191
100
AcDbEntity
8
1
62
256
6
ByLayer
370
18
48
1
60
0
100
AcDbSpline
70
4
71
3
72
8
73
4
40
0
40
0
40
0
40
0
40
1
40
1
40
1
40
1
41
1
10
19.6492756101863
20
-24.4074273909967
30
0
41
1
10
19.9002017826051
20
-23.5262091848643
30
0
41
1
10
20.2176383430389
20
-22.6676889007687
30
0
41
1
10
20.584298620983
20
-21.8215711982544
30
0
0
SPLINE
5
192
100
AcDbEntity
8
1
62
256
6
ByLayer
370
18
48
1
60
0
100
AcDbSpline
70
4
71
2
72
8
73
5
40
0
40
0
40
0
40
0.516558666507997
40
0.774837999761996
40
1
40
1
40
1
41
1.02613459695995
10
39.2251581053787
20
-14.178760954369
30
0
41
1.02613459695995
10
38.7998054462579
20
-13.2986382562718
30
0
41
1.02613459695995
10
38.8515436187367
20
-11.7696332039443
30
0
41
1.02613459695995
10
39.1231973493991
20
-10.7804927753806
30
0
41
1.02613459695995
10
39.3395675768279
20
-10.3319578818046
30
0
0
SPLINE
5
193
100
AcDbEntity
8
1
62
256
6
ByLayer
370
18
48
1
60
0
100
AcDbSpline
70
4
71
3
72
8
73
4
40
0
40
0
40
0
40
0
40
1
40
1
40
1
40
1
41
1
10
21.3063674854834
20
-26.4388809561656
30
0
41
1
10
21.3508135781643
20
-26.6045106465588
30
0
41
1
10
21.4249945231098
20
-26.7754555812893
30
0
41
1
10
21.5260544842311
20
-26.9505691221381
30
0
0
SPLINE
5
194
100
AcDbEntity
8
1
62
256
6
ByLayer
370
18
48
1
60
0
100
AcDbSpline
70
4
71
2
72
6
73
3
40
0
40
0
40
0
40
1
40
1
40
1
41
0.88613217936908
10
39.0458007194426
20
-7.71612779343891
30
0
41
0.915148588046516
10
38.2319574874694
20
-7.45161623457021
30
0
41
1.02613459695995
10
37.9432426985717
20
-6.81621153143096
30
0
0
SPLINE
5
195
100
AcDbEntity
8
1
62
256
6
ByLayer
370
18
48
1
60
0
100
AcDbSpline
70
4
71
3
72
8
73
4
40
0
40
0
40
0
40
0
40
1
40
1
40
1
40
1
41
1
10
52.1091396807368
20
-3.66549532785916
30
0
41
1
10
52.0603238089178
20
-3.57311770560014
30
0
41
1
10
52.0076347289232
20
-3.4823265859157
30
0
41
1
10
51.950803314333
20
-3.39332021522964
30
0
0
SPLINE
5
196
100
AcDbEntity
8
1
62
256
6
ByLayer
370
18
48
1
60
0
100
AcDbSpline
70
4
71
3
72
8
73
4
40
0
40
0
40
0
40
0
40
1
40
1
40
1
40
1
41
1
10
49.4301492623302
20
-2.30855845337552
30
0
41
1
10
49.7586726255135
20
-2.23388249570328
30
0
41
1
10
50.0755196483219
20
-2.21554795302649
30
0
41
1
10
50.3894695303823
20
-2.26541648065549
30
0
0
SPLINE
5
197
100
AcDbEntity
8
1
62
256
6
ByLayer
370
18
48
1
60
0
100
AcDbSpline
70
4
71
3
72
8
73
4
40
0
40
0
40
0
40
0
40
1
40
1
40
1
40
1
41
1
10
44.3440844528148
20
-20.645676542399
30
0
41
1
10
44.2533035776285
20
-20.452010566931
30
0
41
1
10
44.1627473918008
20
-20.2587784494564
30
0
41
1
10
44.0728098948191
20
-20.066753512279
30
0
0
SPLINE
5
198
100
AcDbEntity
8
1
62
256
6
ByLayer
370
18
48
1
60
0
100
AcDbSpline
70
4
71
3
72
8
73
4
40
0
40
0
40
0
40
0
40
1
40
1
40
1
40
1
41
1
10
42.7783802779766
20
-11.6394650607862
30
0
41
1
10
41.9533138276944
20
-11.6009612268267
30
0
41
1
10
41.2960693814802
20
-11.6196596606783
30
0
41
1
10
40.8213461956334
20
-11.3784877422246
30
0
0
SPLINE
5
199
100
AcDbEntity
8
1
62
256
6
ByLayer
370
18
48
1
60
0
100
AcDbSpline
70
4
71
1
72
4
73
2
40
0
40
0
40
1
40
1
41
1
10
44.0728098948191
20
-20.066753512279
30
0
41
1
10
44.8911636566895
20
-20.0031474601922
30
0
0
SPLINE
5
19A
100
AcDbEntity
8
1
62
256
6
ByLayer
370
18
48
1
60
0
100
AcDbSpline
70
4
71
3
72
8
73
4
40
0
40
0
40
0
40
0
40
1
40
1
40
1
40
1
41
1
10
57.9543852261097
20
-30.3554455848162
30
0
41
1
10
58.0549642569587
20
-30.2160970676573
30
0
41
1
10
58.1452807976266
20
-30.0608531697581
30
0
41
1
10
58.2176512296774
20
-29.8980439578558
30
0
0
SPLINE
5
19B
100
AcDbEntity
8
1
62
256
6
ByLayer
370
18
48
1
60
0
100
AcDbSpline
70
4
71
3
72
11
73
7
40
0
40
0
40
0
40
0
40
0.268536746558076
40
0.487975722590653
40
0.707414698623231
40
1
40
1
40
1
40
1
41
1.02490909094425
10
53.61171749073
20
-19.326405613017
30
0
41
1.02297680709541
10
54.1530516258295
20
-20.5526758426288
30
0
41
1.019109996622
10
55.061858323633
20
-22.7054683519654
30
0
41
1.01332460673153
10
56.288480362139
20
-26.2926087024429
30
0
41
1.01203732298747
10
57.0621818916133
20
-28.1668853058176
30
0
41
1.00929221524307
10
57.576775253367
20
-29.8401825318887
30
0
41
1.0087712828333
10
57.7565730127823
20
-30.5906947308498
30
0
0
SPLINE
5
19C
100
AcDbEntity
8
1
62
256
6
ByLayer
370
18
48
1
60
0
100
AcDbSpline
70
4
71
3
72
10
73
6
40
0
40
0
40
0
40
0
40
0.474805431212335
40
0.474805431212335
40
1
40
1
40
1
40
1
41
1
10
50.5233552882508
20
-10.4148368101525
30
0
41
1
10
50.6450319900211
20
-10.5538315591258
30
0
41
1
10
50.7806335068333
20
-10.6809519310846
30
0
41
1
10
51.0864612574261
20
-10.9144139791037
30
0
41
1
10
51.260878412708
20
-11.0185851778896
30
0
41
1
10
51.4412929536633
20
-11.0994633357704
30
0
0
SPLINE
5
19D
100
AcDbEntity
8
1
62
256
6
ByLayer
370
18
48
1
60
0
100
AcDbSpline
70
4
71
3
72
8
73
4
40
0
40
0
40
0
40
0
40
1
40
1
40
1
40
1
41
1
10
57.3189394301372
20
-14.4948248607394
30
0
41
1
10
57.2281585549522
20
-14.3011588852741
30
0
41
1
10
57.1376023691258
20
-14.1079267678021
30
0
41
1
10
57.0476648721453
20
-13.9159018306274
30
0
0
SPLINE
5
19E
100
AcDbEntity
8
1
62
256
6
ByLayer
370
18
48
1
60
0
100
AcDbSpline
70
4
71
3
72
8
73
4
40
0
40
0
40
0
40
0
40
1
40
1
40
1
40
1
41
1
10
55.6621961827148
20
-31.1094813882133
30
0
41
1
10
55.83424755445
20
-31.1564201518157
30
0
41
1
10
56.0122478194663
20
-31.1844659516752
30
0
41
1
10
56.1847997822518
20
-31.1943341598486
30
0
0
SPLINE
5
19F
100
AcDbEntity
8
1
62
256
6
ByLayer
370
18
48
1
60
0
100
AcDbSpline
70
4
71
3
72
8
73
4
40
0
40
0
40
0
40
0
40
1
40
1
40
1
40
1
41
1
10
54.816623231431
20
-30.8737045391781
30
0
41
1
10
55.0965871614557
20
-30.9532238482411
30
0
41
1
10
55.378859128312
20
-31.0321818532996
30
0
41
1
10
55.6621961827148
20
-31.1094813882133
30
0
0
SPLINE
5
1A0
100
AcDbEntity
8
1
62
256
6
ByLayer
370
18
48
1
60
0
100
AcDbSpline
70
4
71
3
72
16
73
12
40
0
40
0
40
0
40
0
40
0.25
40
0.25
40
0.5
40
0.5
40
0.75
40
0.75
40
0.875
40
0.875
40
1
40
1
40
1
40
1
41
1
10
54.816623231431
20
-30.8737045391781
30
0
41
1
10
54.1465560559835
20
-30.0184936235939
30
0
41
1
10
53.4199345842062
20
-29.1401132789069
30
0
41
1
10
51.7346971322563
20
-27.2883079923343
30
0
41
1
10
50.8834457464118
20
-26.3567097838647
30
0
41
1
10
49.1205380991547
20
-24.4872928573018
30
0
41
1
10
48.1477481948618
20
-23.5150870018533
30
0
41
1
10
46.6379188782885
20
-22.2022900980346
30
0
41
1
10
46.1257135160699
20
-21.7901758999854
30
0
41
1
10
45.1672187729461
20
-21.1068288473913
30
0
41
1
10
44.7304831957527
20
-20.8429970312969
30
0
41
1
10
44.3440844528133
20
-20.6456765423949
30
0
0
SPLINE
5
1A1
100
AcDbEntity
8
1
62
256
6
ByLayer
370
18
48
1
60
0
100
AcDbSpline
70
4
71
3
72
12
73
8
40
0
40
0
40
0
40
0
40
0.499999999999997
40
0.499999999999997
40
0.749999999999998
40
0.749999999999998
40
1
40
1
40
1
40
1
41
1
10
42.7783802779794
20
-11.6394650607764
30
0
41
1
10
42.8188253983814
20
-11.4937112502886
30
0
41
1
10
42.8610056747467
20
-11.3505070533557
30
0
41
1
10
42.9273403348733
20
-11.139507272969
30
0
41
1
10
42.9498812605199
20
-11.069807422515
30
0
41
1
10
42.9972297655434
20
-10.9319651490017
30
0
41
1
10
42.9930093704036
20
-10.8389429785931
30
0
41
1
10
43.0683300986517
20
-10.8032364810022
30
0
0
SPLINE
5
1A2
100
AcDbEntity
8
1
62
256
6
ByLayer
370
18
48
1
60
0
100
AcDbSpline
70
4
71
3
72
12
73
8
40
0
40
0
40
0
40
0
40
0.407174084711912
40
0.407174084711912
40
0.699511272430944
40
0.699511272430944
40
1
40
1
40
1
40
1
41
1
10
57.7533675423794
20
-30.5773430121327
30
0
41
1
10
57.782880748117
20
-30.5508806125159
30
0
41
1
10
57.812151756892
20
-30.522363867386
30
0
41
1
10
57.8604141286008
20
-30.4711665470782
30
0
41
1
10
57.8801281731528
20
-30.4489490125455
30
0
41
1
10
57.9183728641267
20
-30.4030926104409
30
0
41
1
10
57.9369994812291
20
-30.3792561635074
30
0
41
1
10
57.9543852261097
20
-30.3554455848162
30
0
0
SPLINE
5
1A3
100
AcDbEntity
8
1
62
256
6
ByLayer
370
18
48
1
60
0
100
AcDbSpline
70
4
71
3
72
8
73
4
40
0
40
0
40
0
40
0
40
1
40
1
40
1
40
1
41
1
10
58.5683724053887
20
-29.0951526589407
30
0
41
1
10
58.4536673870907
20
-29.3617684842049
30
0
41
1
10
58.336832058265
20
-29.6299270456535
30
0
41
1
10
58.2176512296774
20
-29.8980439578558
30
0
0
SPLINE
5
1A4
100
AcDbEntity
8
1
62
256
6
ByLayer
370
18
48
1
60
0
100
AcDbSpline
70
4
71
3
72
13
73
9
40
0
40
0
40
0
40
0
40
0.287856992129662
40
0.287856992129662
40
0.605626331970861
40
0.605626331970861
40
0.605626331970861
40
1
40
1
40
1
40
1
41
1
10
50.5375093969348
20
-20.7837628600557
30
0
41
1
10
50.1878911087246
20
-20.7950245034329
30
0
41
1
10
49.8305992826358
20
-20.752761407903
30
0
41
1
10
49.1134059302397
20
-20.5686278168387
30
0
41
1
10
48.7482753832184
20
-20.4155559825208
30
0
41
1
10
48.4127138412208
20
-20.2197329542613
30
0
41
1
10
47.9982068905884
20
-19.9778398999375
30
0
41
1
10
47.6172337064574
20
-19.6634402174339
30
0
41
1
10
47.3025198446939
20
-19.3025634785386
30
0
0
SPLINE
5
1A5
100
AcDbEntity
8
1
62
256
6
ByLayer
370
18
48
1
60
0
100
AcDbSpline
70
4
71
3
72
18
73
14
40
0
40
0
40
0
40
0
40
0.14886543669072
40
0.14886543669072
40
0.336868556410371
40
0.336868556410371
40
0.51949110802786
40
0.51949110802786
40
0.711563055534812
40
0.711563055534812
40
0.930180979444762
40
0.930180979444762
40
1
40
1
40
1
40
1
41
1
10
58.2331154656568
20
-22.4405606309406
30
0
41
1
10
58.2288444484515
20
-22.4435001532499
30
0
41
1
10
58.224781897439
20
-22.4493819256193
30
0
41
1
10
58.2165891014724
20
-22.4690763909707
30
0
41
1
10
58.2126173867071
20
-22.4849096541361
30
0
41
1
10
58.2066360303195
20
-22.5229625586474
30
0
41
1
10
58.2044941150661
20
-22.5454421717653
30
0
41
1
10
58.2019175358317
20
-22.5952358729089
30
0
41
1
10
58.2015366750948
20
-22.6233085619356
30
0
41
1
10
58.202497733338
20
-22.6844295482287
30
0
41
1
10
58.2040851142787
20
-22.718335305695
30
0
41
1
10
58.2072647197377
20
-22.7622181946672
30
0
41
1
10
58.2081233890947
20
-22.7728537065738
30
0
41
1
10
58.2090604069139
20
-22.7834173526211
30
0
0
SPLINE
5
1A6
100
AcDbEntity
8
1
62
256
6
ByLayer
370
18
48
1
60
0
100
AcDbSpline
70
4
71
3
72
8
73
4
40
0
40
0
40
0
40
0
40
1
40
1
40
1
40
1
41
1
10
44.8911636566894
20
-20.0031474601922
30
0
41
1
10
45.3709563215808
20
-19.9658558649727
30
0
41
1
10
46.2509167851054
20
-19.7101963289179
30
0
41
1
10
47.3025198336263
20
-19.3025634828287
30
0
0
SPLINE
5
1A7
100
AcDbEntity
8
1
62
256
6
ByLayer
370
18
48
1
60
0
100
AcDbSpline
70
4
71
3
72
8
73
4
40
0
40
0
40
0
40
0
40
1
40
1
40
1
40
1
41
1
10
54.1646705642044
20
-14.7737196516698
30
0
41
1
10
54.3315559645268
20
-15.1273791962197
30
0
41
1
10
54.4461932803488
20
-15.4982202382968
30
0
41
1
10
54.5131915074926
20
-15.8842769513426
30
0
0
SPLINE
5
1A8
100
AcDbEntity
8
1
62
256
6
ByLayer
370
18
48
1
60
0
100
AcDbSpline
70
4
71
3
72
8
73
4
40
0
40
0
40
0
40
0
40
1
40
1
40
1
40
1
41
1
10
45.3531805078691
20
-11.9085847787556
30
0
41
1
10
45.4771375903945
20
-12.1682515887698
30
0
41
1
10
45.5720462113306
20
-12.4493251695306
30
0
41
1
10
45.6249732341678
20
-12.7369607604687
30
0
0
SPLINE
5
1A9
100
AcDbEntity
8
1
62
256
6
ByLayer
370
18
48
1
60
0
100
AcDbSpline
70
4
71
3
72
8
73
4
40
0
40
0
40
0
40
0
40
1
40
1
40
1
40
1
41
1
10
52.4535335620453
20
-5.86414023321495
30
0
41
1
10
52.356258934309
20
-6.38029531053766
30
0
41
1
10
51.9471164430978
20
-6.85999687463229
30
0
41
1
10
51.4619421150117
20
-7.52294113651965
30
0
0
SPLINE
5
1AA
100
AcDbEntity
8
1
62
256
6
ByLayer
370
18
48
1
60
0
100
AcDbSpline
70
4
71
3
72
16
73
12
40
0
40
0
40
0
40
0
40
0.125
40
0.125
40
0.25
40
0.25
40
0.5
40
0.5
40
0.75
40
0.75
40
1
40
1
40
1
40
1
41
1
10
57.3189394301416
20
-14.4948248607488
30
0
41
1
10
57.2383801713227
20
-14.9139705745023
30
0
41
1
10
57.1760465547291
20
-15.4135350037471
30
0
41
1
10
57.112540927329
20
-16.5916603714811
30
0
41
1
10
57.1120539840528
20
-17.2477805272917
30
0
41
1
10
57.1801822232528
20
-19.262865018118
30
0
41
1
10
57.3116091836457
20
-20.6177332668852
30
0
41
1
10
57.6234361820951
20
-23.1544962405442
30
0
41
1
10
57.7936428107015
20
-24.3938956592468
30
0
41
1
10
58.1368739612438
20
-26.8669806760973
30
0
41
1
10
58.3460155223142
20
-28.0209088584855
30
0
41
1
10
58.5683724053887
20
-29.0951526589407
30
0
0
SPLINE
5
1AB
100
AcDbEntity
8
1
62
256
6
ByLayer
370
18
48
1
60
0
100
AcDbSpline
70
4
71
3
72
11
73
7
40
0
40
0
40
0
40
0
40
0.268536746003807
40
0.487975722202665
40
0.707414698401523
40
1
40
1
40
1
40
1
41
1.0249090909279
10
50.5375093737377
20
-20.7837628136785
30
0
41
1.0229768070834
10
51.1370623661514
20
-21.982433843462
30
0
41
1.0191099966158
10
52.2120566734555
20
-24.0564435544336
30
0
41
1.01332460673153
10
54.1699738657278
20
-27.2969065746591
30
0
41
1.01203732298747
10
55.1008530307852
20
-29.0966716458547
30
0
41
1.00929221524307
10
56.0405846133699
20
-30.568428111351
30
0
41
1.0087712828333
10
56.4916150066363
20
-31.1903599365819
30
0
0
SPLINE
5
1AC
100
AcDbEntity
8
1
62
256
6
ByLayer
370
18
48
1
60
0
100
AcDbSpline
70
4
71
3
72
12
73
8
40
0
40
0
40
0
40
0
40
0.32296159576427
40
0.32296159576427
40
0.710971356423584
40
0.710971356423584
40
1
40
1
40
1
40
1
41
1
10
54.5131915079666
20
-15.8842769540739
30
0
41
1
10
54.5785206780346
20
-16.2727757201201
30
0
41
1
10
54.5918367501116
20
-16.6751708162022
30
0
41
1
10
54.5065996407034
20
-17.5378817665446
30
0
41
1
10
54.3839980459534
20
-18.0070884328725
30
0
41
1
10
54.037725629466
20
-18.7565419359102
30
0
41
1
10
53.843451340318
20
-19.0614226449852
30
0
41
1
10
53.6117175162493
20
-19.326405670825
30
0
0
SPLINE
5
1AD
100
AcDbEntity
8
1
62
256
6
ByLayer
370
18
48
1
60
0
100
AcDbSpline
70
4
71
3
72
11
73
7
40
0
40
0
40
0
40
0
40
0.379738014043156
40
0.569607021064734
40
0.759476028086312
40
1
40
1
40
1
40
1
41
1.02830968163241
10
56.5233510231013
20
-14.4887999511825
30
0
41
1.02566133279165
10
56.9493725179971
20
-17.0219464648397
30
0
41
1.02050308371814
10
57.1920995048658
20
-20.4048840520632
30
0
41
1.01332460673153
10
56.9001482263
20
-25.9645557807447
30
0
41
1.0120630214142
10
57.6882149633964
20
-27.7665765025251
30
0
41
1.00944729087556
10
57.819810982832
20
-29.5993661255615
30
0
41
1.00885690313847
10
57.9543852247947
20
-30.3554455774285
30
0
0
SPLINE
5
1AE
100
AcDbEntity
8
1
62
256
6
ByLayer
370
18
48
1
60
0
100
AcDbSpline
70
4
71
1
72
4
73
2
40
0
40
0
40
1
40
1
41
1
10
57.7565730127823
20
-30.5906947308498
30
0
41
1
10
56.4916150066363
20
-31.1903599365819
30
0
0
SPLINE
5
1AF
100
AcDbEntity
8
1
62
256
6
ByLayer
370
18
48
1
60
0
100
AcDbSpline
70
4
71
3
72
10
73
6
40
0
40
0
40
0
40
0
40
0.325288492889666
40
0.325288492889666
40
1
40
1
40
1
40
1
41
1
10
39.8137905840936
20
-6.86728346808744
30
0
41
1
10
39.7254838161691
20
-6.9355465895234
30
0
41
1
10
39.6426962052394
20
-7.00661742771774
30
0
41
1
10
39.4055335164537
20
-7.23476945853974
30
0
41
1
10
39.2674630182885
20
-7.40423082229248
30
0
41
1
10
39.1557554467031
20
-7.59086399305843
30
0
0
SPLINE
5
1B0
100
AcDbEntity
8
1
62
256
6
ByLayer
370
18
48
1
60
0
100
AcDbSpline
70
4
71
3
72
8
73
4
40
0
40
0
40
0
40
0
40
1
40
1
40
1
40
1
41
1
10
54.5131915198149
20
-15.8842769473459
30
0
41
1
10
55.4823966513271
20
-15.3339267242983
30
0
41
1
10
56.2159510324728
20
-14.8246844165857
30
0
41
1
10
56.5233510231013
20
-14.4887999511825
30
0
0
SPLINE
5
1B1
100
AcDbEntity
8
1
62
256
6
ByLayer
370
18
48
1
60
0
100
AcDbSpline
70
4
71
3
72
8
73
4
40
0
40
0
40
0
40
0
40
1
40
1
40
1
40
1
41
1
10
39.2043083787198
20
-9.95539251348345
30
0
41
1
10
39.1368757919423
20
-9.81476020216854
30
0
41
1
10
39.077467173247
20
-9.66968535862375
30
0
41
1
10
39.0271647934436
20
-9.51989225539367
30
0
0
SPLINE
5
1B2
100
AcDbEntity
8
1
62
256
6
ByLayer
370
18
48
1
60
0
100
AcDbSpline
70
4
71
3
72
16
73
12
40
0
40
0
40
0
40
0
40
0.0076436986798992
40
0.0076436986798992
40
0.0409116539642754
40
0.0409116539642754
40
0.185161591066358
40
0.185161591066358
40
0.761039897349148
40
0.761039897349148
40
1
40
1
40
1
40
1
41
1
10
48.3987973734223
20
-2.77574818864201
30
0
41
1
10
48.4020274589935
20
-2.77421693628489
30
0
41
1
10
48.4052398442695
20
-2.77264221385224
30
0
41
1
10
48.4220943136301
20
-2.76411841154157
30
0
41
1
10
48.43503328099
20
-2.75663859242613
30
0
41
1
10
48.4995007278403
20
-2.7177478246945
30
0
41
1
10
48.5448690244161
20
-2.68727926271507
30
0
41
1
10
48.779370616703
20
-2.54357710550366
30
0
41
1
10
48.972540694085
20
-2.44995173802411
30
0
41
1
10
49.2581095087365
20
-2.35260518353624
30
0
41
1
10
49.3435177434764
20
-2.32825048249725
30
0
41
1
10
49.43014926233
20
-2.30855845337547
30
0
0
SPLINE
5
1B3
100
AcDbEntity
8
1
62
256
6
ByLayer
370
18
48
1
60
0
100
AcDbSpline
70
4
71
3
72
12
73
8
40
0
40
0
40
0
40
0
40
0.252749620142199
40
0.252749620142199
40
0.674711209428766
40
0.674711209428766
40
1
40
1
40
1
40
1
41
1
10
39.1557554467062
20
-7.59086399303629
30
0
41
1
10
39.1063686397798
20
-7.67337600399316
30
0
41
1
10
39.0614666972049
20
-7.76323143499363
30
0
41
1
10
38.9588422707393
20
-8.01968107771106
30
0
41
1
10
38.9117793068125
20
-8.20109279490705
30
0
41
1
10
38.8734370584682
20
-8.54312313036587
30
0
41
1
10
38.8717385903968
20
-8.70235270106912
30
0
41
1
10
38.8859178574536
20
-8.86163897378535
30
0
0
SPLINE
5
1B4
100
AcDbEntity
8
1
62
256
6
ByLayer
370
18
48
1
60
0
100
AcDbSpline
70
4
71
3
72
8
73
4
40
0
40
0
40
0
40
0
40
1
40
1
40
1
40
1
41
1
10
46.6652766706245
20
-18.3288776570813
30
0
41
1
10
46.8321620710016
20
-18.6825372017471
30
0
41
1
10
47.0461285131061
20
-19.0062903401274
30
0
41
1
10
47.3025198431322
20
-19.302563476734
30
0
0
SPLINE
5
1B5
100
AcDbEntity
8
1
62
256
6
ByLayer
370
18
48
1
60
0
100
AcDbSpline
70
4
71
3
72
18
73
14
40
0
40
0
40
0
40
0
40
0.0384430513828805
40
0.0384430513828805
40
0.294505767099368
40
0.294505767099368
40
0.507931675708715
40
0.507931675708715
40
0.723079147095958
40
0.723079147095958
40
0.912685296049719
40
0.912685296049719
40
1
40
1
40
1
40
1
41
1
10
50.1554305445068
20
-26.6013161167423
30
0
41
1
10
50.1512663600443
20
-26.597220961901
30
0
41
1
10
50.1470684375579
20
-26.5931326064888
30
0
41
1
10
50.1149351103236
20
-26.5621472712882
30
0
41
1
10
50.0852795444665
20
-26.5353519202665
30
0
41
1
10
50.0316921840792
20
-26.4907181677114
30
0
41
1
10
50.0070351806324
20
-26.4716589660879
30
0
41
1
10
49.9612567568415
20
-26.439727909727
30
0
41
1
10
49.9394917903608
20
-26.4264650588829
30
0
41
1
10
49.9054366388144
20
-26.4098781372944
30
0
41
1
10
49.8918769638094
20
-26.4053454823536
30
0
41
1
10
49.8771777275424
20
-26.4039110815458
30
0
41
1
10
49.8732029567093
20
-26.404198405635
30
0
41
1
10
49.869964382201
20
-26.4051908326219
30
0
0
SPLINE
5
1B6
100
AcDbEntity
8
1
62
256
6
ByLayer
370
18
48
1
60
0
100
AcDbSpline
70
4
71
3
72
12
73
8
40
0
40
0
40
0
40
0
40
0.418782075282767
40
0.418782075282767
40
0.706182120811179
40
0.706182120811179
40
1
40
1
40
1
40
1
41
1
10
56.1847997822518
20
-31.1943341598486
30
0
41
1
10
56.2259092125777
20
-31.1964786227931
30
0
41
1
10
56.2685046830594
20
-31.1968416736023
30
0
41
1
10
56.3396353201451
20
-31.1944062929603
30
0
41
1
10
56.3686750909337
20
-31.1925577398403
30
0
41
1
10
56.4264995801944
20
-31.187190194201
30
0
41
1
10
56.4554274149564
20
-31.1836196521093
30
0
41
1
10
56.4835950747565
20
-31.1792905584784
30
0
0
SPLINE
5
1B7
100
AcDbEntity
8
1
62
256
6
ByLayer
370
18
48
1
60
0
100
AcDbSpline
70
4
71
3
72
11
73
7
40
0
40
0
40
0
40
0
40
0.379738014043162
40
0.569607021064743
40
0.759476028086324
40
1
40
1
40
1
40
1
41
1.02830968163241
10
44.8911636566894
20
-20.0031474601922
30
0
41
1.02566133279165
10
46.5844897540117
20
-21.9355163421632
30
0
41
1.02050308371814
10
49.0533297993868
20
-24.2631441572686
30
0
41
1.01332460673153
10
53.5239138020811
20
-27.5650913722503
30
0
41
1.0120630214142
10
54.3872655561919
20
-29.3314225256802
30
0
41
1.00944729087556
10
55.6998090273666
20
-30.604372934168
30
0
41
1.00885690313847
10
56.1847997775129
20
-31.194334154084
30
0
0
SPLINE
5
1B8
100
AcDbEntity
8
1
62
256
6
ByLayer
370
18
48
1
60
0
100
AcDbSpline
70
4
71
1
72
4
73
2
40
0
40
0
40
1
40
1
41
1
10
56.5233510231013
20
-14.4887999511825
30
0
41
1
10
57.0476648721454
20
-13.9159018306274
30
0
0
SPLINE
5
1B9
100
AcDbEntity
8
1
62
256
6
ByLayer
370
18
48
1
60
0
100
AcDbSpline
70
4
71
3
72
8
73
4
40
0
40
0
40
0
40
0
40
1
40
1
40
1
40
1
41
1
10
50.0515959592686
20
-9.68125687175083
30
0
41
1
10
50.1755530417941
20
-9.94092368176507
30
0
41
1
10
50.3339033265405
20
-10.1919221468335
30
0
41
1
10
50.5233552882507
20
-10.4148368101525
30
0
0
SPLINE
5
1BA
100
AcDbEntity
8
1
62
256
6
ByLayer
370
18
48
1
60
0
100
AcDbSpline
70
4
71
3
72
10
73
6
40
0
40
0
40
0
40
0
40
0.465995854460556
40
0.465995854460556
40
1
40
1
40
1
40
1
41
1
10
45.567641792258
20
-13.8839227525962
30
0
41
1
10
45.6146857915309
20
-13.7138271962558
30
0
41
1
10
45.6444056229853
20
-13.5359349259043
30
0
41
1
10
45.6690439330995
20
-13.151521987143
30
0
41
1
10
45.6584432492081
20
-12.9420721965588
30
0
41
1
10
45.6249732341678
20
-12.7369607604687
30
0
0
SPLINE
5
1BB
100
AcDbEntity
8
1
62
256
6
ByLayer
370
18
48
1
60
0
100
AcDbSpline
70
4
71
3
72
8
73
4
40
0
40
0
40
0
40
0
40
1
40
1
40
1
40
1
41
1
10
53.2975447736974
20
-12.9361274384173
30
0
41
1
10
52.9100301347027
20
-12.1149156939
30
0
41
1
10
52.2427208958097
20
-11.4587360157432
30
0
41
1
10
51.4412929536633
20
-11.0994633357705
30
0
0
SPLINE
5
1BC
100
AcDbEntity
8
1
62
256
6
ByLayer
370
18
48
1
60
0
100
AcDbSpline
70
4
71
3
72
13
73
9
40
0
40
0
40
0
40
0
40
0.250661764437226
40
0.250661764437226
40
0.250661764437226
40
0.653096502165463
40
0.653096502165463
40
1
40
1
40
1
40
1
41
1
10
53.6117175162493
20
-19.326405670825
30
0
41
1
10
53.4193104169614
20
-19.54635957859
30
0
41
1
10
53.2023377584034
20
-19.7476814973911
30
0
41
1
10
52.9681518815629
20
-19.9239083304095
30
0
41
1
10
52.5954206187079
20
-20.2043917263601
30
0
41
1
10
52.169901014705
20
-20.426683622227
30
0
41
1
10
51.3436417655591
20
-20.6986760839237
30
0
41
1
10
50.938828974261
20
-20.7707836646041
30
0
41
1
10
50.5375093969348
20
-20.7837628600557
30
0
0
SPLINE
5
1BD
100
AcDbEntity
8
1
62
256
6
ByLayer
370
18
48
1
60
0
100
AcDbSpline
70
4
71
3
72
12
73
8
40
0
40
0
40
0
40
0
40
0.2527496201422
40
0.2527496201422
40
0.674711209428767
40
0.674711209428767
40
1
40
1
40
1
40
1
41
1
10
50.3894695303627
20
-2.26541648064415
30
0
41
1
10
50.4828485371741
20
-2.28024901872468
30
0
41
1
10
50.5791629066874
20
-2.3031595326373
30
0
41
1
10
50.838530030243
20
-2.38800368626968
30
0
41
1
10
51.0064776307197
20
-2.46748762901694
30
0
41
1
10
51.2925286632687
20
-2.65573628747154
30
0
41
1
10
51.4158938154099
20
-2.75567827615237
30
0
41
1
10
51.5297461840625
20
-2.86771358031152
30
0
0
SPLINE
5
1BE
100
AcDbEntity
8
1
62
256
6
ByLayer
370
18
48
1
60
0
100
AcDbSpline
70
4
71
3
72
10
73
6
40
0
40
0
40
0
40
0
40
0.494168352806883
40
0.494168352806883
40
1
40
1
40
1
40
1
41
1
10
51.950803314333
20
-3.39332021522964
30
0
41
1
10
51.894485073847
20
-3.30511755081892
30
0
41
1
10
51.8319764433231
20
-3.2160404894779
30
0
41
1
10
51.6958208438767
20
-3.04323273575693
30
0
41
1
10
51.6209742838394
20
-2.95851461931662
30
0
41
1
10
51.5427266340079
20
-2.88056545045686
30
0
0
SPLINE
5
1BF
100
AcDbEntity
8
1
62
256
6
ByLayer
370
18
48
1
60
0
100
AcDbSpline
70
4
71
3
72
12
73
8
40
0
40
0
40
0
40
0
40
0.500000000000002
40
0.500000000000002
40
0.750000000000001
40
0.750000000000001
40
1
40
1
40
1
40
1
41
1
10
51.4619421150023
20
-7.52294113651567
30
0
41
1
10
51.322115443108
20
-7.46264685977522
30
0
41
1
10
51.1830730044746
20
-7.40535299041457
30
0
41
1
10
50.9753867182649
20
-7.32425540943794
30
0
41
1
10
50.9063541825594
20
-7.29796681712429
30
0
41
1
10
50.768030308661
20
-7.24814427609545
30
0
41
1
10
50.6972572064558
20
-7.18667204061026
30
0
41
1
10
50.6219364782086
20
-7.22237853820343
30
0
0
SPLINE
5
1C0
100
AcDbEntity
8
1
62
256
6
ByLayer
370
18
48
1
60
0
100
AcDbSpline
70
4
71
3
72
8
73
4
40
0
40
0
40
0
40
0
40
1
40
1
40
1
40
1
41
1
10
45.567641792258
20
-13.8839227525962
30
0
41
1
10
45.3298539921479
20
-14.7436848641467
30
0
41
1
10
45.4028344203263
20
-15.653540267482
30
0
41
1
10
45.7981508801175
20
-16.4912854438287
30
0
0
SPLINE
5
1C1
100
AcDbEntity
8
1
62
256
6
ByLayer
370
18
48
1
60
0
100
AcDbSpline
70
4
71
3
72
10
73
6
40
0
40
0
40
0
40
0
40
0.494168352806883
40
0.494168352806883
40
1
40
1
40
1
40
1
41
1
10
39.0271647934436
20
-9.51989225539367
30
0
41
1
10
38.9938786509072
20
-9.42077100895233
30
0
41
1
10
38.9640813876161
20
-9.31618681720369
30
0
41
1
10
38.9161759832032
20
-9.10154323090683
30
0
41
1
10
38.8980730243561
20
-8.98992527817438
30
0
41
1
10
38.8875950617421
20
-8.87984925353743
30
0
0
SPLINE
5
1C2
100
AcDbEntity
8
1
62
256
6
ByLayer
370
18
48
1
60
0
100
AcDbSpline
70
4
71
3
72
14
73
10
40
0
40
0
40
0
40
0
40
0.0151857536690306
40
0.0151857536690306
40
0.0655730315774948
40
0.0655730315774948
40
0.287642754348331
40
0.287642754348331
40
1
40
1
40
1
40
1
41
1
10
40.8451909938646
20
-6.35660613144199
30
0
41
1
10
40.8387784663049
20
-6.35964605026905
30
0
41
1
10
40.8322495200907
20
-6.36253095963866
30
0
41
1
10
40.8045629533531
20
-6.37405021982582
30
0
41
1
10
40.7840045454292
20
-6.38102036225246
30
0
41
1
10
40.6773188845134
20
-6.41694049626923
30
0
41
1
10
40.5967324437942
20
-6.44359012683606
30
0
41
1
10
40.2630588375618
20
-6.57358066607404
30
0
41
1
10
40.0257622121864
20
-6.70342462318141
30
0
41
1
10
39.8137905840937
20
-6.86728346808727
30
0
0
SPLINE
5
1C3
100
AcDbEntity
8
1
62
256
6
ByLayer
370
18
48
1
60
0
100
AcDbSpline
70
4
71
3
72
14
73
10
40
0
40
0
40
0
40
0
40
0.0829586012802742
40
0.0829586012802742
40
0.459195015075161
40
0.459195015075161
40
0.83547479966912
40
0.83547479966912
40
1
40
1
40
1
40
1
41
1
10
51.0069378474754
20
-16.3859591728519
30
0
41
1
10
51.0084718101156
20
-16.3821966786847
30
0
41
1
10
51.0100822757123
20
-16.378428734747
30
0
41
1
10
51.0193648646988
20
-16.3577294801659
30
0
41
1
10
51.0287226214685
20
-16.3406103331834
30
0
41
1
10
51.0500293992514
20
-16.3088192648232
30
0
41
1
10
51.0622236414748
20
-16.293797717327
30
0
41
1
10
51.0804047920017
20
-16.2749694030394
30
0
41
1
10
51.0860816360545
20
-16.2695316418969
30
0
41
1
10
51.0918068193572
20
-16.2644294923361
30
0
0
SPLINE
5
1C4
100
AcDbEntity
8
1
62
256
6
ByLayer
370
18
48
1
60
0
100
AcDbSpline
70
4
71
3
72
14
73
10
40
0
40
0
40
0
40
0
40
0.0829586012803117
40
0.0829586012803117
40
0.459195015075154
40
0.459195015075154
40
0.83547479966904
40
0.83547479966904
40
1
40
1
40
1
40
1
41
1
10
49.1748474139747
20
-14.9496882767786
30
0
41
1
10
49.1730762585348
20
-14.9530399409654
30
0
41
1
10
49.1712441540166
20
-14.9564239950301
30
0
41
1
10
49.160837728833
20
-14.9751767082185
30
0
41
1
10
49.1509128717918
20
-14.9913136087177
30
0
41
1
10
49.1294110283644
20
-15.022766813471
30
0
41
1
10
49.1175891795954
20
-15.0384333653506
30
0
41
1
10
49.100502993605
20
-15.0591582138479
30
0
41
1
10
49.0952346450826
20
-15.0653035100036
30
0
41
1
10
49.0899784420928
20
-15.0712179572941
30
0
0
SPLINE
5
1C5
100
AcDbEntity
8
1
62
256
6
ByLayer
370
18
48
1
60
0
100
AcDbSpline
70
4
71
3
72
14
73
10
40
0
40
0
40
0
40
0
40
0.164525200330951
40
0.164525200330951
40
0.540804984924869
40
0.540804984924869
40
0.91704139871972
40
0.91704139871972
40
1
40
1
40
1
40
1
41
1
10
49.916049620216
20
-16.8218082189724
30
0
41
1
10
49.9235465637173
20
-16.820642295323
30
0
41
1
10
49.9312807069097
20
-16.8197224521922
30
0
41
1
10
49.9571722450339
20
-16.8176576951062
30
0
41
1
10
49.9764377088165
20
-16.8177654739375
30
0
41
1
10
50.0145020456414
20
-16.8214111086289
30
0
41
1
10
50.0337260751556
20
-16.8249807917803
30
0
41
1
10
50.055746642871
20
-16.8308404913624
30
0
41
1
10
50.0597073683701
20
-16.8319673599139
30
0
41
1
10
50.0636176801929
20
-16.8331489447149
30
0
0
SPLINE
5
1C6
100
AcDbEntity
8
1
62
256
6
ByLayer
370
18
48
1
60
0
100
AcDbSpline
70
4
71
3
72
12
73
8
40
0
40
0
40
0
40
0
40
0.392678099449915
40
0.392678099449915
40
0.79127933596611
40
0.79127933596611
40
1
40
1
40
1
40
1
41
1
10
51.1817808579845
20
-15.2319746786933
30
0
41
1
10
51.1706253976613
20
-15.2161157592752
30
0
41
1
10
51.159922069363
20
-15.198777388997
30
0
41
1
10
51.1413604962667
20
-15.1631877209899
30
0
41
1
10
51.1333433942985
20
-15.1444867692049
30
0
41
1
10
51.1240682662399
20
-15.1173297438094
30
0
41
1
10
51.1213404797791
20
-15.1080688519796
30
0
41
1
10
51.1190817698907
20
-15.099104272438
30
0
0
SPLINE
5
1C7
100
AcDbEntity
8
1
62
256
6
ByLayer
370
18
48
1
60
0
100
AcDbSpline
70
4
71
3
72
12
73
8
40
0
40
0
40
0
40
0
40
0.392678099452537
40
0.392678099452537
40
0.791279335968767
40
0.791279335968767
40
1
40
1
40
1
40
1
41
1
10
49.0000044034659
20
-16.1036727709377
30
0
41
1
10
49.0100463743738
20
-16.117603070115
30
0
41
1
10
49.0199793725729
20
-16.1336071895226
30
0
41
1
10
49.038001198237
20
-16.1682619875541
30
0
41
1
10
49.0462657155417
20
-16.1873914752725
30
0
41
1
10
49.0566194128293
20
-16.2164166373719
30
0
41
1
10
49.0598469338831
20
-16.2265430949071
30
0
41
1
10
49.0627034915597
20
-16.236543177193
30
0
0
SPLINE
5
1C8
100
AcDbEntity
8
1
62
256
6
ByLayer
370
18
48
1
60
0
100
AcDbSpline
70
4
71
3
72
14
73
10
40
0
40
0
40
0
40
0
40
0.164525200330958
40
0.164525200330958
40
0.540804984924843
40
0.540804984924843
40
0.917041398719716
40
0.917041398719716
40
1
40
1
40
1
40
1
41
1
10
50.265735641234
20
-14.5138392306579
30
0
41
1
10
50.2577697174197
20
-14.5141928565775
30
0
41
1
10
50.249627078697
20
-14.5144051646951
30
0
41
1
10
50.2226405760363
20
-14.5145733875714
30
0
41
1
10
50.2030027187993
20
-14.5138206043566
30
0
41
1
10
50.1651334476189
20
-14.5105128332722
30
0
41
1
10
50.1464765183761
20
-14.5079253966041
30
0
41
1
10
50.1255797868579
20
-14.5040122384147
30
0
41
1
10
50.1218407002803
20
-14.5032692597362
30
0
41
1
10
50.1181675812572
20
-14.5024985049156
30
0
0
SPLINE
5
1C9
100
AcDbEntity
8
1
62
256
6
ByLayer
370
18
48
1
60
0
100
AcDbSpline
70
4
71
3
72
8
73
4
40
0
40
0
40
0
40
0
40
1
40
1
40
1
40
1
41
1
10
21.4150979665882
20
24.6479715189708
30
0
41
1
10
21.2634715016933
20
24.6479715189708
30
0
41
1
10
21.1115905576073
20
24.6462211497246
30
0
41
1
10
20.9609847588647
20
24.6427113305059
30
0
0
SPLINE
5
1CA
100
AcDbEntity
8
1
62
256
6
ByLayer
370
18
48
1
60
0
100
AcDbSpline
70
4
71
3
72
16
73
12
40
0
40
0
40
0
40
0
40
0.461208588217085
40
0.461208588217085
40
0.643534962278541
40
0.643534962278541
40
0.828408472975291
40
0.828408472975291
40
0.943003644159993
40
0.943003644159993
40
1
40
1
40
1
40
1
41
1
10
11.8943375672974
20
-23.6665017920809
30
0
41
1
10
11.8660503915152
20
-23.7022583261632
30
0
41
1
10
11.8273339192908
20
-23.7370095736338
30
0
41
1
10
11.7473160248315
20
-23.7800170858174
30
0
41
1
10
11.7212784637477
20
-23.7917125768793
30
0
41
1
10
11.6606543989164
20
-23.8127037684951
30
0
41
1
10
11.6251722226874
20
-23.8222104320954
30
0
41
1
10
11.5599225851958
20
-23.8331586856493
30
0
41
1
10
11.5324782774944
20
-23.836332378473
30
0
41
1
10
11.4901684747699
20
-23.8387183279986
30
0
41
1
10
11.4757173930754
20
-23.8391299750505
30
0
41
1
10
11.4613248654053
20
-23.8391299750505
30
0
0
SPLINE
5
1CB
100
AcDbEntity
8
1
62
256
6
ByLayer
370
18
48
1
60
0
100
AcDbSpline
70
4
71
3
72
10
73
6
40
0
40
0
40
0
40
0
40
0.569662971760365
40
0.569662971760365
40
1
40
1
40
1
40
1
41
1
10
8.10566243270256
20
-18.9753212643828
30
0
41
1
10
8.15441862226712
20
-19.0088414625798
30
0
41
1
10
8.22370629390966
20
-19.0604238505184
30
0
41
1
10
8.37658822414471
20
-19.1687173120905
30
0
41
1
10
8.45446449409374
20
-19.2234193219803
30
0
41
1
10
8.5386751345948
20
-19.2880310577442
30
0
0
SPLINE
5
1CC
100
AcDbEntity
8
1
62
256
6
ByLayer
370
18
48
1
60
0
100
AcDbSpline
70
4
71
3
72
16
73
12
40
0
40
0
40
0
40
0
40
0.111430279628047
40
0.111430279628047
40
0.248747543515467
40
0.248747543515467
40
0.465535329195252
40
0.465535329195252
40
0.883855351867553
40
0.883855351867553
40
1
40
1
40
1
40
1
41
1
10
8.53867513459483
20
7.52966679426501
30
0
41
1
10
8.51081528400579
20
7.52966679426501
30
0
41
1
10
8.48260885722448
20
7.53471706780857
30
0
41
1
10
8.42415079676073
20
7.55489210221029
30
0
41
1
10
8.39395861076943
20
7.57218953888446
30
0
41
1
10
8.32484624564245
20
7.62460019394089
30
0
41
1
10
8.28921459142956
20
7.66489294253907
30
0
41
1
10
8.201006109254
20
7.78941367630352
30
0
41
1
10
8.16026799314912
20
7.88247511004147
30
0
41
1
10
8.12070829847318
20
8.00269269538009
30
0
41
1
10
8.11283840142687
20
8.02920008991578
30
0
41
1
10
8.10566243270245
20
8.05584836782771
30
0
0
SPLINE
5
1CD
100
AcDbEntity
8
1
62
256
6
ByLayer
370
18
48
1
60
0
100
AcDbSpline
70
4
71
3
72
16
73
12
40
0
40
0
40
0
40
0
40
0.11143027962805
40
0.11143027962805
40
0.248747543515472
40
0.248747543515472
40
0.465535329195252
40
0.465535329195252
40
0.88385535186756
40
0.88385535186756
40
1
40
1
40
1
40
1
41
1
10
8.5386751345948
20
-23.8391299750503
30
0
41
1
10
8.51081528400579
20
-23.8391299750503
30
0
41
1
10
8.48260885722448
20
-23.8375361275706
30
0
41
1
10
8.4241507967607
20
-23.831150658589
30
0
41
1
10
8.39395861076943
20
-23.825666877018
30
0
41
1
10
8.32484624564245
20
-23.8089605749788
30
0
41
1
10
8.28921459142956
20
-23.796037970776
30
0
41
1
10
8.201006109254
20
-23.7556824246832
30
0
41
1
10
8.16026799314912
20
-23.7250165399981
30
0
41
1
10
8.1207082984732
20
-23.6845451449633
30
0
41
1
10
8.11283840142687
20
-23.6755726082077
30
0
41
1
10
8.10566243270245
20
-23.6665017920809
30
0
0
SPLINE
5
1CE
100
AcDbEntity
8
1
62
256
6
ByLayer
370
18
48
1
60
0
100
AcDbSpline
70
4
71
3
72
8
73
4
40
0
40
0
40
0
40
0
40
1
40
1
40
1
40
1
41
1
10
19.6492756101863
20
-24.4074273909967
30
0
41
1
10
20.0094588758137
20
-24.4850237545354
30
0
41
1
10
20.4430165233331
20
-24.5409228016212
30
0
41
1
10
20.92079238
20
-24.5770445285122
30
0
0
SPLINE
5
1CF
100
AcDbEntity
8
1
62
256
6
ByLayer
370
18
48
1
60
0
100
AcDbSpline
70
4
71
3
72
12
73
8
40
0
40
0
40
0
40
0
40
0.262966326038642
40
0.262966326038642
40
0.525932636325331
40
0.525932636325331
40
1
40
1
40
1
40
1
41
1
10
34.3646933887282
20
-10.9057635057433
30
0
41
1
10
34.365826176483
20
-10.8807889128931
30
0
41
1
10
34.367075092323
20
-10.8558193176996
30
0
41
1
10
34.3698046593419
20
-10.8058933388949
30
0
41
1
10
34.3712853388959
20
-10.7809364174629
30
0
41
1
10
34.3757592422261
20
-10.7110105213453
30
0
41
1
10
34.3790118096471
20
-10.6660562628097
30
0
41
1
10
34.3826432544206
20
-10.6211342020738
30
0
0
SPLINE
5
1D0
100
AcDbEntity
8
1
62
256
6
ByLayer
370
18
48
1
60
0
100
AcDbSpline
70
4
71
3
72
8
73
4
40
0
40
0
40
0
40
0
40
1
40
1
40
1
40
1
41
1
10
34.4500823137963
20
-12.0870907890026
30
0
41
1
10
34.3727859223104
20
-11.6979038812257
30
0
41
1
10
34.346634374387
20
-11.3039109180688
30
0
41
1
10
34.3646933875268
20
-10.9057635105918
30
0
0
SPLINE
5
1D1
100
AcDbEntity
8
1
62
256
6
ByLayer
370
18
48
1
60
0
100
AcDbSpline
70
4
71
3
72
12
73
8
40
0
40
0
40
0
40
0
40
0.257748877025492
40
0.257748877025492
40
0.515497825812793
40
0.515497825812793
40
1
40
1
40
1
40
1
41
1
10
34.3826432546117
20
-10.621134202086
30
0
41
1
10
34.3846576751733
20
-10.5962152157233
30
0
41
1
10
34.3867887977749
20
-10.5713053843136
30
0
41
1
10
34.3912859259319
20
-10.5215074793622
30
0
41
1
10
34.3936519815193
20
-10.4966188517633
30
0
41
1
10
34.4008058413027
20
-10.424982113498
30
0
41
1
10
34.4058933818862
20
-10.3782617219791
30
0
41
1
10
34.4114030980828
20
-10.3315930603514
30
0
0
SPLINE
5
1D2
100
AcDbEntity
8
1
62
256
6
ByLayer
370
18
48
1
60
0
100
AcDbSpline
70
4
71
2
72
6
73
3
40
0
40
0
40
0
40
1
40
1
40
1
41
1
10
37.9062643090874
20
-6.73482933870508
30
0
41
1
10
37.8877751143453
20
-6.69413824234218
30
0
41
1
10
37.8692859196031
20
-6.65344714597924
30
0
0
SPLINE
5
1D3
100
AcDbEntity
8
1
62
256
6
ByLayer
370
18
48
1
60
0
100
AcDbSpline
70
4
71
2
72
6
73
3
40
0
40
0
40
0
40
1
40
1
40
1
41
0.877869679988386
10
36.7001115145658
20
-14.7729374212041
30
0
41
0.893236010966693
10
37.9269692219659
20
-14.7941795691122
30
0
41
1.02613459695995
10
39.2251581053787
20
-14.178760954369
30
0
0
SPLINE
5
1D4
100
AcDbEntity
8
1
62
256
6
ByLayer
370
18
48
1
60
0
100
AcDbSpline
70
4
71
3
72
10
73
6
40
0
40
0
40
0
40
0
40
0.390699660137824
40
0.390699660137824
40
1
40
1
40
1
40
1
41
1
10
8.5386751345948
20
-17.3301020066932
30
0
41
1
10
8.45606980790453
20
-17.39348204405
30
0
41
1
10
8.38298095223726
20
-17.4778806824472
30
0
41
1
10
8.2261467652954
20
-17.7138050834476
30
0
41
1
10
8.15491942224403
20
-17.8808201081295
30
0
41
1
10
8.10566243270256
20
-18.0555297374794
30
0
0
SPLINE
5
1D5
100
AcDbEntity
8
1
62
256
6
ByLayer
370
18
48
1
60
0
100
AcDbSpline
70
4
71
3
72
10
73
6
40
0
40
0
40
0
40
0
40
0.5
40
0.5
40
1
40
1
40
1
40
1
41
1
10
34.4114030975166
20
-10.3315930651467
30
0
41
1
10
34.5328544219105
20
-9.30287024344557
30
0
41
1
10
34.9304412132941
20
-8.32597271045324
30
0
41
1
10
36.1411262209895
20
-6.69023195638627
30
0
41
1
10
36.8854170143374
20
-5.95711287758806
30
0
41
1
10
37.8078211848535
20
-5.50955897337533
30
0
0
SPLINE
5
1D6
100
AcDbEntity
8
1
62
256
6
ByLayer
370
18
48
1
60
0
100
AcDbSpline
70
4
71
3
72
16
73
12
40
0
40
0
40
0
40
0
40
0.461208588217088
40
0.461208588217088
40
0.643534962278544
40
0.643534962278544
40
0.82840847297529
40
0.82840847297529
40
0.943003644159989
40
0.943003644159989
40
1
40
1
40
1
40
1
41
1
10
8.10566243270262
20
-8.05584836782774
30
0
41
1
10
8.13394960848487
20
-7.95080268681445
30
0
41
1
10
8.17266608070923
20
-7.84628670970801
30
0
41
1
10
8.25268397516848
20
-7.71442469145123
30
0
41
1
10
8.27872153625231
20
-7.67825379650728
30
0
41
1
10
8.33934560108361
20
-7.61290523367228
30
0
41
1
10
8.37482777731262
20
-7.5830592305141
30
0
41
1
10
8.44007741480422
20
-7.54855881865589
30
0
41
1
10
8.46752172250564
20
-7.5385201810229
30
0
41
1
10
8.50983152523006
20
-7.53097042135255
30
0
41
1
10
8.5242826069246
20
-7.52966679426473
30
0
41
1
10
8.53867513459474
20
-7.52966679426473
30
0
0
SPLINE
5
1D7
100
AcDbEntity
8
1
62
256
6
ByLayer
370
18
48
1
60
0
100
AcDbSpline
70
4
71
2
72
6
73
3
40
0
40
0
40
0
40
1
40
1
40
1
41
1.02613459695995
10
37.8692859196031
20
-6.65344714597925
30
0
41
0.935255091270249
10
37.6379578758672
20
-6.14433942926326
30
0
41
0.899335780046215
10
37.8078097534016
20
-5.50960169162014
30
0
0
SPLINE
5
1D8
100
AcDbEntity
8
1
62
256
6
ByLayer
370
18
48
1
60
0
100
AcDbSpline
70
4
71
3
72
16
73
12
40
0
40
0
40
0
40
0
40
0.461208588217094
40
0.461208588217094
40
0.643534962278546
40
0.643534962278546
40
0.828408472975285
40
0.828408472975285
40
0.943003644159988
40
0.943003644159988
40
1
40
1
40
1
40
1
41
1
10
8.10566243270262
20
23.6665017920809
30
0
41
1
10
8.13394960848487
20
23.7022583261632
30
0
41
1
10
8.17266608070923
20
23.7370095736338
30
0
41
1
10
8.25268397516848
20
23.7800170858174
30
0
41
1
10
8.27872153625233
20
23.7917125768793
30
0
41
1
10
8.33934560108361
20
23.8127037684951
30
0
41
1
10
8.37482777731262
20
23.8222104320954
30
0
41
1
10
8.44007741480422
20
23.8331586856493
30
0
41
1
10
8.46752172250564
20
23.836332378473
30
0
41
1
10
8.50983152523006
20
23.8387183279986
30
0
41
1
10
8.5242826069246
20
23.8391299750505
30
0
41
1
10
8.53867513459474
20
23.8391299750505
30
0
0
SPLINE
5
1D9
100
AcDbEntity
8
1
62
256
6
ByLayer
370
18
48
1
60
0
100
AcDbSpline
70
4
71
3
72
10
73
6
40
0
40
0
40
0
40
0
40
0.434790140770694
40
0.434790140770694
40
1
40
1
40
1
40
1
41
1
10
11.4613248654052
20
-19.2880310577442
30
0
41
1
10
11.5463855142922
20
-19.2227671417225
30
0
41
1
10
11.6249791044128
20
-19.1676067502435
30
0
41
1
10
11.777364361007
20
-19.0596659241482
30
0
41
1
10
11.8459532322554
20
-19.0085858101699
30
0
41
1
10
11.8943375672975
20
-18.9753212643807
30
0
0
SPLINE
5
1DA
100
AcDbEntity
8
1
62
256
6
ByLayer
370
18
48
1
60
0
100
AcDbSpline
70
4
71
3
72
8
73
4
40
0
40
0
40
0
40
0
40
1
40
1
40
1
40
1
41
1
10
20.9609847588647
20
24.6427113305059
30
0
41
1
10
20.9475812745097
20
24.5913467317342
30
0
41
1
10
20.934183755441
20
24.5399825588158
30
0
41
1
10
20.92079238
20
24.4886190390076
30
0
0
SPLINE
5
1DB
100
AcDbEntity
8
1
62
256
6
ByLayer
370
18
48
1
60
0
100
AcDbSpline
70
4
71
3
72
8
73
4
40
0
40
0
40
0
40
0
40
1
40
1
40
1
40
1
41
1
10
34.4500823137963
20
-12.0870907890026
30
0
41
1
10
34.7472377613399
20
-13.2547760372569
30
0
41
1
10
35.5793155921255
20
-14.2783970677166
30
0
41
1
10
36.7001116226959
20
-14.7729374230763
30
0
0
SPLINE
5
1DC
100
AcDbEntity
8
1
62
256
6
ByLayer
370
18
48
1
60
0
100
AcDbSpline
70
4
71
3
72
14
73
10
40
0
40
0
40
0
40
0
40
0.311902284535064
40
0.311902284535064
40
0.627722199344157
40
0.627722199344157
40
0.951239392859919
40
0.951239392859919
40
1
40
1
40
1
40
1
41
1
10
19.6492756101863
20
-24.4074273909967
30
0
41
1
10
19.2589065151785
20
-24.3648501162488
30
0
41
1
10
18.8971001561584
20
-24.3049569532733
30
0
41
1
10
18.2835116525487
20
-24.1494135952404
30
0
41
1
10
18.0249815792796
20
-24.0510028626091
30
0
41
1
10
17.6392199403027
20
-23.8174123097642
30
0
41
1
10
17.5100639463551
20
-23.6782359586606
30
0
41
1
10
17.4432353915025
20
-23.5027996833027
30
0
41
1
10
17.4359824174511
20
-23.4792306731536
30
0
41
1
10
17.4303191742212
20
-23.4553549429959
30
0
0
SPLINE
5
1DD
100
AcDbEntity
8
1
62
256
6
ByLayer
370
18
48
1
60
0
100
AcDbSpline
70
4
71
3
72
8
73
4
40
0
40
0
40
0
40
0
40
1
40
1
40
1
40
1
41
1
10
21.6564898712279
20
-26.9699020137151
30
0
41
1
10
21.6129100437771
20
-26.9631406311513
30
0
41
1
10
21.5694183678891
20
-26.9566951079395
30
0
41
1
10
21.5260544842311
20
-26.9505691221381
30
0
0
SPLINE
5
1DE
100
AcDbEntity
8
1
62
256
6
ByLayer
370
18
48
1
60
0
100
AcDbSpline
70
4
71
3
72
16
73
12
40
0
40
0
40
0
40
0
40
0.111430279628047
40
0.111430279628047
40
0.248747543515475
40
0.248747543515475
40
0.465535329195272
40
0.465535329195272
40
0.883855351867603
40
0.883855351867603
40
1
40
1
40
1
40
1
41
1
10
11.4613248654052
20
-7.52966679426504
30
0
41
1
10
11.4891847159942
20
-7.52966679426504
30
0
41
1
10
11.5173911427755
20
-7.53471706780854
30
0
41
1
10
11.5758492032393
20
-7.55489210221029
30
0
41
1
10
11.6060413892306
20
-7.57218953888446
30
0
41
1
10
11.6751537543576
20
-7.62460019394089
30
0
41
1
10
11.7107854085705
20
-7.66489294253907
30
0
41
1
10
11.798993890746
20
-7.78941367630352
30
0
41
1
10
11.8397320068509
20
-7.8824751100415
30
0
41
1
10
11.8792917015268
20
-8.00269269538009
30
0
41
1
10
11.8871615985731
20
-8.02920008991578
30
0
41
1
10
11.8943375672975
20
-8.05584836782771
30
0
0
SPLINE
5
1DF
100
AcDbEntity
8
1
62
256
6
ByLayer
370
18
48
1
60
0
100
AcDbSpline
70
4
71
3
72
16
73
12
40
0
40
0
40
0
40
0
40
0.111430279628052
40
0.111430279628052
40
0.248747543515474
40
0.248747543515474
40
0.465535329195271
40
0.465535329195271
40
0.883855351867598
40
0.883855351867598
40
1
40
1
40
1
40
1
41
1
10
11.4613248654052
20
23.8391299750503
30
0
41
1
10
11.4891847159942
20
23.8391299750503
30
0
41
1
10
11.5173911427755
20
23.8375361275706
30
0
41
1
10
11.5758492032393
20
23.831150658589
30
0
41
1
10
11.6060413892306
20
23.825666877018
30
0
41
1
10
11.6751537543576
20
23.8089605749788
30
0
41
1
10
11.7107854085705
20
23.796037970776
30
0
41
1
10
11.798993890746
20
23.7556824246832
30
0
41
1
10
11.8397320068509
20
23.7250165399981
30
0
41
1
10
11.8792917015268
20
23.6845451449633
30
0
41
1
10
11.8871615985731
20
23.6755726082078
30
0
41
1
10
11.8943375672975
20
23.6665017920809
30
0
0
SPLINE
5
1E0
100
AcDbEntity
8
1
62
256
6
ByLayer
370
18
48
1
60
0
100
AcDbSpline
70
4
71
3
72
10
73
6
40
0
40
0
40
0
40
0
40
0.539719091383334
40
0.539719091383334
40
1
40
1
40
1
40
1
41
1
10
11.8943375672974
20
-18.0555297374795
30
0
41
1
10
11.8505865771285
20
-17.9003493387736
30
0
41
1
10
11.7896099247477
20
-17.7517913508358
30
0
41
1
10
11.6420402748372
20
-17.507646375978
30
0
41
1
10
11.5582831583753
20
-17.4044945486358
30
0
41
1
10
11.4613248654052
20
-17.3301020066931
30
0
0
SPLINE
5
1E1
100
AcDbEntity
8
1
62
256
6
ByLayer
370
18
48
1
60
0
100
AcDbSpline
70
4
71
3
72
8
73
4
40
0
40
0
40
0
40
0
40
1
40
1
40
1
40
1
41
1
10
21.5260544842311
20
-26.9505691221381
30
0
41
1
10
21.3217393950243
20
-26.1569806301944
30
0
41
1
10
21.119718025633
20
-25.3658182863663
30
0
41
1
10
20.92079238
20
-24.5770445285122
30
0
0
SPLINE
5
1E2
100
AcDbEntity
8
1
62
256
6
ByLayer
370
18
48
1
60
0
100
AcDbSpline
70
4
71
2
72
11
73
8
40
0
40
0
40
0
40
0.022509722516009
40
0.315756805761206
40
0.511254861258004
40
0.706752916754803
40
0.804501944503202
40
1
40
1
40
1
41
1
10
34.3646933875268
20
-10.9057635105918
30
0
41
1
10
34.379708463731
20
-10.8451665741118
30
0
41
1
10
34.6141161396654
20
-9.99164577589934
30
0
41
1
10
35.4202762567687
20
-8.73049976923684
30
0
41
1
10
36.5356620768465
20
-7.66381626118073
30
0
41
1
10
36.9982604062076
20
-7.34945092509071
30
0
41
1
10
37.5434044348441
20
-7.00580534184601
30
0
41
1
10
37.9432426985718
20
-6.81621153143095
30
0
0
SPLINE
5
1E3
100
AcDbEntity
8
1
62
256
6
ByLayer
370
18
48
1
60
0
100
AcDbSpline
70
4
71
2
72
10
73
7
40
0
40
0
40
0
40
0.288980467787402
40
0.49212890556243
40
0.695277343337458
40
0.796851562224972
40
1
40
1
40
1
41
1
10
34.382643254539
20
-10.6211342023344
30
0
41
1
10
34.6021258327202
20
-9.87117256410696
30
0
41
1
10
35.3832978672843
20
-8.649117576511
30
0
41
1
10
36.4986836873622
20
-7.58243406845489
30
0
41
1
10
36.9612820167233
20
-7.26806873236487
30
0
41
1
10
37.5064260453598
20
-6.92442314912014
30
0
41
1
10
37.9062643090874
20
-6.73482933870508
30
0
0
SPLINE
5
1E4
100
AcDbEntity
8
1
62
256
6
ByLayer
370
18
48
1
60
0
100
AcDbSpline
70
4
71
2
72
10
73
7
40
0
40
0
40
0
40
0.259180675677939
40
0.470843339769957
40
0.682506003861974
40
0.788337335907983
40
1
40
1
40
1
41
1.02613459695995
10
34.4114030986894
20
-10.3315930616881
30
0
41
1.02613459695995
10
34.6289985963786
20
-9.6899024891871
30
0
41
1.02613459695995
10
35.3463194778
20
-8.56773538378514
30
0
41
1.02613459695995
10
36.4617052978779
20
-7.50105187572903
30
0
41
1.02613459695995
10
36.9243036272389
20
-7.18668653963903
30
0
41
1.02613459695995
10
37.4694476558755
20
-6.84304095639431
30
0
41
1.02613459695995
10
37.8692859196031
20
-6.65344714597925
30
0
0
SPLINE
5
1E5
100
AcDbEntity
8
1
62
256
6
ByLayer
370
18
48
1
60
0
100
AcDbSpline
70
4
71
2
72
6
73
3
40
0
40
0
40
0
40
1
40
1
40
1
41
1
10
37.9432426985718
20
-6.81621153143095
30
0
41
1
10
37.9247535038296
20
-6.77552043506802
30
0
41
1
10
37.9062643090874
20
-6.73482933870508
30
0
0
SPLINE
5
1E6
100
AcDbEntity
8
1
62
256
6
ByLayer
370
18
48
1
60
0
100
AcDbSpline
70
4
71
3
72
14
73
10
40
0
40
0
40
0
40
0
40
0.25714677776588
40
0.25714677776588
40
0.515043459777445
40
0.515043459777445
40
0.762218147059629
40
0.762218147059629
40
1
40
1
40
1
40
1
41
1
10
17.4303191742212
20
23.4553549429959
30
0
41
1
10
17.4691434490962
20
23.6190346355062
30
0
41
1
10
17.5852680371713
20
23.7696203769467
30
0
41
1
10
17.9643662295079
20
24.0254564367266
30
0
41
1
10
18.233500730627
20
24.1343161849438
30
0
41
1
10
18.8755030997166
20
24.301589819967
30
0
41
1
10
19.2526493539829
20
24.3645598084091
30
0
41
1
10
20.053239606227
20
24.4510990768829
30
0
41
1
10
20.4852178413433
20
24.4774760852936
30
0
41
1
10
20.92079238
20
24.4886190390076
30
0
0
SPLINE
5
1E7
100
AcDbEntity
8
1
62
256
6
ByLayer
370
18
48
1
60
0
100
AcDbSpline
70
4
71
3
72
16
73
12
40
0
40
0
40
0
40
0
40
0.461208588217066
40
0.461208588217066
40
0.643534962278522
40
0.643534962278522
40
0.828408472975271
40
0.828408472975271
40
0.943003644159981
40
0.943003644159981
40
1
40
1
40
1
40
1
41
1
10
11.8943375672974
20
8.05584836782774
30
0
41
1
10
11.8660503915152
20
7.95080268681445
30
0
41
1
10
11.8273339192908
20
7.84628670970801
30
0
41
1
10
11.7473160248315
20
7.71442469145123
30
0
41
1
10
11.7212784637477
20
7.67825379650728
30
0
41
1
10
11.6606543989164
20
7.61290523367228
30
0
41
1
10
11.6251722226874
20
7.58305923051407
30
0
41
1
10
11.5599225851958
20
7.54855881865589
30
0
41
1
10
11.5324782774944
20
7.5385201810229
30
0
41
1
10
11.4901684747699
20
7.53097042135255
30
0
41
1
10
11.4757173930754
20
7.5296667942647
30
0
41
1
10
11.4613248654053
20
7.5296667942647
30
0
0
SPLINE
5
1E8
100
AcDbEntity
8
SK1
62
256
6
ByLayer
370
18
48
1
60
0
100
AcDbSpline
70
4
71
3
72
10
73
6
40
0
40
0
40
0
40
0
40
0.5
40
0.5
40
1
40
1
40
1
40
1
41
1
10
-1.30710678118655
20
-3.91806548153784
30
0
41
1
10
-1.53227959010832
20
-2.67440369212437
30
0
41
1
10
-1.71681589069689
20
-1.34075776539186
30
0
41
1
10
-1.71598271729604
20
1.35050010337164
30
0
41
1
10
-1.53230696904976
20
2.67425240209695
30
0
41
1
10
-1.30710678118655
20
3.91806548057698
30
0
0
SPLINE
5
1E9
100
AcDbEntity
8
SK1
62
256
6
ByLayer
370
18
48
1
60
0
100
AcDbSpline
70
4
71
3
72
22
73
18
40
0
40
0
40
0
40
0
40
0.0394331151890913
40
0.0394331151890913
40
0.0795339708694829
40
0.0795339708694829
40
0.109637917244288
40
0.109637917244288
40
0.13957706301322
40
0.13957706301322
40
0.189266399657458
40
0.189266399657458
40
0.289571152403382
40
0.289571152403382
40
0.658284396834382
40
0.658284396834382
40
1
40
1
40
1
40
1
41
1
10
-0.394976888875306
20
5.38678189578292
30
0
41
1
10
-0.415237014773396
20
5.40399317028476
30
0
41
1
10
-0.437419275645453
20
5.41977813092004
30
0
41
1
10
-0.486103141154984
20
5.44521655864725
30
0
41
1
10
-0.51341298093098
20
5.45496005292577
30
0
41
1
10
-0.562874322366525
20
5.46212264681108
30
0
41
1
10
-0.585106616517606
20
5.46199323188387
30
0
41
1
10
-0.627692822126733
20
5.45533455005088
30
0
41
1
10
-0.648523068172722
20
5.44883772858989
30
0
41
1
10
-0.699826196362153
20
5.42613682765011
30
0
41
1
10
-0.728695564403438
20
5.40623396070797
30
0
41
1
10
-0.806075449923839
20
5.34007786619352
30
0
41
1
10
-0.847522380016557
20
5.28655870152033
30
0
41
1
10
-1.01570466784384
20
5.03084699030373
30
0
41
1
10
-1.09210771407481
20
4.80149729085085
30
0
41
1
10
-1.21929875138233
20
4.35887826398974
30
0
41
1
10
-1.26692602208391
20
4.13998960128646
30
0
41
1
10
-1.30710678118655
20
3.91806548057696
30
0
0
SPLINE
5
1EA
100
AcDbEntity
8
SK1
62
256
6
ByLayer
370
18
48
1
60
0
100
AcDbSpline
70
4
71
3
72
24
73
20
40
0
40
0
40
0
40
0
40
0.469770575826712
40
0.469770575826712
40
0.663612078687295
40
0.663612078687295
40
0.860454184613411
40
0.860454184613411
40
0.903064590395674
40
0.903064590395674
40
0.923089343972159
40
0.923089343972159
40
0.943389594779288
40
0.943389594779288
40
0.961332284531898
40
0.961332284531898
40
0.988068136377815
40
0.988068136377815
40
1
40
1
40
1
40
1
41
1
10
-0.199999999999989
20
6.10344849123027
30
0
41
1
10
-0.199999999999989
20
5.97798788494984
30
0
41
1
10
-0.204016575726513
20
5.8509635670122
30
0
41
1
10
-0.223752631922082
20
5.67079358995508
30
0
41
1
10
-0.231244965282229
20
5.61789623093799
30
0
41
1
10
-0.253819137983157
20
5.51250015101135
30
0
41
1
10
-0.267096215270385
20
5.45724004647028
30
0
41
1
10
-0.303692478692511
20
5.40035311573845
30
0
41
1
10
-0.311479622041333
20
5.39039941672755
30
0
41
1
10
-0.32547775761438
20
5.37891036834915
30
0
41
1
10
-0.330455622185014
20
5.3756771312581
30
0
41
1
10
-0.341078704143143
20
5.37102422840917
30
0
41
1
10
-0.346883276538165
20
5.36960762575521
30
0
41
1
10
-0.357630415747764
20
5.36914354197148
30
0
41
1
10
-0.362713068049572
20
5.36981917830482
30
0
41
1
10
-0.37458340180882
20
5.37316903610403
30
0
41
1
10
-0.3812109954861
20
5.37664910167555
30
0
41
1
10
-0.38989246528871
20
5.38265091141974
30
0
41
1
10
-0.392483363308571
20
5.38466360919151
30
0
41
1
10
-0.394976888875334
20
5.38678189578178
30
0
0
SPLINE
5
1EB
100
AcDbEntity
8
SK1
62
256
6
ByLayer
370
18
48
1
60
0
100
AcDbSpline
70
4
71
3
72
22
73
18
40
0
40
0
40
0
40
0
40
0.359503326352592
40
0.359503326352592
40
0.722215553677066
40
0.722215553677066
40
0.826527133697721
40
0.826527133697721
40
0.863141914878009
40
0.863141914878009
40
0.900378805007221
40
0.900378805007221
40
0.933500873078508
40
0.933500873078508
40
0.972947835056124
40
0.972947835056124
40
1
40
1
40
1
40
1
41
1
10
-1.30710678118655
20
-3.91806548153781
30
0
41
1
10
-1.26486058419175
20
-4.15139729989579
30
0
41
1
10
-1.21446435132796
20
-4.3814323255595
30
0
41
1
10
-1.08204001032738
20
-4.82987250608483
30
0
41
1
10
-1.00537527699572
20
-5.05527264511531
30
0
41
1
10
-0.832356114396674
20
-5.30654108347395
30
0
41
1
10
-0.78723829488635
20
-5.36152992388779
30
0
41
1
10
-0.709490490588593
20
-5.41877880440927
30
0
41
1
10
-0.687203973712826
20
-5.43218986569767
30
0
41
1
10
-0.639076749164047
20
-5.45244590583036
30
0
41
1
10
-0.612446414061708
20
-5.45928056674788
30
0
41
1
10
-0.562058433231044
20
-5.46233960302246
30
0
41
1
10
-0.537713914852588
20
-5.45964677314575
30
0
41
1
10
-0.488053852696936
20
-5.44628701250068
30
0
41
1
10
-0.462609559288751
20
-5.43420976008088
30
0
41
1
10
-0.423860760477311
20
-5.40985221311715
30
0
41
1
10
-0.408979654247759
20
-5.39867780521598
30
0
41
1
10
-0.394976888875391
20
-5.38678223323953
30
0
0
SPLINE
5
1EC
100
AcDbEntity
8
SK1
62
256
6
ByLayer
370
18
48
1
60
0
100
AcDbSpline
70
4
71
3
72
22
73
18
40
0
40
0
40
0
40
0
40
0.0260455644157247
40
0.0260455644157247
40
0.0526262165848557
40
0.0526262165848557
40
0.0706056579866929
40
0.0706056579866929
40
0.0884949509195805
40
0.0884949509195805
40
0.11748921873202
40
0.11748921873202
40
0.17459086731972
40
0.17459086731972
40
0.37652425293745
40
0.37652425293745
40
1
40
1
40
1
40
1
41
1
10
-0.394976888872947
20
-5.38678223324206
30
0
41
1
10
-0.389612432086437
20
-5.38222504185003
30
0
41
1
10
-0.383763200778958
20
-5.37811700449893
30
0
41
1
10
-0.3709728888754
20
-5.37184824531644
30
0
41
1
10
-0.363785592650885
20
-5.36968256852501
30
0
41
1
10
-0.351475656346565
20
-5.3691458249703
30
0
41
1
10
-0.346317238365032
20
-5.36979468027801
30
0
41
1
10
-0.336550133197363
20
-5.3727304206256
30
0
41
1
10
-0.331829865964124
20
-5.3750241182685
30
0
41
1
10
-0.32051111143835
20
-5.38234306083376
30
0
41
1
10
-0.314321448136184
20
-5.3882440687963
30
0
41
1
10
-0.298260159254511
20
-5.40702817233921
30
0
41
1
10
-0.290032841564653
20
-5.42147709180324
30
0
41
1
10
-0.258449669573651
20
-5.48745345024415
30
0
41
1
10
-0.24608390551893
20
-5.5434138926733
30
0
41
1
10
-0.204764795451922
20
-5.7670899064446
30
0
41
1
10
-0.200000000000358
20
-5.93709576978202
30
0
41
1
10
-0.200000000000358
20
-6.10344667966001
30
0
0
LINE
5
72
100
AcDbEntity
8
1
62
256
6
ByLayer
370
18
48
1
60
0
100
AcDbLine
10
53.304849
20
-5.985019
30
0
11
52.978455
21
-5.313214
31
0
39
0
210
0
220
0
230
1
0
LINE
5
74
100
AcDbEntity
8
1
62
256
6
ByLayer
370
18
48
1
60
0
100
AcDbLine
10
0.3
20
-25
30
0
11
20.920792
21
-25
31
0
39
0
210
0
220
0
230
1
0
LINE
5
75
100
AcDbEntity
8
1
62
256
6
ByLayer
370
18
48
1
60
0
100
AcDbLine
10
20.920792
20
25
30
0
11
0.3
21
25
31
0
39
0
210
0
220
0
230
1
0
LINE
5
76
100
AcDbEntity
8
1
62
256
6
ByLayer
370
18
48
1
60
0
100
AcDbLine
10
0.3
20
25
30
0
11
0
21
24.7
31
0
39
0
210
0
220
0
230
1
0
LINE
5
77
100
AcDbEntity
8
1
62
256
6
ByLayer
370
18
48
1
60
0
100
AcDbLine
10
0
20
-24.7
30
0
11
0.3
21
-25
31
0
39
0
210
0
220
0
230
1
0
LINE
5
78
100
AcDbEntity
8
1
62
256
6
ByLayer
370
18
48
1
60
0
100
AcDbLine
10
33.995879
20
25.15
30
0
11
20.960985
21
25.15
31
0
39
0
210
0
220
0
230
1
0
LINE
5
79
100
AcDbEntity
8
1
62
256
6
ByLayer
370
18
48
1
60
0
100
AcDbLine
10
20.960985
20
25.15
30
0
11
20.920792
21
25
31
0
39
0
210
0
220
0
230
1
0
LINE
5
7A
100
AcDbEntity
8
1
62
256
6
ByLayer
370
18
48
1
60
0
100
AcDbLine
10
20.920792
20
-25
30
0
11
21.307267
21
-26.442344
31
0
39
0
210
0
220
0
230
1
0
LINE
5
7B
100
AcDbEntity
8
1
62
256
6
ByLayer
370
18
48
1
60
0
100
AcDbLine
10
8.823395
20
-17.171365
30
0
11
10.384036
21
-17.787177
31
0
39
0
210
0
220
0
230
1
0
LINE
5
7C
100
AcDbEntity
8
1
62
256
6
ByLayer
370
18
48
1
60
0
100
AcDbLine
10
17.233148
20
-20.48976
30
0
11
24.065489
21
-23.185724
31
0
39
0
210
0
220
0
230
1
0
LINE
5
7D
100
AcDbEntity
8
1
62
256
6
ByLayer
370
18
48
1
60
0
100
AcDbLine
10
24.111508
20
-23.181409
30
0
11
24.428422
21
-23.040255
31
0
39
0
210
0
220
0
230
1
0
LINE
5
7E
100
AcDbEntity
8
1
62
256
6
ByLayer
370
18
48
1
60
0
100
AcDbLine
10
25.846305
20
-19.446938
30
0
11
25.71117
21
-19.127411
31
0
39
0
210
0
220
0
230
1
0
LINE
5
7F
100
AcDbEntity
8
1
62
256
6
ByLayer
370
18
48
1
60
0
100
AcDbLine
10
49.020579
20
-16.13557
30
0
11
48.855915
21
-15.850363
31
0
39
0
210
0
220
0
230
1
0
LINE
5
80
100
AcDbEntity
8
1
62
256
6
ByLayer
370
18
48
1
60
0
100
AcDbLine
10
50.995065
20
-14.912313
30
0
11
51.15973
21
-15.19752
31
0
39
0
210
0
220
0
230
1
0
LINE
5
81
100
AcDbEntity
8
1
62
256
6
ByLayer
370
18
48
1
60
0
100
AcDbLine
10
62.941435
20
-23.140786
30
0
11
62.357747
21
-22.12981
31
0
39
0
210
0
220
0
230
1
0
LINE
5
82
100
AcDbEntity
8
1
62
256
6
ByLayer
370
18
48
1
60
0
100
AcDbLine
10
47.70003
20
-31.347326
30
0
11
47.999307
21
-31.865689
31
0
39
0
210
0
220
0
230
1
0
LINE
5
83
100
AcDbEntity
8
1
62
256
6
ByLayer
370
18
48
1
60
0
100
AcDbLine
10
48.879731
20
-2.501411
30
0
11
40.318267
21
-6.560054
31
0
39
0
210
0
220
0
230
1
0
LINE
5
84
100
AcDbEntity
8
1
62
256
6
ByLayer
370
18
48
1
60
0
100
AcDbLine
10
52.94302
20
-5.243323
30
0
11
52.10926
21
-3.665736
31
0
39
0
210
0
220
0
230
1
0
LINE
5
85
100
AcDbEntity
8
1
62
256
6
ByLayer
370
18
48
1
60
0
100
AcDbLine
10
46.384201
20
-17.247645
30
0
11
46.563071
21
-17.557458
31
0
39
0
210
0
220
0
230
1
0
LINE
5
86
100
AcDbEntity
8
1
62
256
6
ByLayer
370
18
48
1
60
0
100
AcDbLine
10
53.491274
20
-13.557458
30
0
11
53.312404
21
-13.247645
31
0
39
0
210
0
220
0
230
1
0
LINE
5
87
100
AcDbEntity
8
80
62
256
6
ByLayer
370
18
48
1
60
0
100
AcDbLine
10
0
20
0
30
0
11
-5
21
0
31
0
39
0
210
0
220
0
230
1
0
LINE
5
88
100
AcDbEntity
8
4
62
256
6
ByLayer
370
18
48
0.05
60
0
100
AcDbLine
10
0
20
0
30
0
11
60
21
0
31
0
39
0
210
0
220
0
230
1
0
LINE
5
8A
100
AcDbEntity
8
81
62
256
6
ByLayer
370
18
48
1
60
0
100
AcDbLine
10
60
20
-35
30
0
11
70
21
-35
31
0
39
0
210
0
220
0
230
1
0
LINE
5
8B
100
AcDbEntity
8
SK4
62
256
6
ByLayer
370
18
48
0.05
60
0
100
AcDbLine
10
-35
20
0
30
0
11
60
21
0
31
0
39
0
210
0
220
0
230
1
0
LINE
5
8D
100
AcDbEntity
8
1
62
256
6
ByLayer
370
18
48
1
60
0
100
AcDbLine
10
49.245614
20
-26.332775
30
0
11
47.921933
21
-31.272821
31
0
39
0
210
0
220
0
230
1
0
LINE
5
8E
100
AcDbEntity
8
1
62
256
6
ByLayer
370
18
48
1
60
0
100
AcDbLine
10
62.458339
20
-22.775157
30
0
11
58.521865
21
-21.766346
31
0
39
0
210
0
220
0
230
1
0
LINE
5
8F
100
AcDbEntity
8
1
62
256
6
ByLayer
370
18
48
1
60
0
100
AcDbLine
10
61.874652
20
-21.764181
30
0
11
61.439849
21
-21.652753
31
0
39
0
210
0
220
0
230
1
0
LINE
5
90
100
AcDbEntity
8
1
62
256
6
ByLayer
370
18
48
1
60
0
100
AcDbLine
10
47.895047
20
-31.226253
30
0
11
47.921933
21
-31.272821
31
0
39
0
210
0
220
0
230
1
0
LINE
5
91
100
AcDbEntity
8
1
62
256
6
ByLayer
370
18
48
1
60
0
100
AcDbLine
10
53.156708
20
-12.696863
30
0
11
53.900089
21
-14.273096
31
0
39
0
210
0
220
0
230
1
0
LINE
5
92
100
AcDbEntity
8
1
62
256
6
ByLayer
370
18
48
1
60
0
100
AcDbLine
10
58.450817
20
-25.159269
30
0
11
58.380171
21
-24.362835
31
0
39
0
210
0
220
0
230
1
0
LINE
5
93
100
AcDbEntity
8
1
62
256
6
ByLayer
370
18
48
1
60
0
100
AcDbLine
10
58.568372
20
-29.095153
30
0
11
58.698392
21
-28.572925
31
0
39
0
210
0
220
0
230
1
0
LINE
5
94
100
AcDbEntity
8
1
62
256
6
ByLayer
370
18
48
1
60
0
100
AcDbLine
10
54.816623
20
-30.873705
30
0
11
54.312659
21
-30.652023
31
0
39
0
210
0
220
0
230
1
0
LINE
5
95
100
AcDbEntity
8
1
62
256
6
ByLayer
370
18
48
1
60
0
100
AcDbLine
10
51.261694
20
-27.737416
30
0
11
51.831117
21
-28.2974
31
0
39
0
210
0
220
0
230
1
0
LINE
5
96
100
AcDbEntity
8
1
62
256
6
ByLayer
370
18
48
1
60
0
100
AcDbLine
10
20.920792
20
-24.577045
30
0
11
20.920792
21
-25
31
0
39
0
210
0
220
0
230
1
0
LINE
5
97
100
AcDbEntity
8
1
62
256
6
ByLayer
370
18
48
1
60
0
100
AcDbLine
10
20.920792
20
25
30
0
11
20.920792
21
24.488619
31
0
39
0
210
0
220
0
230
1
0
LINE
5
98
100
AcDbEntity
8
1
62
256
6
ByLayer
370
18
48
1
60
0
100
AcDbLine
10
0.3
20
0
30
0
11
0.3
21
-25
31
0
39
0
210
0
220
0
230
1
0
LINE
5
99
100
AcDbEntity
8
1
62
256
6
ByLayer
370
18
48
1
60
0
100
AcDbLine
10
0.3
20
25
30
0
11
0.3
21
0
31
0
39
0
210
0
220
0
230
1
0
LINE
5
9A
100
AcDbEntity
8
1
62
256
6
ByLayer
370
18
48
1
60
0
100
AcDbLine
10
17.31917
20
-15.471161
30
0
11
17.25871
21
-15.883315
31
0
39
0
210
0
220
0
230
1
0
LINE
5
9B
100
AcDbEntity
8
1
62
256
6
ByLayer
370
18
48
1
60
0
100
AcDbLine
10
17.188235
20
-16.363744
30
0
11
17.127775
21
-16.775898
31
0
39
0
210
0
220
0
230
1
0
LINE
5
9C
100
AcDbEntity
8
1
62
256
6
ByLayer
370
18
48
1
60
0
100
AcDbLine
10
17.430319
20
-15.840696
30
0
11
17.430319
21
23.455355
31
0
39
0
210
0
220
0
230
1
0
LINE
5
9D
100
AcDbEntity
8
1
62
256
6
ByLayer
370
18
48
1
60
0
100
AcDbLine
10
0
20
0
30
0
11
0
21
-24.7
31
0
39
0
210
0
220
0
230
1
0
LINE
5
9E
100
AcDbEntity
8
1
62
256
6
ByLayer
370
18
48
1
60
0
100
AcDbLine
10
0
20
24.7
30
0
11
0
21
0
31
0
39
0
210
0
220
0
230
1
0
LINE
5
9F
100
AcDbEntity
8
SK1
62
256
6
ByLayer
370
18
48
1
60
0
100
AcDbLine
10
-0.2
20
17.833485
30
0
11
-0.2
21
6.103448
31
0
39
0
210
0
220
0
230
1
0
LINE
5
A1
100
AcDbEntity
8
SK1
62
256
6
ByLayer
370
18
48
1
60
0
100
AcDbLine
10
-0.2
20
-6.103447
30
0
11
-0.2
21
-17.833485
31
0
39
0
210
0
220
0
230
1
0
LINE
5
A2
100
AcDbEntity
8
1
62
256
6
ByLayer
370
18
48
1
60
0
100
AcDbLine
10
21.415098
20
-17.413145
30
0
11
21.415098
21
24.647972
31
0
39
0
210
0
220
0
230
1
0
LINE
5
A3
100
AcDbEntity
8
1
62
256
6
ByLayer
370
18
48
1
60
0
100
AcDbLine
10
22.089177
20
-22.405933
30
0
11
22.089177
21
-27.039808
31
0
39
0
210
0
220
0
230
1
0
LINE
5
A4
100
AcDbEntity
8
1
62
256
6
ByLayer
370
18
48
1
60
0
100
AcDbLine
10
54.204262
20
-7.890298
30
0
11
54.379772
21
-7.807096
31
0
39
0
210
0
220
0
230
1
0
LINE
5
A5
100
AcDbEntity
8
1
62
256
6
ByLayer
370
18
48
1
60
0
100
AcDbLine
10
61.439938
20
-22.353818
30
0
11
58.507401
21
-21.602289
31
0
39
0
210
0
220
0
230
1
0
LINE
5
A6
100
AcDbEntity
8
1
62
256
6
ByLayer
370
18
48
1
60
0
100
AcDbLine
10
47.762902
20
-31.360197
30
0
11
49.1192
21
-26.208609
31
0
39
0
210
0
220
0
230
1
0
LINE
5
A7
100
AcDbEntity
8
1
62
256
6
ByLayer
370
18
48
1
60
0
100
AcDbLine
10
23.67794
20
-18.30639
30
0
11
34.450082
21
-12.087091
31
0
39
0
210
0
220
0
230
1
0
LINE
5
A8
100
AcDbEntity
8
1
62
256
6
ByLayer
370
18
48
1
60
0
100
AcDbLine
10
39.545576
20
-14.839386
30
0
11
41.195923
21
-14.057024
31
0
39
0
210
0
220
0
230
1
0
LINE
5
A9
100
AcDbEntity
8
1
62
256
6
ByLayer
370
18
48
1
60
0
100
AcDbLine
10
20.960985
20
25.15
30
0
11
20.960985
21
24.642711
31
0
39
0
210
0
220
0
230
1
0
LINE
5
AA
100
AcDbEntity
8
1
62
256
6
ByLayer
370
18
48
1
60
0
100
AcDbLine
10
54.379772
20
-7.807096
30
0
11
53.454542
21
-6.301459
31
0
39
0
210
0
220
0
230
1
0
LINE
5
AB
100
AcDbEntity
8
1
62
256
6
ByLayer
370
18
48
1
60
0
100
AcDbLine
10
58.509021
20
-21.619992
30
0
11
59.403725
21
-21.84928
31
0
39
0
210
0
220
0
230
1
0
LINE
5
AC
100
AcDbEntity
8
1
62
256
6
ByLayer
370
18
48
1
60
0
100
AcDbLine
10
51.831132
20
-28.297413
30
0
11
50.92573
21
-27.452733
31
0
39
0
210
0
220
0
230
1
0
LINE
5
AD
100
AcDbEntity
8
1
62
256
6
ByLayer
370
18
48
1
60
0
100
AcDbLine
10
53.419526
20
-30.372607
30
0
11
53.620363
21
-30.032164
31
0
39
0
210
0
220
0
230
1
0
LINE
5
AE
100
AcDbEntity
8
1
62
256
6
ByLayer
370
18
48
1
60
0
100
AcDbLine
10
59.05899
20
-27.699166
30
0
11
58.655353
21
-27.64528
31
0
39
0
210
0
220
0
230
1
0
LINE
5
AF
100
AcDbEntity
8
1
62
256
6
ByLayer
370
18
48
1
60
0
100
AcDbLine
10
58.450817
20
-25.159289
30
0
11
58.373744
21
-23.921932
31
0
39
0
210
0
220
0
230
1
0
LINE
5
B0
100
AcDbEntity
8
1
62
256
6
ByLayer
370
18
48
1
60
0
100
AcDbLine
10
17.274023
20
-15.779515
30
0
11
25.694965
21
-19.102324
31
0
39
0
210
0
220
0
230
1
0
LINE
5
B1
100
AcDbEntity
8
1
62
256
6
ByLayer
370
18
48
1
60
0
100
AcDbLine
10
53.312404
20
-13.247645
30
0
11
53.312382
21
-13.247606
31
0
39
0
210
0
220
0
230
1
0
LINE
5
B2
100
AcDbEntity
8
1
62
256
6
ByLayer
370
18
48
1
60
0
100
AcDbLine
10
54.164671
20
-14.77372
30
0
11
53.297545
21
-12.936127
31
0
39
0
210
0
220
0
230
1
0
LINE
5
B3
100
AcDbEntity
8
1
62
256
6
ByLayer
370
18
48
1
60
0
100
AcDbLine
10
48.718625
20
-6.919997
30
0
11
49.194341
21
-7.899144
31
0
39
0
210
0
220
0
230
1
0
LINE
5
B4
100
AcDbEntity
8
1
62
256
6
ByLayer
370
18
48
1
60
0
100
AcDbLine
10
39.204308
20
-9.955393
30
0
11
40.020958
21
-11.500605
31
0
39
0
210
0
220
0
230
1
0
LINE
5
B5
100
AcDbEntity
8
1
62
256
6
ByLayer
370
18
48
1
60
0
100
AcDbLine
10
50.915035
20
-27.348329
30
0
11
50.930569
21
-27.368752
31
0
39
0
210
0
220
0
230
1
0
LINE
5
B6
100
AcDbEntity
8
1
62
256
6
ByLayer
370
18
48
1
60
0
100
AcDbLine
10
57.318939
20
-14.494825
30
0
11
58.014595
21
-16.045858
31
0
39
0
210
0
220
0
230
1
0
LINE
5
B7
100
AcDbEntity
8
1
62
256
6
ByLayer
370
18
48
1
60
0
100
AcDbLine
10
44.344084
20
-20.645677
30
0
11
45.03974
21
-22.19671
31
0
39
0
210
0
220
0
230
1
0
LINE
5
B8
100
AcDbEntity
8
1
62
256
6
ByLayer
370
18
48
1
60
0
100
AcDbLine
10
41.282466
20
-14.234384
30
0
11
45.03974
21
-22.19671
31
0
39
0
210
0
220
0
230
1
0
LINE
5
B9
100
AcDbEntity
8
1
62
256
6
ByLayer
370
18
48
1
60
0
100
AcDbLine
10
40.845191
20
-6.356606
30
0
11
41.622726
21
-7.827809
31
0
39
0
210
0
220
0
230
1
0
LINE
5
BA
100
AcDbEntity
8
1
62
256
6
ByLayer
370
18
48
1
60
0
100
AcDbLine
10
44.02021
20
-9.147325
30
0
11
44.495926
21
-10.126471
31
0
39
0
210
0
220
0
230
1
0
LINE
5
BB
100
AcDbEntity
8
1
62
256
6
ByLayer
370
18
48
1
60
0
100
AcDbLine
10
52.453534
20
-5.86414
30
0
11
56.523351
21
-14.4888
31
0
39
0
210
0
220
0
230
1
0
LINE
5
BC
100
AcDbEntity
8
1
62
256
6
ByLayer
370
18
48
1
60
0
100
AcDbLine
10
44.02021
20
-9.147325
30
0
11
48.718625
21
-6.919997
31
0
39
0
210
0
220
0
230
1
0
LINE
5
BD
100
AcDbEntity
8
1
62
256
6
ByLayer
370
18
48
1
60
0
100
AcDbLine
10
50.621936
20
-7.222379
30
0
11
49.194341
21
-7.899144
31
0
39
0
210
0
220
0
230
1
0
LINE
5
BE
100
AcDbEntity
8
1
62
256
6
ByLayer
370
18
48
1
60
0
100
AcDbLine
10
40.821346
20
-11.378488
30
0
11
44.891164
21
-20.003147
31
0
39
0
210
0
220
0
230
1
0
LINE
5
BF
100
AcDbEntity
8
1
62
256
6
ByLayer
370
18
48
1
60
0
100
AcDbLine
10
50.621936
20
-7.222379
30
0
11
49.176333
21
-4.246951
31
0
39
0
210
0
220
0
230
1
0
LINE
5
C0
100
AcDbEntity
8
1
62
256
6
ByLayer
370
18
48
1
60
0
100
AcDbLine
10
58.303301
20
-23.845852
30
0
11
58.20906
21
-22.783417
31
0
39
0
210
0
220
0
230
1
0
LINE
5
C1
100
AcDbEntity
8
1
62
256
6
ByLayer
370
18
48
1
60
0
100
AcDbLine
10
53.297545
20
-12.936127
30
0
11
53.037448
21
-12.443989
31
0
39
0
210
0
220
0
230
1
0
LINE
5
C2
100
AcDbEntity
8
1
62
256
6
ByLayer
370
18
48
1
60
0
100
AcDbLine
10
58.014595
20
-16.045858
30
0
11
58.563176
21
-22.230384
31
0
39
0
210
0
220
0
230
1
0
LINE
5
C3
100
AcDbEntity
8
1
62
256
6
ByLayer
370
18
48
1
60
0
100
AcDbLine
10
48.398797
20
-2.775748
30
0
11
40.845191
21
-6.356606
31
0
39
0
210
0
220
0
230
1
0
LINE
5
C4
100
AcDbEntity
8
1
62
256
6
ByLayer
370
18
48
1
60
0
100
AcDbLine
10
45.798151
20
-16.491285
30
0
11
46.665277
21
-18.328878
31
0
39
0
210
0
220
0
230
1
0
LINE
5
C5
100
AcDbEntity
8
1
62
256
6
ByLayer
370
18
48
1
60
0
100
AcDbLine
10
40.356477
20
-12.191189
30
0
11
44.07281
21
-20.066754
31
0
39
0
210
0
220
0
230
1
0
LINE
5
C6
100
AcDbEntity
8
1
62
256
6
ByLayer
370
18
48
1
60
0
100
AcDbLine
10
48.398797
20
-2.775748
30
0
11
49.176333
21
-4.246951
31
0
39
0
210
0
220
0
230
1
0
LINE
5
C7
100
AcDbEntity
8
1
62
256
6
ByLayer
370
18
48
1
60
0
100
AcDbLine
10
40.25009
20
-12.119439
30
0
11
41.282466
21
-14.234384
31
0
39
0
210
0
220
0
230
1
0
LINE
5
C8
100
AcDbEntity
8
1
62
256
6
ByLayer
370
18
48
1
60
0
100
AcDbLine
10
44.495926
20
-10.126471
30
0
11
43.06833
21
-10.803236
31
0
39
0
210
0
220
0
230
1
0
LINE
5
C9
100
AcDbEntity
8
1
62
256
6
ByLayer
370
18
48
1
60
0
100
AcDbLine
10
43.06833
20
-10.803236
30
0
11
41.622726
21
-7.827809
31
0
39
0
210
0
220
0
230
1
0
LINE
5
CA
100
AcDbEntity
8
1
62
256
6
ByLayer
370
18
48
1
60
0
100
AcDbLine
10
49.176333
20
-4.246951
30
0
11
41.622726
21
-7.827809
31
0
39
0
210
0
220
0
230
1
0
LINE
5
CB
100
AcDbEntity
8
1
62
256
6
ByLayer
370
18
48
1
60
0
100
AcDbLine
10
50.155431
20
-26.601316
30
0
11
50.915035
21
-27.348329
31
0
39
0
210
0
220
0
230
1
0
LINE
5
CC
100
AcDbEntity
8
1
62
256
6
ByLayer
370
18
48
1
60
0
100
AcDbLine
10
49.461465
20
-26.545135
30
0
11
45.03974
21
-22.19671
31
0
39
0
210
0
220
0
230
1
0
LINE
5
CD
100
AcDbEntity
8
1
62
256
6
ByLayer
370
18
48
1
60
0
100
AcDbLine
10
57.047665
20
-13.915902
30
0
11
53.331332
21
-6.040338
31
0
39
0
210
0
220
0
230
1
0
LINE
5
CE
100
AcDbEntity
8
1
62
256
6
ByLayer
370
18
48
1
60
0
100
AcDbLine
10
40.356477
20
-12.191189
30
0
11
40.020958
21
-11.500605
31
0
39
0
210
0
220
0
230
1
0
LINE
5
CF
100
AcDbEntity
8
1
62
256
6
ByLayer
370
18
48
1
60
0
100
AcDbLine
10
54.164671
20
-14.77372
30
0
11
53.900089
21
-14.273096
31
0
39
0
210
0
220
0
230
1
0
LINE
5
D0
100
AcDbEntity
8
1
62
256
6
ByLayer
370
18
48
1
60
0
100
AcDbLine
10
58.308846
20
-23.871011
30
0
11
58.303301
21
-23.845852
31
0
39
0
210
0
220
0
230
1
0
LINE
5
D1
100
AcDbEntity
8
1
62
256
6
ByLayer
370
18
48
1
60
0
100
AcDbLine
10
49.482154
20
-16.666252
30
0
11
49.647557
21
-16.952738
31
0
39
0
210
0
220
0
230
1
0
LINE
5
D2
100
AcDbEntity
8
1
62
256
6
ByLayer
370
18
48
1
60
0
100
AcDbLine
10
50.819103
20
-16.39513
30
0
11
50.984506
21
-16.681616
31
0
39
0
210
0
220
0
230
1
0
LINE
5
D3
100
AcDbEntity
8
1
62
256
6
ByLayer
370
18
48
1
60
0
100
AcDbLine
10
50.140467
20
-16.716844
30
0
11
50.30587
21
-17.00333
31
0
39
0
210
0
220
0
230
1
0
LINE
5
D4
100
AcDbEntity
8
1
62
256
6
ByLayer
370
18
48
1
60
0
100
AcDbLine
10
48.588541
20
-15.65246
30
0
11
48.753944
21
-15.938945
31
0
39
0
210
0
220
0
230
1
0
LINE
5
D5
100
AcDbEntity
8
1
62
256
6
ByLayer
370
18
48
1
60
0
100
AcDbLine
10
50.982733
20
-14.517471
30
0
11
51.148136
21
-14.803956
31
0
39
0
210
0
220
0
230
1
0
LINE
5
D6
100
AcDbEntity
8
1
62
256
6
ByLayer
370
18
48
1
60
0
100
AcDbLine
10
51.19771
20
-15.852976
30
0
11
51.363113
21
-16.139462
31
0
39
0
210
0
220
0
230
1
0
LINE
5
D7
100
AcDbEntity
8
1
62
256
6
ByLayer
370
18
48
1
60
0
100
AcDbLine
10
51.144073
20
-28.404921
30
0
11
51.143957
21
-28.24965
31
0
39
0
210
0
220
0
230
1
0
LINE
5
D8
100
AcDbEntity
8
1
62
256
6
ByLayer
370
18
48
1
60
0
100
AcDbLine
10
51.71007
20
-29.604367
30
0
11
51.144073
21
-28.404921
31
0
39
0
210
0
220
0
230
1
0
LINE
5
D9
100
AcDbEntity
8
1
62
256
6
ByLayer
370
18
48
1
60
0
100
AcDbLine
10
53.674938
20
-31.223062
30
0
11
51.71007
21
-29.604367
31
0
39
0
210
0
220
0
230
1
0
LINE
5
DA
100
AcDbEntity
8
1
62
256
6
ByLayer
370
18
48
1
60
0
100
AcDbLine
10
52.841503
20
-31.48825
30
0
11
50.722238
21
-29.742361
31
0
39
0
210
0
220
0
230
1
0
LINE
5
DB
100
AcDbEntity
8
1
62
256
6
ByLayer
370
18
48
1
60
0
100
AcDbLine
10
59.537389
20
-28.77001
30
0
11
58.792576
21
-30.062197
31
0
39
0
210
0
220
0
230
1
0
LINE
5
DC
100
AcDbEntity
8
1
62
256
6
ByLayer
370
18
48
1
60
0
100
AcDbLine
10
53.94191
20
-31.422599
30
0
11
55.410993
21
-31.665268
31
0
39
0
210
0
220
0
230
1
0
LINE
5
DD
100
AcDbEntity
8
1
62
256
6
ByLayer
370
18
48
1
60
0
100
AcDbLine
10
58.86528
20
-24.589285
30
0
11
59.05899
21
-27.699166
31
0
39
0
210
0
220
0
230
1
0
LINE
5
DE
100
AcDbEntity
8
1
62
256
6
ByLayer
370
18
48
1
60
0
100
AcDbLine
10
58.993006
20
-23.288711
30
0
11
59.472905
21
-23.68406
31
0
39
0
210
0
220
0
230
1
0
LINE
5
DF
100
AcDbEntity
8
1
62
256
6
ByLayer
370
18
48
1
60
0
100
AcDbLine
10
51.143957
20
-28.24965
30
0
11
53.419526
21
-30.372607
31
0
39
0
210
0
220
0
230
1
0
LINE
5
E0
100
AcDbEntity
8
1
62
256
6
ByLayer
370
18
48
1
60
0
100
AcDbLine
10
59.472905
20
-23.68406
30
0
11
58.984957
21
-24.687877
31
0
39
0
210
0
220
0
230
1
0
LINE
5
E1
100
AcDbEntity
8
1
62
256
6
ByLayer
370
18
48
1
60
0
100
AcDbLine
10
60.211482
20
-27.994442
30
0
11
60.209423
21
-25.244872
31
0
39
0
210
0
220
0
230
1
0
LINE
5
E2
100
AcDbEntity
8
1
62
256
6
ByLayer
370
18
48
1
60
0
100
AcDbLine
10
50.722238
20
-29.742361
30
0
11
49.98572
21
-28.181549
31
0
39
0
210
0
220
0
230
1
0
LINE
5
E3
100
AcDbEntity
8
1
62
256
6
ByLayer
370
18
48
1
60
0
100
AcDbLine
10
59.550953
20
-25.887323
30
0
11
60.209423
21
-25.244872
31
0
39
0
210
0
220
0
230
1
0
LINE
5
E4
100
AcDbEntity
8
1
62
256
6
ByLayer
370
18
48
1
60
0
100
AcDbLine
10
58.984957
20
-24.687877
30
0
11
58.86528
21
-24.589285
31
0
39
0
210
0
220
0
230
1
0
LINE
5
E5
100
AcDbEntity
8
1
62
256
6
ByLayer
370
18
48
1
60
0
100
AcDbLine
10
59.550953
20
-25.887323
30
0
11
58.984957
21
-24.687877
31
0
39
0
210
0
220
0
230
1
0
LINE
5
E6
100
AcDbEntity
8
1
62
256
6
ByLayer
370
18
48
1
60
0
100
AcDbLine
10
58.684605
20
-24.334439
30
0
11
58.993006
21
-23.288711
31
0
39
0
210
0
220
0
230
1
0
LINE
5
E7
100
AcDbEntity
8
1
62
256
6
ByLayer
370
18
48
1
60
0
100
AcDbLine
10
51.144073
20
-28.404921
30
0
11
49.98572
21
-28.181549
31
0
39
0
210
0
220
0
230
1
0
LINE
5
E8
100
AcDbEntity
8
1
62
256
6
ByLayer
370
18
48
1
60
0
100
AcDbLine
10
53.674938
20
-31.223062
30
0
11
52.841503
21
-31.48825
31
0
39
0
210
0
220
0
230
1
0
LINE
5
E9
100
AcDbEntity
8
1
62
256
6
ByLayer
370
18
48
1
60
0
100
AcDbLine
10
51.056401
20
-27.950661
30
0
11
49.985253
21
-27.55892
31
0
39
0
210
0
220
0
230
1
0
LINE
5
EA
100
AcDbEntity
8
1
62
256
6
ByLayer
370
18
48
1
60
0
100
AcDbLine
10
58.684605
20
-24.334439
30
0
11
58.86528
21
-24.589285
31
0
39
0
210
0
220
0
230
1
0
LINE
5
EB
100
AcDbEntity
8
1
62
256
6
ByLayer
370
18
48
1
60
0
100
AcDbLine
10
58.792576
20
-30.062197
30
0
11
59.611899
21
-30.232116
31
0
39
0
210
0
220
0
230
1
0
LINE
5
EC
100
AcDbEntity
8
1
62
256
6
ByLayer
370
18
48
1
60
0
100
AcDbLine
10
59.552862
20
-28.436577
30
0
11
60.211482
21
-27.994442
31
0
39
0
210
0
220
0
230
1
0
LINE
5
ED
100
AcDbEntity
8
1
62
256
6
ByLayer
370
18
48
1
60
0
100
AcDbLine
10
51.71007
20
-29.604367
30
0
11
50.722238
21
-29.742361
31
0
39
0
210
0
220
0
230
1
0
LINE
5
EE
100
AcDbEntity
8
1
62
256
6
ByLayer
370
18
48
1
60
0
100
AcDbLine
10
51.143957
20
-28.24965
30
0
11
51.056401
21
-27.950661
31
0
39
0
210
0
220
0
230
1
0
LINE
5
EF
100
AcDbEntity
8
1
62
256
6
ByLayer
370
18
48
1
60
0
100
AcDbLine
10
55.410993
20
-31.665268
30
0
11
54.947649
21
-32.443248
31
0
39
0
210
0
220
0
230
1
0
LINE
5
F0
100
AcDbEntity
8
1
62
256
6
ByLayer
370
18
48
1
60
0
100
AcDbLine
10
49.985253
20
-27.55892
30
0
11
49.98572
21
-28.181549
31
0
39
0
210
0
220
0
230
1
0
LINE
5
F1
100
AcDbEntity
8
1
62
256
6
ByLayer
370
18
48
1
60
0
100
AcDbLine
10
60.209423
20
-25.244872
30
0
11
59.472905
21
-23.68406
31
0
39
0
210
0
220
0
230
1
0
LINE
5
F2
100
AcDbEntity
8
1
62
256
6
ByLayer
370
18
48
1
60
0
100
AcDbLine
10
59.552862
20
-28.436577
30
0
11
59.550953
21
-25.887323
31
0
39
0
210
0
220
0
230
1
0
LINE
5
F3
100
AcDbEntity
8
1
62
256
6
ByLayer
370
18
48
1
60
0
100
AcDbLine
10
22.089177
20
-27.039808
30
0
11
47.242251
21
-31.262597
31
0
39
0
210
0
220
0
230
1
0
LINE
5
F4
100
AcDbEntity
8
1
62
256
6
ByLayer
370
18
48
1
60
0
100
AcDbLine
10
8.538675
20
23.83913
30
0
11
8.538675
21
7.529667
31
0
39
0
210
0
220
0
230
1
0
LINE
5
F5
100
AcDbEntity
8
1
62
256
6
ByLayer
370
18
48
1
60
0
100
AcDbLine
10
37.807573
20
-5.509679
30
0
11
49.4546
21
0.139389
31
0
39
0
210
0
220
0
230
1
0
LINE
5
F6
100
AcDbEntity
8
1
62
256
6
ByLayer
370
18
48
1
60
0
100
AcDbLine
10
8.105662
20
-8.055848
30
0
11
8.105662
21
-18.05553
31
0
39
0
210
0
220
0
230
1
0
LINE
5
F7
100
AcDbEntity
8
1
62
256
6
ByLayer
370
18
48
1
60
0
100
AcDbLine
10
11.461325
20
-23.83913
30
0
11
8.538675
21
-23.83913
31
0
39
0
210
0
220
0
230
1
0
LINE
5
F8
100
AcDbEntity
8
1
62
256
6
ByLayer
370
18
48
1
60
0
100
AcDbLine
10
61.439938
20
-19.19256
30
0
11
61.439938
21
-22.353818
31
0
39
0
210
0
220
0
230
1
0
LINE
5
F9
100
AcDbEntity
8
1
62
256
6
ByLayer
370
18
48
1
60
0
100
AcDbLine
10
41.361698
20
13.440198
30
0
11
39.904996
21
15.776537
31
0
39
0
210
0
220
0
230
1
0
LINE
5
FA
100
AcDbEntity
8
1
62
256
6
ByLayer
370
18
48
1
60
0
100
AcDbLine
10
61.439938
20
-19.19256
30
0
11
54.379772
21
-7.807096
31
0
39
0
210
0
220
0
230
1
0
LINE
5
FB
100
AcDbEntity
8
1
62
256
6
ByLayer
370
18
48
1
60
0
100
AcDbLine
10
34.279804
20
24.647972
30
0
11
49.4546
21
0.139389
31
0
39
0
210
0
220
0
230
1
0
LINE
5
FC
100
AcDbEntity
8
1
62
256
6
ByLayer
370
18
48
1
60
0
100
AcDbLine
10
39.545576
20
-14.839386
30
0
11
39.225158
21
-14.178761
31
0
39
0
210
0
220
0
230
1
0
LINE
5
FD
100
AcDbEntity
8
1
62
256
6
ByLayer
370
18
48
1
60
0
100
AcDbLine
10
61.439938
20
-19.19256
30
0
11
61.439938
21
-19.041503
31
0
39
0
210
0
220
0
230
1
0
LINE
5
FE
100
AcDbEntity
8
1
62
256
6
ByLayer
370
18
48
1
60
0
100
AcDbLine
10
8.105662
20
-18.975321
30
0
11
8.105662
21
-23.666502
31
0
39
0
210
0
220
0
230
1
0
LINE
5
FF
100
AcDbEntity
8
1
62
256
6
ByLayer
370
18
48
1
60
0
100
AcDbLine
10
34.279804
20
24.647972
30
0
11
21.415098
21
24.647972
31
0
39
0
210
0
220
0
230
1
0
LINE
5
100
100
AcDbEntity
8
1
62
256
6
ByLayer
370
18
48
1
60
0
100
AcDbLine
10
8.538675
20
23.83913
30
0
11
11.461325
21
23.83913
31
0
39
0
210
0
220
0
230
1
0
LINE
5
101
100
AcDbEntity
8
1
62
256
6
ByLayer
370
18
48
1
60
0
100
AcDbLine
10
61.439938
20
-22.465349
30
0
11
61.439938
21
-22.353818
31
0
39
0
210
0
220
0
230
1
0
LINE
5
102
100
AcDbEntity
8
1
62
256
6
ByLayer
370
18
48
1
60
0
100
AcDbLine
10
11.894338
20
-8.055848
30
0
11
11.894338
21
-18.05553
31
0
39
0
210
0
220
0
230
1
0
LINE
5
103
100
AcDbEntity
8
1
62
256
6
ByLayer
370
18
48
1
60
0
100
AcDbLine
10
49.4546
20
0.139389
30
0
11
50.686946
21
-1.823953
31
0
39
0
210
0
220
0
230
1
0
LINE
5
104
100
AcDbEntity
8
1
62
256
6
ByLayer
370
18
48
1
60
0
100
AcDbLine
10
11.461325
20
-19.288031
30
0
11
11.461325
21
-23.83913
31
0
39
0
210
0
220
0
230
1
0
LINE
5
105
100
AcDbEntity
8
1
62
256
6
ByLayer
370
18
48
1
60
0
100
AcDbLine
10
8.538675
20
-7.529667
30
0
11
8.538675
21
-17.330102
31
0
39
0
210
0
220
0
230
1
0
LINE
5
106
100
AcDbEntity
8
1
62
256
6
ByLayer
370
18
48
1
60
0
100
AcDbLine
10
8.538675
20
-19.288031
30
0
11
8.538675
21
-23.83913
31
0
39
0
210
0
220
0
230
1
0
LINE
5
107
100
AcDbEntity
8
1
62
256
6
ByLayer
370
18
48
1
60
0
100
AcDbLine
10
8.105662
20
23.666502
30
0
11
8.105662
21
8.055848
31
0
39
0
210
0
220
0
230
1
0
LINE
5
108
100
AcDbEntity
8
1
62
256
6
ByLayer
370
18
48
1
60
0
100
AcDbLine
10
11.461325
20
7.529667
30
0
11
8.538675
21
7.529667
31
0
39
0
210
0
220
0
230
1
0
LINE
5
109
100
AcDbEntity
8
1
62
256
6
ByLayer
370
18
48
1
60
0
100
AcDbLine
10
11.461325
20
-7.529667
30
0
11
11.461325
21
-17.330102
31
0
39
0
210
0
220
0
230
1
0
LINE
5
10A
100
AcDbEntity
8
1
62
256
6
ByLayer
370
18
48
1
60
0
100
AcDbLine
10
11.894338
20
-18.975321
30
0
11
11.894338
21
-23.666502
31
0
39
0
210
0
220
0
230
1
0
LINE
5
10B
100
AcDbEntity
8
1
62
256
6
ByLayer
370
18
48
1
60
0
100
AcDbLine
10
17.430319
20
-23.455355
30
0
11
17.430319
21
-20.661535
31
0
39
0
210
0
220
0
230
1
0
LINE
5
10C
100
AcDbEntity
8
1
62
256
6
ByLayer
370
18
48
1
60
0
100
AcDbLine
10
53.870835
20
-6.701374
30
0
11
57.223352
21
-12.115973
31
0
39
0
210
0
220
0
230
1
0
LINE
5
10D
100
AcDbEntity
8
1
62
256
6
ByLayer
370
18
48
1
60
0
100
AcDbLine
10
11.461325
20
23.83913
30
0
11
11.461325
21
7.529667
31
0
39
0
210
0
220
0
230
1
0
LINE
5
10E
100
AcDbEntity
8
1
62
256
6
ByLayer
370
18
48
1
60
0
100
AcDbLine
10
61.439938
20
-22.465349
30
0
11
60.138718
21
-22.131882
31
0
39
0
210
0
220
0
230
1
0
LINE
5
10F
100
AcDbEntity
8
1
62
256
6
ByLayer
370
18
48
1
60
0
100
AcDbLine
10
8.538675
20
-7.529667
30
0
11
11.461325
21
-7.529667
31
0
39
0
210
0
220
0
230
1
0
LINE
5
110
100
AcDbEntity
8
1
62
256
6
ByLayer
370
18
48
1
60
0
100
AcDbLine
10
11.894338
20
23.666502
30
0
11
11.894338
21
8.055848
31
0
39
0
210
0
220
0
230
1
0
LINE
5
111
100
AcDbEntity
8
SK1
62
256
6
ByLayer
370
18
48
1
60
0
100
AcDbLine
10
-1.307107
20
3.918065
30
0
11
-1.307107
21
-3.918065
31
0
39
0
210
0
220
0
230
1
0
LINE
5
112
100
AcDbEntity
8
1
62
256
6
ByLayer
370
18
48
1
60
0
100
AcDbLine
10
48.482402
20
-32.231317
30
0
11
59.189344
21
-34.975214
31
0
39
0
210
0
220
0
230
1
0
LINE
5
113
100
AcDbEntity
8
1
62
256
6
ByLayer
370
18
48
1
60
0
100
AcDbLine
10
60.158438
20
-34.408703
30
0
11
63.018808
21
-23.733654
31
0
39
0
210
0
220
0
230
1
0
LINE
5
114
100
AcDbEntity
8
1
62
256
6
ByLayer
370
18
48
1
60
0
100
AcDbLine
10
61.874652
20
-21.764181
30
0
11
62.458339
21
-22.775157
31
0
39
0
210
0
220
0
230
1
0
MTEXT
5
1ED
100
AcDbEntity
8
SK6
62
256
6
ByLayer
370
18
48
1
60
0
100
AcDbMText
10
-1.625
20
34.2
30
0
210
0
220
0
230
1
1
\W0.7310;C5-CSKNL-35060-12-4
40
3.5
41
0
44
1.084337
50
0
71
7
72
5
7
iso_b_vert
0
DIMENSION
5
1FE
100
AcDbEntity
8
2
62
256
6
ByLayer
370
13
48
1
60
0
100
AcDbDimension
2
DimnDraft3D1
10
61.190568
20
-30.556741
30
0
11
80.195479
21
-19.503464
31
0
70
34
71
5
72
1
41
1
210
0
220
0
230
1
3
Standard
100
AcDb2LineAngularDimension
13
58.4125
23
-35
33
0
14
60
24
-35
34
0
15
60
25
-35
35
0
16
76.625389
26
-22.24289
36
0
40
0
0
DIMENSION
5
213
100
AcDbEntity
8
2
62
256
6
ByLayer
370
13
48
1
60
0
100
AcDbDimension
2
DimnDraft3D2
10
60
20
-50.25
30
0
11
24.718421
21
-50.25
31
0
70
32
71
5
72
1
41
1
210
0
220
0
230
1
3
Standard
100
AcDbAlignedDimension
13
0
23
-27
33
0
14
60
24
-37
34
0
50
0
100
AcDbRotatedDimension
1001
ACAD
1000
DSTYLE
1002
{
1070
   279
1070
     0
1070
   172
1070
     1
1070
   173
1070
     1
1070
   340
1005
1EE
1070
    77
1070
     1
1070
    73
1070
     0
1070
   171
1070
     3
1070
   274
1070
     4
1070
   177
1070
     2
1070
   176
1070
     2
1070
   178
1070
     7
1070
    78
1070
     8
1070
    41
1041
3.175
1070
   147
1041
2.25
1070
    42
1041
2.0
1070
    44
1041
2.0
1070
   140
1041
4.5
1070
   343
1005
1FF
1070
   344
1005
1FF
1002
}
0
DIMENSION
5
222
100
AcDbEntity
8
SK2
62
256
6
ByLayer
370
13
48
1
60
0
100
AcDbDimension
2
DimnDraft3D3
10
-37.75
20
25
30
0
11
-37.75
21
-2.688158
31
0
70
32
71
5
72
1
41
1
210
0
220
0
230
1
3
Standard
100
AcDbAlignedDimension
13
-2
23
-25
33
0
14
-2
24
25
34
0
50
90
100
AcDbRotatedDimension
1001
ACAD
1000
DSTYLE
1002
{
1070
    74
1070
     0
1070
   279
1070
     0
1070
   172
1070
     1
1070
   173
1070
     1
1070
   340
1005
1EE
1070
    77
1070
     1
1070
    73
1070
     0
1070
   171
1070
     3
1070
   274
1070
     4
1070
   177
1070
     2
1070
   176
1070
     2
1070
   178
1070
     7
1070
    78
1070
     8
1070
    41
1041
3.175
1070
   147
1041
2.25
1070
    42
1041
2.0
1070
    44
1041
2.0
1070
   140
1041
4.5
1070
   343
1005
1FF
1070
   344
1005
1FF
1002
}
0
DIMENSION
5
230
100
AcDbEntity
8
2
62
256
6
ByLayer
370
13
48
1
60
0
100
AcDbDimension
2
DimnDraft3D4
10
100.25
20
-35
30
0
11
100.25
21
-22.781579
31
0
70
32
71
5
72
1
41
1
210
0
220
0
230
1
3
Standard
100
AcDbAlignedDimension
13
62
23
0
33
0
14
62
24
-35
34
0
50
90
100
AcDbRotatedDimension
1001
ACAD
1000
DSTYLE
1002
{
1070
    74
1070
     0
1070
   279
1070
     0
1070
   172
1070
     1
1070
   173
1070
     1
1070
   340
1005
1EE
1070
    77
1070
     1
1070
    73
1070
     0
1070
   171
1070
     3
1070
   274
1070
     4
1070
   177
1070
     2
1070
   176
1070
     2
1070
   178
1070
     7
1070
    78
1070
     8
1070
    41
1041
3.175
1070
   147
1041
2.25
1070
    42
1041
2.0
1070
    44
1041
2.0
1070
   140
1041
4.5
1070
   343
1005
1FF
1070
   344
1005
1FF
1002
}
0
ENDSEC
0
SECTION
2
OBJECTS
0
DICTIONARY
5
29b
330
0
100
AcDbDictionary
280
0
281
1
3
ACAD_GROUP
350
29c
3
ACAD_MLINESTYLE
350
29d
0
DICTIONARY
5
29c
330
0
100
AcDbDictionary
280
0
281
1
0
DICTIONARY
5
29d
330
0
100
AcDbDictionary
280
0
281
1
3
Standard
350
18
0
MLINESTYLE
5
18
330
29d
100
AcDbMlineStyle
2
Standard
70
0
3

62
256
51
90
52
90
71
2
49
-0.5
62
256
6
ByLayer
49
0.5
62
256
6
ByLayer
0
RASTERVARIABLES
5
289
330

100
AcDbRasterVariables
90
0
70
1
71
1
72
1
0
ENDSEC
0
EOF
