0
SECTION
2
HEADER
9
$ACADVER
1
AC1015
9
$DWGCODEPAGE
3
ANSI_1252
9
$HANDSEED
5
23f
9
$ANGBASE
50
0
9
$ANGDIR
70
0
9
$ATTMODE
70
1
9
$AUNITS
70
0
9
$AUPREC
70
0
9
$CECOLOR
62
256
9
$CELTSCALE
40
1
9
$CELTYPE
6
ByLayer
9
$CELWEIGHT
370
18
9
$CLAYER
8
0
9
$CMLJUST
70
0
9
$CMLSCALE
40
1
9
$CMLSTYLE
2
Standard
9
$DIMSTYLE
2
Standard
9
$TEXTSIZE
40
0.2
9
$TEXTSTYLE
7
Standard
9
$LUNITS
70
2
9
$LUPREC
70
4
9
$EXTNAMES
290
1
9
$INSUNITS
70
4
9
$LTSCALE
40
1
9
$LWDISPLAY
290
1
9
$PDMODE
70
0
9
$PDSIZE
40
0
9
$PLINEGEN
70
0
0
ENDSEC
0
SECTION
2
CLASSES
0
CLASS
1
RASTERVARIABLES
2
AcDbRasterVariables
3
ISM
90
0
280
0
281
0
0
ENDSEC
0
SECTION
2
TABLES
0
TABLE
2
VPORT
5
235
100
AcDbSymbolTable
0
VPORT
5
1
100
AcDbSymbolTableRecord
100
AcDbViewportTableRecord
2
*Active
70
0
10
0
20
0
11
1
21
1
12
-1
22
1
13
0
23
0
14
0.5
24
0.5
15
10
25
10
16
0
26
0
36
1
17
0
27
0
37
0
0
ENDTAB
0
TABLE
2
LTYPE
5
236
100
AcDbSymbolTable
0
LTYPE
5
14
100
AcDbSymbolTableRecord
100
AcDbLinetypeTableRecord
70
0
2
ByBlock
3

72
65
73
0
40
0
0
LTYPE
5
15
100
AcDbSymbolTableRecord
100
AcDbLinetypeTableRecord
70
0
2
ByLayer
3

72
65
73
0
40
0
0
LTYPE
5
16
100
AcDbSymbolTableRecord
100
AcDbLinetypeTableRecord
70
0
2
CONTINUOUS
3
Solid line
72
65
73
0
40
0
0
LTYPE
5
6A
100
AcDbSymbolTableRecord
100
AcDbLinetypeTableRecord
70
0
2
CENTER
3
____ _ ____ _ ____ _ ____
72
65
73
4
40
47.5
49
22
74
0
49
-8.5
74
0
49
8.5
74
0
49
-8.5
74
0
0
LTYPE
5
6B
100
AcDbSymbolTableRecord
100
AcDbLinetypeTableRecord
70
0
2
DASHED
3
__ __ __ __ __ __ __ __ __
72
65
73
2
40
25.72
49
12.86
74
0
49
-12.86
74
0
0
ENDTAB
0
TABLE
2
LAYER
5
237
100
AcDbSymbolTable
0
LAYER
5
10
100
AcDbSymbolTableRecord
100
AcDbLayerTableRecord
2
0
70
0
62
7
6
CONTINUOUS
290
1
370
-3
390
0
0
LAYER
5
6D
100
AcDbSymbolTableRecord
100
AcDbLayerTableRecord
2
80
70
0
62
-6
6
CONTINUOUS
290
1
370
-3
390
0
0
LAYER
5
6F
100
AcDbSymbolTableRecord
100
AcDbLayerTableRecord
2
81
70
0
62
-3
6
CONTINUOUS
290
1
370
-3
390
0
0
LAYER
5
71
100
AcDbSymbolTableRecord
100
AcDbLayerTableRecord
2
1
70
0
62
4
6
CONTINUOUS
290
1
370
-3
390
0
0
LAYER
5
1A0
100
AcDbSymbolTableRecord
100
AcDbLayerTableRecord
2
2
70
0
62
7
6
CONTINUOUS
290
1
370
-3
390
0
0
LAYER
5
222
100
AcDbSymbolTableRecord
100
AcDbLayerTableRecord
2
SK1
70
0
62
4
6
CONTINUOUS
290
1
370
-3
390
0
0
LAYER
5
223
100
AcDbSymbolTableRecord
100
AcDbLayerTableRecord
2
SK6
70
0
62
5
6
CONTINUOUS
290
1
370
-3
390
0
0
LAYER
5
224
100
AcDbSymbolTableRecord
100
AcDbLayerTableRecord
2
SK2
70
0
62
7
6
CONTINUOUS
290
1
370
-3
390
0
0
ENDTAB
0
TABLE
2
STYLE
5
238
100
AcDbSymbolTable
0
STYLE
5
11
100
AcDbSymbolTableRecord
100
AcDbTextStyleTableRecord
2
Standard
3
txt
70
0
71
0
40
0
41
1
42
0
50
0
0
STYLE
5
185
100
AcDbSymbolTableRecord
100
AcDbTextStyleTableRecord
2
iso_b_vert
3
simplex.shx
70
0
71
0
40
0
41
1
42
0
50
0
0
STYLE
5
186
100
AcDbSymbolTableRecord
100
AcDbTextStyleTableRecord
2
DWGDirectTextStyle
3
simplex
70
0
71
0
40
0
41
1
42
0
50
0
0
ENDTAB
0
TABLE
2
DIMSTYLE
5
239
100
AcDbSymbolTable
100
AcDbDimStyleTable
0
DIMSTYLE
105
27
100
AcDbSymbolTableRecord
100
AcDbDimStyleTableRecord
2
Standard
70
0
3
<>
41
0.18
42
0.0625
44
0.18
140
0.18
147
0.09
73
0
74
0
77
1
271
2
275
0
278
52
280
0
340
11
0
ENDTAB
0
TABLE
2
VIEW
5
23a
100
AcDbSymbolTable
0
ENDTAB
0
TABLE
2
UCS
5
23b
100
AcDbSymbolTable
0
ENDTAB
0
TABLE
2
APPID
5
23c
100
AcDbSymbolTable
0
APPID
5
12
100
AcDbSymbolTableRecord
100
AcDbRegAppTableRecord
2
ACAD
70
0
0
ENDTAB
0
TABLE
2
BLOCK_RECORD
5
23d
100
AcDbSymbolTable
0
BLOCK_RECORD
5
1F
100
AcDbSymbolTableRecord
100
AcDbBlockTableRecord
2
*Model_Space
340
0
70
0
0
BLOCK_RECORD
5
1B
100
AcDbSymbolTableRecord
100
AcDbBlockTableRecord
2
*Paper_Space
340
0
70
0
0
BLOCK_RECORD
5
23
100
AcDbSymbolTableRecord
100
AcDbBlockTableRecord
2
*Paper_Space0
340
0
70
0
0
BLOCK_RECORD
5
188
100
AcDbSymbolTableRecord
100
AcDbBlockTableRecord
2
DimnDraft3D1
340
0
70
0
0
BLOCK_RECORD
5
197
100
AcDbSymbolTableRecord
100
AcDbBlockTableRecord
2
_CLOSED
340
0
70
0
0
BLOCK_RECORD
5
19E
100
AcDbSymbolTableRecord
100
AcDbBlockTableRecord
2
DimnDraft3D2
340
0
70
0
0
BLOCK_RECORD
5
1AD
100
AcDbSymbolTableRecord
100
AcDbBlockTableRecord
2
DimnDraft3D3
340
0
70
0
0
BLOCK_RECORD
5
1BB
100
AcDbSymbolTableRecord
100
AcDbBlockTableRecord
2
DimnDraft3D4
340
0
70
0
0
ENDTAB
0
ENDSEC
0
SECTION
2
BLOCKS
0
BLOCK
5
20
100
AcDbEntity
8
0
100
AcDbBlockBegin
2
*Model_Space
70
0
10
0
20
0
30
0
3
*Model_Space
0
ENDBLK
5
21
100
AcDbEntity
8
0
100
AcDbBlockEnd
0
BLOCK
5
1C
100
AcDbEntity
8
0
100
AcDbBlockBegin
2
*Paper_Space
70
0
10
0
20
0
30
0
3
*Paper_Space
0
ENDBLK
5
1D
100
AcDbEntity
8
0
100
AcDbBlockEnd
0
BLOCK
5
24
100
AcDbEntity
8
0
100
AcDbBlockBegin
2
*Paper_Space0
70
0
10
0
20
0
30
0
3
*Paper_Space0
0
ENDBLK
5
25
100
AcDbEntity
8
0
100
AcDbBlockEnd
0
BLOCK
5
194
100
AcDbEntity
8
0
100
AcDbBlockBegin
2
DimnDraft3D1
70
0
10
0
20
0
30
0
3
DimnDraft3D1
0
MTEXT
5
189
100
AcDbEntity
8
SK2
62
256
6
ByLayer
370
13
48
1
60
0
100
AcDbMText
10
-37.975
20
-4.156579
30
0
210
0
220
0
230
1
1
\W0.7346;50.0
40
4.5
41
0
44
1.084337
50
90
71
7
72
5
7
iso_b_vert
0
LINE
5
18B
100
AcDbEntity
8
SK2
62
256
6
ByLayer
370
13
48
1
60
0
100
AcDbLine
10
-1.5875
20
25
30
0
11
-40.025
21
25
31
0
39
0
210
0
220
0
230
1
0
LINE
5
18C
100
AcDbEntity
8
SK2
62
256
6
ByLayer
370
13
48
1
60
0
100
AcDbLine
10
-1.5875
20
-25
30
0
11
-40.025
21
-25
31
0
39
0
210
0
220
0
230
1
0
LINE
5
18D
100
AcDbEntity
8
SK2
62
256
6
ByLayer
370
13
48
1
60
0
100
AcDbLine
10
-36.85
20
25
30
0
11
-36.85
21
-25
31
0
39
0
210
0
220
0
230
1
0
LINE
5
18E
100
AcDbEntity
8
SK2
62
256
6
ByLayer
370
13
48
1
60
0
100
AcDbLine
10
-36.85
20
25
30
0
11
-35.999261
21
21.825003
31
0
39
0
210
0
220
0
230
1
0
LINE
5
18F
100
AcDbEntity
8
SK2
62
256
6
ByLayer
370
13
48
1
60
0
100
AcDbLine
10
-36.85
20
25
30
0
11
-37.700739
21
21.824997
31
0
39
0
210
0
220
0
230
1
0
LINE
5
190
100
AcDbEntity
8
SK2
62
256
6
ByLayer
370
13
48
1
60
0
100
AcDbLine
10
-35.999261
20
21.825003
30
0
11
-37.700739
21
21.824997
31
0
39
0
210
0
220
0
230
1
0
LINE
5
191
100
AcDbEntity
8
SK2
62
256
6
ByLayer
370
13
48
1
60
0
100
AcDbLine
10
-36.85
20
-25
30
0
11
-37.700739
21
-21.825003
31
0
39
0
210
0
220
0
230
1
0
LINE
5
192
100
AcDbEntity
8
SK2
62
256
6
ByLayer
370
13
48
1
60
0
100
AcDbLine
10
-36.85
20
-25
30
0
11
-35.999261
21
-21.824997
31
0
39
0
210
0
220
0
230
1
0
LINE
5
193
100
AcDbEntity
8
SK2
62
256
6
ByLayer
370
13
48
1
60
0
100
AcDbLine
10
-37.700739
20
-21.825003
30
0
11
-35.999261
21
-21.824997
31
0
39
0
210
0
220
0
230
1
0
ENDBLK
5
195
100
AcDbEntity
8
0
100
AcDbBlockEnd
0
BLOCK
5
198
100
AcDbEntity
8
0
100
AcDbBlockBegin
2
_CLOSED
70
0
10
0
20
0
30
0
3
_CLOSED
0
LINE
5
19A
100
AcDbEntity
8
0
62
256
6
ByLayer
370
-2
48
1
60
0
100
AcDbLine
10
-1
20
0.166667
30
0
11
0
21
0
31
0
39
0
210
0
220
0
230
1
0
LINE
5
19B
100
AcDbEntity
8
0
62
256
6
ByLayer
370
-2
48
1
60
0
100
AcDbLine
10
0
20
0
30
0
11
-1
21
-0.166667
31
0
39
0
210
0
220
0
230
1
0
LINE
5
19C
100
AcDbEntity
8
0
62
256
6
ByLayer
370
-2
48
1
60
0
100
AcDbLine
10
-1
20
0.166667
30
0
11
-1
21
-0.166667
31
0
39
0
210
0
220
0
230
1
0
LINE
5
19D
100
AcDbEntity
8
0
62
256
6
ByLayer
370
-2
48
1
60
0
100
AcDbLine
10
0
20
0
30
0
11
-1
21
0
31
0
39
0
210
0
220
0
230
1
0
ENDBLK
5
199
100
AcDbEntity
8
0
100
AcDbBlockEnd
0
BLOCK
5
1AA
100
AcDbEntity
8
0
100
AcDbBlockBegin
2
DimnDraft3D2
70
0
10
0
20
0
30
0
3
DimnDraft3D2
0
MTEXT
5
19F
100
AcDbEntity
8
2
62
256
6
ByLayer
370
13
48
1
60
0
100
AcDbMText
10
84.725
20
-21.656579
30
0
210
0
220
0
230
1
1
\W0.7346;35.0
40
4.5
41
0
44
1.084337
50
90
71
7
72
5
7
iso_b_vert
0
LINE
5
1A1
100
AcDbEntity
8
2
62
256
6
ByLayer
370
13
48
1
60
0
100
AcDbLine
10
61.5875
20
-35
30
0
11
89.025
21
-35
31
0
39
0
210
0
220
0
230
1
0
LINE
5
1A2
100
AcDbEntity
8
2
62
256
6
ByLayer
370
13
48
1
60
0
100
AcDbLine
10
61.5875
20
0
30
0
11
89.025
21
0
31
0
39
0
210
0
220
0
230
1
0
LINE
5
1A3
100
AcDbEntity
8
2
62
256
6
ByLayer
370
13
48
1
60
0
100
AcDbLine
10
85.85
20
-35
30
0
11
85.85
21
0
31
0
39
0
210
0
220
0
230
1
0
LINE
5
1A4
100
AcDbEntity
8
2
62
256
6
ByLayer
370
13
48
1
60
0
100
AcDbLine
10
85.85
20
-35
30
0
11
84.999261
21
-31.825003
31
0
39
0
210
0
220
0
230
1
0
LINE
5
1A5
100
AcDbEntity
8
2
62
256
6
ByLayer
370
13
48
1
60
0
100
AcDbLine
10
85.85
20
-35
30
0
11
86.700739
21
-31.824997
31
0
39
0
210
0
220
0
230
1
0
LINE
5
1A6
100
AcDbEntity
8
2
62
256
6
ByLayer
370
13
48
1
60
0
100
AcDbLine
10
84.999261
20
-31.825003
30
0
11
86.700739
21
-31.824997
31
0
39
0
210
0
220
0
230
1
0
LINE
5
1A7
100
AcDbEntity
8
2
62
256
6
ByLayer
370
13
48
1
60
0
100
AcDbLine
10
85.85
20
0
30
0
11
86.700739
21
-3.174997
31
0
39
0
210
0
220
0
230
1
0
LINE
5
1A8
100
AcDbEntity
8
2
62
256
6
ByLayer
370
13
48
1
60
0
100
AcDbLine
10
85.85
20
0
30
0
11
84.999261
21
-3.175003
31
0
39
0
210
0
220
0
230
1
0
LINE
5
1A9
100
AcDbEntity
8
2
62
256
6
ByLayer
370
13
48
1
60
0
100
AcDbLine
10
86.700739
20
-3.174997
30
0
11
84.999261
21
-3.175003
31
0
39
0
210
0
220
0
230
1
0
ENDBLK
5
1AB
100
AcDbEntity
8
0
100
AcDbBlockEnd
0
BLOCK
5
1B8
100
AcDbEntity
8
0
100
AcDbBlockBegin
2
DimnDraft3D3
70
0
10
0
20
0
30
0
3
DimnDraft3D3
0
MTEXT
5
1AE
100
AcDbEntity
8
2
62
256
6
ByLayer
370
13
48
1
60
0
100
AcDbMText
10
25.843421
20
-60.375
30
0
210
0
220
0
230
1
1
\W0.7346;60.0
40
4.5
41
0
44
1.084337
50
0
71
7
72
5
7
iso_b_vert
0
LINE
5
1AF
100
AcDbEntity
8
2
62
256
6
ByLayer
370
13
48
1
60
0
100
AcDbLine
10
0
20
-26.5875
30
0
11
0
21
-64.675
31
0
39
0
210
0
220
0
230
1
0
LINE
5
1B0
100
AcDbEntity
8
2
62
256
6
ByLayer
370
13
48
1
60
0
100
AcDbLine
10
60
20
-36.5875
30
0
11
60
21
-64.675
31
0
39
0
210
0
220
0
230
1
0
LINE
5
1B1
100
AcDbEntity
8
2
62
256
6
ByLayer
370
13
48
1
60
0
100
AcDbLine
10
0
20
-61.5
30
0
11
60
21
-61.5
31
0
39
0
210
0
220
0
230
1
0
LINE
5
1B2
100
AcDbEntity
8
2
62
256
6
ByLayer
370
13
48
1
60
0
100
AcDbLine
10
0
20
-61.5
30
0
11
3.174997
21
-60.649261
31
0
39
0
210
0
220
0
230
1
0
LINE
5
1B3
100
AcDbEntity
8
2
62
256
6
ByLayer
370
13
48
1
60
0
100
AcDbLine
10
0
20
-61.5
30
0
11
3.175003
21
-62.350739
31
0
39
0
210
0
220
0
230
1
0
LINE
5
1B4
100
AcDbEntity
8
2
62
256
6
ByLayer
370
13
48
1
60
0
100
AcDbLine
10
3.174997
20
-60.649261
30
0
11
3.175003
21
-62.350739
31
0
39
0
210
0
220
0
230
1
0
LINE
5
1B5
100
AcDbEntity
8
2
62
256
6
ByLayer
370
13
48
1
60
0
100
AcDbLine
10
60
20
-61.5
30
0
11
56.825003
21
-62.350739
31
0
39
0
210
0
220
0
230
1
0
LINE
5
1B6
100
AcDbEntity
8
2
62
256
6
ByLayer
370
13
48
1
60
0
100
AcDbLine
10
60
20
-61.5
30
0
11
56.824997
21
-60.649261
31
0
39
0
210
0
220
0
230
1
0
LINE
5
1B7
100
AcDbEntity
8
2
62
256
6
ByLayer
370
13
48
1
60
0
100
AcDbLine
10
56.825003
20
-62.350739
30
0
11
56.824997
21
-60.649261
31
0
39
0
210
0
220
0
230
1
0
ENDBLK
5
1B9
100
AcDbEntity
8
0
100
AcDbBlockEnd
0
BLOCK
5
1C6
100
AcDbEntity
8
0
100
AcDbBlockBegin
2
DimnDraft3D4
70
0
10
0
20
0
30
0
3
DimnDraft3D4
0
MTEXT
5
1BC
100
AcDbEntity
8
2
62
256
6
ByLayer
370
13
48
1
60
0
100
AcDbMText
10
48.157337
20
0.191821
30
0
210
0
220
0
230
1
1
\W0.7346;25.0
40
4.5
41
0
44
1.084337
50
12.5000000000005
71
7
72
5
7
iso_b_vert
0
LINE
5
1BD
100
AcDbEntity
8
2
62
256
6
ByLayer
370
13
48
1
60
0
100
AcDbLine
10
60
20
-31.8125
30
0
11
60
21
3.994023
31
0
39
0
210
0
220
0
230
1
0
LINE
5
1BE
100
AcDbEntity
8
2
62
256
6
ByLayer
370
13
48
1
60
0
100
AcDbLine
10
58.408903
20
-30.610526
30
0
11
43.933462
21
0.432157
31
0
39
0
210
0
220
0
230
1
0
ARC
5
1BF
100
AcDbEntity
8
2
62
256
6
ByLayer
370
13
48
1
60
0
100
AcDbCircle
39
0
10
60
20
-34.022644
30
0
40
34.8416670441662
210
0
220
0
230
1
100
AcDbArc
50
90
51
115
0
LINE
5
1C0
100
AcDbEntity
8
2
62
256
6
ByLayer
370
13
48
1
60
0
100
AcDbLine
10
60
20
0.819023
30
0
11
56.845192
21
-0.103771
31
0
39
0
210
0
220
0
230
1
0
LINE
5
1C1
100
AcDbEntity
8
2
62
256
6
ByLayer
370
13
48
1
60
0
100
AcDbLine
10
60
20
0.819023
30
0
11
56.806453
21
1.597265
31
0
39
0
210
0
220
0
230
1
0
LINE
5
1C2
100
AcDbEntity
8
2
62
256
6
ByLayer
370
13
48
1
60
0
100
AcDbLine
10
56.845192
20
-0.103771
30
0
11
56.806453
21
1.597265
31
0
39
0
210
0
220
0
230
1
0
LINE
5
1C3
100
AcDbEntity
8
2
62
256
6
ByLayer
370
13
48
1
60
0
100
AcDbLine
10
45.275275
20
-2.44537
30
0
11
47.840706
21
-0.390394
31
0
39
0
210
0
220
0
230
1
0
LINE
5
1C4
100
AcDbEntity
8
2
62
256
6
ByLayer
370
13
48
1
60
0
100
AcDbLine
10
45.275275
20
-2.44537
30
0
11
48.524497
21
-1.948423
31
0
39
0
210
0
220
0
230
1
0
LINE
5
1C5
100
AcDbEntity
8
2
62
256
6
ByLayer
370
13
48
1
60
0
100
AcDbLine
10
47.840706
20
-0.390394
30
0
11
48.524497
21
-1.948423
31
0
39
0
210
0
220
0
230
1
0
ENDBLK
5
1C7
100
AcDbEntity
8
0
100
AcDbBlockEnd
0
ENDSEC
0
SECTION
2
ENTITIES
0
ARC
5
D4
100
AcDbEntity
8
1
62
256
6
ByLayer
370
13
48
1
60
0
100
AcDbCircle
39
0
10
-20.279208
20
-26.2
30
0
40
1.2
210
0
220
0
230
-1
100
AcDbArc
50
90
51
126.225732
0
ARC
5
D5
100
AcDbEntity
8
1
62
256
6
ByLayer
370
13
48
1
60
0
100
AcDbCircle
39
0
10
50.490786
20
-26.259901
30
0
40
5.28674538575881
210
0
220
0
230
1
100
AcDbArc
50
230.160547
51
246
0
ARC
5
D6
100
AcDbEntity
8
1
62
256
6
ByLayer
370
13
48
1
60
0
100
AcDbCircle
39
0
10
42.665252
20
-18.881553
30
0
40
1.98674538575881
210
0
220
0
230
1
100
AcDbArc
50
85
51
122.965092
0
ARC
5
D7
100
AcDbEntity
8
1
62
256
6
ByLayer
370
13
48
1
60
0
100
AcDbCircle
39
0
10
44.469647
20
-22.352022
30
0
40
5.28674538575881
210
0
220
0
230
1
100
AcDbArc
50
65
51
85
0
ARC
5
D8
100
AcDbEntity
8
1
62
256
6
ByLayer
370
13
48
1
60
0
100
AcDbCircle
39
0
10
-44.469647
20
-22.352022
30
0
40
5
210
0
220
0
230
-1
100
AcDbArc
50
105.679684
51
115
0
ARC
5
D9
100
AcDbEntity
8
1
62
256
6
ByLayer
370
13
48
1
60
0
100
AcDbCircle
39
0
10
-42.665252
20
-18.881553
30
0
40
1.7
210
0
220
0
230
-1
100
AcDbArc
50
65.109095
51
83.324098
0
ARC
5
DA
100
AcDbEntity
8
1
62
256
6
ByLayer
370
13
48
1
60
0
100
AcDbCircle
39
0
10
51.03857
20
-26.03857
30
0
40
2.39894876836046
210
0
220
0
230
1
100
AcDbArc
50
283.398756
51
56.604377
0
ARC
5
DB
100
AcDbEntity
8
1
62
256
6
ByLayer
370
13
48
1
60
0
100
AcDbCircle
39
0
10
-51.03857
20
-26.03857
30
0
40
2.3603546462382
210
0
220
0
230
-1
100
AcDbArc
50
180.00001
51
253.732507
0
ARC
5
DC
100
AcDbEntity
8
1
62
256
6
ByLayer
370
13
48
1
60
0
100
AcDbCircle
39
0
10
-51.03857
20
-26.03857
30
0
40
2.3603546462382
210
0
220
0
230
-1
100
AcDbArc
50
126.264386
51
135
0
ARC
5
DD
100
AcDbEntity
8
1
62
256
6
ByLayer
370
13
48
1
60
0
100
AcDbCircle
39
0
10
-51.03857
20
-26.03857
30
0
40
2.3603546462382
210
0
220
0
230
-1
100
AcDbArc
50
135
51
179.999995
0
ARC
5
DE
100
AcDbEntity
8
1
62
256
6
ByLayer
370
13
48
1
60
0
100
AcDbCircle
39
0
10
-42.884498
20
-17.884498
30
0
40
0.807357296468598
210
0
220
0
230
-1
100
AcDbArc
50
32.782518
51
90
0
ARC
5
DF
100
AcDbEntity
8
1
62
256
6
ByLayer
370
13
48
1
60
0
100
AcDbCircle
39
0
10
-51.03857
20
-26.03857
30
0
40
2.578
210
0
220
0
230
-1
100
AcDbArc
50
179.999992
51
266.506862
0
ARC
5
E0
100
AcDbEntity
8
1
62
256
6
ByLayer
370
13
48
1
60
0
100
AcDbCircle
39
0
10
-51.03857
20
-26.03857
30
0
40
2.578
210
0
220
0
230
-1
100
AcDbArc
50
113.489993
51
179.999992
0
ARC
5
E1
100
AcDbEntity
8
1
62
256
6
ByLayer
370
13
48
1
60
0
100
AcDbCircle
39
0
10
-51.03857
20
-26.03857
30
0
40
5.51786771999517
210
0
220
0
230
-1
100
AcDbArc
50
295
51
310.456255
0
ARC
5
E2
100
AcDbEntity
8
1
62
256
6
ByLayer
370
13
48
1
60
0
100
AcDbCircle
39
0
10
-59.192643
20
-34.192643
30
0
40
0.807357296468598
210
0
220
0
230
-1
100
AcDbArc
50
180
51
270
0
ARC
5
E3
100
AcDbEntity
8
1
62
256
6
ByLayer
370
13
48
1
60
0
100
AcDbCircle
39
0
10
-54.886174
20
-33.106682
30
0
40
5.0073572964686
210
0
220
0
230
-1
100
AcDbArc
50
155
51
175
0
ARC
5
E4
100
AcDbEntity
8
1
62
256
6
ByLayer
370
13
48
1
60
0
100
AcDbCircle
39
0
10
-43.970458
20
-22.190966
30
0
40
5.0073572964686
210
0
220
0
230
-1
100
AcDbArc
50
95
51
115
0
ARC
5
E5
100
AcDbEntity
8
1
62
256
6
ByLayer
370
13
48
1
60
0
100
AcDbCircle
39
0
10
-58.106682
20
-29.886174
30
0
40
5.0073572964686
210
0
220
0
230
-1
100
AcDbArc
50
275
51
295
0
ARC
5
E6
100
AcDbEntity
8
1
62
256
6
ByLayer
370
13
48
1
60
0
100
AcDbCircle
39
0
10
50.991115
20
-16.637729
30
0
40
2.9926427035314
210
0
220
0
230
1
100
AcDbArc
50
245
51
249.447849
0
ARC
5
E7
100
AcDbEntity
8
1
62
256
6
ByLayer
370
13
48
1
60
0
100
AcDbCircle
39
0
10
-57.992643
20
-34.192643
30
0
40
2.00735729646859
210
0
220
0
230
-1
100
AcDbArc
50
175
51
180
0
ARC
5
E8
100
AcDbEntity
8
1
62
256
6
ByLayer
370
13
48
1
60
0
100
AcDbCircle
39
0
10
51.086026
20
-35.439411
30
0
40
2.9926427035314
210
0
220
0
230
1
100
AcDbArc
50
65
51
69.447849
0
ARC
5
E9
100
AcDbEntity
8
1
62
256
6
ByLayer
370
13
48
1
60
0
100
AcDbCircle
39
0
10
-59.192643
20
-32.992643
30
0
40
2.00735729646859
210
0
220
0
230
-1
100
AcDbArc
50
270
51
275
0
ARC
5
EA
100
AcDbEntity
8
1
62
256
6
ByLayer
370
13
48
1
60
0
100
AcDbCircle
39
0
10
-51.03857
20
-26.03857
30
0
40
5.51786771999517
210
0
220
0
230
-1
100
AcDbArc
50
115
51
155
0
ARC
5
EB
100
AcDbEntity
8
1
62
256
6
ByLayer
370
13
48
1
60
0
100
AcDbCircle
39
0
10
-42.884498
20
-19.084498
30
0
40
2.00735729646859
210
0
220
0
230
-1
100
AcDbArc
50
90
51
95
0
ARC
5
EC
100
AcDbEntity
8
1
62
256
6
ByLayer
370
13
48
1
60
0
100
AcDbCircle
39
0
10
60.439411
20
-26.086026
30
0
40
2.9926427035314
210
0
220
0
230
1
100
AcDbArc
50
200.552151
51
205
0
ARC
5
ED
100
AcDbEntity
8
1
62
256
6
ByLayer
370
13
48
1
60
0
100
AcDbCircle
39
0
10
-51.168565
20
-26.061492
30
0
40
2.20000000000455
210
0
220
0
230
-1
100
AcDbArc
50
141
51
190
0
ARC
5
EE
100
AcDbEntity
8
1
62
256
6
ByLayer
370
13
48
1
60
0
100
AcDbCircle
39
0
10
-51.168565
20
-26.061492
30
0
40
2.1999999999985
210
0
220
0
230
-1
100
AcDbArc
50
190
51
239
0
ARC
5
EF
100
AcDbEntity
8
1
62
256
6
ByLayer
370
13
48
1
60
0
100
AcDbCircle
39
0
10
35.875344
20
-24.468513
30
0
40
0.38
210
0
220
0
230
1
100
AcDbArc
50
148.784897
51
311.215103
0
ARC
5
F0
100
AcDbEntity
8
1
62
256
6
ByLayer
370
13
48
1
60
0
100
AcDbCircle
39
0
10
-36.682043
20
-23.507127
30
0
40
1.175
210
0
220
0
230
-1
100
AcDbArc
50
216.376394
51
223.623606
0
ARC
5
F1
100
AcDbEntity
8
1
62
256
6
ByLayer
370
13
48
1
60
0
100
AcDbCircle
39
0
10
-37.900906
20
-24.529874
30
0
40
0.425
210
0
220
0
230
-1
100
AcDbArc
50
348.784897
51
29.936815
0
ARC
5
F2
100
AcDbEntity
8
1
62
256
6
ByLayer
370
13
48
1
60
0
100
AcDbCircle
39
0
10
35.446109
20
-23.289199
30
0
40
0.38
210
0
220
0
230
1
100
AcDbArc
50
88.784897
51
251.215103
0
ARC
5
F3
100
AcDbEntity
8
1
62
256
6
ByLayer
370
13
48
1
60
0
100
AcDbCircle
39
0
10
-35.186886
20
-24.05132
30
0
40
0.425
210
0
220
0
230
-1
100
AcDbArc
50
108.784897
51
149.936815
0
ARC
5
F4
100
AcDbEntity
8
1
62
256
6
ByLayer
370
13
48
1
60
0
100
AcDbCircle
39
0
10
-38.177199
20
-22.962934
30
0
40
0.425
210
0
220
0
230
-1
100
AcDbArc
50
350.063185
51
31.215103
0
ARC
5
F5
100
AcDbEntity
8
1
62
256
6
ByLayer
370
13
48
1
60
0
100
AcDbCircle
39
0
10
36.252807
20
-22.327813
30
0
40
0.38
210
0
220
0
230
1
100
AcDbArc
50
28.784897
51
191.215103
0
ARC
5
F6
100
AcDbEntity
8
1
62
256
6
ByLayer
370
13
48
1
60
0
100
AcDbCircle
39
0
10
-36.682043
20
-23.507127
30
0
40
1.175
210
0
220
0
230
-1
100
AcDbArc
50
336.376394
51
343.623606
0
ARC
5
F7
100
AcDbEntity
8
1
62
256
6
ByLayer
370
13
48
1
60
0
100
AcDbCircle
39
0
10
-37.900906
20
-24.529874
30
0
40
0.425
210
0
220
0
230
-1
100
AcDbArc
50
50.063185
51
91.215103
0
ARC
5
F8
100
AcDbEntity
8
1
62
256
6
ByLayer
370
13
48
1
60
0
100
AcDbCircle
39
0
10
-36.682043
20
-23.507127
30
0
40
1.175
210
0
220
0
230
-1
100
AcDbArc
50
156.376394
51
163.623606
0
ARC
5
F9
100
AcDbEntity
8
1
62
256
6
ByLayer
370
13
48
1
60
0
100
AcDbCircle
39
0
10
-38.177199
20
-22.962934
30
0
40
0.425
210
0
220
0
230
-1
100
AcDbArc
50
288.784897
51
329.936815
0
ARC
5
FB
100
AcDbEntity
8
1
62
256
6
ByLayer
370
13
48
1
60
0
100
AcDbCircle
39
0
10
-35.46318
20
-22.48438
30
0
40
0.425
210
0
220
0
230
-1
100
AcDbArc
50
230.063185
51
271.215103
0
ARC
5
FC
100
AcDbEntity
8
1
62
256
6
ByLayer
370
13
48
1
60
0
100
AcDbCircle
39
0
10
37.111278
20
-24.686441
30
0
40
0.38
210
0
220
0
230
1
100
AcDbArc
50
208.784897
51
11.215103
0
ARC
5
FD
100
AcDbEntity
8
1
62
256
6
ByLayer
370
13
48
1
60
0
100
AcDbCircle
39
0
10
-35.186886
20
-24.05132
30
0
40
0.425
210
0
220
0
230
-1
100
AcDbArc
50
170.063185
51
211.215103
0
ARC
5
FE
100
AcDbEntity
8
1
62
256
6
ByLayer
370
13
48
1
60
0
100
AcDbCircle
39
0
10
-36.958337
20
-21.940187
30
0
40
0.425
210
0
220
0
230
-1
100
AcDbArc
50
290.063185
51
331.215103
0
ARC
5
FF
100
AcDbEntity
8
1
62
256
6
ByLayer
370
13
48
1
60
0
100
AcDbCircle
39
0
10
-36.682043
20
-23.507127
30
0
40
1.175
210
0
220
0
230
-1
100
AcDbArc
50
276.376394
51
283.623606
0
ARC
5
100
100
AcDbEntity
8
1
62
256
6
ByLayer
370
13
48
1
60
0
100
AcDbCircle
39
0
10
-36.405749
20
-25.074067
30
0
40
0.425
210
0
220
0
230
-1
100
AcDbArc
50
110.063185
51
151.215103
0
ARC
5
102
100
AcDbEntity
8
1
62
256
6
ByLayer
370
13
48
1
60
0
100
AcDbCircle
39
0
10
-36.682043
20
-23.507127
30
0
40
1.175
210
0
220
0
230
-1
100
AcDbArc
50
36.376394
51
43.623606
0
ARC
5
104
100
AcDbEntity
8
1
62
256
6
ByLayer
370
13
48
1
60
0
100
AcDbCircle
39
0
10
37.917976
20
-23.725055
30
0
40
0.38
210
0
220
0
230
1
100
AcDbArc
50
268.784897
51
71.215103
0
ARC
5
105
100
AcDbEntity
8
1
62
256
6
ByLayer
370
13
48
1
60
0
100
AcDbCircle
39
0
10
-35.46318
20
-22.48438
30
0
40
0.425
210
0
220
0
230
-1
100
AcDbArc
50
168.784897
51
209.936815
0
ARC
5
106
100
AcDbEntity
8
1
62
256
6
ByLayer
370
13
48
1
60
0
100
AcDbCircle
39
0
10
-36.682043
20
-23.507127
30
0
40
1.175
210
0
220
0
230
-1
100
AcDbArc
50
96.376394
51
103.623606
0
ARC
5
107
100
AcDbEntity
8
1
62
256
6
ByLayer
370
13
48
1
60
0
100
AcDbCircle
39
0
10
-36.405749
20
-25.074067
30
0
40
0.425
210
0
220
0
230
-1
100
AcDbArc
50
48.784897
51
89.936815
0
ARC
5
108
100
AcDbEntity
8
1
62
256
6
ByLayer
370
13
48
1
60
0
100
AcDbCircle
39
0
10
37.488741
20
-22.545741
30
0
40
0.38
210
0
220
0
230
1
100
AcDbArc
50
328.784897
51
131.215103
0
ARC
5
109
100
AcDbEntity
8
1
62
256
6
ByLayer
370
13
48
1
60
0
100
AcDbCircle
39
0
10
-36.958337
20
-21.940187
30
0
40
0.425
210
0
220
0
230
-1
100
AcDbArc
50
228.784897
51
269.936815
0
CIRCLE
5
FA
100
AcDbEntity
8
1
62
256
6
ByLayer
370
13
48
1
60
0
100
AcDbCircle
10
-36.682043
20
-23.507127
30
0
40
2.3
39
0
210
0
220
0
230
-1
0
CIRCLE
5
101
100
AcDbEntity
8
1
62
256
6
ByLayer
370
13
48
1
60
0
100
AcDbCircle
10
36.682043
20
-23.507127
30
0
40
4
39
0
210
0
220
0
230
1
0
CIRCLE
5
103
100
AcDbEntity
8
1
62
256
6
ByLayer
370
13
48
1
60
0
100
AcDbCircle
10
-36.682043
20
-23.507127
30
0
40
1.15
39
0
210
0
220
0
230
-1
0
ELLIPSE
5
10A
100
AcDbEntity
8
1
62
256
6
ByLayer
370
13
48
1
60
0
100
AcDbEllipse
10
-1.056258
20
0
30
0
11
11.7092723497262
21
-24.6771864409362
31
0
210
0
220
0
230
-1
40
0.341999
41
-1.08183270048931
42
-0.16721307190899
0
ELLIPSE
5
10B
100
AcDbEntity
8
1
62
256
6
ByLayer
370
13
48
1
60
0
100
AcDbEllipse
10
-36.106294
20
-64.959451
30
0
11
70.7214493379363
21
70.7214493379356
31
0
210
-1.37863772745307E-16
220
0
230
1
40
0.999848
41
-0.325146789269207
42
-0.209408536054992
0
ELLIPSE
5
10C
100
AcDbEntity
8
1
62
256
6
ByLayer
370
13
48
1
60
0
100
AcDbEllipse
10
25.921391
20
-14.501748
30
0
11
0.694592710667721
21
3.93923101204883
31
0
210
0
220
0
230
1
40
0.707107
41
-1.5707963267949
42
0.439544460619357
0
ELLIPSE
5
10D
100
AcDbEntity
8
1
62
256
6
ByLayer
370
13
48
1
60
0
100
AcDbEllipse
10
-1.056258
20
0
30
0
11
11.7092723497257
21
24.6771864409357
31
0
210
0
220
0
230
-1
40
0.341999
41
0.167213071908995
42
1.08183270048933
0
ELLIPSE
5
10E
100
AcDbEntity
8
1
62
256
6
ByLayer
370
13
48
1
60
0
100
AcDbEllipse
10
21.056258
20
0
30
0
11
11.7092723497266
21
-24.6771864409364
31
0
210
0
220
0
230
-1
40
0.341999
41
2.0597599531005
42
2.97437958168081
0
ELLIPSE
5
10F
100
AcDbEntity
8
1
62
256
6
ByLayer
370
13
48
1
60
0
100
AcDbEllipse
10
23.652541
20
2.597147
30
0
11
2.82842712470497
21
32.3290699692774
31
0
210
0
220
0
230
-1
40
0.087489
41
2.3561944901789
42
2.63082896037063
0
ELLIPSE
5
110
100
AcDbEntity
8
1
62
256
6
ByLayer
370
13
48
1
60
0
100
AcDbEllipse
10
26.617756
20
-14.624535
30
0
11
-0.868240888334652
21
-4.92403876506104
31
0
210
0
220
0
230
1
40
0.707107
41
1.5707963267949
42
3.09475647119858
0
ELLIPSE
5
111
100
AcDbEntity
8
1
62
256
6
ByLayer
370
13
48
1
60
0
100
AcDbEllipse
10
27.106679
20
-14.710746
30
0
11
6.96364240320019
21
-1.22787803968973
31
9.60034013754374E-16
210
1.37863772745307E-16
220
9.24446373305873E-33
230
-1
40
0.707107
41
-1.71168376662788
42
-0.040037378030146
0
ELLIPSE
5
112
100
AcDbEntity
8
1
62
256
6
ByLayer
370
13
48
1
60
0
100
AcDbEllipse
10
21.056258
20
0
30
0
11
11.7092723497287
21
24.6771864409391
31
0
210
0
220
0
230
-1
40
0.341999
41
-2.97437958168082
42
-2.05975995310058
0
ELLIPSE
5
113
100
AcDbEntity
8
1
62
256
6
ByLayer
370
13
48
1
60
0
100
AcDbEllipse
10
53.707539
20
-33.34445
30
0
11
0.499999403611565
21
-0.017537928386894
31
0
210
0
220
0
230
-1
40
0.044034
41
3.14004812946228
42
-1.74522669190056
0
ELLIPSE
5
114
100
AcDbEntity
8
1
62
256
6
ByLayer
370
13
48
1
60
0
100
AcDbEllipse
10
19.987217
20
0
30
0
11
-1.53075794227797E-15
21
25
31
0
210
0
220
0
230
-1
40
0.087489
41
-2.99501324682696
42
-0.202960640130364
0
ELLIPSE
5
115
100
AcDbEntity
8
1
62
256
6
ByLayer
370
13
48
1
60
0
100
AcDbEllipse
10
-33.459565
20
-62.320124
30
0
11
16.205353875815
21
-100.70189421985
31
0
210
0
220
0
230
-1
40
0.941526
41
-1.84319451747799
42
-1.83944149289745
0
ELLIPSE
5
116
100
AcDbEntity
8
1
62
256
6
ByLayer
370
13
48
1
60
0
100
AcDbEllipse
10
31.971734
20
-18.411781
30
0
11
-2.97661046204355
21
0.524856735517368
31
-2.62162641975114E-15
210
8.54184564237123E-16
220
-1.50615785179708E-16
230
-1
40
0.992546
41
0
42
1.05168906306425
0
ELLIPSE
5
117
100
AcDbEntity
8
1
62
256
6
ByLayer
370
13
48
1
60
0
100
AcDbEllipse
10
35.190563
20
-16.474638
30
0
11
3.44682713555781
21
-0.607768621836122
31
0
210
0
220
0
230
-1
40
0.377658
41
2.67964998362517
42
-2.88031721715725
0
ELLIPSE
5
118
100
AcDbEntity
8
1
62
256
6
ByLayer
370
13
48
1
60
0
100
AcDbEllipse
10
30.51309
20
-26.684166
30
0
11
-2.97661046204352
21
0.524856735517363
31
0
210
-8.54184564237123E-16
220
1.50615785179708E-16
230
1
40
0.992546
41
0
42
1.05168906306426
0
ELLIPSE
5
119
100
AcDbEntity
8
1
62
256
6
ByLayer
370
13
48
1
60
0
100
AcDbEllipse
10
34.865664
20
-18.317231
30
0
11
5.4164430949387
21
-0.955065008028861
31
0
210
0
220
0
230
-1
40
0.240328
41
2.67965000418317
42
2.73264230655195
0
ELLIPSE
5
11A
100
AcDbEntity
8
1
62
256
6
ByLayer
370
13
48
1
60
0
100
AcDbEllipse
10
37.407217
20
-23.634995
30
0
11
-0.72063993731776
21
-4.08695217500066
31
0
210
0
220
0
230
1
40
0.999848
41
0
42
3.14159265358977
0
ELLIPSE
5
11B
100
AcDbEntity
8
1
62
256
6
ByLayer
370
13
48
1
60
0
100
AcDbEllipse
10
33.378999
20
-18.65992
30
0
11
2.28671845499052
21
-2.70010444007393
31
0
210
0
220
0
230
-1
40
0.724269
41
-2.78454212734391
42
-2.42492639398493
0
ELLIPSE
5
11C
100
AcDbEntity
8
1
62
256
6
ByLayer
370
13
48
1
60
0
100
AcDbEllipse
10
33.200156
20
-27.762796
30
0
11
5.41644279593429
21
-0.955065021948541
31
0
210
0
220
0
230
-1
40
0.240328
41
-2.7326422947984
42
-2.67964999088754
0
ELLIPSE
5
11D
100
AcDbEntity
8
1
62
256
6
ByLayer
370
13
48
1
60
0
100
AcDbEllipse
10
30.216895
20
-26.638567
30
0
11
-0.913637607830418
21
1.77911953548881
31
0
210
0
220
0
230
1
40
0.848036
41
0.999163139676883
42
2.41183863393648
0
ELLIPSE
5
11E
100
AcDbEntity
8
1
62
256
6
ByLayer
370
13
48
1
60
0
100
AcDbEllipse
10
32.875257
20
-29.605389
30
0
11
3.44682713554362
21
-0.607768621834382
31
0
210
0
220
0
230
-1
40
0.377658
41
2.88031721715674
42
-2.67964998362411
0
ELLIPSE
5
11F
100
AcDbEntity
8
1
62
256
6
ByLayer
370
13
48
1
60
0
100
AcDbEllipse
10
31.677806
20
-18.353325
30
0
11
1.46703323667211
21
1.359343033417
31
0
210
0
220
0
230
1
40
0.848036
41
0.72975401965331
42
2.14242951391291
0
ELLIPSE
5
120
100
AcDbEntity
8
1
62
256
6
ByLayer
370
13
48
1
60
0
100
AcDbEllipse
10
31.920354
20
-26.932305
30
0
11
3.07230256558629
21
1.75516444404109
31
0
210
0
220
0
230
-1
40
0.724269
41
2.42492639400126
42
2.78454212735656
0
POINT
5
6C
100
AcDbEntity
8
80
62
256
6
ByLayer
370
18
48
1
60
0
100
AcDbPoint
10
0
20
0
30
0
39
0
210
0
220
0
230
1
50
360
0
POINT
5
6E
100
AcDbEntity
8
81
62
256
6
ByLayer
370
18
48
1
60
0
100
AcDbPoint
10
60
20
-35
30
0
39
0
210
0
220
0
230
1
50
360
0
SPLINE
5
121
100
AcDbEntity
8
SK1
62
256
6
ByLayer
370
13
48
1
60
0
100
AcDbSpline
70
4
71
2
72
6
73
3
40
0
40
0
40
0
40
1
40
1
40
1
41
1
10
-0.0343899074271121
20
17.4680398861275
30
0
41
1
10
-0.0576203724863262
20
17.3761042177238
30
0
41
1
10
-0.194976888875288
20
17.3704796738454
30
0
0
SPLINE
5
122
100
AcDbEntity
8
SK1
62
256
6
ByLayer
370
13
48
1
60
0
100
AcDbSpline
70
4
71
2
72
6
73
3
40
0
40
0
40
0
40
1
40
1
40
1
41
1
10
-0.194976888875288
20
-17.3704795286247
30
0
41
1
10
-0.059146384879881
20
-17.3755255798858
30
0
41
1
10
-0.0356373997137212
20
-17.4655268511456
30
0
0
SPLINE
5
123
100
AcDbEntity
8
SK1
62
256
6
ByLayer
370
13
48
1
60
0
100
AcDbSpline
70
4
71
2
72
6
73
3
40
0
40
0
40
0
40
1
40
1
40
1
41
1
10
-30
20
-15.9932493559076
30
0
41
1
10
-29.2499990770911
20
-16.4260287704419
30
0
41
1
10
-28.5
20
-16.8588006436881
30
0
0
SPLINE
5
124
100
AcDbEntity
8
SK1
62
256
6
ByLayer
370
13
48
1
60
0
100
AcDbSpline
70
4
71
2
72
6
73
3
40
0
40
0
40
0
40
1
40
1
40
1
41
1
10
-28.5
20
16.8588008432385
30
0
41
1
10
-29.2499990770552
20
16.4260289695447
30
0
41
1
10
-30
20
15.9932495545753
30
0
0
SPLINE
5
125
100
AcDbEntity
8
SK1
62
256
6
ByLayer
370
13
48
1
60
0
100
AcDbSpline
70
4
71
2
72
6
73
3
40
0
40
0
40
0
40
1
40
1
40
1
41
1
10
-0.194976888875288
20
17.3652369633
30
0
41
1
10
-0.995008433403029
20
17.3451508243471
30
0
41
1
10
-1.7950399779393
20
17.3250646819564
30
0
0
SPLINE
5
126
100
AcDbEntity
8
SK1
62
256
6
ByLayer
370
13
48
1
60
0
100
AcDbSpline
70
4
71
2
72
6
73
3
40
0
40
0
40
0
40
1
40
1
40
1
41
1
10
-1.7950399779393
20
-17.3250643989562
30
0
41
1
10
-0.995008433403029
20
-17.3451505413153
30
0
41
1
10
-0.194976888875288
20
-17.3652366802367
30
0
0
SPLINE
5
127
100
AcDbEntity
8
SK1
62
256
6
ByLayer
370
13
48
1
60
0
100
AcDbSpline
70
4
71
3
72
13
73
9
40
0
40
0
40
0
40
0
40
0.239503416449037
40
0.368423133641911
40
0.500068561308489
40
0.631702599247869
40
0.760590900632782
40
1
40
1
40
1
40
1
41
1
10
-1.7950399779393
20
17.3302974649007
30
0
41
1
10
-1.82110932008982
20
17.3298953840654
30
0
41
1
10
-1.85883875467888
20
17.3360651360603
30
0
41
1
10
-1.90627575278674
20
17.3590990612904
30
0
41
1
10
-1.93886250822575
20
17.3842556209573
30
0
41
1
10
-1.9656349589192
20
17.4155240253433
30
0
41
1
10
-1.99103211472607
20
17.4617233046648
30
0
41
1
10
-1.99909125719799
20
17.4990813944884
30
0
41
1
10
-2
20
17.525129116923
30
0
0
SPLINE
5
128
100
AcDbEntity
8
SK1
62
256
6
ByLayer
370
13
48
1
60
0
100
AcDbSpline
70
4
71
3
72
13
73
9
40
0
40
0
40
0
40
0
40
0.239409099712846
40
0.368297401209776
40
0.499931439185207
40
0.631576866803764
40
0.760496583878372
40
1
40
1
40
1
40
1
41
1
10
-2
20
-17.5251289721744
30
0
41
1
10
-1.99909125720339
20
-17.4990812496681
30
0
41
1
10
-1.99103211473138
20
-17.4617231597379
30
0
41
1
10
-1.96563495892644
20
-17.4155238802705
30
0
41
1
10
-1.93886250823533
20
-17.3842554757878
30
0
41
1
10
-1.90627575279683
20
-17.3590989160412
30
0
41
1
10
-1.85883875469076
20
-17.336064990738
30
0
41
1
10
-1.82110932009616
20
-17.3298952387249
30
0
41
1
10
-1.7950399779393
20
-17.3302973195575
30
0
0
SPLINE
5
129
100
AcDbEntity
8
SK1
62
256
6
ByLayer
370
13
48
1
60
0
100
AcDbSpline
70
4
71
2
72
6
73
3
40
0
40
0
40
0
40
1
40
1
40
1
41
1
10
-2
20
17.5198482068775
30
0
41
1
10
-15.2499999987993
20
17.1871851888411
30
0
41
1
10
-28.5
20
16.8545212066649
30
0
0
SPLINE
5
12A
100
AcDbEntity
8
SK1
62
256
6
ByLayer
370
13
48
1
60
0
100
AcDbSpline
70
4
71
2
72
6
73
3
40
0
40
0
40
0
40
1
40
1
40
1
41
1
10
-28.5
20
-16.8545209244112
30
0
41
1
10
-15.2499999987995
20
-17.1871849060498
30
0
41
1
10
-2
20
-17.5198479235724
30
0
0
SPLINE
5
12B
100
AcDbEntity
8
SK1
62
256
6
ByLayer
370
13
48
1
60
0
100
AcDbSpline
70
4
71
3
72
34
73
30
40
0
40
0
40
0
40
0
40
0.0625000000000012
40
0.0625000000000012
40
0.125000000000002
40
0.125000000000002
40
0.156250000000003
40
0.156250000000003
40
0.187500000000003
40
0.187500000000003
40
0.218750000000003
40
0.218750000000003
40
0.250000000000003
40
0.250000000000003
40
0.281250000000004
40
0.281250000000004
40
0.312500000000004
40
0.312500000000004
40
0.375000000000004
40
0.375000000000004
40
0.437500000000003
40
0.437500000000003
40
0.500000000000003
40
0.500000000000003
40
0.625000000000003
40
0.625000000000003
40
0.750000000000002
40
0.750000000000002
40
1
40
1
40
1
40
1
41
1
10
-0.194976888875288
20
5.10125086895559
30
0
41
1
10
-0.216563104839508
20
5.14436908332726
30
0
41
1
10
-0.239876465412465
20
5.18652378521389
30
0
41
1
10
-0.292013626272791
20
5.26792158235068
30
0
41
1
10
-0.320990702940776
20
5.30753561172011
30
0
41
1
10
-0.371183836287372
20
5.36154618724734
30
0
41
1
10
-0.389032265538759
20
5.37862958681873
30
0
41
1
10
-0.428179185034452
20
5.4099910632236
30
0
41
1
10
-0.449618380543768
20
5.42431377396909
30
0
41
1
10
-0.495865519359256
20
5.44696237803706
30
0
41
1
10
-0.521367960365069
20
5.4554708081634
30
0
41
1
10
-0.574009113603324
20
5.46273288050187
30
0
41
1
10
-0.601430926503127
20
5.46139579386309
30
0
41
1
10
-0.653473515396456
20
5.44938705292518
30
0
41
1
10
-0.678029058965421
20
5.43899493154706
30
0
41
1
10
-0.723288902803802
20
5.41312231488862
30
0
41
1
10
-0.743967752761876
20
5.39773949255181
30
0
41
1
10
-0.801173829768601
20
5.34799023305283
30
0
41
1
10
-0.833684183778274
20
5.3095864008383
30
0
41
1
10
-0.891735345197702
20
5.22983347150023
30
0
41
1
10
-0.917563850545008
20
5.18780113018784
30
0
41
1
10
-0.964510307389105
20
5.10284807391153
30
0
41
1
10
-0.985719330348644
20
5.05973229274716
30
0
41
1
10
-1.04491752447228
20
4.9290225043666
30
0
41
1
10
-1.07856037778879
20
4.84008619679173
30
0
41
1
10
-1.13933058662863
20
4.65979587009875
30
0
41
1
10
-1.16633518942871
20
4.56841194087292
30
0
41
1
10
-1.24041994682241
20
4.2912308194276
30
0
41
1
10
-1.28068167434884
20
4.10243137050429
30
0
41
1
10
-1.31543506509496
20
3.91026939581312
30
0
0
SPLINE
5
12C
100
AcDbEntity
8
SK1
62
256
6
ByLayer
370
13
48
1
60
0
100
AcDbSpline
70
4
71
3
72
19
73
15
40
0
40
0
40
0
40
0
40
0.0576847343333268
40
0.125061503283589
40
0.192438272233851
40
0.327191810134374
40
0.394568579084636
40
0.461945348034898
40
0.596698885935422
40
0.731452423835946
40
0.798829192786208
40
0.86620596173647
40
0.933582730686732
40
1
40
1
40
1
40
1
41
1
10
-0.194976888875288
20
5.10125086896116
30
0
41
1
10
-0.194976888875288
20
5.53313428608726
30
0
41
1
10
-0.194976888875288
20
6.44811450197781
30
0
41
1
10
-0.194976888875288
20
7.78272641346857
30
0
41
1
10
-0.194976888875288
20
9.54003737468344
30
0
41
1
10
-0.194976888875288
20
11.1243601127487
30
0
41
1
10
-0.194976888875288
20
12.5327088879465
30
0
41
1
10
-0.194976888875288
20
13.8199159522374
30
0
41
1
10
-0.194976888875288
20
15.1935356351606
30
0
41
1
10
-0.194976888875288
20
16.2296014295452
30
0
41
1
10
-0.194976888875288
20
16.8308406320639
30
0
41
1
10
-0.194976888875288
20
17.1586063633231
30
0
41
1
10
-0.194976888875288
20
17.3505746336761
30
0
41
1
10
-0.194976888875288
20
17.3791347769894
30
0
41
1
10
-0.194976888875317
20
17.3652994787888
30
0
0
SPLINE
5
12D
100
AcDbEntity
8
SK1
62
256
6
ByLayer
370
13
48
1
60
0
100
AcDbSpline
70
4
71
3
72
24
73
20
40
0
40
0
40
0
40
0
40
0.249999999999997
40
0.249999999999997
40
0.499999999999994
40
0.499999999999994
40
0.624999999999992
40
0.624999999999992
40
0.687499999999993
40
0.687499999999993
40
0.749999999999994
40
0.749999999999994
40
0.781249999999994
40
0.781249999999994
40
0.812499999999995
40
0.812499999999995
40
0.874999999999996
40
0.874999999999996
40
1
40
1
40
1
40
1
41
1
10
0
20
5.57923036606758
30
0
41
1
10
0
20
5.51779833593815
30
0
41
1
10
-0.0010407946611792
20
5.4561428430427
30
0
41
1
10
-0.0066100287585016
20
5.33222467485115
30
0
41
1
10
-0.0109086182200713
20
5.26998240259837
30
0
41
1
10
-0.0236290455403037
20
5.1758032881194
30
0
41
1
10
-0.0289274789974456
20
5.14400542585562
30
0
41
1
10
-0.0406106017669572
20
5.09708097823383
30
0
41
1
10
-0.0451125402901766
20
5.08157844540844
30
0
41
1
10
-0.0567618109963064
20
5.05119051958263
30
0
41
1
10
-0.0637941514040392
20
5.0359758456878
30
0
41
1
10
-0.0793983841521992
20
5.01728646661778
30
0
41
1
10
-0.0855293065042986
20
5.01193328599709
30
0
41
1
10
-0.0991967475965509
20
5.00573299924022
30
0
41
1
10
-0.10669251631586
20
5.00512851447206
30
0
41
1
10
-0.127007712652244
20
5.00942384168746
30
0
41
1
10
-0.138200686556445
20
5.01872263284184
30
0
41
1
10
-0.167487576580783
20
5.04962218612667
30
0
41
1
10
-0.18180259581078
20
5.07493537237929
30
0
41
1
10
-0.194976888870229
20
5.10125086895565
30
0
0
SPLINE
5
12E
100
AcDbEntity
8
SK1
62
256
6
ByLayer
370
13
48
1
60
0
100
AcDbSpline
70
4
71
3
72
39
73
35
40
0
40
0
40
0
40
0
40
0.0162087907699596
40
0.0446671253571627
40
0.0731254599443658
40
0.101583794531569
40
0.158500463705975
40
0.215417132880381
40
0.243875467467585
40
0.272333802054788
40
0.329250471229194
40
0.357708805816397
40
0.3861671404036
40
0.414625474990803
40
0.443083809578006
40
0.47154214416521
40
0.485771311458811
40
0.500000478752413
40
0.514229646046014
40
0.528458813339616
40
0.556917147926819
40
0.585375482514022
40
0.613833817101225
40
0.642292151688428
40
0.670750486275631
40
0.727667155450037
40
0.756125490037241
40
0.784583824624444
40
0.84150049379885
40
0.898417162973256
40
0.926875497560459
40
0.955333832147663
40
0.983792166734866
40
1
40
1
40
1
40
1
41
1
10
-28.5
20
16.8573070641025
30
0
41
1
10
-28.5
20
16.8521221955864
30
0
41
1
10
-28.5
20
16.8141674039098
30
0
41
1
10
-28.5
20
16.653119129773
30
0
41
1
10
-28.5
20
16.3328855300395
30
0
41
1
10
-28.5
20
15.7436777114931
30
0
41
1
10
-28.5
20
14.7294539424714
30
0
41
1
10
-28.5
20
13.3839109677473
30
0
41
1
10
-28.5
20
12.120280876233
30
0
41
1
10
-28.5
20
10.73839291766
30
0
41
1
10
-28.5
20
9.19217366708202
30
0
41
1
10
-28.5
20
7.4733617642672
30
0
41
1
10
-28.5
20
6.10816680103
30
0
41
1
10
-28.5
20
4.66779609215368
30
0
41
1
10
-28.5
20
3.1590972918861
30
0
41
1
10
-28.5
20
1.85825200188583
30
0
41
1
10
-28.5
20
0.795563863901208
30
0
41
1
10
-28.5
20
-1.286700808E-07
30
0
41
1
10
-28.5
20
-0.795563889584969
30
0
41
1
10
-28.5
20
-1.85825194532134
30
0
41
1
10
-28.5
20
-3.15909751485594
30
0
41
1
10
-28.5
20
-4.66779636016514
30
0
41
1
10
-28.5
20
-6.10816664300194
30
0
41
1
10
-28.5
20
-7.47336198687177
30
0
41
1
10
-28.5
20
-9.19217383455458
30
0
41
1
10
-28.5
20
-10.7383929245239
30
0
41
1
10
-28.5
20
-12.1202809967187
30
0
41
1
10
-28.5
20
-13.3839106046769
30
0
41
1
10
-28.5
20
-14.7294543359371
30
0
41
1
10
-28.5
20
-15.7436769514769
30
0
41
1
10
-28.5
20
-16.3328856609547
30
0
41
1
10
-28.5
20
-16.6531187925377
30
0
41
1
10
-28.5
20
-16.8141647386381
30
0
41
1
10
-28.5
20
-16.8521202812789
30
0
41
1
10
-28.5
20
-16.8573059359312
30
0
0
SPLINE
5
12F
100
AcDbEntity
8
SK1
62
256
6
ByLayer
370
13
48
1
60
0
100
AcDbSpline
70
4
71
3
72
19
73
15
40
0
40
0
40
0
40
0
40
0.066418439290707
40
0.133795131523352
40
0.201171823755997
40
0.268548515988642
40
0.403301900453933
40
0.538055284919223
40
0.605431977151868
40
0.672808669384513
40
0.807562053849804
40
0.874938746082449
40
0.942315438315094
40
1
40
1
40
1
40
1
41
1
10
-0.194976888875232
20
-17.3652986039813
30
0
41
1
10
-0.194976888875288
20
-17.3791351964015
30
0
41
1
10
-0.194976888875317
20
-17.3505752187742
30
0
41
1
10
-0.194976888875288
20
-17.1586060420318
30
0
41
1
10
-0.194976888875288
20
-16.8308407609472
30
0
41
1
10
-0.194976888875288
20
-16.2296006616932
30
0
41
1
10
-0.194976888875288
20
-15.1935360543338
30
0
41
1
10
-0.194976888875288
20
-13.8199155786832
30
0
41
1
10
-0.194976888875288
20
-12.5327090406557
30
0
41
1
10
-0.194976888875288
20
-11.124360123357
30
0
41
1
10
-0.194976888875288
20
-9.54003756166779
30
0
41
1
10
-0.194976888875288
20
-7.78272657852642
30
0
41
1
10
-0.194976888875288
20
-6.44811514688843
30
0
41
1
10
-0.194976888875288
20
-5.53313598467676
30
0
41
1
10
-0.194976888875288
20
-5.10125345321859
30
0
0
SPLINE
5
130
100
AcDbEntity
8
SK1
62
256
6
ByLayer
370
13
48
1
60
0
100
AcDbSpline
70
4
71
3
72
32
73
28
40
0
40
0
40
0
40
0
40
0.250000000000001
40
0.250000000000001
40
0.375000000000002
40
0.375000000000002
40
0.500000000000002
40
0.500000000000002
40
0.625000000000003
40
0.625000000000003
40
0.687500000000004
40
0.687500000000004
40
0.718750000000004
40
0.718750000000004
40
0.750000000000004
40
0.750000000000004
40
0.781250000000004
40
0.781250000000004
40
0.812500000000004
40
0.812500000000004
40
0.843750000000004
40
0.843750000000004
40
0.875000000000003
40
0.875000000000003
40
0.937500000000002
40
0.937500000000002
40
1
40
1
40
1
40
1
41
1
10
-1.3154350650953
20
-3.9102717266544
30
0
41
1
10
-1.28057279922606
20
-4.10303597600293
30
0
41
1
10
-1.24012857901269
20
-4.29271555372668
30
0
41
1
10
-1.16537958408065
20
-4.57178986572762
30
0
41
1
10
-1.13808783877656
20
-4.66390143596871
30
0
41
1
10
-1.07645434927807
20
-4.8458981155494
30
0
41
1
10
-1.04214225535935
20
-4.93593902808891
30
0
41
1
10
-0.962464700665095
20
-5.11023045105989
30
0
41
1
10
-0.917775144179274
20
-5.19501418522131
30
0
41
1
10
-0.830408896230011
20
-5.313571881754
30
0
41
1
10
-0.797934201555904
20
-5.35142877323202
30
0
41
1
10
-0.740368480272224
20
-5.40051809921425
30
0
41
1
10
-0.71936155470425
20
-5.4157502088056
30
0
41
1
10
-0.674120182693684
20
-5.44077848246101
30
0
41
1
10
-0.649220595717566
20
-5.4508327921487
30
0
41
1
10
-0.597299834838367
20
-5.46180745076146
30
0
41
1
10
-0.56981158113021
20
-5.46259066748192
30
0
41
1
10
-0.517782809634298
20
-5.45447309167375
30
0
41
1
10
-0.492509215309809
20
-5.44564758559568
30
0
41
1
10
-0.446559607626909
20
-5.42244198036281
30
0
41
1
10
-0.425331014623822
20
-5.4079341113783
30
0
41
1
10
-0.386890792994905
20
-5.376662585822
30
0
41
1
10
-0.369356495412518
20
-5.3597075192298
30
0
41
1
10
-0.320035559340766
20
-5.30624073125674
30
0
41
1
10
-0.291353206896446
20
-5.26696540111769
30
0
41
1
10
-0.239562956691515
20
-5.18596288302246
30
0
41
1
10
-0.216411510706422
20
-5.14406880492331
30
0
41
1
10
-0.194976888875288
20
-5.10125345321302
30
0
0
SPLINE
5
131
100
AcDbEntity
8
SK1
62
256
6
ByLayer
370
13
48
1
60
0
100
AcDbSpline
70
4
71
3
72
39
73
35
40
0
40
0
40
0
40
0
40
0.0143966646309381
40
0.0429615553897552
40
0.0715264461485722
40
0.100091336907389
40
0.157221118425023
40
0.214350899942657
40
0.242915790701475
40
0.271480681460292
40
0.328610462977926
40
0.357175353736743
40
0.38574024449556
40
0.414305135254377
40
0.442870026013194
40
0.471434916772011
40
0.485717362151419
40
0.499999807530828
40
0.514282252910237
40
0.528564698289645
40
0.557129589048462
40
0.585694479807279
40
0.614259370566096
40
0.642824261324913
40
0.67138915208373
40
0.728518933601364
40
0.757083824360182
40
0.785648715118999
40
0.842778496636633
40
0.899908278154267
40
0.928473168913084
40
0.957038059671901
40
0.985602950430718
40
1
40
1
40
1
40
1
41
1
10
-1.7950399779393
20
-17.3257551217717
30
0
41
1
10
-1.7950399779393
20
-17.3192800111461
30
0
41
1
10
-1.7950399779393
20
-17.2795195320562
30
0
41
1
10
-1.7950399779393
20
-17.1188450441766
30
0
41
1
10
-1.7950399779393
20
-16.7916722325964
30
0
41
1
10
-1.7950399779393
20
-16.1913785074865
30
0
41
1
10
-1.7950399779393
20
-15.1570319640165
30
0
41
1
10
-1.7950399779393
20
-13.7856199701319
30
0
41
1
10
-1.7950399779393
20
-12.500267964077
30
0
41
1
10
-1.7950399779393
20
-11.0940004239178
30
0
41
1
10
-1.7950399779393
20
-9.51267503388596
30
0
41
1
10
-1.7950399779393
20
-7.75839234481913
30
0
41
1
10
-1.7950399779393
20
-6.35944481918477
30
0
41
1
10
-1.7950399779393
20
-4.8781381465428
30
0
41
1
10
-1.7950399779393
20
-3.31755142876619
30
0
41
1
10
-1.7950399779393
20
-1.95744888431969
30
0
41
1
10
-1.7950399779393
20
-0.842183896938593
30
0
41
1
10
-1.7950399779393
20
-5.01240152E-08
30
0
41
1
10
-1.7950399779393
20
0.842183835089799
30
0
41
1
10
-1.7950399779393
20
1.9574489056063
30
0
41
1
10
-1.7950399779393
20
3.31755135272857
30
0
41
1
10
-1.7950399779393
20
4.87813783770082
30
0
41
1
10
-1.7950399779393
20
6.3594449330798
30
0
41
1
10
-1.7950399779393
20
7.75839217523472
30
0
41
1
10
-1.7950399779393
20
9.51267484843638
30
0
41
1
10
-1.7950399779393
20
11.0940004136041
30
0
41
1
10
-1.7950399779393
20
12.5002678139024
30
0
41
1
10
-1.7950399779393
20
13.7856203428615
30
0
41
1
10
-1.7950399779393
20
15.1570315468654
30
0
41
1
10
-1.7950399779393
20
16.1913792747221
30
0
41
1
10
-1.7950399779393
20
16.7916721035533
30
0
41
1
10
-1.7950399779393
20
17.1188453667221
30
0
41
1
10
-1.79503997793932
20
17.2795209541982
30
0
41
1
10
-1.7950399779393
20
17.319281034231
30
0
41
1
10
-1.7950399779393
20
17.3257558780798
30
0
0
SPLINE
5
132
100
AcDbEntity
8
SK1
62
256
6
ByLayer
370
13
48
1
60
0
100
AcDbSpline
70
4
71
3
72
22
73
18
40
0
40
0
40
0
40
0
40
0.125
40
0.125
40
0.25
40
0.25
40
0.5
40
0.5
40
0.5625
40
0.5625
40
0.625
40
0.625
40
0.75
40
0.75
40
0.875
40
0.875
40
1
40
1
40
1
40
1
41
1
10
-1.31543506509496
20
3.91026939581312
30
0
41
1
10
-1.37156891012913
20
3.59988844370488
30
0
41
1
10
-1.42485023497019
20
3.28523180779956
30
0
41
1
10
-1.52254592972014
20
2.64577663756873
30
0
41
1
10
-1.56698033508394
20
2.31970691194101
30
0
41
1
10
-1.67816871178564
20
1.33819893460003
30
0
41
1
10
-1.72297865089004
20
0.676397987705457
30
0
41
1
10
-1.72324535258096
20
-0.162964032578543
30
0
41
1
10
-1.72056385768457
20
-0.331436710844429
30
0
41
1
10
-1.7098742282711
20
-0.669573168778555
30
0
41
1
10
-1.70179947711227
20
-0.839901074147889
30
0
41
1
10
-1.67034734323971
20
-1.34548891205583
30
0
41
1
10
-1.63998375816561
20
-1.67664697885553
30
0
41
1
10
-1.56572248544325
20
-2.32939130826392
30
0
41
1
10
-1.52178762804093
20
-2.65096151379691
30
0
41
1
10
-1.42466622483195
20
-3.28621377555194
30
0
41
1
10
-1.37156266283256
20
-3.59992488097876
30
0
41
1
10
-1.31543506509496
20
-3.91027172665429
30
0
0
SPLINE
5
133
100
AcDbEntity
8
SK1
62
256
6
ByLayer
370
13
48
1
60
0
100
AcDbSpline
70
4
71
3
72
39
73
35
40
0
40
0
40
0
40
0
40
0.013868979075826
40
0.0424649166973371
40
0.0710608543188482
40
0.0996567919403593
40
0.156848667183382
40
0.214040542426404
40
0.242636480047915
40
0.271232417669426
40
0.328424292912448
40
0.357020230533959
40
0.385616168155471
40
0.414212105776982
40
0.442808043398493
40
0.471403981020004
40
0.485701949830759
40
0.499999918641515
40
0.514297887452271
40
0.528595856263026
40
0.557191793884537
40
0.585787731506049
40
0.61438366912756
40
0.642979606749071
40
0.671575544370582
40
0.728767419613604
40
0.757363357235115
40
0.785959294856626
40
0.843151170099649
40
0.900343045342671
40
0.928938982964182
40
0.957534920585693
40
0.986130858207204
40
1
40
1
40
1
40
1
41
1
10
-2
20
-17.5197847577407
30
0
41
1
10
-2
20
-17.5129943732996
30
0
41
1
10
-2
20
-17.4726242959701
30
0
41
1
10
-2
20
-17.3116343538074
30
0
41
1
10
-2
20
-16.9815888329671
30
0
41
1
10
-2
20
-16.3767064197525
30
0
41
1
10
-2
20
-15.3340294930174
30
0
41
1
10
-2
20
-13.9519092247439
30
0
41
1
10
-2
20
-12.6575651420821
30
0
41
1
10
-2
20
-11.241205620246
30
0
41
1
10
-2
20
-9.64534783198889
30
0
41
1
10
-2
20
-7.8763818413079
30
0
41
1
10
-2
20
-6.46346246032286
30
0
41
1
10
-2
20
-4.96520999967441
30
0
41
1
10
-2
20
-3.38314408231224
30
0
41
1
10
-2
20
-1.99851186782058
30
0
41
1
10
-2
20
-0.861482441955218
30
0
41
1
10
-2
20
-1.76095512E-08
30
0
41
1
10
-2
20
0.861482365135799
30
0
41
1
10
-2
20
1.99851187450375
30
0
41
1
10
-2
20
3.38314406709782
30
0
41
1
10
-2
20
4.96520967393047
30
0
41
1
10
-2
20
6.46346255594887
30
0
41
1
10
-2
20
7.87638169367139
30
0
41
1
10
-2
20
9.64534763909765
30
0
41
1
10
-2
20
11.2412056085041
30
0
41
1
10
-2
20
12.6575649796177
30
0
41
1
10
-2
20
13.951909601472
30
0
41
1
10
-2
20
15.3340290660617
30
0
41
1
10
-2
20
16.3767071899766
30
0
41
1
10
-2
20
16.9815887046989
30
0
41
1
10
-2
20
17.3116346702719
30
0
41
1
10
-2
20
17.4726252228864
30
0
41
1
10
-2
20
17.5129950002003
30
0
41
1
10
-2.00000000000003
20
17.5197852421803
30
0
0
SPLINE
5
134
100
AcDbEntity
8
SK1
62
256
6
ByLayer
370
13
48
1
60
0
100
AcDbSpline
70
4
71
3
72
24
73
20
40
0
40
0
40
0
40
0
40
0.125000000000015
40
0.125000000000015
40
0.187500000000019
40
0.187500000000019
40
0.218750000000017
40
0.218750000000017
40
0.250000000000015
40
0.250000000000015
40
0.312500000000015
40
0.312500000000015
40
0.375000000000014
40
0.375000000000014
40
0.500000000000011
40
0.500000000000011
40
0.750000000000006
40
0.750000000000006
40
1
40
1
40
1
40
1
41
1
10
-0.194976888875288
20
-5.10125345321094
30
0
41
1
10
-0.181865427407701
20
-5.07506349573964
30
0
41
1
10
-0.167305467318897
20
-5.04951740146478
30
0
41
1
10
-0.138595346987984
20
-5.01910002951084
30
0
41
1
10
-0.127552525149696
20
-5.00976548032864
30
0
41
1
10
-0.107289868157807
20
-5.00515271046447
30
0
41
1
10
-0.100017181826672
20
-5.0055673333344
30
0
41
1
10
-0.0862894749968177
20
-5.01140955660901
30
0
41
1
10
-0.0800854915175933
20
-5.01665185918861
30
0
41
1
10
-0.064561999564944
20
-5.03472361857911
30
0
41
1
10
-0.0573834989396005
20
-5.04983097867373
30
0
41
1
10
-0.0455625036967149
20
-5.08017041530633
30
0
41
1
10
-0.0410080780262376
20
-5.09566827191264
30
0
41
1
10
-0.0291934375087237
20
-5.14260105512545
30
0
41
1
10
-0.0238612985442899
20
-5.17432930306168
30
0
41
1
10
-0.0109763675535817
20
-5.26901205584701
30
0
41
1
10
-0.0066530226186785
20
-5.33149708294096
30
0
41
1
10
-0.0010447609299433
20
-5.45583201094908
30
0
41
1
10
0
20
-5.51765621422388
30
0
41
1
10
0
20
-5.57923236301667
30
0
0
SPLINE
5
135
100
AcDbEntity
8
SK1
62
256
6
ByLayer
370
13
48
1
60
0
100
AcDbSpline
70
4
71
3
72
39
73
35
40
0
40
0
40
0
40
0
40
0.0181813876216497
40
0.0465236663615458
40
0.0748659451014418
40
0.103208223841338
40
0.15989278132113
40
0.216577338800922
40
0.244919617540818
40
0.273261896280714
40
0.329946453760506
40
0.358288732500402
40
0.386631011240298
40
0.414973289980194
40
0.44331556872009
40
0.471657847459986
40
0.485828986829934
40
0.500000126199882
40
0.51417126556983
40
0.528342404939778
40
0.556684683679674
40
0.58502696241957
40
0.613369241159466
40
0.641711519899362
40
0.670053798639258
40
0.72673835611905
40
0.755080634858946
40
0.783422913598842
40
0.840107471078634
40
0.896792028558426
40
0.925134307298322
40
0.953476586038218
40
0.981818864778114
40
1
40
1
40
1
40
1
41
1
10
-30
20
15.9932051598506
30
0
41
1
10
-30
20
15.9899210898074
30
0
41
1
10
-30
20
15.954841612874
30
0
41
1
10
-30
20
15.7965331178349
30
0
41
1
10
-30
20
15.4890632796305
30
0
41
1
10
-30
20
14.9202435431778
30
0
41
1
10
-30
20
13.9430327235571
30
0
41
1
10
-30
20
12.6450678356931
30
0
41
1
10
-30
20
11.4213906920358
30
0
41
1
10
-30
20
10.0843425709124
30
0
41
1
10
-30
20
8.60269253637253
30
0
41
1
10
-30
20
6.94912017416232
30
0
41
1
10
-30
20
5.64600401967195
30
0
41
1
10
-30
20
4.28092547446499
30
0
41
1
10
-30
20
2.86766099029055
30
0
41
1
10
-30
20
1.67580430318804
30
0
41
1
10
-30
20
0.709818178928145
30
0
41
1
10
-30
20
-2.731357824E-07
30
0
41
1
10
-30
20
-0.709818138095528
30
0
41
1
10
-30
20
-1.67580418173881
30
0
41
1
10
-30
20
-2.86766148350514
30
0
41
1
10
-30
20
-4.28092566737899
30
0
41
1
10
-30
20
-5.64600378047228
30
0
41
1
10
-30
20
-6.94912049428407
30
0
41
1
10
-30
20
-8.60269267078093
30
0
41
1
10
-30
20
-10.084342571431
30
0
41
1
10
-30
20
-11.4213907579162
30
0
41
1
10
-30
20
-12.6450674903883
30
0
41
1
10
-30
20
-13.9430330734596
30
0
41
1
10
-30
20
-14.9202427964398
30
0
41
1
10
-30
20
-15.4890634139888
30
0
41
1
10
-30
20
-15.7965327535813
30
0
41
1
10
-30
20
-15.9548405306385
30
0
41
1
10
-30
20
-15.9899204490045
30
0
41
1
10
-30
20
-15.9932048402806
30
0
0
SPLINE
5
136
100
AcDbEntity
8
1
62
256
6
ByLayer
370
13
48
1
60
0
100
AcDbSpline
70
4
71
3
72
12
73
8
40
0
40
0
40
0
40
0
40
0.250000000000001
40
0.250000000000001
40
0.500000000000003
40
0.500000000000003
40
1
40
1
40
1
40
1
41
1
10
20.9883692336828
20
-25.2114884212814
30
0
41
1
10
20.9259518344731
20
-25.1634787969576
30
0
41
1
10
20.8623031764963
20
-25.1234251825262
30
0
41
1
10
20.7359081442388
20
-25.0564600375633
30
0
41
1
10
20.6741447679301
20
-25.0300120012568
30
0
41
1
10
20.4943942919516
20
-24.9659315226807
30
0
41
1
10
20.3819661342991
20
-24.9433924859145
30
0
41
1
10
20.2792076144253
20
-24.9314235840789
30
0
0
SPLINE
5
137
100
AcDbEntity
8
1
62
256
6
ByLayer
370
13
48
1
60
0
100
AcDbSpline
70
4
71
3
72
28
73
24
40
0
40
0
40
0
40
0
40
0.0624999999999994
40
0.0624999999999994
40
0.124999999999999
40
0.124999999999999
40
0.249999999999998
40
0.249999999999998
40
0.374999999999997
40
0.374999999999997
40
0.437499999999998
40
0.437499999999998
40
0.499999999999998
40
0.499999999999998
40
0.624999999999998
40
0.624999999999998
40
0.687499999999998
40
0.687499999999998
40
0.749999999999997
40
0.749999999999997
40
0.874999999999999
40
0.874999999999999
40
1
40
1
40
1
40
1
41
1
10
19.6677624918508
20
24.6549270001271
30
0
41
1
10
19.6795879576474
20
24.6674103520196
30
0
41
1
10
19.6983213548509
20
24.6744161612974
30
0
41
1
10
19.7494798510319
20
24.6774130172705
30
0
41
1
10
19.7815486357653
20
24.6734105795649
30
0
41
1
10
19.8961892233801
20
24.6460250404692
30
0
41
1
10
19.9970186106005
20
24.6073879858759
30
0
41
1
10
20.2467789626972
20
24.4918150788537
30
0
41
1
10
20.3908567887499
20
24.4171475270692
30
0
41
1
10
20.6311697958743
20
24.2850915563576
30
0
41
1
10
20.715408962893
20
24.2376630725605
30
0
41
1
10
20.8920023551067
20
24.1363952536477
30
0
41
1
10
20.9835878357342
20
24.0829928306585
30
0
41
1
10
21.2647735566146
20
23.9170497099621
30
0
41
1
10
21.4619196983336
20
23.7981643122142
30
0
41
1
10
21.771296718171
20
23.6095603019781
30
0
41
1
10
21.8769742329696
20
23.5448020490434
30
0
41
1
10
22.0918257569542
20
23.4126793617199
30
0
41
1
10
22.2000213719557
20
23.3459186175364
30
0
41
1
10
22.5268641739674
20
23.1438307501534
30
0
41
1
10
22.7477569787836
20
23.0067223293766
30
0
41
1
10
23.1955528020747
20
22.7285527215406
30
0
41
1
10
23.4224561478088
20
22.5874879461327
30
0
41
1
10
23.6525412842178
20
22.444467398594
30
0
0
SPLINE
5
138
100
AcDbEntity
8
1
62
256
6
ByLayer
370
13
48
1
60
0
100
AcDbSpline
70
4
71
3
72
16
73
12
40
0
40
0
40
0
40
0
40
0.125000000000002
40
0.125000000000002
40
0.250000000000004
40
0.250000000000004
40
0.500000000000003
40
0.500000000000003
40
0.750000000000002
40
0.750000000000002
40
1
40
1
40
1
40
1
41
1
10
8.53867513459477
20
7.52966679426495
30
0
41
1
10
8.50697323176121
20
7.52966679426495
30
0
41
1
10
8.47563983861085
20
7.53610198950864
30
0
41
1
10
8.4177007223274
20
7.55854989603606
30
0
41
1
10
8.39058907041832
20
7.57464889660915
30
0
41
1
10
8.31777781748551
20
7.63015704912715
30
0
41
1
10
8.27812666032534
20
7.67767014498912
30
0
41
1
10
8.2117121049007
20
7.77870179643048
30
0
41
1
10
8.18485781079318
20
7.83248598676826
30
0
41
1
10
8.13959628273548
20
7.94218253951274
30
0
41
1
10
8.12110769698506
20
7.9984916943493
30
0
41
1
10
8.10566243270267
20
8.05584836782793
30
0
0
SPLINE
5
139
100
AcDbEntity
8
1
62
256
6
ByLayer
370
13
48
1
60
0
100
AcDbSpline
70
4
71
3
72
16
73
12
40
0
40
0
40
0
40
0
40
0.249999999999998
40
0.249999999999998
40
0.499999999999997
40
0.499999999999997
40
0.749999999999996
40
0.749999999999996
40
0.874999999999998
40
0.874999999999998
40
1
40
1
40
1
40
1
41
1
10
8.1056624327025
20
23.6665017920808
30
0
41
1
10
8.12111376292626
20
23.686033116806
30
0
41
1
10
8.13975567725333
20
23.7051129235882
30
0
41
1
10
8.1851219392768
20
23.7416171457991
30
0
41
1
10
8.21173961735192
20
23.7591079584197
30
0
41
1
10
8.27807345100135
20
23.7919105160782
30
0
41
1
10
8.31704385770792
20
23.807014118376
30
0
41
1
10
8.39103491659969
20
23.8249896713849
30
0
41
1
10
8.41759599948895
20
23.8299833264009
30
0
41
1
10
8.47600932946898
20
23.8371392949585
30
0
41
1
10
8.50692224136543
20
23.8391299750502
30
0
41
1
10
8.53867513459483
20
23.8391299750502
30
0
0
SPLINE
5
13A
100
AcDbEntity
8
1
62
256
6
ByLayer
370
13
48
1
60
0
100
AcDbSpline
70
4
71
3
72
16
73
12
40
0
40
0
40
0
40
0
40
0.249999999999999
40
0.249999999999999
40
0.499999999999999
40
0.499999999999999
40
0.749999999999998
40
0.749999999999998
40
0.874999999999999
40
0.874999999999999
40
1
40
1
40
1
40
1
41
1
10
8.1056624327025
20
-8.05584836782791
30
0
41
1
10
8.12111376292623
20
-7.99846916820727
30
0
41
1
10
8.13975567725333
20
-7.94172327888208
30
0
41
1
10
8.1851219392768
20
-7.83191947486068
30
0
41
1
10
8.21173961735192
20
-7.77866338250476
30
0
41
1
10
8.27807345100135
20
-7.67774765104255
30
0
41
1
10
8.31704385770792
20
-7.63070347545363
30
0
41
1
10
8.39103491659969
20
-7.57431556968135
30
0
41
1
10
8.41759599948895
20
-7.55857361750128
30
0
41
1
10
8.47600932946898
20
-7.53597576299669
30
0
41
1
10
8.50692224136543
20
-7.5296667942653
30
0
41
1
10
8.53867513459483
20
-7.52966679426527
30
0
0
SPLINE
5
13B
100
AcDbEntity
8
1
62
256
6
ByLayer
370
13
48
1
60
0
100
AcDbSpline
70
4
71
3
72
16
73
12
40
0
40
0
40
0
40
0
40
0.125
40
0.125
40
0.25
40
0.25
40
0.5
40
0.5
40
0.75
40
0.75
40
1
40
1
40
1
40
1
41
1
10
11.4613248654053
20
23.8391299750504
30
0
41
1
10
11.4930267682389
20
23.8391299750504
30
0
41
1
10
11.5243601613892
20
23.8370993498304
30
0
41
1
10
11.5822992776727
20
23.8299908115613
30
0
41
1
10
11.6094109295818
20
23.8248834464053
30
0
41
1
10
11.6822221825146
20
23.8071882416308
30
0
41
1
10
11.7218733396747
20
23.7919356634172
30
0
41
1
10
11.7882878950994
20
23.7590955179201
30
0
41
1
10
11.8151421892069
20
23.7414301198899
30
0
41
1
10
11.8604037172646
20
23.704958919593
30
0
41
1
10
11.878892303015
20
23.6860254491251
30
0
41
1
10
11.8943375672974
20
23.6665017920808
30
0
0
SPLINE
5
13C
100
AcDbEntity
8
1
62
256
6
ByLayer
370
13
48
1
60
0
100
AcDbSpline
70
4
71
3
72
10
73
6
40
0
40
0
40
0
40
0
40
0.5
40
0.5
40
1
40
1
40
1
40
1
41
1
10
22.5677607893398
20
-25.7267776050495
30
0
41
1
10
22.8636875422701
20
-25.8687469452017
30
0
41
1
10
23.1522825170478
20
-26.0307648847946
30
0
41
1
10
23.7119340580338
20
-26.4027591883792
30
0
41
1
10
23.9830482896548
20
-26.6125778674631
30
0
41
1
10
24.2426406871193
20
-26.8539027695969
30
0
0
SPLINE
5
13D
100
AcDbEntity
8
1
62
256
6
ByLayer
370
13
48
1
60
0
100
AcDbSpline
70
4
71
3
72
8
73
4
40
0
40
0
40
0
40
0
40
1
40
1
40
1
40
1
41
1
10
27.5130791947129
20
-29.9072308529793
30
0
41
1
10
28.3327557921164
20
-30.8655861534217
30
0
41
1
10
29.1738737186275
20
-31.7879162249947
30
0
41
1
10
30.032905954119
20
-32.6801470859347
30
0
0
SPLINE
5
13E
100
AcDbEntity
8
1
62
256
6
ByLayer
370
13
48
1
60
0
100
AcDbSpline
70
4
71
3
72
22
73
18
40
0
40
0
40
0
40
0
40
0.125
40
0.125
40
0.25
40
0.25
40
0.375
40
0.375
40
0.5
40
0.5
40
0.625
40
0.625
40
0.75
40
0.75
40
0.875
40
0.875
40
1
40
1
40
1
40
1
41
1
10
27.5130791947129
20
-29.9072308529793
30
0
41
1
10
27.4727252292242
20
-29.8600495172641
30
0
41
1
10
27.4288820190611
20
-29.8099943391258
30
0
41
1
10
27.337431179161
20
-29.7076453199573
30
0
41
1
10
27.2895727737536
20
-29.6550537534737
30
0
41
1
10
27.1898065938334
20
-29.5472693269713
30
0
41
1
10
27.1374410730095
20
-29.4916041027434
30
0
41
1
10
27.0314672733739
20
-29.380752636559
30
0
41
1
10
26.9777516067325
20
-29.3254334865544
30
0
41
1
10
26.8688289273986
20
-29.2150355996851
30
0
41
1
10
26.8131905964225
20
-29.1595397753284
30
0
41
1
10
26.7032895630926
20
-29.0517903017545
30
0
41
1
10
26.6488620594211
20
-28.9993536824738
30
0
41
1
10
26.541169749938
20
-28.8976017602556
30
0
41
1
10
26.488048658406
20
-28.8484467887602
30
0
41
1
10
26.3874045109995
20
-28.7575169256608
30
0
41
1
10
26.3393485519945
20
-28.715229935327
30
0
41
1
10
26.294028344376
20
-28.6766804578287
30
0
0
SPLINE
5
13F
100
AcDbEntity
8
1
62
256
6
ByLayer
370
13
48
1
60
0
100
AcDbSpline
70
4
71
3
72
18
73
14
40
0
40
0
40
0
40
0
40
0.114772448704567
40
0.114772448704567
40
0.291817958963654
40
0.291817958963654
40
0.46886346922274
40
0.46886346922274
40
0.645908979481827
40
0.645908979481827
40
0.822954489740913
40
0.822954489740913
40
1
40
1
40
1
40
1
41
1
10
53.7766137064452
20
-21.2964459514172
30
0
41
1
10
53.7669157657575
20
-21.2761876892487
30
0
41
1
10
53.7574167910079
20
-21.2563161768123
30
0
41
1
10
53.7338000672167
20
-21.2068243996155
30
0
41
1
10
53.7198485880423
20
-21.1775029549995
30
0
41
1
10
53.69382731988
20
-21.1225840989176
30
0
41
1
10
53.6817879576107
20
-21.0970535523298
30
0
41
1
10
53.6599484884822
20
-21.0504038931935
30
0
41
1
10
53.6501176609108
20
-21.0292125172972
30
0
41
1
10
53.6340863704538
20
-20.9941194604893
30
0
41
1
10
53.6276935434775
20
-20.9797950626961
30
0
41
1
10
53.6193256012758
20
-20.9600719760416
30
0
41
1
10
53.6172977660465
20
-20.9545735082522
30
0
41
1
10
53.6176339053175
20
-20.9538526552593
30
0
0
SPLINE
5
140
100
AcDbEntity
8
1
62
256
6
ByLayer
370
13
48
1
60
0
100
AcDbSpline
70
4
71
3
72
14
73
10
40
0
40
0
40
0
40
0
40
0.0609982088773582
40
0.0609982088773582
40
0.53049910443868
40
0.53049910443868
40
0.765249552219339
40
0.765249552219339
40
1
40
1
40
1
40
1
41
1
10
19.5413133750464
20
24.999993027885
30
0
41
1
10
19.5413125322121
20
25.0000844823334
30
0
41
1
10
19.5413177813495
20
24.999540083487
30
0
41
1
10
19.5414162076314
20
24.9892821731683
30
0
41
1
10
19.5418627529768
20
24.9425808651264
30
0
41
1
10
19.5431001326817
20
24.8150698625087
30
0
41
1
10
19.5436076518136
20
24.7629734981765
30
0
41
1
10
19.5448237166699
20
24.6392179523489
30
0
41
1
10
19.5455312261585
20
24.5676667819588
30
0
41
1
10
19.5463391648601
20
24.4868523744339
30
0
0
SPLINE
5
141
100
AcDbEntity
8
1
62
256
6
ByLayer
370
13
48
1
60
0
100
AcDbSpline
70
4
71
3
72
16
73
12
40
0
40
0
40
0
40
0
40
0.124999999999997
40
0.124999999999997
40
0.249999999999994
40
0.249999999999994
40
0.499999999999996
40
0.499999999999996
40
0.749999999999998
40
0.749999999999998
40
1
40
1
40
1
40
1
41
1
10
8.53867513459477
20
-23.8391299750504
30
0
41
1
10
8.50697323176121
20
-23.8391299750504
30
0
41
1
10
8.47563983861085
20
-23.8370993498304
30
0
41
1
10
8.4177007223274
20
-23.8299908115612
30
0
41
1
10
8.39058907041832
20
-23.8248834464052
30
0
41
1
10
8.31777781748551
20
-23.8071882416307
30
0
41
1
10
8.27812666032534
20
-23.7919356634171
30
0
41
1
10
8.21171210490067
20
-23.75909551792
30
0
41
1
10
8.18485781079318
20
-23.7414301198899
30
0
41
1
10
8.13959628273548
20
-23.704958919593
30
0
41
1
10
8.12110769698506
20
-23.6860254491251
30
0
41
1
10
8.10566243270267
20
-23.6665017920808
30
0
0
SPLINE
5
142
100
AcDbEntity
8
1
62
256
6
ByLayer
370
13
48
1
60
0
100
AcDbSpline
70
4
71
3
72
16
73
12
40
0
40
0
40
0
40
0
40
0.124999999999996
40
0.124999999999996
40
0.249999999999992
40
0.249999999999992
40
0.499999999999995
40
0.499999999999995
40
0.749999999999997
40
0.749999999999997
40
1
40
1
40
1
40
1
41
1
10
11.4613248654053
20
-7.5296667942649
30
0
41
1
10
11.4930267682389
20
-7.5296667942649
30
0
41
1
10
11.5243601613892
20
-7.53610198950855
30
0
41
1
10
11.5822992776727
20
-7.558549896036
30
0
41
1
10
11.6094109295818
20
-7.57464889660909
30
0
41
1
10
11.6822221825146
20
-7.63015704912709
30
0
41
1
10
11.7218733396747
20
-7.67767014498907
30
0
41
1
10
11.7882878950994
20
-7.77870179643042
30
0
41
1
10
11.8151421892069
20
-7.83248598676821
30
0
41
1
10
11.8604037172646
20
-7.94218253951269
30
0
41
1
10
11.878892303015
20
-7.99849169434927
30
0
41
1
10
11.8943375672974
20
-8.05584836782791
30
0
0
SPLINE
5
143
100
AcDbEntity
8
1
62
256
6
ByLayer
370
13
48
1
60
0
100
AcDbSpline
70
4
71
3
72
16
73
12
40
0
40
0
40
0
40
0
40
0.250000000000001
40
0.250000000000001
40
0.500000000000001
40
0.500000000000001
40
0.750000000000002
40
0.750000000000002
40
0.875000000000001
40
0.875000000000001
40
1
40
1
40
1
40
1
41
1
10
11.8943375672976
20
-23.6665017920808
30
0
41
1
10
11.8788862370739
20
-23.6860331168061
30
0
41
1
10
11.8602443227468
20
-23.7051129235882
30
0
41
1
10
11.8148780607233
20
-23.7416171457991
30
0
41
1
10
11.7882603826482
20
-23.7591079584197
30
0
41
1
10
11.7219265489987
20
-23.7919105160782
30
0
41
1
10
11.6829561422922
20
-23.8070141183761
30
0
41
1
10
11.6089650834004
20
-23.8249896713849
30
0
41
1
10
11.5824040005111
20
-23.8299833264009
30
0
41
1
10
11.5239906705311
20
-23.8371392949586
30
0
41
1
10
11.4930777586347
20
-23.8391299750503
30
0
41
1
10
11.4613248654053
20
-23.8391299750503
30
0
0
SPLINE
5
144
100
AcDbEntity
8
1
62
256
6
ByLayer
370
13
48
1
60
0
100
AcDbSpline
70
4
71
3
72
22
73
18
40
0
40
0
40
0
40
0
40
0.125
40
0.125
40
0.25
40
0.25
40
0.375
40
0.375
40
0.5
40
0.5
40
0.625
40
0.625
40
0.75
40
0.75
40
0.875
40
0.875
40
1
40
1
40
1
40
1
41
1
10
25.3646720127665
20
-10.7279595371773
30
0
41
1
10
25.3800270566018
20
-10.6408767562352
30
0
41
1
10
25.4089755826435
20
-10.5556182086756
30
0
41
1
10
25.4850044718363
20
-10.3966884556358
30
0
41
1
10
25.532327116969
20
-10.3219295653664
30
0
41
1
10
25.641782893977
20
-10.1821765538429
30
0
41
1
10
25.7024033343244
20
-10.1190286170166
30
0
41
1
10
25.8335550089787
20
-10.0040496502211
30
0
41
1
10
25.9041168271548
20
-9.9522535432661
30
0
41
1
10
26.0548925591567
20
-9.85968283458465
30
0
41
1
10
26.1337776214118
20
-9.81981925174091
30
0
41
1
10
26.2955500053867
20
-9.75324011903203
30
0
41
1
10
26.3788362160091
20
-9.72628992240294
30
0
41
1
10
26.550231560786
20
-9.68512871999189
30
0
41
1
10
26.6380864220998
20
-9.67111883901998
30
0
41
1
10
26.8128955366636
20
-9.65690420779652
30
0
41
1
10
26.9005519776313
20
-9.65650553197264
30
0
41
1
10
26.9884700331087
20
-9.66307466553499
30
0
0
SPLINE
5
145
100
AcDbEntity
8
1
62
256
6
ByLayer
370
13
48
1
60
0
100
AcDbSpline
70
4
71
3
72
12
73
8
40
0
40
0
40
0
40
0
40
0.250000000000001
40
0.250000000000001
40
0.500000000000001
40
0.500000000000001
40
1
40
1
40
1
40
1
41
1
10
19.6677624918508
20
-24.7319114868225
30
0
41
1
10
19.681739744009
20
-24.7554982862175
30
0
41
1
10
19.7052504635931
20
-24.7773120730859
30
0
41
1
10
19.771414411464
20
-24.817566590829
30
0
41
1
10
19.8140122672139
20
-24.8359024305219
30
0
41
1
10
19.9678614446843
20
-24.8853158532518
30
0
41
1
10
20.1053176619467
20
-24.9111695771707
30
0
41
1
10
20.2792076144253
20
-24.9314235840789
30
0
0
SPLINE
5
146
100
AcDbEntity
8
1
62
256
6
ByLayer
370
13
48
1
60
0
100
AcDbSpline
70
4
71
3
72
12
73
8
40
0
40
0
40
0
40
0
40
0.250000000000001
40
0.250000000000001
40
0.500000000000002
40
0.500000000000002
40
1
40
1
40
1
40
1
41
1
10
22.5677607893398
20
-25.7267776050495
30
0
41
1
10
22.430174858178
20
-25.6614018651747
30
0
41
1
10
22.2921093916256
20
-25.6020773569903
30
0
41
1
10
22.0159772854686
20
-25.4945841459344
30
0
41
1
10
21.8776598284661
20
-25.4464255976743
30
0
41
1
10
21.4766216128896
20
-25.320422290597
30
0
41
1
10
21.2234669256256
20
-25.2592465492339
30
0
41
1
10
20.9883692336849
20
-25.2114884212695
30
0
0
SPLINE
5
147
100
AcDbEntity
8
1
62
256
6
ByLayer
370
13
48
1
60
0
100
AcDbSpline
70
4
71
3
72
8
73
4
40
0
40
0
40
0
40
0
40
1
40
1
40
1
40
1
41
1
10
19.5463391648626
20
24.4868523744324
30
0
41
1
10
19.5866157002724
20
24.5559678051224
30
0
41
1
10
19.627090153824
20
24.6119919380655
30
0
41
1
10
19.6677624918508
20
24.6549270001271
30
0
0
SPLINE
5
148
100
AcDbEntity
8
1
62
256
6
ByLayer
370
13
48
1
60
0
100
AcDbSpline
70
4
71
3
72
8
73
4
40
0
40
0
40
0
40
0
40
1
40
1
40
1
40
1
41
1
10
24.2426406871193
20
-26.8539027695969
30
0
41
1
10
24.9166942641734
20
-27.4805232527247
30
0
41
1
10
25.6009754373407
20
-28.0871679897959
30
0
41
1
10
26.294028344376
20
-28.6766804578287
30
0
0
SPLINE
5
149
100
AcDbEntity
8
1
62
256
6
ByLayer
370
13
48
1
60
0
100
AcDbSpline
70
4
71
3
72
16
73
12
40
0
40
0
40
0
40
0
40
0.250000000000002
40
0.250000000000002
40
0.500000000000003
40
0.500000000000003
40
0.750000000000004
40
0.750000000000004
40
0.875000000000002
40
0.875000000000002
40
1
40
1
40
1
40
1
41
1
10
11.8943375672976
20
8.05584836782785
30
0
41
1
10
11.8788862370739
20
7.99846916820721
30
0
41
1
10
11.8602443227468
20
7.94172327888202
30
0
41
1
10
11.8148780607233
20
7.8319194748606
30
0
41
1
10
11.7882603826482
20
7.7786633825047
30
0
41
1
10
11.7219265489987
20
7.67774765104247
30
0
41
1
10
11.6829561422922
20
7.63070347545354
30
0
41
1
10
11.6089650834004
20
7.57431556968123
30
0
41
1
10
11.5824040005111
20
7.5585736175012
30
0
41
1
10
11.5239906705311
20
7.5359757629966
30
0
41
1
10
11.4930777586347
20
7.52966679426521
30
0
41
1
10
11.4613248654053
20
7.52966679426521
30
0
0
SPLINE
5
14A
100
AcDbEntity
8
1
62
256
6
ByLayer
370
13
48
1
60
0
100
AcDbSpline
70
4
71
3
72
8
73
4
40
0
40
0
40
0
40
0
40
1
40
1
40
1
40
1
41
1
10
49.9405181489262
20
-19.4398990893939
30
0
41
1
10
49.9525635457583
20
-19.4444151793118
30
0
41
1
10
49.9644424903719
20
-19.4494027921322
30
0
41
1
10
49.9761013801796
20
-19.4548394217351
30
0
0
SPLINE
5
14B
100
AcDbEntity
8
1
62
256
6
ByLayer
370
13
48
1
60
0
100
AcDbSpline
70
4
71
3
72
8
73
4
40
0
40
0
40
0
40
0
40
1
40
1
40
1
40
1
41
1
10
57.6223008694639
20
-27.1010389110195
30
0
41
1
10
57.6277374990669
20
-27.1126978008272
30
0
41
1
10
57.6327251118872
20
-27.1245767454408
30
0
41
1
10
57.6372412018052
20
-27.1366221422729
30
0
0
SPLINE
5
14C
100
AcDbEntity
8
1
62
256
6
ByLayer
370
13
48
1
60
0
100
AcDbSpline
70
4
71
3
72
8
73
4
40
0
40
0
40
0
40
0
40
1
40
1
40
1
40
1
41
1
10
52.1366221422729
20
-32.6372412018051
30
0
41
1
10
52.1245767454408
20
-32.6327251118872
30
0
41
1
10
52.1126978008272
20
-32.6277374990668
30
0
41
1
10
52.1010389110194
20
-32.6223008694639
30
0
0
SPLINE
5
14D
100
AcDbEntity
8
1
62
256
6
ByLayer
370
13
48
1
60
0
100
AcDbSpline
70
4
71
3
72
28
73
24
40
0
40
0
40
0
40
0
40
0.0625000000000008
40
0.0625000000000008
40
0.125000000000002
40
0.125000000000002
40
0.187500000000002
40
0.187500000000002
40
0.250000000000003
40
0.250000000000003
40
0.375000000000003
40
0.375000000000003
40
0.437500000000002
40
0.437500000000002
40
0.500000000000001
40
0.500000000000001
40
0.625
40
0.625
40
0.749999999999998
40
0.749999999999998
40
0.874999999999999
40
0.874999999999999
40
1
40
1
40
1
40
1
41
1
10
29.8045967644824
20
-17.9585469603045
30
0
41
1
10
29.8232207220615
20
-17.8700169209224
30
0
41
1
10
29.8450213126114
20
-17.7820319562106
30
0
41
1
10
29.8949790142233
20
-17.6084614814802
30
0
41
1
10
29.9227668252341
20
-17.5240680519871
30
0
41
1
10
29.9837173583724
20
-17.3595638934913
30
0
41
1
10
30.0168792901697
20
-17.2794588792398
30
0
41
1
10
30.08836159903
20
-17.1233179678508
30
0
41
1
10
30.1265658368067
20
-17.0476397485449
30
0
41
1
10
30.2452257388308
20
-16.8319761087293
30
0
41
1
10
30.3305991882034
20
-16.7012213162251
30
0
41
1
10
30.4654675420939
20
-16.5215197907806
30
0
41
1
10
30.5113566324752
20
-16.4646951515761
30
0
41
1
10
30.6033976721854
20
-16.3579799785379
30
0
41
1
10
30.6497450181473
20
-16.3078266579536
30
0
41
1
10
30.7896411997095
20
-16.1657415322685
30
0
41
1
10
30.8842084512167
20
-16.0819296324416
30
0
41
1
10
31.0758140370981
20
-15.9324883552972
30
0
41
1
10
31.1719633026374
20
-15.8674691158476
30
0
41
1
10
31.3694874234375
20
-15.7523583574598
30
0
41
1
10
31.4708732797334
20
-15.7022693500535
30
0
41
1
10
31.6850148957082
20
-15.6158501857356
30
0
41
1
10
31.7977633552845
20
-15.5794891611089
30
0
41
1
10
31.9200067180281
20
-15.5512440328023
30
0
0
SPLINE
5
14E
100
AcDbEntity
8
1
62
256
6
ByLayer
370
13
48
1
60
0
100
AcDbSpline
70
4
71
1
72
4
73
2
40
0
40
0
40
1
40
1
41
1
10
37.2146471488042
20
-30.9099517843419
30
0
41
1
10
37.4091900787179
20
-29.8066440027873
30
0
0
SPLINE
5
14F
100
AcDbEntity
8
1
62
256
6
ByLayer
370
13
48
1
60
0
100
AcDbSpline
70
4
71
3
72
8
73
4
40
0
40
0
40
0
40
0
40
1
40
1
40
1
40
1
41
1
10
49.2394237400306
20
-25.0895972505647
30
0
41
1
10
49.5860756553372
20
-25.3757059697685
30
0
41
1
10
49.935649974695
20
-25.6502441152447
30
0
41
1
10
50.2880362388915
20
-25.9062307679104
30
0
0
SPLINE
5
150
100
AcDbEntity
8
1
62
256
6
ByLayer
370
13
48
1
60
0
100
AcDbSpline
70
4
71
3
72
8
73
4
40
0
40
0
40
0
40
0
40
1
40
1
40
1
40
1
41
1
10
47.823047350346
20
-30.2924113818144
30
0
41
1
10
47.7076546836652
20
-30.2925042498775
30
0
41
1
10
47.5924954642537
20
-30.2902632303985
30
0
41
1
10
47.4775903098278
20
-30.2854821978958
30
0
0
SPLINE
5
151
100
AcDbEntity
8
1
62
256
6
ByLayer
370
13
48
1
60
0
100
AcDbSpline
70
4
71
3
72
20
73
16
40
0
40
0
40
0
40
0
40
0.125
40
0.125
40
0.25
40
0.25
40
0.5
40
0.5
40
0.75
40
0.75
40
0.875
40
0.875
40
0.9375
40
0.9375
40
1
40
1
40
1
40
1
41
1
10
45.151299873593
20
-30.5212972689894
30
0
41
1
10
44.8268916542209
20
-30.5947655688175
30
0
41
1
10
44.5007918560845
20
-30.6604093778301
30
0
41
1
10
43.845896264482
20
-30.779226520858
30
0
41
1
10
43.5168686699881
20
-30.8323305880706
30
0
41
1
10
42.5271297969033
20
-30.9723964495922
30
0
41
1
10
41.8652887329615
20
-31.0402660017416
30
0
41
1
10
40.5361735312433
20
-31.1072334232698
30
0
41
1
10
39.8682749338874
20
-31.1093398457016
30
0
41
1
10
38.8707770583805
20
-31.0726115045796
30
0
41
1
10
38.5386981583429
20
-31.0536701209353
30
0
41
1
10
38.0413762856421
20
-31.0125668230316
30
0
41
1
10
37.87573617762
20
-30.9967329394972
30
0
41
1
10
37.544833689165
20
-30.9590463888154
30
0
41
1
10
37.3795560585377
20
-30.9374367211814
30
0
41
1
10
37.2146471488042
20
-30.9099517843419
30
0
0
SPLINE
5
152
100
AcDbEntity
8
1
62
256
6
ByLayer
370
13
48
1
60
0
100
AcDbSpline
70
4
71
3
72
14
73
10
40
0
40
0
40
0
40
0
40
0.25
40
0.25
40
0.5
40
0.5
40
0.75
40
0.75
40
1
40
1
40
1
40
1
41
1
10
33.4767693771718
20
-19.7787887292826
30
0
41
1
10
33.388988081714
20
-19.8194315279286
30
0
41
1
10
33.2972814164623
20
-19.8557067721145
30
0
41
1
10
33.1123611777432
20
-19.9174659573684
30
0
41
1
10
33.0185183067893
20
-19.9432868591544
30
0
41
1
10
32.8282189333367
20
-19.9853983265894
30
0
41
1
10
32.733381515181
20
-20.0012900904689
30
0
41
1
10
32.5472065031517
20
-20.0238648043871
30
0
41
1
10
32.455345804281
20
-20.0306543904518
30
0
41
1
10
32.364585402941
20
-20.0335633844581
30
0
0
SPLINE
5
153
100
AcDbEntity
8
1
62
256
6
ByLayer
370
13
48
1
60
0
100
AcDbSpline
70
4
71
3
72
24
73
20
40
0
40
0
40
0
40
0
40
0.125
40
0.125
40
0.25
40
0.25
40
0.375
40
0.375
40
0.500000000000001
40
0.500000000000001
40
0.625000000000001
40
0.625000000000001
40
0.750000000000001
40
0.750000000000001
40
0.812500000000001
40
0.812500000000001
40
0.875000000000001
40
0.875000000000001
40
1
40
1
40
1
40
1
41
1
10
39.1700821703649
20
-19.8201286971214
30
0
41
1
10
39.3459931735089
20
-19.8896667475435
30
0
41
1
10
39.5176107836927
20
-19.971224404261
30
0
41
1
10
39.8450870324555
20
-20.1538423956003
30
0
41
1
10
40.0016038458064
20
-20.2550584422391
30
0
41
1
10
40.300528171535
20
-20.4765912940811
30
0
41
1
10
40.4431039951985
20
-20.5970544107801
30
0
41
1
10
40.713305684813
20
-20.8571785460883
30
0
41
1
10
40.8392181454734
20
-20.9951416446648
30
0
41
1
10
41.0729132371693
20
-21.2873951604487
30
0
41
1
10
41.1799472941548
20
-21.4408963533415
30
0
41
1
10
41.3721191390337
20
-21.7598383756326
30
0
41
1
10
41.4576656385494
20
-21.9257635635159
30
0
41
1
10
41.5692796558334
20
-22.1854496012188
30
0
41
1
10
41.6036771588584
20
-22.2738861557125
30
0
41
1
10
41.6657218015773
20
-22.4519329173818
30
0
41
1
10
41.6935123141557
20
-22.5418533646486
30
0
41
1
10
41.7670922862702
20
-22.8143660282816
30
0
41
1
10
41.8031475544694
20
-22.9996933007618
30
0
41
1
10
41.8253095353779
20
-23.1890096502434
30
0
0
SPLINE
5
154
100
AcDbEntity
8
1
62
256
6
ByLayer
370
13
48
1
60
0
100
AcDbSpline
70
4
71
3
72
18
73
14
40
0
40
0
40
0
40
0
40
0.250000000000004
40
0.250000000000004
40
0.375000000000005
40
0.375000000000005
40
0.500000000000007
40
0.500000000000007
40
0.750000000000004
40
0.750000000000004
40
0.875000000000002
40
0.875000000000002
40
1
40
1
40
1
40
1
41
1
10
33.6759545915759
20
-19.6765810348581
30
0
41
1
10
33.8728607610893
20
-19.5651978111187
30
0
41
1
10
34.0769093114725
20
-19.4716821235162
30
0
41
1
10
34.3951524417287
20
-19.3578224407044
30
0
41
1
10
34.5036727156484
20
-19.3242008522645
30
0
41
1
10
34.7232238231848
20
-19.2666032717678
30
0
41
1
10
34.8338791518549
20
-19.2426850770009
30
0
41
1
10
35.1686949625133
20
-19.1853675777635
30
0
41
1
10
35.3956951045794
20
-19.1662951539113
30
0
41
1
10
35.7429088856693
20
-19.1675554587874
30
0
41
1
10
35.8594889370077
20
-19.1730301330739
30
0
41
1
10
36.091034888183
20
-19.1938801635655
30
0
41
1
10
36.2064652286077
20
-19.2092494287093
30
0
41
1
10
36.3215578717638
20
-19.2295433669788
30
0
0
SPLINE
5
155
100
AcDbEntity
8
1
62
256
6
ByLayer
370
13
48
1
60
0
100
AcDbSpline
70
4
71
2
72
6
73
3
40
0
40
0
40
0
40
1
40
1
40
1
41
1.02805999725224
10
39.5198994315614
20
-17.836216423509
30
0
41
0.930554445970897
10
39.4168779661658
20
-18.4204801872374
30
0
41
0.937301687733887
10
39.1700821698549
20
-19.8201287000134
30
0
0
SPLINE
5
156
100
AcDbEntity
8
1
62
256
6
ByLayer
370
13
48
1
60
0
100
AcDbSpline
70
4
71
3
72
8
73
4
40
0
40
0
40
0
40
0
40
1
40
1
40
1
40
1
41
1
10
50.2880362388706
20
-25.9062307679164
30
0
41
1
10
49.8689913918091
20
-26.0263588159896
30
0
41
1
10
49.4470328953777
20
-26.164650089941
30
0
41
1
10
49.0233576990002
20
-26.3149686608929
30
0
0
SPLINE
5
157
100
AcDbEntity
8
1
62
256
6
ByLayer
370
13
48
1
60
0
100
AcDbSpline
70
4
71
3
72
20
73
16
40
0
40
0
40
0
40
0
40
0.125000000000001
40
0.125000000000001
40
0.187500000000001
40
0.187500000000001
40
0.250000000000002
40
0.250000000000002
40
0.5
40
0.5
40
0.625
40
0.625
40
0.75
40
0.75
40
1
40
1
40
1
40
1
41
1
10
32.0027050034482
20
-16.5107322266012
30
0
41
1
10
32.0440174868446
20
-16.5873184589382
30
0
41
1
10
32.0887245567551
20
-16.6742120741641
30
0
41
1
10
32.1608012021989
20
-16.8191720629135
30
0
41
1
10
32.1857353736259
20
-16.870083626292
30
0
41
1
10
32.2368163952123
20
-16.9757473630615
30
0
41
1
10
32.2629782571552
20
-17.0305250848393
30
0
41
1
10
32.3968003778348
20
-17.3136393396595
30
0
41
1
10
32.5134050075899
20
-17.5693054608613
30
0
41
1
10
32.7020712824431
20
-17.991724179639
30
0
41
1
10
32.7672715290419
20
-18.1390848382703
30
0
41
1
10
32.9024130949462
20
-18.4468155453712
30
0
41
1
10
32.9712610697382
20
-18.6046942016995
30
0
41
1
10
33.1814929147967
20
-19.0893505210448
30
0
41
1
10
33.326562176467
20
-19.4271153280806
30
0
41
1
10
33.4767693771729
20
-19.7787887292849
30
0
0
SPLINE
5
158
100
AcDbEntity
8
1
62
256
6
ByLayer
370
13
48
1
60
0
100
AcDbSpline
70
4
71
3
72
14
73
10
40
0
40
0
40
0
40
0
40
0.250000000000003
40
0.250000000000003
40
0.375000000000003
40
0.375000000000003
40
0.500000000000003
40
0.500000000000003
40
1
40
1
40
1
40
1
41
1
10
28.5840611905163
20
-28.9889964403007
30
0
41
1
10
28.7186610043284
20
-29.0926307040476
30
0
41
1
10
28.8559408859771
20
-29.1816181388804
30
0
41
1
10
29.0630779940097
20
-29.2971387058839
30
0
41
1
10
29.1325443623203
20
-29.3327316461598
30
0
41
1
10
29.2704148817045
20
-29.3979213508625
30
0
41
1
10
29.3387072151098
20
-29.4274885691908
30
0
41
1
10
29.6764053259383
20
-29.5621497718425
30
0
41
1
10
29.9344289298292
20
-29.6284122501551
30
0
41
1
10
30.1746497154916
20
-29.6707696559943
30
0
0
SPLINE
5
159
100
AcDbEntity
8
1
62
256
6
ByLayer
370
13
48
1
60
0
100
AcDbSpline
70
4
71
3
72
10
73
6
40
0
40
0
40
0
40
0
40
0.5
40
0.5
40
1
40
1
40
1
40
1
41
1
10
31.6684378983428
20
-19.9829840196141
30
0
41
1
10
31.7791853557832
20
-20.0025117844057
30
0
41
1
10
31.8934044667291
20
-20.0171513689832
30
0
41
1
10
32.1263527779295
20
-20.0345964354024
30
0
41
1
10
32.2446289106213
20
-20.0374081527933
30
0
41
1
10
32.364585402941
20
-20.0335633844581
30
0
0
SPLINE
5
15A
100
AcDbEntity
8
1
62
256
6
ByLayer
370
13
48
1
60
0
100
AcDbSpline
70
4
71
3
72
8
73
4
40
0
40
0
40
0
40
0
40
1
40
1
40
1
40
1
41
1.0241704137769
10
50.9599066340042
20
-22.3080044343143
30
0
41
1.0223381109506
10
50.4480543299506
20
-21.7895035277934
30
0
41
1.02059843516864
10
49.9130176192259
20
-21.3115226049238
30
0
41
1.01923193626848
10
49.4719071179491
20
-20.9415274345663
30
0
0
SPLINE
5
15B
100
AcDbEntity
8
1
62
256
6
ByLayer
370
13
48
1
60
0
100
AcDbSpline
70
4
71
3
72
14
73
10
40
0
40
0
40
0
40
0
40
0.25
40
0.25
40
0.375000000000003
40
0.375000000000003
40
0.500000000000007
40
0.500000000000007
40
1
40
1
40
1
40
1
41
1
10
30.9473390013223
20
-15.5861819571711
30
0
41
1
10
31.1078487000204
20
-15.5352830346641
30
0
41
1
10
31.2665853342692
20
-15.4986125611472
30
0
41
1
10
31.5005649707969
20
-15.4607735891305
30
0
41
1
10
31.5781411213788
20
-15.4510144886735
30
0
41
1
10
31.7303184022395
20
-15.4367929901207
30
0
41
1
10
31.8047612846955
20
-15.4323205458925
30
0
41
1
10
32.1689037744079
20
-15.4211035191033
30
0
41
1
10
32.4345398121306
20
-15.4471060423129
30
0
41
1
10
32.6751834738954
20
-15.4895380126185
30
0
0
SPLINE
5
15C
100
AcDbEntity
8
1
62
256
6
ByLayer
370
13
48
1
60
0
100
AcDbSpline
70
4
71
3
72
26
73
22
40
0
40
0
40
0
40
0
40
0.0625000000000011
40
0.0625000000000011
40
0.125000000000002
40
0.125000000000002
40
0.187500000000003
40
0.187500000000003
40
0.250000000000005
40
0.250000000000005
40
0.312500000000006
40
0.312500000000006
40
0.375000000000007
40
0.375000000000007
40
0.500000000000005
40
0.500000000000005
40
0.625000000000003
40
0.625000000000003
40
0.750000000000001
40
0.750000000000001
40
1
40
1
40
1
40
1
41
1
10
48.4231037690164
20
-23.5114133119319
30
0
41
1
10
48.4015539598517
20
-23.5282262524336
30
0
41
1
10
48.3819187774449
20
-23.5474629707643
30
0
41
1
10
48.3474422061395
20
-23.5920050003637
30
0
41
1
10
48.3324856068116
20
-23.6176206305802
30
0
41
1
10
48.3096848058592
20
-23.6750823266457
30
0
41
1
10
48.3017567704368
20
-23.7069501209408
30
0
41
1
10
48.2943397258549
20
-23.7775356272825
30
0
41
1
10
48.2949821986997
20
-23.814894619238
30
0
41
1
10
48.3047474815868
20
-23.8936398201599
30
0
41
1
10
48.3140740727283
20
-23.9353715688028
30
0
41
1
10
48.3395232498832
20
-24.0180511635459
30
0
41
1
10
48.3557591756508
20
-24.0597614696018
30
0
41
1
10
48.4125065420158
20
-24.1838909672851
30
0
41
1
10
48.4593042703991
20
-24.262400413338
30
0
41
1
10
48.5636412457371
20
-24.4139092007364
30
0
41
1
10
48.619767953334
20
-24.4847232242754
30
0
41
1
10
48.7368281309765
20
-24.620351810434
30
0
41
1
10
48.7977854041372
20
-24.6850471593655
30
0
41
1
10
48.9827540595157
20
-24.8700303779409
30
0
41
1
10
49.1099792213908
20
-24.9828051337744
30
0
41
1
10
49.2394237400306
20
-25.0895972505648
30
0
0
SPLINE
5
15D
100
AcDbEntity
8
1
62
256
6
ByLayer
370
13
48
1
60
0
100
AcDbSpline
70
4
71
3
72
16
73
12
40
0
40
0
40
0
40
0
40
0.250000000000001
40
0.250000000000001
40
0.374999999999999
40
0.374999999999999
40
0.499999999999998
40
0.499999999999998
40
0.749999999999999
40
0.749999999999999
40
1
40
1
40
1
40
1
41
1
10
41.8253095353779
20
-23.1890096502434
30
0
41
1
10
41.8490903612522
20
-23.3921959959368
30
0
41
1
10
41.8578502928995
20
-23.5952928177378
30
0
41
1
10
41.8490423746948
20
-23.8998153783014
30
0
41
1
10
41.8424329822906
20
-24.001302308869
30
0
41
1
10
41.8217803899956
20
-24.2042352250699
30
0
41
1
10
41.8076947411161
20
-24.305819996386
30
0
41
1
10
41.7546087329154
20
-24.6074737870664
30
0
41
1
10
41.7045973852858
20
-24.8059518030053
30
0
41
1
10
41.5761476580531
20
-25.1939454931225
30
0
41
1
10
41.4981702260229
20
-25.3823618327623
30
0
41
1
10
41.4063300477596
20
-25.5651604011649
30
0
0
SPLINE
5
15E
100
AcDbEntity
8
1
62
256
6
ByLayer
370
13
48
1
60
0
100
AcDbSpline
70
4
71
3
72
16
73
12
40
0
40
0
40
0
40
0
40
0.25
40
0.25
40
0.500000000000001
40
0.500000000000001
40
0.625000000000001
40
0.625000000000001
40
0.750000000000001
40
0.750000000000001
40
1
40
1
40
1
40
1
41
1
10
32.3949042185997
20
-25.9143509343709
30
0
41
1
10
32.1337150947718
20
-26.1931869464048
30
0
41
1
10
31.880869806744
20
-26.4620395648381
30
0
41
1
10
31.3931166515236
20
-26.9768969233376
30
0
41
1
10
31.1633576776447
20
-27.2174757731339
30
0
41
1
10
30.8405648335798
20
-27.550950238256
30
0
41
1
10
30.7365574000306
20
-27.6575865739393
30
0
41
1
10
30.5366850524829
20
-27.8604462914824
30
0
41
1
10
30.4424166859055
20
-27.955049127273
30
0
41
1
10
30.1766144261943
20
-28.2179345845286
30
0
41
1
10
30.0218462192336
20
-28.365643921845
30
0
41
1
10
29.8919956506047
20
-28.4811598058796
30
0
0
SPLINE
5
15F
100
AcDbEntity
8
1
62
256
6
ByLayer
370
13
48
1
60
0
100
AcDbSpline
70
4
71
3
72
8
73
4
40
0
40
0
40
0
40
0
40
1
40
1
40
1
40
1
41
1
10
33.6759545915759
20
-19.6765810348581
30
0
41
1
10
33.6110970926502
20
-19.713268749275
30
0
41
1
10
33.5446861492176
20
-19.7473432182936
30
0
41
1
10
33.4767693771717
20
-19.7787887292826
30
0
0
SPLINE
5
160
100
AcDbEntity
8
1
62
256
6
ByLayer
370
13
48
1
60
0
100
AcDbSpline
70
4
71
3
72
30
73
26
40
0
40
0
40
0
40
0
40
0.125000000000001
40
0.125000000000001
40
0.250000000000003
40
0.250000000000003
40
0.375000000000004
40
0.375000000000004
40
0.437500000000004
40
0.437500000000004
40
0.500000000000004
40
0.500000000000004
40
0.625000000000003
40
0.625000000000003
40
0.687500000000002
40
0.687500000000002
40
0.750000000000002
40
0.750000000000002
40
0.812500000000001
40
0.812500000000001
40
0.875000000000001
40
0.875000000000001
40
0.9375
40
0.9375
40
1
40
1
40
1
40
1
41
1
10
29.4861203924815
20
-29.3544993018916
30
0
41
1
10
29.3813708495944
20
-29.2864475209548
30
0
41
1
10
29.287525979484
20
-29.2135794768683
30
0
41
1
10
29.1145874138446
20
-29.0578980454516
30
0
41
1
10
29.0362267101561
20
-28.9757349692923
30
0
41
1
10
28.890130215773
20
-28.7998928201882
30
0
41
1
10
28.8223651097045
20
-28.7061760082765
30
0
41
1
10
28.7265269797134
20
-28.5530200719513
30
0
41
1
10
28.6955721819095
20
-28.4998561039602
30
0
41
1
10
28.6355906348526
20
-28.3884590447303
30
0
41
1
10
28.6064692165762
20
-28.3300176011048
30
0
41
1
10
28.5229308901221
20
-28.1470892573601
30
0
41
1
10
28.4726991751504
20
-28.0161374870354
30
0
41
1
10
28.4079712095921
20
-27.8030632816204
30
0
41
1
10
28.3881881178064
20
-27.7292606215058
30
0
41
1
10
28.3529120882265
20
-27.5754046631024
30
0
41
1
10
28.3375005580688
20
-27.4955103241121
30
0
41
1
10
28.3123396339987
20
-27.3327441076751
30
0
41
1
10
28.3024850893279
20
-27.2494538410601
30
0
41
1
10
28.2888094925383
20
-27.078762225327
30
0
41
1
10
28.2850035876392
20
-26.9907085585373
30
0
41
1
10
28.2841261830061
20
-26.8142466528572
30
0
41
1
10
28.2869910475792
20
-26.7257074935285
30
0
41
1
10
28.2993376470852
20
-26.5479000926455
30
0
41
1
10
28.3088224766405
20
-26.4586371186949
30
0
41
1
10
28.3216313614901
20
-26.3688616894171
30
0
0
SPLINE
5
161
100
AcDbEntity
8
1
62
256
6
ByLayer
370
13
48
1
60
0
100
AcDbSpline
70
4
71
3
72
12
73
8
40
0
40
0
40
0
40
0
40
0.103595537238352
40
0.300483156475477
40
0.497370775712601
40
0.89114601418685
40
1
40
1
40
1
40
1
41
1.02076673287779
10
49.0233578789421
20
-26.31496868785
30
0
41
1.02005196039548
10
48.7803934311996
20
-26.2785702383761
30
0
41
1.01814069316835
10
48.1186917736253
20
-26.1730863369382
30
0
41
1.01610930227499
10
47.3850623949429
20
-26.0342167819087
30
0
41
1.01876555595691
10
45.7714289411499
20
-25.9328236646923
30
0
41
1.02173322384664
10
43.4049205924788
20
-25.7505260329764
30
0
41
1.02394775681994
10
41.7539501511442
20
-25.5984321674737
30
0
41
1.02441262532196
10
41.4063300478477
20
-25.5651604011733
30
0
0
SPLINE
5
162
100
AcDbEntity
8
1
62
256
6
ByLayer
370
13
48
1
60
0
100
AcDbSpline
70
4
71
3
72
18
73
14
40
0
40
0
40
0
40
0
40
0.249999999999993
40
0.249999999999993
40
0.374999999999993
40
0.374999999999993
40
0.499999999999993
40
0.499999999999993
40
0.624999999999992
40
0.624999999999992
40
0.749999999999992
40
0.749999999999992
40
1
40
1
40
1
40
1
41
1
10
34.8802779971283
20
-27.4034477169801
30
0
41
1
10
34.6501068057562
20
-27.3628623257594
30
0
41
1
10
34.4262538620256
20
-27.3035594792438
30
0
41
1
10
34.0998927878521
20
-27.1863339974312
30
0
41
1
10
33.9924265618005
20
-27.1423770425347
30
0
41
1
10
33.7833330750187
20
-27.0459811885698
30
0
41
1
10
33.681410495227
20
-26.9934633451267
30
0
41
1
10
33.4826485392322
20
-26.8797832599375
30
0
41
1
10
33.3862273128246
20
-26.8188231611056
30
0
41
1
10
33.2008298504378
20
-26.6900908164695
30
0
41
1
10
33.1115461670211
20
-26.6221458237381
30
0
41
1
10
32.8533757652419
20
-26.4076643547384
30
0
41
1
10
32.6940920268183
20
-26.2505741829071
30
0
41
1
10
32.5471200044487
20
-26.0785201061878
30
0
0
SPLINE
5
163
100
AcDbEntity
8
1
62
256
6
ByLayer
370
13
48
1
60
0
100
AcDbSpline
70
4
71
3
72
8
73
4
40
0
40
0
40
0
40
0
40
1
40
1
40
1
40
1
41
1
10
51.7271340719598
20
-23.2554327450632
30
0
41
1
10
51.469950174338
20
-22.9378370811834
30
0
41
1
10
51.2142400410948
20
-22.6220613647443
30
0
41
1
10
50.9599907742186
20
-22.3080896680278
30
0
0
SPLINE
5
164
100
AcDbEntity
8
1
62
256
6
ByLayer
370
13
48
1
60
0
100
AcDbSpline
70
4
71
3
72
26
73
22
40
0
40
0
40
0
40
0
40
0.249999999999994
40
0.249999999999994
40
0.374999999999992
40
0.374999999999992
40
0.499999999999989
40
0.499999999999989
40
0.624999999999987
40
0.624999999999987
40
0.687499999999989
40
0.687499999999989
40
0.749999999999991
40
0.749999999999991
40
0.812499999999994
40
0.812499999999994
40
0.874999999999996
40
0.874999999999996
40
0.937499999999998
40
0.937499999999998
40
1
40
1
40
1
40
1
41
1
10
49.0233576990002
20
-26.3149686608929
30
0
41
1
10
48.8652215689437
20
-26.3710382245941
30
0
41
1
10
48.7069415022747
20
-26.4335375774695
30
0
41
1
10
48.4691363955634
20
-26.5444852328862
30
0
41
1
10
48.3901943787751
20
-26.5842363721895
30
0
41
1
10
48.2347366987117
20
-26.6711224562467
30
0
41
1
10
48.1580271548447
20
-26.7182596724338
30
0
41
1
10
48.0080312731771
20
-26.8249406259224
30
0
41
1
10
47.937071120645
20
-26.8827679984742
30
0
41
1
10
47.8412329132277
20
-26.9799493302988
30
0
41
1
10
47.8115409473738
20
-27.0137328564679
30
0
41
1
10
47.7591100085035
20
-27.0829866153169
30
0
41
1
10
47.7360827605382
20
-27.1189944395577
30
0
41
1
10
47.699936749735
20
-27.1896872019075
30
0
41
1
10
47.6863682846976
20
-27.2251382945766
30
0
41
1
10
47.6693212506426
20
-27.2937572227798
30
0
41
1
10
47.6658865352505
20
-27.3262546600356
30
0
41
1
10
47.6676858233405
20
-27.3881627662971
30
0
41
1
10
47.6729881375258
20
-27.4172663468416
30
0
41
1
10
47.6901350362288
20
-27.4708294027657
30
0
41
1
10
47.7019965305851
20
-27.495607867484
30
0
41
1
10
47.7164971491644
20
-27.5187785887804
30
0
0
SPLINE
5
165
100
AcDbEntity
8
1
62
256
6
ByLayer
370
13
48
1
60
0
100
AcDbSpline
70
4
71
3
72
10
73
6
40
0
40
0
40
0
40
0
40
0.5
40
0.5
40
1
40
1
40
1
40
1
41
1
10
37.4091900787179
20
-29.8066440027873
30
0
41
1
10
37.4423203513468
20
-29.6187528899483
30
0
41
1
10
37.4897796024172
20
-29.3495981021799
30
0
41
1
10
37.6084508928856
20
-28.6765797700361
30
0
41
1
10
37.6796412423079
20
-28.2728392356251
30
0
41
1
10
37.7590073433899
20
-27.8227317094648
30
0
0
SPLINE
5
166
100
AcDbEntity
8
1
62
256
6
ByLayer
370
13
48
1
60
0
100
AcDbSpline
70
4
71
3
72
8
73
4
40
0
40
0
40
0
40
0
40
1
40
1
40
1
40
1
41
1
10
51.8648695750832
20
-28.1742541855066
30
0
41
1
10
51.9441200586119
20
-28.143389394161
30
0
41
1
10
52.023011229618
20
-28.1078534249473
30
0
41
1
10
52.1015319839697
20
-28.0675019206045
30
0
0
SPLINE
5
167
100
AcDbEntity
8
1
62
256
6
ByLayer
370
13
48
1
60
0
100
AcDbSpline
70
4
71
3
72
8
73
4
40
0
40
0
40
0
40
0
40
1
40
1
40
1
40
1
41
1
10
36.9031525874261
20
-27.7601350858392
30
0
41
1
10
37.1875174545523
20
-27.8102762842792
30
0
41
1
10
37.4727694788903
20
-27.8304665170734
30
0
41
1
10
37.7590073399145
20
-27.8227317291749
30
0
0
SPLINE
5
168
100
AcDbEntity
8
1
62
256
6
ByLayer
370
13
48
1
60
0
100
AcDbSpline
70
4
71
3
72
18
73
14
40
0
40
0
40
0
40
0
40
0.124999999999999
40
0.124999999999999
40
0.249999999999998
40
0.249999999999998
40
0.499999999999997
40
0.499999999999997
40
0.624999999999998
40
0.624999999999998
40
0.749999999999998
40
0.749999999999998
40
1
40
1
40
1
40
1
41
1
10
32.364585402941
20
-20.0335633844581
30
0
41
1
10
32.2390089027219
20
-19.9273519814428
30
0
41
1
10
32.1153741838613
20
-19.8230224062746
30
0
41
1
10
31.872039345547
20
-19.6182882446712
30
0
41
1
10
31.7520412273023
20
-19.5176354377389
30
0
41
1
10
31.4015673830596
20
-19.2248021527599
30
0
41
1
10
31.1798366267557
20
-19.0410661924385
30
0
41
1
10
30.8660273543548
20
-18.7844165505018
30
0
41
1
10
30.7645726133382
20
-18.7020445201542
30
0
41
1
10
30.5683654390675
20
-18.5442407363573
30
0
41
1
10
30.4748003377025
20
-18.4697675565654
30
0
41
1
10
30.209182364174
20
-18.2610996045773
30
0
41
1
10
30.0514398272504
20
-18.1409814441788
30
0
41
1
10
29.9146292326254
20
-18.0424297451092
30
0
0
SPLINE
5
169
100
AcDbEntity
8
1
62
256
6
ByLayer
370
13
48
1
60
0
100
AcDbSpline
70
4
71
3
72
8
73
4
40
0
40
0
40
0
40
0
40
1
40
1
40
1
40
1
41
1
10
28.3216313614901
20
-26.3688616894171
30
0
41
1
10
28.3249055052587
20
-26.3459137383817
30
0
41
1
10
28.3285753347067
20
-26.3228608086543
30
0
41
1
10
28.3326596896729
20
-26.2996972805894
30
0
0
SPLINE
5
16A
100
AcDbEntity
8
1
62
256
6
ByLayer
370
13
48
1
60
0
100
AcDbSpline
70
4
71
3
72
8
73
4
40
0
40
0
40
0
40
0
40
1
40
1
40
1
40
1
41
1
10
52.7313630777782
20
-24.4955522888584
30
0
41
1
10
52.6716996825089
20
-24.431125174964
30
0
41
1
10
52.6097414697258
20
-24.370703722545
30
0
41
1
10
52.5454845834723
20
-24.3142946622704
30
0
0
SPLINE
5
16B
100
AcDbEntity
8
1
62
256
6
ByLayer
370
13
48
1
60
0
100
AcDbSpline
70
4
71
3
72
8
73
4
40
0
40
0
40
0
40
0
40
1
40
1
40
1
40
1
41
1
10
29.8045967644824
20
-17.9585469603046
30
0
41
1
10
29.799824791719
20
-17.9812308036757
30
0
41
1
10
29.7953887370414
20
-18.0041486272219
30
0
41
1
10
29.7913043820752
20
-18.0273121552868
30
0
0
SPLINE
5
16C
100
AcDbEntity
8
1
62
256
6
ByLayer
370
13
48
1
60
0
100
AcDbSpline
70
4
71
3
72
12
73
8
40
0
40
0
40
0
40
0
40
0.103595514297712
40
0.300483138573828
40
0.497370762849944
40
0.891146011402176
40
1
40
1
40
1
40
1
41
1.02076673234807
10
49.2394237400319
20
-25.089597250565
30
0
41
1.02005196006992
10
48.9986629049241
20
-25.0407018842902
30
0
41
1.01814069306383
10
48.3407891950643
20
-24.9135090477624
30
0
41
1.01610930227499
10
47.6039069342503
20
-24.7930877248144
30
0
41
1.01876555595691
10
46.0529089965809
20
-24.3364709437191
30
0
41
1.02173322384663
10
43.7667691021748
20
-23.698381158435
30
0
41
1.02394775681993
10
42.1633451956428
20
-23.2766374945439
30
0
41
1.02441262532194
10
41.8253095354633
20
-23.1890096502655
30
0
0
SPLINE
5
16D
100
AcDbEntity
8
1
62
256
6
ByLayer
370
13
48
1
60
0
100
AcDbSpline
70
4
71
3
72
8
73
4
40
0
40
0
40
0
40
0
40
1
40
1
40
1
40
1
41
1
10
50.7337195341194
20
-28.8893665559351
30
0
41
1
10
50.3834216089389
20
-29.0998467841031
30
0
41
1
10
50.0351310279521
20
-29.3091208781963
30
0
41
1
10
49.6888302233922
20
-29.5171993939939
30
0
0
SPLINE
5
16E
100
AcDbEntity
8
1
62
256
6
ByLayer
370
13
48
1
60
0
100
AcDbSpline
70
4
71
3
72
22
73
18
40
0
40
0
40
0
40
0
40
0.0625000000000004
40
0.0625000000000004
40
0.125000000000001
40
0.125000000000001
40
0.250000000000002
40
0.250000000000002
40
0.375000000000003
40
0.375000000000003
40
0.500000000000004
40
0.500000000000004
40
0.750000000000003
40
0.750000000000003
40
0.875000000000002
40
0.875000000000002
40
1
40
1
40
1
40
1
41
1
10
39.7144423614751
20
-16.7329086419544
30
0
41
1
10
39.8788431353086
20
-16.7634902428885
30
0
41
1
10
40.0415583610334
20
-16.7997167313114
30
0
41
1
10
40.3654026764037
20
-16.8774816655335
30
0
41
1
10
40.5264619600376
20
-16.9192538911217
30
0
41
1
10
41.00780582525
20
-17.0507125716772
30
0
41
1
10
41.3262765409759
20
-17.1464736492574
30
0
41
1
10
41.9593797299997
20
-17.3508500484167
30
0
41
1
10
42.2739703688364
20
-17.45960547328
30
0
41
1
10
42.8991178512806
20
-17.6906254718138
30
0
41
1
10
43.2094065193186
20
-17.8128343253621
30
0
41
1
10
44.1291904500888
20
-18.2010622837496
30
0
41
1
10
44.7277973881798
20
-18.4911639997743
30
0
41
1
10
45.6095180771549
20
-18.9610478916785
30
0
41
1
10
45.9007327949072
20
-19.1235795651788
30
0
41
1
10
46.4757043996192
20
-19.4593325023118
30
0
41
1
10
46.7597646855359
20
-19.6325971103368
30
0
41
1
10
47.0395286876431
20
-19.8126195245889
30
0
0
SPLINE
5
16F
100
AcDbEntity
8
1
62
256
6
ByLayer
370
13
48
1
60
0
100
AcDbSpline
70
4
71
3
72
8
73
4
40
0
40
0
40
0
40
0
40
1
40
1
40
1
40
1
41
1.01923193651471
10
47.8230972782873
20
-30.2923932201657
30
0
41
1.02059845255999
10
48.3641581391377
20
-30.0955776977718
30
0
41
1.02233815481013
10
49.0304171834961
20
-29.8294116867375
30
0
41
1.02417048289515
10
49.6887467937478
20
-29.5172389556891
30
0
0
SPLINE
5
170
100
AcDbEntity
8
1
62
256
6
ByLayer
370
13
48
1
60
0
100
AcDbSpline
70
4
71
3
72
11
73
7
40
0
40
0
40
0
40
0
40
0.100258159504419
40
0.259036131356581
40
0.576592075060903
40
1
40
1
40
1
40
1
41
1.01774327987905
10
48.4231037690199
20
-23.5114133119327
30
0
41
1.01722454828226
10
48.2116211410649
20
-23.4637787142061
30
0
41
1.01635405201137
10
47.7095923685905
20
-23.3287122875721
30
0
41
1.01876555595691
10
46.4054137391
20
-22.3694477747253
30
0
41
1.02349884684922
10
43.0355005175019
20
-19.8214743333981
30
0
41
1.02767136955276
10
40.3403913526763
20
-18.0905972153987
30
0
41
1.02805999725224
10
39.5198994315614
20
-17.836216423509
30
0
0
SPLINE
5
171
100
AcDbEntity
8
1
62
256
6
ByLayer
370
13
48
1
60
0
100
AcDbSpline
70
4
71
3
72
24
73
20
40
0
40
0
40
0
40
0
40
0.125
40
0.125
40
0.25
40
0.25
40
0.374999999999999
40
0.374999999999999
40
0.499999999999999
40
0.499999999999999
40
0.624999999999999
40
0.624999999999999
40
0.6875
40
0.6875
40
0.750000000000001
40
0.750000000000001
40
0.875
40
0.875
40
1
40
1
40
1
40
1
41
1
10
47.7164971491645
20
-27.5187785887804
30
0
41
1
10
47.7878507320206
20
-27.6328154439239
30
0
41
1
10
47.8615850251158
20
-27.7449554407278
30
0
41
1
10
48.0194183226403
20
-27.9609772310445
30
0
41
1
10
48.1036611822784
20
-28.0647444062606
30
0
41
1
10
48.2855858363763
20
-28.2615711303832
30
0
41
1
10
48.3834158765971
20
-28.3550405853014
30
0
41
1
10
48.593272112881
20
-28.5280022277869
30
0
41
1
10
48.7049747222759
20
-28.6073245350782
30
0
41
1
10
48.9448787172588
20
-28.748535114373
30
0
41
1
10
49.0730314365292
20
-28.810474811421
30
0
41
1
10
49.2813812364484
20
-28.8863498075375
30
0
41
1
10
49.3537865312531
20
-28.9088414487005
30
0
41
1
10
49.5038677261627
20
-28.9467441749962
30
0
41
1
10
49.5811233188282
20
-28.9620728624901
30
0
41
1
10
49.820388171805
20
-28.9957956507434
30
0
41
1
10
49.9901385565663
20
-29.0015289642718
30
0
41
1
10
50.353810393937
20
-28.9734632534696
30
0
41
1
10
50.5415463789004
20
-28.9402714443631
30
0
41
1
10
50.7337195341194
20
-28.8893665559351
30
0
0
SPLINE
5
172
100
AcDbEntity
8
1
62
256
6
ByLayer
370
13
48
1
60
0
100
AcDbSpline
70
4
71
3
72
8
73
4
40
0
40
0
40
0
40
0
40
1
40
1
40
1
40
1
41
1
10
38.3444324620617
20
-19.5862307358379
30
0
41
1
10
38.6287973291878
20
-19.6363719342778
30
0
41
1
10
38.9037520178366
20
-19.714961259757
30
0
41
1
10
39.1700821703649
20
-19.8201286971214
30
0
0
SPLINE
5
173
100
AcDbEntity
8
1
62
256
6
ByLayer
370
13
48
1
60
0
100
AcDbSpline
70
4
71
3
72
11
73
7
40
0
40
0
40
0
40
0
40
0.100258159507226
40
0.259036131358892
40
0.576592075062224
40
1
40
1
40
1
40
1
41
1.0177432798791
10
47.716497149175
20
-27.5187785887817
30
0
41
1.01722454828229
10
47.5014764923116
20
-27.4912091500357
30
0
41
1.01635405201136
10
46.9835283207973
20
-27.4464261217452
30
0
41
1.01876555595691
10
45.4299135003251
20
-27.9017845440807
30
0
41
1.02349884684922
10
41.3917726717706
20
-29.1435181818267
30
0
41
1.02767136955276
10
38.2672036373438
20
-29.8482290142468
30
0
41
1.02805999725224
10
37.4091900787179
20
-29.8066440027873
30
0
0
SPLINE
5
174
100
AcDbEntity
8
1
62
256
6
ByLayer
370
13
48
1
60
0
100
AcDbSpline
70
4
71
3
72
8
73
4
40
0
40
0
40
0
40
0
40
1
40
1
40
1
40
1
41
1
10
32.3949042185997
20
-25.9143509343709
30
0
41
1
10
32.4478013412406
20
-25.9669610999496
30
0
41
1
10
32.4985653369448
20
-26.0216791622237
30
0
41
1
10
32.5471200044488
20
-26.0785201061878
30
0
0
SPLINE
5
175
100
AcDbEntity
8
1
62
256
6
ByLayer
370
13
48
1
60
0
100
AcDbSpline
70
4
71
3
72
26
73
22
40
0
40
0
40
0
40
0
40
0.0625000000000008
40
0.0625000000000008
40
0.125000000000002
40
0.125000000000002
40
0.250000000000001
40
0.250000000000001
40
0.3125
40
0.3125
40
0.374999999999998
40
0.374999999999998
40
0.499999999999999
40
0.499999999999999
40
0.624999999999999
40
0.624999999999999
40
0.749999999999999
40
0.749999999999999
40
0.875
40
0.875
40
1
40
1
40
1
40
1
41
1
10
41.4063300477596
20
-25.5651604011649
30
0
41
1
10
41.3634466662997
20
-25.650510446022
30
0
41
1
10
41.3174301347694
20
-25.7340834858794
30
0
41
1
10
41.2192354005139
20
-25.8977331900494
30
0
41
1
10
41.1669727798721
20
-25.9778871994109
30
0
41
1
10
41.0031967677309
20
-26.2102005431582
30
0
41
1
10
40.8841379732362
20
-26.3553432789119
30
0
41
1
10
40.6915546044226
20
-26.5596836858836
30
0
41
1
10
40.6250163835615
20
-26.6255571441095
30
0
41
1
10
40.4872617753255
20
-26.7529066548743
30
0
41
1
10
40.4157701670396
20
-26.8145953456246
30
0
41
1
10
40.1965621950617
20
-26.9912027873668
30
0
41
1
10
40.0443019020031
20
-27.0977534765109
30
0
41
1
10
39.7277742017403
20
-27.2902396049364
30
0
41
1
10
39.5635028985019
20
-27.376166579635
30
0
41
1
10
39.2223710370538
20
-27.5274697081967
30
0
41
1
10
39.0448074739788
20
-27.5928730737173
30
0
41
1
10
38.6865375832271
20
-27.6991162453476
30
0
41
1
10
38.5046943605566
20
-27.7405464409597
30
0
41
1
10
38.1356810057722
20
-27.7997668234108
30
0
41
1
10
37.9484355834567
20
-27.817543059758
30
0
41
1
10
37.7590073399144
20
-27.8227317291749
30
0
0
SPLINE
5
176
100
AcDbEntity
8
1
62
256
6
ByLayer
370
13
48
1
60
0
100
AcDbSpline
70
4
71
3
72
14
73
10
40
0
40
0
40
0
40
0
40
0.25
40
0.25
40
0.5
40
0.5
40
0.75
40
0.75
40
1
40
1
40
1
40
1
41
1
10
31.4369312091374
20
-25.2945517486682
30
0
41
1
10
31.5212288846987
20
-25.3283294906168
30
0
41
1
10
31.6061408842154
20
-25.3665393221871
30
0
41
1
10
31.7742562220917
20
-25.4519859125311
30
0
41
1
10
31.8572578511543
20
-25.4990682902766
30
0
41
1
10
32.0208323042867
20
-25.603254885157
30
0
41
1
10
32.1015672394132
20
-25.6606360188319
30
0
41
1
10
32.2539314200666
20
-25.7818722370804
30
0
41
1
10
32.3263768185247
20
-25.8461952827091
30
0
41
1
10
32.3949042185997
20
-25.9143509343709
30
0
0
SPLINE
5
177
100
AcDbEntity
8
1
62
256
6
ByLayer
370
13
48
1
60
0
100
AcDbSpline
70
4
71
2
72
6
73
3
40
0
40
0
40
0
40
1
40
1
40
1
41
1.02805999725224
10
39.7144423614751
20
-16.7329086419544
30
0
41
1.02805999725224
10
39.6171708965182
20
-17.2845625327317
30
0
41
1.02805999725224
10
39.5198994315614
20
-17.836216423509
30
0
0
SPLINE
5
178
100
AcDbEntity
8
1
62
256
6
ByLayer
370
13
48
1
60
0
100
AcDbSpline
70
4
71
3
72
16
73
12
40
0
40
0
40
0
40
0
40
0.25
40
0.25
40
0.375
40
0.375
40
0.499999999999999
40
0.499999999999999
40
0.749999999999999
40
0.749999999999999
40
1
40
1
40
1
40
1
41
1
10
49.1448731399836
20
-20.829851395071
30
0
41
1
10
48.9745262350202
20
-20.7757572886306
30
0
41
1
10
48.8002686326384
20
-20.7155343412675
30
0
41
1
10
48.5343523945874
20
-20.613226386436
30
0
41
1
10
48.4449940993048
20
-20.577010200061
30
0
41
1
10
48.2653376575518
20
-20.4989793591768
30
0
41
1
10
48.1758892382368
20
-20.4573789301744
30
0
41
1
10
47.9096928621641
20
-20.3266299341044
30
0
41
1
10
47.7343365660145
20
-20.2314972053688
30
0
41
1
10
47.3856197774749
20
-20.0300704437926
30
0
41
1
10
47.2122586156443
20
-19.923767700974
30
0
41
1
10
47.0395286876434
20
-19.8126195245892
30
0
0
SPLINE
5
179
100
AcDbEntity
8
1
62
256
6
ByLayer
370
13
48
1
60
0
100
AcDbSpline
70
4
71
3
72
25
73
21
40
0
40
0
40
0
40
0
40
0.0625
40
0.0625
40
0.125
40
0.1875
40
0.1875
40
0.25
40
0.25
40
0.375
40
0.375
40
0.5
40
0.5
40
0.625
40
0.625
40
0.75
40
0.75
40
0.875
40
0.875
40
1
40
1
40
1
40
1
41
1
10
51.7271340719549
20
-23.2554327450653
30
0
41
1
10
51.6441308070138
20
-23.1976657832581
30
0
41
1
10
51.5608500086631
20
-23.1447686410885
30
0
41
1
10
51.3952944384435
20
-23.0496652769154
30
0
41
1
10
51.2302638346459
20
-22.9649137331915
30
0
41
1
10
51.0662747993779
20
-22.9007008943328
30
0
41
1
10
50.902805609887
20
-22.8467389018514
30
0
41
1
10
50.8215406300135
20
-22.8250778981537
30
0
41
1
10
50.5837686054724
20
-22.7752596518521
30
0
41
1
10
50.4312296250465
20
-22.7612486484163
30
0
41
1
10
50.1350642110922
20
-22.7618644867025
30
0
41
1
10
49.9906639854973
20
-22.7768437408697
30
0
41
1
10
49.7152661356608
20
-22.828754974478
30
0
41
1
10
49.5836503952554
20
-22.8655673803699
30
0
41
1
10
49.329931858185
20
-22.9561701456545
30
0
41
1
10
49.2078500680131
20
-23.0099979957828
30
0
41
1
10
48.9717000932291
20
-23.1319557487252
30
0
41
1
10
48.8577461003366
20
-23.2002894519355
30
0
41
1
10
48.6364556567081
20
-23.3487673269222
30
0
41
1
10
48.5290319396353
20
-23.4287557526072
30
0
41
1
10
48.4231037690164
20
-23.5114133119319
30
0
0
SPLINE
5
17A
100
AcDbEntity
8
1
62
256
6
ByLayer
370
13
48
1
60
0
100
AcDbSpline
70
4
71
3
72
16
73
12
40
0
40
0
40
0
40
0
40
0.249999999999994
40
0.249999999999994
40
0.374999999999995
40
0.374999999999995
40
0.499999999999996
40
0.499999999999996
40
0.749999999999998
40
0.749999999999998
40
1
40
1
40
1
40
1
41
1
10
45.1512998735934
20
-30.5212972689893
30
0
41
1
10
45.3518905332623
20
-30.4758697679358
30
0
41
1
10
45.5520478713859
20
-30.4350754096292
30
0
41
1
10
45.8518060983515
20
-30.3822335808935
30
0
41
1
10
45.9516501527352
20
-30.3660415385994
30
0
41
1
10
46.1512591929948
20
-30.3370787142933
30
0
41
1
10
46.2512880151129
20
-30.3242907824738
30
0
41
1
10
46.5471115007878
20
-30.2927304910079
30
0
41
1
10
46.739845121395
20
-30.2817969160015
30
0
41
1
10
47.1159333865576
20
-30.2750960652341
30
0
41
1
10
47.2992832311388
20
-30.2780631056635
30
0
41
1
10
47.4775903098278
20
-30.2854821978958
30
0
0
SPLINE
5
17B
100
AcDbEntity
8
1
62
256
6
ByLayer
370
13
48
1
60
0
100
AcDbSpline
70
4
71
3
72
8
73
4
40
0
40
0
40
0
40
0
40
1
40
1
40
1
40
1
41
1
10
49.1448731399757
20
-20.8298513950685
30
0
41
1
10
49.2544838751032
20
-20.8646585714846
30
0
41
1
10
49.3634646176045
20
-20.9019394747385
30
0
41
1
10
49.4718664922305
20
-20.9414933585623
30
0
0
SPLINE
5
17C
100
AcDbEntity
8
1
62
256
6
ByLayer
370
13
48
1
60
0
100
AcDbSpline
70
4
71
3
72
18
73
14
40
0
40
0
40
0
40
0
40
0.125
40
0.125
40
0.25
40
0.25
40
0.375
40
0.375
40
0.5
40
0.5
40
0.75
40
0.75
40
1
40
1
40
1
40
1
41
1
10
28.4537176619323
20
-26.3276709760499
30
0
41
1
10
28.535612051723
20
-26.3045479141778
30
0
41
1
10
28.6251136240415
20
-26.2778546950656
30
0
41
1
10
28.8157008696161
20
-26.2187733283349
30
0
41
1
10
28.9170944455631
20
-26.1863002235249
30
0
41
1
10
29.1314018828902
20
-26.1159847892147
30
0
41
1
10
29.2443181101617
20
-26.0781406578559
30
0
41
1
10
29.4813309561046
20
-25.9973862466933
30
0
41
1
10
29.6060471982299
20
-25.9542576660754
30
0
41
1
10
29.9921141719082
20
-25.8191801500677
30
0
41
1
10
30.2635165076846
20
-25.7222408354108
30
0
41
1
10
30.8314412965998
20
-25.516845969363
30
0
41
1
10
31.1279903730256
20
-25.408368153454
30
0
41
1
10
31.4369312091374
20
-25.2945517486682
30
0
0
SPLINE
5
17D
100
AcDbEntity
8
1
62
256
6
ByLayer
370
13
48
1
60
0
100
AcDbSpline
70
4
71
3
72
10
73
6
40
0
40
0
40
0
40
0
40
0.5
40
0.5
40
1
40
1
40
1
40
1
41
1
10
30.7654673744748
20
-25.1039843352776
30
0
41
1
10
30.8762148319151
20
-25.1235121000692
30
0
41
1
10
30.9885527204392
20
-25.1488206271666
30
0
41
1
10
31.2134190936158
20
-25.2121006417676
30
0
41
1
10
31.3255239667063
20
-25.2499113115389
30
0
41
1
10
31.4369312091374
20
-25.2945517486682
30
0
0
SPLINE
5
17E
100
AcDbEntity
8
1
62
256
6
ByLayer
370
13
48
1
60
0
100
AcDbSpline
70
4
71
3
72
10
73
6
40
0
40
0
40
0
40
0
40
0.5
40
0.5
40
1
40
1
40
1
40
1
41
1
10
35.6055104146519
20
-23.9779806946083
30
0
41
1
10
35.6014454283893
20
-23.9547774098325
30
0
41
1
10
35.5950494199807
20
-23.9301336081588
30
0
41
1
10
35.5775042544799
20
-23.8819064785139
30
0
41
1
10
35.5665518783565
20
-23.8588685610976
30
0
41
1
10
35.5547122167299
20
-23.8384137928697
30
0
0
SPLINE
5
17F
100
AcDbEntity
8
1
62
256
6
ByLayer
370
13
48
1
60
0
100
AcDbSpline
70
4
71
3
72
10
73
6
40
0
40
0
40
0
40
0
40
0.5
40
0.5
40
1
40
1
40
1
40
1
41
1
10
37.7585750297233
20
-23.0362733285337
30
0
41
1
10
37.7626400159858
20
-23.0594766133095
30
0
41
1
10
37.7690360243944
20
-23.0841204149833
30
0
41
1
10
37.7865811898952
20
-23.132347544628
30
0
41
1
10
37.7975335660186
20
-23.1553854620444
30
0
41
1
10
37.8093732276452
20
-23.1758402302723
30
0
0
SPLINE
5
180
100
AcDbEntity
8
1
62
256
6
ByLayer
370
13
48
1
60
0
100
AcDbSpline
70
4
71
3
72
10
73
6
40
0
40
0
40
0
40
0
40
0.5
40
0.5
40
1
40
1
40
1
40
1
41
1
10
35.7360053174439
20
-22.8102495267687
30
0
41
1
10
35.7541269028679
20
-22.7950777347715
30
0
41
1
10
35.7722982017079
20
-22.7771751070286
30
0
41
1
10
35.8052799140527
20
-22.7378572291989
30
0
41
1
10
35.8197188725373
20
-22.7168871943306
30
0
41
1
10
35.8314747009165
20
-22.6964735460329
30
0
0
SPLINE
5
181
100
AcDbEntity
8
1
62
256
6
ByLayer
370
13
48
1
60
0
100
AcDbSpline
70
4
71
3
72
10
73
6
40
0
40
0
40
0
40
0
40
0.5
40
0.5
40
1
40
1
40
1
40
1
41
1
10
36.551547819394
20
-24.674858179411
30
0
41
1
10
36.5291521462555
20
-24.6666788401459
30
0
41
1
10
36.5045975754299
20
-24.6599384941588
30
0
41
1
10
36.4544403337708
20
-24.6510981811181
30
0
41
1
10
36.4290957180294
20
-24.649040994845
30
0
41
1
10
36.4052802380024
20
-24.6490672584087
30
0
0
SPLINE
5
182
100
AcDbEntity
8
1
62
256
6
ByLayer
370
13
48
1
60
0
100
AcDbSpline
70
4
71
3
72
10
73
6
40
0
40
0
40
0
40
0
40
0.5
40
0.5
40
1
40
1
40
1
40
1
41
1
10
36.8125376249812
20
-22.339395843731
30
0
41
1
10
36.8349332981197
20
-22.3475751829961
30
0
41
1
10
36.8594878689453
20
-22.3543155289833
30
0
41
1
10
36.9096451106043
20
-22.3631558420239
30
0
41
1
10
36.9349897263457
20
-22.365213028297
30
0
41
1
10
36.9588052063727
20
-22.3651867647334
30
0
0
SPLINE
5
183
100
AcDbEntity
8
1
62
256
6
ByLayer
370
13
48
1
60
0
100
AcDbSpline
70
4
71
3
72
10
73
6
40
0
40
0
40
0
40
0
40
0.5
40
0.5
40
1
40
1
40
1
40
1
41
1
10
37.6280801269313
20
-24.2040044963733
30
0
41
1
10
37.6099585415072
20
-24.2191762883705
30
0
41
1
10
37.5917872426673
20
-24.2370789161135
30
0
41
1
10
37.5588055303224
20
-24.2763967939431
30
0
41
1
10
37.5443665718378
20
-24.2973668288114
30
0
41
1
10
37.5326107434586
20
-24.3177804771091
30
0
0
LINE
5
70
100
AcDbEntity
8
1
62
256
6
ByLayer
370
13
48
1
60
0
100
AcDbLine
10
19.54137
20
25
30
0
11
0.3
21
25
31
0
39
0
210
0
220
0
230
1
0
LINE
5
72
100
AcDbEntity
8
1
62
256
6
ByLayer
370
13
48
1
60
0
100
AcDbLine
10
0
20
-24.7
30
0
11
0.3
21
-25
31
0
39
0
210
0
220
0
230
1
0
LINE
5
73
100
AcDbEntity
8
1
62
256
6
ByLayer
370
13
48
1
60
0
100
AcDbLine
10
0.3
20
-25
30
0
11
20.279208
21
-25
31
0
39
0
210
0
220
0
230
1
0
LINE
5
74
100
AcDbEntity
8
1
62
256
6
ByLayer
370
13
48
1
60
0
100
AcDbLine
10
0.3
20
25
30
0
11
0
21
24.7
31
0
39
0
210
0
220
0
230
1
0
LINE
5
75
100
AcDbEntity
8
81
62
256
6
ByLayer
370
18
48
1
60
0
100
AcDbLine
10
60
20
-35
30
0
11
70
21
-35
31
0
39
0
210
0
220
0
230
1
0
LINE
5
76
100
AcDbEntity
8
80
62
256
6
ByLayer
370
18
48
1
60
0
100
AcDbLine
10
0
20
0
30
0
11
-10
21
0
31
0
39
0
210
0
220
0
230
1
0
LINE
5
77
100
AcDbEntity
8
1
62
256
6
ByLayer
370
13
48
1
60
0
100
AcDbLine
10
23.448018
20
22.571599
30
0
11
19.544007
21
24.998326
31
0
39
0
210
0
220
0
230
1
0
LINE
5
78
100
AcDbEntity
8
SK1
62
256
6
ByLayer
370
13
48
1
60
0
100
AcDbLine
10
-1.315435
20
3.910269
30
0
11
-1.315435
21
-3.910272
31
0
39
0
210
0
220
0
230
1
0
LINE
5
7A
100
AcDbEntity
8
1
62
256
6
ByLayer
370
13
48
1
60
0
100
AcDbLine
10
44.930417
20
-17.085395
30
0
11
42.838408
21
-16.902368
31
0
39
0
210
0
220
0
230
1
0
LINE
5
7B
100
AcDbEntity
8
1
62
256
6
ByLayer
370
13
48
1
60
0
100
AcDbLine
10
25.364672
20
-10.72796
30
0
11
23.652541
21
-20.437935
31
0
39
0
210
0
220
0
230
1
0
LINE
5
7C
100
AcDbEntity
8
1
62
256
6
ByLayer
370
13
48
1
60
0
100
AcDbLine
10
8.105662
20
-23.666502
30
0
11
8.105662
21
-8.055848
31
0
39
0
210
0
220
0
230
1
0
LINE
5
7D
100
AcDbEntity
8
1
62
256
6
ByLayer
370
13
48
1
60
0
100
AcDbLine
10
0
20
-24.7
30
0
11
0
21
24.7
31
0
39
0
210
0
220
0
230
1
0
LINE
5
7E
100
AcDbEntity
8
1
62
256
6
ByLayer
370
13
48
1
60
0
100
AcDbLine
10
46.582738
20
-17.820483
30
0
11
46.558375
21
-17.872729
31
0
39
0
210
0
220
0
230
1
0
LINE
5
7F
100
AcDbEntity
8
1
62
256
6
ByLayer
370
13
48
1
60
0
100
AcDbLine
10
23.652541
20
22.444467
30
0
11
23.652541
21
-20.437935
31
0
39
0
210
0
220
0
230
1
0
LINE
5
80
100
AcDbEntity
8
1
62
256
6
ByLayer
370
13
48
1
60
0
100
AcDbLine
10
42.838408
20
-16.902368
30
0
11
42.822912
21
-17.079491
31
0
39
0
210
0
220
0
230
1
0
LINE
5
81
100
AcDbEntity
8
1
62
256
6
ByLayer
370
13
48
1
60
0
100
AcDbLine
10
11.461325
20
-23.83913
30
0
11
11.461325
21
-7.529667
31
0
39
0
210
0
220
0
230
1
0
LINE
5
82
100
AcDbEntity
8
1
62
256
6
ByLayer
370
13
48
1
60
0
100
AcDbLine
10
53.422612
20
-20.693581
30
0
11
53.561308
21
-21.074644
31
0
39
0
210
0
220
0
230
1
0
LINE
5
83
100
AcDbEntity
8
1
62
256
6
ByLayer
370
13
48
1
60
0
100
AcDbLine
10
53.498
20
-20.53191
30
0
11
53.422612
21
-20.693581
31
0
39
0
210
0
220
0
230
1
0
LINE
5
84
100
AcDbEntity
8
1
62
256
6
ByLayer
370
13
48
1
60
0
100
AcDbLine
10
20.279208
20
-25
30
0
11
20.279208
21
-24.931424
31
0
39
0
210
0
220
0
230
1
0
LINE
5
85
100
AcDbEntity
8
1
62
256
6
ByLayer
370
13
48
1
60
0
100
AcDbLine
10
53.207539
20
-33.49448
30
0
11
52.920793
21
-33.528529
31
0
39
0
210
0
220
0
230
1
0
LINE
5
86
100
AcDbEntity
8
1
62
256
6
ByLayer
370
13
48
1
60
0
100
AcDbLine
10
53.422612
20
-20.693581
30
0
11
46.703922
21
-17.560604
31
0
39
0
210
0
220
0
230
1
0
LINE
5
87
100
AcDbEntity
8
1
62
256
6
ByLayer
370
13
48
1
60
0
100
AcDbLine
10
44.930417
20
-17.085395
30
0
11
44.913977
21
-17.273302
31
0
39
0
210
0
220
0
230
1
0
LINE
5
88
100
AcDbEntity
8
1
62
256
6
ByLayer
370
13
48
1
60
0
100
AcDbLine
10
0.3
20
25
30
0
11
0.3
21
-25
31
0
39
0
210
0
220
0
230
1
0
LINE
5
89
100
AcDbEntity
8
1
62
256
6
ByLayer
370
13
48
1
60
0
100
AcDbLine
10
8.538675
20
-23.83913
30
0
11
8.538675
21
-7.529667
31
0
39
0
210
0
220
0
230
1
0
LINE
5
8A
100
AcDbEntity
8
1
62
256
6
ByLayer
370
13
48
1
60
0
100
AcDbLine
10
53.561308
20
-21.074644
30
0
11
53.651699
21
-20.880799
31
0
39
0
210
0
220
0
230
1
0
LINE
5
8B
100
AcDbEntity
8
1
62
256
6
ByLayer
370
13
48
1
60
0
100
AcDbLine
10
52.920793
20
-33.128874
30
0
11
53.042611
21
-33.049764
31
0
39
0
210
0
220
0
230
1
0
LINE
5
8C
100
AcDbEntity
8
1
62
256
6
ByLayer
370
13
48
1
60
0
100
AcDbLine
10
11.461325
20
-23.83913
30
0
11
8.538675
21
-23.83913
31
0
39
0
210
0
220
0
230
1
0
LINE
5
8D
100
AcDbEntity
8
1
62
256
6
ByLayer
370
13
48
1
60
0
100
AcDbLine
10
46.582738
20
-17.820483
30
0
11
53.561308
21
-21.074644
31
0
39
0
210
0
220
0
230
1
0
LINE
5
8E
100
AcDbEntity
8
1
62
256
6
ByLayer
370
13
48
1
60
0
100
AcDbLine
10
30.099577
20
-15.238474
30
0
11
29.931171
21
-16.193548
31
0
39
0
210
0
220
0
230
1
0
LINE
5
8F
100
AcDbEntity
8
1
62
256
6
ByLayer
370
13
48
1
60
0
100
AcDbLine
10
27.836876
20
-28.070886
30
0
11
27.513079
21
-29.907231
31
0
39
0
210
0
220
0
230
1
0
LINE
5
90
100
AcDbEntity
8
1
62
256
6
ByLayer
370
13
48
1
60
0
100
AcDbLine
10
11.461325
20
7.529667
30
0
11
11.461325
21
23.83913
31
0
39
0
210
0
220
0
230
1
0
LINE
5
91
100
AcDbEntity
8
1
62
256
6
ByLayer
370
13
48
1
60
0
100
AcDbLine
10
31.103421
20
-32.764751
30
0
11
31.604549
21
-29.922713
31
0
39
0
210
0
220
0
230
1
0
LINE
5
92
100
AcDbEntity
8
1
62
256
6
ByLayer
370
13
48
1
60
0
100
AcDbLine
10
11.894338
20
8.055848
30
0
11
11.894338
21
23.666502
31
0
39
0
210
0
220
0
230
1
0
LINE
5
93
100
AcDbEntity
8
1
62
256
6
ByLayer
370
13
48
1
60
0
100
AcDbLine
10
52.920793
20
-33.128874
30
0
11
52.920793
21
-33.528529
31
0
39
0
210
0
220
0
230
1
0
LINE
5
94
100
AcDbEntity
8
1
62
256
6
ByLayer
370
13
48
1
60
0
100
AcDbLine
10
53.207539
20
-33.49448
30
0
11
53.207539
21
-33.126674
31
0
39
0
210
0
220
0
230
1
0
LINE
5
95
100
AcDbEntity
8
1
62
256
6
ByLayer
370
13
48
1
60
0
100
AcDbLine
10
31.103421
20
-32.764751
30
0
11
52.920793
21
-33.528529
31
0
39
0
210
0
220
0
230
1
0
LINE
5
96
100
AcDbEntity
8
1
62
256
6
ByLayer
370
13
48
1
60
0
100
AcDbLine
10
19.667762
20
-24.731911
30
0
11
19.667762
21
24.654927
31
0
39
0
210
0
220
0
230
1
0
LINE
5
97
100
AcDbEntity
8
1
62
256
6
ByLayer
370
13
48
1
60
0
100
AcDbLine
10
31.460674
20
-15.478472
30
0
11
30.099577
21
-15.238474
31
0
39
0
210
0
220
0
230
1
0
LINE
5
98
100
AcDbEntity
8
1
62
256
6
ByLayer
370
13
48
1
60
0
100
AcDbLine
10
23.652541
20
22.444467
30
0
11
28.237431
21
19.594508
31
0
39
0
210
0
220
0
230
1
0
LINE
5
99
100
AcDbEntity
8
1
62
256
6
ByLayer
370
13
48
1
60
0
100
AcDbLine
10
11.461325
20
7.529667
30
0
11
8.538675
21
7.529667
31
0
39
0
210
0
220
0
230
1
0
LINE
5
9A
100
AcDbEntity
8
1
62
256
6
ByLayer
370
13
48
1
60
0
100
AcDbLine
10
8.538675
20
7.529667
30
0
11
8.538675
21
23.83913
31
0
39
0
210
0
220
0
230
1
0
LINE
5
9B
100
AcDbEntity
8
1
62
256
6
ByLayer
370
13
48
1
60
0
100
AcDbLine
10
8.538675
20
-7.529667
30
0
11
11.461325
21
-7.529667
31
0
39
0
210
0
220
0
230
1
0
LINE
5
9C
100
AcDbEntity
8
1
62
256
6
ByLayer
370
13
48
1
60
0
100
AcDbLine
10
47.769612
20
-10.482414
30
0
11
28.237431
21
19.594508
31
0
39
0
210
0
220
0
230
1
0
LINE
5
9D
100
AcDbEntity
8
1
62
256
6
ByLayer
370
13
48
1
60
0
100
AcDbLine
10
28.706848
20
-14.992899
30
0
11
30.099577
21
-15.238474
31
0
39
0
210
0
220
0
230
1
0
LINE
5
9E
100
AcDbEntity
8
1
62
256
6
ByLayer
370
13
48
1
60
0
100
AcDbLine
10
46.703922
20
-17.560604
30
0
11
46.582738
21
-17.820483
31
0
39
0
210
0
220
0
230
1
0
LINE
5
9F
100
AcDbEntity
8
1
62
256
6
ByLayer
370
13
48
1
60
0
100
AcDbLine
10
11.894338
20
-23.666502
30
0
11
11.894338
21
-8.055848
31
0
39
0
210
0
220
0
230
1
0
LINE
5
A0
100
AcDbEntity
8
1
62
256
6
ByLayer
370
13
48
1
60
0
100
AcDbLine
10
8.538675
20
23.83913
30
0
11
11.461325
21
23.83913
31
0
39
0
210
0
220
0
230
1
0
LINE
5
A1
100
AcDbEntity
8
1
62
256
6
ByLayer
370
13
48
1
60
0
100
AcDbLine
10
8.105662
20
8.055848
30
0
11
8.105662
21
23.666502
31
0
39
0
210
0
220
0
230
1
0
LINE
5
A2
100
AcDbEntity
8
1
62
256
6
ByLayer
370
13
48
1
60
0
100
AcDbLine
10
48.340472
20
-31.089583
30
0
11
52.920793
21
-33.128874
31
0
39
0
210
0
220
0
230
1
0
LINE
5
A3
100
AcDbEntity
8
1
62
256
6
ByLayer
370
13
48
1
60
0
100
AcDbLine
10
26.294028
20
-28.67668
30
0
11
28.706848
21
-14.992899
31
0
39
0
210
0
220
0
230
1
0
LINE
5
A4
100
AcDbEntity
8
1
62
256
6
ByLayer
370
13
48
1
60
0
100
AcDbLine
10
48.340472
20
-31.089583
30
0
11
48.425545
21
-30.898508
31
0
39
0
210
0
220
0
230
1
0
LINE
5
A5
100
AcDbEntity
8
1
62
256
6
ByLayer
370
13
48
1
60
0
100
AcDbLine
10
31.103421
20
-32.764751
30
0
11
30.032906
21
-32.680147
31
0
39
0
210
0
220
0
230
1
0
LINE
5
A6
100
AcDbEntity
8
1
62
256
6
ByLayer
370
13
48
1
60
0
100
AcDbLine
10
49.976101
20
-19.454839
30
0
11
53.370522
21
-21.037684
31
0
39
0
210
0
220
0
230
1
0
LINE
5
A7
100
AcDbEntity
8
1
62
256
6
ByLayer
370
13
48
1
60
0
100
AcDbLine
10
43.05945
20
-17.084779
30
0
11
44.406878
21
-17.202664
31
0
39
0
210
0
220
0
230
1
0
LINE
5
A8
100
AcDbEntity
8
1
62
256
6
ByLayer
370
13
48
1
60
0
100
AcDbLine
10
55.990482
20
-34.424381
30
0
11
52.350771
21
-32.727156
31
0
39
0
210
0
220
0
230
1
0
LINE
5
A9
100
AcDbEntity
8
1
62
256
6
ByLayer
370
13
48
1
60
0
100
AcDbLine
10
56.039457
20
-23.706618
30
0
11
57.622301
21
-27.101039
31
0
39
0
210
0
220
0
230
1
0
LINE
5
AA
100
AcDbEntity
8
1
62
256
6
ByLayer
370
13
48
1
60
0
100
AcDbLine
10
57.727156
20
-27.350771
30
0
11
59.424381
21
-30.990482
31
0
39
0
210
0
220
0
230
1
0
LINE
5
AB
100
AcDbEntity
8
1
62
256
6
ByLayer
370
13
48
1
60
0
100
AcDbLine
10
59.01769
20
-34.992361
30
0
11
57.670262
21
-34.874477
31
0
39
0
210
0
220
0
230
1
0
LINE
5
AC
100
AcDbEntity
8
1
62
256
6
ByLayer
370
13
48
1
60
0
100
AcDbLine
10
52.101039
20
-32.622301
30
0
11
48.706618
21
-31.039457
31
0
39
0
210
0
220
0
230
1
0
LINE
5
AD
100
AcDbEntity
8
1
62
256
6
ByLayer
370
13
48
1
60
0
100
AcDbLine
10
46.086659
20
-17.652759
30
0
11
49.726369
21
-19.349984
31
0
39
0
210
0
220
0
230
1
0
LINE
5
AE
100
AcDbEntity
8
1
62
256
6
ByLayer
370
13
48
1
60
0
100
AcDbLine
10
59.874477
20
-32.670262
30
0
11
59.992361
21
-34.01769
31
0
39
0
210
0
220
0
230
1
0
LINE
5
AF
100
AcDbEntity
8
1
62
256
6
ByLayer
370
13
48
1
60
0
100
AcDbLine
10
51.675871
20
-28.323265
30
0
11
51.86487
21
-28.174254
31
0
39
0
210
0
220
0
230
1
0
LINE
5
B0
100
AcDbEntity
8
1
62
256
6
ByLayer
370
13
48
1
60
0
100
AcDbLine
10
30.438865
20
-29.717358
30
0
11
30.17465
21
-29.67077
31
0
39
0
210
0
220
0
230
1
0
LINE
5
B1
100
AcDbEntity
8
1
62
256
6
ByLayer
370
13
48
1
60
0
100
AcDbLine
10
29.254048
20
-19.506491
30
0
11
28.917998
21
-19.447236
31
0
39
0
210
0
220
0
230
1
0
LINE
5
B2
100
AcDbEntity
8
1
62
256
6
ByLayer
370
13
48
1
60
0
100
AcDbLine
10
29.9606
20
-19.681846
30
0
11
31.668438
21
-19.982984
31
0
39
0
210
0
220
0
230
1
0
LINE
5
B3
100
AcDbEntity
8
1
62
256
6
ByLayer
370
13
48
1
60
0
100
AcDbLine
10
29.057629
20
-24.802846
30
0
11
30.765467
21
-25.103984
31
0
39
0
210
0
220
0
230
1
0
LINE
5
B4
100
AcDbEntity
8
1
62
256
6
ByLayer
370
13
48
1
60
0
100
AcDbLine
10
31.861527
20
-29.966052
30
0
11
31.856825
21
-29.967383
31
0
39
0
210
0
220
0
230
1
0
LINE
5
B5
100
AcDbEntity
8
1
62
256
6
ByLayer
370
13
48
1
60
0
100
AcDbLine
10
27.536479
20
-26.159309
30
0
11
28.995124
21
-17.886924
31
0
39
0
210
0
220
0
230
1
0
LINE
5
B6
100
AcDbEntity
8
1
62
256
6
ByLayer
370
13
48
1
60
0
100
AcDbLine
10
52.731363
20
-24.495552
30
0
11
52.878286
21
-24.676987
31
0
39
0
210
0
220
0
230
1
0
LINE
5
B7
100
AcDbEntity
8
1
62
256
6
ByLayer
370
13
48
1
60
0
100
AcDbLine
10
29.9606
20
-19.681846
30
0
11
29.057629
21
-24.802846
31
0
39
0
210
0
220
0
230
1
0
LINE
5
B8
100
AcDbEntity
8
1
62
256
6
ByLayer
370
13
48
1
60
0
100
AcDbLine
10
29.791304
20
-18.027312
30
0
11
28.33266
21
-26.299697
31
0
39
0
210
0
220
0
230
1
0
LINE
5
B9
100
AcDbEntity
8
1
62
256
6
ByLayer
370
13
48
1
60
0
100
AcDbLine
10
28.195137
20
-24.549223
30
0
11
27.895092
21
-24.496317
31
0
39
0
210
0
220
0
230
1
0
LINE
5
BA
100
AcDbEntity
8
1
62
256
6
ByLayer
370
13
48
1
60
0
100
AcDbLine
10
53.335142
20
-26.443518
30
0
11
50.288036
21
-25.906231
31
0
39
0
210
0
220
0
230
1
0
LINE
5
BB
100
AcDbEntity
8
1
62
256
6
ByLayer
370
13
48
1
60
0
100
AcDbLine
10
32.939399
20
-15.536126
30
0
11
32.675183
21
-15.489538
31
0
39
0
210
0
220
0
230
1
0
LINE
5
BC
100
AcDbEntity
8
1
62
256
6
ByLayer
370
13
48
1
60
0
100
AcDbLine
10
28.763333
20
-19.572278
30
0
11
27.895092
21
-24.496317
31
0
39
0
210
0
220
0
230
1
0
LINE
5
BD
100
AcDbEntity
8
1
62
256
6
ByLayer
370
13
48
1
60
0
100
AcDbLine
10
27.895092
20
-24.496317
30
0
11
27.997663
21
-24.666717
31
0
39
0
210
0
220
0
230
1
0
LINE
5
BE
100
AcDbEntity
8
1
62
256
6
ByLayer
370
13
48
1
60
0
100
AcDbLine
10
29.254048
20
-19.506491
30
0
11
28.333713
21
-24.725972
31
0
39
0
210
0
220
0
230
1
0
LINE
5
BF
100
AcDbEntity
8
1
62
256
6
ByLayer
370
13
48
1
60
0
100
AcDbLine
10
36.903153
20
-27.760135
30
0
11
34.880278
21
-27.403448
31
0
39
0
210
0
220
0
230
1
0
LINE
5
C0
100
AcDbEntity
8
1
62
256
6
ByLayer
370
13
48
1
60
0
100
AcDbLine
10
29.791304
20
-18.027312
30
0
11
28.995124
21
-17.886924
31
0
39
0
210
0
220
0
230
1
0
LINE
5
C1
100
AcDbEntity
8
1
62
256
6
ByLayer
370
13
48
1
60
0
100
AcDbLine
10
37.40919
20
-29.806644
30
0
11
29.891996
21
-28.48116
31
0
39
0
210
0
220
0
230
1
0
LINE
5
C2
100
AcDbEntity
8
1
62
256
6
ByLayer
370
13
48
1
60
0
100
AcDbLine
10
34.357359
20
-15.786151
30
0
11
32.939399
21
-15.536126
31
0
39
0
210
0
220
0
230
1
0
LINE
5
C3
100
AcDbEntity
8
1
62
256
6
ByLayer
370
13
48
1
60
0
100
AcDbLine
10
50.73372
20
-28.889367
30
0
11
51.675871
21
-28.323265
31
0
39
0
210
0
220
0
230
1
0
LINE
5
C4
100
AcDbEntity
8
1
62
256
6
ByLayer
370
13
48
1
60
0
100
AcDbLine
10
28.763333
20
-19.572278
30
0
11
28.917998
21
-19.447236
31
0
39
0
210
0
220
0
230
1
0
LINE
5
C5
100
AcDbEntity
8
1
62
256
6
ByLayer
370
13
48
1
60
0
100
AcDbLine
10
29.063378
20
-19.625184
30
0
11
28.195137
21
-24.549223
31
0
39
0
210
0
220
0
230
1
0
LINE
5
C6
100
AcDbEntity
8
1
62
256
6
ByLayer
370
13
48
1
60
0
100
AcDbLine
10
52.101532
20
-28.067502
30
0
11
52.301649
21
-27.94726
31
0
39
0
210
0
220
0
230
1
0
LINE
5
C7
100
AcDbEntity
8
1
62
256
6
ByLayer
370
13
48
1
60
0
100
AcDbLine
10
52.545485
20
-24.314295
30
0
11
52.418849
21
-24.109629
31
0
39
0
210
0
220
0
230
1
0
LINE
5
C8
100
AcDbEntity
8
1
62
256
6
ByLayer
370
13
48
1
60
0
100
AcDbLine
10
28.333713
20
-24.725972
30
0
11
27.997663
21
-24.666717
31
0
39
0
210
0
220
0
230
1
0
LINE
5
C9
100
AcDbEntity
8
1
62
256
6
ByLayer
370
13
48
1
60
0
100
AcDbLine
10
31.861527
20
-29.966052
30
0
11
37.214647
21
-30.909952
31
0
39
0
210
0
220
0
230
1
0
LINE
5
CA
100
AcDbEntity
8
1
62
256
6
ByLayer
370
13
48
1
60
0
100
AcDbLine
10
36.321558
20
-19.229543
30
0
11
38.344432
21
-19.586231
31
0
39
0
210
0
220
0
230
1
0
LINE
5
CB
100
AcDbEntity
8
1
62
256
6
ByLayer
370
13
48
1
60
0
100
AcDbLine
10
28.33266
20
-26.299697
30
0
11
27.536479
21
-26.159309
31
0
39
0
210
0
220
0
230
1
0
LINE
5
CC
100
AcDbEntity
8
1
62
256
6
ByLayer
370
13
48
1
60
0
100
AcDbLine
10
30.438865
20
-29.717358
30
0
11
31.856825
21
-29.967383
31
0
39
0
210
0
220
0
230
1
0
LINE
5
CD
100
AcDbEntity
8
1
62
256
6
ByLayer
370
13
48
1
60
0
100
AcDbLine
10
39.519899
20
-17.836216
30
0
11
32.002705
21
-16.510732
31
0
39
0
210
0
220
0
230
1
0
LINE
5
CE
100
AcDbEntity
8
1
62
256
6
ByLayer
370
13
48
1
60
0
100
AcDbLine
10
29.063378
20
-19.625184
30
0
11
29.254048
21
-19.506491
31
0
39
0
210
0
220
0
230
1
0
LINE
5
CF
100
AcDbEntity
8
1
62
256
6
ByLayer
370
13
48
1
60
0
100
AcDbLine
10
29.063378
20
-19.625184
30
0
11
28.763333
21
-19.572278
31
0
39
0
210
0
220
0
230
1
0
LINE
5
D0
100
AcDbEntity
8
1
62
256
6
ByLayer
370
13
48
1
60
0
100
AcDbLine
10
28.195137
20
-24.549223
30
0
11
28.333713
21
-24.725972
31
0
39
0
210
0
220
0
230
1
0
LINE
5
D1
100
AcDbEntity
8
1
62
256
6
ByLayer
370
13
48
1
60
0
100
AcDbLine
10
34.361322
20
-15.789009
30
0
11
39.714442
21
-16.732909
31
0
39
0
210
0
220
0
230
1
0
LINE
5
D2
100
AcDbEntity
8
1
62
256
6
ByLayer
370
13
48
1
60
0
100
AcDbLine
10
34.361322
20
-15.789009
30
0
11
34.357359
21
-15.786151
31
0
39
0
210
0
220
0
230
1
0
LINE
5
D3
100
AcDbEntity
8
1
62
256
6
ByLayer
370
13
48
1
60
0
100
AcDbLine
10
51.727134
20
-23.255433
30
0
11
52.418849
21
-24.109629
31
0
39
0
210
0
220
0
230
1
0
MTEXT
5
184
100
AcDbEntity
8
SK6
62
256
6
ByLayer
370
13
48
1
60
0
100
AcDbMText
10
0.902534
20
33.350079
30
0
210
0
220
0
230
1
1
\W0.7175;C5-CP-25BL-35060-11B
40
3.5
41
0
44
1.084337
50
0
71
7
72
5
7
iso_b_vert
0
DIMENSION
5
196
100
AcDbEntity
8
SK2
62
256
6
ByLayer
370
13
48
1
60
0
100
AcDbDimension
2
DimnDraft3D1
10
-36.85
20
-25
30
0
11
-36.85
21
0
31
0
70
32
71
5
72
1
41
1
210
0
220
0
230
1
3
Standard
100
AcDbAlignedDimension
13
-1.5875
23
25
33
0
14
-1.5875
24
-25
34
0
50
90
100
AcDbRotatedDimension
1001
ACAD
1000
DSTYLE
1002
{
1070
    74
1070
     0
1070
   279
1070
     0
1070
   172
1070
     1
1070
   173
1070
     1
1070
   340
1005
185
1070
   271
1070
     1
1070
   272
1070
     2
1070
    77
1070
     1
1070
    73
1070
     0
1070
   171
1070
     3
1070
   274
1070
     4
1070
   177
1070
   150
1070
   176
1070
     9
1070
   178
1070
    43
1070
    78
1070
     8
1070
    48
1040
-0.005
1070
    41
1041
3.175
1070
   147
1041
2.25
1070
    42
1041
1.5875
1070
    44
1041
3.175
1070
   140
1041
4.5
1070
   343
1005
197
1070
   344
1005
197
1002
}
0
DIMENSION
5
1AC
100
AcDbEntity
8
2
62
256
6
ByLayer
370
13
48
1
60
0
100
AcDbDimension
2
DimnDraft3D2
10
85.85
20
0
30
0
11
85.85
21
-17.5
31
0
70
32
71
5
72
1
41
1
210
0
220
0
230
1
3
Standard
100
AcDbAlignedDimension
13
61.5875
23
-35
33
0
14
61.5875
24
0
34
0
50
90
100
AcDbRotatedDimension
1001
ACAD
1000
DSTYLE
1002
{
1070
    74
1070
     0
1070
   279
1070
     0
1070
   172
1070
     1
1070
   173
1070
     1
1070
   340
1005
185
1070
   271
1070
     1
1070
   272
1070
     2
1070
    77
1070
     1
1070
    73
1070
     0
1070
   171
1070
     3
1070
   274
1070
     4
1070
   177
1070
   150
1070
   176
1070
     9
1070
   178
1070
    43
1070
    78
1070
     8
1070
    48
1040
-0.005
1070
    41
1041
3.175
1070
   147
1041
2.25
1070
    42
1041
1.5875
1070
    44
1041
3.175
1070
   140
1041
4.5
1070
   343
1005
197
1070
   344
1005
197
1002
}
0
DIMENSION
5
1BA
100
AcDbEntity
8
2
62
256
6
ByLayer
370
13
48
1
60
0
100
AcDbDimension
2
DimnDraft3D3
10
60
20
-61.5
30
0
11
30
21
-61.5
31
0
70
32
71
5
72
1
41
1
210
0
220
0
230
1
3
Standard
100
AcDbAlignedDimension
13
0
23
-26.5875
33
0
14
60
24
-36.5875
34
0
50
0
100
AcDbRotatedDimension
1001
ACAD
1000
DSTYLE
1002
{
1070
   279
1070
     0
1070
   172
1070
     1
1070
   173
1070
     1
1070
   340
1005
185
1070
   271
1070
     1
1070
   272
1070
     2
1070
    77
1070
     1
1070
    73
1070
     0
1070
   171
1070
     3
1070
   274
1070
     4
1070
   177
1070
   150
1070
   176
1070
     9
1070
   178
1070
    43
1070
    78
1070
     8
1070
    48
1040
-0.005
1070
    41
1041
3.175
1070
   147
1041
2.25
1070
    42
1041
1.5875
1070
    44
1041
3.175
1070
   140
1041
4.5
1070
   343
1005
197
1070
   344
1005
197
1002
}
0
DIMENSION
5
1C8
100
AcDbEntity
8
2
62
256
6
ByLayer
370
13
48
1
60
0
100
AcDbDimension
2
DimnDraft3D4
10
59.07981
20
-32.04929
30
0
11
51.484905
21
4.386468
31
0
70
34
71
5
72
1
41
1
210
0
220
0
230
1
3
Standard
100
AcDb2LineAngularDimension
13
60
23
-35
33
0
14
60
24
-33.4
34
0
15
59.925046
25
-33.861905
35
0
16
52.458883
26
-0.006864
36
0
40
0
0
ENDSEC
0
SECTION
2
OBJECTS
0
DICTIONARY
5
232
330
0
100
AcDbDictionary
280
0
281
1
3
ACAD_GROUP
350
233
3
ACAD_MLINESTYLE
350
234
0
DICTIONARY
5
233
330
0
100
AcDbDictionary
280
0
281
1
0
DICTIONARY
5
234
330
0
100
AcDbDictionary
280
0
281
1
3
Standard
350
18
0
MLINESTYLE
5
18
330
234
100
AcDbMlineStyle
2
Standard
70
0
3

62
256
51
90
52
90
71
2
49
-0.5
62
256
6
ByLayer
49
0.5
62
256
6
ByLayer
0
RASTERVARIABLES
5
221
330

100
AcDbRasterVariables
90
0
70
1
71
1
72
1
0
ENDSEC
0
EOF
