0
SECTION
2
HEADER
9
$ACADVER
1
AC1015
9
$DWGCODEPAGE
3
ANSI_1252
9
$HANDSEED
5
2c8
9
$ANGBASE
50
0
9
$ANGDIR
70
0
9
$ATTMODE
70
1
9
$AUNITS
70
0
9
$AUPREC
70
0
9
$CECOLOR
62
256
9
$CELTSCALE
40
1
9
$CELTYPE
6
ByLayer
9
$CELWEIGHT
370
18
9
$CLAYER
8
0
9
$CMLJUST
70
0
9
$CMLSCALE
40
1
9
$CMLSTYLE
2
Standard
9
$DIMSTYLE
2
Standard
9
$TEXTSIZE
40
0.2
9
$TEXTSTYLE
7
Standard
9
$LUNITS
70
2
9
$LUPREC
70
4
9
$EXTNAMES
290
1
9
$INSUNITS
70
4
9
$LTSCALE
40
1
9
$LWDISPLAY
290
1
9
$PDMODE
70
0
9
$PDSIZE
40
0
9
$PLINEGEN
70
0
0
ENDSEC
0
SECTION
2
CLASSES
0
CLASS
1
RASTERVARIABLES
2
AcDbRasterVariables
3
ISM
90
0
280
0
281
0
0
ENDSEC
0
SECTION
2
TABLES
0
TABLE
2
VPORT
5
2be
100
AcDbSymbolTable
0
VPORT
5
1
100
AcDbSymbolTableRecord
100
AcDbViewportTableRecord
2
*Active
70
0
10
0
20
0
11
1
21
1
12
-1
22
1
13
0
23
0
14
0.5
24
0.5
15
10
25
10
16
0
26
0
36
1
17
0
27
0
37
0
0
ENDTAB
0
TABLE
2
LTYPE
5
2bf
100
AcDbSymbolTable
0
LTYPE
5
14
100
AcDbSymbolTableRecord
100
AcDbLinetypeTableRecord
70
0
2
ByBlock
3

72
65
73
0
40
0
0
LTYPE
5
15
100
AcDbSymbolTableRecord
100
AcDbLinetypeTableRecord
70
0
2
ByLayer
3

72
65
73
0
40
0
0
LTYPE
5
16
100
AcDbSymbolTableRecord
100
AcDbLinetypeTableRecord
70
0
2
CONTINUOUS
3
Solid line
72
65
73
0
40
0
0
LTYPE
5
6A
100
AcDbSymbolTableRecord
100
AcDbLinetypeTableRecord
70
0
2
CENTER
3
____ _ ____ _ ____ _ ____
72
65
73
4
40
47.5
49
22
74
0
49
-8.5
74
0
49
8.5
74
0
49
-8.5
74
0
0
LTYPE
5
6B
100
AcDbSymbolTableRecord
100
AcDbLinetypeTableRecord
70
0
2
DASHED
3
__ __ __ __ __ __ __ __ __
72
65
73
2
40
25.72
49
12.86
74
0
49
-12.86
74
0
0
ENDTAB
0
TABLE
2
LAYER
5
2c0
100
AcDbSymbolTable
0
LAYER
5
10
100
AcDbSymbolTableRecord
100
AcDbLayerTableRecord
2
0
70
0
62
7
6
CONTINUOUS
290
1
370
-3
390
0
0
LAYER
5
6D
100
AcDbSymbolTableRecord
100
AcDbLayerTableRecord
2
2
70
0
62
7
6
CONTINUOUS
290
1
370
-3
390
0
0
LAYER
5
6F
100
AcDbSymbolTableRecord
100
AcDbLayerTableRecord
2
80
70
0
62
-6
6
CONTINUOUS
290
1
370
-3
390
0
0
LAYER
5
71
100
AcDbSymbolTableRecord
100
AcDbLayerTableRecord
2
81
70
0
62
-3
6
CONTINUOUS
290
1
370
-3
390
0
0
LAYER
5
73
100
AcDbSymbolTableRecord
100
AcDbLayerTableRecord
2
1
70
0
62
4
6
CONTINUOUS
290
1
370
-3
390
0
0
LAYER
5
8C
100
AcDbSymbolTableRecord
100
AcDbLayerTableRecord
2
4
70
0
62
-2
6
CENTER
290
1
370
-3
390
0
0
LAYER
5
2aa
100
AcDbSymbolTableRecord
100
AcDbLayerTableRecord
2
SK4
70
0
62
2
6
CENTER
290
1
370
-3
390
0
0
LAYER
5
2ab
100
AcDbSymbolTableRecord
100
AcDbLayerTableRecord
2
SK1
70
0
62
4
6
CONTINUOUS
290
1
370
-3
390
0
0
LAYER
5
2ac
100
AcDbSymbolTableRecord
100
AcDbLayerTableRecord
2
SK6
70
0
62
5
6
CONTINUOUS
290
1
370
-3
390
0
0
LAYER
5
2ad
100
AcDbSymbolTableRecord
100
AcDbLayerTableRecord
2
SK2
70
0
62
7
6
CONTINUOUS
290
1
370
-3
390
0
0
ENDTAB
0
TABLE
2
STYLE
5
2c1
100
AcDbSymbolTable
0
STYLE
5
11
100
AcDbSymbolTableRecord
100
AcDbTextStyleTableRecord
2
Standard
3
txt
70
0
71
0
40
0
41
1
42
0
50
0
0
STYLE
5
20E
100
AcDbSymbolTableRecord
100
AcDbTextStyleTableRecord
2
iso_b_vert
3
simplex.shx
70
0
71
0
40
0
41
1
42
0
50
0
0
STYLE
5
20F
100
AcDbSymbolTableRecord
100
AcDbTextStyleTableRecord
2
DWGDirectTextStyle
3
simplex
70
0
71
0
40
0
41
1
42
0
50
0
0
ENDTAB
0
TABLE
2
DIMSTYLE
5
2c2
100
AcDbSymbolTable
100
AcDbDimStyleTable
0
DIMSTYLE
105
27
100
AcDbSymbolTableRecord
100
AcDbDimStyleTableRecord
2
Standard
70
0
3
<>
41
0.18
42
0.0625
44
0.18
140
0.18
147
0.09
73
0
74
0
77
1
271
2
275
0
278
52
280
0
340
11
0
ENDTAB
0
TABLE
2
VIEW
5
2c3
100
AcDbSymbolTable
0
ENDTAB
0
TABLE
2
UCS
5
2c4
100
AcDbSymbolTable
0
ENDTAB
0
TABLE
2
APPID
5
2c5
100
AcDbSymbolTable
0
APPID
5
12
100
AcDbSymbolTableRecord
100
AcDbRegAppTableRecord
2
ACAD
70
0
0
ENDTAB
0
TABLE
2
BLOCK_RECORD
5
2c6
100
AcDbSymbolTable
0
BLOCK_RECORD
5
1F
100
AcDbSymbolTableRecord
100
AcDbBlockTableRecord
2
*Model_Space
340
0
70
0
0
BLOCK_RECORD
5
1B
100
AcDbSymbolTableRecord
100
AcDbBlockTableRecord
2
*Paper_Space
340
0
70
0
0
BLOCK_RECORD
5
23
100
AcDbSymbolTableRecord
100
AcDbBlockTableRecord
2
*Paper_Space0
340
0
70
0
0
BLOCK_RECORD
5
211
100
AcDbSymbolTableRecord
100
AcDbBlockTableRecord
2
DimnDraft3D1
340
0
70
0
0
BLOCK_RECORD
5
21F
100
AcDbSymbolTableRecord
100
AcDbBlockTableRecord
2
_CLOSED
340
0
70
0
0
BLOCK_RECORD
5
226
100
AcDbSymbolTableRecord
100
AcDbBlockTableRecord
2
DimnDraft3D2
340
0
70
0
0
BLOCK_RECORD
5
234
100
AcDbSymbolTableRecord
100
AcDbBlockTableRecord
2
DimnDraft3D3
340
0
70
0
0
BLOCK_RECORD
5
243
100
AcDbSymbolTableRecord
100
AcDbBlockTableRecord
2
DimnDraft3D4
340
0
70
0
0
ENDTAB
0
ENDSEC
0
SECTION
2
BLOCKS
0
BLOCK
5
20
100
AcDbEntity
8
0
100
AcDbBlockBegin
2
*Model_Space
70
0
10
0
20
0
30
0
3
*Model_Space
0
ENDBLK
5
21
100
AcDbEntity
8
0
100
AcDbBlockEnd
0
BLOCK
5
1C
100
AcDbEntity
8
0
100
AcDbBlockBegin
2
*Paper_Space
70
0
10
0
20
0
30
0
3
*Paper_Space
0
ENDBLK
5
1D
100
AcDbEntity
8
0
100
AcDbBlockEnd
0
BLOCK
5
24
100
AcDbEntity
8
0
100
AcDbBlockBegin
2
*Paper_Space0
70
0
10
0
20
0
30
0
3
*Paper_Space0
0
ENDBLK
5
25
100
AcDbEntity
8
0
100
AcDbBlockEnd
0
BLOCK
5
21C
100
AcDbEntity
8
0
100
AcDbBlockBegin
2
DimnDraft3D1
70
0
10
0
20
0
30
0
3
DimnDraft3D1
0
MTEXT
5
212
100
AcDbEntity
8
2
62
256
6
ByLayer
370
18
48
1
60
0
100
AcDbMText
10
45.298545
20
-41.364197
30
0
210
0
220
0
230
1
1
\W0.7399;75%%d
40
4.5
41
0
44
1.084337
50
322.5
71
7
72
5
7
iso_b_vert
0
LINE
5
213
100
AcDbEntity
8
2
62
256
6
ByLayer
370
13
48
1
60
0
100
AcDbLine
10
53.62489
20
-28.708206
30
0
11
37.329177
21
-33.074629
31
0
39
0
210
0
220
0
230
1
0
LINE
5
214
100
AcDbEntity
8
2
62
256
6
ByLayer
370
13
48
1
60
0
100
AcDbLine
10
60
20
-29
30
0
11
60
21
-50.470563
31
0
39
0
210
0
220
0
230
1
0
ARC
5
215
100
AcDbEntity
8
2
62
256
6
ByLayer
370
13
48
1
60
0
100
AcDbCircle
39
0
10
60
20
-27
30
0
40
21.4705627484771
210
0
220
0
230
1
100
AcDbArc
50
195
51
270
0
LINE
5
216
100
AcDbEntity
8
2
62
256
6
ByLayer
370
13
48
1
60
0
100
AcDbLine
10
39.261029
20
-32.556991
30
0
11
40.594853
21
-35.46839
31
0
39
0
210
0
220
0
230
1
0
LINE
5
217
100
AcDbEntity
8
2
62
256
6
ByLayer
370
13
48
1
60
0
100
AcDbLine
10
39.261029
20
-32.556991
30
0
11
39.795879
21
-35.714409
31
0
39
0
210
0
220
0
230
1
0
LINE
5
218
100
AcDbEntity
8
2
62
256
6
ByLayer
370
13
48
1
60
0
100
AcDbLine
10
40.594853
20
-35.46839
30
0
11
39.795879
21
-35.714409
31
0
39
0
210
0
220
0
230
1
0
LINE
5
219
100
AcDbEntity
8
2
62
256
6
ByLayer
370
13
48
1
60
0
100
AcDbLine
10
60
20
-48.470563
30
0
11
56.811742
21
-48.771137
31
0
39
0
210
0
220
0
230
1
0
LINE
5
21A
100
AcDbEntity
8
2
62
256
6
ByLayer
370
13
48
1
60
0
100
AcDbLine
10
60
20
-48.470563
30
0
11
56.842581
21
-47.935713
31
0
39
0
210
0
220
0
230
1
0
LINE
5
21B
100
AcDbEntity
8
2
62
256
6
ByLayer
370
13
48
1
60
0
100
AcDbLine
10
56.811742
20
-48.771137
30
0
11
56.842581
21
-47.935713
31
0
39
0
210
0
220
0
230
1
0
ENDBLK
5
21D
100
AcDbEntity
8
0
100
AcDbBlockEnd
0
BLOCK
5
220
100
AcDbEntity
8
0
100
AcDbBlockBegin
2
_CLOSED
70
0
10
0
20
0
30
0
3
_CLOSED
0
LINE
5
222
100
AcDbEntity
8
0
62
256
6
ByLayer
370
-2
48
1
60
0
100
AcDbLine
10
-1
20
0.166667
30
0
11
0
21
0
31
0
39
0
210
0
220
0
230
1
0
LINE
5
223
100
AcDbEntity
8
0
62
256
6
ByLayer
370
-2
48
1
60
0
100
AcDbLine
10
0
20
0
30
0
11
-1
21
-0.166667
31
0
39
0
210
0
220
0
230
1
0
LINE
5
224
100
AcDbEntity
8
0
62
256
6
ByLayer
370
-2
48
1
60
0
100
AcDbLine
10
-1
20
0.166667
30
0
11
-1
21
-0.166667
31
0
39
0
210
0
220
0
230
1
0
LINE
5
225
100
AcDbEntity
8
0
62
256
6
ByLayer
370
-2
48
1
60
0
100
AcDbLine
10
0
20
0
30
0
11
-1
21
0
31
0
39
0
210
0
220
0
230
1
0
ENDBLK
5
221
100
AcDbEntity
8
0
100
AcDbBlockEnd
0
BLOCK
5
231
100
AcDbEntity
8
0
100
AcDbBlockBegin
2
DimnDraft3D2
70
0
10
0
20
0
30
0
3
DimnDraft3D2
0
MTEXT
5
227
100
AcDbEntity
8
2
62
256
6
ByLayer
370
18
48
1
60
0
100
AcDbMText
10
25.843421
20
-53.125
30
0
210
0
220
0
230
1
1
\W0.7346;60.0
40
4.5
41
0
44
1.084337
50
0
71
7
72
5
7
iso_b_vert
0
LINE
5
228
100
AcDbEntity
8
2
62
256
6
ByLayer
370
13
48
1
60
0
100
AcDbLine
10
0
20
-27
30
0
11
0
21
-56.25
31
0
39
0
210
0
220
0
230
1
0
LINE
5
229
100
AcDbEntity
8
2
62
256
6
ByLayer
370
13
48
1
60
0
100
AcDbLine
10
60
20
-29
30
0
11
60
21
-56.25
31
0
39
0
210
0
220
0
230
1
0
LINE
5
22A
100
AcDbEntity
8
2
62
256
6
ByLayer
370
13
48
1
60
0
100
AcDbLine
10
0
20
-54.25
30
0
11
60
21
-54.25
31
0
39
0
210
0
220
0
230
1
0
LINE
5
22B
100
AcDbEntity
8
2
62
256
6
ByLayer
370
13
48
1
60
0
100
AcDbLine
10
0
20
-54.25
30
0
11
3.174998
21
-53.832003
31
0
39
0
210
0
220
0
230
1
0
LINE
5
22C
100
AcDbEntity
8
2
62
256
6
ByLayer
370
13
48
1
60
0
100
AcDbLine
10
0
20
-54.25
30
0
11
3.175002
21
-54.667997
31
0
39
0
210
0
220
0
230
1
0
LINE
5
22D
100
AcDbEntity
8
2
62
256
6
ByLayer
370
13
48
1
60
0
100
AcDbLine
10
3.174998
20
-53.832003
30
0
11
3.175002
21
-54.667997
31
0
39
0
210
0
220
0
230
1
0
LINE
5
22E
100
AcDbEntity
8
2
62
256
6
ByLayer
370
13
48
1
60
0
100
AcDbLine
10
60
20
-54.25
30
0
11
56.825002
21
-54.667997
31
0
39
0
210
0
220
0
230
1
0
LINE
5
22F
100
AcDbEntity
8
2
62
256
6
ByLayer
370
13
48
1
60
0
100
AcDbLine
10
60
20
-54.25
30
0
11
56.824998
21
-53.832003
31
0
39
0
210
0
220
0
230
1
0
LINE
5
230
100
AcDbEntity
8
2
62
256
6
ByLayer
370
13
48
1
60
0
100
AcDbLine
10
56.825002
20
-54.667997
30
0
11
56.824998
21
-53.832003
31
0
39
0
210
0
220
0
230
1
0
ENDBLK
5
232
100
AcDbEntity
8
0
100
AcDbBlockEnd
0
BLOCK
5
240
100
AcDbEntity
8
0
100
AcDbBlockBegin
2
DimnDraft3D3
70
0
10
0
20
0
30
0
3
DimnDraft3D3
0
MTEXT
5
235
100
AcDbEntity
8
SK2
62
256
6
ByLayer
370
18
48
1
60
0
100
AcDbMText
10
-38.875
20
-1.563158
30
0
210
0
220
0
230
1
1
\W0.6740;50
40
4.5
41
0
44
1.084337
50
90
71
7
72
5
7
iso_b_vert
0
LINE
5
237
100
AcDbEntity
8
SK2
62
256
6
ByLayer
370
13
48
1
60
0
100
AcDbLine
10
-2
20
-25
30
0
11
-39.75
21
-25
31
0
39
0
210
0
220
0
230
1
0
LINE
5
238
100
AcDbEntity
8
SK2
62
256
6
ByLayer
370
13
48
1
60
0
100
AcDbLine
10
-2
20
25
30
0
11
-39.75
21
25
31
0
39
0
210
0
220
0
230
1
0
LINE
5
239
100
AcDbEntity
8
SK2
62
256
6
ByLayer
370
13
48
1
60
0
100
AcDbLine
10
-37.75
20
-25
30
0
11
-37.75
21
25
31
0
39
0
210
0
220
0
230
1
0
LINE
5
23A
100
AcDbEntity
8
SK2
62
256
6
ByLayer
370
13
48
1
60
0
100
AcDbLine
10
-37.75
20
-25
30
0
11
-38.167997
21
-21.825002
31
0
39
0
210
0
220
0
230
1
0
LINE
5
23B
100
AcDbEntity
8
SK2
62
256
6
ByLayer
370
13
48
1
60
0
100
AcDbLine
10
-37.75
20
-25
30
0
11
-37.332003
21
-21.824998
31
0
39
0
210
0
220
0
230
1
0
LINE
5
23C
100
AcDbEntity
8
SK2
62
256
6
ByLayer
370
13
48
1
60
0
100
AcDbLine
10
-38.167997
20
-21.825002
30
0
11
-37.332003
21
-21.824998
31
0
39
0
210
0
220
0
230
1
0
LINE
5
23D
100
AcDbEntity
8
SK2
62
256
6
ByLayer
370
13
48
1
60
0
100
AcDbLine
10
-37.75
20
25
30
0
11
-37.332003
21
21.825002
31
0
39
0
210
0
220
0
230
1
0
LINE
5
23E
100
AcDbEntity
8
SK2
62
256
6
ByLayer
370
13
48
1
60
0
100
AcDbLine
10
-37.75
20
25
30
0
11
-38.167997
21
21.824998
31
0
39
0
210
0
220
0
230
1
0
LINE
5
23F
100
AcDbEntity
8
SK2
62
256
6
ByLayer
370
13
48
1
60
0
100
AcDbLine
10
-37.332003
20
21.825002
30
0
11
-38.167997
21
21.824998
31
0
39
0
210
0
220
0
230
1
0
ENDBLK
5
241
100
AcDbEntity
8
0
100
AcDbBlockEnd
0
BLOCK
5
24E
100
AcDbEntity
8
0
100
AcDbBlockBegin
2
DimnDraft3D4
70
0
10
0
20
0
30
0
3
DimnDraft3D4
0
MTEXT
5
244
100
AcDbEntity
8
2
62
256
6
ByLayer
370
18
48
1
60
0
100
AcDbMText
10
81.125
20
-17.656579
30
0
210
0
220
0
230
1
1
\W0.7346;27.0
40
4.5
41
0
44
1.084337
50
90
71
7
72
5
7
iso_b_vert
0
LINE
5
245
100
AcDbEntity
8
2
62
256
6
ByLayer
370
13
48
1
60
0
100
AcDbLine
10
62
20
0
30
0
11
84.25
21
0
31
0
39
0
210
0
220
0
230
1
0
LINE
5
246
100
AcDbEntity
8
2
62
256
6
ByLayer
370
13
48
1
60
0
100
AcDbLine
10
62
20
-27
30
0
11
84.25
21
-27
31
0
39
0
210
0
220
0
230
1
0
LINE
5
247
100
AcDbEntity
8
2
62
256
6
ByLayer
370
13
48
1
60
0
100
AcDbLine
10
82.25
20
0
30
0
11
82.25
21
-27
31
0
39
0
210
0
220
0
230
1
0
LINE
5
248
100
AcDbEntity
8
2
62
256
6
ByLayer
370
13
48
1
60
0
100
AcDbLine
10
82.25
20
0
30
0
11
82.667997
21
-3.174998
31
0
39
0
210
0
220
0
230
1
0
LINE
5
249
100
AcDbEntity
8
2
62
256
6
ByLayer
370
13
48
1
60
0
100
AcDbLine
10
82.25
20
0
30
0
11
81.832003
21
-3.175002
31
0
39
0
210
0
220
0
230
1
0
LINE
5
24A
100
AcDbEntity
8
2
62
256
6
ByLayer
370
13
48
1
60
0
100
AcDbLine
10
82.667997
20
-3.174998
30
0
11
81.832003
21
-3.175002
31
0
39
0
210
0
220
0
230
1
0
LINE
5
24B
100
AcDbEntity
8
2
62
256
6
ByLayer
370
13
48
1
60
0
100
AcDbLine
10
82.25
20
-27
30
0
11
81.832003
21
-23.825002
31
0
39
0
210
0
220
0
230
1
0
LINE
5
24C
100
AcDbEntity
8
2
62
256
6
ByLayer
370
13
48
1
60
0
100
AcDbLine
10
82.25
20
-27
30
0
11
82.667997
21
-23.824998
31
0
39
0
210
0
220
0
230
1
0
LINE
5
24D
100
AcDbEntity
8
2
62
256
6
ByLayer
370
13
48
1
60
0
100
AcDbLine
10
81.832003
20
-23.825002
30
0
11
82.667997
21
-23.824998
31
0
39
0
210
0
220
0
230
1
0
ENDBLK
5
24F
100
AcDbEntity
8
0
100
AcDbBlockEnd
0
ENDSEC
0
SECTION
2
ENTITIES
0
ARC
5
120
100
AcDbEntity
8
SK1
62
256
6
ByLayer
370
18
48
1
60
0
100
AcDbCircle
39
0
10
0.6
20
-18.75
30
0
40
1.00000000000001
210
0
220
0
230
-1
100
AcDbArc
50
113.578178
51
126.869898
0
ARC
5
121
100
AcDbEntity
8
SK1
62
256
6
ByLayer
370
18
48
1
60
0
100
AcDbCircle
39
0
10
0.6
20
18.75
30
0
40
1.00000000000001
210
0
220
0
230
-1
100
AcDbArc
50
233.130102
51
246.421822
0
ELLIPSE
5
122
100
AcDbEntity
8
1
62
256
6
ByLayer
370
18
48
1
60
0
100
AcDbEllipse
10
40.088732
20
-17.747013
30
0
11
-0.190000000000001
21
-0.329089653438086
31
0
210
0
220
0
230
1
40
0.989133
41
2.50405666387321
42
2.68597914395414
0
ELLIPSE
5
123
100
AcDbEntity
8
1
62
256
6
ByLayer
370
18
48
1
60
0
100
AcDbEllipse
10
39.509481
20
-19.84057
30
0
11
-0.190000000000001
21
-0.329089653438086
31
0
210
0
220
0
230
1
40
0.989133
41
0.455646666845416
42
1.1502083482718
0
ELLIPSE
5
124
100
AcDbEntity
8
1
62
256
6
ByLayer
370
18
48
1
60
0
100
AcDbEllipse
10
40.822613
20
-17.423779
30
0
11
0.212499999999997
21
0.368060796608388
31
0
210
0
220
0
230
1
40
0.989133
41
2.50405666387324
42
-3.14157508544017
0
ELLIPSE
5
125
100
AcDbEntity
8
1
62
256
6
ByLayer
370
18
48
1
60
0
100
AcDbEllipse
10
41.287751
20
-18.071853
30
0
11
-0.190000000000001
21
-0.329089653438086
31
0
210
0
220
0
230
1
40
0.989133
41
1.45685911267663
42
2.68594017794362
0
ELLIPSE
5
126
100
AcDbEntity
8
1
62
256
6
ByLayer
370
18
48
1
60
0
100
AcDbEllipse
10
39.974619
20
-20.488643
30
0
11
0.212499999999997
21
0.368060796608388
31
0
210
0
220
0
230
1
40
0.989133
41
1.93219937509984E-05
42
1.1502083482718
0
ELLIPSE
5
127
100
AcDbEntity
8
1
62
256
6
ByLayer
370
18
48
1
60
0
100
AcDbEllipse
10
40.7085
20
-20.165409
30
0
11
-0.190000000000001
21
-0.329089653438086
31
0
210
0
220
0
230
1
40
0.989133
41
0.45568915911666
42
2.1974058994684
0
ELLIPSE
5
128
100
AcDbEntity
8
1
62
256
6
ByLayer
370
18
48
1
60
0
100
AcDbEllipse
10
41.927093
20
-18.546657
30
0
11
0.212499999999997
21
0.368060796608388
31
0
210
0
220
0
230
1
40
0.989133
41
1.4568591126766
42
3.14158538262176
0
ELLIPSE
5
129
100
AcDbEntity
8
1
62
256
6
ByLayer
370
18
48
1
60
0
100
AcDbEllipse
10
41.597635
20
-19.28105
30
0
11
-0.190000000000001
21
-0.329089653438086
31
0
210
0
220
0
230
1
40
0.989133
41
0.409661561480055
42
2.99158584164611
0
ELLIPSE
5
12A
100
AcDbEntity
8
1
62
256
6
ByLayer
370
18
48
1
60
0
100
AcDbEllipse
10
40.264923
20
-18.879023
30
0
11
1.99999999999997
21
3.46410161513777
31
0
210
0
220
0
230
1
40
0.989133
41
0.528343053518855
42
3.14149876336411
0
ELLIPSE
5
12B
100
AcDbEntity
8
1
62
256
6
ByLayer
370
18
48
1
60
0
100
AcDbEllipse
10
40.264923
20
-18.879023
30
0
11
1.99999999999997
21
3.46410161513777
31
0
210
0
220
0
230
1
40
0.989133
41
0
42
0.528338758566072
0
ELLIPSE
5
12C
100
AcDbEntity
8
1
62
256
6
ByLayer
370
18
48
1
60
0
100
AcDbEllipse
10
40.398616
20
-18.956211
30
0
11
0.574999999999991
21
0.995929214352109
31
0
210
0
220
0
230
1
40
0.989133
41
0.528343195976296
42
0.885835517222275
0
ELLIPSE
5
12D
100
AcDbEntity
8
1
62
256
6
ByLayer
370
18
48
1
60
0
100
AcDbEllipse
10
40.398616
20
-18.956211
30
0
11
0.574999999999991
21
0.995929214352109
31
0
210
0
220
0
230
1
40
0.989133
41
1.59720999592731
42
2.22140514099465
0
ELLIPSE
5
12E
100
AcDbEntity
8
1
62
256
6
ByLayer
370
18
48
1
60
0
100
AcDbEllipse
10
40.398616
20
-18.956211
30
0
11
0.574999999999991
21
0.995929214352109
31
0
210
0
220
0
230
1
40
0.989133
41
2.8113370448375
42
-0.0618460119081173
0
ELLIPSE
5
12F
100
AcDbEntity
8
1
62
256
6
ByLayer
370
18
48
1
60
0
100
AcDbEllipse
10
40.398616
20
-18.956211
30
0
11
0.574999999999991
21
0.995929214352109
31
0
210
0
220
0
230
1
40
0.989133
41
0.256338635127988
42
0.528343195976296
0
ELLIPSE
5
130
100
AcDbEntity
8
1
62
256
6
ByLayer
370
18
48
1
60
0
100
AcDbEllipse
10
40.290388
20
-18.893726
30
0
11
0.574999999999991
21
0.995929214352109
31
0
210
0
220
0
230
1
40
0.989133
41
-3.08670833011655
42
-0.13960023104384
0
ELLIPSE
5
131
100
AcDbEntity
8
1
62
256
6
ByLayer
370
18
48
1
60
0
100
AcDbEllipse
10
23.326039
20
2.998018
30
0
11
1.20461273272693
21
1.84089873815812
31
0
210
0
220
0
230
1
40
0.16229
41
-3.14154293089079
42
-3.2633709922388E-05
0
ELLIPSE
5
132
100
AcDbEntity
8
1
62
256
6
ByLayer
370
18
48
1
60
0
100
AcDbEllipse
10
33.394331
20
-22.877614
30
0
11
1.42925169960528
21
2.63765797236401
31
0
210
0
220
0
230
1
40
0.9865
41
0.0891024469650605
42
0.229639942064427
0
ELLIPSE
5
133
100
AcDbEntity
8
1
62
256
6
ByLayer
370
18
48
1
60
0
100
AcDbEllipse
10
31.847608
20
-20.857109
30
0
11
-1.03797844083086
21
-2.81574371816368
31
0
210
0
220
0
230
1
40
0.878827
41
-1.47613430215883
42
0.0468019408834085
0
ELLIPSE
5
134
100
AcDbEntity
8
1
62
256
6
ByLayer
370
18
48
1
60
0
100
AcDbEllipse
10
41.076993
20
-19.156825
30
0
11
1.9771315177873
21
3.64876019510355
31
0
210
0
220
0
230
1
40
0.9865
41
-2.91195271152537
42
0.00418168212018707
0
ELLIPSE
5
135
100
AcDbEntity
8
1
62
256
6
ByLayer
370
18
48
1
60
0
100
AcDbEllipse
10
10
20
14.427592
30
0
11
-1.99999999999999
21
2.44921270764474E-16
31
0
210
0
220
0
230
1
40
0.75471
41
-1.57079623541952
42
-0.166210030202421
0
ELLIPSE
5
136
100
AcDbEntity
8
1
62
256
6
ByLayer
370
18
48
1
60
0
100
AcDbEllipse
10
10
20
14.427592
30
0
11
-1.99999999999999
21
2.44921270764474E-16
31
0
210
0
220
0
230
1
40
0.75471
41
-2.97528467615068
42
-1.57079623541954
0
ELLIPSE
5
137
100
AcDbEntity
8
1
62
256
6
ByLayer
370
18
48
1
60
0
100
AcDbEllipse
10
10
20
14.427592
30
0
11
-1.65
21
2.02060048380692E-16
31
0
210
0
220
0
230
1
40
0.75471
41
-1.57079640208618
42
0
0
ELLIPSE
5
138
100
AcDbEntity
8
1
62
256
6
ByLayer
370
18
48
1
60
0
100
AcDbEllipse
10
10
20
14.427592
30
0
11
-1.65
21
2.02060048380692E-16
31
0
210
0
220
0
230
1
40
0.75471
41
0
42
0.949546583286938
0
ELLIPSE
5
139
100
AcDbEntity
8
1
62
256
6
ByLayer
370
18
48
1
60
0
100
AcDbEllipse
10
10
20
14.427592
30
0
11
-1.65
21
2.02060048380692E-16
31
0
210
0
220
0
230
1
40
0.75471
41
2.19194820122988
42
-1.57079640208621
0
ELLIPSE
5
13A
100
AcDbEntity
8
1
62
256
6
ByLayer
370
18
48
1
60
0
100
AcDbEllipse
10
21.415098
20
21.732195
30
0
11
-0.549648703775974
21
-44.8354936029245
31
0
210
0
220
0
230
1
40
0.088369
41
-1.1666133898454
42
-1.16366353747969
0
ELLIPSE
5
13B
100
AcDbEntity
8
1
62
256
6
ByLayer
370
18
48
1
60
0
100
AcDbEllipse
10
23.532459
20
2.862944
30
0
11
-1.06772492218978
21
-1.63170569973106
31
0
210
0
220
0
230
1
40
0.16229
41
0.165256233326496
42
2.97636924128992
0
ELLIPSE
5
13C
100
AcDbEntity
8
1
62
256
6
ByLayer
370
18
48
1
60
0
100
AcDbEllipse
10
49.021406
20
-16.652462
30
0
11
1.19771302649503
21
2.07449981477652
31
0
210
0
220
0
230
1
40
0.989133
41
0.605402029676532
42
0.819029844730162
0
ELLIPSE
5
13D
100
AcDbEntity
8
1
62
256
6
ByLayer
370
18
48
1
60
0
100
AcDbEllipse
10
47.615355
20
0
30
0
11
-26.2524268763147
21
25.1417609745992
31
0
210
0
220
0
230
1
40
0.02452
41
-0.225738027121151
42
-0.0255823440401811
0
ELLIPSE
5
13E
100
AcDbEntity
8
1
62
256
6
ByLayer
370
18
48
1
60
0
100
AcDbEllipse
10
47.87281
20
-15.826286
30
0
11
1.2491272959898
21
2.16355194177551
31
0
210
0
220
0
230
1
40
0.989133
41
-0.824549501887014
42
-0.408366737789769
0
ELLIPSE
5
13F
100
AcDbEntity
8
1
62
256
6
ByLayer
370
18
48
1
60
0
100
AcDbEllipse
10
47.853711
20
-15.81526
30
0
11
1.1741272959898
21
2.03364813120784
31
0
210
0
220
0
230
1
40
0.989133
41
-0.875527424767619
42
-0.335622132531472
0
ELLIPSE
5
140
100
AcDbEntity
8
1
62
256
6
ByLayer
370
18
48
1
60
0
100
AcDbEllipse
10
53.794959
20
-22.490195
30
0
11
1.67707259421634
21
2.90477494116411
31
0
210
0
220
0
230
1
40
0.989133
41
-2.51001068513341
42
-1.62190334992713
0
ELLIPSE
5
141
100
AcDbEntity
8
1
62
256
6
ByLayer
370
18
48
1
60
0
100
AcDbEllipse
10
53.794959
20
-22.490195
30
0
11
1.67707259421634
21
2.90477494116411
31
0
210
0
220
0
230
1
40
0.989133
41
-1.60251303387117
42
-1.46338091472374
0
ELLIPSE
5
142
100
AcDbEntity
8
1
62
256
6
ByLayer
370
18
48
1
60
0
100
AcDbEllipse
10
53.794959
20
-22.490195
30
0
11
1.67707259421634
21
2.90477494116411
31
0
210
0
220
0
230
1
40
0.989133
41
-1.14783024489595
42
-0.11890960990117
0
ELLIPSE
5
143
100
AcDbEntity
8
1
62
256
6
ByLayer
370
18
48
1
60
0
100
AcDbEllipse
10
53.362047
20
-22.240253
30
0
11
-2.75000000000001
21
-4.76313972081441
31
0
210
0
220
0
230
1
40
0.989133
41
-2.4489241613136
42
-2.24823038799457
0
ELLIPSE
5
144
100
AcDbEntity
8
1
62
256
6
ByLayer
370
18
48
1
60
0
100
AcDbEllipse
10
53.70583
20
-22.438736
30
0
11
2.38826859021795
21
4.13660254037847
31
0
210
0
220
0
230
1
40
0.989133
41
0.786196375342076
42
0.804152615198247
0
ELLIPSE
5
145
100
AcDbEntity
8
1
62
256
6
ByLayer
370
18
48
1
60
0
100
AcDbEllipse
10
53.70583
20
-22.438736
30
0
11
2.38826859021795
21
4.13660254037847
31
0
210
0
220
0
230
1
40
0.989133
41
2.8530076604126
42
2.86806863680294
0
ELLIPSE
5
146
100
AcDbEntity
8
1
62
256
6
ByLayer
370
18
48
1
60
0
100
AcDbEllipse
10
53.362047
20
-22.240253
30
0
11
-2.75000000000001
21
-4.76313972081441
31
0
210
0
220
0
230
1
40
0.989133
41
-0.340937234527479
42
-0.179996133720974
0
ELLIPSE
5
147
100
AcDbEntity
8
1
62
256
6
ByLayer
370
18
48
1
60
0
100
AcDbEllipse
10
54.368195
20
-22.645497
30
0
11
-1.7944863728671
21
-3.10814157129579
31
0
210
0
220
0
230
1
40
0.989133
41
0.692668492276187
42
0.786432991834148
0
ELLIPSE
5
148
100
AcDbEntity
8
1
62
256
6
ByLayer
370
18
48
1
60
0
100
AcDbEllipse
10
53.935283
20
-22.395555
30
0
11
-2.25000000000001
21
-3.89711431702997
31
0
210
0
220
0
230
1
40
0.989133
41
1.21626726787448
42
2.43799774427052
0
ELLIPSE
5
149
100
AcDbEntity
8
1
62
256
6
ByLayer
370
18
48
1
60
0
100
AcDbEllipse
10
53.935283
20
-22.395555
30
0
11
-2.25000000000001
21
-3.89711431702997
31
0
210
0
220
0
230
1
40
0.989133
41
2.43799774427052
42
2.96159651986883
0
ELLIPSE
5
14A
100
AcDbEntity
8
1
62
256
6
ByLayer
370
18
48
1
60
0
100
AcDbEllipse
10
54.368195
20
-22.645497
30
0
11
-1.7944863728671
21
-3.10814157129579
31
0
210
0
220
0
230
1
40
0.989133
41
2.86783202031086
42
2.96159651986883
0
ELLIPSE
5
14B
100
AcDbEntity
8
1
62
256
6
ByLayer
370
18
48
1
60
0
100
AcDbEllipse
10
56.626956
20
-22.269534
30
0
11
-0.951329586593074
21
-2.07763932250469
31
0
210
0
220
0
230
1
40
0.633703
41
2.56054475528626
42
-2.701682991447
0
ELLIPSE
5
14C
100
AcDbEntity
8
1
62
256
6
ByLayer
370
18
48
1
60
0
100
AcDbEllipse
10
53.935283
20
-22.395555
30
0
11
-2.25000000000001
21
-3.89711431702997
31
0
210
0
220
0
230
1
40
0.989133
41
0.692668492276186
42
1.21626726787448
0
ELLIPSE
5
14D
100
AcDbEntity
8
1
62
256
6
ByLayer
370
18
48
1
60
0
100
AcDbEllipse
10
51.881977
20
-17.997917
30
0
11
-4.23778509838408
21
8.24704301728014
31
0
210
0
220
0
230
1
40
0.720282
41
2.30354004202508
42
2.36711070252924
0
ELLIPSE
5
14E
100
AcDbEntity
8
1
62
256
6
ByLayer
370
18
48
1
60
0
100
AcDbEllipse
10
56.043663
20
-24.3777
30
0
11
-0.654619045843355
21
-1.76821361209563
31
0
210
0
220
0
230
1
40
0.780509
41
-0.0830853148515766
42
0.937872245595244
0
ELLIPSE
5
14F
100
AcDbEntity
8
1
62
256
6
ByLayer
370
18
48
1
60
0
100
AcDbEllipse
10
50.079391
20
-24.512918
30
0
11
-8.14893206384409
21
-2.99593285222698
31
0
210
0
220
0
230
1
40
0.734874
41
-2.18880490471844
42
-2.12523424539416
0
ELLIPSE
5
150
100
AcDbEntity
8
1
62
256
6
ByLayer
370
18
48
1
60
0
100
AcDbEllipse
10
54.368195
20
-22.645497
30
0
11
1.63125060174743
21
2.82540892210391
31
0
210
0
220
0
230
1
40
0.989133
41
-1.92532538571531
42
-0.703594909319272
0
ELLIPSE
5
151
100
AcDbEntity
8
1
62
256
6
ByLayer
370
18
48
1
60
0
100
AcDbEllipse
10
48.222959
20
-16.028445
30
0
11
1.23312772246981
21
2.13583986753944
31
0
210
0
220
0
230
1
40
0.989133
41
-0.83791348237662
42
-0.836113817479754
0
ELLIPSE
5
152
100
AcDbEntity
8
1
62
256
6
ByLayer
370
18
48
1
60
0
100
AcDbEllipse
10
-1.056258
20
0
30
0
11
-11.7092723497277
21
-24.677186440938
31
0
210
0
220
0
230
1
40
0.341999
41
2.05975995310053
42
2.97437958168082
0
ELLIPSE
5
153
100
AcDbEntity
8
1
62
256
6
ByLayer
370
18
48
1
60
0
100
AcDbEllipse
10
17.018923
20
5.853013
30
0
11
-0.0135088912712834
21
-3.86383308640885
31
0
210
0
220
0
230
1
40
0.047649
41
-2.90533746641579
42
-1.33454113962144
0
ELLIPSE
5
154
100
AcDbEntity
8
1
62
256
6
ByLayer
370
18
48
1
60
0
100
AcDbEllipse
10
21.056258
20
0
30
0
11
-11.7092723497275
21
-24.6771864409378
31
0
210
0
220
0
230
1
40
0.341999
41
-1.08183270048927
42
-0.167213071908978
0
ELLIPSE
5
155
100
AcDbEntity
8
1
62
256
6
ByLayer
370
18
48
1
60
0
100
AcDbEllipse
10
10
20
12.665093
30
0
11
-1.86732139085278
21
2.63482006210088
31
0
210
0
220
0
230
1
40
0.271866
41
0.0397891263266403
42
0.69280105937829
0
ELLIPSE
5
156
100
AcDbEntity
8
1
62
256
6
ByLayer
370
18
48
1
60
0
100
AcDbEllipse
10
-1.056258
20
0
30
0
11
-11.709272349727
21
24.677186440937
31
0
210
0
220
0
230
1
40
0.341999
41
-2.97437958168081
42
-2.0597599531005
0
ELLIPSE
5
157
100
AcDbEntity
8
1
62
256
6
ByLayer
370
18
48
1
60
0
100
AcDbEllipse
10
32.713241
20
-7.334082
30
0
11
-5.41267419747103
21
1.43409894729021
31
0
210
0
220
0
230
1
40
0.71384
41
3.13379110514788
42
-2.45970939606818
0
ELLIPSE
5
158
100
AcDbEntity
8
1
62
256
6
ByLayer
370
18
48
1
60
0
100
AcDbEllipse
10
10
20
12.665093
30
0
11
-1.86732139085312
21
-2.63482006210127
31
0
210
0
220
0
230
1
40
0.271866
41
2.44879159421155
42
3.10180352726319
0
ELLIPSE
5
159
100
AcDbEntity
8
1
62
256
6
ByLayer
370
18
48
1
60
0
100
AcDbEllipse
10
49.287413
20
-16.643008
30
0
11
1.18448901896901
21
2.05159516186179
31
0
210
0
220
0
230
1
40
0.989133
41
-0.786190306996517
42
0.0279563292029953
0
ELLIPSE
5
15A
100
AcDbEntity
8
1
62
256
6
ByLayer
370
18
48
1
60
0
100
AcDbEllipse
10
10
20
14.658522
30
0
11
-2.00000000000007
21
2.0212781101648E-15
31
0
210
0
220
0
230
1
40
0.708833
41
-2.39008803209745
42
-0.751504621492353
0
ELLIPSE
5
15B
100
AcDbEntity
8
1
62
256
6
ByLayer
370
18
48
1
60
0
100
AcDbEllipse
10
48.239115
20
-16.061418
30
0
11
-2.01022079314674
21
-1.5187463649264
31
0
210
0
220
0
230
1
40
0.848538
41
2.66168504582494
42
2.67791332174113
0
ELLIPSE
5
15C
100
AcDbEntity
8
1
62
256
6
ByLayer
370
18
48
1
60
0
100
AcDbEllipse
10
10
20
14.658522
30
0
11
-1.99999999999996
21
2.02127811016469E-15
31
0
210
0
220
0
230
1
40
0.708833
41
0.7515046214923
42
2.3900880320975
0
ELLIPSE
5
15D
100
AcDbEntity
8
1
62
256
6
ByLayer
370
18
48
1
60
0
100
AcDbEllipse
10
49.21919
20
-16.635226
30
0
11
1.19771302649503
21
2.07449981477652
31
0
210
0
220
0
230
1
40
0.989133
41
0.0010658801065991
42
0.605402029676533
0
ELLIPSE
5
15E
100
AcDbEntity
8
1
62
256
6
ByLayer
370
18
48
1
60
0
100
AcDbEllipse
10
27.916631
20
-24.670239
30
0
11
-5.41267419746412
21
1.43409894730007
31
0
210
0
220
0
230
1
40
0.71384
41
2.44410629918548
42
3.13379110514928
0
ELLIPSE
5
15F
100
AcDbEntity
8
1
62
256
6
ByLayer
370
18
48
1
60
0
100
AcDbEllipse
10
21.056258
20
0
30
0
11
-11.7092723497278
21
24.6771864409381
31
0
210
0
220
0
230
1
40
0.341999
41
0.167213071908976
42
1.08183270048926
0
ELLIPSE
5
160
100
AcDbEntity
8
1
62
256
6
ByLayer
370
18
48
1
60
0
100
AcDbEllipse
10
49.258517
20
-16.705744
30
0
11
-2.21966410668403
21
-1.35203117255202
31
0
210
0
220
0
230
1
40
0.525221
41
2.60255850489054
42
2.67505977765422
0
ELLIPSE
5
161
100
AcDbEntity
8
1
62
256
6
ByLayer
370
18
48
1
60
0
100
AcDbEllipse
10
22.576751
20
-80.995412
30
0
11
-3.30458849831125E-15
21
53.9698081427816
31
0
210
0
220
0
230
-1
40
0.074116
41
-0.186790119240849
42
-0.127673564405643
0
ELLIPSE
5
162
100
AcDbEntity
8
1
62
256
6
ByLayer
370
18
48
1
60
0
100
AcDbEllipse
10
18.187217
20
0
30
0
11
1.53075794227798E-15
21
25.0000000000001
31
0
210
0
220
0
230
1
40
0.087489
41
0.353363115402329
42
2.78822953818746
0
ELLIPSE
5
163
100
AcDbEntity
8
1
62
256
6
ByLayer
370
18
48
1
60
0
100
AcDbEllipse
10
17.277909
20
7.137975
30
0
11
-0.0135088912713331
21
-3.86383308640735
31
0
210
0
220
0
230
1
40
0.047649
41
2.24354180875263
42
-2.90533746641585
0
ELLIPSE
5
164
100
AcDbEntity
8
1
62
256
6
ByLayer
370
18
48
1
60
0
100
AcDbEllipse
10
48.372981
20
-29.298153
30
0
11
-0.396875000000002
21
-0.687407664253897
31
0
210
0
220
0
230
1
40
0.989133
41
-0.965394297118423
42
0.779934954875906
0
ELLIPSE
5
165
100
AcDbEntity
8
1
62
256
6
ByLayer
370
18
48
1
60
0
100
AcDbEllipse
10
58.351113
20
-15.182354
30
0
11
-0.396875000000002
21
-0.687407664253897
31
0
210
0
220
0
230
1
40
0.989133
41
2.17619835647138
42
-2.36165769871387
0
ELLIPSE
5
166
100
AcDbEntity
8
1
62
256
6
ByLayer
370
18
48
1
60
0
100
AcDbEllipse
10
59.21271
20
-26.393656
30
0
11
-0.396875000000002
21
-0.687407664253897
31
0
210
0
220
0
230
1
40
0.989133
41
0.779934954875915
42
2.17619835647138
0
ELLIPSE
5
167
100
AcDbEntity
8
1
62
256
6
ByLayer
370
18
48
1
60
0
100
AcDbEllipse
10
54.015155
20
-25.131018
30
0
11
-5.27964510235991
21
-3.0510867576896
31
0
210
0
220
0
230
1
40
0.530208
41
-0.641321155182609
42
-0.561582887862292
0
ELLIPSE
5
168
100
AcDbEntity
8
1
62
256
6
ByLayer
370
18
48
1
60
0
100
AcDbEllipse
10
34.075367
20
-12.805427
30
0
11
-1.03797844083136
21
-2.8157437181632
31
0
210
0
220
0
230
1
40
0.878827
41
-3.04693062895358
42
-1.47613430215858
0
ELLIPSE
5
169
100
AcDbEntity
8
1
62
256
6
ByLayer
370
18
48
1
60
0
100
AcDbEllipse
10
35.875581
20
-20.350687
30
0
11
-4.81894827224443
21
1.33331824761847
31
0
210
0
220
0
230
1
40
0.037276
41
0.904466784052697
42
1.34549788940898
0
ELLIPSE
5
16A
100
AcDbEntity
8
1
62
256
6
ByLayer
370
18
48
1
60
0
100
AcDbEllipse
10
43.029089
20
-15.574263
30
0
11
-8.36206048551152
21
5.41843150684097
31
0
210
0
220
0
230
1
40
0.135037
41
-0.398482192174484
42
0.32071870777078
0
ELLIPSE
5
16B
100
AcDbEntity
8
1
62
256
6
ByLayer
370
18
48
1
60
0
100
AcDbEllipse
10
30.165772
20
-20.134012
30
0
11
-2.30689481644406
21
-1.92213252000715
31
0
210
0
220
0
230
1
40
0.994388
41
0.257614196839903
42
0.263725472426244
0
ELLIPSE
5
16C
100
AcDbEntity
8
1
62
256
6
ByLayer
370
18
48
1
60
0
100
AcDbEllipse
10
40.80133
20
-23.625944
30
0
11
-9.83628283721284
21
0.106417480142471
31
0
210
0
220
0
230
1
40
0.113033
41
-0.30818073532764
42
0.411020164617809
0
ELLIPSE
5
16D
100
AcDbEntity
8
1
62
256
6
ByLayer
370
18
48
1
60
0
100
AcDbEllipse
10
55.325635
20
-20.394613
30
0
11
-1.74624399239576
21
6.81679145638183
31
0
210
0
220
0
230
1
40
0.551528
41
0.832830884840193
42
0.91256915290721
0
ELLIPSE
5
16E
100
AcDbEntity
8
1
62
256
6
ByLayer
370
18
48
1
60
0
100
AcDbEllipse
10
37.034762
20
-16.161116
30
0
11
-3.48793221672793
21
6.11804450819117
31
0
210
0
220
0
230
1
40
0.052899
41
-1.46769895257598
42
-1.00363542423988
0
ELLIPSE
5
16F
100
AcDbEntity
8
1
62
256
6
ByLayer
370
18
48
1
60
0
100
AcDbEllipse
10
36.102087
20
-19.532036
30
0
11
-6.13437206617348
21
-3.49724065105908
31
0
210
0
220
0
230
1
40
0.089998
41
0.965967380372766
42
1.43003090868371
0
ELLIPSE
5
170
100
AcDbEntity
8
1
62
256
6
ByLayer
370
18
48
1
60
0
100
AcDbEllipse
10
37.261268
20
-15.342464
30
0
11
-4.81894827224443
21
1.33331824761847
31
0
210
0
220
0
230
1
40
0.037276
41
0.904466784052683
42
1.34549788940897
0
ELLIPSE
5
171
100
AcDbEntity
8
1
62
256
6
ByLayer
370
18
48
1
60
0
100
AcDbEllipse
10
52.887752
20
-18.473561
30
0
11
-0.845907444219028
21
0.674938549433012
31
0
210
0
220
0
230
1
40
0.228901
41
-1.33057193018482
42
-0.806973154583181
0
ELLIPSE
5
172
100
AcDbEntity
8
1
62
256
6
ByLayer
370
18
48
1
60
0
100
AcDbEllipse
10
32.393925
20
-12.081325
30
0
11
-2.30770025689809
21
-1.92185320408239
31
0
210
0
220
0
230
1
40
0.994259
41
-2.18732049908819
42
-2.18120955784641
0
ELLIPSE
5
173
100
AcDbEntity
8
1
62
256
6
ByLayer
370
18
48
1
60
0
100
AcDbEllipse
10
50.940577
20
-25.511145
30
0
11
-1.0716744265086
21
-0.132082919316878
31
0
210
0
220
0
230
1
40
0.165973
41
0.835779614100014
42
1.35937838970596
0
ELLIPSE
5
174
100
AcDbEntity
8
1
62
256
6
ByLayer
370
18
48
1
60
0
100
AcDbEllipse
10
30.854909
20
-8.812435
30
0
11
6.7465275811422
21
-1.86664554666587
31
0
210
0
220
0
230
1
40
0.037276
41
0.806029476653141
42
1.21329086021083
0
ELLIPSE
5
175
100
AcDbEntity
8
1
62
256
6
ByLayer
370
18
48
1
60
0
100
AcDbEllipse
10
40.685102
20
-19.121614
30
0
11
0.587499999999991
21
1.01757984944672
31
0
210
0
220
0
230
1
40
0.989133
41
1.2402898787755
42
1.36677758217291
0
ELLIPSE
5
176
100
AcDbEntity
8
1
62
256
6
ByLayer
370
18
48
1
60
0
100
AcDbEllipse
10
41.503096
20
-20.079089
30
0
11
0.212499999999997
21
0.368060796608388
31
0
210
0
220
0
230
1
40
0.989133
41
0.409661561480007
42
2.19740589946839
0
ELLIPSE
5
177
100
AcDbEntity
8
1
62
256
6
ByLayer
370
18
48
1
60
0
100
AcDbEllipse
10
39.156624
20
-19.531168
30
0
11
0.212499999999997
21
0.368060796608388
31
0
210
0
220
0
230
1
40
0.989133
41
-0.615225653370514
42
0.10301079707521
0
ELLIPSE
5
178
100
AcDbEntity
8
1
62
256
6
ByLayer
370
18
48
1
60
0
100
AcDbEllipse
10
41.109099
20
-17.589182
30
0
11
0.212499999999997
21
0.368060796608388
31
0
210
0
220
0
230
1
40
0.989133
41
2.50405666387322
42
-3.06089219286063
0
ELLIPSE
5
179
100
AcDbEntity
8
1
62
256
6
ByLayer
370
18
48
1
60
0
100
AcDbEllipse
10
41.789582
20
-20.244491
30
0
11
0.212499999999997
21
0.368060796608388
31
0
210
0
220
0
230
1
40
0.989133
41
0.409661561480015
42
1.12789801192577
0
ELLIPSE
5
17A
100
AcDbEntity
8
1
62
256
6
ByLayer
370
18
48
1
60
0
100
AcDbEllipse
10
41.109099
20
-17.589182
30
0
11
0.212499999999997
21
0.368060796608388
31
0
210
0
220
0
230
1
40
0.989133
41
-2.70962075576376
42
-1.991384305318
0
ELLIPSE
5
17B
100
AcDbEntity
8
1
62
256
6
ByLayer
370
18
48
1
60
0
100
AcDbEllipse
10
39.580621
20
-17.998736
30
0
11
0.212499999999997
21
0.368060796608388
31
0
210
0
220
0
230
1
40
0.989133
41
-1.66242320456712
42
-0.944186754121386
0
ELLIPSE
5
17C
100
AcDbEntity
8
1
62
256
6
ByLayer
370
18
48
1
60
0
100
AcDbEllipse
10
41.789582
20
-20.244491
30
0
11
0.212499999999997
21
0.368060796608388
31
0
210
0
220
0
230
1
40
0.989133
41
1.47916944902264
42
2.19740589946838
0
ELLIPSE
5
17D
100
AcDbEntity
8
1
62
256
6
ByLayer
370
18
48
1
60
0
100
AcDbEllipse
10
40.685102
20
-19.121614
30
0
11
0.587499999999991
21
1.01757984944672
31
0
210
0
220
0
230
1
40
0.989133
41
2.2874874299721
42
2.41397513336951
0
ELLIPSE
5
17E
100
AcDbEntity
8
1
62
256
6
ByLayer
370
18
48
1
60
0
100
AcDbEllipse
10
40.994986
20
-20.330812
30
0
11
-0.190000000000001
21
-0.329089653438086
31
0
210
0
220
0
230
1
40
0.989133
41
-0.637535989716553
42
2.19740589946842
0
ELLIPSE
5
17F
100
AcDbEntity
8
1
62
256
6
ByLayer
370
18
48
1
60
0
100
AcDbEllipse
10
39.156624
20
-19.531168
30
0
11
0.212499999999997
21
0.368060796608388
31
0
210
0
220
0
230
1
40
0.989133
41
-1.68473354091318
42
-0.96649709046746
0
ELLIPSE
5
180
100
AcDbEntity
8
1
62
256
6
ByLayer
370
18
48
1
60
0
100
AcDbEllipse
10
40.685102
20
-19.121614
30
0
11
0.587499999999991
21
1.01757984944672
31
0
210
0
220
0
230
1
40
0.989133
41
-2.94850032601089
42
-2.82201262261349
0
ELLIPSE
5
181
100
AcDbEntity
8
1
62
256
6
ByLayer
370
18
48
1
60
0
100
AcDbEllipse
10
39.795967
20
-20.005972
30
0
11
-0.190000000000001
21
-0.329089653438086
31
0
210
0
220
0
230
1
40
0.989133
41
-1.68473354091317
42
1.15020834827178
0
ELLIPSE
5
182
100
AcDbEntity
8
1
62
256
6
ByLayer
370
18
48
1
60
0
100
AcDbEllipse
10
40.261105
20
-20.654046
30
0
11
0.212499999999997
21
0.368060796608388
31
0
210
0
220
0
230
1
40
0.989133
41
0.431971897826031
42
1.15020834827181
0
ELLIPSE
5
183
100
AcDbEntity
8
1
62
256
6
ByLayer
370
18
48
1
60
0
100
AcDbEllipse
10
40.375217
20
-17.912416
30
0
11
-0.190000000000001
21
-0.329089653438086
31
0
210
0
220
0
230
1
40
0.989133
41
2.50405666387321
42
-0.944186754121392
0
ELLIPSE
5
184
100
AcDbEntity
8
1
62
256
6
ByLayer
370
18
48
1
60
0
100
AcDbEllipse
10
42.213579
20
-18.712059
30
0
11
0.212499999999997
21
0.368060796608388
31
0
210
0
220
0
230
1
40
0.989133
41
2.52636700021922
42
-3.03858185651462
0
ELLIPSE
5
185
100
AcDbEntity
8
1
62
256
6
ByLayer
370
18
48
1
60
0
100
AcDbEllipse
10
40.685102
20
-19.121614
30
0
11
0.587499999999991
21
1.01757984944672
31
0
210
0
220
0
230
1
40
0.989133
41
0.193092327578904
42
0.319580030976309
0
ELLIPSE
5
186
100
AcDbEntity
8
1
62
256
6
ByLayer
370
18
48
1
60
0
100
AcDbEllipse
10
41.574236
20
-18.237255
30
0
11
-0.190000000000001
21
-0.329089653438086
31
0
210
0
220
0
230
1
40
0.989133
41
1.45685911267663
42
-1.99138430531801
0
ELLIPSE
5
187
100
AcDbEntity
8
1
62
256
6
ByLayer
370
18
48
1
60
0
100
AcDbEllipse
10
41.884121
20
-19.446453
30
0
11
-0.190000000000001
21
-0.329089653438086
31
0
210
0
220
0
230
1
40
0.989133
41
0.409661561480021
42
-3.03858185651459
0
ELLIPSE
5
188
100
AcDbEntity
8
1
62
256
6
ByLayer
370
18
48
1
60
0
100
AcDbEllipse
10
40.685102
20
-19.121614
30
0
11
0.587499999999991
21
1.01757984944672
31
0
210
0
220
0
230
1
40
0.989133
41
-1.90130277481428
42
-1.77481507141688
0
ELLIPSE
5
189
100
AcDbEntity
8
1
62
256
6
ByLayer
370
18
48
1
60
0
100
AcDbEllipse
10
40.685102
20
-19.121614
30
0
11
-1.15
21
-1.9918584287042
31
0
210
0
220
0
230
1
40
0.989133
41
0
42
6.28318530717959
0
ELLIPSE
5
18A
100
AcDbEntity
8
1
62
256
6
ByLayer
370
18
48
1
60
0
100
AcDbEllipse
10
42.213579
20
-18.712059
30
0
11
0.212499999999997
21
0.368060796608388
31
0
210
0
220
0
230
1
40
0.989133
41
1.45685911267661
42
2.17509556312239
0
ELLIPSE
5
18B
100
AcDbEntity
8
1
62
256
6
ByLayer
370
18
48
1
60
0
100
AcDbEllipse
10
40.261105
20
-20.654046
30
0
11
0.212499999999997
21
0.368060796608388
31
0
210
0
220
0
230
1
40
0.989133
41
-0.637535989716576
42
0.0807004607291664
0
ELLIPSE
5
18C
100
AcDbEntity
8
1
62
256
6
ByLayer
370
18
48
1
60
0
100
AcDbEllipse
10
39.580621
20
-17.998736
30
0
11
0.212499999999997
21
0.368060796608388
31
0
210
0
220
0
230
1
40
0.989133
41
-2.73193109210979
42
-2.01369464166404
0
ELLIPSE
5
18D
100
AcDbEntity
8
1
62
256
6
ByLayer
370
18
48
1
60
0
100
AcDbEllipse
10
40.574736
20
-19.057894
30
0
11
-2.00000000000001
21
-3.46410161513775
31
0
210
0
220
0
230
1
40
0.989133
41
0
42
6.28318530717959
0
ELLIPSE
5
18E
100
AcDbEntity
8
1
62
256
6
ByLayer
370
18
48
1
60
0
100
AcDbEllipse
10
39.486083
20
-18.796774
30
0
11
-0.190000000000001
21
-0.329089653438086
31
0
210
0
220
0
230
1
40
0.989133
41
-2.73193109210978
42
0.103010797075203
0
ELLIPSE
5
18F
100
AcDbEntity
8
1
62
256
6
ByLayer
370
18
48
1
60
0
100
AcDbEllipse
10
40.685102
20
-19.121614
30
0
11
0.587499999999991
21
1.01757984944672
31
0
210
0
220
0
230
1
40
0.989133
41
-0.854105223617673
42
-0.727617520220296
0
POINT
5
6C
100
AcDbEntity
8
2
62
256
6
ByLayer
370
18
48
1
60
0
100
AcDbPoint
10
60
20
27
30
0
39
0
210
0
220
0
230
1
50
360
0
POINT
5
6E
100
AcDbEntity
8
80
62
256
6
ByLayer
370
18
48
1
60
0
100
AcDbPoint
10
0
20
0
30
0
39
0
210
0
220
0
230
1
50
360
0
POINT
5
70
100
AcDbEntity
8
81
62
256
6
ByLayer
370
18
48
1
60
0
100
AcDbPoint
10
60
20
-27
30
0
39
0
210
0
220
0
230
1
50
360
0
SPLINE
5
190
100
AcDbEntity
8
SK1
62
256
6
ByLayer
370
18
48
1
60
0
100
AcDbSpline
70
4
71
2
72
6
73
3
40
0
40
0
40
0
40
1
40
1
40
1
41
1
10
-28.5
20
-16.854272429841
30
0
41
1
10
-15.3499999999294
20
-17.1845422725478
30
0
41
1
10
-2.19999999999999
20
-17.5148117187522
30
0
0
SPLINE
5
191
100
AcDbEntity
8
SK1
62
256
6
ByLayer
370
18
48
1
60
0
100
AcDbSpline
70
4
71
2
72
6
73
3
40
0
40
0
40
0
40
1
40
1
40
1
41
1
10
-2.19999999999999
20
17.5148116792767
30
0
41
1
10
-15.3499999999286
20
17.1845422635703
30
0
41
1
10
-28.5
20
16.8542724489282
30
0
0
SPLINE
5
192
100
AcDbEntity
8
SK1
62
256
6
ByLayer
370
18
48
1
60
0
100
AcDbSpline
70
4
71
3
72
13
73
9
40
0
40
0
40
0
40
0
40
0.239456135686852
40
0.368359721835155
40
0.499998983918667
40
0.631638415195385
40
0.7605424677172
40
1
40
1
40
1
40
1
41
1
10
-2.19999999999999
20
-17.5200987347078
30
0
41
1
10
-2.19909198642125
20
-17.4940412586114
30
0
41
1
10
-2.19103284106788
20
-17.4566686743027
30
0
41
1
10
-2.16563592203161
20
-17.4104495005037
30
0
41
1
10
-2.13886378679047
20
-17.3791679466684
30
0
41
1
10
-2.10627712749664
20
-17.3540005764861
30
0
41
1
10
-2.05884064233982
20
-17.3309567740351
30
0
41
1
10
-2.02111030872965
20
-17.324784519015
30
0
41
1
10
-1.99503997793928
20
-17.3251861589552
30
0
0
SPLINE
5
193
100
AcDbEntity
8
SK1
62
256
6
ByLayer
370
18
48
1
60
0
100
AcDbSpline
70
4
71
3
72
13
73
9
40
0
40
0
40
0
40
0
40
0.239457532237385
40
0.368361584743632
40
0.500001016014352
40
0.631640278103004
40
0.760543864266449
40
1
40
1
40
1
40
1
41
1
10
-1.99503997793928
20
17.3251859759625
30
0
41
1
10
-2.02111030873061
20
17.3247843360228
30
0
41
1
10
-2.05884064234166
20
17.3309565910454
30
0
41
1
10
-2.106277127498
20
17.3540003935063
30
0
41
1
10
-2.13886378679174
20
17.3791677636994
30
0
41
1
10
-2.16563592203255
20
17.4104493175479
30
0
41
1
10
-2.19103284106862
20
17.4566684913667
30
0
41
1
10
-2.19909198642199
20
17.4940410756898
30
0
41
1
10
-2.19999999999999
20
17.520098551796
30
0
0
SPLINE
5
194
100
AcDbEntity
8
SK1
62
256
6
ByLayer
370
18
48
1
60
0
100
AcDbSpline
70
4
71
2
72
6
73
3
40
0
40
0
40
0
40
1
40
1
40
1
41
1
10
-1.99503997793928
20
-17.3199593319919
30
0
41
1
10
-1.19500843340703
20
-17.3400525762132
30
0
41
1
10
-0.394976888875277
20
-17.3601458189993
30
0
0
SPLINE
5
195
100
AcDbEntity
8
SK1
62
256
6
ByLayer
370
18
48
1
60
0
100
AcDbSpline
70
4
71
2
72
6
73
3
40
0
40
0
40
0
40
1
40
1
40
1
41
1
10
-0.394976888875277
20
17.3601457933935
30
0
41
1
10
-1.19500843340703
20
17.340052552406
30
0
41
1
10
-1.99503997793928
20
17.3199593099743
30
0
0
SPLINE
5
196
100
AcDbEntity
8
SK1
62
256
6
ByLayer
370
18
48
1
60
0
100
AcDbSpline
70
4
71
2
72
6
73
3
40
0
40
0
40
0
40
1
40
1
40
1
41
1
10
-28.5
20
16.8584504491481
30
0
41
1
10
-29.2499999991495
20
16.4254650261933
30
0
41
1
10
-30
20
15.9924794145163
30
0
0
SPLINE
5
197
100
AcDbEntity
8
SK1
62
256
6
ByLayer
370
18
48
1
60
0
100
AcDbSpline
70
4
71
2
72
6
73
3
40
0
40
0
40
0
40
1
40
1
40
1
41
1
10
-30
20
-15.99247954079
30
0
41
1
10
-29.2499999991495
20
-16.4254651505507
30
0
41
1
10
-28.5
20
-16.8584505716142
30
0
0
SPLINE
5
198
100
AcDbEntity
8
SK1
62
256
6
ByLayer
370
18
48
1
60
0
100
AcDbSpline
70
4
71
2
72
6
73
3
40
0
40
0
40
0
40
1
40
1
40
1
41
1
10
-0.258658740615658
20
17.4310145299902
30
0
41
1
10
-0.305277226309727
20
17.3671842624703
30
0
41
1
10
-0.394976888875277
20
17.359696795897
30
0
0
SPLINE
5
199
100
AcDbEntity
8
SK1
62
256
6
ByLayer
370
18
48
1
60
0
100
AcDbSpline
70
4
71
2
72
6
73
3
40
0
40
0
40
0
40
1
40
1
40
1
41
1
10
-0.394976888875277
20
-17.3596982935394
30
0
41
1
10
-0.305123774552612
20
-17.3672404580573
30
0
41
1
10
-0.258442643302431
20
-17.4312381196178
30
0
0
SPLINE
5
19A
100
AcDbEntity
8
1
62
256
6
ByLayer
370
18
48
1
60
0
100
AcDbSpline
70
4
71
2
72
6
73
3
40
0
40
0
40
0
40
1
40
1
40
1
41
0.886141417833759
10
27.6497465804876
20
-21.7336557565947
30
0
41
0.915166252359904
10
26.9040912835043
20
-22.2125865824962
30
0
41
1.02613459695995
10
26.2184686883833
20
-22.0591421186641
30
0
0
SPLINE
5
19B
100
AcDbEntity
8
SK1
62
256
6
ByLayer
370
18
48
1
60
0
100
AcDbSpline
70
4
71
3
72
282
73
278
40
0
40
0
40
0
40
0
40
0.0031455734641978
40
0.0067200651253111
40
0.0102945567864243
40
0.0138690484475376
40
0.0174435401086509
40
0.0210180317697642
40
0.0245925234308775
40
0.0281670150919908
40
0.0317415067531041
40
0.0353159984142174
40
0.0424649817364439
40
0.0460394733975572
40
0.0496139650586705
40
0.0531884567197838
40
0.0567629483808971
40
0.0639119317031237
40
0.0674864233642369
40
0.0710609150253502
40
0.0782098983475768
40
0.0817843900086901
40
0.0853588816698034
40
0.09250786499203
40
0.0960823566531433
40
0.0996568483142565
40
0.10323133997537
40
0.106805831636483
40
0.110380323297596
40
0.11395481495871
40
0.117529306619823
40
0.121103798280936
40
0.128252781603163
40
0.131827273264276
40
0.135401764925389
40
0.138976256586503
40
0.142550748247616
40
0.149699731569843
40
0.153274223230956
40
0.156848714892069
40
0.160423206553182
40
0.163997698214296
40
0.171146681536522
40
0.174721173197636
40
0.178295664858749
40
0.181870156519862
40
0.185444648180975
40
0.192593631503202
40
0.196168123164315
40
0.199742614825429
40
0.203317106486542
40
0.206891598147655
40
0.214040581469882
40
0.217615073130995
40
0.221189564792108
40
0.224764056453222
40
0.228338548114335
40
0.235487531436562
40
0.239062023097675
40
0.242636514758788
40
0.246211006419901
40
0.249785498081015
40
0.256934481403241
40
0.260508973064355
40
0.264083464725468
40
0.271232448047694
40
0.278381431369921
40
0.281955923031034
40
0.285530414692148
40
0.292679398014374
40
0.296253889675487
40
0.299828381336601
40
0.303402872997714
40
0.306977364658827
40
0.31055185631994
40
0.314126347981054
40
0.32127533130328
40
0.328424314625507
40
0.33199880628662
40
0.335573297947734
40
0.339147789608847
40
0.34272228126996
40
0.346296772931073
40
0.349871264592187
40
0.357020247914413
40
0.36416923123664
40
0.371318214558866
40
0.37489270621998
40
0.378467197881093
40
0.382041689542206
40
0.385616181203319
40
0.389190672864433
40
0.392765164525546
40
0.396339656186659
40
0.399914147847773
40
0.403488639508886
40
0.407063131169999
40
0.410637622831112
40
0.414212114492226
40
0.417786606153339
40
0.421361097814453
40
0.424935589475566
40
0.428510081136679
40
0.432084572797792
40
0.433871818628349
40
0.435659064458906
40
0.437446310289462
40
0.439233556120019
40
0.442808047781132
40
0.446382539442245
40
0.448169785272802
40
0.449957031103359
40
0.451744276933915
40
0.453531522764472
40
0.455318768595029
40
0.457106014425585
40
0.460680506086699
40
0.462467751917255
40
0.464254997747812
40
0.466042243578368
40
0.467829489408925
40
0.469616735239482
40
0.471403981070038
40
0.473191226900595
40
0.474978472731152
40
0.476765718561708
40
0.478552964392265
40
0.480340210222822
40
0.482127456053378
40
0.483914701883935
40
0.485701947714491
40
0.487489193545048
40
0.489276439375605
40
0.491063685206162
40
0.492850931036718
40
0.494638176867275
40
0.496425422697832
40
0.498212668528388
40
0.499999914358945
40
0.501787160189501
40
0.503574406020058
40
0.505361651850615
40
0.507148897681171
40
0.508936143511728
40
0.510723389342285
40
0.512510635172841
40
0.514297881003398
40
0.516085126833955
40
0.517872372664511
40
0.519659618495068
40
0.521446864325624
40
0.523234110156181
40
0.525021355986738
40
0.526808601817294
40
0.528595847647851
40
0.530383093478408
40
0.532170339308964
40
0.533957585139521
40
0.535744830970078
40
0.537532076800634
40
0.539319322631191
40
0.541106568461748
40
0.542893814292304
40
0.544681060122861
40
0.546468305953418
40
0.550042797614531
40
0.551830043445087
40
0.553617289275644
40
0.557191780936757
40
0.560766272597871
40
0.562553518428427
40
0.564340764258984
40
0.566128010089541
40
0.567915255920097
40
0.571489747581211
40
0.575064239242324
40
0.578638730903437
40
0.58221322256455
40
0.585787714225664
40
0.589362205886777
40
0.59293669754789
40
0.596511189209003
40
0.600085680870117
40
0.60366017253123
40
0.607234664192343
40
0.610809155853457
40
0.61438364751457
40
0.617958139175683
40
0.621532630836797
40
0.62510712249791
40
0.628681614159023
40
0.63583059748125
40
0.642979580803476
40
0.650128564125703
40
0.653703055786816
40
0.657277547447929
40
0.660852039109043
40
0.664426530770156
40
0.668001022431269
40
0.671575514092382
40
0.678724497414609
40
0.685873480736836
40
0.689447972397949
40
0.693022464059062
40
0.696596955720176
40
0.700171447381289
40
0.703745939042402
40
0.707320430703515
40
0.714469414025742
40
0.718043905686855
40
0.721618397347969
40
0.728767380670195
40
0.735916363992422
40
0.739490855653535
40
0.743065347314648
40
0.750214330636875
40
0.753788822297988
40
0.757363313959101
40
0.760937805620215
40
0.764512297281328
40
0.771661280603555
40
0.775235772264668
40
0.778810263925781
40
0.782384755586895
40
0.785959247248008
40
0.793108230570234
40
0.796682722231348
40
0.800257213892461
40
0.803831705553574
40
0.807406197214688
40
0.814555180536914
40
0.818129672198027
40
0.821704163859141
40
0.825278655520254
40
0.828853147181367
40
0.836002130503594
40
0.839576622164707
40
0.84315111382582
40
0.844938359656377
40
0.846725605486934
40
0.850300097148047
40
0.857449080470274
40
0.861023572131387
40
0.8645980637925
40
0.868172555453613
40
0.871747047114727
40
0.878896030436953
40
0.882470522098067
40
0.88604501375918
40
0.889619505420293
40
0.893193997081406
40
0.89676848874252
40
0.900342980403633
40
0.903917472064746
40
0.90749196372586
40
0.914640947048086
40
0.918215438709199
40
0.921789930370313
40
0.928938913692539
40
0.932513405353653
40
0.936087897014766
40
0.943236880336992
40
0.946811371998106
40
0.950385863659219
40
0.953960355320332
40
0.957534846981446
40
0.964683830303672
40
0.968258321964785
40
0.971832813625899
40
0.975407305287012
40
0.978981796948125
40
0.982556288609239
40
0.986130780270352
40
0.989705271931465
40
0.993279763592578
40
0.996854255253692
40
1
40
1
40
1
40
1
41
1
10
-2.19999999999996
20
-17.5147448818022
30
0
41
1
10
-2.19999999999996
20
-17.5132050156697
30
0
41
1
10
-2.20000000000002
20
-17.5092143181737
30
0
41
1
10
-2.19999999999999
20
-17.5008423359265
30
0
41
1
10
-2.19999999999999
20
-17.4896606050755
30
0
41
1
10
-2.19999999999999
20
-17.4760589345483
30
0
41
1
10
-2.19999999999999
20
-17.4600756660116
30
0
41
1
10
-2.19999999999999
20
-17.4417480829298
30
0
41
1
10
-2.19999999999999
20
-17.4211116708093
30
0
41
1
10
-2.19999999999999
20
-17.3981999720817
30
0
41
1
10
-2.19999999999999
20
-17.373046254225
30
0
41
1
10
-2.19999999999999
20
-17.3365615480365
30
0
41
1
10
-2.19999999999999
20
-17.2957083393221
30
0
41
1
10
-2.19999999999999
20
-17.2506132986913
30
0
41
1
10
-2.19999999999999
20
-17.2146924230801
30
0
41
1
10
-2.19999999999999
20
-17.1766986759847
30
0
41
1
10
-2.19999999999999
20
-17.1233138560685
30
0
41
1
10
-2.19999999999999
20
-17.0658713749173
30
0
41
1
10
-2.19999999999999
20
-17.0044820563696
30
0
41
1
10
-2.19999999999999
20
-16.9404819965209
30
0
41
1
10
-2.19999999999999
20
-16.8725984751516
30
0
41
1
10
-2.19999999999999
20
-16.8009296734765
30
0
41
1
10
-2.19999999999999
20
-16.72675615712
30
0
41
1
10
-2.19999999999999
20
-16.6488472996884
30
0
41
1
10
-2.19999999999999
20
-16.5672977573629
30
0
41
1
10
-2.19999999999999
20
-16.5043209819811
30
0
41
1
10
-2.19999999999999
20
-16.4395493732765
30
0
41
1
10
-2.19999999999999
20
-16.3729983406747
30
0
41
1
10
-2.19999999999999
20
-16.3046816133433
30
0
41
1
10
-2.19999999999999
20
-16.2346146587631
30
0
41
1
10
-2.19999999999999
20
-16.1628111167189
30
0
41
1
10
-2.19999999999999
20
-16.0647793469533
30
0
41
1
10
-2.19999999999999
20
-15.9633134995801
30
0
41
1
10
-2.19999999999999
20
-15.8584913887799
30
0
41
1
10
-2.19999999999999
20
-15.7781982427732
30
0
41
1
10
-2.19999999999999
20
-15.6962433497342
30
0
41
1
10
-2.19999999999999
20
-15.5847743861311
30
0
41
1
10
-2.19999999999999
20
-15.4700110710185
30
0
41
1
10
-2.19999999999999
20
-15.3520264687641
30
0
41
1
10
-2.19999999999999
20
-15.2619258251736
30
0
41
1
10
-2.19999999999999
20
-15.1702262286607
30
0
41
1
10
-2.19999999999999
20
-15.0458463802595
30
0
41
1
10
-2.19999999999999
20
-14.9182892137509
30
0
41
1
10
-2.19999999999999
20
-14.7876243835494
30
0
41
1
10
-2.19999999999999
20
-14.6880675684927
30
0
41
1
10
-2.19999999999999
20
-14.5869647024964
30
0
41
1
10
-2.19999999999999
20
-14.4501162009323
30
0
41
1
10
-2.19999999999999
20
-14.310188578504
30
0
41
1
10
-2.19999999999999
20
-14.1672492498436
30
0
41
1
10
-2.19999999999999
20
-14.0585319196999
30
0
41
1
10
-2.19999999999999
20
-13.9483131149779
30
0
41
1
10
-2.19999999999999
20
-13.7993681823229
30
0
41
1
10
-2.19999999999999
20
-13.6474264445925
30
0
41
1
10
-2.19999999999999
20
-13.4925540283558
30
0
41
1
10
-2.19999999999999
20
-13.3749248852381
30
0
41
1
10
-2.19999999999999
20
-13.2558316845062
30
0
41
1
10
-2.19999999999999
20
-13.0951031858018
30
0
41
1
10
-2.19999999999999
20
-12.9314463879873
30
0
41
1
10
-2.19999999999999
20
-12.7649271524075
30
0
41
1
10
-2.19999999999999
20
-12.6385945304865
30
0
41
1
10
-2.19999999999999
20
-12.510828990928
30
0
41
1
10
-2.19999999999999
20
-12.3385783725546
30
0
41
1
10
-2.19999999999999
20
-12.1634558634281
30
0
41
1
10
-2.19999999999999
20
-11.9855279960913
30
0
41
1
10
-2.19999999999999
20
-11.8057193844339
30
0
41
1
10
-2.19999999999999
20
-11.5774197426994
30
0
41
1
10
-2.19999999999999
20
-11.3444552561941
30
0
41
1
10
-2.19999999999999
20
-11.1553144466797
30
0
41
1
10
-2.19999999999999
20
-10.96432157968
30
0
41
1
10
-2.19999999999999
20
-10.7705258372791
30
0
41
1
10
-2.19999999999999
20
-10.5740001677826
30
0
41
1
10
-2.19999999999999
20
-10.4252200954492
30
0
41
1
10
-2.19999999999999
20
-10.2750653600417
30
0
41
1
10
-2.19999999999999
20
-10.1235384488298
30
0
41
1
10
-2.19999999999999
20
-9.97064122920807
30
0
41
1
10
-2.19999999999999
20
-9.76496631801302
30
0
41
1
10
-2.19999999999999
20
-9.50443392738597
30
0
41
1
10
-2.19999999999999
20
-9.23936570098886
30
0
41
1
10
-2.19999999999999
20
-9.02461799380217
30
0
41
1
10
-2.19999999999999
20
-8.86219304475887
30
0
41
1
10
-2.19999999999999
20
-8.69841428000512
30
0
41
1
10
-2.19999999999999
20
-8.53328405958746
30
0
41
1
10
-2.19999999999999
20
-8.36680339868337
30
0
41
1
10
-2.19999999999999
20
-8.14304412571011
30
0
41
1
10
-2.19999999999999
20
-7.85994707617317
30
0
41
1
10
-2.19999999999999
20
-7.51487111531026
30
0
41
1
10
-2.19999999999999
20
-7.22282329277962
30
0
41
1
10
-2.19999999999999
20
-6.98653548716825
30
0
41
1
10
-2.19999999999999
20
-6.80797157864473
30
0
41
1
10
-2.19999999999999
20
-6.62807270531451
30
0
41
1
10
-2.19999999999999
20
-6.44684086969582
30
0
41
1
10
-2.19999999999999
20
-6.26427776637016
30
0
41
1
10
-2.19999999999999
20
-6.0803858592752
30
0
41
1
10
-2.19999999999999
20
-5.89516728223867
30
0
41
1
10
-2.19999999999999
20
-5.70862469092603
30
0
41
1
10
-2.19999999999999
20
-5.52076103085633
30
0
41
1
10
-2.19999999999999
20
-5.33157993388585
30
0
41
1
10
-2.19999999999999
20
-5.14108511996025
30
0
41
1
10
-2.19999999999999
20
-4.94928086714648
30
0
41
1
10
-2.19999999999999
20
-4.75617251627347
30
0
41
1
10
-2.19999999999999
20
-4.56176620564526
30
0
41
1
10
-2.19999999999999
20
-4.36606873641344
30
0
41
1
10
-2.19999999999999
20
-4.16908849962459
30
0
41
1
10
-2.19999999999999
20
-4.00386590607064
30
0
41
1
10
-2.19999999999999
20
-3.87107810854147
30
0
41
1
10
-2.19999999999999
20
-3.77116418570387
30
0
41
1
10
-2.19999999999999
20
-3.67093805129474
30
0
41
1
10
-2.19999999999999
20
-3.5369018254882
30
0
41
1
10
-2.19999999999999
20
-3.36855658184018
30
0
41
1
10
-2.19999999999999
20
-3.19919951970698
30
0
41
1
10
-2.19999999999999
20
-3.06314133422208
30
0
41
1
10
-2.19999999999999
20
-2.96079189341756
30
0
41
1
10
-2.19999999999999
20
-2.85815023786418
30
0
41
1
10
-2.19999999999999
20
-2.75522026664268
30
0
41
1
10
-2.19999999999999
20
-2.65200561172494
30
0
41
1
10
-2.19999999999999
20
-2.51402705629772
30
0
41
1
10
-2.19999999999999
20
-2.375450816946
30
0
41
1
10
-2.19999999999999
20
-2.23639085040648
30
0
41
1
10
-2.19999999999999
20
-2.13182395998015
30
0
41
1
10
-2.19999999999999
20
-2.02700348752293
30
0
41
1
10
-2.19999999999999
20
-1.92193653735015
30
0
41
1
10
-2.19999999999999
20
-1.81663008016324
30
0
41
1
10
-2.19999999999999
20
-1.71109231328518
30
0
41
1
10
-2.19999999999999
20
-1.60533155404698
30
0
41
1
10
-2.19999999999999
20
-1.49935698477981
30
0
41
1
10
-2.19999999999999
20
-1.39317847233161
30
0
41
1
10
-2.19999999999999
20
-1.28680633401083
30
0
41
1
10
-2.19999999999999
20
-1.18025197439016
30
0
41
1
10
-2.19999999999999
20
-1.073527020087
30
0
41
1
10
-2.19999999999999
20
-0.96664434311532
30
0
41
1
10
-2.19999999999999
20
-0.859616995486334
30
0
41
1
10
-2.19999999999999
20
-0.752459219961509
30
0
41
1
10
-2.19999999999999
20
-0.645185453734172
30
0
41
1
10
-2.19999999999999
20
-0.537811163545626
30
0
41
1
10
-2.19999999999999
20
-0.430352024765995
30
0
41
1
10
-2.19999999999999
20
-0.322824496958617
30
0
41
1
10
-2.19999999999999
20
-0.215245213108545
30
0
41
1
10
-2.19999999999999
20
-0.107631302158183
30
0
41
1
10
-2.19999999999999
20
5.9909553E-09
30
0
41
1
10
-2.19999999999999
20
0.107631313716837
30
0
41
1
10
-2.19999999999999
20
0.21524522393176
30
0
41
1
10
-2.19999999999999
20
0.322824507999513
30
0
41
1
10
-2.19999999999999
20
0.430352036900842
30
0
41
1
10
-2.19999999999999
20
0.537811175438549
30
0
41
1
10
-2.19999999999999
20
0.645185463980482
30
0
41
1
10
-2.19999999999999
20
0.752459230354134
30
0
41
1
10
-2.19999999999999
20
0.859617007920519
30
0
41
1
10
-2.19999999999999
20
0.966644355262389
30
0
41
1
10
-2.19999999999999
20
1.07352702949097
30
0
41
1
10
-2.19999999999999
20
1.18025198377217
30
0
41
1
10
-2.19999999999999
20
1.2868063464968
30
0
41
1
10
-2.19999999999999
20
1.39317848503856
30
0
41
1
10
-2.19999999999999
20
1.49935699380708
30
0
41
1
10
-2.19999999999999
20
1.60533156181745
30
0
41
1
10
-2.19999999999999
20
1.71109232444707
30
0
41
1
10
-2.19999999999999
20
1.81663009373557
30
0
41
1
10
-2.19999999999999
20
1.92193654804359
30
0
41
1
10
-2.19999999999999
20
2.02700349385552
30
0
41
1
10
-2.19999999999999
20
2.13182396747069
30
0
41
1
10
-2.19999999999999
20
2.23639086291988
30
0
41
1
10
-2.19999999999999
20
2.34069812940876
30
0
41
1
10
-2.19999999999999
20
2.44473977839391
30
0
41
1
10
-2.19999999999999
20
2.54851063247165
30
0
41
1
10
-2.19999999999999
20
2.65200559968281
30
0
41
1
10
-2.19999999999999
20
2.78960994504098
30
0
41
1
10
-2.19999999999999
20
2.92668912429065
30
0
41
1
10
-2.19999999999999
20
3.06314133551615
30
0
41
1
10
-2.19999999999999
20
3.19919952332836
30
0
41
1
10
-2.19999999999999
20
3.36855659963138
30
0
41
1
10
-2.19999999999999
20
3.53690183437428
30
0
41
1
10
-2.19999999999999
20
3.67093805397229
30
0
41
1
10
-2.19999999999999
20
3.77116418775421
30
0
41
1
10
-2.19999999999999
20
3.87107811616198
30
0
41
1
10
-2.19999999999999
20
4.00386592221614
30
0
41
1
10
-2.19999999999999
20
4.169088511784
30
0
41
1
10
-2.19999999999999
20
4.36606871643775
30
0
41
1
10
-2.19999999999999
20
4.56176617271484
30
0
41
1
10
-2.19999999999999
20
4.75617249379653
30
0
41
1
10
-2.19999999999999
20
4.94928076863457
30
0
41
1
10
-2.19999999999999
20
5.14108500618136
30
0
41
1
10
-2.19999999999999
20
5.33157993903225
30
0
41
1
10
-2.19999999999999
20
5.52076102284181
30
0
41
1
10
-2.19999999999999
20
5.70862461825791
30
0
41
1
10
-2.19999999999999
20
5.89516734859464
30
0
41
1
10
-2.19999999999999
20
6.0803860968085
30
0
41
1
10
-2.19999999999999
20
6.26427796235188
30
0
41
1
10
-2.19999999999999
20
6.44684092947378
30
0
41
1
10
-2.19999999999999
20
6.62807271786153
30
0
41
1
10
-2.19999999999999
20
6.80797159432129
30
0
41
1
10
-2.19999999999999
20
6.98653550324826
30
0
41
1
10
-2.19999999999999
20
7.22282328452872
30
0
41
1
10
-2.19999999999999
20
7.51487112820209
30
0
41
1
10
-2.19999999999999
20
7.85994708827315
30
0
41
1
10
-2.19999999999999
20
8.14304411844034
30
0
41
1
10
-2.19999999999999
20
8.36680341033821
30
0
41
1
10
-2.19999999999999
20
8.53328407858575
30
0
41
1
10
-2.19999999999999
20
8.69841428877766
30
0
41
1
10
-2.19999999999999
20
8.86219304073114
30
0
41
1
10
-2.19999999999999
20
9.02461799205523
30
0
41
1
10
-2.19999999999999
20
9.23936571773672
30
0
41
1
10
-2.19999999999999
20
9.50443394039922
30
0
41
1
10
-2.19999999999999
20
9.76496631110049
30
0
41
1
10
-2.19999999999999
20
9.97064123613964
30
0
41
1
10
-2.19999999999999
20
10.123538466054
30
0
41
1
10
-2.19999999999999
20
10.2750653748105
30
0
41
1
10
-2.19999999999999
20
10.4252201002359
30
0
41
1
10
-2.19999999999999
20
10.5740001651574
30
0
41
1
10
-2.19999999999999
20
10.7705258416001
30
0
41
1
10
-2.19999999999999
20
10.9643215989582
30
0
41
1
10
-2.19999999999999
20
11.1553144582602
30
0
41
1
10
-2.19999999999999
20
11.3444552554371
30
0
41
1
10
-2.19999999999999
20
11.5774197477568
30
0
41
1
10
-2.19999999999999
20
11.8057194023465
30
0
41
1
10
-2.19999999999999
20
11.9855280067157
30
0
41
1
10
-2.19999999999999
20
12.1634558646821
30
0
41
1
10
-2.19999999999999
20
12.3385783781737
30
0
41
1
10
-2.19999999999999
20
12.510829004708
30
0
41
1
10
-2.19999999999999
20
12.6385945454976
30
0
41
1
10
-2.19999999999999
20
12.7649271637091
30
0
41
1
10
-2.19999999999999
20
12.9314463925932
30
0
41
1
10
-2.19999999999999
20
13.0951031927999
30
0
41
1
10
-2.19999999999999
20
13.2558316973182
30
0
41
1
10
-2.19999999999999
20
13.3749248996582
30
0
41
1
10
-2.19999999999999
20
13.4925540411334
30
0
41
1
10
-2.19999999999999
20
13.6474264531923
30
0
41
1
10
-2.19999999999999
20
13.7993681905533
30
0
41
1
10
-2.19999999999999
20
13.9483131264862
30
0
41
1
10
-2.19999999999999
20
14.0585319334344
30
0
41
1
10
-2.19999999999999
20
14.1672492642274
30
0
41
1
10
-2.19999999999999
20
14.3101885914782
30
0
41
1
10
-2.19999999999999
20
14.4501162106047
30
0
41
1
10
-2.19999999999999
20
14.5869647126432
30
0
41
1
10
-2.19999999999999
20
14.6880675812844
30
0
41
1
10
-2.19999999999999
20
14.7876243995297
30
0
41
1
10
-2.19999999999999
20
14.9182892218295
30
0
41
1
10
-2.19999999999999
20
15.0458464314392
30
0
41
1
10
-2.19999999999999
20
15.1702261509224
30
0
41
1
10
-2.19999999999999
20
15.2466455133785
30
0
41
1
10
-2.19999999999999
20
15.3069761679616
30
0
41
1
10
-2.19999999999999
20
15.3667724139347
30
0
41
1
10
-2.19999999999999
20
15.4700110929875
30
0
41
1
10
-2.19999999999999
20
15.5847743990242
30
0
41
1
10
-2.19999999999999
20
15.6962433571227
30
0
41
1
10
-2.19999999999999
20
15.7781982539187
30
0
41
1
10
-2.19999999999999
20
15.8584914079188
30
0
41
1
10
-2.19999999999999
20
15.9633135259672
30
0
41
1
10
-2.19999999999999
20
16.0647793597711
30
0
41
1
10
-2.19999999999999
20
16.1628111223414
30
0
41
1
10
-2.19999999999999
20
16.2346146707391
30
0
41
1
10
-2.19999999999999
20
16.3046816359758
30
0
41
1
10
-2.19999999999999
20
16.3729983688048
30
0
41
1
10
-2.19999999999999
20
16.439549393056
30
0
41
1
10
-2.19999999999999
20
16.5043209901434
30
0
41
1
10
-2.19999999999999
20
16.5672977619412
30
0
41
1
10
-2.19999999999999
20
16.6488473199257
30
0
41
1
10
-2.19999999999999
20
16.7267561914694
30
0
41
1
10
-2.19999999999999
20
16.8009296884544
30
0
41
1
10
-2.19999999999999
20
16.8725984731112
30
0
41
1
10
-2.19999999999999
20
16.9404820184079
30
0
41
1
10
-2.19999999999999
20
17.0044820909957
30
0
41
1
10
-2.19999999999999
20
17.0658713913631
30
0
41
1
10
-2.19999999999999
20
17.123313852319
30
0
41
1
10
-2.19999999999999
20
17.1766986986672
30
0
41
1
10
-2.19999999999999
20
17.2146924603873
30
0
41
1
10
-2.19999999999999
20
17.250613323192
30
0
41
1
10
-2.19999999999999
20
17.2957083328928
30
0
41
1
10
-2.19999999999999
20
17.3365615705832
30
0
41
1
10
-2.19999999999999
20
17.3730462873428
30
0
41
1
10
-2.19999999999999
20
17.398199993695
30
0
41
1
10
-2.19999999999999
20
17.4211116738093
30
0
41
1
10
-2.19999999999999
20
17.4417480876219
30
0
41
1
10
-2.19999999999999
20
17.4600756994924
30
0
41
1
10
-2.19999999999999
20
17.4760589706817
30
0
41
1
10
-2.19999999999999
20
17.4896606126055
30
0
41
1
10
-2.19999999999999
20
17.5008423321234
30
0
41
1
10
-2.20000000000002
20
17.5092144772884
30
0
41
1
10
-2.19999999999999
20
17.5132052246877
30
0
41
1
10
-2.19999999999999
20
17.5147451188167
30
0
0
SPLINE
5
19C
100
AcDbEntity
8
SK1
62
256
6
ByLayer
370
18
48
1
60
0
100
AcDbSpline
70
4
71
3
72
287
73
283
40
0
40
0
40
0
40
0
40
0.0019139574666389
40
0.0054376964927226
40
0.0089614355188062
40
0.0124851745448899
40
0.0160089135709736
40
0.0195326525970573
40
0.023056391623141
40
0.0265801306492247
40
0.0301038696753084
40
0.033627608701392
40
0.0371513477274757
40
0.0441988257796431
40
0.0477225648057267
40
0.0512463038318104
40
0.0547700428578941
40
0.0582937818839778
40
0.0653412599361451
40
0.0688649989622288
40
0.0723887379883125
40
0.0794362160404798
40
0.0829599550665636
40
0.0864836940926473
40
0.0935311721448146
40
0.0970549111708984
40
0.100578650196982
40
0.104102389223066
40
0.107626128249149
40
0.111149867275233
40
0.114673606301317
40
0.1181973453274
40
0.121721084353484
40
0.128768562405651
40
0.132292301431735
40
0.135816040457819
40
0.139339779483902
40
0.142863518509986
40
0.149910996562154
40
0.153434735588237
40
0.156958474614321
40
0.160482213640404
40
0.164005952666488
40
0.171053430718656
40
0.174577169744739
40
0.178100908770823
40
0.181624647796907
40
0.18514838682299
40
0.192195864875158
40
0.195719603901241
40
0.199243342927325
40
0.202767081953409
40
0.206290820979493
40
0.21333829903166
40
0.216862038057744
40
0.220385777083827
40
0.223909516109911
40
0.227433255135994
40
0.234480733188162
40
0.238004472214246
40
0.241528211240329
40
0.245051950266413
40
0.248575689292497
40
0.255623167344664
40
0.259146906370748
40
0.262670645396831
40
0.269718123448999
40
0.276765601501166
40
0.28028934052725
40
0.283813079553333
40
0.290860557605501
40
0.294384296631584
40
0.297908035657668
40
0.301431774683752
40
0.304955513709835
40
0.308479252735919
40
0.312002991762003
40
0.31905046981417
40
0.326097947866338
40
0.329621686892421
40
0.333145425918505
40
0.336669164944589
40
0.340192903970672
40
0.343716642996756
40
0.34724038202284
40
0.354287860075007
40
0.361335338127174
40
0.368382816179342
40
0.371906555205425
40
0.375430294231509
40
0.378954033257593
40
0.382477772283677
40
0.38600151130976
40
0.389525250335844
40
0.393048989361928
40
0.396572728388011
40
0.400096467414095
40
0.403620206440179
40
0.407143945466262
40
0.410667684492346
40
0.41419142351843
40
0.417715162544513
40
0.421238901570597
40
0.424762640596681
40
0.428286379622764
40
0.430048249135806
40
0.431810118648848
40
0.43357198816189
40
0.435333857674932
40
0.438857596701015
40
0.442381335727099
40
0.444143205240141
40
0.445905074753183
40
0.447666944266225
40
0.449428813779267
40
0.451190683292308
40
0.45295255280535
40
0.456476291831434
40
0.458238161344476
40
0.460000030857518
40
0.461761900370559
40
0.463523769883601
40
0.465285639396643
40
0.467047508909685
40
0.468809378422727
40
0.470571247935768
40
0.47233311744881
40
0.474094986961852
40
0.475856856474894
40
0.477618725987936
40
0.479380595500978
40
0.48114246501402
40
0.482904334527061
40
0.484666204040103
40
0.486428073553145
40
0.488189943066187
40
0.489951812579229
40
0.491713682092271
40
0.493475551605312
40
0.495237421118354
40
0.496999290631396
40
0.498761160144438
40
0.50052302965748
40
0.502284899170522
40
0.504046768683563
40
0.505808638196605
40
0.507570507709647
40
0.509332377222689
40
0.511094246735731
40
0.512856116248773
40
0.514617985761815
40
0.516379855274856
40
0.518141724787898
40
0.51990359430094
40
0.521665463813982
40
0.523427333327024
40
0.525189202840066
40
0.526951072353107
40
0.528712941866149
40
0.530474811379191
40
0.532236680892233
40
0.533998550405275
40
0.535760419918317
40
0.537522289431359
40
0.5392841589444
40
0.541046028457442
40
0.544569767483526
40
0.546331636996568
40
0.54809350650961
40
0.551617245535693
40
0.555140984561777
40
0.556902854074818
40
0.55866472358786
40
0.560426593100902
40
0.562188462613944
40
0.565712201640028
40
0.569235940666111
40
0.572759679692195
40
0.576283418718279
40
0.579807157744363
40
0.583330896770446
40
0.58685463579653
40
0.590378374822614
40
0.593902113848697
40
0.597425852874781
40
0.600949591900865
40
0.604473330926948
40
0.607997069953032
40
0.611520808979116
40
0.615044548005199
40
0.618568287031283
40
0.622092026057367
40
0.629139504109534
40
0.636186982161702
40
0.643234460213869
40
0.646758199239952
40
0.650281938266036
40
0.65380567729212
40
0.657329416318204
40
0.660853155344287
40
0.664376894370371
40
0.671424372422538
40
0.678471850474706
40
0.681995589500789
40
0.685519328526873
40
0.689043067552957
40
0.69256680657904
40
0.696090545605124
40
0.699614284631208
40
0.706661762683375
40
0.710185501709459
40
0.713709240735543
40
0.72075671878771
40
0.727804196839877
40
0.731327935865961
40
0.734851674892045
40
0.741899152944212
40
0.745422891970296
40
0.748946630996379
40
0.752470370022463
40
0.755994109048547
40
0.763041587100714
40
0.766565326126798
40
0.770089065152881
40
0.773612804178965
40
0.777136543205049
40
0.784184021257216
40
0.7877077602833
40
0.791231499309384
40
0.794755238335467
40
0.798278977361551
40
0.805326455413718
40
0.808850194439802
40
0.812373933465885
40
0.815897672491969
40
0.819421411518053
40
0.82646888957022
40
0.829992628596304
40
0.833516367622388
40
0.835278237135429
40
0.837040106648472
40
0.840563845674555
40
0.847611323726722
40
0.851135062752806
40
0.85465880177889
40
0.858182540804973
40
0.861706279831057
40
0.868753757883225
40
0.872277496909308
40
0.875801235935392
40
0.879324974961476
40
0.882848713987559
40
0.886372453013643
40
0.889896192039727
40
0.89341993106581
40
0.896943670091894
40
0.903991148144061
40
0.907514887170145
40
0.911038626196229
40
0.918086104248396
40
0.92160984327448
40
0.925133582300564
40
0.932181060352731
40
0.935704799378814
40
0.939228538404898
40
0.942752277430982
40
0.946276016457065
40
0.953323494509233
40
0.956847233535317
40
0.9603709725614
40
0.963894711587484
40
0.967418450613568
40
0.970942189639651
40
0.974465928665735
40
0.977989667691819
40
0.981513406717902
40
0.985037145743986
40
0.98856088477007
40
0.992084623796153
40
0.995608362822237
40
0.999132101848321
40
1
40
1
40
1
40
1
41
1
10
-28.5
20
-16.857011167998
30
0
41
1
10
-28.5
20
-16.8563913779349
30
0
41
1
10
-28.5
20
-16.8542840062718
30
0
41
1
10
-28.5
20
-16.8492032887544
30
0
41
1
10
-28.5
20
-16.8407921788659
30
0
41
1
10
-28.5
20
-16.8300011209595
30
0
41
1
10
-28.5
20
-16.8168672741156
30
0
41
1
10
-28.5
20
-16.8014255225769
30
0
41
1
10
-28.5
20
-16.783709883521
30
0
41
1
10
-28.5
20
-16.7637529731542
30
0
41
1
10
-28.5
20
-16.7415855338906
30
0
41
1
10
-28.5
20
-16.7172383450784
30
0
41
1
10
-28.5
20
-16.6818353810987
30
0
41
1
10
-28.5
20
-16.642411510514
30
0
41
1
10
-28.5
20
-16.5986105790194
30
0
41
1
10
-28.5
20
-16.5637763020887
30
0
41
1
10
-28.5
20
-16.5269199075572
30
0
41
1
10
-28.5
20
-16.4750169305147
30
0
41
1
10
-28.5
20
-16.4194622625482
30
0
41
1
10
-28.5
20
-16.3597331913305
30
0
41
1
10
-28.5
20
-16.2974462059125
30
0
41
1
10
-28.5
20
-16.2317181614777
30
0
41
1
10
-28.5
20
-16.1619255301562
30
0
41
1
10
-28.5
20
-16.0896767577218
30
0
41
1
10
-28.5
20
-16.0141701499498
30
0
41
1
10
-28.5
20
-15.9346970720351
30
0
41
1
10
-28.5
20
-15.8734193498834
30
0
41
1
10
-28.5
20
-15.8103844132608
30
0
41
1
10
-28.5
20
-15.745608166167
30
0
41
1
10
-28.5
20
-15.6791035033831
30
0
41
1
10
-28.5
20
-15.6108850520675
30
0
41
1
10
-28.5
20
-15.5409672008416
30
0
41
1
10
-28.5
20
-15.4453363897878
30
0
41
1
10
-28.5
20
-15.3468344295442
30
0
41
1
10
-28.5
20
-15.2445501023872
30
0
41
1
10
-28.5
20
-15.1663215412447
30
0
41
1
10
-28.5
20
-15.0864673138636
30
0
41
1
10
-28.5
20
-14.9776668598204
30
0
41
1
10
-28.5
20
-14.8661866472663
30
0
41
1
10
-28.5
20
-14.7510047173632
30
0
41
1
10
-28.5
20
-14.6631805593238
30
0
41
1
10
-28.5
20
-14.5737935545692
30
0
41
1
10
-28.5
20
-14.4523474056541
30
0
41
1
10
-28.5
20
-14.3283920102608
30
0
41
1
10
-28.5
20
-14.2007962111626
30
0
41
1
10
-28.5
20
-14.1037299196573
30
0
41
1
10
-28.5
20
-14.0051547121626
30
0
41
1
10
-28.5
20
-13.8715103774192
30
0
41
1
10
-28.5
20
-13.7355116027341
30
0
41
1
10
-28.5
20
-13.5959164295663
30
0
41
1
10
-28.5
20
-13.4899116400767
30
0
41
1
10
-28.5
20
-13.3824445287113
30
0
41
1
10
-28.5
20
-13.2369867267196
30
0
41
1
10
-28.5
20
-13.0893180063072
30
0
41
1
10
-28.5
20
-12.9380809359595
30
0
41
1
10
-28.5
20
-12.8234002792818
30
0
41
1
10
-28.5
20
-12.7072977235968
30
0
41
1
10
-28.5
20
-12.550359403554
30
0
41
1
10
-28.5
20
-12.3913462445321
30
0
41
1
10
-28.5
20
-12.2287775158425
30
0
41
1
10
-28.5
20
-12.1056498288981
30
0
41
1
10
-28.5
20
-11.9811355431936
30
0
41
1
10
-28.5
20
-11.8130068133241
30
0
41
1
10
-28.5
20
-11.642935768078
30
0
41
1
10
-28.5
20
-11.4693068645233
30
0
41
1
10
-28.5
20
-11.2938625434425
30
0
41
1
10
-28.5
20
-11.0718089327865
30
0
41
1
10
-28.5
20
-10.8452681360072
30
0
41
1
10
-28.5
20
-10.6608198079832
30
0
41
1
10
-28.5
20
-10.4745957683654
30
0
41
1
10
-28.5
20
-10.2866518533399
30
0
41
1
10
-28.5
20
-10.0951135357909
30
0
41
1
10
-28.5
20
-9.9503895477591
30
0
41
1
10
-28.5
20
-9.8043545776041
30
0
41
1
10
-28.5
20
-9.65701503611822
30
0
41
1
10
-28.5
20
-9.50837340526911
30
0
41
1
10
-28.5
20
-9.30810992365676
30
0
41
1
10
-28.5
20
-9.05534970701541
30
0
41
1
10
-28.5
20
-8.79830464348922
30
0
41
1
10
-28.5
20
-8.58944232029054
30
0
41
1
10
-28.5
20
-8.43181572672981
30
0
41
1
10
-28.5
20
-8.27292311790592
30
0
41
1
10
-28.5
20
-8.11277014047184
30
0
41
1
10
-28.5
20
-7.9513617118449
30
0
41
1
10
-28.5
20
-7.73407184255308
30
0
41
1
10
-28.5
20
-7.46030866767529
30
0
41
1
10
-28.5
20
-7.12632140637373
30
0
41
1
10
-28.5
20
-6.84437402550569
30
0
41
1
10
-28.5
20
-6.61554359890371
30
0
41
1
10
-28.5
20
-6.44309029411605
30
0
41
1
10
-28.5
20
-6.26944364545889
30
0
41
1
10
-28.5
20
-6.09461246091772
30
0
41
1
10
-28.5
20
-5.91860523667609
30
0
41
1
10
-28.5
20
-5.74143189937953
30
0
41
1
10
-28.5
20
-5.56310357372001
30
0
41
1
10
-28.5
20
-5.38363134733163
30
0
41
1
10
-28.5
20
-5.20302692387261
30
0
41
1
10
-28.5
20
-5.0213042232472
30
0
41
1
10
-28.5
20
-4.83847919931264
30
0
41
1
10
-28.5
20
-4.65456716028004
30
0
41
1
10
-28.5
20
-4.46958486845949
30
0
41
1
10
-28.5
20
-4.28355302808069
30
0
41
1
10
-28.5
20
-4.09649275318182
30
0
41
1
10
-28.5
20
-3.90842813226232
30
0
41
1
10
-28.5
20
-3.75124940963562
30
0
41
1
10
-28.5
20
-3.6243549796439
30
0
41
1
10
-28.5
20
-3.5292431593418
30
0
41
1
10
-28.5
20
-3.43390158445521
30
0
41
1
10
-28.5
20
-3.30608717079298
30
0
41
1
10
-28.5
20
-3.14669072023423
30
0
41
1
10
-28.5
20
-2.9865693987912
30
0
41
1
10
-28.5
20
-2.85729421649611
30
0
41
1
10
-28.5
20
-2.76048089001324
30
0
41
1
10
-28.5
20
-2.66347976206254
30
0
41
1
10
-28.5
20
-2.56629526768592
30
0
41
1
10
-28.5
20
-2.46893611478751
30
0
41
1
10
-28.5
20
-2.33842740009587
30
0
41
1
10
-28.5
20
-2.20905952740142
30
0
41
1
10
-28.5
20
-2.07788039572898
30
0
41
1
10
-28.5
20
-1.97974994874616
30
0
41
1
10
-28.5
20
-1.88148715614122
30
0
41
1
10
-28.5
20
-1.78310090101277
30
0
41
1
10
-28.5
20
-1.68460072925305
30
0
41
1
10
-28.5
20
-1.58599184128096
30
0
41
1
10
-28.5
20
-1.48728649469356
30
0
41
1
10
-28.5
20
-1.38848914320587
30
0
41
1
10
-28.5
20
-1.28961139997082
30
0
41
1
10
-28.5
20
-1.19065859360987
30
0
41
1
10
-28.5
20
-1.09164071478048
30
0
41
1
10
-28.5
20
-0.992564090788449
30
0
41
1
10
-28.5
20
-0.893436923932512
30
0
41
1
10
-28.5
20
-0.794265471937138
30
0
41
1
10
-28.5
20
-0.695056741362833
30
0
41
1
10
-28.5
20
-0.595816468507252
30
0
41
1
10
-28.5
20
-0.49655061320999
30
0
41
1
10
-28.5
20
-0.397263853181812
30
0
41
1
10
-28.5
20
-0.297961366795107
30
0
41
1
10
-28.5
20
-0.198647102840709
30
0
41
1
10
-28.5
20
-0.0993254669347436
30
0
41
1
10
-28.5
20
-5.4725149E-09
30
0
41
1
10
-28.5
20
0.0993254684405827
30
0
41
1
10
-28.5
20
0.198647127601248
30
0
41
1
10
-28.5
20
0.297961388791691
30
0
41
1
10
-28.5
20
0.397263840424017
30
0
41
1
10
-28.5
20
0.496550594205559
30
0
41
1
10
-28.5
20
0.595816495504096
30
0
41
1
10
-28.5
20
0.695056784277028
30
0
41
1
10
-28.5
20
0.794265459276176
30
0
41
1
10
-28.5
20
0.89343688343348
30
0
41
1
10
-28.5
20
0.992564112169902
30
0
41
1
10
-28.5
20
1.09164077920423
30
0
41
1
10
-28.5
20
1.19065859620264
30
0
41
1
10
-28.5
20
1.28961134189754
30
0
41
1
10
-28.5
20
1.38848913588993
30
0
41
1
10
-28.5
20
1.48728656512978
30
0
41
1
10
-28.5
20
1.58599188781932
30
0
41
1
10
-28.5
20
1.6846006870125
30
0
41
1
10
-28.5
20
1.78310084050699
30
0
41
1
10
-28.5
20
1.88148718140701
30
0
41
1
10
-28.5
20
1.9797500364362
30
0
41
1
10
-28.5
20
2.0778804265363
30
0
41
1
10
-28.5
20
2.17587292609085
30
0
41
1
10
-28.5
20
2.27371679621319
30
0
41
1
10
-28.5
20
2.37140757120355
30
0
41
1
10
-28.5
20
2.46893613943033
30
0
41
1
10
-28.5
20
2.59923374131699
30
0
41
1
10
-28.5
20
2.72777279716706
30
0
41
1
10
-28.5
20
2.8572942882393
30
0
41
1
10
-28.5
20
2.98656948332388
30
0
41
1
10
-28.5
20
3.14669074057869
30
0
41
1
10
-28.5
20
3.30608709676801
30
0
41
1
10
-28.5
20
3.43390157548936
30
0
41
1
10
-28.5
20
3.52924322184191
30
0
41
1
10
-28.5
20
3.62435506854831
30
0
41
1
10
-28.5
20
3.75124942106058
30
0
41
1
10
-28.5
20
3.90842799420628
30
0
41
1
10
-28.5
20
4.09649259176146
30
0
41
1
10
-28.5
20
4.28355297730505
30
0
41
1
10
-28.5
20
4.4695846174555
30
0
41
1
10
-28.5
20
4.65456683421039
30
0
41
1
10
-28.5
20
4.83847943804494
30
0
41
1
10
-28.5
20
5.0213044851898
30
0
41
1
10
-28.5
20
5.2030267003301
30
0
41
1
10
-28.5
20
5.38363156234237
30
0
41
1
10
-28.5
20
5.56310445504442
30
0
41
1
10
-28.5
20
5.74143237747984
30
0
41
1
10
-28.5
20
5.91860495448572
30
0
41
1
10
-28.5
20
6.09461208825527
30
0
41
1
10
-28.5
20
6.26944357118299
30
0
41
1
10
-28.5
20
6.4430903265563
30
0
41
1
10
-28.5
20
6.61554357091572
30
0
41
1
10
-28.5
20
6.84437400802861
30
0
41
1
10
-28.5
20
7.12632144512301
30
0
41
1
10
-28.5
20
7.46030865505762
30
0
41
1
10
-28.5
20
7.73407184285281
30
0
41
1
10
-28.5
20
7.95136176299604
30
0
41
1
10
-28.5
20
8.11277014937085
30
0
41
1
10
-28.5
20
8.27292308432649
30
0
41
1
10
-28.5
20
8.43181570788789
30
0
41
1
10
-28.5
20
8.5894423488798
30
0
41
1
10
-28.5
20
8.79830467826932
30
0
41
1
10
-28.5
20
9.05534969583792
30
0
41
1
10
-28.5
20
9.30810991622687
30
0
41
1
10
-28.5
20
9.50837344479851
30
0
41
1
10
-28.5
20
9.65701506287493
30
0
41
1
10
-28.5
20
9.80435457188474
30
0
41
1
10
-28.5
20
9.95038952754788
30
0
41
1
10
-28.5
20
10.095113531911
30
0
41
1
10
-28.5
20
10.2866518813937
30
0
41
1
10
-28.5
20
10.4745957936973
30
0
41
1
10
-28.5
20
10.6608197986608
30
0
41
1
10
-28.5
20
10.8452681286137
30
0
41
1
10
-28.5
20
11.0718089525805
30
0
41
1
10
-28.5
20
11.2938625632929
30
0
41
1
10
-28.5
20
11.4693068596265
30
0
41
1
10
-28.5
20
11.6429357656381
30
0
41
1
10
-28.5
20
11.8130068303033
30
0
41
1
10
-28.5
20
11.9811355648908
30
0
41
1
10
-28.5
20
12.1056498404809
30
0
41
1
10
-28.5
20
12.2287775174238
30
0
41
1
10
-28.5
20
12.3913462461042
30
0
41
1
10
-28.5
20
12.5503594172971
30
0
41
1
10
-28.5
20
12.7072977423403
30
0
41
1
10
-28.5
20
12.8234002933141
30
0
41
1
10
-28.5
20
12.9380809438717
30
0
41
1
10
-28.5
20
13.0893180117675
30
0
41
1
10
-28.5
20
13.2369867372074
30
0
41
1
10
-28.5
20
13.3824445445542
30
0
41
1
10
-28.5
20
13.4899116562855
30
0
41
1
10
-28.5
20
13.5959164434403
30
0
41
1
10
-28.5
20
13.7355116125921
30
0
41
1
10
-28.5
20
13.8715103854275
30
0
41
1
10
-28.5
20
14.0051547249398
30
0
41
1
10
-28.5
20
14.1037299370701
30
0
41
1
10
-28.5
20
14.2007962250068
30
0
41
1
10
-28.5
20
14.328392039309
30
0
41
1
10
-28.5
20
14.452347405446
30
0
41
1
10
-28.5
20
14.5737935062701
30
0
41
1
10
-28.5
20
14.6481896525931
30
0
41
1
10
-28.5
20
14.7070919001429
30
0
41
1
10
-28.5
20
14.7654709460418
30
0
41
1
10
-28.5
20
14.8661866667289
30
0
41
1
10
-28.5
20
14.9776668655465
30
0
41
1
10
-28.5
20
15.086467321316
30
0
41
1
10
-28.5
20
15.1663215599361
30
0
41
1
10
-28.5
20
15.2445501295776
30
0
41
1
10
-28.5
20
15.3468344527491
30
0
41
1
10
-28.5
20
15.4453363938053
30
0
41
1
10
-28.5
20
15.5409672073329
30
0
41
1
10
-28.5
20
15.6108850733398
30
0
41
1
10
-28.5
20
15.679103534252
30
0
41
1
10
-28.5
20
15.7456081924762
30
0
41
1
10
-28.5
20
15.810384423087
30
0
41
1
10
-28.5
20
15.8734193510279
30
0
41
1
10
-28.5
20
15.9346970807191
30
0
41
1
10
-28.5
20
16.0141701800502
30
0
41
1
10
-28.5
20
16.0896767899468
30
0
41
1
10
-28.5
20
16.1619255341458
30
0
41
1
10
-28.5
20
16.2317181619347
30
0
41
1
10
-28.5
20
16.2974462376793
30
0
41
1
10
-28.5
20
16.3597332242326
30
0
41
1
10
-28.5
20
16.4194622696319
30
0
41
1
10
-28.5
20
16.4750169286961
30
0
41
1
10
-28.5
20
16.5269199399481
30
0
41
1
10
-28.5
20
16.5637763395248
30
0
41
1
10
-28.5
20
16.5986105943247
30
0
41
1
10
-28.5
20
16.642411504334
30
0
41
1
10
-28.5
20
16.6818354096897
30
0
41
1
10
-28.5
20
16.7172383773105
30
0
41
1
10
-28.5
20
16.741585550229
30
0
41
1
10
-28.5
20
16.7637529737167
30
0
41
1
10
-28.5
20
16.7837098927271
30
0
41
1
10
-28.5
20
16.8014255596809
30
0
41
1
10
-28.5
20
16.816867307208
30
0
41
1
10
-28.5
20
16.8300011251081
30
0
41
1
10
-28.5
20
16.8407921763224
30
0
41
1
10
-28.5
20
16.8492033090471
30
0
41
1
10
-28.5
20
16.8551966659016
30
0
41
1
10
-28.5
20
16.8587319423621
30
0
41
1
10
-28.5
20
16.8597680746869
30
0
41
1
10
-28.5
20
16.8586398966662
30
0
41
1
10
-28.5
20
16.8573438946977
30
0
41
1
10
-28.5
20
16.8570614844421
30
0
0
SPLINE
5
19D
100
AcDbEntity
8
SK1
62
256
6
ByLayer
370
18
48
1
60
0
100
AcDbSpline
70
4
71
3
72
284
73
280
40
0
40
0
40
0
40
0
40
0.0001430978043152
40
0.0037135053107637
40
0.0072839128172122
40
0.0108543203236607
40
0.0144247278301092
40
0.0179951353365577
40
0.0215655428430062
40
0.0251359503494547
40
0.0287063578559032
40
0.0322767653623517
40
0.0358471728688002
40
0.0429879878816972
40
0.0465583953881457
40
0.0501288028945942
40
0.0536992104010427
40
0.0572696179074912
40
0.0644104329203882
40
0.0679808404268367
40
0.0715512479332852
40
0.0786920629461822
40
0.0822624704526307
40
0.0858328779590792
40
0.0929736929719762
40
0.0965441004784247
40
0.100114507984873
40
0.103684915491322
40
0.10725532299777
40
0.110825730504219
40
0.114396138010667
40
0.117966545517116
40
0.121536953023564
40
0.128677768036461
40
0.13224817554291
40
0.135818583049358
40
0.139388990555807
40
0.142959398062255
40
0.150100213075152
40
0.153670620581601
40
0.157241028088049
40
0.160811435594498
40
0.164381843100946
40
0.171522658113843
40
0.175093065620292
40
0.17866347312674
40
0.182233880633189
40
0.185804288139637
40
0.192945103152534
40
0.196515510658983
40
0.200085918165431
40
0.20365632567188
40
0.207226733178328
40
0.214367548191225
40
0.217937955697674
40
0.221508363204122
40
0.225078770710571
40
0.228649178217019
40
0.235789993229916
40
0.239360400736365
40
0.242930808242813
40
0.246501215749262
40
0.25007162325571
40
0.257212438268607
40
0.260782845775056
40
0.264353253281504
40
0.271494068294401
40
0.278634883307298
40
0.282205290813747
40
0.285775698320195
40
0.292916513333092
40
0.296486920839541
40
0.300057328345989
40
0.303627735852438
40
0.307198143358886
40
0.310768550865335
40
0.314338958371783
40
0.32147977338468
40
0.328620588397577
40
0.332190995904026
40
0.335761403410474
40
0.339331810916923
40
0.342902218423371
40
0.34647262592982
40
0.350043033436268
40
0.357183848449165
40
0.364324663462062
40
0.371465478474959
40
0.375035885981408
40
0.378606293487856
40
0.382176700994305
40
0.385747108500753
40
0.389317516007202
40
0.39288792351365
40
0.396458331020099
40
0.400028738526547
40
0.403599146032996
40
0.407169553539444
40
0.410739961045893
40
0.414310368552341
40
0.41788077605879
40
0.421451183565238
40
0.425021591071687
40
0.428591998578135
40
0.432162406084584
40
0.433947609837808
40
0.435732813591032
40
0.437518017344256
40
0.439303221097481
40
0.442873628603929
40
0.446444036110378
40
0.448229239863602
40
0.450014443616826
40
0.451799647370051
40
0.453584851123275
40
0.455370054876499
40
0.457155258629723
40
0.460725666136172
40
0.462510869889396
40
0.46429607364262
40
0.466081277395845
40
0.467866481149069
40
0.469651684902293
40
0.471436888655517
40
0.473222092408742
40
0.475007296161966
40
0.47679249991519
40
0.478577703668414
40
0.480362907421639
40
0.482148111174863
40
0.483933314928087
40
0.485718518681311
40
0.487503722434535
40
0.48928892618776
40
0.491074129940984
40
0.492859333694208
40
0.494644537447433
40
0.496429741200657
40
0.498214944953881
40
0.500000148707105
40
0.50178535246033
40
0.503570556213554
40
0.505355759966778
40
0.507140963720002
40
0.508926167473227
40
0.510711371226451
40
0.512496574979675
40
0.514281778732899
40
0.516066982486124
40
0.517852186239348
40
0.519637389992572
40
0.521422593745796
40
0.523207797499021
40
0.524993001252245
40
0.526778205005469
40
0.528563408758693
40
0.530348612511918
40
0.532133816265142
40
0.533919020018366
40
0.53570422377159
40
0.537489427524815
40
0.539274631278039
40
0.541059835031263
40
0.542845038784487
40
0.544630242537712
40
0.546415446290936
40
0.549985853797384
40
0.551771057550609
40
0.553556261303833
40
0.557126668810281
40
0.56069707631673
40
0.562482280069954
40
0.564267483823178
40
0.566052687576403
40
0.567837891329627
40
0.571408298836075
40
0.574978706342524
40
0.578549113848972
40
0.582119521355421
40
0.585689928861869
40
0.589260336368318
40
0.592830743874766
40
0.596401151381215
40
0.599971558887663
40
0.603541966394112
40
0.60711237390056
40
0.610682781407009
40
0.614253188913457
40
0.617823596419906
40
0.621394003926354
40
0.624964411432803
40
0.628534818939251
40
0.635675633952148
40
0.642816448965045
40
0.649957263977942
40
0.653527671484391
40
0.657098078990839
40
0.660668486497288
40
0.664238894003736
40
0.667809301510185
40
0.671379709016633
40
0.67852052402953
40
0.685661339042427
40
0.689231746548876
40
0.692802154055324
40
0.696372561561773
40
0.699942969068221
40
0.70351337657467
40
0.707083784081118
40
0.714224599094015
40
0.717795006600464
40
0.721365414106912
40
0.728506229119809
40
0.735647044132706
40
0.739217451639155
40
0.742787859145603
40
0.7499286741585
40
0.753499081664949
40
0.757069489171397
40
0.760639896677846
40
0.764210304184294
40
0.771351119197191
40
0.77492152670364
40
0.778491934210088
40
0.782062341716537
40
0.785632749222985
40
0.792773564235882
40
0.796343971742331
40
0.799914379248779
40
0.803484786755228
40
0.807055194261676
40
0.814196009274573
40
0.817766416781022
40
0.82133682428747
40
0.824907231793919
40
0.828477639300367
40
0.835618454313264
40
0.839188861819713
40
0.842759269326161
40
0.844544473079386
40
0.84632967683261
40
0.849900084339059
40
0.857040899351955
40
0.860611306858404
40
0.864181714364852
40
0.867752121871301
40
0.871322529377749
40
0.878463344390646
40
0.882033751897095
40
0.885604159403543
40
0.889174566909992
40
0.89274497441644
40
0.896315381922889
40
0.899885789429338
40
0.903456196935786
40
0.907026604442234
40
0.914167419455131
40
0.91773782696158
40
0.921308234468028
40
0.928449049480925
40
0.932019456987374
40
0.935589864493823
40
0.942730679506719
40
0.946301087013168
40
0.949871494519616
40
0.953441902026065
40
0.957012309532513
40
0.96415312454541
40
0.967723532051859
40
0.971293939558308
40
0.974864347064756
40
0.978434754571204
40
0.982005162077653
40
0.985575569584101
40
0.98914597709055
40
0.992716384596999
40
0.996286792103447
40
0.999857199609895
40
1
40
1
40
1
40
1
41
1
10
-1.99503997793931
20
-17.3206892135683
30
0
41
1
10
-1.99503997793931
20
-17.3206252206389
30
0
41
1
10
-1.99503997793928
20
-17.3189470231583
30
0
41
1
10
-1.99503997793928
20
-17.3147637003649
30
0
41
1
10
-1.99503997793928
20
-17.3061342577567
30
0
41
1
10
-1.99503997793928
20
-17.295067771448
30
0
41
1
10
-1.99503997793928
20
-17.2816041041457
30
0
41
1
10
-1.99503997793928
20
-17.2657805776118
30
0
41
1
10
-1.99503997793928
20
-17.2476335117891
30
0
41
1
10
-1.99503997793928
20
-17.2271975457697
30
0
41
1
10
-1.99503997793928
20
-17.2045053960087
30
0
41
1
10
-1.99503997793928
20
-17.1795895960111
30
0
41
1
10
-1.99503997793928
20
-17.143423992764
30
0
41
1
10
-1.99503997793928
20
-17.1029924242496
30
0
41
1
10
-1.99503997793928
20
-17.0582791326422
30
0
41
1
10
-1.99503997793928
20
-17.0226787925821
30
0
41
1
10
-1.99503997793928
20
-16.9850205529168
30
0
41
1
10
-1.99503997793928
20
-16.9320728615657
30
0
41
1
10
-1.99503997793928
20
-16.8751872660894
30
0
41
1
10
-1.99503997793928
20
-16.8142877036056
30
0
41
1
10
-1.99503997793928
20
-16.7507929832779
30
0
41
1
10
-1.99503997793928
20
-16.6835453056651
30
0
41
1
10
-1.99503997793928
20
-16.6124299551482
30
0
41
1
10
-1.99503997793928
20
-16.5388242186582
30
0
41
1
10
-1.99503997793928
20
-16.4616240004255
30
0
41
1
10
-1.99503997793928
20
-16.3806869939664
30
0
41
1
10
-1.99503997793928
20
-16.3182114219941
30
0
41
1
10
-1.99503997793928
20
-16.2539521138773
30
0
41
1
10
-1.99503997793928
20
-16.1879246249361
30
0
41
1
10
-1.99503997793928
20
-16.1201424382026
30
0
41
1
10
-1.99503997793928
20
-16.0506207732709
30
0
41
1
10
-1.99503997793928
20
-15.979373490825
30
0
41
1
10
-1.99503997793928
20
-15.8820499794418
30
0
41
1
10
-1.99503997793928
20
-15.7814584486047
30
0
41
1
10
-1.99503997793928
20
-15.677384958149
30
0
41
1
10
-1.99503997793928
20
-15.5977008436634
30
0
41
1
10
-1.99503997793928
20
-15.5163656256123
30
0
41
1
10
-1.99503997793928
20
-15.4056838451686
30
0
41
1
10
-1.99503997793928
20
-15.2918890118945
30
0
41
1
10
-1.99503997793928
20
-15.1747311694574
30
0
41
1
10
-1.99503997793928
20
-15.0853020659337
30
0
41
1
10
-1.99503997793928
20
-14.9942846604514
30
0
41
1
10
-1.99503997793928
20
-14.8707702235387
30
0
41
1
10
-1.99503997793928
20
-14.7442755428493
30
0
41
1
10
-1.99503997793928
20
-14.6145160455858
30
0
41
1
10
-1.99503997793928
20
-14.5156939096276
30
0
41
1
10
-1.99503997793928
20
-14.4153366771621
30
0
41
1
10
-1.99503997793928
20
-14.2794333721973
30
0
41
1
10
-1.99503997793928
20
-14.1406647198644
30
0
41
1
10
-1.99503997793928
20
-13.9987118830366
30
0
41
1
10
-1.99503997793928
20
-13.8907947247769
30
0
41
1
10
-1.99503997793928
20
-13.7813876415877
30
0
41
1
10
-1.99503997793928
20
-13.6334713769854
30
0
41
1
10
-1.99503997793928
20
-13.482790135872
30
0
41
1
10
-1.99503997793928
20
-13.328990109671
30
0
41
1
10
-1.99503997793928
20
-13.2122307400427
30
0
41
1
10
-1.99503997793928
20
-13.09401974916
30
0
41
1
10
-1.99503997793928
20
-12.9344093145834
30
0
41
1
10
-1.99503997793928
20
-12.7721223429484
30
0
41
1
10
-1.99503997793928
20
-12.606768466692
30
0
41
1
10
-1.99503997793928
20
-12.4813812679684
30
0
41
1
10
-1.99503997793928
20
-12.3545748152048
30
0
41
1
10
-1.99503997793928
20
-12.1835401119863
30
0
41
1
10
-1.99503997793928
20
-12.0099077332894
30
0
41
1
10
-1.99503997793928
20
-11.8332480165124
30
0
41
1
10
-1.99503997793928
20
-11.6547268261542
30
0
41
1
10
-1.99503997793928
20
-11.4282697000141
30
0
41
1
10
-1.99503997793928
20
-11.1972001365959
30
0
41
1
10
-1.99503997793928
20
-11.00944356136
30
0
41
1
10
-1.99503997793928
20
-10.8198574498995
30
0
41
1
10
-1.99503997793928
20
-10.627787937013
30
0
41
1
10
-1.99503997793928
20
-10.4327334855784
30
0
41
1
10
-1.99503997793928
20
-10.2851499168301
30
0
41
1
10
-1.99503997793928
20
-10.13621047024
30
0
41
1
10
-1.99503997793928
20
-9.98591879047714
30
0
41
1
10
-1.99503997793928
20
-9.83427692622885
30
0
41
1
10
-1.99503997793928
20
-9.63019833168175
30
0
41
1
10
-1.99503997793928
20
-9.37195865327328
30
0
41
1
10
-1.99503997793928
20
-9.1092571782612
30
0
41
1
10
-1.99503997793928
20
-8.89624559944801
30
0
41
1
10
-1.99503997793928
20
-8.73523611643316
30
0
41
1
10
-1.99503997793928
20
-8.57289871794615
30
0
41
1
10
-1.99503997793928
20
-8.40923673354897
30
0
41
1
10
-1.99503997793928
20
-8.24425232954013
30
0
41
1
10
-1.99503997793928
20
-8.0224014648056
30
0
41
1
10
-1.99503997793928
20
-7.7420578132905
30
0
41
1
10
-1.99503997793928
20
-7.40025290593451
30
0
41
1
10
-1.99503997793928
20
-7.11118461088941
30
0
41
1
10
-1.99503997793928
20
-6.87709665618266
30
0
41
1
10
-1.99503997793928
20
-6.70033531356589
30
0
41
1
10
-1.99503997793928
20
-6.52228078287743
30
0
41
1
10
-1.99503997793928
20
-6.3429370741791
30
0
41
1
10
-1.99503997793928
20
-6.16230788845579
30
0
41
1
10
-1.99503997793928
20
-5.98039789106801
30
0
41
1
10
-1.99503997793928
20
-5.79721186805691
30
0
41
1
10
-1.99503997793928
20
-5.61275496243289
30
0
41
1
10
-1.99503997793928
20
-5.42703270327695
30
0
41
1
10
-1.99503997793928
20
-5.24005175731475
30
0
41
1
10
-1.99503997793928
20
-5.05181945337139
30
0
41
1
10
-1.99503997793928
20
-4.86234332329403
30
0
41
1
10
-1.99503997793928
20
-4.67163207713236
30
0
41
1
10
-1.99503997793928
20
-4.47969614999016
30
0
41
1
10
-1.99503997793928
20
-4.28654656517494
30
0
41
1
10
-1.99503997793928
20
-4.09219634432211
30
0
41
1
10
-1.99503997793928
20
-3.92934661081907
30
0
41
1
10
-1.99503997793928
20
-3.7982972967292
30
0
41
1
10
-1.99503997793928
20
-3.69979994526253
30
0
41
1
10
-1.99503997793928
20
-3.6010147061962
30
0
41
1
10
-1.99503997793928
20
-3.46881385164499
30
0
41
1
10
-1.99503997793928
20
-3.30310841087518
30
0
41
1
10
-1.99503997793928
20
-3.13647579824178
30
0
41
1
10
-1.99503997793928
20
-3.00241852965871
30
0
41
1
10
-1.99503997793928
20
-2.90170218623106
30
0
41
1
10
-1.99503997793928
20
-2.80072442890969
30
0
41
1
10
-1.99503997793928
20
-2.69948931487846
30
0
41
1
10
-1.99503997793928
20
-2.5980019734576
30
0
41
1
10
-1.99503997793928
20
-2.46222694501739
30
0
41
1
10
-1.99503997793928
20
-2.3263670801044
30
0
41
1
10
-1.99503997793928
20
-2.18963187963746
30
0
41
1
10
-1.99503997793928
20
-2.08696367451518
30
0
41
1
10
-1.99503997793928
20
-1.98407765086858
30
0
41
1
10
-1.99503997793928
20
-1.88098143773604
30
0
41
1
10
-1.99503997793928
20
-1.77768276547397
30
0
41
1
10
-1.99503997793928
20
-1.67418894734925
30
0
41
1
10
-1.99503997793928
20
-1.57050946303122
30
0
41
1
10
-1.99503997793928
20
-1.46665209995737
30
0
41
1
10
-1.99503997793928
20
-1.36262724011792
30
0
41
1
10
-1.99503997793928
20
-1.25844372920938
30
0
41
1
10
-1.99503997793928
20
-1.15411255471386
30
0
41
1
10
-1.99503997793928
20
-1.04964378000579
30
0
41
1
10
-1.99503997793928
20
-0.945048899580655
30
0
41
1
10
-1.99503997793928
20
-0.840338961204225
30
0
41
1
10
-1.99503997793928
20
-0.735526073032332
30
0
41
1
10
-1.99503997793928
20
-0.630622105582688
30
0
41
1
10
-1.99503997793928
20
-0.525639721157262
30
0
41
1
10
-1.99503997793928
20
-0.420591350928703
30
0
41
1
10
-1.99503997793928
20
-0.315490126623814
30
0
41
1
10
-1.99503997793928
20
-0.210348939519435
30
0
41
1
10
-1.99503997793928
20
-0.105181165306249
30
0
41
1
10
-1.99503997793928
20
2.6093687E-09
30
0
41
1
10
-1.99503997793928
20
0.10518117389941
30
0
41
1
10
-1.99503997793928
20
0.21034895445402
30
0
41
1
10
-1.99503997793928
20
0.315490140896543
30
0
41
1
10
-1.99503997793928
20
0.420591355720489
30
0
41
1
10
-1.99503997793928
20
0.525639723935797
30
0
41
1
10
-1.99503997793928
20
0.630622120770227
30
0
41
1
10
-1.99503997793928
20
0.735526093018507
30
0
41
1
10
-1.99503997793928
20
0.840338966235578
30
0
41
1
10
-1.99503997793928
20
0.945048896197648
30
0
41
1
10
-1.99503997793928
20
1.04964379294299
30
0
41
1
10
-1.99503997793928
20
1.15411258033262
30
0
41
1
10
-1.99503997793928
20
1.25844373877697
30
0
41
1
10
-1.99503997793928
20
1.36262723194542
30
0
41
1
10
-1.99503997793928
20
1.46665210416356
30
0
41
1
10
-1.99503997793928
20
1.57050948928742
30
0
41
1
10
-1.99503997793928
20
1.67418896894682
30
0
41
1
10
-1.99503997793928
20
1.77768276258209
30
0
41
1
10
-1.99503997793928
20
1.88098142742643
30
0
41
1
10
-1.99503997793928
20
1.98407766278629
30
0
41
1
10
-1.99503997793928
20
2.08696370566375
30
0
41
1
10
-1.99503997793928
20
2.18963189754737
30
0
41
1
10
-1.99503997793928
20
2.29207637206397
30
0
41
1
10
-1.99503997793928
20
2.39428973936722
30
0
41
1
10
-1.99503997793928
20
2.49626703199883
30
0
41
1
10
-1.99503997793928
20
2.59800197223717
30
0
41
1
10
-1.99503997793928
20
2.73345090264118
30
0
41
1
10
-1.99503997793928
20
2.86801083241156
30
0
41
1
10
-1.99503997793928
20
3.00241855173454
30
0
41
1
10
-1.99503997793928
20
3.13647582573117
30
0
41
1
10
-1.99503997793928
20
3.30310842941955
30
0
41
1
10
-1.99503997793928
20
3.46881383607317
30
0
41
1
10
-1.99503997793928
20
3.60101470543907
30
0
41
1
10
-1.99503997793928
20
3.69979996514493
30
0
41
1
10
-1.99503997793928
20
3.79829732832764
30
0
41
1
10
-1.99503997793928
20
3.92934662557204
30
0
41
1
10
-1.99503997793928
20
4.09219631216948
30
0
41
1
10
-1.99503997793928
20
4.28654650347451
30
0
41
1
10
-1.99503997793928
20
4.47969611179559
30
0
41
1
10
-1.99503997793928
20
4.67163198724225
30
0
41
1
10
-1.99503997793928
20
4.86234315765492
30
0
41
1
10
-1.99503997793928
20
5.05181944357969
30
0
41
1
10
-1.99503997793928
20
5.24005183821342
30
0
41
1
10
-1.99503997793928
20
5.42703263168386
30
0
41
1
10
-1.99503997793928
20
5.61275497462711
30
0
41
1
10
-1.99503997793928
20
5.79721217482029
30
0
41
1
10
-1.99503997793928
20
5.98039819956611
30
0
41
1
10
-1.99503997793928
20
6.16230794338162
30
0
41
1
10
-1.99503997793928
20
6.34293700639154
30
0
41
1
10
-1.99503997793928
20
6.52228076981257
30
0
41
1
10
-1.99503997793928
20
6.70033533418757
30
0
41
1
10
-1.99503997793928
20
6.87709665926303
30
0
41
1
10
-1.99503997793928
20
7.11118459991687
30
0
41
1
10
-1.99503997793928
20
7.40025292645402
30
0
41
1
10
-1.99503997793928
20
7.74205781809903
30
0
41
1
10
-1.99503997793928
20
8.02240145976876
30
0
41
1
10
-1.99503997793928
20
8.24425235284596
30
0
41
1
10
-1.99503997793928
20
8.40923674956807
30
0
41
1
10
-1.99503997793928
20
8.57289871422529
30
0
41
1
10
-1.99503997793928
20
8.73523610803539
30
0
41
1
10
-1.99503997793928
20
8.89624560664996
30
0
41
1
10
-1.99503997793928
20
9.10925720032841
30
0
41
1
10
-1.99503997793928
20
9.37195865915049
30
0
41
1
10
-1.99503997793928
20
9.6301983246166
30
0
41
1
10
-1.99503997793928
20
9.83427694277646
30
0
41
1
10
-1.99503997793928
20
9.98591881051331
30
0
41
1
10
-1.99503997793928
20
10.1362104789651
30
0
41
1
10
-1.99503997793928
20
10.2851499142426
30
0
41
1
10
-1.99503997793928
20
10.432733482583
30
0
41
1
10
-1.99503997793928
20
10.6277879483349
30
0
41
1
10
-1.99503997793928
20
10.8198574709635
30
0
41
1
10
-1.99503997793928
20
11.0094435667743
30
0
41
1
10
-1.99503997793928
20
11.1972001338813
30
0
41
1
10
-1.99503997793928
20
11.4282697094187
30
0
41
1
10
-1.99503997793928
20
11.6547268446385
30
0
41
1
10
-1.99503997793928
20
11.8332480225582
30
0
41
1
10
-1.99503997793928
20
12.0099077334538
30
0
41
1
10
-1.99503997793928
20
12.1835401209566
30
0
41
1
10
-1.99503997793928
20
12.3545748313203
30
0
41
1
10
-1.99503997793928
20
12.4813812819682
30
0
41
1
10
-1.99503997793928
20
12.6067684751262
30
0
41
1
10
-1.99503997793928
20
12.7721223466594
30
0
41
1
10
-1.99503997793928
20
12.9344093235711
30
0
41
1
10
-1.99503997793928
20
13.0940197637218
30
0
41
1
10
-1.99503997793928
20
13.2122307543484
30
0
41
1
10
-1.99503997793928
20
13.3289901210133
30
0
41
1
10
-1.99503997793928
20
13.4827901435456
30
0
41
1
10
-1.99503997793928
20
13.6334713858817
30
0
41
1
10
-1.99503997793928
20
13.7813876543746
30
0
41
1
10
-1.99503997793928
20
13.8907947392413
30
0
41
1
10
-1.99503997793928
20
13.99871189727
30
0
41
1
10
-1.99503997793928
20
14.1406647319193
30
0
41
1
10
-1.99503997793928
20
14.2794333813788
30
0
41
1
10
-1.99503997793928
20
14.4153366880849
30
0
41
1
10
-1.99503997793928
20
14.5156939237825
30
0
41
1
10
-1.99503997793928
20
14.614516060936
30
0
41
1
10
-1.99503997793928
20
14.7442755571137
30
0
41
1
10
-1.99503997793928
20
14.8707702595594
30
0
41
1
10
-1.99503997793928
20
14.9942845913974
30
0
41
1
10
-1.99503997793928
20
15.070107125687
30
0
41
1
10
-1.99503997793928
20
15.130016414734
30
0
41
1
10
-1.99503997793928
20
15.1893946011099
30
0
41
1
10
-1.99503997793928
20
15.2918890331241
30
0
41
1
10
-1.99503997793928
20
15.4056838559475
30
0
41
1
10
-1.99503997793928
20
15.5163656330196
30
0
41
1
10
-1.99503997793928
20
15.5977008570348
30
0
41
1
10
-1.99503997793928
20
15.677384979663
30
0
41
1
10
-1.99503997793928
20
15.781458474053
30
0
41
1
10
-1.99503997793928
20
15.8820499896637
30
0
41
1
10
-1.99503997793928
20
15.9793734967038
30
0
41
1
10
-1.99503997793928
20
16.0506207879892
30
0
41
1
10
-1.99503997793928
20
16.1201424632647
30
0
41
1
10
-1.99503997793928
20
16.1879246525291
30
0
41
1
10
-1.99503997793928
20
16.2539521307207
30
0
41
1
10
-1.99503997793928
20
16.3182114280861
30
0
41
1
10
-1.99503997793928
20
16.3806869997558
30
0
41
1
10
-1.99503997793928
20
16.4616240235723
30
0
41
1
10
-1.99503997793928
20
16.538824252381
30
0
41
1
10
-1.99503997793928
20
16.6124299668847
30
0
41
1
10
-1.99503997793928
20
16.6835453043615
30
0
41
1
10
-1.99503997793928
20
16.7507930080793
30
0
41
1
10
-1.99503997793928
20
16.8142877377232
30
0
41
1
10
-1.99503997793928
20
16.8751872797734
30
0
41
1
10
-1.99503997793928
20
16.9320728583858
30
0
41
1
10
-1.99503997793928
20
16.9850205784631
30
0
41
1
10
-1.99503997793928
20
17.0226788299273
30
0
41
1
10
-1.99503997793928
20
17.0582791544304
30
0
41
1
10
-1.99503997793928
20
17.1029924178939
30
0
41
1
10
-1.99503997793928
20
17.1434240170936
30
0
41
1
10
-1.99503997793928
20
17.1795896288677
30
0
41
1
10
-1.99503997793928
20
17.204505416066
30
0
41
1
10
-1.99503997793928
20
17.2271975480507
30
0
41
1
10
-1.99503997793928
20
17.2476335178127
30
0
41
1
10
-1.99503997793928
20
17.2657806121613
30
0
41
1
10
-1.99503997793928
20
17.2816041393821
30
0
41
1
10
-1.99503997793928
20
17.2950677779805
30
0
41
1
10
-1.99503997793928
20
17.3061342543252
30
0
41
1
10
-1.99503997793928
20
17.3147637210185
30
0
41
1
10
-1.99503997793928
20
17.3189468542451
30
0
41
1
10
-1.99503997793931
20
17.3206249245799
30
0
41
1
10
-1.99503997793931
20
17.3206887861606
30
0
0
SPLINE
5
19E
100
AcDbEntity
8
SK1
62
256
6
ByLayer
370
18
48
1
60
0
100
AcDbSpline
70
4
71
3
72
106
73
102
40
0
40
0
40
0
40
0
40
0.0075864939233398
40
0.0161184316551025
40
0.0246503693868652
40
0.0331823071186278
40
0.0417142448503905
40
0.0502461825821532
40
0.0587781203139158
40
0.0673100580456785
40
0.0758419957774411
40
0.0843739335092038
40
0.0929058712409665
40
0.101437808972729
40
0.109969746704492
40
0.118501684436255
40
0.13556555989978
40
0.144097497631542
40
0.152629435363305
40
0.161161373095068
40
0.169693310826831
40
0.186757186290356
40
0.195289124022119
40
0.203821061753881
40
0.220884937217406
40
0.229416874949169
40
0.237948812680932
40
0.255012688144457
40
0.26354462587622
40
0.272076563607982
40
0.280608501339745
40
0.289140439071508
40
0.29767237680327
40
0.306204314535033
40
0.314736252266796
40
0.323268189998558
40
0.340332065462084
40
0.348864003193846
40
0.357395940925609
40
0.365927878657372
40
0.374459816389134
40
0.39152369185266
40
0.400055629584422
40
0.408587567316185
40
0.417119505047948
40
0.42565144277971
40
0.442715318243236
40
0.451247255974998
40
0.459779193706761
40
0.468311131438524
40
0.476843069170286
40
0.493906944633812
40
0.502438882365574
40
0.510970820097337
40
0.5195027578291
40
0.528034695560862
40
0.545098571024388
40
0.55363050875615
40
0.562162446487913
40
0.570694384219676
40
0.579226321951438
40
0.596290197414964
40
0.604822135146726
40
0.613354072878489
40
0.621886010610252
40
0.630417948342014
40
0.64748182380554
40
0.656013761537302
40
0.664545699269065
40
0.68160957473259
40
0.698673450196116
40
0.707205387927878
40
0.715737325659641
40
0.732801201123166
40
0.741333138854929
40
0.749865076586692
40
0.758397014318454
40
0.766928952050217
40
0.77546088978198
40
0.783992827513742
40
0.801056702977268
40
0.818120578440793
40
0.826652516172556
40
0.835184453904318
40
0.843716391636081
40
0.852248329367844
40
0.860780267099606
40
0.869312204831369
40
0.886376080294894
40
0.90343995575842
40
0.920503831221945
40
0.929035768953708
40
0.93756770668547
40
0.946099644417233
40
0.954631582148996
40
0.963163519880758
40
0.971695457612521
40
0.980227395344284
40
0.988759333076046
40
0.997291270807809
40
1
40
1
40
1
40
1
41
1
10
-0.394976888875277
20
-17.3601838880583
30
0
41
1
10
-0.394976888875306
20
-17.3617494125759
30
0
41
1
10
-0.394976888875306
20
-17.3643151423957
30
0
41
1
10
-0.394976888875277
20
-17.3658104187982
30
0
41
1
10
-0.394976888875277
20
-17.364743357607
30
0
41
1
10
-0.394976888875277
20
-17.3611046370287
30
0
41
1
10
-0.394976888875277
20
-17.3549392673806
30
0
41
1
10
-0.394976888875277
20
-17.3462909837355
30
0
41
1
10
-0.394976888875277
20
-17.3352007293143
30
0
41
1
10
-0.394976888875277
20
-17.3217086001335
30
0
41
1
10
-0.394976888875277
20
-17.3058521283006
30
0
41
1
10
-0.394976888875277
20
-17.2876678324761
30
0
41
1
10
-0.394976888875277
20
-17.267190526317
30
0
41
1
10
-0.394976888875277
20
-17.2444530966284
30
0
41
1
10
-0.394976888875277
20
-17.2194882282903
30
0
41
1
10
-0.394976888875277
20
-17.1832568130363
30
0
41
1
10
-0.394976888875277
20
-17.1427382851614
30
0
41
1
10
-0.394976888875277
20
-17.0979462613767
30
0
41
1
10
-0.394976888875277
20
-17.0622798138473
30
0
41
1
10
-0.394976888875277
20
-17.0245523789023
30
0
41
1
10
-0.394976888875277
20
-16.9715145338597
30
0
41
1
10
-0.394976888875277
20
-16.9145140859045
30
0
41
1
10
-0.394976888875277
20
-16.8535135157982
30
0
41
1
10
-0.394976888875277
20
-16.7899145739052
30
0
41
1
10
-0.394976888875277
20
-16.7225357594453
30
0
41
1
10
-0.394976888875277
20
-16.6513062647865
30
0
41
1
10
-0.394976888875277
20
-16.577583428992
30
0
41
1
10
-0.394976888875277
20
-16.5002370605308
30
0
41
1
10
-0.394976888875277
20
-16.4191737242595
30
0
41
1
10
-0.394976888875277
20
-16.3565947837564
30
0
41
1
10
-0.394976888875277
20
-16.2922298184193
30
0
41
1
10
-0.394976888875277
20
-16.2260943534788
30
0
41
1
10
-0.394976888875277
20
-16.1582019227301
30
0
41
1
10
-0.394976888875277
20
-16.0885677968918
30
0
41
1
10
-0.394976888875277
20
-16.0172057910894
30
0
41
1
10
-0.394976888875277
20
-15.9197362080175
30
0
41
1
10
-0.394976888875277
20
-15.8189643575456
30
0
41
1
10
-0.394976888875277
20
-15.7147364711228
30
0
41
1
10
-0.394976888875277
20
-15.6349267495635
30
0
41
1
10
-0.394976888875277
20
-15.553463729323
30
0
41
1
10
-0.394976888875277
20
-15.4426195996911
30
0
41
1
10
-0.394976888875277
20
-15.3286250260664
30
0
41
1
10
-0.394976888875277
20
-15.2112966721243
30
0
41
1
10
-0.394976888875277
20
-15.1217290697223
30
0
41
1
10
-0.394976888875277
20
-15.0305709686995
30
0
41
1
10
-0.394976888875277
20
-14.906878048735
30
0
41
1
10
-0.394976888875277
20
-14.7801642402503
30
0
41
1
10
-0.394976888875277
20
-14.6502180265082
30
0
41
1
10
-0.394976888875277
20
-14.5512443698349
30
0
41
1
10
-0.394976888875277
20
-14.4507333574048
30
0
41
1
10
-0.394976888875277
20
-14.3146351144528
30
0
41
1
10
-0.394976888875277
20
-14.1756274353422
30
0
41
1
10
-0.394976888875277
20
-14.0334711437704
30
0
41
1
10
-0.394976888875277
20
-13.9253889575191
30
0
41
1
10
-0.394976888875277
20
-13.8158144643309
30
0
41
1
10
-0.394976888875277
20
-13.6676860465324
30
0
41
1
10
-0.394976888875277
20
-13.5167448397425
30
0
41
1
10
-0.394976888875277
20
-13.3627236430939
30
0
41
1
10
-0.394976888875277
20
-13.2457848907918
30
0
41
1
10
-0.394976888875277
20
-13.127391952352
30
0
41
1
10
-0.394976888875277
20
-12.9675509274721
30
0
41
1
10
-0.394976888875277
20
-12.8049814419576
30
0
41
1
10
-0.394976888875277
20
-12.6393872212047
30
0
41
1
10
-0.394976888875277
20
-12.5138050377602
30
0
41
1
10
-0.394976888875277
20
-12.3868007822861
30
0
41
1
10
-0.394976888875277
20
-12.2155153079022
30
0
41
1
10
-0.394976888875277
20
-12.0415756036957
30
0
41
1
10
-0.394976888875277
20
-11.8646543426879
30
0
41
1
10
-0.394976888875277
20
-11.6858676336886
30
0
41
1
10
-0.394976888875277
20
-11.4590305058839
30
0
41
1
10
-0.394976888875277
20
-11.2275701322441
30
0
41
1
10
-0.394976888875277
20
-11.0395280715927
30
0
41
1
10
-0.394976888875277
20
-10.8496518299165
30
0
41
1
10
-0.394976888875277
20
-10.6572262982852
30
0
41
1
10
-0.394976888875277
20
-10.4618684218406
30
0
41
1
10
-0.394976888875277
20
-10.3140380853821
30
0
41
1
10
-0.394976888875277
20
-10.1648479968029
30
0
41
1
10
-0.394976888875277
20
-10.0143015620689
30
0
41
1
10
-0.394976888875277
20
-9.86240079247779
30
0
41
1
10
-0.394976888875277
20
-9.65799297250354
30
0
41
1
10
-0.394976888875277
20
-9.3992804435735
30
0
41
1
10
-0.394976888875277
20
-9.13609084815204
30
0
41
1
10
-0.394976888875277
20
-8.92272120904667
30
0
41
1
10
-0.394976888875277
20
-8.76141979935898
30
0
41
1
10
-0.394976888875277
20
-8.59878513251641
30
0
41
1
10
-0.394976888875277
20
-8.43482033812748
30
0
41
1
10
-0.394976888875277
20
-8.26952734508268
30
0
41
1
10
-0.394976888875277
20
-8.04728288893983
30
0
41
1
10
-0.394976888875277
20
-7.76637137475095
30
0
41
1
10
-0.394976888875277
20
-7.42389184310318
30
0
41
1
10
-0.394976888875277
20
-7.13420904829047
30
0
41
1
10
-0.394976888875277
20
-6.89966739484251
30
0
41
1
10
-0.394976888875277
20
-6.7225342898117
30
0
41
1
10
-0.394976888875277
20
-6.54409938064705
30
0
41
1
10
-0.394976888875277
20
-6.36436626337326
30
0
41
1
10
-0.394976888875277
20
-6.18333822517317
30
0
41
1
10
-0.394976888875277
20
-6.0010194773844
30
0
41
1
10
-0.394976888875277
20
-5.81741425905383
30
0
41
1
10
-0.394976888875277
20
-5.63252720020009
30
0
41
1
10
-0.394976888875277
20
-5.48871675629277
30
0
41
1
10
-0.394976888875277
20
-5.40659331253005
30
0
41
1
10
-0.394976888875277
20
-5.38678223324203
30
0
0
SPLINE
5
19F
100
AcDbEntity
8
SK1
62
256
6
ByLayer
370
18
48
1
60
0
100
AcDbSpline
70
4
71
3
72
107
73
103
40
0
40
0
40
0
40
0
40
0.0027087431787075
40
0.0112406780987939
40
0.0197726130188803
40
0.0283045479389667
40
0.036836482859053
40
0.0453684177791394
40
0.0539003526992258
40
0.0624322876193122
40
0.0709642225393985
40
0.0794961574594849
40
0.0965600272996577
40
0.11362389713983
40
0.130687766980003
40
0.13921970190009
40
0.147751636820176
40
0.156283571740262
40
0.164815506660349
40
0.173347441580435
40
0.181879376500521
40
0.198943246340694
40
0.216007116180867
40
0.224539051100953
40
0.23307098602104
40
0.241602920941126
40
0.250134855861212
40
0.258666790781299
40
0.267198725701385
40
0.284262595541558
40
0.292794530461644
40
0.301326465381731
40
0.318390335221903
40
0.335454205062076
40
0.343986139982162
40
0.352518074902249
40
0.369581944742422
40
0.378113879662508
40
0.386645814582594
40
0.395177749502681
40
0.403709684422767
40
0.42077355426294
40
0.429305489183026
40
0.437837424103113
40
0.446369359023199
40
0.454901293943285
40
0.471965163783458
40
0.480497098703545
40
0.489029033623631
40
0.497560968543717
40
0.506092903463804
40
0.523156773303976
40
0.531688708224063
40
0.540220643144149
40
0.548752578064235
40
0.557284512984322
40
0.574348382824495
40
0.582880317744581
40
0.591412252664667
40
0.595678220124711
40
0.599944187584754
40
0.60847612250484
40
0.625539992345013
40
0.634071927265099
40
0.642603862185186
40
0.651135797105272
40
0.659667732025358
40
0.676731601865531
40
0.685263536785617
40
0.693795471705704
40
0.70232740662579
40
0.710859341545876
40
0.719391276465963
40
0.727923211386049
40
0.736455146306136
40
0.744987081226222
40
0.762050951066395
40
0.770582885986481
40
0.779114820906568
40
0.79617869074674
40
0.804710625666827
40
0.813242560586913
40
0.830306430427086
40
0.838838365347172
40
0.847370300267259
40
0.855902235187345
40
0.864434170107431
40
0.881498039947604
40
0.89002997486769
40
0.898561909787777
40
0.907093844707863
40
0.915625779627949
40
0.924157714548036
40
0.932689649468122
40
0.941221584388209
40
0.949753519308295
40
0.958285454228381
40
0.966817389148468
40
0.975349324068554
40
0.983881258988641
40
0.992413193908727
40
1
40
1
40
1
40
1
41
1
10
-0.394976888875277
20
5.38678189578289
30
0
41
1
10
-0.394976888875277
20
5.4065930765673
30
0
41
1
10
-0.394976888875277
20
5.48871660168982
30
0
41
1
10
-0.394976888875277
20
5.63252719489225
30
0
41
1
10
-0.394976888875277
20
5.8174145162354
30
0
41
1
10
-0.394976888875277
20
6.00101977124669
30
0
41
1
10
-0.394976888875277
20
6.18333830919048
30
0
41
1
10
-0.394976888875277
20
6.3643662218949
30
0
41
1
10
-0.394976888875277
20
6.54409937286439
30
0
41
1
10
-0.394976888875277
20
6.72253430941348
30
0
41
1
10
-0.394976888875277
20
6.89966740060396
30
0
41
1
10
-0.394976888875277
20
7.13420903787926
30
0
41
1
10
-0.394976888875277
20
7.42389186204957
30
0
41
1
10
-0.394976888875277
20
7.76637138106329
30
0
41
1
10
-0.394976888875277
20
8.04728288344245
30
0
41
1
10
-0.394976888875277
20
8.26952736598562
30
0
41
1
10
-0.394976888875277
20
8.434820354761
30
0
41
1
10
-0.394976888875277
20
8.59878513137221
30
0
41
1
10
-0.394976888875277
20
8.76141979186249
30
0
41
1
10
-0.394976888875277
20
8.922721214403
30
0
41
1
10
-0.394976888875277
20
9.1360908691222
30
0
41
1
10
-0.394976888875277
20
9.39928045092248
30
0
41
1
10
-0.394976888875277
20
9.65799296546987
30
0
41
1
10
-0.394976888875277
20
9.86240080704218
30
0
41
1
10
-0.394976888875277
20
10.0143015815252
30
0
41
1
10
-0.394976888875277
20
10.1648480067744
30
0
41
1
10
-0.394976888875277
20
10.3140380843155
30
0
41
1
10
-0.394976888875277
20
10.4618684189216
30
0
41
1
10
-0.394976888875277
20
10.6572263081632
30
0
41
1
10
-0.394976888875277
20
10.8496518506122
30
0
41
1
10
-0.394976888875277
20
11.0395280782787
30
0
41
1
10
-0.394976888875277
20
11.2275701299333
30
0
41
1
10
-0.394976888875277
20
11.4590305143918
30
0
41
1
10
-0.394976888875277
20
11.685867652055
30
0
41
1
10
-0.394976888875277
20
11.864654349678
30
0
41
1
10
-0.394976888875277
20
12.0415756040849
30
0
41
1
10
-0.394976888875277
20
12.2155153161813
30
0
41
1
10
-0.394976888875277
20
12.3868007979199
30
0
41
1
10
-0.394976888875277
20
12.5138050519686
30
0
41
1
10
-0.394976888875277
20
12.6393872302303
30
0
41
1
10
-0.394976888875277
20
12.8049814458532
30
0
41
1
10
-0.394976888875277
20
12.9675509360494
30
0
41
1
10
-0.394976888875277
20
13.1273919665529
30
0
41
1
10
-0.394976888875277
20
13.2457849051211
30
0
41
1
10
-0.394976888875277
20
13.3627236547323
30
0
41
1
10
-0.394976888875277
20
13.5167448476072
30
0
41
1
10
-0.394976888875277
20
13.6676860552913
30
0
41
1
10
-0.394976888875277
20
13.8158144768541
30
0
41
1
10
-0.394976888875277
20
13.9253889718329
30
0
41
1
10
-0.394976888875277
20
14.0334711580348
30
0
41
1
10
-0.394976888875277
20
14.1756274475866
30
0
41
1
10
-0.394976888875277
20
14.3146351237356
30
0
41
1
10
-0.394976888875277
20
14.4507333681675
30
0
41
1
10
-0.394976888875277
20
14.5512443837086
30
0
41
1
10
-0.394976888875277
20
14.6502180419884
30
0
41
1
10
-0.394976888875277
20
14.780164253239
30
0
41
1
10
-0.394976888875277
20
14.9068780878822
30
0
41
1
10
-0.394976888875277
20
15.0305708978545
30
0
41
1
10
-0.394976888875277
20
15.1065165223896
30
0
41
1
10
-0.394976888875277
20
15.1665127141503
30
0
41
1
10
-0.394976888875277
20
15.2259771214207
30
0
41
1
10
-0.394976888875277
20
15.3286250474485
30
0
41
1
10
-0.394976888875277
20
15.4426196109061
30
0
41
1
10
-0.394976888875277
20
15.5534637367265
30
0
41
1
10
-0.394976888875277
20
15.6349267624759
30
0
41
1
10
-0.394976888875277
20
15.7147364921469
30
0
41
1
10
-0.394976888875277
20
15.8189643831875
30
0
41
1
10
-0.394976888875277
20
15.9197362187748
30
0
41
1
10
-0.394976888875277
20
16.0172057969154
30
0
41
1
10
-0.394976888875277
20
16.0885678110446
30
0
41
1
10
-0.394976888875277
20
16.1582019472912
30
0
41
1
10
-0.394976888875277
20
16.2260943811825
30
0
41
1
10
-0.394976888875277
20
16.2922298358683
30
0
41
1
10
-0.394976888875277
20
16.3565947902754
30
0
41
1
10
-0.394976888875277
20
16.4191737297992
30
0
41
1
10
-0.394976888875277
20
16.5002370830775
30
0
41
1
10
-0.394976888875277
20
16.5775834628441
30
0
41
1
10
-0.394976888875277
20
16.6513062771915
30
0
41
1
10
-0.394976888875277
20
16.7225357579897
30
0
41
1
10
-0.394976888875277
20
16.7899145981056
30
0
41
1
10
-0.394976888875277
20
16.8535135500206
30
0
41
1
10
-0.394976888875277
20
16.9145141001581
30
0
41
1
10
-0.394976888875277
20
16.9715145305624
30
0
41
1
10
-0.394976888875277
20
17.024552403858
30
0
41
1
10
-0.394976888875277
20
17.0622798511847
30
0
41
1
10
-0.394976888875277
20
17.0979462837243
30
0
41
1
10
-0.394976888875277
20
17.1427382787905
30
0
41
1
10
-0.394976888875277
20
17.1832568369982
30
0
41
1
10
-0.394976888875277
20
17.2194882612007
30
0
41
1
10
-0.394976888875277
20
17.2444531170066
30
0
41
1
10
-0.394976888875277
20
17.2671905287463
30
0
41
1
10
-0.394976888875277
20
17.2876678382251
30
0
41
1
10
-0.394976888875277
20
17.3058521626298
30
0
41
1
10
-0.394976888875277
20
17.3217086355548
30
0
41
1
10
-0.394976888875277
20
17.3352007360526
30
0
41
1
10
-0.394976888875277
20
17.3462909802274
30
0
41
1
10
-0.394976888875277
20
17.3549392880652
30
0
41
1
10
-0.394976888875277
20
17.3611046305144
30
0
41
1
10
-0.394976888875277
20
17.3647432146661
30
0
41
1
10
-0.394976888875277
20
17.3658102005923
30
0
41
1
10
-0.394976888875249
20
17.3643150511438
30
0
41
1
10
-0.394976888875277
20
17.3617494023547
30
0
41
1
10
-0.394976888875249
20
17.3601838599249
30
0
0
SPLINE
5
1A0
100
AcDbEntity
8
SK1
62
256
6
ByLayer
370
18
48
1
60
0
100
AcDbSpline
70
4
71
3
72
288
73
284
40
0
40
0
40
0
40
0
40
0.0022851386216587
40
0.0057901792147192
40
0.0092952198077796
40
0.0128002604008402
40
0.0163053009939007
40
0.0198103415869612
40
0.0233153821800217
40
0.0268204227730821
40
0.0303254633661426
40
0.0338305039592031
40
0.0373355445522637
40
0.0408405851453241
40
0.0443456257383847
40
0.0513557069245056
40
0.0548607475175661
40
0.0583657881106266
40
0.0618708287036871
40
0.0653758692967476
40
0.0723859504828686
40
0.0758909910759291
40
0.0793960316689896
40
0.0864061128551106
40
0.089911153448171
40
0.0934161940412315
40
0.100426275227352
40
0.103931315820413
40
0.107436356413474
40
0.110941397006534
40
0.114446437599594
40
0.117951478192655
40
0.121456518785716
40
0.124961559378776
40
0.128466599971836
40
0.135476681157958
40
0.138981721751018
40
0.142486762344079
40
0.145991802937139
40
0.1494968435302
40
0.15650692471632
40
0.160011965309381
40
0.163517005902441
40
0.167022046495502
40
0.170527087088563
40
0.177537168274683
40
0.181042208867744
40
0.184547249460805
40
0.188052290053865
40
0.191557330646925
40
0.198567411833046
40
0.202072452426107
40
0.205577493019167
40
0.209082533612228
40
0.212587574205289
40
0.219597655391409
40
0.22310269598447
40
0.22660773657753
40
0.230112777170591
40
0.233617817763651
40
0.240627898949772
40
0.244132939542833
40
0.247637980135893
40
0.251143020728954
40
0.254648061322014
40
0.261658142508135
40
0.265163183101196
40
0.268668223694256
40
0.275678304880377
40
0.282688386066498
40
0.286193426659559
40
0.289698467252619
40
0.29670854843874
40
0.300213589031801
40
0.303718629624861
40
0.307223670217922
40
0.310728710810982
40
0.314233751404043
40
0.317738791997103
40
0.324748873183224
40
0.331758954369345
40
0.335263994962406
40
0.338769035555466
40
0.342274076148527
40
0.345779116741587
40
0.349284157334648
40
0.352789197927708
40
0.359799279113829
40
0.36680936029995
40
0.373819441486071
40
0.377324482079132
40
0.380829522672192
40
0.384334563265253
40
0.387839603858313
40
0.391344644451374
40
0.394849685044434
40
0.398354725637495
40
0.401859766230555
40
0.405364806823615
40
0.408869847416676
40
0.412374888009737
40
0.415879928602797
40
0.419384969195858
40
0.422890009788918
40
0.426395050381979
40
0.429900090975039
40
0.4334051315681
40
0.43515765186463
40
0.43691017216116
40
0.43866269245769
40
0.440415212754221
40
0.443920253347281
40
0.447425293940341
40
0.449177814236872
40
0.450930334533402
40
0.452682854829932
40
0.454435375126462
40
0.456187895422993
40
0.457940415719523
40
0.461445456312583
40
0.463197976609114
40
0.464950496905644
40
0.466703017202174
40
0.468455537498704
40
0.470208057795235
40
0.471960578091765
40
0.473713098388295
40
0.475465618684826
40
0.477218138981356
40
0.478970659277886
40
0.480723179574416
40
0.482475699870946
40
0.484228220167477
40
0.485980740464007
40
0.487733260760537
40
0.489485781057067
40
0.491238301353598
40
0.492990821650128
40
0.494743341946658
40
0.496495862243188
40
0.498248382539719
40
0.500000902836249
40
0.501753423132779
40
0.503505943429309
40
0.50525846372584
40
0.50701098402237
40
0.5087635043189
40
0.51051602461543
40
0.512268544911961
40
0.514021065208491
40
0.515773585505021
40
0.517526105801551
40
0.519278626098082
40
0.521031146394612
40
0.522783666691142
40
0.524536186987672
40
0.526288707284203
40
0.528041227580733
40
0.529793747877263
40
0.531546268173793
40
0.533298788470324
40
0.535051308766854
40
0.536803829063384
40
0.538556349359914
40
0.540308869656444
40
0.542061389952975
40
0.543813910249505
40
0.545566430546035
40
0.549071471139096
40
0.550823991435626
40
0.552576511732156
40
0.556081552325217
40
0.559586592918277
40
0.561339113214808
40
0.563091633511338
40
0.564844153807868
40
0.566596674104398
40
0.570101714697459
40
0.573606755290519
40
0.57711179588358
40
0.58061683647664
40
0.584121877069701
40
0.587626917662761
40
0.591131958255822
40
0.594636998848882
40
0.598142039441943
40
0.601647080035003
40
0.605152120628064
40
0.608657161221124
40
0.612162201814185
40
0.615667242407245
40
0.619172283000306
40
0.622677323593366
40
0.626182364186427
40
0.633192445372548
40
0.640202526558669
40
0.64721260774479
40
0.65071764833785
40
0.654222688930911
40
0.657727729523971
40
0.661232770117032
40
0.664737810710092
40
0.668242851303153
40
0.675252932489274
40
0.682263013675395
40
0.685768054268455
40
0.689273094861516
40
0.692778135454576
40
0.696283176047637
40
0.699788216640697
40
0.703293257233757
40
0.710303338419879
40
0.713808379012939
40
0.717313419605999
40
0.724323500792121
40
0.731333581978242
40
0.734838622571302
40
0.738343663164362
40
0.745353744350484
40
0.748858784943544
40
0.752363825536604
40
0.755868866129665
40
0.759373906722726
40
0.766383987908847
40
0.769889028501907
40
0.773394069094967
40
0.776899109688028
40
0.780404150281088
40
0.787414231467209
40
0.79091927206027
40
0.79442431265333
40
0.797929353246391
40
0.801434393839451
40
0.808444475025572
40
0.811949515618633
40
0.815454556211693
40
0.818959596804754
40
0.822464637397814
40
0.829474718583935
40
0.832979759176996
40
0.836484799770056
40
0.838237320066587
40
0.839989840363117
40
0.843494880956177
40
0.850504962142298
40
0.854010002735359
40
0.857515043328419
40
0.86102008392148
40
0.86452512451454
40
0.871535205700661
40
0.875040246293722
40
0.878545286886782
40
0.882050327479843
40
0.885555368072903
40
0.889060408665964
40
0.892565449259024
40
0.896070489852085
40
0.899575530445145
40
0.906585611631266
40
0.910090652224327
40
0.913595692817387
40
0.920605774003508
40
0.924110814596569
40
0.927615855189629
40
0.93462593637575
40
0.938130976968811
40
0.941636017561871
40
0.945141058154931
40
0.948646098747992
40
0.955656179934113
40
0.959161220527174
40
0.962666261120234
40
0.966171301713295
40
0.969676342306355
40
0.973181382899416
40
0.976686423492476
40
0.980191464085537
40
0.983696504678597
40
0.987201545271658
40
0.990706585864718
40
0.994211626457778
40
0.997716667050839
40
1
40
1
40
1
40
1
41
1
10
-30
20
-15.9926656671753
30
0
41
1
10
-30
20
-15.9930575009616
30
0
41
1
10
-30
20
-15.9936130028971
30
0
41
1
10
-30
20
-15.992743696334
30
0
41
1
10
-30
20
-15.9893850921089
30
0
41
1
10
-30
20
-15.9836860314146
30
0
41
1
10
-30
20
-15.9756808210229
30
0
41
1
10
-30
20
-15.9654018084481
30
0
41
1
10
-30
20
-15.9528811264941
30
0
41
1
10
-30
20
-15.9381491278438
30
0
41
1
10
-30
20
-15.9212355486336
30
0
41
1
10
-30
20
-15.9021692443494
30
0
41
1
10
-30
20
-15.8809772874923
30
0
41
1
10
-30
20
-15.85768719628
30
0
41
1
10
-30
20
-15.8237020449635
30
0
41
1
10
-30
20
-15.786151572388
30
0
41
1
10
-30
20
-15.7440467976174
30
0
41
1
10
-30
20
-15.7106366986067
30
0
41
1
10
-30
20
-15.6752710038507
30
0
41
1
10
-30
20
-15.6253102414823
30
0
41
1
10
-30
20
-15.5722298833996
30
0
41
1
10
-30
20
-15.5146768571488
30
0
41
1
10
-30
20
-15.454635155867
30
0
41
1
10
-30
20
-15.3917322415494
30
0
41
1
10
-30
20
-15.3243986601424
30
0
41
1
10
-30
20
-15.2546726017927
30
0
41
1
10
-30
20
-15.1823145630236
30
0
41
1
10
-30
20
-15.1055630554725
30
0
41
1
10
-30
20
-15.0465122402176
30
0
41
1
10
-30
20
-14.985753516587
30
0
41
1
10
-30
20
-14.9233034368069
30
0
41
1
10
-30
20
-14.8591738020485
30
0
41
1
10
-30
20
-14.7933781380804
30
0
41
1
10
-30
20
-14.7259318150055
30
0
41
1
10
-30
20
-14.6334478809413
30
0
41
1
10
-30
20
-14.5388306139923
30
0
41
1
10
-30
20
-14.4398724968665
30
0
41
1
10
-30
20
-14.3643499358607
30
0
41
1
10
-30
20
-14.2872489988171
30
0
41
1
10
-30
20
-14.1819460940194
30
0
41
1
10
-30
20
-14.0747689624993
30
0
41
1
10
-30
20
-13.9632604256822
30
0
41
1
10
-30
20
-13.8784200007502
30
0
41
1
10
-30
20
-13.7920640526129
30
0
41
1
10
-30
20
-13.674463030797
30
0
41
1
10
-30
20
-13.5552283874056
30
0
41
1
10
-30
20
-13.4316550911985
30
0
41
1
10
-30
20
-13.337853067095
30
0
41
1
10
-30
20
-13.2425907988595
30
0
41
1
10
-30
20
-13.1131460860381
30
0
41
1
10
-30
20
-12.9822967545723
30
0
41
1
10
-30
20
-12.847084683004
30
0
41
1
10
-30
20
-12.7446351532221
30
0
41
1
10
-30
20
-12.6407746180398
30
0
41
1
10
-30
20
-12.499887311655
30
0
41
1
10
-30
20
-12.3578191289812
30
0
41
1
10
-30
20
-12.2113468162578
30
0
41
1
10
-30
20
-12.100530667573
30
0
41
1
10
-30
20
-11.9883478761207
30
0
41
1
10
-30
20
-11.836377249174
30
0
41
1
10
-30
20
-11.6834503922585
30
0
41
1
10
-30
20
-11.5260594948948
30
0
41
1
10
-30
20
-11.4071324366749
30
0
41
1
10
-30
20
-11.2868794886981
30
0
41
1
10
-30
20
-11.1241532157817
30
0
41
1
10
-30
20
-10.9607029988619
30
0
41
1
10
-30
20
-10.7927086404325
30
0
41
1
10
-30
20
-10.6229844866849
30
0
41
1
10
-30
20
-10.4091173939315
30
0
41
1
10
-30
20
-10.1909959678347
30
0
41
1
10
-30
20
-10.0126979588287
30
0
41
1
10
-30
20
-9.83272430289384
30
0
41
1
10
-30
20
-9.65245023276196
30
0
41
1
10
-30
20
-9.46744871362009
30
0
41
1
10
-30
20
-9.32804093460692
30
0
41
1
10
-30
20
-9.18740563851225
30
0
41
1
10
-30
20
-9.0455543785921
30
0
41
1
10
-30
20
-8.90249044231979
30
0
41
1
10
-30
20
-8.70931958714519
30
0
41
1
10
-30
20
-8.46674616603482
30
0
41
1
10
-30
20
-8.22021686294167
30
0
41
1
10
-30
20
-8.01906836645577
30
0
41
1
10
-30
20
-7.86773085832667
30
0
41
1
10
-30
20
-7.71524241280142
30
0
41
1
10
-30
20
-7.56161298420645
30
0
41
1
10
-30
20
-7.40685260452798
30
0
41
1
10
-30
20
-7.19804202206524
30
0
41
1
10
-30
20
-6.93651252502835
30
0
41
1
10
-30
20
-6.61705894701072
30
0
41
1
10
-30
20
-6.34834996432815
30
0
41
1
10
-30
20
-6.12929373929515
30
0
41
1
10
-30
20
-5.96484945115367
30
0
41
1
10
-30
20
-5.7993974381898
30
0
41
1
10
-30
20
-5.63295542814623
30
0
41
1
10
-30
20
-5.46554083189747
30
0
41
1
10
-30
20
-5.29717335727497
30
0
41
1
10
-30
20
-5.12787591307327
30
0
41
1
10
-30
20
-4.9576706384986
30
0
41
1
10
-30
20
-4.78658071628459
30
0
41
1
10
-30
20
-4.6146335506248
30
0
41
1
10
-30
20
-4.44186113006066
30
0
41
1
10
-30
20
-4.26829321973949
30
0
41
1
10
-30
20
-4.09396155182321
30
0
41
1
10
-30
20
-3.91890592173866
30
0
41
1
10
-30
20
-3.74316620306936
30
0
41
1
10
-30
20
-3.56678705857649
30
0
41
1
10
-30
20
-3.42015123791836
30
0
41
1
10
-30
20
-3.3009810984795
30
0
41
1
10
-30
20
-3.21216327477833
30
0
41
1
10
-30
20
-3.12322377081893
30
0
41
1
10
-30
20
-3.00356413190352
30
0
41
1
10
-30
20
-2.85589664233001
30
0
41
1
10
-30
20
-2.70788037697056
30
0
41
1
10
-30
20
-2.58749550859633
30
0
41
1
10
-30
20
-2.49793822974365
30
0
41
1
10
-30
20
-2.40833000131903
30
0
41
1
10
-30
20
-2.31867596083524
30
0
41
1
10
-30
20
-2.22899146909501
30
0
41
1
10
-30
20
-2.10827328924756
30
0
41
1
10
-30
20
-1.99097459417121
30
0
41
1
10
-30
20
-1.87012467714985
30
0
41
1
10
-30
20
-1.78043031683035
30
0
41
1
10
-30
20
-1.69076251244053
30
0
41
1
10
-30
20
-1.60113247848605
30
0
41
1
10
-30
20
-1.51155313609783
30
0
41
1
10
-30
20
-1.422025757727
30
0
41
1
10
-30
20
-1.33256776537959
30
0
41
1
10
-30
20
-1.24317741509074
30
0
41
1
10
-30
20
-1.15386860885192
30
0
41
1
10
-30
20
-1.06464013673647
30
0
41
1
10
-30
20
-0.975500136218244
30
0
41
1
10
-30
20
-0.886447988926847
30
0
41
1
10
-30
20
-0.797485776681128
30
0
41
1
10
-30
20
-0.708610852102623
30
0
41
1
10
-30
20
-0.61982073744278
30
0
41
1
10
-30
20
-0.531109764951225
30
0
41
1
10
-30
20
-0.442471434007643
30
0
41
1
10
-30
20
-0.35389600796347
30
0
41
1
10
-30
20
-0.265373879214224
30
0
41
1
10
-30
20
-0.176892371692162
30
0
41
1
10
-30
20
-0.0884392148653887
30
0
41
1
10
-30
20
-2.04973958E-08
30
0
41
1
10
-30
20
0.0884392031952927
30
0
41
1
10
-30
20
0.17689241471993
30
0
41
1
10
-30
20
0.265373915570137
30
0
41
1
10
-30
20
0.353895962579486
30
0
41
1
10
-30
20
0.442471374506823
30
0
41
1
10
-30
20
0.531109813902646
30
0
41
1
10
-30
20
0.61982082298212
30
0
41
1
10
-30
20
0.70861080655007
30
0
41
1
10
-30
20
0.797485667180155
30
0
41
1
10
-30
20
0.886448026006832
30
0
41
1
10
-30
20
0.97550027278379
30
0
41
1
10
-30
20
1.06464012636249
30
0
41
1
10
-30
20
1.1538684580087
30
0
41
1
10
-30
20
1.24317738635406
30
0
41
1
10
-30
20
1.33256791795026
30
0
41
1
10
-30
20
1.42202585063245
30
0
41
1
10
-30
20
1.5115530207047
30
0
41
1
10
-30
20
1.60113232466117
30
0
41
1
10
-30
20
1.69076256252157
30
0
41
1
10
-30
20
1.78043050963589
30
0
41
1
10
-30
20
1.87012473193457
30
0
41
1
10
-30
20
1.95984062320625
30
0
41
1
10
-30
20
2.04956121840738
30
0
41
1
10
-30
20
2.13928298465069
30
0
41
1
10
-30
20
2.22899154181988
30
0
41
1
10
-30
20
2.34971237639814
30
0
41
1
10
-30
20
2.4670581044816
30
0
41
1
10
-30
20
2.58749567267543
30
0
41
1
10
-30
20
2.70788056755165
30
0
41
1
10
-30
20
2.85589666602098
30
0
41
1
10
-30
20
3.00356394920902
30
0
41
1
10
-30
20
3.12322374659235
30
0
41
1
10
-30
20
3.21216341650842
30
0
41
1
10
-30
20
3.3009812939207
30
0
41
1
10
-30
20
3.4201512431562
30
0
41
1
10
-30
20
3.56678672363679
30
0
41
1
10
-30
20
3.74316585626101
30
0
41
1
10
-30
20
3.91890584757377
30
0
41
1
10
-30
20
4.09396100129445
30
0
41
1
10
-30
20
4.26829259541552
30
0
41
1
10
-30
20
4.44186183082067
30
0
41
1
10
-30
20
4.61463414914383
30
0
41
1
10
-30
20
4.78658021025493
30
0
41
1
10
-30
20
4.95767123056282
30
0
41
1
10
-30
20
5.1278778625566
30
0
41
1
10
-30
20
5.29717415068043
30
0
41
1
10
-30
20
5.46553992297879
30
0
41
1
10
-30
20
5.63295448869491
30
0
41
1
10
-30
20
5.79939725011727
30
0
41
1
10
-30
20
5.96484950556561
30
0
41
1
10
-30
20
6.1292936535483
30
0
41
1
10
-30
20
6.34834993475852
30
0
41
1
10
-30
20
6.6170590196507
30
0
41
1
10
-30
20
6.93651248001379
30
0
41
1
10
-30
20
7.19804203228608
30
0
41
1
10
-30
20
7.40685270744595
30
0
41
1
10
-30
20
7.56161297986856
30
0
41
1
10
-30
20
7.71524232371232
30
0
41
1
10
-30
20
7.86773082006812
30
0
41
1
10
-30
20
8.01906843480592
30
0
41
1
10
-30
20
8.22021692135615
30
0
41
1
10
-30
20
8.46674612315107
30
0
41
1
10
-30
20
8.7093195790371
30
0
41
1
10
-30
20
8.90249052457438
30
0
41
1
10
-30
20
9.04555441784282
30
0
41
1
10
-30
20
9.18740560593943
30
0
41
1
10
-30
20
9.32804088163152
30
0
41
1
10
-30
20
9.46744870809565
30
0
41
1
10
-30
20
9.65245029192155
30
0
41
1
10
-30
20
9.83272433616031
30
0
41
1
10
-30
20
10.0126979221092
30
0
41
1
10
-30
20
10.1909959517429
30
0
41
1
10
-30
20
10.4091174330404
30
0
41
1
10
-30
20
10.6229845090751
30
0
41
1
10
-30
20
10.7927086151923
30
0
41
1
10
-30
20
10.9607029915804
30
0
41
1
10
-30
20
11.1241532476502
30
0
41
1
10
-30
20
11.286879520772
30
0
41
1
10
-30
20
11.4071324437642
30
0
41
1
10
-30
20
11.526059483736
30
0
41
1
10
-30
20
11.6834503898541
30
0
41
1
10
-30
20
11.8363772717575
30
0
41
1
10
-30
20
11.9883479026383
30
0
41
1
10
-30
20
12.100530681097
30
0
41
1
10
-30
20
12.211346817793
30
0
41
1
10
-30
20
12.3578191303265
30
0
41
1
10
-30
20
12.4998873251013
30
0
41
1
10
-30
20
12.640774639564
30
0
41
1
10
-30
20
12.7446351726738
30
0
41
1
10
-30
20
12.8470846962099
30
0
41
1
10
-30
20
12.9822967603461
30
0
41
1
10
-30
20
13.1131460918651
30
0
41
1
10
-30
20
13.2425908150843
30
0
41
1
10
-30
20
13.3378530905647
30
0
41
1
10
-30
20
13.431655102243
30
0
41
1
10
-30
20
13.5552284439381
30
0
41
1
10
-30
20
13.6744629632361
30
0
41
1
10
-30
20
13.7920640428987
30
0
41
1
10
-30
20
13.8638084100541
30
0
41
1
10
-30
20
13.9208384799595
30
0
41
1
10
-30
20
13.9773600368974
30
0
41
1
10
-30
20
14.0747689786766
30
0
41
1
10
-30
20
14.1819460903518
30
0
41
1
10
-30
20
14.2872490063531
30
0
41
1
10
-30
20
14.3643499644422
30
0
41
1
10
-30
20
14.4398725346097
30
0
41
1
10
-30
20
14.5388306330265
30
0
41
1
10
-30
20
14.6334478734244
30
0
41
1
10
-30
20
14.7259318226356
30
0
41
1
10
-30
20
14.793378171537
30
0
41
1
10
-30
20
14.8591738437125
30
0
41
1
10
-30
20
14.9233034607296
30
0
41
1
10
-30
20
14.9857535133679
30
0
41
1
10
-30
20
15.0465122321639
30
0
41
1
10
-30
20
15.1055630695376
30
0
41
1
10
-30
20
15.1823146060513
30
0
41
1
10
-30
20
15.2546726312332
30
0
41
1
10
-30
20
15.3243986497297
30
0
41
1
10
-30
20
15.3917322452796
30
0
41
1
10
-30
20
15.4546352005829
30
0
41
1
10
-30
20
15.5146768877911
30
0
41
1
10
-30
20
15.5722298782127
30
0
41
1
10
-30
20
15.6253102421943
30
0
41
1
10
-30
20
15.6752710489662
30
0
41
1
10
-30
20
15.7106367362118
30
0
41
1
10
-30
20
15.7440468008705
30
0
41
1
10
-30
20
15.7861515665346
30
0
41
1
10
-30
20
15.8237020814765
30
0
41
1
10
-30
20
15.8576872273509
30
0
41
1
10
-30
20
15.8809772969169
30
0
41
1
10
-30
20
15.9021692417172
30
0
41
1
10
-30
20
15.921235563756
30
0
41
1
10
-30
20
15.9381491696965
30
0
41
1
10
-30
20
15.9528811556007
30
0
41
1
10
-30
20
15.9654018081648
30
0
41
1
10
-30
20
15.9756808201301
30
0
41
1
10
-30
20
15.9836860510364
30
0
41
1
10
-30
20
15.989385071505
30
0
41
1
10
-30
20
15.992743547039
30
0
41
1
10
-30
20
15.9936126275691
30
0
41
1
10
-30
20
15.993057694421
30
0
41
1
10
-30
20
15.9926664735786
30
0
0
SPLINE
5
1A1
100
AcDbEntity
8
1
62
256
6
ByLayer
370
18
48
1
60
0
100
AcDbSpline
70
4
71
3
72
8
73
4
40
0
40
0
40
0
40
0
40
1
40
1
40
1
40
1
41
1
10
17.4303191742212
20
9.54516355042341
30
0
41
1
10
17.4310118054576
20
9.52506535490917
30
0
41
1
10
17.4317115027219
20
9.50490524717873
30
0
41
1
10
17.432417034389
20
9.48468592545379
30
0
0
SPLINE
5
1A2
100
AcDbEntity
8
1
62
256
6
ByLayer
370
18
48
1
60
0
100
AcDbSpline
70
4
71
2
72
8
73
5
40
0
40
0
40
0
40
0.515448371397303
40
0.773172557095954
40
1
40
1
40
1
41
1.02613459695995
10
37.417843041138
20
-8.58343523107816
30
0
41
1.02613459695995
10
36.4856249565099
20
-8.29871990099675
30
0
41
1.02613459695995
10
34.9994042489059
20
-8.58846972442977
30
0
41
1.02613459695995
10
34.0739877735121
20
-9.0140838377691
30
0
41
1.02613459695995
10
33.6683337876629
20
-9.30223380069259
30
0
0
SPLINE
5
1A3
100
AcDbEntity
8
1
62
256
6
ByLayer
370
18
48
1
60
0
100
AcDbSpline
70
4
71
2
72
8
73
5
40
0
40
0
40
0
40
0.532494298525608
40
0.798741447788412
40
1
40
1
40
1
41
1.02613459695995
10
32.6212333309349
20
-25.9195919340265
30
0
41
1.02613459695995
10
31.6897473256161
20
-25.6322306847662
30
0
41
1.02613459695995
10
30.583998738152
20
-24.5468583501847
30
0
41
1.02613459695995
10
30.0577744135711
20
-23.7225374510928
30
0
41
1.02613459695995
10
29.8818314553744
20
-23.3238530131463
30
0
0
SPLINE
5
1A4
100
AcDbEntity
8
1
62
256
6
ByLayer
370
18
48
1
60
0
100
AcDbSpline
70
4
71
3
72
8
73
4
40
0
40
0
40
0
40
0
40
1
40
1
40
1
40
1
41
1
10
22.3759345013093
20
-30.4228317481815
30
0
41
1
10
22.3758398108214
20
-30.4228317481815
30
0
41
1
10
22.4073646519243
20
-30.4228317481827
30
0
41
1
10
22.4716950759645
20
-30.4228317481853
30
0
0
SPLINE
5
1A5
100
AcDbEntity
8
1
62
256
6
ByLayer
370
18
48
1
60
0
100
AcDbSpline
70
4
71
2
72
6
73
3
40
0
40
0
40
0
40
1
40
1
40
1
41
1.02613459695995
10
29.9491651296524
20
-8.57546468303765
30
0
41
0.915071119881323
10
30.6354468444969
20
-8.72905665990865
30
0
41
0.886091712434506
10
31.0446369814989
20
-9.46758953951064
30
0
0
SPLINE
5
1A6
100
AcDbEntity
8
1
62
256
6
ByLayer
370
18
48
1
60
0
100
AcDbSpline
70
4
71
3
72
8
73
4
40
0
40
0
40
0
40
0
40
1
40
1
40
1
40
1
41
1
10
50.2921348750642
20
-15.2646721191168
30
0
41
1
10
50.2594297759616
20
-15.3077281964348
30
0
41
1
10
50.2261283906462
20
-15.3506693918615
30
0
41
1
10
50.1921859907073
20
-15.3934653867745
30
0
0
SPLINE
5
1A7
100
AcDbEntity
8
1
62
256
6
ByLayer
370
18
48
1
60
0
100
AcDbSpline
70
4
71
2
72
6
73
3
40
0
40
0
40
0
40
1
40
1
40
1
41
0.896949445979719
10
28.57789747471
20
-8.72619164817275
30
0
41
0.932155372308629
10
29.203433846433
20
-8.4085677083307
30
0
41
1.02613459695995
10
29.7735056511898
20
-8.53615154679981
30
0
0
SPLINE
5
1A8
100
AcDbEntity
8
1
62
256
6
ByLayer
370
18
48
1
60
0
100
AcDbSpline
70
4
71
3
72
16
73
12
40
0
40
0
40
0
40
0
40
0.111430279628052
40
0.111430279628052
40
0.248747543515474
40
0.248747543515474
40
0.465535329195271
40
0.465535329195271
40
0.883855351867598
40
0.883855351867598
40
1
40
1
40
1
40
1
41
1
10
11.4613248654052
20
23.8391299750503
30
0
41
1
10
11.4891847159942
20
23.8391299750503
30
0
41
1
10
11.5173911427755
20
23.8375361275706
30
0
41
1
10
11.5758492032393
20
23.831150658589
30
0
41
1
10
11.6060413892306
20
23.825666877018
30
0
41
1
10
11.6751537543576
20
23.8089605749788
30
0
41
1
10
11.7107854085705
20
23.796037970776
30
0
41
1
10
11.798993890746
20
23.7556824246832
30
0
41
1
10
11.8397320068509
20
23.7250165399981
30
0
41
1
10
11.8792917015268
20
23.6845451449633
30
0
41
1
10
11.8871615985731
20
23.6755726082078
30
0
41
1
10
11.8943375672975
20
23.6665017920809
30
0
0
SPLINE
5
1A9
100
AcDbEntity
8
1
62
256
6
ByLayer
370
18
48
1
60
0
100
AcDbSpline
70
4
71
3
72
12
73
8
40
0
40
0
40
0
40
0
40
0.266167570768119
40
0.266167570768119
40
0.532335077663605
40
0.532335077663605
40
1
40
1
40
1
40
1
41
1
10
32.9124021493112
20
-4.53198939865226
30
0
41
1
10
32.9364519451301
20
-4.52516145669745
30
0
41
1
10
32.9605337678865
20
-4.51844534446815
30
0
41
1
10
33.0087579357514
20
-4.50523613749414
30
0
41
1
10
33.0329007956609
20
-4.49874290131672
30
0
41
1
10
33.0995425657367
20
-4.48114712099832
30
0
41
1
10
33.142104216629
20
-4.47027570163255
30
0
41
1
10
33.1847483288144
20
-4.45974413779791
30
0
0
SPLINE
5
1AA
100
AcDbEntity
8
1
62
256
6
ByLayer
370
18
48
1
60
0
100
AcDbSpline
70
4
71
3
72
16
73
12
40
0
40
0
40
0
40
0
40
0.461208588217066
40
0.461208588217066
40
0.643534962278522
40
0.643534962278522
40
0.828408472975271
40
0.828408472975271
40
0.943003644159981
40
0.943003644159981
40
1
40
1
40
1
40
1
41
1
10
11.8943375672974
20
8.05584836782774
30
0
41
1
10
11.8660503915152
20
7.95080268681445
30
0
41
1
10
11.8273339192908
20
7.84628670970801
30
0
41
1
10
11.7473160248315
20
7.71442469145123
30
0
41
1
10
11.7212784637477
20
7.67825379650728
30
0
41
1
10
11.6606543989164
20
7.61290523367228
30
0
41
1
10
11.6251722226874
20
7.58305923051407
30
0
41
1
10
11.5599225851958
20
7.54855881865589
30
0
41
1
10
11.5324782774944
20
7.5385201810229
30
0
41
1
10
11.4901684747699
20
7.53097042135255
30
0
41
1
10
11.4757173930754
20
7.5296667942647
30
0
41
1
10
11.4613248654053
20
7.5296667942647
30
0
0
SPLINE
5
1AB
100
AcDbEntity
8
1
62
256
6
ByLayer
370
18
48
1
60
0
100
AcDbSpline
70
4
71
3
72
8
73
4
40
0
40
0
40
0
40
0
40
1
40
1
40
1
40
1
41
1
10
20.9609847588647
20
24.6427113305059
30
0
41
1
10
20.9475812745097
20
24.5913467317342
30
0
41
1
10
20.934183755441
20
24.5399825588158
30
0
41
1
10
20.92079238
20
24.4886190390076
30
0
0
SPLINE
5
1AC
100
AcDbEntity
8
1
62
256
6
ByLayer
370
18
48
1
60
0
100
AcDbSpline
70
4
71
3
72
16
73
12
40
0
40
0
40
0
40
0
40
0.111430279628047
40
0.111430279628047
40
0.248747543515467
40
0.248747543515467
40
0.465535329195252
40
0.465535329195252
40
0.883855351867553
40
0.883855351867553
40
1
40
1
40
1
40
1
41
1
10
8.53867513459483
20
7.52966679426501
30
0
41
1
10
8.51081528400579
20
7.52966679426501
30
0
41
1
10
8.48260885722448
20
7.53471706780857
30
0
41
1
10
8.42415079676073
20
7.55489210221029
30
0
41
1
10
8.39395861076943
20
7.57218953888446
30
0
41
1
10
8.32484624564245
20
7.62460019394089
30
0
41
1
10
8.28921459142956
20
7.66489294253907
30
0
41
1
10
8.201006109254
20
7.78941367630352
30
0
41
1
10
8.16026799314912
20
7.88247511004147
30
0
41
1
10
8.12070829847318
20
8.00269269538009
30
0
41
1
10
8.11283840142687
20
8.02920008991578
30
0
41
1
10
8.10566243270245
20
8.05584836782771
30
0
0
SPLINE
5
1AD
100
AcDbEntity
8
1
62
256
6
ByLayer
370
18
48
1
60
0
100
AcDbSpline
70
4
71
3
72
8
73
4
40
0
40
0
40
0
40
0
40
1
40
1
40
1
40
1
41
1
10
50.6181496426424
20
-15.5060967688314
30
0
41
1
10
50.5095497394164
20
-15.42560311946
30
0
41
1
10
50.4008771974023
20
-15.3451284849502
30
0
41
1
10
50.2921348750642
20
-15.2646721191169
30
0
0
SPLINE
5
1AE
100
AcDbEntity
8
1
62
256
6
ByLayer
370
18
48
1
60
0
100
AcDbSpline
70
4
71
3
72
8
73
4
40
0
40
0
40
0
40
0
40
1
40
1
40
1
40
1
41
1
10
22.4716950759645
20
-30.4228317481853
30
0
41
1
10
22.3367125069455
20
-29.9043331855633
30
0
41
1
10
22.2019499485629
20
-29.3857747050484
30
0
41
1
10
22.0674431819644
20
-28.8671469430067
30
0
0
SPLINE
5
1AF
100
AcDbEntity
8
1
62
256
6
ByLayer
370
18
48
1
60
0
100
AcDbSpline
70
4
71
3
72
10
73
6
40
0
40
0
40
0
40
0
40
0.420519290906198
40
0.420519290906198
40
1
40
1
40
1
40
1
41
1
10
11.4613248654052
20
13.6906253919194
30
0
41
1
10
11.5453800896752
20
13.7543887310852
30
0
41
1
10
11.6221668639081
20
13.8387345203577
30
0
41
1
10
11.7759013620284
20
14.060958439368
30
0
41
1
10
11.8455749346608
20
14.2106220260311
30
0
41
1
10
11.8943375672975
20
14.3682408325643
30
0
0
SPLINE
5
1B0
100
AcDbEntity
8
1
62
256
6
ByLayer
370
18
48
1
60
0
100
AcDbSpline
70
4
71
2
72
6
73
3
40
0
40
0
40
0
40
1
40
1
40
1
41
1.02613459695995
10
37.417843041138
20
-8.58343523107816
30
0
41
0.893236016722495
10
37.8007133327167
20
-7.19964547691217
30
0
41
0.877869681319409
10
37.5607763957638
20
-6.01232355516913
30
0
0
SPLINE
5
1B1
100
AcDbEntity
8
1
62
256
6
ByLayer
370
18
48
1
60
0
100
AcDbSpline
70
4
71
3
72
12
73
8
40
0
40
0
40
0
40
0
40
0.323508446938394
40
0.323508446938394
40
0.6617429051777
40
0.6617429051777
40
1
40
1
40
1
40
1
41
1
10
26.9007033808304
20
-27.554652690224
30
0
41
1
10
26.9196797124258
20
-27.5705205590689
30
0
41
1
10
26.9387188538066
20
-27.5863130499046
30
0
41
1
10
26.9777902460497
20
-27.6184614696421
30
0
41
1
10
26.997828581073
20
-27.6348105945939
30
0
41
1
10
27.038040138991
20
-27.6673430469915
30
0
41
1
10
27.0582137070485
20
-27.6835266353174
30
0
41
1
10
27.0784532371494
20
-27.6996264115639
30
0
0
SPLINE
5
1B2
100
AcDbEntity
8
1
62
256
6
ByLayer
370
18
48
1
60
0
100
AcDbSpline
70
4
71
2
72
6
73
3
40
0
40
0
40
0
40
1
40
1
40
1
41
1.02613459695995
10
26.0428092099207
20
-22.0198289824263
30
0
41
0.89985140491889
10
25.2492839375132
20
-21.8422355646651
30
0
41
0.879690707476063
10
24.8386891678713
20
-20.9078406422072
30
0
0
SPLINE
5
1B3
100
AcDbEntity
8
1
62
256
6
ByLayer
370
18
48
1
60
0
100
AcDbSpline
70
4
71
3
72
8
73
4
40
0
40
0
40
0
40
0
40
1
40
1
40
1
40
1
41
1
10
33.1847483293718
20
-4.45974413766024
30
0
41
1
10
33.9048415479098
20
-4.28190698014853
30
0
41
1
10
34.6590124754502
20
-4.2605405511745
30
0
41
1
10
35.3728477644863
20
-4.41923832877941
30
0
0
SPLINE
5
1B4
100
AcDbEntity
8
1
62
256
6
ByLayer
370
18
48
1
60
0
100
AcDbSpline
70
4
71
3
72
16
73
12
40
0
40
0
40
0
40
0
40
0.461208588217088
40
0.461208588217088
40
0.643534962278544
40
0.643534962278544
40
0.82840847297529
40
0.82840847297529
40
0.943003644159989
40
0.943003644159989
40
1
40
1
40
1
40
1
41
1
10
8.10566243270262
20
-8.05584836782774
30
0
41
1
10
8.13394960848487
20
-7.95080268681445
30
0
41
1
10
8.17266608070923
20
-7.84628670970801
30
0
41
1
10
8.25268397516848
20
-7.71442469145123
30
0
41
1
10
8.27872153625231
20
-7.67825379650728
30
0
41
1
10
8.33934560108361
20
-7.61290523367228
30
0
41
1
10
8.37482777731262
20
-7.5830592305141
30
0
41
1
10
8.44007741480422
20
-7.54855881865589
30
0
41
1
10
8.46752172250564
20
-7.5385201810229
30
0
41
1
10
8.50983152523006
20
-7.53097042135255
30
0
41
1
10
8.5242826069246
20
-7.52966679426473
30
0
41
1
10
8.53867513459474
20
-7.52966679426473
30
0
0
SPLINE
5
1B5
100
AcDbEntity
8
1
62
256
6
ByLayer
370
18
48
1
60
0
100
AcDbSpline
70
4
71
2
72
11
73
8
40
0
40
0
40
0
40
0.0079111859457808
40
0.305537830162047
40
0.50395559297289
40
0.702373355783734
40
0.801582237189156
40
1
40
1
40
1
41
1.02613459695995
10
26.7246193124082
20
-27.4036583979024
30
0
41
1.02613459695995
10
26.7125608305461
20
-27.3851117289738
30
0
41
1.02613459695995
10
26.251080265636
20
-26.6622107599184
30
0
41
1.02613459695995
10
25.8338993384655
20
-25.2009948552713
30
0
41
1.02613459695995
10
25.7620412289207
20
-23.6437069958046
30
0
41
1.02613459695995
10
25.8276385452787
20
-23.0855069198097
30
0
41
1.02613459695995
10
25.9249211285963
20
-22.4460640781226
30
0
41
1.02613459695995
10
26.0428092099207
20
-22.0198289824263
30
0
0
SPLINE
5
1B6
100
AcDbEntity
8
1
62
256
6
ByLayer
370
18
48
1
60
0
100
AcDbSpline
70
4
71
3
72
16
73
12
40
0
40
0
40
0
40
0
40
0.238664520516886
40
0.238664520516886
40
0.477243676809563
40
0.477243676809563
40
0.717175962218134
40
0.717175962218134
40
0.962955965218023
40
0.962955965218023
40
1
40
1
40
1
40
1
41
1
10
20.92079238
20
-24.4886190390076
30
0
41
1
10
20.4840916723798
20
-24.4774472754172
30
0
41
1
10
20.0509926695775
20
-24.4509610891805
30
0
41
1
10
19.26391515033
20
-24.3656718780195
30
0
41
1
10
18.8991880574146
20
-24.3054862317241
30
0
41
1
10
18.2835116525487
20
-24.1494135952404
30
0
41
1
10
18.0249815792796
20
-24.0510028626091
30
0
41
1
10
17.6392199403027
20
-23.8174123097642
30
0
41
1
10
17.5100639463551
20
-23.6782359586606
30
0
41
1
10
17.4432353915025
20
-23.5027996833027
30
0
41
1
10
17.4359824174511
20
-23.4792306731536
30
0
41
1
10
17.4303191742212
20
-23.4553549429959
30
0
0
SPLINE
5
1B7
100
AcDbEntity
8
1
62
256
6
ByLayer
370
18
48
1
60
0
100
AcDbSpline
70
4
71
2
72
6
73
3
40
0
40
0
40
0
40
1
40
1
40
1
41
1
10
26.130638949152
20
-22.0394855505452
30
0
41
1
10
26.0867240795363
20
-22.0296572664857
30
0
41
1
10
26.0428092099207
20
-22.0198289824263
30
0
0
SPLINE
5
1B8
100
AcDbEntity
8
1
62
256
6
ByLayer
370
18
48
1
60
0
100
AcDbSpline
70
4
71
2
72
6
73
3
40
0
40
0
40
0
40
1
40
1
40
1
41
1
10
26.2184686883833
20
-22.0591421186641
30
0
41
1
10
26.1745538187677
20
-22.0493138346047
30
0
41
1
10
26.130638949152
20
-22.0394855505452
30
0
0
SPLINE
5
1B9
100
AcDbEntity
8
1
62
256
6
ByLayer
370
18
48
1
60
0
100
AcDbSpline
70
4
71
3
72
16
73
12
40
0
40
0
40
0
40
0
40
0.461208588217094
40
0.461208588217094
40
0.643534962278546
40
0.643534962278546
40
0.828408472975285
40
0.828408472975285
40
0.943003644159988
40
0.943003644159988
40
1
40
1
40
1
40
1
41
1
10
8.10566243270262
20
23.6665017920809
30
0
41
1
10
8.13394960848487
20
23.7022583261632
30
0
41
1
10
8.17266608070923
20
23.7370095736338
30
0
41
1
10
8.25268397516848
20
23.7800170858174
30
0
41
1
10
8.27872153625233
20
23.7917125768793
30
0
41
1
10
8.33934560108361
20
23.8127037684951
30
0
41
1
10
8.37482777731262
20
23.8222104320954
30
0
41
1
10
8.44007741480422
20
23.8331586856493
30
0
41
1
10
8.46752172250564
20
23.836332378473
30
0
41
1
10
8.50983152523006
20
23.8387183279986
30
0
41
1
10
8.5242826069246
20
23.8391299750505
30
0
41
1
10
8.53867513459474
20
23.8391299750505
30
0
0
SPLINE
5
1BA
100
AcDbEntity
8
1
62
256
6
ByLayer
370
18
48
1
60
0
100
AcDbSpline
70
4
71
3
72
16
73
12
40
0
40
0
40
0
40
0
40
0.11143027962805
40
0.11143027962805
40
0.248747543515472
40
0.248747543515472
40
0.465535329195252
40
0.465535329195252
40
0.88385535186756
40
0.88385535186756
40
1
40
1
40
1
40
1
41
1
10
8.5386751345948
20
-23.8391299750503
30
0
41
1
10
8.51081528400579
20
-23.8391299750503
30
0
41
1
10
8.48260885722448
20
-23.8375361275706
30
0
41
1
10
8.4241507967607
20
-23.831150658589
30
0
41
1
10
8.39395861076943
20
-23.825666877018
30
0
41
1
10
8.32484624564245
20
-23.8089605749788
30
0
41
1
10
8.28921459142956
20
-23.796037970776
30
0
41
1
10
8.201006109254
20
-23.7556824246832
30
0
41
1
10
8.16026799314912
20
-23.7250165399981
30
0
41
1
10
8.1207082984732
20
-23.6845451449633
30
0
41
1
10
8.11283840142687
20
-23.6755726082077
30
0
41
1
10
8.10566243270245
20
-23.6665017920809
30
0
0
SPLINE
5
1BB
100
AcDbEntity
8
1
62
256
6
ByLayer
370
18
48
1
60
0
100
AcDbSpline
70
4
71
1
72
4
73
2
40
0
40
0
40
1
40
1
41
1
10
29.8613353904211
20
-8.55580811491873
30
0
41
1
10
29.7735056511898
20
-8.5361515467998
30
0
0
SPLINE
5
1BC
100
AcDbEntity
8
1
62
256
6
ByLayer
370
18
48
1
60
0
100
AcDbSpline
70
4
71
3
72
10
73
6
40
0
40
0
40
0
40
0
40
0.5
40
0.5
40
1
40
1
40
1
40
1
41
1
10
28.5778078935766
20
-8.72623713638194
30
0
41
1
10
28.8714555516154
20
-7.77008832407847
30
0
41
1
10
29.4509121935428
20
-6.93787561401064
30
0
41
1
10
30.8094376719765
20
-5.49418504104571
30
0
41
1
10
31.6712508632451
20
-4.92780163124706
30
0
41
1
10
32.6375609770978
20
-4.61538282506478
30
0
0
SPLINE
5
1BD
100
AcDbEntity
8
1
62
256
6
ByLayer
370
18
48
1
60
0
100
AcDbSpline
70
4
71
3
72
8
73
4
40
0
40
0
40
0
40
0
40
1
40
1
40
1
40
1
41
1
10
27.0784532396589
20
-27.6996264135601
30
0
41
1
10
28.2877216369601
20
-28.6615534201569
30
0
41
1
10
30.0010363637692
20
-28.9238423940631
30
0
41
1
10
31.4076981258416
20
-28.2510995944148
30
0
0
SPLINE
5
1BE
100
AcDbEntity
8
1
62
256
6
ByLayer
370
18
48
1
60
0
100
AcDbSpline
70
4
71
3
72
8
73
4
40
0
40
0
40
0
40
0
40
1
40
1
40
1
40
1
41
1
10
22.0674431819644
20
-28.8671469430067
30
0
41
1
10
21.9893294959274
20
-28.5659581835213
30
0
41
1
10
21.911482859986
20
-28.2650398935924
30
0
41
1
10
21.8339278941853
20
-27.9643875647149
30
0
0
SPLINE
5
1BF
100
AcDbEntity
8
1
62
256
6
ByLayer
370
18
48
1
60
0
100
AcDbSpline
70
4
71
3
72
14
73
10
40
0
40
0
40
0
40
0
40
0.25714677776588
40
0.25714677776588
40
0.515043459777445
40
0.515043459777445
40
0.762218147059629
40
0.762218147059629
40
1
40
1
40
1
40
1
41
1
10
17.4303191742212
20
23.4553549429959
30
0
41
1
10
17.4691434490962
20
23.6190346355062
30
0
41
1
10
17.5852680371713
20
23.7696203769467
30
0
41
1
10
17.9643662295079
20
24.0254564367266
30
0
41
1
10
18.233500730627
20
24.1343161849438
30
0
41
1
10
18.8755030997166
20
24.301589819967
30
0
41
1
10
19.2526493539829
20
24.3645598084091
30
0
41
1
10
20.053239606227
20
24.4510990768829
30
0
41
1
10
20.4852178413433
20
24.4774760852936
30
0
41
1
10
20.92079238
20
24.4886190390076
30
0
0
SPLINE
5
1C0
100
AcDbEntity
8
1
62
256
6
ByLayer
370
18
48
1
60
0
100
AcDbSpline
70
4
71
1
72
4
73
2
40
0
40
0
40
1
40
1
41
1
10
29.9491651296524
20
-8.57546468303764
30
0
41
1
10
29.8613353904211
20
-8.55580811491873
30
0
0
SPLINE
5
1C1
100
AcDbEntity
8
1
62
256
6
ByLayer
370
18
48
1
60
0
100
AcDbSpline
70
4
71
2
72
10
73
7
40
0
40
0
40
0
40
0.293351560286082
40
0.495251114490058
40
0.697150668694035
40
0.798100445796023
40
1
40
1
40
1
41
1
10
33.1847483293718
20
-4.45974413766024
30
0
41
1
10
32.4720157535146
20
-4.79650500849112
30
0
41
1
10
31.3955061184107
20
-5.77413666351723
30
0
41
1
10
30.5406086042017
20
-7.04695061428643
30
0
41
1
10
30.3112276950445
20
-7.55487620838994
30
0
41
1
10
30.0671337221558
20
-8.14925430079242
30
0
41
1
10
29.9491651296524
20
-8.57546468303764
30
0
0
SPLINE
5
1C2
100
AcDbEntity
8
1
62
256
6
ByLayer
370
18
48
1
60
0
100
AcDbSpline
70
4
71
3
72
12
73
8
40
0
40
0
40
0
40
0
40
0.319932024559137
40
0.319932024559137
40
0.659954131885525
40
0.659954131885525
40
1
40
1
40
1
40
1
41
1
10
26.7246193123337
20
-27.403658397728
30
0
41
1
10
26.7431973549019
20
-27.4199944291988
30
0
41
1
10
26.7618402844882
20
-27.4362563373931
30
0
41
1
10
26.8004287140515
20
-27.4696470077531
30
0
41
1
10
26.8203828349837
20
-27.4867663736491
30
0
41
1
10
26.860435319046
20
-27.52083634635
30
0
41
1
10
26.8805340418707
20
-27.5377872387814
30
0
41
1
10
26.9007033802951
20
-27.5546526911532
30
0
0
SPLINE
5
1C3
100
AcDbEntity
8
1
62
256
6
ByLayer
370
18
48
1
60
0
100
AcDbSpline
70
4
71
3
72
10
73
6
40
0
40
0
40
0
40
0
40
0.60834142572423
40
0.60834142572423
40
1
40
1
40
1
40
1
41
1
10
51.5279514274058
20
-16.1438455272342
30
0
41
1
10
51.342871038805
20
-16.0062792254042
30
0
41
1
10
51.1575612635649
20
-15.8687729627638
30
0
41
1
10
50.8525956287171
20
-15.6428301340916
30
0
41
1
10
50.7330647048382
20
-15.5543608594968
30
0
41
1
10
50.6134491223723
20
-15.4659137493799
30
0
0
SPLINE
5
1C4
100
AcDbEntity
8
1
62
256
6
ByLayer
370
18
48
1
60
0
100
AcDbSpline
70
4
71
3
72
12
73
8
40
0
40
0
40
0
40
0
40
0.478559333125361
40
0.478559333125361
40
0.965484069864236
40
0.965484069864236
40
1
40
1
40
1
40
1
41
1
10
37.5607763957638
20
-6.01232355516916
30
0
41
1
10
37.3159405574994
20
-5.64742034123029
30
0
41
1
10
37.0062475401534
20
-5.31962766040812
30
0
41
1
10
36.2994095356219
20
-4.78787382243254
30
0
41
1
10
35.8907627605372
20
-4.57958306353612
30
0
41
1
10
35.4343223447064
20
-4.43721427543844
30
0
41
1
10
35.4036371043787
20
-4.42804375058529
30
0
41
1
10
35.3728477644862
20
-4.41923832877941
30
0
0
SPLINE
5
1C5
100
AcDbEntity
8
1
62
256
6
ByLayer
370
18
48
1
60
0
100
AcDbSpline
70
4
71
3
72
8
73
4
40
0
40
0
40
0
40
0
40
1
40
1
40
1
40
1
41
1
10
20.92079238
20
-24.4886190390076
30
0
41
1
10
21.0847242867994
20
-25.1173908764621
30
0
41
1
10
21.2495887675166
20
-25.7463335276432
30
0
41
1
10
21.4150979665882
20
-26.3750235579347
30
0
0
SPLINE
5
1C6
100
AcDbEntity
8
1
62
256
6
ByLayer
370
18
48
1
60
0
100
AcDbSpline
70
4
71
3
72
12
73
8
40
0
40
0
40
0
40
0
40
0.261116579402757
40
0.261116579402757
40
0.522233100637508
40
0.522233100637508
40
1
40
1
40
1
40
1
41
1
10
32.6375609832352
20
-4.61538282151454
30
0
41
1
10
32.6613488854872
20
-4.60769192819814
30
0
41
1
10
32.6851736997369
20
-4.60011429189726
30
0
41
1
10
32.7328934997897
20
-4.58518523019123
30
0
41
1
10
32.7567890212335
20
-4.57783363860341
30
0
41
1
10
32.8245009166696
20
-4.55735015242055
30
0
41
1
10
32.8683991664611
20
-4.54448222016742
30
0
41
1
10
32.912402149241
20
-4.53198939842008
30
0
0
SPLINE
5
1C7
100
AcDbEntity
8
1
62
256
6
ByLayer
370
18
48
1
60
0
100
AcDbSpline
70
4
71
3
72
10
73
6
40
0
40
0
40
0
40
0
40
0.578104426482813
40
0.578104426482813
40
1
40
1
40
1
40
1
41
1
10
8.10566243270256
20
14.3682408325648
30
0
41
1
10
8.15431207153046
20
14.2109872636803
30
0
41
1
10
8.22377139565089
20
14.0616626119233
30
0
41
1
10
8.37734423169181
20
13.839273457025
30
0
41
1
10
8.45435152708336
20
13.7545923235662
30
0
41
1
10
8.53867513459483
20
13.6906253919194
30
0
0
SPLINE
5
1C8
100
AcDbEntity
8
1
62
256
6
ByLayer
370
18
48
1
60
0
100
AcDbSpline
70
4
71
2
72
10
73
7
40
0
40
0
40
0
40
0.233954234370402
40
0.452824453121716
40
0.671694671873029
40
0.781129781248686
40
1
40
1
40
1
41
1.02613459695995
10
32.6375609770978
20
-4.61538282506481
30
0
41
1.02613459695995
10
32.1278156358193
20
-4.91025196451737
30
0
41
1.02613459695995
10
31.2198466399481
20
-5.73482352727938
30
0
41
1.02613459695995
10
30.3649491257391
20
-7.00763747804861
30
0
41
1.02613459695995
10
30.1355682165819
20
-7.51556307215213
30
0
41
1.02613459695995
10
29.8914742436931
20
-8.10994116455458
30
0
41
1.02613459695995
10
29.7735056511898
20
-8.53615154679981
30
0
0
SPLINE
5
1C9
100
AcDbEntity
8
1
62
256
6
ByLayer
370
18
48
1
60
0
100
AcDbSpline
70
4
71
3
72
10
73
6
40
0
40
0
40
0
40
0
40
0.402044102652639
40
0.402044102652639
40
1
40
1
40
1
40
1
41
1
10
8.53867513459483
20
15.6264181175896
30
0
41
1
10
8.45565130451817
20
15.5634371823532
30
0
41
1
10
8.38116512940178
20
15.5084417956534
30
0
41
1
10
8.22555738648487
20
15.3873530726881
30
0
41
1
10
8.1547844176815
20
15.3245036331396
30
0
41
1
10
8.10566243270253
20
15.2776332060812
30
0
0
SPLINE
5
1CA
100
AcDbEntity
8
1
62
256
6
ByLayer
370
18
48
1
60
0
100
AcDbSpline
70
4
71
2
72
6
73
3
40
0
40
0
40
0
40
1
40
1
40
1
41
0.877869679988385
10
31.4076980526303
20
-28.2510996779426
30
0
41
0.893236010966691
10
32.238363020307
20
-27.3033817570408
30
0
41
1.02613459695995
10
32.6212333309349
20
-25.9195919340265
30
0
0
SPLINE
5
1CB
100
AcDbEntity
8
1
62
256
6
ByLayer
370
18
48
1
60
0
100
AcDbSpline
70
4
71
3
72
16
73
12
40
0
40
0
40
0
40
0
40
0.111430279628047
40
0.111430279628047
40
0.248747543515475
40
0.248747543515475
40
0.465535329195272
40
0.465535329195272
40
0.883855351867603
40
0.883855351867603
40
1
40
1
40
1
40
1
41
1
10
11.4613248654052
20
-7.52966679426504
30
0
41
1
10
11.4891847159942
20
-7.52966679426504
30
0
41
1
10
11.5173911427755
20
-7.53471706780854
30
0
41
1
10
11.5758492032393
20
-7.55489210221029
30
0
41
1
10
11.6060413892306
20
-7.57218953888446
30
0
41
1
10
11.6751537543576
20
-7.62460019394089
30
0
41
1
10
11.7107854085705
20
-7.66489294253907
30
0
41
1
10
11.798993890746
20
-7.78941367630352
30
0
41
1
10
11.8397320068509
20
-7.8824751100415
30
0
41
1
10
11.8792917015268
20
-8.00269269538009
30
0
41
1
10
11.8871615985731
20
-8.02920008991578
30
0
41
1
10
11.8943375672975
20
-8.05584836782771
30
0
0
SPLINE
5
1CC
100
AcDbEntity
8
1
62
256
6
ByLayer
370
18
48
1
60
0
100
AcDbSpline
70
4
71
3
72
8
73
4
40
0
40
0
40
0
40
0
40
1
40
1
40
1
40
1
41
1
10
21.4150979665882
20
-26.3750235579347
30
0
41
1
10
21.554578883733
20
-26.9048446344472
30
0
41
1
10
21.6941959756417
20
-27.4346308130583
30
0
41
1
10
21.8339278941853
20
-27.9643875647149
30
0
0
SPLINE
5
1CD
100
AcDbEntity
8
1
62
256
6
ByLayer
370
18
48
1
60
0
100
AcDbSpline
70
4
71
3
72
8
73
4
40
0
40
0
40
0
40
0
40
1
40
1
40
1
40
1
41
1
10
24.6418614393965
20
-23.0058518591614
30
0
41
1
10
24.5802687537707
20
-22.3112151742677
30
0
41
1
10
24.6291599320706
20
-21.5904677423102
30
0
41
1
10
24.8386262422119
20
-20.9076974309497
30
0
0
SPLINE
5
1CE
100
AcDbEntity
8
1
62
256
6
ByLayer
370
18
48
1
60
0
100
AcDbSpline
70
4
71
3
72
10
73
6
40
0
40
0
40
0
40
0
40
0.5
40
0.5
40
1
40
1
40
1
40
1
41
1
10
24.6418614393965
20
-23.0058518591616
30
0
41
1
10
24.7447596626783
20
-23.8295722166735
30
0
41
1
10
24.9146945726237
20
-24.653187001167
30
0
41
1
10
25.620176073991
20
-26.1568304562317
30
0
41
1
10
26.0972767965297
20
-26.8520240137833
30
0
41
1
10
26.7246193130763
20
-27.4036583989299
30
0
0
SPLINE
5
1CF
100
AcDbEntity
8
1
62
256
6
ByLayer
370
18
48
1
60
0
100
AcDbSpline
70
4
71
2
72
11
73
8
40
0
40
0
40
0
40
0.0610623745695788
40
0.342743662198705
40
0.530531187284789
40
0.718318712370874
40
0.812212474913916
40
1
40
1
40
1
41
1
10
27.0784532396562
20
-27.6996264135564
30
0
41
1
10
26.9737200234102
20
-27.5583586234119
30
0
41
1
10
26.4267397440987
20
-26.7015238961562
30
0
41
1
10
26.0095588169281
20
-25.2403079915091
30
0
41
1
10
25.9377007073833
20
-23.6830201320423
30
0
41
1
10
26.0032980237414
20
-23.1248200560475
30
0
41
1
10
26.100580607059
20
-22.4853772143604
30
0
41
1
10
26.2184686883833
20
-22.0591421186641
30
0
0
SPLINE
5
1D0
100
AcDbEntity
8
1
62
256
6
ByLayer
370
18
48
1
60
0
100
AcDbSpline
70
4
71
2
72
11
73
8
40
0
40
0
40
0
40
0.0353878362392743
40
0.324771485367492
40
0.517693918119637
40
0.710616350871782
40
0.807077567247855
40
1
40
1
40
1
41
1
10
26.9007033810534
20
-27.5546526906894
30
0
41
1
10
26.8434134496374
20
-27.4721628612569
30
0
41
1
10
26.3389100048673
20
-26.6818673280373
30
0
41
1
10
25.9217290776968
20
-25.2206514233902
30
0
41
1
10
25.849870968152
20
-23.6633635639234
30
0
41
1
10
25.91546828451
20
-23.1051634879286
30
0
41
1
10
26.0127508678276
20
-22.4657206462415
30
0
41
1
10
26.130638949152
20
-22.0394855505452
30
0
0
SPLINE
5
1D1
100
AcDbEntity
8
1
62
256
6
ByLayer
370
18
48
1
60
0
100
AcDbSpline
70
4
71
3
72
8
73
4
40
0
40
0
40
0
40
0
40
1
40
1
40
1
40
1
41
1
10
21.4150979665882
20
24.6479715189708
30
0
41
1
10
21.2634715016933
20
24.6479715189708
30
0
41
1
10
21.1115905576073
20
24.6462211497246
30
0
41
1
10
20.9609847588647
20
24.6427113305059
30
0
0
SPLINE
5
1D2
100
AcDbEntity
8
1
62
256
6
ByLayer
370
18
48
1
60
0
100
AcDbSpline
70
4
71
2
72
10
73
7
40
0
40
0
40
0
40
0.265258885283144
40
0.475184918059388
40
0.685110950835633
40
0.790073967223755
40
1
40
1
40
1
41
1
10
32.912402149604
20
-4.53198939849881
30
0
41
1
10
32.301076410496
20
-4.85232438303873
30
0
41
1
10
31.3076763791794
20
-5.75448009539832
30
0
41
1
10
30.4527788649704
20
-7.02729404616753
30
0
41
1
10
30.2233979558132
20
-7.53521964027104
30
0
41
1
10
29.9793039829244
20
-8.12959773267352
30
0
41
1
10
29.8613353904211
20
-8.55580811491873
30
0
0
SPLINE
5
1D3
100
AcDbEntity
8
1
62
256
6
ByLayer
370
18
48
1
60
0
100
AcDbSpline
70
4
71
3
72
10
73
6
40
0
40
0
40
0
40
0
40
0.557501663665875
40
0.557501663665875
40
1
40
1
40
1
40
1
41
1
10
11.8943375672974
20
15.2776332060815
30
0
41
1
10
11.8484634024225
20
15.3214046802911
30
0
41
1
10
11.7837991840743
20
15.3793044422495
30
0
41
1
10
11.633322851829
20
15.4976441747706
30
0
41
1
10
11.5524968190072
20
15.5572561083222
30
0
41
1
10
11.4613248654052
20
15.6264181175895
30
0
0
SPLINE
5
1D4
100
AcDbEntity
8
1
62
256
6
ByLayer
370
18
48
1
60
0
100
AcDbSpline
70
4
71
3
72
16
73
12
40
0
40
0
40
0
40
0
40
0.461208588217085
40
0.461208588217085
40
0.643534962278541
40
0.643534962278541
40
0.828408472975291
40
0.828408472975291
40
0.943003644159993
40
0.943003644159993
40
1
40
1
40
1
40
1
41
1
10
11.8943375672974
20
-23.6665017920809
30
0
41
1
10
11.8660503915152
20
-23.7022583261632
30
0
41
1
10
11.8273339192908
20
-23.7370095736338
30
0
41
1
10
11.7473160248315
20
-23.7800170858174
30
0
41
1
10
11.7212784637477
20
-23.7917125768793
30
0
41
1
10
11.6606543989164
20
-23.8127037684951
30
0
41
1
10
11.6251722226874
20
-23.8222104320954
30
0
41
1
10
11.5599225851958
20
-23.8331586856493
30
0
41
1
10
11.5324782774944
20
-23.836332378473
30
0
41
1
10
11.4901684747699
20
-23.8387183279986
30
0
41
1
10
11.4757173930754
20
-23.8391299750505
30
0
41
1
10
11.4613248654053
20
-23.8391299750505
30
0
0
SPLINE
5
1D5
100
AcDbEntity
8
SK1
62
256
6
ByLayer
370
18
48
1
60
0
100
AcDbSpline
70
4
71
3
72
22
73
18
40
0
40
0
40
0
40
0
40
0.0394331151890913
40
0.0394331151890913
40
0.0795339708694829
40
0.0795339708694829
40
0.109637917244288
40
0.109637917244288
40
0.13957706301322
40
0.13957706301322
40
0.189266399657458
40
0.189266399657458
40
0.289571152403382
40
0.289571152403382
40
0.658284396834382
40
0.658284396834382
40
1
40
1
40
1
40
1
41
1
10
-0.394976888875306
20
5.38678189578292
30
0
41
1
10
-0.415237014773396
20
5.40399317028476
30
0
41
1
10
-0.437419275645453
20
5.41977813092004
30
0
41
1
10
-0.486103141154984
20
5.44521655864725
30
0
41
1
10
-0.51341298093098
20
5.45496005292577
30
0
41
1
10
-0.562874322366525
20
5.46212264681108
30
0
41
1
10
-0.585106616517606
20
5.46199323188387
30
0
41
1
10
-0.627692822126733
20
5.45533455005088
30
0
41
1
10
-0.648523068172722
20
5.44883772858989
30
0
41
1
10
-0.699826196362153
20
5.42613682765011
30
0
41
1
10
-0.728695564403438
20
5.40623396070797
30
0
41
1
10
-0.806075449923839
20
5.34007786619352
30
0
41
1
10
-0.847522380016557
20
5.28655870152033
30
0
41
1
10
-1.01570466784384
20
5.03084699030373
30
0
41
1
10
-1.09210771407481
20
4.80149729085085
30
0
41
1
10
-1.21929875138233
20
4.35887826398974
30
0
41
1
10
-1.26692602208391
20
4.13998960128646
30
0
41
1
10
-1.30710678118655
20
3.91806548057696
30
0
0
SPLINE
5
1D6
100
AcDbEntity
8
SK1
62
256
6
ByLayer
370
18
48
1
60
0
100
AcDbSpline
70
4
71
3
72
10
73
6
40
0
40
0
40
0
40
0
40
0.5
40
0.5
40
1
40
1
40
1
40
1
41
1
10
-1.30710678118655
20
-3.91806548153784
30
0
41
1
10
-1.53227959010832
20
-2.67440369212437
30
0
41
1
10
-1.71681589069689
20
-1.34075776539186
30
0
41
1
10
-1.71598271729604
20
1.35050010337164
30
0
41
1
10
-1.53230696904976
20
2.67425240209695
30
0
41
1
10
-1.30710678118655
20
3.91806548057698
30
0
0
SPLINE
5
1D7
100
AcDbEntity
8
SK1
62
256
6
ByLayer
370
18
48
1
60
0
100
AcDbSpline
70
4
71
3
72
24
73
20
40
0
40
0
40
0
40
0
40
0.469770575826712
40
0.469770575826712
40
0.663612078687295
40
0.663612078687295
40
0.860454184613411
40
0.860454184613411
40
0.903064590395674
40
0.903064590395674
40
0.923089343972159
40
0.923089343972159
40
0.943389594779288
40
0.943389594779288
40
0.961332284531898
40
0.961332284531898
40
0.988068136377815
40
0.988068136377815
40
1
40
1
40
1
40
1
41
1
10
-0.199999999999989
20
6.10344849123027
30
0
41
1
10
-0.199999999999989
20
5.97798788494984
30
0
41
1
10
-0.204016575726513
20
5.8509635670122
30
0
41
1
10
-0.223752631922082
20
5.67079358995508
30
0
41
1
10
-0.231244965282229
20
5.61789623093799
30
0
41
1
10
-0.253819137983157
20
5.51250015101135
30
0
41
1
10
-0.267096215270385
20
5.45724004647028
30
0
41
1
10
-0.303692478692511
20
5.40035311573845
30
0
41
1
10
-0.311479622041333
20
5.39039941672755
30
0
41
1
10
-0.32547775761438
20
5.37891036834915
30
0
41
1
10
-0.330455622185014
20
5.3756771312581
30
0
41
1
10
-0.341078704143143
20
5.37102422840917
30
0
41
1
10
-0.346883276538165
20
5.36960762575521
30
0
41
1
10
-0.357630415747764
20
5.36914354197148
30
0
41
1
10
-0.362713068049572
20
5.36981917830482
30
0
41
1
10
-0.37458340180882
20
5.37316903610403
30
0
41
1
10
-0.3812109954861
20
5.37664910167555
30
0
41
1
10
-0.38989246528871
20
5.38265091141974
30
0
41
1
10
-0.392483363308571
20
5.38466360919151
30
0
41
1
10
-0.394976888875334
20
5.38678189578178
30
0
0
SPLINE
5
1D8
100
AcDbEntity
8
SK1
62
256
6
ByLayer
370
18
48
1
60
0
100
AcDbSpline
70
4
71
3
72
22
73
18
40
0
40
0
40
0
40
0
40
0.0260455644157247
40
0.0260455644157247
40
0.0526262165848557
40
0.0526262165848557
40
0.0706056579866929
40
0.0706056579866929
40
0.0884949509195805
40
0.0884949509195805
40
0.11748921873202
40
0.11748921873202
40
0.17459086731972
40
0.17459086731972
40
0.37652425293745
40
0.37652425293745
40
1
40
1
40
1
40
1
41
1
10
-0.394976888872947
20
-5.38678223324206
30
0
41
1
10
-0.389612432086437
20
-5.38222504185003
30
0
41
1
10
-0.383763200778958
20
-5.37811700449893
30
0
41
1
10
-0.3709728888754
20
-5.37184824531644
30
0
41
1
10
-0.363785592650885
20
-5.36968256852501
30
0
41
1
10
-0.351475656346565
20
-5.3691458249703
30
0
41
1
10
-0.346317238365032
20
-5.36979468027801
30
0
41
1
10
-0.336550133197363
20
-5.3727304206256
30
0
41
1
10
-0.331829865964124
20
-5.3750241182685
30
0
41
1
10
-0.32051111143835
20
-5.38234306083376
30
0
41
1
10
-0.314321448136184
20
-5.3882440687963
30
0
41
1
10
-0.298260159254511
20
-5.40702817233921
30
0
41
1
10
-0.290032841564653
20
-5.42147709180324
30
0
41
1
10
-0.258449669573651
20
-5.48745345024415
30
0
41
1
10
-0.24608390551893
20
-5.5434138926733
30
0
41
1
10
-0.204764795451922
20
-5.7670899064446
30
0
41
1
10
-0.200000000000358
20
-5.93709576978202
30
0
41
1
10
-0.200000000000358
20
-6.10344667966001
30
0
0
SPLINE
5
1D9
100
AcDbEntity
8
SK1
62
256
6
ByLayer
370
18
48
1
60
0
100
AcDbSpline
70
4
71
3
72
22
73
18
40
0
40
0
40
0
40
0
40
0.359503326352592
40
0.359503326352592
40
0.722215553677066
40
0.722215553677066
40
0.826527133697721
40
0.826527133697721
40
0.863141914878009
40
0.863141914878009
40
0.900378805007221
40
0.900378805007221
40
0.933500873078508
40
0.933500873078508
40
0.972947835056124
40
0.972947835056124
40
1
40
1
40
1
40
1
41
1
10
-1.30710678118655
20
-3.91806548153781
30
0
41
1
10
-1.26486058419175
20
-4.15139729989579
30
0
41
1
10
-1.21446435132796
20
-4.3814323255595
30
0
41
1
10
-1.08204001032738
20
-4.82987250608483
30
0
41
1
10
-1.00537527699572
20
-5.05527264511531
30
0
41
1
10
-0.832356114396674
20
-5.30654108347395
30
0
41
1
10
-0.78723829488635
20
-5.36152992388779
30
0
41
1
10
-0.709490490588593
20
-5.41877880440927
30
0
41
1
10
-0.687203973712826
20
-5.43218986569767
30
0
41
1
10
-0.639076749164047
20
-5.45244590583036
30
0
41
1
10
-0.612446414061708
20
-5.45928056674788
30
0
41
1
10
-0.562058433231044
20
-5.46233960302246
30
0
41
1
10
-0.537713914852588
20
-5.45964677314575
30
0
41
1
10
-0.488053852696936
20
-5.44628701250068
30
0
41
1
10
-0.462609559288751
20
-5.43420976008088
30
0
41
1
10
-0.423860760477311
20
-5.40985221311715
30
0
41
1
10
-0.408979654247759
20
-5.39867780521598
30
0
41
1
10
-0.394976888875391
20
-5.38678223323953
30
0
0
SPLINE
5
1DA
100
AcDbEntity
8
1
62
256
6
ByLayer
370
18
48
1
60
0
100
AcDbSpline
70
4
71
1
72
4
73
2
40
0
40
0
40
1
40
1
41
1
10
40.1901741544072
20
-26.2512490647385
30
0
41
1
10
40.6428143217868
20
-25.6826683102636
30
0
0
SPLINE
5
1DB
100
AcDbEntity
8
1
62
256
6
ByLayer
370
18
48
1
60
0
100
AcDbSpline
70
4
71
3
72
8
73
4
40
0
40
0
40
0
40
0
40
1
40
1
40
1
40
1
41
1
10
40.7368012600934
20
-14.8504625859167
30
0
41
1
10
39.8597885476585
20
-14.6128614678971
30
0
41
1
10
38.921305594929
20
-14.7039813289534
30
0
41
1
10
38.120749991693
20
-15.088093337841
30
0
0
SPLINE
5
1DC
100
AcDbEntity
8
1
62
256
6
ByLayer
370
18
48
1
60
0
100
AcDbSpline
70
4
71
1
72
4
73
2
40
0
40
0
40
1
40
1
41
1
10
57.1303936281905
20
-22.6971953366478
30
0
41
1
10
56.7573239840636
20
-24.0455630802105
30
0
0
SPLINE
5
1DD
100
AcDbEntity
8
1
62
256
6
ByLayer
370
18
48
1
60
0
100
AcDbSpline
70
4
71
3
72
8
73
4
40
0
40
0
40
0
40
0
40
1
40
1
40
1
40
1
41
1
10
32.8728619072962
20
-21.9747844186222
30
0
41
1
10
32.3131746327142
20
-22.549916702762
30
0
41
1
10
31.9111359857071
20
-23.0230142479183
30
0
41
1
10
31.4321128631412
20
-23.1872963124702
30
0
0
SPLINE
5
1DE
100
AcDbEntity
8
1
62
256
6
ByLayer
370
18
48
1
60
0
100
AcDbSpline
70
4
71
3
72
8
73
4
40
0
40
0
40
0
40
0
40
1
40
1
40
1
40
1
41
1
10
40.6428143217868
20
-25.6826683102636
30
0
41
1
10
40.9081927464519
20
-25.3493150734287
30
0
41
1
10
41.2729182797849
20
-24.5625641234564
30
0
41
1
10
41.6422719157866
20
-23.5267342182613
30
0
0
SPLINE
5
1DF
100
AcDbEntity
8
1
62
256
6
ByLayer
370
18
48
1
60
0
100
AcDbSpline
70
4
71
3
72
11
73
7
40
0
40
0
40
0
40
0
40
0.268536746558077
40
0.487975722590654
40
0.707414698623231
40
1
40
1
40
1
40
1
41
1.02490909094425
10
45.7845325926997
20
-18.7714889413071
30
0
41
1.02297680709541
10
47.071899458132
20
-19.1486823430574
30
0
41
1.019109996622
10
49.3078611852738
20
-19.8340486464875
30
0
41
1.01332460673153
10
52.8577992281498
20
-21.1606174982669
30
0
41
1.01203732298747
10
54.8058510882884
20
-21.7361162202439
30
0
41
1.00929221524307
10
56.4321272780079
20
-22.3770351527257
30
0
41
1.0087712828333
10
57.1303936281904
20
-22.6971953366479
30
0
0
SPLINE
5
1E0
100
AcDbEntity
8
1
62
256
6
ByLayer
370
18
48
1
60
0
100
AcDbSpline
70
4
71
3
72
12
73
8
40
0
40
0
40
0
40
0
40
0.407174084711916
40
0.407174084711916
40
0.699511272430921
40
0.699511272430921
40
1
40
1
40
1
40
1
41
1
10
57.1179671908221
20
-22.6915040279152
30
0
41
1
10
57.1170440430414
20
-22.6524041018614
30
0
41
1
10
57.1144703724245
20
-22.6119770786789
30
0
41
1
10
57.1071725375134
20
-22.5423001624073
30
0
41
1
10
57.1032380339477
20
-22.5128954613776
30
0
41
1
10
57.0935970882207
20
-22.4538445895342
30
0
41
1
10
57.0878061405052
20
-22.4239906080651
30
0
41
1
10
57.0812703451647
20
-22.3949663408464
30
0
0
SPLINE
5
1E1
100
AcDbEntity
8
1
62
256
6
ByLayer
370
18
48
1
60
0
100
AcDbSpline
70
4
71
3
72
12
73
8
40
0
40
0
40
0
40
0
40
0.418782075282766
40
0.418782075282766
40
0.706182120811176
40
0.706182120811176
40
1
40
1
40
1
40
1
41
1
10
56.5593726943458
20
-24.2812360196682
30
0
41
1
10
56.5877031729137
20
-24.2519947383684
30
0
41
1
10
56.6157466521861
20
-24.2202246440958
30
0
41
1
10
56.660399320104
20
-24.1648496770873
30
0
41
1
10
56.6780182073995
20
-24.1415886967243
30
0
41
1
10
56.7118923494304
20
-24.0939874239027
30
0
41
1
10
56.7282040670573
20
-24.0695000640795
30
0
41
1
10
56.7434776343969
20
-24.0450036924795
30
0
0
SPLINE
5
1E2
100
AcDbEntity
8
1
62
256
6
ByLayer
370
18
48
1
60
0
100
AcDbSpline
70
4
71
3
72
11
73
7
40
0
40
0
40
0
40
0
40
0.379738014043156
40
0.569607021064734
40
0.759476028086312
40
1
40
1
40
1
40
1
41
1.02830968163241
10
44.0734546909691
20
-13.2834691623543
30
0
41
1.02566133279165
10
46.2671314076418
20
-14.6215019436106
30
0
41
1.02050308371814
10
48.9827293081504
20
-16.6570874749712
30
0
41
1.01332460673153
10
53.0132781922982
20
-20.4732403777936
30
0
41
1.0120630214142
10
54.9180300524194
20
-20.9853121413759
30
0
41
1.00944729087556
10
56.4091647231606
20
-22.0347900321953
30
0
41
1.00885690313847
10
57.0812703385975
20
-22.3949663373271
30
0
0
SPLINE
5
1E3
100
AcDbEntity
8
1
62
256
6
ByLayer
370
18
48
1
60
0
100
AcDbSpline
70
4
71
3
72
11
73
7
40
0
40
0
40
0
40
0
40
0.379738014043161
40
0.569607021064742
40
0.759476028086323
40
1
40
1
40
1
40
1
41
1.02830968163241
10
40.6428143217868
20
-25.6826683102636
30
0
41
1.02566133279165
10
43.2102527560415
20
-25.6698320200868
30
0
41
1.02050308371814
10
46.5823904013429
20
-25.3325174021734
30
0
41
1.01332460673153
10
52.0175371724271
20
-24.0720994467924
30
0
41
1.0120630214142
10
53.9444925795167
20
-24.503921994175
30
0
41
1.00944729087556
10
55.7839199551684
20
-24.2945822459697
30
0
41
1.00885690313847
10
56.5593726867688
20
-24.2812360197986
30
0
0
SPLINE
5
1E4
100
AcDbEntity
8
1
62
256
6
ByLayer
370
18
48
1
60
0
100
AcDbSpline
70
4
71
3
72
10
73
6
40
0
40
0
40
0
40
0
40
0.494168352806881
40
0.494168352806881
40
1
40
1
40
1
40
1
41
1
10
32.8231983087177
20
-9.12674062083806
30
0
41
1
10
32.7201653573439
20
-9.11026506800926
30
0
41
1
10
32.6122280042848
20
-9.09842603773777
30
0
41
1
10
32.3927212841985
20
-9.08773074364078
30
0
41
1
10
32.2796125143749
20
-9.08915782132524
30
0
41
1
10
32.1692182655404
20
-9.09807633292149
30
0
0
SPLINE
5
1E5
100
AcDbEntity
8
1
62
256
6
ByLayer
370
18
48
1
60
0
100
AcDbSpline
70
4
71
3
72
8
73
4
40
0
40
0
40
0
40
0
40
1
40
1
40
1
40
1
41
1
10
56.1550494920134
20
-24.6169138962524
30
0
41
1
10
56.302865832862
20
-24.5179500265537
30
0
41
1
10
56.4399205694361
20
-24.4030895378857
30
0
41
1
10
56.5593726943458
20
-24.2812360196682
30
0
0
SPLINE
5
1E6
100
AcDbEntity
8
1
62
256
6
ByLayer
370
18
48
1
60
0
100
AcDbSpline
70
4
71
3
72
18
73
14
40
0
40
0
40
0
40
0
40
0.0384430513828974
40
0.0384430513828974
40
0.294505767099372
40
0.294505767099372
40
0.507931675708715
40
0.507931675708715
40
0.723079147095955
40
0.723079147095955
40
0.912685296049716
40
0.912685296049716
40
1
40
1
40
1
40
1
41
1
10
49.1479069427281
20
-25.823839732135
30
0
41
1
10
49.1420723168423
20
-25.8243487682036
30
0
41
1
10
49.1362229336426
20
-25.8248819800687
30
0
41
1
10
49.0916999285366
20
-25.8291186269952
30
0
41
1
10
49.0520745952332
20
-25.8339317789699
30
0
41
1
10
48.9835504982619
20
-25.8445276358709
30
0
41
1
10
48.953222766457
20
-25.8501443910835
30
0
41
1
10
48.8997255335281
20
-25.8623051318617
30
0
41
1
10
48.8758510553989
20
-25.8690491047229
30
0
41
1
10
48.8418827552331
20
-25.8816903414145
30
0
41
1
10
48.8300426134157
20
-25.8877627826257
30
0
41
1
10
48.8200370638258
20
-25.8960905858651
30
0
41
1
10
48.8178806384815
20
-25.8986811327253
30
0
41
1
10
48.8167403678949
20
-25.9011722115607
30
0
0
SPLINE
5
1E7
100
AcDbEntity
8
1
62
256
6
ByLayer
370
18
48
1
60
0
100
AcDbSpline
70
4
71
3
72
13
73
9
40
0
40
0
40
0
40
0
40
0.250661764437226
40
0.250661764437226
40
0.250661764437226
40
0.653096502165463
40
0.653096502165463
40
1
40
1
40
1
40
1
41
1
10
45.7845326533879
20
-18.7714889590885
30
0
41
1
10
45.8256921605947
20
-19.0594265405226
30
0
41
1
10
45.836593668922
20
-19.354032717691
30
0
41
1
10
45.817126351735
20
-19.6455939772599
30
0
41
1
10
45.786142084804
20
-20.1096441494773
30
0
41
1
10
45.6762948009716
20
-20.5764415740267
30
0
41
1
10
45.3415540363674
20
-21.3802170293288
30
0
41
1
10
45.1310375056345
20
-21.7346952904196
30
0
41
1
10
44.8778671961377
20
-22.0484064891109
30
0
0
SPLINE
5
1E8
100
AcDbEntity
8
1
62
256
6
ByLayer
370
18
48
1
60
0
100
AcDbSpline
70
4
71
3
72
12
73
8
40
0
40
0
40
0
40
0
40
0.252749620142202
40
0.252749620142202
40
0.67471120942877
40
0.67471120942877
40
1
40
1
40
1
40
1
41
1
10
30.9385258669927
20
-9.59852320894811
30
0
41
1
10
31.0121839782962
20
-9.53386286385685
30
0
41
1
10
31.0938021165967
20
-9.47245475993412
30
0
41
1
10
31.3308124373834
20
-9.32301596590946
30
0
41
1
10
31.5025477468929
20
-9.24312329188544
30
0
41
1
10
31.8343512342219
20
-9.14350341848623
30
0
41
1
10
31.9913880500454
20
-9.11347899897913
30
0
41
1
10
32.1509650476787
20
-9.09960701216252
30
0
0
SPLINE
5
1E9
100
AcDbEntity
8
1
62
256
6
ByLayer
370
18
48
1
60
0
100
AcDbSpline
70
4
71
3
72
13
73
9
40
0
40
0
40
0
40
0
40
0.287856992129662
40
0.287856992129662
40
0.605626331970861
40
0.605626331970861
40
0.605626331970861
40
1
40
1
40
1
40
1
41
1
10
44.8778671961377
20
-22.0484064891109
30
0
41
1
10
44.6572811639393
20
-22.3216645177918
30
0
41
1
10
44.391627663955
20
-22.5645279100372
30
0
41
1
10
43.7836575906632
20
-22.9860033252213
30
0
41
1
10
43.4294824011656
20
-23.1611521529135
30
0
41
1
10
43.062177925139
20
-23.2862884908288
30
0
41
1
10
42.6084600842771
20
-23.4408648512001
30
0
41
1
10
42.1216177089381
20
-23.5231720045641
30
0
41
1
10
41.6422719196739
20
-23.5267342073597
30
0
0
SPLINE
5
1EA
100
AcDbEntity
8
1
62
256
6
ByLayer
370
18
48
1
60
0
100
AcDbSpline
70
4
71
3
72
8
73
4
40
0
40
0
40
0
40
0
40
1
40
1
40
1
40
1
41
1
10
56.5320293316281
20
-21.0986587751966
30
0
41
1
10
56.6580377691878
20
-21.3617061392055
30
0
41
1
10
56.7840077077461
20
-21.626871300615
30
0
41
1
10
56.9087209185119
20
-21.8929553626828
30
0
0
SPLINE
5
1EB
100
AcDbEntity
8
1
62
256
6
ByLayer
370
18
48
1
60
0
100
AcDbSpline
70
4
71
3
72
18
73
14
40
0
40
0
40
0
40
0
40
0.148865436690719
40
0.148865436690719
40
0.336868556410363
40
0.336868556410363
40
0.519491108027861
40
0.519491108027861
40
0.711563055534813
40
0.711563055534813
40
0.930180979444751
40
0.930180979444751
40
1
40
1
40
1
40
1
41
1
10
51.2832552903888
20
-16.9865654809964
30
0
41
1
10
51.2823076325669
20
-16.9927376672316
30
0
41
1
10
51.2837251797962
20
-17.0006685947223
30
0
41
1
10
51.2924703968948
20
-17.0218917823643
30
0
41
1
10
51.3014337133939
20
-17.0363766989458
30
0
41
1
10
51.3256099449767
20
-17.0676760739821
30
0
41
1
10
51.3409204668709
20
-17.0847944645556
30
0
41
1
10
51.3764365001055
20
-17.120575920091
30
0
41
1
10
51.3972518729776
20
-17.1396923881312
30
0
41
1
10
51.4438951482571
20
-17.1795489120752
30
0
41
1
10
51.4705488618444
20
-17.2006194574255
30
0
41
1
10
51.5058772989596
20
-17.2267812448386
30
0
41
1
10
51.5145046260669
20
-17.2330350545537
30
0
41
1
10
51.523135853174
20
-17.2391636620196
30
0
0
SPLINE
5
1EC
100
AcDbEntity
8
1
62
256
6
ByLayer
370
18
48
1
60
0
100
AcDbSpline
70
4
71
3
72
8
73
4
40
0
40
0
40
0
40
0
40
1
40
1
40
1
40
1
41
1
10
36.1362831362329
20
-15.2196977157637
30
0
41
1
10
36.4126760404993
20
-15.2987188809552
30
0
41
1
10
36.7054408887191
20
-15.3448606182465
30
0
41
1
10
36.9977240233476
20
-15.3479489349025
30
0
0
SPLINE
5
1ED
100
AcDbEntity
8
1
62
256
6
ByLayer
370
18
48
1
60
0
100
AcDbSpline
70
4
71
3
72
8
73
4
40
0
40
0
40
0
40
0
40
1
40
1
40
1
40
1
41
1
10
40.4874870029905
20
-23.3760274505594
30
0
41
1
10
40.865177554321
20
-23.4783517338785
30
0
41
1
10
41.2504509022938
20
-23.527039479657
30
0
41
1
10
41.6422719172873
20
-23.5267342073616
30
0
0
SPLINE
5
1EE
100
AcDbEntity
8
1
62
256
6
ByLayer
370
18
48
1
60
0
100
AcDbSpline
70
4
71
3
72
12
73
8
40
0
40
0
40
0
40
0
40
0.322961595764269
40
0.322961595764269
40
0.710971356423583
40
0.710971356423583
40
1
40
1
40
1
40
1
41
1
10
43.7688901143198
20
-15.8405999381278
30
0
41
1
10
44.1060286707451
20
-16.0439121961178
30
0
41
1
10
44.4192550031427
20
-16.2967868963659
30
0
41
1
10
45.0160095559168
20
-16.9260617653921
30
0
41
1
10
45.2904694801362
20
-17.3266620235394
30
0
41
1
10
45.6310638668093
20
-18.0788205483858
30
0
41
1
10
45.7349090412038
20
-18.4246434290506
30
0
41
1
10
45.7845326533879
20
-18.7714889590885
30
0
0
SPLINE
5
1EF
100
AcDbEntity
8
1
62
256
6
ByLayer
370
18
48
1
60
0
100
AcDbSpline
70
4
71
3
72
10
73
6
40
0
40
0
40
0
40
0
40
0.325288492889667
40
0.325288492889667
40
1
40
1
40
1
40
1
41
1
10
27.4941906995841
20
-20.6395749490366
30
0
41
1
10
27.4895162456973
20
-20.7472204940575
30
0
41
1
10
27.490641908208
20
-20.8523458881038
30
0
41
1
10
27.5128304499512
20
-21.1685196913617
30
0
41
1
10
27.5540370894048
20
-21.3750152109364
30
0
41
1
10
27.6254058305704
20
-21.5729742478247
30
0
0
SPLINE
5
1F0
100
AcDbEntity
8
1
62
256
6
ByLayer
370
18
48
1
60
0
100
AcDbSpline
70
4
71
3
72
14
73
10
40
0
40
0
40
0
40
0
40
0.0151857536690261
40
0.0151857536690261
40
0.0655730315774938
40
0.0655730315774938
40
0.28764275434833
40
0.28764275434833
40
1
40
1
40
1
40
1
41
1
10
27.7685234985569
20
-19.5619862529986
30
0
41
1
10
27.7666322742135
20
-19.5688216145475
30
0
41
1
10
27.7645612039228
20
-19.5756072825502
30
0
41
1
10
27.7552850261822
20
-19.6037892327274
30
0
41
1
10
27.7473048362
20
-19.6233960236307
30
0
41
1
10
27.7057859171865
20
-19.7247562360037
30
0
41
1
10
27.6743348024078
20
-19.8002618422698
30
0
41
1
10
27.5588471743447
20
-20.1260838999302
30
0
41
1
10
27.5054112619953
20
-20.3811825067436
30
0
41
1
10
27.494190699584
20
-20.6395749490365
30
0
0
SPLINE
5
1F1
100
AcDbEntity
8
1
62
256
6
ByLayer
370
18
48
1
60
0
100
AcDbSpline
70
4
71
3
72
16
73
12
40
0
40
0
40
0
40
0
40
0.125
40
0.125
40
0.25
40
0.25
40
0.5
40
0.5
40
0.75
40
0.75
40
1
40
1
40
1
40
1
41
1
10
44.6362929641681
20
-12.5831363518353
30
0
41
1
10
44.8917427743679
20
-12.9423585195182
30
0
41
1
10
45.2210986279147
20
-13.3373031157459
30
0
41
1
10
46.0595326726823
20
-14.1864039210128
30
0
41
1
10
46.5522527585638
20
-14.6249036248294
30
0
41
1
10
48.1169602218125
20
-15.903003814162
30
0
41
1
10
49.2322939151957
20
-16.6779584754701
30
0
41
1
10
51.3691664926403
20
-18.0641212701954
30
0
41
1
10
52.4263866430904
20
-18.7237662826083
30
0
41
1
10
54.5386156800765
20
-20.0364643174228
30
0
41
1
10
55.5603804962445
20
-20.6006727583956
30
0
41
1
10
56.5320293316281
20
-21.0986587751966
30
0
0
SPLINE
5
1F2
100
AcDbEntity
8
1
62
256
6
ByLayer
370
18
48
1
60
0
100
AcDbSpline
70
4
71
3
72
8
73
4
40
0
40
0
40
0
40
0
40
1
40
1
40
1
40
1
41
1
10
34.7505958866186
20
-20.2279207632822
30
0
41
1
10
35.026988790885
20
-20.3069419284735
30
0
41
1
10
35.3010430109056
20
-20.4207085929675
30
0
41
1
10
35.5530613224235
20
-20.5693241309809
30
0
0
SPLINE
5
1F3
100
AcDbEntity
8
1
62
256
6
ByLayer
370
18
48
1
60
0
100
AcDbSpline
70
4
71
3
72
8
73
4
40
0
40
0
40
0
40
0
40
1
40
1
40
1
40
1
41
1
10
55.42553905892
20
-25.0977935634826
30
0
41
1
10
55.6679458301669
20
-24.9401480058944
30
0
41
1
10
55.9116230886884
20
-24.7798892393137
30
0
41
1
10
56.1550494920134
20
-24.6169138962524
30
0
0
SPLINE
5
1F4
100
AcDbEntity
8
1
62
256
6
ByLayer
370
18
48
1
60
0
100
AcDbSpline
70
4
71
3
72
12
73
8
40
0
40
0
40
0
40
0
40
0.5
40
0.5
40
0.75
40
0.75
40
1
40
1
40
1
40
1
41
1
10
35.4338744535983
20
-12.7186394530218
30
0
41
1
10
35.2979594985127
20
-12.7819734532867
30
0
41
1
10
35.1648999608095
20
-12.8464812134068
30
0
41
1
10
34.9696520220326
20
-12.9454684975141
30
0
41
1
10
34.9052783046472
20
-12.9787545309902
30
0
41
1
10
34.7784696717357
20
-13.0472596159966
30
0
41
1
10
34.686832874562
20
-13.0575258903497
30
0
41
1
10
34.664618795403
20
-13.1378131725345
30
0
0
SPLINE
5
1F5
100
AcDbEntity
8
1
62
256
6
ByLayer
370
18
48
1
60
0
100
AcDbSpline
70
4
71
3
72
16
73
12
40
0
40
0
40
0
40
0
40
0.25
40
0.25
40
0.5
40
0.5
40
0.75
40
0.75
40
0.875
40
0.875
40
1
40
1
40
1
40
1
41
1
10
55.42553905892
20
-25.0977935634826
30
0
41
1
10
54.3270651071869
20
-25.0812709345398
30
0
41
1
10
53.175740073683
20
-25.0879360142156
30
0
41
1
10
50.656286659639
20
-25.1963857561796
30
0
41
1
10
49.3867367187686
20
-25.2530672613688
30
0
41
1
10
46.8062550070012
20
-25.4004889429673
30
0
41
1
10
45.4305950581493
20
-25.511608976999
30
0
41
1
10
43.4549975046235
20
-25.7824437386732
30
0
41
1
10
42.8118227999865
20
-25.8909999043202
30
0
41
1
10
41.679689805263
20
-26.1382025399265
30
0
41
1
10
41.2024957249631
20
-26.2746808237813
30
0
41
1
10
40.8096643286892
20
-26.4135369215192
30
0
0
SPLINE
5
1F6
100
AcDbEntity
8
1
62
256
6
ByLayer
370
18
48
1
60
0
100
AcDbSpline
70
4
71
3
72
10
73
6
40
0
40
0
40
0
40
0
40
0.465995854460558
40
0.465995854460558
40
1
40
1
40
1
40
1
41
1
10
36.3884545812016
20
-21.3490456576005
30
0
41
1
10
36.2895251907431
20
-21.2048963693766
30
0
41
1
10
36.1734817257126
20
-21.0684547072259
30
0
41
1
10
35.8970478511883
20
-20.8029990939643
30
0
41
1
10
35.7308484684857
20
-20.6762029179317
30
0
41
1
10
35.5530613224235
20
-20.5693241309809
30
0
0
SPLINE
5
1F7
100
AcDbEntity
8
1
62
256
6
ByLayer
370
18
48
1
60
0
100
AcDbSpline
70
4
71
1
72
4
73
2
40
0
40
0
40
1
40
1
41
1
10
44.073454690969
20
-13.2834691623543
30
0
41
1
10
44.0168027898804
20
-12.4208484950531
30
0
0
SPLINE
5
1F8
100
AcDbEntity
8
1
62
256
6
ByLayer
370
18
48
1
60
0
100
AcDbSpline
70
4
71
3
72
8
73
4
40
0
40
0
40
0
40
0
40
1
40
1
40
1
40
1
41
1
10
34.8627532323235
20
-10.7880971645609
30
0
41
1
10
35.1758584035371
20
-11.2363314678431
30
0
41
1
10
35.25817576043
20
-11.8947917065623
30
0
41
1
10
35.4338744536074
20
-12.7186394530175
30
0
0
SPLINE
5
1F9
100
AcDbEntity
8
1
62
256
6
ByLayer
370
18
48
1
60
0
100
AcDbSpline
70
4
71
3
72
8
73
4
40
0
40
0
40
0
40
0
40
1
40
1
40
1
40
1
41
1
10
30.3303097584427
20
-10.389125693596
30
0
41
1
10
30.4928160107652
20
-10.0804411096788
30
0
41
1
10
30.6908796760096
20
-9.81591797901379
30
0
41
1
10
30.9385258670137
20
-9.59852320894177
30
0
0
SPLINE
5
1FA
100
AcDbEntity
8
1
62
256
6
ByLayer
370
18
48
1
60
0
100
AcDbSpline
70
4
71
3
72
11
73
7
40
0
40
0
40
0
40
0
40
0.268536746003808
40
0.487975722202665
40
0.707414698401523
40
1
40
1
40
1
40
1
41
1.0249090909279
10
44.8778671456645
20
-22.0484064769181
30
0
41
1.0229768070834
10
46.1824042917885
20
-22.3635421402984
30
0
41
1.0191099966158
10
48.4673791471334
20
-22.8717626302963
30
0
41
1.01332460673153
10
52.2329955106695
20
-23.4188156443002
30
0
41
1.01203732298747
10
54.2274032215837
20
-23.8267726354046
30
0
41
1.00929221524307
10
55.9790639410534
20
-24.0145202683369
30
0
41
1.0087712828333
10
56.7573239840636
20
-24.0455630802105
30
0
0
SPLINE
5
1FB
100
AcDbEntity
8
1
62
256
6
ByLayer
370
18
48
1
60
0
100
AcDbSpline
70
4
71
3
72
8
73
4
40
0
40
0
40
0
40
0
40
1
40
1
40
1
40
1
41
1
10
43.7688901170904
20
-15.8405999244577
30
0
41
1
10
43.9955263755276
20
-14.7223721038819
30
0
41
1
10
44.1066691366593
20
-13.7892150729911
30
0
41
1
10
44.073454690969
20
-13.2834691623543
30
0
0
SPLINE
5
1FC
100
AcDbEntity
8
1
62
256
6
ByLayer
370
18
48
1
60
0
100
AcDbSpline
70
4
71
3
72
8
73
4
40
0
40
0
40
0
40
0
40
1
40
1
40
1
40
1
41
1
10
36.3884545812016
20
-21.3490456576004
30
0
41
1
10
36.8885013987961
20
-22.0776602027907
30
0
41
1
10
37.6303616435499
20
-22.6019723312893
30
0
41
1
10
38.5250312270553
20
-22.8443570656095
30
0
0
SPLINE
5
1FD
100
AcDbEntity
8
1
62
256
6
ByLayer
370
18
48
1
60
0
100
AcDbSpline
70
4
71
3
72
8
73
4
40
0
40
0
40
0
40
0
40
1
40
1
40
1
40
1
41
1
10
40.8096643286934
20
-26.4135369215207
30
0
41
1
10
40.6024480807824
20
-26.3591598781658
30
0
41
1
10
40.3956823119768
20
-26.3049628702948
30
0
41
1
10
40.1901741544072
20
-26.2512490647385
30
0
0
SPLINE
5
1FE
100
AcDbEntity
8
1
62
256
6
ByLayer
370
18
48
1
60
0
100
AcDbSpline
70
4
71
3
72
8
73
4
40
0
40
0
40
0
40
0
40
1
40
1
40
1
40
1
41
1
10
57.0812703451647
20
-22.3949663408464
30
0
41
1
10
57.0423717897017
20
-22.2256789517812
30
0
41
1
10
56.9844507909462
20
-22.0545301626056
30
0
41
1
10
56.9087209185119
20
-21.8929553626828
30
0
0
SPLINE
5
1FF
100
AcDbEntity
8
1
62
256
6
ByLayer
370
18
48
1
60
0
100
AcDbSpline
70
4
71
3
72
12
73
8
40
0
40
0
40
0
40
0
40
0.252749620142199
40
0.252749620142199
40
0.674711209428767
40
0.674711209428767
40
1
40
1
40
1
40
1
41
1
10
27.6254058305561
20
-21.5729742478067
30
0
41
1
10
27.656958519335
20
-21.6604935143645
30
0
41
1
10
27.6969282242174
20
-21.7496133482543
30
0
41
1
10
27.8271776422017
20
-21.9860353710467
30
0
41
1
10
27.9355006373451
20
-22.1353307871872
30
0
41
1
10
28.1716319479916
20
-22.3814942789748
30
0
41
1
10
28.2917841873634
20
-22.4847800172503
30
0
41
1
10
28.4219649454687
20
-22.5771534507873
30
0
0
SPLINE
5
200
100
AcDbEntity
8
1
62
256
6
ByLayer
370
18
48
1
60
0
100
AcDbSpline
70
4
71
3
72
10
73
6
40
0
40
0
40
0
40
0
40
0.474805431212337
40
0.474805431212337
40
1
40
1
40
1
40
1
41
1
10
36.9977240233476
20
-15.3479489349025
30
0
41
1
10
37.1830595574076
20
-15.3451276124205
30
0
41
1
10
37.3685730851537
20
-15.3238514994782
30
0
41
1
10
37.7467462905375
20
-15.240901780171
30
0
41
1
10
37.9405318284977
20
-15.1745632350264
30
0
41
1
10
38.120749991693
20
-15.088093337841
30
0
0
SPLINE
5
201
100
AcDbEntity
8
1
62
256
6
ByLayer
370
18
48
1
60
0
100
AcDbSpline
70
4
71
3
72
10
73
6
40
0
40
0
40
0
40
0
40
0.494168352806888
40
0.494168352806888
40
1
40
1
40
1
40
1
41
1
10
29.0116747637562
20
-22.9025475854683
30
0
41
1
10
28.9154345885408
20
-22.8615212271654
30
0
41
1
10
28.8171446847038
20
-22.8148138833132
30
0
41
1
10
28.6236652862324
20
-22.7100492874939
30
0
41
1
10
28.5272917084071
20
-22.6509911624074
30
0
41
1
10
28.4368845365902
20
-22.5876713389827
30
0
0
SPLINE
5
202
100
AcDbEntity
8
1
62
256
6
ByLayer
370
18
48
1
60
0
100
AcDbSpline
70
4
71
3
72
8
73
4
40
0
40
0
40
0
40
0
40
1
40
1
40
1
40
1
41
1
10
42.6992570360286
20
-15.3821329708666
30
0
41
1
10
43.0769475872353
20
-15.4844572541521
30
0
41
1
10
43.4329261430135
20
-15.6390237635824
30
0
41
1
10
43.7688901119429
20
-15.8405999367017
30
0
0
SPLINE
5
203
100
AcDbEntity
8
1
62
256
6
ByLayer
370
18
48
1
60
0
100
AcDbSpline
70
4
71
3
72
8
73
4
40
0
40
0
40
0
40
0
40
1
40
1
40
1
40
1
41
1
10
44.636292964158
20
-12.5831363518327
30
0
41
1
10
44.4290767162499
20
-12.5287593084786
30
0
41
1
10
44.2223109474471
20
-12.4745623006085
30
0
41
1
10
44.0168027898804
20
-12.4208484950531
30
0
0
SPLINE
5
204
100
AcDbEntity
8
1
62
256
6
ByLayer
370
18
48
1
60
0
100
AcDbSpline
70
4
71
3
72
12
73
8
40
0
40
0
40
0
40
0
40
0.499999999999999
40
0.499999999999999
40
0.749999999999999
40
0.749999999999999
40
1
40
1
40
1
40
1
41
1
10
32.8728619072907
20
-21.9747844186135
30
0
41
1
10
32.7901138819144
20
-21.8459597316921
30
0
41
1
10
32.71050172623
20
-21.7172951792786
30
0
41
1
10
32.5960698275399
20
-21.5241929210412
30
0
41
1
10
32.558703551091
20
-21.4598672544816
30
0
41
1
10
32.4866546240287
20
-21.3304569577975
30
0
41
1
10
32.414645984169
20
-21.2697821234198
30
0
41
1
10
32.4368600633302
20
-21.1894948412358
30
0
0
SPLINE
5
205
100
AcDbEntity
8
1
62
256
6
ByLayer
370
18
48
1
60
0
100
AcDbSpline
70
4
71
3
72
8
73
4
40
0
40
0
40
0
40
0
40
1
40
1
40
1
40
1
41
1
10
33.280961213776
20
-9.23006128425587
30
0
41
1
10
33.1314628758902
20
-9.18644794846813
30
0
41
1
10
32.9789028228894
20
-9.15163865505636
30
0
41
1
10
32.8231983087177
20
-9.12674062083806
30
0
0
SPLINE
5
206
100
AcDbEntity
8
1
62
256
6
ByLayer
370
18
48
1
60
0
100
AcDbSpline
70
4
71
3
72
16
73
12
40
0
40
0
40
0
40
0
40
0.0076436986798989
40
0.0076436986798989
40
0.0409116539642732
40
0.0409116539642732
40
0.185161591066359
40
0.185161591066359
40
0.76103989734915
40
0.76103989734915
40
1
40
1
40
1
40
1
41
1
10
29.996282230629
20
-11.5103045842959
30
0
41
1
10
29.9972348684784
20
-11.5068615109512
30
0
41
1
10
29.9981463910258
20
-11.5033944110341
30
0
41
1
10
30.0027478561878
20
-11.4849868565626
30
0
41
1
10
30.0056327165976
20
-11.4700803284159
30
0
41
1
10
30.0189036496784
20
-11.3944114206354
30
0
41
1
10
30.0261861173161
20
-11.3383587207383
30
0
41
1
10
30.0739193615304
20
-11.0585546273349
30
0
41
1
10
30.1320812768079
20
-10.843936688728
30
0
41
1
10
30.2489256879782
20
-10.5540652731968
30
0
41
1
10
30.2874569052224
20
-10.470525731914
30
0
41
1
10
30.3303097584426
20
-10.3891256935962
30
0
0
SPLINE
5
207
100
AcDbEntity
8
1
62
256
6
ByLayer
370
18
48
1
60
0
100
AcDbSpline
70
4
71
3
72
12
73
8
40
0
40
0
40
0
40
0
40
0.392678099452562
40
0.392678099452562
40
0.791279335968775
40
0.791279335968775
40
1
40
1
40
1
40
1
41
1
10
40.3016662899983
20
-20.2317953476165
30
0
41
1
10
40.3189462190766
20
-20.2328382844367
30
0
41
1
10
40.3376880989461
20
-20.2354160820767
30
0
41
1
10
40.3758543793707
20
-20.2440040446907
30
0
41
1
10
40.3957552254591
20
-20.2501962493905
30
0
41
1
10
40.4244360577144
20
-20.2614750148484
30
0
41
1
10
40.4341758397137
20
-20.2657413689771
30
0
41
1
10
40.4435651804736
20
-20.2702387299582
30
0
0
SPLINE
5
208
100
AcDbEntity
8
1
62
256
6
ByLayer
370
18
48
1
60
0
100
AcDbSpline
70
4
71
3
72
14
73
10
40
0
40
0
40
0
40
0
40
0.0829586012803215
40
0.0829586012803215
40
0.459195015075145
40
0.459195015075145
40
0.835474799669027
40
0.835474799669027
40
1
40
1
40
1
40
1
41
1
10
39.5402762304378
20
-19.3519037145814
30
0
41
1
10
39.5416886256336
20
-19.3553425519679
30
0
41
1
10
39.5430838536244
20
-19.3588535791278
30
0
41
1
10
39.5506369251849
20
-19.3785358382941
30
0
41
1
10
39.556453857335
20
-19.3963363568031
30
0
41
1
10
39.5662717627404
20
-19.4329593815212
30
0
41
1
10
39.5703782090433
20
-19.4521946307652
30
0
41
1
10
39.5747913922326
20
-19.4789309674042
30
0
41
1
10
39.57595779204
20
-19.4870388005143
30
0
41
1
10
39.5769497549205
20
-19.4950072242181
30
0
0
SPLINE
5
209
100
AcDbEntity
8
1
62
256
6
ByLayer
370
18
48
1
60
0
100
AcDbSpline
70
4
71
3
72
14
73
10
40
0
40
0
40
0
40
0
40
0.0829586012802286
40
0.0829586012802286
40
0.459195015075152
40
0.459195015075152
40
0.835474799669124
40
0.835474799669124
40
1
40
1
40
1
40
1
41
1
10
41.8299273222123
20
-18.8913237044966
30
0
41
1
10
41.828104097036
20
-18.8876476743104
30
0
41
1
10
41.8263249791723
20
-18.883915008229
30
0
41
1
10
41.816825366219
20
-18.8631089128656
30
0
41
1
10
41.8100261875857
20
-18.8447412940851
30
0
41
1
10
41.7998704185733
20
-18.8079232037226
30
0
41
1
10
41.7964089766539
20
-18.789060347933
30
0
41
1
10
41.7938923276743
20
-18.7634189758305
30
0
41
1
10
41.7934334628801
20
-18.7557196382507
30
0
41
1
10
41.7932537977293
20
-18.7482201948599
30
0
0
SPLINE
5
20A
100
AcDbEntity
8
1
62
256
6
ByLayer
370
18
48
1
60
0
100
AcDbSpline
70
4
71
3
72
12
73
8
40
0
40
0
40
0
40
0
40
0.392678099449926
40
0.392678099449926
40
0.791279335966095
40
0.791279335966095
40
1
40
1
40
1
40
1
41
1
10
41.0685372626522
20
-18.0114320714618
30
0
41
1
10
41.0493287133331
20
-18.0092756452264
30
0
41
1
10
41.0292525825931
20
-18.0059275174872
30
0
41
1
10
40.9901514321928
20
-17.996799807441
30
0
41
1
10
40.9706791220378
20
-17.9908550180777
30
0
41
1
10
40.9438664264863
20
-17.9806548218488
30
0
41
1
10
40.9349922101925
20
-17.9768882023131
30
0
41
1
10
40.9266383721769
20
-17.9729886891201
30
0
0
SPLINE
5
20B
100
AcDbEntity
8
1
62
256
6
ByLayer
370
18
48
1
60
0
100
AcDbSpline
70
4
71
3
72
14
73
10
40
0
40
0
40
0
40
0
40
0.16452520033097
40
0.16452520033097
40
0.540804984924846
40
0.540804984924846
40
0.917041398719689
40
0.917041398719689
40
1
40
1
40
1
40
1
41
1
10
39.9237117167659
20
-18.241722076505
30
0
41
1
10
39.9188201982342
20
-18.2478476299904
30
0
41
1
10
39.9136985428257
20
-18.2540350877302
30
0
41
1
10
39.8962871555926
20
-18.2742775373121
30
0
41
1
10
39.882902408139
20
-18.2885764074573
30
0
41
1
10
39.8555743873855
20
-18.3152393538525
30
0
41
1
10
39.841327928891
20
-18.3279052686096
30
0
41
1
10
39.8245427267189
20
-18.3415902568645
30
0
41
1
10
39.8215044068078
20
-18.344017778123
30
0
41
1
10
39.8184863507706
20
-18.3463822037993
30
0
0
SPLINE
5
20C
100
AcDbEntity
8
1
62
256
6
ByLayer
370
18
48
1
60
0
100
AcDbSpline
70
4
71
3
72
14
73
10
40
0
40
0
40
0
40
0
40
0.164525200330961
40
0.164525200330961
40
0.540804984924859
40
0.540804984924859
40
0.91704139871969
40
0.91704139871969
40
1
40
1
40
1
40
1
41
1
10
41.4464918358839
20
-20.001505342573
30
0
41
1
10
41.4505710566858
20
-19.9949108087747
30
0
41
1
10
41.4549851770812
20
-19.9883148555046
30
0
41
1
10
41.4705000301046
20
-19.9669774413862
30
0
41
1
10
41.4832397731747
20
-19.9523061777865
30
0
41
1
10
41.5109056575352
20
-19.9258382970357
30
0
41
1
10
41.5261343625129
20
-19.9137394825501
30
0
41
1
10
41.5448661060778
20
-19.9011783304923
30
0
41
1
10
41.5482883158619
20
-19.8989724481553
30
0
41
1
10
41.5517172018795
20
-19.8968452152788
30
0
0
LINE
5
72
100
AcDbEntity
8
1
62
256
6
ByLayer
370
18
48
1
60
0
100
AcDbLine
10
30.92659
20
-23.712462
30
0
11
31.602379
21
-23.921442
31
0
39
0
210
0
220
0
230
1
0
LINE
5
74
100
AcDbEntity
8
1
62
256
6
ByLayer
370
18
48
1
60
0
100
AcDbLine
10
29.000191
20
-22.89763
30
0
11
30.694945
21
-23.62707
31
0
39
0
210
0
220
0
230
1
0
LINE
5
75
100
AcDbEntity
8
1
62
256
6
ByLayer
370
18
48
1
60
0
100
AcDbLine
10
30.106659
20
-10.959915
30
0
11
27.585986
21
-20.070261
31
0
39
0
210
0
220
0
230
1
0
LINE
5
76
100
AcDbEntity
8
1
62
256
6
ByLayer
370
18
48
1
60
0
100
AcDbLine
10
0.3
20
-25
30
0
11
20.920792
21
-25
31
0
39
0
210
0
220
0
230
1
0
LINE
5
77
100
AcDbEntity
8
1
62
256
6
ByLayer
370
18
48
1
60
0
100
AcDbLine
10
20.920792
20
25
30
0
11
0.3
21
25
31
0
39
0
210
0
220
0
230
1
0
LINE
5
78
100
AcDbEntity
8
1
62
256
6
ByLayer
370
18
48
1
60
0
100
AcDbLine
10
0.3
20
25
30
0
11
0
21
24.7
31
0
39
0
210
0
220
0
230
1
0
LINE
5
79
100
AcDbEntity
8
1
62
256
6
ByLayer
370
18
48
1
60
0
100
AcDbLine
10
0
20
-24.7
30
0
11
0.3
21
-25
31
0
39
0
210
0
220
0
230
1
0
LINE
5
7A
100
AcDbEntity
8
1
62
256
6
ByLayer
370
18
48
1
60
0
100
AcDbLine
10
20.960985
20
25.15
30
0
11
20.920792
21
25
31
0
39
0
210
0
220
0
230
1
0
LINE
5
7B
100
AcDbEntity
8
1
62
256
6
ByLayer
370
18
48
1
60
0
100
AcDbLine
10
20.920792
20
-25
30
0
11
22.374658
21
-30.4259
31
0
39
0
210
0
220
0
230
1
0
LINE
5
7C
100
AcDbEntity
8
1
62
256
6
ByLayer
370
18
48
1
60
0
100
AcDbLine
10
21.387307
20
25.15
30
0
11
20.960985
21
25.15
31
0
39
0
210
0
220
0
230
1
0
LINE
5
7D
100
AcDbEntity
8
1
62
256
6
ByLayer
370
18
48
1
60
0
100
AcDbLine
10
22.186968
20
1.150035
30
0
11
22.522828
21
1.22496
31
0
39
0
210
0
220
0
230
1
0
LINE
5
7E
100
AcDbEntity
8
1
62
256
6
ByLayer
370
18
48
1
60
0
100
AcDbLine
10
47.421997
20
-29.665645
30
0
11
47.976106
21
-29.98556
31
0
39
0
210
0
220
0
230
1
0
LINE
5
7F
100
AcDbEntity
8
1
62
256
6
ByLayer
370
18
48
1
60
0
100
AcDbLine
10
58.747988
20
-14.494946
30
0
11
58.365122
21
-14.273898
31
0
39
0
210
0
220
0
230
1
0
LINE
5
80
100
AcDbEntity
8
1
62
256
6
ByLayer
370
18
48
1
60
0
100
AcDbLine
10
39.369124
20
-19.163107
30
0
11
39.24957
21
-19.094083
31
0
39
0
210
0
220
0
230
1
0
LINE
5
81
100
AcDbEntity
8
1
62
256
6
ByLayer
370
18
48
1
60
0
100
AcDbLine
10
40.610113
20
-17.79184
30
0
11
40.896599
21
-17.957242
31
0
39
0
210
0
220
0
230
1
0
LINE
5
82
100
AcDbEntity
8
1
62
256
6
ByLayer
370
18
48
1
60
0
100
AcDbLine
10
40.473605
20
-20.285985
30
0
11
40.187119
21
-20.120582
31
0
39
0
210
0
220
0
230
1
0
LINE
5
83
100
AcDbEntity
8
1
62
256
6
ByLayer
370
18
48
1
60
0
100
AcDbLine
10
41.714593
20
-18.914718
30
0
11
42.001079
21
-19.08012
31
0
39
0
210
0
220
0
230
1
0
LINE
5
84
100
AcDbEntity
8
1
62
256
6
ByLayer
370
18
48
1
60
0
100
AcDbLine
10
38.264923
20
-22.343125
30
0
11
38.574736
21
-22.521996
31
0
39
0
210
0
220
0
230
1
0
LINE
5
85
100
AcDbEntity
8
1
62
256
6
ByLayer
370
18
48
1
60
0
100
AcDbLine
10
42.574736
20
-15.593792
30
0
11
42.264923
21
-15.414922
31
0
39
0
210
0
220
0
230
1
0
LINE
5
86
100
AcDbEntity
8
1
62
256
6
ByLayer
370
18
48
1
60
0
100
AcDbLine
10
24.530652
20
4.838916
30
0
11
17.018153
21
9.754804
31
0
39
0
210
0
220
0
230
1
0
LINE
5
87
100
AcDbEntity
8
1
62
256
6
ByLayer
370
18
48
1
60
0
100
AcDbLine
10
16.839309
20
4.613532
30
0
11
22.121426
21
1.157119
31
0
39
0
210
0
220
0
230
1
0
LINE
5
88
100
AcDbEntity
8
1
62
256
6
ByLayer
370
18
48
1
60
0
100
AcDbLine
10
24.629197
20
4.44393
30
0
11
24.563385
21
4.781694
31
0
39
0
210
0
220
0
230
1
0
LINE
5
89
100
AcDbEntity
8
1
62
256
6
ByLayer
370
18
48
1
60
0
100
AcDbLine
10
35.178455
20
-20.379795
30
0
11
34.586772
21
-20.125128
31
0
39
0
210
0
220
0
230
1
0
LINE
5
8A
100
AcDbEntity
8
80
62
256
6
ByLayer
370
18
48
1
60
0
100
AcDbLine
10
0
20
0
30
0
11
-5
21
0
31
0
39
0
210
0
220
0
230
1
0
LINE
5
8B
100
AcDbEntity
8
4
62
256
6
ByLayer
370
18
48
0.05
60
0
100
AcDbLine
10
0
20
0
30
0
11
60
21
0
31
0
39
0
210
0
220
0
230
1
0
LINE
5
8D
100
AcDbEntity
8
81
62
256
6
ByLayer
370
18
48
1
60
0
100
AcDbLine
10
60
20
-27
30
0
11
70
21
-27
31
0
39
0
210
0
220
0
230
1
0
LINE
5
8E
100
AcDbEntity
8
SK4
62
256
6
ByLayer
370
18
48
0.05
60
0
100
AcDbLine
10
-35
20
0
30
0
11
60
21
0
31
0
39
0
210
0
220
0
230
1
0
LINE
5
90
100
AcDbEntity
8
1
62
256
6
ByLayer
370
18
48
1
60
0
100
AcDbLine
10
39.263614
20
-19.104792
30
0
11
39.330562
21
-19.143445
31
0
39
0
210
0
220
0
230
1
0
LINE
5
91
100
AcDbEntity
8
1
62
256
6
ByLayer
370
18
48
1
60
0
100
AcDbLine
10
47.355329
20
-26.338631
30
0
11
47.588028
21
-29.366558
31
0
39
0
210
0
220
0
230
1
0
LINE
5
92
100
AcDbEntity
8
1
62
256
6
ByLayer
370
18
48
1
60
0
100
AcDbLine
10
58.15512
20
-14.417572
30
0
11
51.077793
21
-16.313936
31
0
39
0
210
0
220
0
230
1
0
LINE
5
93
100
AcDbEntity
8
1
62
256
6
ByLayer
370
18
48
1
60
0
100
AcDbLine
10
47.53072
20
-29.333472
30
0
11
47.588028
21
-29.366558
31
0
39
0
210
0
220
0
230
1
0
LINE
5
94
100
AcDbEntity
8
1
62
256
6
ByLayer
370
18
48
1
60
0
100
AcDbLine
10
50.73073
20
-15.552623
30
0
11
50.204325
21
-15.693673
31
0
39
0
210
0
220
0
230
1
0
LINE
5
95
100
AcDbEntity
8
1
62
256
6
ByLayer
370
18
48
1
60
0
100
AcDbLine
10
58.11062
20
-14.39188
30
0
11
58.15512
21
-14.417572
31
0
39
0
210
0
220
0
230
1
0
LINE
5
96
100
AcDbEntity
8
1
62
256
6
ByLayer
370
18
48
1
60
0
100
AcDbLine
10
53.487293
20
-18.58697
30
0
11
52.836551
21
-18.124911
31
0
39
0
210
0
220
0
230
1
0
LINE
5
97
100
AcDbEntity
8
1
62
256
6
ByLayer
370
18
48
1
60
0
100
AcDbLine
10
56.532029
20
-21.098659
30
0
11
56.235669
21
-20.621869
31
0
39
0
210
0
220
0
230
1
0
LINE
5
98
100
AcDbEntity
8
1
62
256
6
ByLayer
370
18
48
1
60
0
100
AcDbLine
10
55.425539
20
-25.097794
30
0
11
54.9422
21
-25.296791
31
0
39
0
210
0
220
0
230
1
0
LINE
5
99
100
AcDbEntity
8
1
62
256
6
ByLayer
370
18
48
1
60
0
100
AcDbLine
10
50.737124
20
-25.712772
30
0
11
51.534968
21
-25.643164
31
0
39
0
210
0
220
0
230
1
0
LINE
5
9A
100
AcDbEntity
8
1
62
256
6
ByLayer
370
18
48
1
60
0
100
AcDbLine
10
20.920792
20
-24.488619
30
0
11
20.920792
21
-25
31
0
39
0
210
0
220
0
230
1
0
LINE
5
9B
100
AcDbEntity
8
1
62
256
6
ByLayer
370
18
48
1
60
0
100
AcDbLine
10
20.920792
20
25
30
0
11
20.920792
21
24.488619
31
0
39
0
210
0
220
0
230
1
0
LINE
5
9C
100
AcDbEntity
8
1
62
256
6
ByLayer
370
18
48
1
60
0
100
AcDbLine
10
0.3
20
0
30
0
11
0.3
21
-25
31
0
39
0
210
0
220
0
230
1
0
LINE
5
9D
100
AcDbEntity
8
1
62
256
6
ByLayer
370
18
48
1
60
0
100
AcDbLine
10
0.3
20
25
30
0
11
0.3
21
0
31
0
39
0
210
0
220
0
230
1
0
LINE
5
9E
100
AcDbEntity
8
1
62
256
6
ByLayer
370
18
48
1
60
0
100
AcDbLine
10
0
20
0
30
0
11
0
21
-24.7
31
0
39
0
210
0
220
0
230
1
0
LINE
5
9F
100
AcDbEntity
8
1
62
256
6
ByLayer
370
18
48
1
60
0
100
AcDbLine
10
0
20
24.7
30
0
11
0
21
0
31
0
39
0
210
0
220
0
230
1
0
LINE
5
A0
100
AcDbEntity
8
SK1
62
256
6
ByLayer
370
18
48
1
60
0
100
AcDbLine
10
-0.2
20
17.833485
30
0
11
-0.2
21
6.103448
31
0
39
0
210
0
220
0
230
1
0
LINE
5
A2
100
AcDbEntity
8
SK1
62
256
6
ByLayer
370
18
48
1
60
0
100
AcDbLine
10
-0.2
20
-6.103447
30
0
11
-0.2
21
-17.833485
31
0
39
0
210
0
220
0
230
1
0
LINE
5
A3
100
AcDbEntity
8
1
62
256
6
ByLayer
370
18
48
1
60
0
100
AcDbLine
10
21.415098
20
-26.375024
30
0
11
21.415098
21
1.619062
31
0
39
0
210
0
220
0
230
1
0
LINE
5
A4
100
AcDbEntity
8
1
62
256
6
ByLayer
370
18
48
1
60
0
100
AcDbLine
10
21.415098
20
6.876822
30
0
11
21.415098
21
24.647972
31
0
39
0
210
0
220
0
230
1
0
LINE
5
A5
100
AcDbEntity
8
1
62
256
6
ByLayer
370
18
48
1
60
0
100
AcDbLine
10
38.117764
20
-8.798281
30
0
11
37.627361
21
-10.570722
31
0
39
0
210
0
220
0
230
1
0
LINE
5
A6
100
AcDbEntity
8
1
62
256
6
ByLayer
370
18
48
1
60
0
100
AcDbLine
10
47.20333
20
-26.352028
30
0
11
47.457258
21
-29.656195
31
0
39
0
210
0
220
0
230
1
0
LINE
5
A7
100
AcDbEntity
8
1
62
256
6
ByLayer
370
18
48
1
60
0
100
AcDbLine
10
33.770087
20
-24.511882
30
0
11
33.321154
21
-26.134437
31
0
39
0
210
0
220
0
230
1
0
LINE
5
A8
100
AcDbEntity
8
1
62
256
6
ByLayer
370
18
48
1
60
0
100
AcDbLine
10
20.960985
20
25.15
30
0
11
20.960985
21
24.642711
31
0
39
0
210
0
220
0
230
1
0
LINE
5
A9
100
AcDbEntity
8
1
62
256
6
ByLayer
370
18
48
1
60
0
100
AcDbLine
10
47.548686
20
-29.56712
30
0
11
47.300953
21
-26.343558
31
0
39
0
210
0
220
0
230
1
0
LINE
5
AA
100
AcDbEntity
8
1
62
256
6
ByLayer
370
18
48
1
60
0
100
AcDbLine
10
51.527951
20
-16.143846
30
0
11
51.750164
21
-16.085342
31
0
39
0
210
0
220
0
230
1
0
LINE
5
AB
100
AcDbEntity
8
1
62
256
6
ByLayer
370
18
48
1
60
0
100
AcDbLine
10
58.312014
20
-14.357754
30
0
11
58.326035
21
-14.354063
31
0
39
0
210
0
220
0
230
1
0
LINE
5
AC
100
AcDbEntity
8
1
62
256
6
ByLayer
370
18
48
1
60
0
100
AcDbLine
10
50.617252
20
-15.501772
30
0
11
50.650206
21
-15.493096
31
0
39
0
210
0
220
0
230
1
0
LINE
5
AD
100
AcDbEntity
8
1
62
256
6
ByLayer
370
18
48
1
60
0
100
AcDbLine
10
50.654775
20
-15.496454
30
0
11
50.61815
21
-15.506097
31
0
39
0
210
0
220
0
230
1
0
LINE
5
AE
100
AcDbEntity
8
1
62
256
6
ByLayer
370
18
48
1
60
0
100
AcDbLine
10
55.801036
20
-19.80272
30
0
11
55.506725
21
-20.045005
31
0
39
0
210
0
220
0
230
1
0
LINE
5
AF
100
AcDbEntity
8
1
62
256
6
ByLayer
370
18
48
1
60
0
100
AcDbLine
10
53.487308
20
-18.586982
30
0
11
52.497701
21
-17.844311
31
0
39
0
210
0
220
0
230
1
0
LINE
5
B0
100
AcDbEntity
8
1
62
256
6
ByLayer
370
18
48
1
60
0
100
AcDbLine
10
51.534987
20
-25.643162
30
0
11
50.301084
21
-25.783438
31
0
39
0
210
0
220
0
230
1
0
LINE
5
B1
100
AcDbEntity
8
1
62
256
6
ByLayer
370
18
48
1
60
0
100
AcDbLine
10
54.137809
20
-25.814043
30
0
11
54.021773
21
-25.411996
31
0
39
0
210
0
220
0
230
1
0
LINE
5
B2
100
AcDbEntity
8
1
62
256
6
ByLayer
370
18
48
1
60
0
100
AcDbLine
10
50.73103
20
-15.552812
30
0
11
50.204626
21
-15.693861
31
0
39
0
210
0
220
0
230
1
0
LINE
5
B3
100
AcDbEntity
8
1
62
256
6
ByLayer
370
18
48
1
60
0
100
AcDbLine
10
50.393108
20
-15.339304
30
0
11
49.893706
21
-15.473119
31
0
39
0
210
0
220
0
230
1
0
LINE
5
B4
100
AcDbEntity
8
1
62
256
6
ByLayer
370
18
48
1
60
0
100
AcDbLine
10
53.313831
20
-17.936145
30
0
11
55.801036
21
-19.80272
31
0
39
0
210
0
220
0
230
1
0
LINE
5
B5
100
AcDbEntity
8
1
62
256
6
ByLayer
370
18
48
1
60
0
100
AcDbLine
10
51.036608
20
-26.166602
30
0
11
50.756824
21
-26.02745
31
0
39
0
210
0
220
0
230
1
0
LINE
5
B6
100
AcDbEntity
8
1
62
256
6
ByLayer
370
18
48
1
60
0
100
AcDbLine
10
53.467018
20
-17.909148
30
0
11
53.313831
21
-17.936145
31
0
39
0
210
0
220
0
230
1
0
LINE
5
B7
100
AcDbEntity
8
1
62
256
6
ByLayer
370
18
48
1
60
0
100
AcDbLine
10
49.813017
20
-26.439471
30
0
11
50.285892
21
-26.842259
31
0
39
0
210
0
220
0
230
1
0
LINE
5
B8
100
AcDbEntity
8
1
62
256
6
ByLayer
370
18
48
1
60
0
100
AcDbLine
10
55.276768
20
-26.097411
30
0
11
56.422811
21
-25.139512
31
0
39
0
210
0
220
0
230
1
0
LINE
5
B9
100
AcDbEntity
8
1
62
256
6
ByLayer
370
18
48
1
60
0
100
AcDbLine
10
51.036608
20
-26.166602
30
0
11
54.137809
21
-25.814043
31
0
39
0
210
0
220
0
230
1
0
LINE
5
BA
100
AcDbEntity
8
1
62
256
6
ByLayer
370
18
48
1
60
0
100
AcDbLine
10
52.435481
20
-26.614085
30
0
11
51.154534
21
-26.267049
31
0
39
0
210
0
220
0
230
1
0
LINE
5
BB
100
AcDbEntity
8
1
62
256
6
ByLayer
370
18
48
1
60
0
100
AcDbLine
10
51.952761
20
-27.293849
30
0
11
50.285892
21
-26.842259
31
0
39
0
210
0
220
0
230
1
0
LINE
5
BC
100
AcDbEntity
8
1
62
256
6
ByLayer
370
18
48
1
60
0
100
AcDbLine
10
56.839035
20
-18.959831
30
0
11
54.750784
21
-17.181091
31
0
39
0
210
0
220
0
230
1
0
LINE
5
BD
100
AcDbEntity
8
1
62
256
6
ByLayer
370
18
48
1
60
0
100
AcDbLine
10
56.422811
20
-25.139512
30
0
11
56.769235
21
-25.835575
31
0
39
0
210
0
220
0
230
1
0
LINE
5
BE
100
AcDbEntity
8
1
62
256
6
ByLayer
370
18
48
1
60
0
100
AcDbLine
10
54.747966
20
-18.256184
30
0
11
54.750784
21
-17.181091
31
0
39
0
210
0
220
0
230
1
0
LINE
5
BF
100
AcDbEntity
8
1
62
256
6
ByLayer
370
18
48
1
60
0
100
AcDbLine
10
57.420129
20
-21.534952
30
0
11
58.144846
21
-20.86377
31
0
39
0
210
0
220
0
230
1
0
LINE
5
C0
100
AcDbEntity
8
1
62
256
6
ByLayer
370
18
48
1
60
0
100
AcDbLine
10
51.154534
20
-26.267049
30
0
11
51.036608
21
-26.166602
31
0
39
0
210
0
220
0
230
1
0
LINE
5
C1
100
AcDbEntity
8
1
62
256
6
ByLayer
370
18
48
1
60
0
100
AcDbLine
10
54.665433
20
-26.815778
30
0
11
51.952761
21
-27.293849
31
0
39
0
210
0
220
0
230
1
0
LINE
5
C2
100
AcDbEntity
8
1
62
256
6
ByLayer
370
18
48
1
60
0
100
AcDbLine
10
53.083915
20
-16.729501
30
0
11
53.467018
21
-17.909148
31
0
39
0
210
0
220
0
230
1
0
LINE
5
C3
100
AcDbEntity
8
1
62
256
6
ByLayer
370
18
48
1
60
0
100
AcDbLine
10
51.154534
20
-26.267049
30
0
11
50.285892
21
-26.842259
31
0
39
0
210
0
220
0
230
1
0
LINE
5
C4
100
AcDbEntity
8
1
62
256
6
ByLayer
370
18
48
1
60
0
100
AcDbLine
10
54.950525
20
-26.170844
30
0
11
52.435481
21
-26.614085
31
0
39
0
210
0
220
0
230
1
0
LINE
5
C5
100
AcDbEntity
8
1
62
256
6
ByLayer
370
18
48
1
60
0
100
AcDbLine
10
53.006583
20
-17.896252
30
0
11
52.469642
21
-16.837758
31
0
39
0
210
0
220
0
230
1
0
LINE
5
C6
100
AcDbEntity
8
1
62
256
6
ByLayer
370
18
48
1
60
0
100
AcDbLine
10
52.435481
20
-26.614085
30
0
11
51.952761
21
-27.293849
31
0
39
0
210
0
220
0
230
1
0
LINE
5
C7
100
AcDbEntity
8
1
62
256
6
ByLayer
370
18
48
1
60
0
100
AcDbLine
10
54.747966
20
-18.256184
30
0
11
53.467018
21
-17.909148
31
0
39
0
210
0
220
0
230
1
0
LINE
5
C8
100
AcDbEntity
8
1
62
256
6
ByLayer
370
18
48
1
60
0
100
AcDbLine
10
54.950525
20
-26.170844
30
0
11
54.665433
21
-26.815778
31
0
39
0
210
0
220
0
230
1
0
LINE
5
C9
100
AcDbEntity
8
1
62
256
6
ByLayer
370
18
48
1
60
0
100
AcDbLine
10
56.927023
20
-20.132973
30
0
11
57.420129
21
-21.534952
31
0
39
0
210
0
220
0
230
1
0
LINE
5
CA
100
AcDbEntity
8
1
62
256
6
ByLayer
370
18
48
1
60
0
100
AcDbLine
10
53.006583
20
-17.896252
30
0
11
53.313831
21
-17.936145
31
0
39
0
210
0
220
0
230
1
0
LINE
5
CB
100
AcDbEntity
8
1
62
256
6
ByLayer
370
18
48
1
60
0
100
AcDbLine
10
50.756824
20
-26.02745
30
0
11
49.813017
21
-26.439471
31
0
39
0
210
0
220
0
230
1
0
LINE
5
CC
100
AcDbEntity
8
1
62
256
6
ByLayer
370
18
48
1
60
0
100
AcDbLine
10
54.750784
20
-17.181091
30
0
11
53.083915
21
-16.729501
31
0
39
0
210
0
220
0
230
1
0
LINE
5
CD
100
AcDbEntity
8
1
62
256
6
ByLayer
370
18
48
1
60
0
100
AcDbLine
10
56.684081
20
-19.905337
30
0
11
56.839035
21
-18.959831
31
0
39
0
210
0
220
0
230
1
0
LINE
5
CE
100
AcDbEntity
8
1
62
256
6
ByLayer
370
18
48
1
60
0
100
AcDbLine
10
56.684081
20
-19.905337
30
0
11
54.747966
21
-18.256184
31
0
39
0
210
0
220
0
230
1
0
LINE
5
CF
100
AcDbEntity
8
1
62
256
6
ByLayer
370
18
48
1
60
0
100
AcDbLine
10
52.469642
20
-16.837758
30
0
11
53.083915
21
-16.729501
31
0
39
0
210
0
220
0
230
1
0
LINE
5
D0
100
AcDbEntity
8
1
62
256
6
ByLayer
370
18
48
1
60
0
100
AcDbLine
10
8.105662
20
-8.055848
30
0
11
8.105662
21
-23.666502
31
0
39
0
210
0
220
0
230
1
0
LINE
5
D1
100
AcDbEntity
8
1
62
256
6
ByLayer
370
18
48
1
60
0
100
AcDbLine
10
22.067443
20
-27.464875
30
0
11
22.067443
21
-28.867147
31
0
39
0
210
0
220
0
230
1
0
LINE
5
D2
100
AcDbEntity
8
1
62
256
6
ByLayer
370
18
48
1
60
0
100
AcDbLine
10
51.560378
20
-16.022575
30
0
11
58.389102
21
-14.224725
31
0
39
0
210
0
220
0
230
1
0
LINE
5
D3
100
AcDbEntity
8
1
62
256
6
ByLayer
370
18
48
1
60
0
100
AcDbLine
10
11.461325
20
23.83913
30
0
11
11.461325
21
15.626418
31
0
39
0
210
0
220
0
230
1
0
LINE
5
D4
100
AcDbEntity
8
1
62
256
6
ByLayer
370
18
48
1
60
0
100
AcDbLine
10
8.105662
20
23.666502
30
0
11
8.105662
21
15.277633
31
0
39
0
210
0
220
0
230
1
0
LINE
5
D5
100
AcDbEntity
8
1
62
256
6
ByLayer
370
18
48
1
60
0
100
AcDbLine
10
22.166956
20
24.647972
30
0
11
41.468885
21
6.139408
31
0
39
0
210
0
220
0
230
1
0
LINE
5
D6
100
AcDbEntity
8
1
62
256
6
ByLayer
370
18
48
1
60
0
100
AcDbLine
10
22.166956
20
24.647972
30
0
11
21.415098
21
24.647972
31
0
39
0
210
0
220
0
230
1
0
LINE
5
D7
100
AcDbEntity
8
1
62
256
6
ByLayer
370
18
48
1
60
0
100
AcDbLine
10
8.538675
20
23.83913
30
0
11
8.538675
21
15.626418
31
0
39
0
210
0
220
0
230
1
0
LINE
5
D8
100
AcDbEntity
8
1
62
256
6
ByLayer
370
18
48
1
60
0
100
AcDbLine
10
16.840405
20
4.493307
30
0
11
16.836769
21
4.949257
31
0
39
0
210
0
220
0
230
1
0
LINE
5
D9
100
AcDbEntity
8
1
62
256
6
ByLayer
370
18
48
1
60
0
100
AcDbLine
10
8.538675
20
-7.529667
30
0
11
8.538675
21
-23.83913
31
0
39
0
210
0
220
0
230
1
0
LINE
5
DA
100
AcDbEntity
8
1
62
256
6
ByLayer
370
18
48
1
60
0
100
AcDbLine
10
22.067443
20
-27.464875
30
0
11
24.641861
21
-23.005852
31
0
39
0
210
0
220
0
230
1
0
LINE
5
DB
100
AcDbEntity
8
1
62
256
6
ByLayer
370
18
48
1
60
0
100
AcDbLine
10
24.838412
20
-20.908394
30
0
11
28.577971
21
-8.725705
31
0
39
0
210
0
220
0
230
1
0
LINE
5
DC
100
AcDbEntity
8
1
62
256
6
ByLayer
370
18
48
1
60
0
100
AcDbLine
10
35.372848
20
-4.419238
30
0
11
41.468885
21
6.139408
31
0
39
0
210
0
220
0
230
1
0
LINE
5
DD
100
AcDbEntity
8
1
62
256
6
ByLayer
370
18
48
1
60
0
100
AcDbLine
10
17.430319
20
9.545164
30
0
11
17.430319
21
23.455355
31
0
39
0
210
0
220
0
230
1
0
LINE
5
DE
100
AcDbEntity
8
1
62
256
6
ByLayer
370
18
48
1
60
0
100
AcDbLine
10
44.596133
20
-30.422832
30
0
11
22.471695
21
-30.422832
31
0
39
0
210
0
220
0
230
1
0
LINE
5
DF
100
AcDbEntity
8
1
62
256
6
ByLayer
370
18
48
1
60
0
100
AcDbLine
10
49.036284
20
-14.255217
30
0
11
48.8385
21
-14.272453
31
0
39
0
210
0
220
0
230
1
0
LINE
5
E0
100
AcDbEntity
8
1
62
256
6
ByLayer
370
18
48
1
60
0
100
AcDbLine
10
58.389102
20
-14.224725
30
0
11
58.326035
21
-14.354063
31
0
39
0
210
0
220
0
230
1
0
LINE
5
E1
100
AcDbEntity
8
1
62
256
6
ByLayer
370
18
48
1
60
0
100
AcDbLine
10
11.894338
20
14.368241
30
0
11
11.894338
21
8.055848
31
0
39
0
210
0
220
0
230
1
0
LINE
5
E2
100
AcDbEntity
8
1
62
256
6
ByLayer
370
18
48
1
60
0
100
AcDbLine
10
11.461325
20
-23.83913
30
0
11
8.538675
21
-23.83913
31
0
39
0
210
0
220
0
230
1
0
LINE
5
E3
100
AcDbEntity
8
1
62
256
6
ByLayer
370
18
48
1
60
0
100
AcDbLine
10
11.461325
20
7.529667
30
0
11
8.538675
21
7.529667
31
0
39
0
210
0
220
0
230
1
0
LINE
5
E4
100
AcDbEntity
8
1
62
256
6
ByLayer
370
18
48
1
60
0
100
AcDbLine
10
17.559252
20
4.022922
30
0
11
17.430319
21
4.107291
31
0
39
0
210
0
220
0
230
1
0
LINE
5
E5
100
AcDbEntity
8
1
62
256
6
ByLayer
370
18
48
1
60
0
100
AcDbLine
10
17.430319
20
-23.455355
30
0
11
17.430319
21
4.107291
31
0
39
0
210
0
220
0
230
1
0
LINE
5
E6
100
AcDbEntity
8
1
62
256
6
ByLayer
370
18
48
1
60
0
100
AcDbLine
10
58.059249
20
-9.932601
30
0
11
41.468885
21
6.139408
31
0
39
0
210
0
220
0
230
1
0
LINE
5
E7
100
AcDbEntity
8
1
62
256
6
ByLayer
370
18
48
1
60
0
100
AcDbLine
10
11.894338
20
-8.055848
30
0
11
11.894338
21
-23.666502
31
0
39
0
210
0
220
0
230
1
0
LINE
5
E8
100
AcDbEntity
8
1
62
256
6
ByLayer
370
18
48
1
60
0
100
AcDbLine
10
17.430319
20
4.107291
30
0
11
16.840405
21
4.493307
31
0
39
0
210
0
220
0
230
1
0
LINE
5
E9
100
AcDbEntity
8
1
62
256
6
ByLayer
370
18
48
1
60
0
100
AcDbLine
10
11.894338
20
23.666502
30
0
11
11.894338
21
15.277633
31
0
39
0
210
0
220
0
230
1
0
LINE
5
EA
100
AcDbEntity
8
1
62
256
6
ByLayer
370
18
48
1
60
0
100
AcDbLine
10
47.457258
20
-29.656195
30
0
11
44.596133
21
-30.422832
31
0
39
0
210
0
220
0
230
1
0
LINE
5
EB
100
AcDbEntity
8
1
62
256
6
ByLayer
370
18
48
1
60
0
100
AcDbLine
10
8.538675
20
23.83913
30
0
11
11.461325
21
23.83913
31
0
39
0
210
0
220
0
230
1
0
LINE
5
EC
100
AcDbEntity
8
1
62
256
6
ByLayer
370
18
48
1
60
0
100
AcDbLine
10
8.538675
20
13.690625
30
0
11
8.538675
21
7.529667
31
0
39
0
210
0
220
0
230
1
0
LINE
5
ED
100
AcDbEntity
8
1
62
256
6
ByLayer
370
18
48
1
60
0
100
AcDbLine
10
58.059249
20
-9.932601
30
0
11
58.389102
21
-14.224725
31
0
39
0
210
0
220
0
230
1
0
LINE
5
EE
100
AcDbEntity
8
1
62
256
6
ByLayer
370
18
48
1
60
0
100
AcDbLine
10
16.988964
20
9.609665
30
0
11
17.24795
21
10.894627
31
0
39
0
210
0
220
0
230
1
0
LINE
5
EF
100
AcDbEntity
8
1
62
256
6
ByLayer
370
18
48
1
60
0
100
AcDbLine
10
47.457258
20
-29.656195
30
0
11
47.548686
21
-29.56712
31
0
39
0
210
0
220
0
230
1
0
LINE
5
F0
100
AcDbEntity
8
1
62
256
6
ByLayer
370
18
48
1
60
0
100
AcDbLine
10
38.117764
20
-8.798281
30
0
11
37.417843
21
-8.583435
31
0
39
0
210
0
220
0
230
1
0
LINE
5
F1
100
AcDbEntity
8
1
62
256
6
ByLayer
370
18
48
1
60
0
100
AcDbLine
10
33.321154
20
-26.134437
30
0
11
32.621233
21
-25.919592
31
0
39
0
210
0
220
0
230
1
0
LINE
5
F2
100
AcDbEntity
8
1
62
256
6
ByLayer
370
18
48
1
60
0
100
AcDbLine
10
8.105662
20
14.368241
30
0
11
8.105662
21
8.055848
31
0
39
0
210
0
220
0
230
1
0
LINE
5
F3
100
AcDbEntity
8
1
62
256
6
ByLayer
370
18
48
1
60
0
100
AcDbLine
10
11.461325
20
13.690625
30
0
11
11.461325
21
7.529667
31
0
39
0
210
0
220
0
230
1
0
LINE
5
F4
100
AcDbEntity
8
1
62
256
6
ByLayer
370
18
48
1
60
0
100
AcDbLine
10
11.461325
20
-7.529667
30
0
11
11.461325
21
-23.83913
31
0
39
0
210
0
220
0
230
1
0
LINE
5
F5
100
AcDbEntity
8
1
62
256
6
ByLayer
370
18
48
1
60
0
100
AcDbLine
10
8.538675
20
-7.529667
30
0
11
11.461325
21
-7.529667
31
0
39
0
210
0
220
0
230
1
0
LINE
5
F6
100
AcDbEntity
8
SK1
62
256
6
ByLayer
370
18
48
1
60
0
100
AcDbLine
10
-1.307107
20
3.918065
30
0
11
-1.307107
21
-3.918065
31
0
39
0
210
0
220
0
230
1
0
LINE
5
F7
100
AcDbEntity
8
1
62
256
6
ByLayer
370
18
48
1
60
0
100
AcDbLine
10
59.997664
20
-26.325251
30
0
11
59.136066
21
-15.113948
31
0
39
0
210
0
220
0
230
1
0
LINE
5
F8
100
AcDbEntity
8
1
62
256
6
ByLayer
370
18
48
1
60
0
100
AcDbLine
10
48.568974
20
-30.062934
30
0
11
59.408703
21
-27.158438
31
0
39
0
210
0
220
0
230
1
0
LINE
5
F9
100
AcDbEntity
8
1
62
256
6
ByLayer
370
18
48
1
60
0
100
AcDbLine
10
29.996282
20
-11.510305
30
0
11
31.513784
21
-12.163454
31
0
39
0
210
0
220
0
230
1
0
LINE
5
FA
100
AcDbEntity
8
1
62
256
6
ByLayer
370
18
48
1
60
0
100
AcDbLine
10
50.212223
20
-25.730985
30
0
11
50.238175
21
-25.731667
31
0
39
0
210
0
220
0
230
1
0
LINE
5
FB
100
AcDbEntity
8
1
62
256
6
ByLayer
370
18
48
1
60
0
100
AcDbLine
10
34.193766
20
-19.988255
30
0
11
31.821027
21
-19.347126
31
0
39
0
210
0
220
0
230
1
0
LINE
5
FC
100
AcDbEntity
8
1
62
256
6
ByLayer
370
18
48
1
60
0
100
AcDbLine
10
31.821027
20
-19.347126
30
0
11
32.857896
21
-19.667766
31
0
39
0
210
0
220
0
230
1
0
LINE
5
FD
100
AcDbEntity
8
1
62
256
6
ByLayer
370
18
48
1
60
0
100
AcDbLine
10
34.750596
20
-20.227921
30
0
11
34.193766
21
-19.988255
31
0
39
0
210
0
220
0
230
1
0
LINE
5
FE
100
AcDbEntity
8
1
62
256
6
ByLayer
370
18
48
1
60
0
100
AcDbLine
10
33.280961
20
-9.230061
30
0
11
34.874802
21
-9.916067
31
0
39
0
210
0
220
0
230
1
0
LINE
5
FF
100
AcDbEntity
8
1
62
256
6
ByLayer
370
18
48
1
60
0
100
AcDbLine
10
35.606097
20
-10.142212
30
0
11
34.874802
21
-9.916067
31
0
39
0
210
0
220
0
230
1
0
LINE
5
100
100
AcDbEntity
8
1
62
256
6
ByLayer
370
18
48
1
60
0
100
AcDbLine
10
33.206714
20
-14.338903
30
0
11
34.243583
21
-14.659542
31
0
39
0
210
0
220
0
230
1
0
LINE
5
101
100
AcDbEntity
8
1
62
256
6
ByLayer
370
18
48
1
60
0
100
AcDbLine
10
27.768523
20
-19.561986
30
0
11
29.286025
21
-20.215135
31
0
39
0
210
0
220
0
230
1
0
LINE
5
102
100
AcDbEntity
8
1
62
256
6
ByLayer
370
18
48
1
60
0
100
AcDbLine
10
32.857896
20
-19.667766
30
0
11
32.43686
21
-21.189495
31
0
39
0
210
0
220
0
230
1
0
LINE
5
103
100
AcDbEntity
8
1
62
256
6
ByLayer
370
18
48
1
60
0
100
AcDbLine
10
44.016803
20
-12.420848
30
0
11
35.606097
21
-10.142212
31
0
39
0
210
0
220
0
230
1
0
LINE
5
104
100
AcDbEntity
8
1
62
256
6
ByLayer
370
18
48
1
60
0
100
AcDbLine
10
52.391219
20
-17.855546
30
0
11
51.523136
21
-17.239164
31
0
39
0
210
0
220
0
230
1
0
LINE
5
105
100
AcDbEntity
8
1
62
256
6
ByLayer
370
18
48
1
60
0
100
AcDbLine
10
42.699257
20
-15.382133
30
0
11
40.736801
21
-14.850463
31
0
39
0
210
0
220
0
230
1
0
LINE
5
106
100
AcDbEntity
8
1
62
256
6
ByLayer
370
18
48
1
60
0
100
AcDbLine
10
34.664619
20
-13.137813
30
0
11
34.243583
21
-14.659542
31
0
39
0
210
0
220
0
230
1
0
LINE
5
107
100
AcDbEntity
8
1
62
256
6
ByLayer
370
18
48
1
60
0
100
AcDbLine
10
38.525031
20
-22.844357
30
0
11
38.017405
21
-22.625869
31
0
39
0
210
0
220
0
230
1
0
LINE
5
108
100
AcDbEntity
8
1
62
256
6
ByLayer
370
18
48
1
60
0
100
AcDbLine
10
40.809664
20
-26.413537
30
0
11
42.489443
21
-26.763309
31
0
39
0
210
0
220
0
230
1
0
LINE
5
109
100
AcDbEntity
8
1
62
256
6
ByLayer
370
18
48
1
60
0
100
AcDbLine
10
38.017405
20
-22.625869
30
0
11
39.971108
21
-23.153772
31
0
39
0
210
0
220
0
230
1
0
LINE
5
10A
100
AcDbEntity
8
1
62
256
6
ByLayer
370
18
48
1
60
0
100
AcDbLine
10
34.664619
20
-13.137813
30
0
11
31.513784
21
-12.163454
31
0
39
0
210
0
220
0
230
1
0
LINE
5
10B
100
AcDbEntity
8
1
62
256
6
ByLayer
370
18
48
1
60
0
100
AcDbLine
10
40.487487
20
-23.376027
30
0
11
39.971108
21
-23.153772
31
0
39
0
210
0
220
0
230
1
0
LINE
5
10C
100
AcDbEntity
8
1
62
256
6
ByLayer
370
18
48
1
60
0
100
AcDbLine
10
52.414224
20
-17.866876
30
0
11
52.391219
21
-17.855546
31
0
39
0
210
0
220
0
230
1
0
LINE
5
10D
100
AcDbEntity
8
1
62
256
6
ByLayer
370
18
48
1
60
0
100
AcDbLine
10
31.432113
20
-23.187296
30
0
11
40.642814
21
-25.682668
31
0
39
0
210
0
220
0
230
1
0
LINE
5
10E
100
AcDbEntity
8
1
62
256
6
ByLayer
370
18
48
1
60
0
100
AcDbLine
10
34.862753
20
-10.788097
30
0
11
44.073455
21
-13.283469
31
0
39
0
210
0
220
0
230
1
0
LINE
5
10F
100
AcDbEntity
8
1
62
256
6
ByLayer
370
18
48
1
60
0
100
AcDbLine
10
48.684919
20
-26.222791
30
0
11
42.489443
21
-26.763309
31
0
39
0
210
0
220
0
230
1
0
LINE
5
110
100
AcDbEntity
8
1
62
256
6
ByLayer
370
18
48
1
60
0
100
AcDbLine
10
49.147907
20
-25.82384
30
0
11
50.212223
21
-25.730985
31
0
39
0
210
0
220
0
230
1
0
LINE
5
111
100
AcDbEntity
8
1
62
256
6
ByLayer
370
18
48
1
60
0
100
AcDbLine
10
38.525031
20
-22.844357
30
0
11
40.487487
21
-23.376027
31
0
39
0
210
0
220
0
230
1
0
LINE
5
112
100
AcDbEntity
8
1
62
256
6
ByLayer
370
18
48
1
60
0
100
AcDbLine
10
44.636293
20
-12.583136
30
0
11
46.316071
21
-12.932909
31
0
39
0
210
0
220
0
230
1
0
LINE
5
113
100
AcDbEntity
8
1
62
256
6
ByLayer
370
18
48
1
60
0
100
AcDbLine
10
32.43686
20
-21.189495
30
0
11
29.286025
21
-20.215135
31
0
39
0
210
0
220
0
230
1
0
LINE
5
114
100
AcDbEntity
8
1
62
256
6
ByLayer
370
18
48
1
60
0
100
AcDbLine
10
37.812709
20
-10.62917
30
0
11
46.316071
21
-12.932909
31
0
39
0
210
0
220
0
230
1
0
LINE
5
115
100
AcDbEntity
8
1
62
256
6
ByLayer
370
18
48
1
60
0
100
AcDbLine
10
31.513784
20
-12.163454
30
0
11
29.286025
21
-20.215135
31
0
39
0
210
0
220
0
230
1
0
LINE
5
116
100
AcDbEntity
8
1
62
256
6
ByLayer
370
18
48
1
60
0
100
AcDbLine
10
31.779469
20
-23.972613
30
0
11
40.190174
21
-26.251249
31
0
39
0
210
0
220
0
230
1
0
LINE
5
117
100
AcDbEntity
8
1
62
256
6
ByLayer
370
18
48
1
60
0
100
AcDbLine
10
46.316071
20
-12.932909
30
0
11
51.369255
21
-16.520925
31
0
39
0
210
0
220
0
230
1
0
LINE
5
118
100
AcDbEntity
8
1
62
256
6
ByLayer
370
18
48
1
60
0
100
AcDbLine
10
29.996282
20
-11.510305
30
0
11
27.768523
21
-19.561986
31
0
39
0
210
0
220
0
230
1
0
LINE
5
119
100
AcDbEntity
8
1
62
256
6
ByLayer
370
18
48
1
60
0
100
AcDbLine
10
31.821027
20
-19.347126
30
0
11
33.206714
21
-14.338903
31
0
39
0
210
0
220
0
230
1
0
LINE
5
11A
100
AcDbEntity
8
1
62
256
6
ByLayer
370
18
48
1
60
0
100
AcDbLine
10
35.576201
20
-9.923384
30
0
11
37.812709
21
-10.62917
31
0
39
0
210
0
220
0
230
1
0
LINE
5
11B
100
AcDbEntity
8
1
62
256
6
ByLayer
370
18
48
1
60
0
100
AcDbLine
10
39.729049
20
-20.146493
30
0
11
40.015535
21
-20.311895
31
0
39
0
210
0
220
0
230
1
0
LINE
5
11C
100
AcDbEntity
8
1
62
256
6
ByLayer
370
18
48
1
60
0
100
AcDbLine
10
41.083589
20
-20.124662
30
0
11
41.370075
21
-20.290064
31
0
39
0
210
0
220
0
230
1
0
LINE
5
11D
100
AcDbEntity
8
1
62
256
6
ByLayer
370
18
48
1
60
0
100
AcDbLine
10
41.553008
20
-19.657764
30
0
11
41.839494
21
-19.823167
31
0
39
0
210
0
220
0
230
1
0
LINE
5
11E
100
AcDbEntity
8
1
62
256
6
ByLayer
370
18
48
1
60
0
100
AcDbLine
10
40.43516
20
-17.594431
30
0
11
40.721646
21
-17.759833
31
0
39
0
210
0
220
0
230
1
0
LINE
5
11F
100
AcDbEntity
8
1
62
256
6
ByLayer
370
18
48
1
60
0
100
AcDbLine
10
41.589552
20
-18.295984
30
0
11
41.876038
21
-18.461386
31
0
39
0
210
0
220
0
230
1
0
MTEXT
5
20D
100
AcDbEntity
8
SK6
62
256
6
ByLayer
370
18
48
1
60
0
100
AcDbMText
10
-1.625
20
32.06277
30
0
210
0
220
0
230
1
1
\W0.7235;C5-CCRNL-27060-12-4
40
3.5
41
0
44
1.084337
50
0
71
7
72
5
7
iso_b_vert
0
DIMENSION
5
21E
100
AcDbEntity
8
2
62
256
6
ByLayer
370
13
48
1
60
0
100
AcDbDimension
2
DimnDraft3D1
10
60
20
-25.4125
30
0
11
49.668976
21
-40.463653
31
0
70
34
71
5
72
1
41
1
210
0
220
0
230
1
3
Standard
100
AcDb2LineAngularDimension
13
60
23
-27
33
0
14
55.556741
24
-28.190568
34
0
15
60
25
-27
35
0
16
46.92955
26
-44.033743
36
0
40
0
0
DIMENSION
5
233
100
AcDbEntity
8
2
62
256
6
ByLayer
370
13
48
1
60
0
100
AcDbDimension
2
DimnDraft3D2
10
60
20
-54.25
30
0
11
24.718421
21
-54.25
31
0
70
32
71
5
72
1
41
1
210
0
220
0
230
1
3
Standard
100
AcDbAlignedDimension
13
0
23
-27
33
0
14
60
24
-29
34
0
50
0
100
AcDbRotatedDimension
1001
ACAD
1000
DSTYLE
1002
{
1070
   279
1070
     0
1070
   172
1070
     1
1070
   173
1070
     1
1070
   340
1005
20E
1070
    77
1070
     1
1070
    73
1070
     0
1070
   171
1070
     3
1070
   274
1070
     4
1070
   177
1070
     2
1070
   176
1070
     2
1070
   178
1070
     7
1070
    78
1070
     8
1070
    41
1041
3.175
1070
   147
1041
2.25
1070
    42
1041
2.0
1070
    44
1041
2.0
1070
   140
1041
4.5
1070
   343
1005
21F
1070
   344
1005
21F
1002
}
0
DIMENSION
5
242
100
AcDbEntity
8
SK2
62
256
6
ByLayer
370
13
48
1
60
0
100
AcDbDimension
2
DimnDraft3D3
10
-37.75
20
25
30
0
11
-37.75
21
-2.688158
31
0
70
32
71
5
72
1
41
1
210
0
220
0
230
1
3
Standard
100
AcDbAlignedDimension
13
-2
23
-25
33
0
14
-2
24
25
34
0
50
90
100
AcDbRotatedDimension
1001
ACAD
1000
DSTYLE
1002
{
1070
    74
1070
     0
1070
   279
1070
     0
1070
   172
1070
     1
1070
   173
1070
     1
1070
   340
1005
20E
1070
    77
1070
     1
1070
    73
1070
     0
1070
   171
1070
     3
1070
   274
1070
     4
1070
   177
1070
     2
1070
   176
1070
     2
1070
   178
1070
     7
1070
    78
1070
     8
1070
    41
1041
3.175
1070
   147
1041
2.25
1070
    42
1041
2.0
1070
    44
1041
2.0
1070
   140
1041
4.5
1070
   343
1005
21F
1070
   344
1005
21F
1002
}
0
DIMENSION
5
250
100
AcDbEntity
8
2
62
256
6
ByLayer
370
13
48
1
60
0
100
AcDbDimension
2
DimnDraft3D4
10
82.25
20
-27
30
0
11
82.25
21
-18.781579
31
0
70
32
71
5
72
1
41
1
210
0
220
0
230
1
3
Standard
100
AcDbAlignedDimension
13
62
23
0
33
0
14
62
24
-27
34
0
50
90
100
AcDbRotatedDimension
1001
ACAD
1000
DSTYLE
1002
{
1070
    74
1070
     0
1070
   279
1070
     0
1070
   172
1070
     1
1070
   173
1070
     1
1070
   340
1005
20E
1070
    77
1070
     1
1070
    73
1070
     0
1070
   171
1070
     3
1070
   274
1070
     4
1070
   177
1070
     2
1070
   176
1070
     2
1070
   178
1070
     7
1070
    78
1070
     8
1070
    41
1041
3.175
1070
   147
1041
2.25
1070
    42
1041
2.0
1070
    44
1041
2.0
1070
   140
1041
4.5
1070
   343
1005
21F
1070
   344
1005
21F
1002
}
0
ENDSEC
0
SECTION
2
OBJECTS
0
DICTIONARY
5
2bb
330
0
100
AcDbDictionary
280
0
281
1
3
ACAD_GROUP
350
2bc
3
ACAD_MLINESTYLE
350
2bd
0
DICTIONARY
5
2bc
330
0
100
AcDbDictionary
280
0
281
1
0
DICTIONARY
5
2bd
330
0
100
AcDbDictionary
280
0
281
1
3
Standard
350
18
0
MLINESTYLE
5
18
330
2bd
100
AcDbMlineStyle
2
Standard
70
0
3

62
256
51
90
52
90
71
2
49
-0.5
62
256
6
ByLayer
49
0.5
62
256
6
ByLayer
0
RASTERVARIABLES
5
2a9
330

100
AcDbRasterVariables
90
0
70
1
71
1
72
1
0
ENDSEC
0
EOF
