0
SECTION
2
HEADER
9
$ACADVER
1
AC1015
9
$DWGCODEPAGE
3
ANSI_1252
9
$HANDSEED
5
2c7
9
$ANGBASE
50
0
9
$ANGDIR
70
0
9
$ATTMODE
70
1
9
$AUNITS
70
0
9
$AUPREC
70
0
9
$CECOLOR
62
256
9
$CELTSCALE
40
1
9
$CELTYPE
6
ByLayer
9
$CELWEIGHT
370
18
9
$CLAYER
8
0
9
$CMLJUST
70
0
9
$CMLSCALE
40
1
9
$CMLSTYLE
2
Standard
9
$DIMSTYLE
2
Standard
9
$TEXTSIZE
40
0.2
9
$TEXTSTYLE
7
Standard
9
$LUNITS
70
2
9
$LUPREC
70
4
9
$EXTNAMES
290
1
9
$INSUNITS
70
4
9
$LTSCALE
40
1
9
$LWDISPLAY
290
1
9
$PDMODE
70
0
9
$PDSIZE
40
0
9
$PLINEGEN
70
0
0
ENDSEC
0
SECTION
2
CLASSES
0
CLASS
1
RASTERVARIABLES
2
AcDbRasterVariables
3
ISM
90
0
280
0
281
0
0
ENDSEC
0
SECTION
2
TABLES
0
TABLE
2
VPORT
5
2bd
100
AcDbSymbolTable
0
VPORT
5
1
100
AcDbSymbolTableRecord
100
AcDbViewportTableRecord
2
*Active
70
0
10
0
20
0
11
1
21
1
12
-1
22
1
13
0
23
0
14
0.5
24
0.5
15
10
25
10
16
0
26
0
36
1
17
0
27
0
37
0
0
ENDTAB
0
TABLE
2
LTYPE
5
2be
100
AcDbSymbolTable
0
LTYPE
5
14
100
AcDbSymbolTableRecord
100
AcDbLinetypeTableRecord
70
0
2
ByBlock
3

72
65
73
0
40
0
0
LTYPE
5
15
100
AcDbSymbolTableRecord
100
AcDbLinetypeTableRecord
70
0
2
ByLayer
3

72
65
73
0
40
0
0
LTYPE
5
16
100
AcDbSymbolTableRecord
100
AcDbLinetypeTableRecord
70
0
2
CONTINUOUS
3
Solid line
72
65
73
0
40
0
0
LTYPE
5
6A
100
AcDbSymbolTableRecord
100
AcDbLinetypeTableRecord
70
0
2
CENTER
3
____ _ ____ _ ____ _ ____
72
65
73
4
40
47.5
49
22
74
0
49
-8.5
74
0
49
8.5
74
0
49
-8.5
74
0
0
LTYPE
5
6B
100
AcDbSymbolTableRecord
100
AcDbLinetypeTableRecord
70
0
2
DASHED
3
__ __ __ __ __ __ __ __ __
72
65
73
2
40
25.72
49
12.86
74
0
49
-12.86
74
0
0
ENDTAB
0
TABLE
2
LAYER
5
2bf
100
AcDbSymbolTable
0
LAYER
5
10
100
AcDbSymbolTableRecord
100
AcDbLayerTableRecord
2
0
70
0
62
7
6
CONTINUOUS
290
1
370
-3
390
0
0
LAYER
5
6D
100
AcDbSymbolTableRecord
100
AcDbLayerTableRecord
2
2
70
0
62
7
6
CONTINUOUS
290
1
370
-3
390
0
0
LAYER
5
6F
100
AcDbSymbolTableRecord
100
AcDbLayerTableRecord
2
80
70
0
62
-6
6
CONTINUOUS
290
1
370
-3
390
0
0
LAYER
5
71
100
AcDbSymbolTableRecord
100
AcDbLayerTableRecord
2
81
70
0
62
-3
6
CONTINUOUS
290
1
370
-3
390
0
0
LAYER
5
73
100
AcDbSymbolTableRecord
100
AcDbLayerTableRecord
2
1
70
0
62
4
6
CONTINUOUS
290
1
370
-3
390
0
0
LAYER
5
88
100
AcDbSymbolTableRecord
100
AcDbLayerTableRecord
2
4
70
0
62
-2
6
CENTER
290
1
370
-3
390
0
0
LAYER
5
2a9
100
AcDbSymbolTableRecord
100
AcDbLayerTableRecord
2
SK4
70
0
62
2
6
CENTER
290
1
370
-3
390
0
0
LAYER
5
2aa
100
AcDbSymbolTableRecord
100
AcDbLayerTableRecord
2
SK1
70
0
62
4
6
CONTINUOUS
290
1
370
-3
390
0
0
LAYER
5
2ab
100
AcDbSymbolTableRecord
100
AcDbLayerTableRecord
2
SK6
70
0
62
5
6
CONTINUOUS
290
1
370
-3
390
0
0
LAYER
5
2ac
100
AcDbSymbolTableRecord
100
AcDbLayerTableRecord
2
SK2
70
0
62
7
6
CONTINUOUS
290
1
370
-3
390
0
0
ENDTAB
0
TABLE
2
STYLE
5
2c0
100
AcDbSymbolTable
0
STYLE
5
11
100
AcDbSymbolTableRecord
100
AcDbTextStyleTableRecord
2
Standard
3
txt
70
0
71
0
40
0
41
1
42
0
50
0
0
STYLE
5
20D
100
AcDbSymbolTableRecord
100
AcDbTextStyleTableRecord
2
iso_b_vert
3
simplex.shx
70
0
71
0
40
0
41
1
42
0
50
0
0
STYLE
5
20E
100
AcDbSymbolTableRecord
100
AcDbTextStyleTableRecord
2
DWGDirectTextStyle
3
simplex
70
0
71
0
40
0
41
1
42
0
50
0
0
ENDTAB
0
TABLE
2
DIMSTYLE
5
2c1
100
AcDbSymbolTable
100
AcDbDimStyleTable
0
DIMSTYLE
105
27
100
AcDbSymbolTableRecord
100
AcDbDimStyleTableRecord
2
Standard
70
0
3
<>
41
0.18
42
0.0625
44
0.18
140
0.18
147
0.09
73
0
74
0
77
1
271
2
275
0
278
52
280
0
340
11
0
ENDTAB
0
TABLE
2
VIEW
5
2c2
100
AcDbSymbolTable
0
ENDTAB
0
TABLE
2
UCS
5
2c3
100
AcDbSymbolTable
0
ENDTAB
0
TABLE
2
APPID
5
2c4
100
AcDbSymbolTable
0
APPID
5
12
100
AcDbSymbolTableRecord
100
AcDbRegAppTableRecord
2
ACAD
70
0
0
ENDTAB
0
TABLE
2
BLOCK_RECORD
5
2c5
100
AcDbSymbolTable
0
BLOCK_RECORD
5
1F
100
AcDbSymbolTableRecord
100
AcDbBlockTableRecord
2
*Model_Space
340
0
70
0
0
BLOCK_RECORD
5
1B
100
AcDbSymbolTableRecord
100
AcDbBlockTableRecord
2
*Paper_Space
340
0
70
0
0
BLOCK_RECORD
5
23
100
AcDbSymbolTableRecord
100
AcDbBlockTableRecord
2
*Paper_Space0
340
0
70
0
0
BLOCK_RECORD
5
210
100
AcDbSymbolTableRecord
100
AcDbBlockTableRecord
2
DimnDraft3D11
340
0
70
0
0
BLOCK_RECORD
5
21E
100
AcDbSymbolTableRecord
100
AcDbBlockTableRecord
2
DimnDraft3D2
340
0
70
0
0
BLOCK_RECORD
5
22C
100
AcDbSymbolTableRecord
100
AcDbBlockTableRecord
2
_CLOSED
340
0
70
0
0
BLOCK_RECORD
5
233
100
AcDbSymbolTableRecord
100
AcDbBlockTableRecord
2
DimnDraft3D3
340
0
70
0
0
BLOCK_RECORD
5
242
100
AcDbSymbolTableRecord
100
AcDbBlockTableRecord
2
DimnDraft3D4
340
0
70
0
0
ENDTAB
0
ENDSEC
0
SECTION
2
BLOCKS
0
BLOCK
5
20
100
AcDbEntity
8
0
100
AcDbBlockBegin
2
*Model_Space
70
0
10
0
20
0
30
0
3
*Model_Space
0
ENDBLK
5
21
100
AcDbEntity
8
0
100
AcDbBlockEnd
0
BLOCK
5
1C
100
AcDbEntity
8
0
100
AcDbBlockBegin
2
*Paper_Space
70
0
10
0
20
0
30
0
3
*Paper_Space
0
ENDBLK
5
1D
100
AcDbEntity
8
0
100
AcDbBlockEnd
0
BLOCK
5
24
100
AcDbEntity
8
0
100
AcDbBlockBegin
2
*Paper_Space0
70
0
10
0
20
0
30
0
3
*Paper_Space0
0
ENDBLK
5
25
100
AcDbEntity
8
0
100
AcDbBlockEnd
0
BLOCK
5
211
100
AcDbEntity
8
0
100
AcDbBlockBegin
2
DimnDraft3D11
70
0
10
0
20
0
30
0
3
DimnDraft3D11
0
LINE
5
213
100
AcDbEntity
8
2
62
256
6
ByLayer
370
25
48
1
60
0
100
AcDbLine
10
60
20
37
30
0
11
60
21
65.75
31
0
39
0
210
0
220
0
230
1
0
LINE
5
214
100
AcDbEntity
8
2
62
256
6
ByLayer
370
25
48
1
60
0
100
AcDbLine
10
0
20
27
30
0
11
0
21
65.75
31
0
39
0
210
0
220
0
230
1
0
LINE
5
215
100
AcDbEntity
8
2
62
256
6
ByLayer
370
25
48
1
60
0
100
AcDbLine
10
60
20
63.75
30
0
11
0
21
63.75
31
0
39
0
210
0
220
0
230
1
0
LINE
5
216
100
AcDbEntity
8
2
62
256
6
ByLayer
370
25
48
1
60
0
100
AcDbLine
10
60
20
63.75
30
0
11
56.825002
21
63.332003
31
0
39
0
210
0
220
0
230
1
0
LINE
5
217
100
AcDbEntity
8
2
62
256
6
ByLayer
370
25
48
1
60
0
100
AcDbLine
10
60
20
63.75
30
0
11
56.824998
21
64.167997
31
0
39
0
210
0
220
0
230
1
0
LINE
5
218
100
AcDbEntity
8
2
62
256
6
ByLayer
370
25
48
1
60
0
100
AcDbLine
10
56.825002
20
63.332003
30
0
11
56.824998
21
64.167997
31
0
39
0
210
0
220
0
230
1
0
LINE
5
219
100
AcDbEntity
8
2
62
256
6
ByLayer
370
25
48
1
60
0
100
AcDbLine
10
0
20
63.75
30
0
11
3.174998
21
64.167997
31
0
39
0
210
0
220
0
230
1
0
LINE
5
21A
100
AcDbEntity
8
2
62
256
6
ByLayer
370
25
48
1
60
0
100
AcDbLine
10
0
20
63.75
30
0
11
3.175002
21
63.332003
31
0
39
0
210
0
220
0
230
1
0
LINE
5
21B
100
AcDbEntity
8
2
62
256
6
ByLayer
370
25
48
1
60
0
100
AcDbLine
10
3.174998
20
64.167997
30
0
11
3.175002
21
63.332003
31
0
39
0
210
0
220
0
230
1
0
MTEXT
5
21C
100
AcDbEntity
8
2
62
256
6
ByLayer
370
18
48
1
60
0
100
AcDbMText
10
25.843421
20
64.875
30
0
210
0
220
0
230
1
1
\W0.7346;60.0
40
4.5
41
0
44
1.084337
50
0
71
7
72
5
7
iso_b_vert
0
ENDBLK
5
212
100
AcDbEntity
8
0
100
AcDbBlockEnd
0
BLOCK
5
229
100
AcDbEntity
8
0
100
AcDbBlockBegin
2
DimnDraft3D2
70
0
10
0
20
0
30
0
3
DimnDraft3D2
0
MTEXT
5
21F
100
AcDbEntity
8
2
62
256
6
ByLayer
370
18
48
1
60
0
100
AcDbMText
10
48.075961
20
42.118216
30
0
210
0
220
0
230
1
1
\W0.7399;95%%d
40
4.5
41
0
44
1.084337
50
47.3457231600001
71
7
72
5
7
iso_b_vert
0
LINE
5
220
100
AcDbEntity
8
2
62
256
6
ByLayer
370
13
48
1
60
0
100
AcDbLine
10
60
20
37
30
0
11
60
21
49.500506
31
0
39
0
210
0
220
0
230
1
0
LINE
5
221
100
AcDbEntity
8
2
62
256
6
ByLayer
370
13
48
1
60
0
100
AcDbLine
10
55.722045
20
34.750642
30
0
11
45.649446
21
33.924037
31
0
39
0
210
0
220
0
230
1
0
ARC
5
222
100
AcDbEntity
8
2
62
256
6
ByLayer
370
13
48
1
60
0
100
AcDbCircle
39
0
10
60
20
35.101711
30
0
40
12.3987954559122
210
0
220
0
230
1
100
AcDbArc
50
90
51
184.691446
0
LINE
5
223
100
AcDbEntity
8
2
62
256
6
ByLayer
370
13
48
1
60
0
100
AcDbLine
10
60
20
47.500506
30
0
11
56.858032
21
46.881335
31
0
39
0
210
0
220
0
230
1
0
LINE
5
224
100
AcDbEntity
8
2
62
256
6
ByLayer
370
13
48
1
60
0
100
AcDbLine
10
60
20
47.500506
30
0
11
56.804836
21
47.715634
31
0
39
0
210
0
220
0
230
1
0
LINE
5
225
100
AcDbEntity
8
2
62
256
6
ByLayer
370
13
48
1
60
0
100
AcDbLine
10
56.858032
20
46.881335
30
0
11
56.804836
21
47.715634
31
0
39
0
210
0
220
0
230
1
0
LINE
5
226
100
AcDbEntity
8
2
62
256
6
ByLayer
370
13
48
1
60
0
100
AcDbLine
10
47.642745
20
34.087617
30
0
11
47.167007
21
37.254478
31
0
39
0
210
0
220
0
230
1
0
LINE
5
227
100
AcDbEntity
8
2
62
256
6
ByLayer
370
13
48
1
60
0
100
AcDbLine
10
47.642745
20
34.087617
30
0
11
48.002861
21
37.269703
31
0
39
0
210
0
220
0
230
1
0
LINE
5
228
100
AcDbEntity
8
2
62
256
6
ByLayer
370
13
48
1
60
0
100
AcDbLine
10
47.167007
20
37.254478
30
0
11
48.002861
21
37.269703
31
0
39
0
210
0
220
0
230
1
0
ENDBLK
5
22A
100
AcDbEntity
8
0
100
AcDbBlockEnd
0
BLOCK
5
22D
100
AcDbEntity
8
0
100
AcDbBlockBegin
2
_CLOSED
70
0
10
0
20
0
30
0
3
_CLOSED
0
LINE
5
22F
100
AcDbEntity
8
0
62
256
6
ByLayer
370
-2
48
1
60
0
100
AcDbLine
10
-1
20
0.166667
30
0
11
0
21
0
31
0
39
0
210
0
220
0
230
1
0
LINE
5
230
100
AcDbEntity
8
0
62
256
6
ByLayer
370
-2
48
1
60
0
100
AcDbLine
10
0
20
0
30
0
11
-1
21
-0.166667
31
0
39
0
210
0
220
0
230
1
0
LINE
5
231
100
AcDbEntity
8
0
62
256
6
ByLayer
370
-2
48
1
60
0
100
AcDbLine
10
-1
20
0.166667
30
0
11
-1
21
-0.166667
31
0
39
0
210
0
220
0
230
1
0
LINE
5
232
100
AcDbEntity
8
0
62
256
6
ByLayer
370
-2
48
1
60
0
100
AcDbLine
10
0
20
0
30
0
11
-1
21
0
31
0
39
0
210
0
220
0
230
1
0
ENDBLK
5
22E
100
AcDbEntity
8
0
100
AcDbBlockEnd
0
BLOCK
5
23F
100
AcDbEntity
8
0
100
AcDbBlockBegin
2
DimnDraft3D3
70
0
10
0
20
0
30
0
3
DimnDraft3D3
0
MTEXT
5
234
100
AcDbEntity
8
SK2
62
256
6
ByLayer
370
18
48
1
60
0
100
AcDbMText
10
-38.875
20
-1.563158
30
0
210
0
220
0
230
1
1
\W0.6740;50
40
4.5
41
0
44
1.084337
50
90
71
7
72
5
7
iso_b_vert
0
LINE
5
236
100
AcDbEntity
8
SK2
62
256
6
ByLayer
370
13
48
1
60
0
100
AcDbLine
10
-2
20
-25
30
0
11
-39.75
21
-25
31
0
39
0
210
0
220
0
230
1
0
LINE
5
237
100
AcDbEntity
8
SK2
62
256
6
ByLayer
370
13
48
1
60
0
100
AcDbLine
10
-2
20
25
30
0
11
-39.75
21
25
31
0
39
0
210
0
220
0
230
1
0
LINE
5
238
100
AcDbEntity
8
SK2
62
256
6
ByLayer
370
13
48
1
60
0
100
AcDbLine
10
-37.75
20
-25
30
0
11
-37.75
21
25
31
0
39
0
210
0
220
0
230
1
0
LINE
5
239
100
AcDbEntity
8
SK2
62
256
6
ByLayer
370
13
48
1
60
0
100
AcDbLine
10
-37.75
20
-25
30
0
11
-38.167997
21
-21.825002
31
0
39
0
210
0
220
0
230
1
0
LINE
5
23A
100
AcDbEntity
8
SK2
62
256
6
ByLayer
370
13
48
1
60
0
100
AcDbLine
10
-37.75
20
-25
30
0
11
-37.332003
21
-21.824998
31
0
39
0
210
0
220
0
230
1
0
LINE
5
23B
100
AcDbEntity
8
SK2
62
256
6
ByLayer
370
13
48
1
60
0
100
AcDbLine
10
-38.167997
20
-21.825002
30
0
11
-37.332003
21
-21.824998
31
0
39
0
210
0
220
0
230
1
0
LINE
5
23C
100
AcDbEntity
8
SK2
62
256
6
ByLayer
370
13
48
1
60
0
100
AcDbLine
10
-37.75
20
25
30
0
11
-37.332003
21
21.825002
31
0
39
0
210
0
220
0
230
1
0
LINE
5
23D
100
AcDbEntity
8
SK2
62
256
6
ByLayer
370
13
48
1
60
0
100
AcDbLine
10
-37.75
20
25
30
0
11
-38.167997
21
21.824998
31
0
39
0
210
0
220
0
230
1
0
LINE
5
23E
100
AcDbEntity
8
SK2
62
256
6
ByLayer
370
13
48
1
60
0
100
AcDbLine
10
-37.332003
20
21.825002
30
0
11
-38.167997
21
21.824998
31
0
39
0
210
0
220
0
230
1
0
ENDBLK
5
240
100
AcDbEntity
8
0
100
AcDbBlockEnd
0
BLOCK
5
24D
100
AcDbEntity
8
0
100
AcDbBlockBegin
2
DimnDraft3D4
70
0
10
0
20
0
30
0
3
DimnDraft3D4
0
MTEXT
5
243
100
AcDbEntity
8
2
62
256
6
ByLayer
370
18
48
1
60
0
100
AcDbMText
10
81.125
20
13.343421
30
0
210
0
220
0
230
1
1
\W0.7346;35.0
40
4.5
41
0
44
1.084337
50
90
71
7
72
5
7
iso_b_vert
0
LINE
5
244
100
AcDbEntity
8
2
62
256
6
ByLayer
370
13
48
1
60
0
100
AcDbLine
10
62
20
0
30
0
11
84.25
21
0
31
0
39
0
210
0
220
0
230
1
0
LINE
5
245
100
AcDbEntity
8
2
62
256
6
ByLayer
370
13
48
1
60
0
100
AcDbLine
10
62
20
35
30
0
11
84.25
21
35
31
0
39
0
210
0
220
0
230
1
0
LINE
5
246
100
AcDbEntity
8
2
62
256
6
ByLayer
370
13
48
1
60
0
100
AcDbLine
10
82.25
20
0
30
0
11
82.25
21
35
31
0
39
0
210
0
220
0
230
1
0
LINE
5
247
100
AcDbEntity
8
2
62
256
6
ByLayer
370
13
48
1
60
0
100
AcDbLine
10
82.25
20
0
30
0
11
81.832003
21
3.174998
31
0
39
0
210
0
220
0
230
1
0
LINE
5
248
100
AcDbEntity
8
2
62
256
6
ByLayer
370
13
48
1
60
0
100
AcDbLine
10
82.25
20
0
30
0
11
82.667997
21
3.175002
31
0
39
0
210
0
220
0
230
1
0
LINE
5
249
100
AcDbEntity
8
2
62
256
6
ByLayer
370
13
48
1
60
0
100
AcDbLine
10
81.832003
20
3.174998
30
0
11
82.667997
21
3.175002
31
0
39
0
210
0
220
0
230
1
0
LINE
5
24A
100
AcDbEntity
8
2
62
256
6
ByLayer
370
13
48
1
60
0
100
AcDbLine
10
82.25
20
35
30
0
11
82.667997
21
31.825002
31
0
39
0
210
0
220
0
230
1
0
LINE
5
24B
100
AcDbEntity
8
2
62
256
6
ByLayer
370
13
48
1
60
0
100
AcDbLine
10
82.25
20
35
30
0
11
81.832003
21
31.824998
31
0
39
0
210
0
220
0
230
1
0
LINE
5
24C
100
AcDbEntity
8
2
62
256
6
ByLayer
370
13
48
1
60
0
100
AcDbLine
10
82.667997
20
31.825002
30
0
11
81.832003
21
31.824998
31
0
39
0
210
0
220
0
230
1
0
ENDBLK
5
24E
100
AcDbEntity
8
0
100
AcDbBlockEnd
0
ENDSEC
0
SECTION
2
ENTITIES
0
ARC
5
10D
100
AcDbEntity
8
SK1
62
256
6
ByLayer
370
18
48
1
60
0
100
AcDbCircle
39
0
10
0.6
20
-18.75
30
0
40
1.00000000000001
210
0
220
0
230
-1
100
AcDbArc
50
113.578178
51
126.869898
0
ARC
5
10E
100
AcDbEntity
8
SK1
62
256
6
ByLayer
370
18
48
1
60
0
100
AcDbCircle
39
0
10
0.6
20
18.75
30
0
40
1.00000000000001
210
0
220
0
230
-1
100
AcDbArc
50
233.130102
51
246.421822
0
ELLIPSE
5
10F
100
AcDbEntity
8
1
62
256
6
ByLayer
370
18
48
1
60
0
100
AcDbEllipse
10
45.246709
20
32.702281
30
0
11
-0.841899011352161
21
0.841899011348305
31
0
210
0
220
0
230
1
40
0.989133
41
-0.698131700797716
42
0.698131700797714
0
ELLIPSE
5
110
100
AcDbEntity
8
1
62
256
6
ByLayer
370
18
48
1
60
0
100
AcDbEllipse
10
57.702281
20
20.246709
30
0
11
-0.841899011352161
21
0.841899011348305
31
0
210
0
220
0
230
1
40
0.989133
41
2.44346095279206
42
-2.44346095279205
0
ELLIPSE
5
111
100
AcDbEntity
8
1
62
256
6
ByLayer
370
18
48
1
60
0
100
AcDbEllipse
10
58.815827
20
33.815827
30
0
11
-0.841899011352161
21
0.841899011348305
31
0
210
0
220
0
230
1
40
0.989133
41
-2.44346095279205
42
-0.698131700797735
0
ELLIPSE
5
112
100
AcDbEntity
8
1
62
256
6
ByLayer
370
18
48
1
60
0
100
AcDbEllipse
10
17.329058
20
18.748852
30
0
11
-0.0227270275739684
21
-2.77595171112842
31
0
210
0
220
0
230
1
40
0.080275
41
-0.00025656600462903
42
0.535121258382979
0
ELLIPSE
5
113
100
AcDbEntity
8
1
62
256
6
ByLayer
370
18
48
1
60
0
100
AcDbEllipse
10
22.609017
20
18.510403
30
0
11
-5.4067073704157
21
-3.95647429459375
31
0
210
0
220
0
230
-1
40
0.59704
41
2.26838141343535
42
2.44762569545499
0
ELLIPSE
5
114
100
AcDbEntity
8
1
62
256
6
ByLayer
370
18
48
1
60
0
100
AcDbEllipse
10
-1.056258
20
0
30
0
11
-11.7092723497277
21
24.677186440938
31
0
210
0
220
0
230
1
40
0.341999
41
-2.97437958168082
42
-2.05975995310053
0
ELLIPSE
5
115
100
AcDbEntity
8
1
62
256
6
ByLayer
370
18
48
1
60
0
100
AcDbEllipse
10
21.415098
20
7.293264
30
0
11
-3.28407334194744
21
7.36579730748003
31
0
210
0
220
0
230
1
40
0.310029
41
-0.963192469051546
42
-0.719662448930782
0
ELLIPSE
5
116
100
AcDbEntity
8
1
62
256
6
ByLayer
370
18
48
1
60
0
100
AcDbEllipse
10
21.056258
20
0
30
0
11
-11.7092723497275
21
24.6771864409378
31
0
210
0
220
0
230
1
40
0.341999
41
0.167213071908977
42
1.08183270048926
0
ELLIPSE
5
117
100
AcDbEntity
8
1
62
256
6
ByLayer
370
18
48
1
60
0
100
AcDbEllipse
10
10
20
17.843094
30
0
11
2
21
0
31
0
210
0
220
0
230
1
40
0.580703
41
0.278325621108809
42
2.86326699090459
0
ELLIPSE
5
118
100
AcDbEntity
8
1
62
256
6
ByLayer
370
18
48
1
60
0
100
AcDbEllipse
10
10
20
15.807097
30
0
11
-1.88518478424619
21
3.17407998038192
31
0
210
0
220
0
230
1
40
0.21042
41
0.0139802950212204
42
0.666992228074263
0
ELLIPSE
5
119
100
AcDbEntity
8
1
62
256
6
ByLayer
370
18
48
1
60
0
100
AcDbEllipse
10
17.329058
20
18.748852
30
0
11
-0.0227270275735793
21
-2.7759517111622
31
0
210
0
220
0
230
1
40
0.080275
41
2.77414710362921
42
-0.818993975386429
0
ELLIPSE
5
11A
100
AcDbEntity
8
1
62
256
6
ByLayer
370
18
48
1
60
0
100
AcDbEllipse
10
10
20
17.843094
30
0
11
1.65
21
0
31
0
210
0
220
0
230
1
40
0.580703
41
0
42
6.28318530717959
0
ELLIPSE
5
11B
100
AcDbEntity
8
1
62
256
6
ByLayer
370
18
48
1
60
0
100
AcDbEllipse
10
-1.056258
20
0
30
0
11
-11.709272349727
21
-24.677186440937
31
0
210
0
220
0
230
1
40
0.341999
41
2.0597599531005
42
2.97437958168081
0
ELLIPSE
5
11C
100
AcDbEntity
8
1
62
256
6
ByLayer
370
18
48
1
60
0
100
AcDbEllipse
10
22.494172
20
64.852384
30
0
11
-7.02934607980388E-15
21
-38.2672415935298
31
0
210
0
220
0
230
1
40
0.104528
41
-0.204727503998464
42
-0.104149827605796
0
ELLIPSE
5
11D
100
AcDbEntity
8
1
62
256
6
ByLayer
370
18
48
1
60
0
100
AcDbEllipse
10
33.553564
20
1.74889
30
0
11
-5.4067073704157
21
-3.95647429459375
31
0
210
0
220
0
230
-1
40
0.59704
41
-3.10976218905424
42
-2.1985062660241
0
ELLIPSE
5
11E
100
AcDbEntity
8
1
62
256
6
ByLayer
370
18
48
1
60
0
100
AcDbEllipse
10
23.346809
20
19.050298
30
0
11
-4.6034865160706
21
-3.18394601548031
31
0
210
0
220
0
230
1
40
0.714389
41
-3.13614006881243
42
-2.41034264614152
0
ELLIPSE
5
11F
100
AcDbEntity
8
1
62
256
6
ByLayer
370
18
48
1
60
0
100
AcDbEllipse
10
18.187217
20
0
30
0
11
1.53075794227798E-15
21
25.0000000000001
31
0
210
0
220
0
230
1
40
0.087489
41
0.353363115402329
42
2.78822953818746
0
ELLIPSE
5
120
100
AcDbEntity
8
1
62
256
6
ByLayer
370
18
48
1
60
0
100
AcDbEllipse
10
46.03491
20
0
30
0
11
-24.2201296903058
21
-25.1499525789897
31
0
210
0
220
0
230
1
40
0.002016
41
0.0019311837188756
42
0.202082559731113
0
ELLIPSE
5
121
100
AcDbEntity
8
1
62
256
6
ByLayer
370
18
48
1
60
0
100
AcDbEllipse
10
21.056258
20
0
30
0
11
-11.7092723497278
21
-24.6771864409381
31
0
210
0
220
0
230
1
40
0.341999
41
-1.08183270048926
42
-0.167213071908978
0
ELLIPSE
5
122
100
AcDbEntity
8
1
62
256
6
ByLayer
370
18
48
1
60
0
100
AcDbEllipse
10
10
20
18.309067
30
0
11
-2.00000000000004
21
2.02127811016477E-15
31
0
210
0
220
0
230
1
40
0.716939
41
0.751504621492338
42
2.39008803209746
0
ELLIPSE
5
123
100
AcDbEntity
8
1
62
256
6
ByLayer
370
18
48
1
60
0
100
AcDbEllipse
10
10
20
18.309067
30
0
11
-2.00000000000002
21
2.02127811016475E-15
31
0
210
0
220
0
230
1
40
0.716939
41
-2.39008803209747
42
-0.751504621492329
0
ELLIPSE
5
124
100
AcDbEntity
8
1
62
256
6
ByLayer
370
18
48
1
60
0
100
AcDbEllipse
10
10
20
15.807097
30
0
11
-1.88518478425317
21
-3.17407998039186
31
0
210
0
220
0
230
1
40
0.21042
41
2.4746004255167
42
3.12761235856862
0
ELLIPSE
5
125
100
AcDbEntity
8
1
62
256
6
ByLayer
370
18
48
1
60
0
100
AcDbEllipse
10
36.604598
20
17.967212
30
0
11
-0.318198051534675
21
0.318198051533218
31
0
210
0
220
0
230
1
40
0.989133
41
-1.06751838880866
42
-0.443822407221807
0
ELLIPSE
5
126
100
AcDbEntity
8
1
62
256
6
ByLayer
370
18
48
1
60
0
100
AcDbEllipse
10
39.54979
20
16.978783
30
0
11
-0.318198051534675
21
0.318198051533218
31
0
210
0
220
0
230
1
40
0.989133
41
2.07407426478116
42
-1.37594256398341
0
ELLIPSE
5
127
100
AcDbEntity
8
1
62
256
6
ByLayer
370
18
48
1
60
0
100
AcDbEllipse
10
38.207842
20
17.603646
30
0
11
0.989949493663441
21
-0.989949493658892
31
0
210
0
220
0
230
1
40
0.989133
41
-0.266134084374989
42
-0.0829317660243306
0
ELLIPSE
5
128
100
AcDbEntity
8
1
62
256
6
ByLayer
370
18
48
1
60
0
100
AcDbEllipse
10
38.207842
20
17.603646
30
0
11
0.989949493663441
21
-0.989949493658892
31
0
210
0
220
0
230
1
40
0.989133
41
1.82826101801865
42
2.01146333636886
0
ELLIPSE
5
129
100
AcDbEntity
8
1
62
256
6
ByLayer
370
18
48
1
60
0
100
AcDbEllipse
10
38.207842
20
17.603646
30
0
11
0.989949493663441
21
-0.989949493658892
31
0
210
0
220
0
230
1
40
0.989133
41
-2.36052918676775
42
-2.17732686841753
0
ELLIPSE
5
12A
100
AcDbEntity
8
1
62
256
6
ByLayer
370
18
48
1
60
0
100
AcDbEllipse
10
39.291712
20
16.072733
30
0
11
0.353553390594086
21
-0.353553390592461
31
0
210
0
220
0
230
1
40
0.989133
41
2.07407426478112
42
2.58803591680784
0
ELLIPSE
5
12B
100
AcDbEntity
8
1
62
256
6
ByLayer
370
18
48
1
60
0
100
AcDbEllipse
10
38.212344
20
17.608147
30
0
11
1.00762716319315
21
-1.00762716318851
31
0
210
0
220
0
230
1
40
0.989133
41
0.742467721739359
42
1.00286153025499
0
ELLIPSE
5
12C
100
AcDbEntity
8
1
62
256
6
ByLayer
370
18
48
1
60
0
100
AcDbEllipse
10
37.011199
20
16.770454
30
0
11
-0.318198051534675
21
0.318198051533218
31
0
210
0
220
0
230
1
40
0.989133
41
-0.0203208376120593
42
2.81284764080299
0
ELLIPSE
5
12D
100
AcDbEntity
8
1
62
256
6
ByLayer
370
18
48
1
60
0
100
AcDbEllipse
10
38.212344
20
17.608147
30
0
11
1.00762716319315
21
-1.00762716318851
31
0
210
0
220
0
230
1
40
0.989133
41
-1.35192738065384
42
-1.09153357213821
0
ELLIPSE
5
12E
100
AcDbEntity
8
1
62
256
6
ByLayer
370
18
48
1
60
0
100
AcDbEllipse
10
37.432455
20
15.920154
30
0
11
0.353553390594086
21
-0.353553390592461
31
0
210
0
220
0
230
1
40
0.989133
41
1.02687671358454
42
1.54083836561121
0
ELLIPSE
5
12F
100
AcDbEntity
8
1
62
256
6
ByLayer
370
18
48
1
60
0
100
AcDbEllipse
10
37.942044
20
17.337847
30
0
11
0.989949493663441
21
-0.989949493658892
31
0
210
0
220
0
230
1
40
0.989133
41
0.964265785172291
42
1.82826101801865
0
ELLIPSE
5
130
100
AcDbEntity
8
1
62
256
6
ByLayer
370
18
48
1
60
0
100
AcDbEllipse
10
37.132976
20
19.143561
30
0
11
0.353553390594086
21
-0.353553390592461
31
0
210
0
220
0
230
1
40
0.989133
41
-1.06751838880866
42
-0.553556736781962
0
ELLIPSE
5
131
100
AcDbEntity
8
1
62
256
6
ByLayer
370
18
48
1
60
0
100
AcDbEllipse
10
36.862676
20
18.873261
30
0
11
0.353553390594086
21
-0.353553390592461
31
0
210
0
220
0
230
1
40
0.989133
41
-1.06751838880866
42
-0.433543974257197
0
ELLIPSE
5
132
100
AcDbEntity
8
1
62
256
6
ByLayer
370
18
48
1
60
0
100
AcDbEllipse
10
37.81729
20
17.213093
30
0
11
3.53553390594086
21
-3.53553390592461
31
0
210
0
220
0
230
1
40
0.989133
41
-3.14154532407039
42
-0.79086145516
0
ELLIPSE
5
133
100
AcDbEntity
8
1
62
256
6
ByLayer
370
18
48
1
60
0
100
AcDbEllipse
10
37.81729
20
17.213093
30
0
11
3.53553390594086
21
-3.53553390592461
31
0
210
0
220
0
230
1
40
0.989133
41
-0.790861254082349
42
-5.07515202780684E-05
0
ELLIPSE
5
134
100
AcDbEntity
8
1
62
256
6
ByLayer
370
18
48
1
60
0
100
AcDbEllipse
10
38.721933
20
19.02584
30
0
11
0.353553390594086
21
-0.353553390592461
31
0
210
0
220
0
230
1
40
0.989133
41
-0.962719427338322
42
-0.328745012786843
0
ELLIPSE
5
135
100
AcDbEntity
8
1
62
256
6
ByLayer
370
18
48
1
60
0
100
AcDbEllipse
10
37.132976
20
19.143561
30
0
11
0.353553390594086
21
-0.353553390592461
31
0
210
0
220
0
230
1
40
0.989133
41
0.204490886383093
42
0.718452538409812
0
ELLIPSE
5
136
100
AcDbEntity
8
1
62
256
6
ByLayer
370
18
48
1
60
0
100
AcDbEllipse
10
39.27949
20
16.708482
30
0
11
-0.318198051534675
21
0.318198051533218
31
0
210
0
220
0
230
1
40
0.989133
41
-2.69779318789594
42
-1.37594256398337
0
ELLIPSE
5
137
100
AcDbEntity
8
1
62
256
6
ByLayer
370
18
48
1
60
0
100
AcDbEllipse
10
38.212344
20
17.608147
30
0
11
1.00762716319315
21
-1.00762716318851
31
0
210
0
220
0
230
1
40
0.989133
41
1.78966527293596
42
2.05005908145157
0
ELLIPSE
5
138
100
AcDbEntity
8
1
62
256
6
ByLayer
370
18
48
1
60
0
100
AcDbEllipse
10
37.432455
20
15.920154
30
0
11
0.353553390594086
21
-0.353553390592461
31
0
210
0
220
0
230
1
40
0.989133
41
2.29888598877628
42
2.812847640803
0
ELLIPSE
5
139
100
AcDbEntity
8
1
62
256
6
ByLayer
370
18
48
1
60
0
100
AcDbEllipse
10
39.8013
20
17.490426
30
0
11
0.353553390594086
21
-0.353553390592461
31
0
210
0
220
0
230
1
40
0.989133
41
-3.14158599185621
42
-2.52793907665041
0
ELLIPSE
5
13A
100
AcDbEntity
8
1
62
256
6
ByLayer
370
18
48
1
60
0
100
AcDbEllipse
10
39.413489
20
18.445841
30
0
11
-0.318198051534675
21
0.318198051533218
31
0
210
0
220
0
230
1
40
0.989133
41
3.1212718159777
42
-0.328745012786803
0
ELLIPSE
5
13B
100
AcDbEntity
8
1
62
256
6
ByLayer
370
18
48
1
60
0
100
AcDbEllipse
10
36.353087
20
17.455568
30
0
11
0.353553390594086
21
-0.353553390592461
31
0
210
0
220
0
230
1
40
0.989133
41
-0.0203208376120489
42
0.493640814414652
0
ELLIPSE
5
13C
100
AcDbEntity
8
1
62
256
6
ByLayer
370
18
48
1
60
0
100
AcDbEllipse
10
37.805743
20
18.804905
30
0
11
-0.318198051534675
21
0.318198051533218
31
0
210
0
220
0
230
1
40
0.989133
41
-2.11471594000528
42
-0.44385427865036
0
ELLIPSE
5
13D
100
AcDbEntity
8
1
62
256
6
ByLayer
370
18
48
1
60
0
100
AcDbEllipse
10
37.942044
20
17.337847
30
0
11
0.989949493663441
21
-0.989949493658892
31
0
210
0
220
0
230
1
40
0.989133
41
-0.786394179627357
42
-0.266134084374564
0
ELLIPSE
5
13E
100
AcDbEntity
8
1
62
256
6
ByLayer
370
18
48
1
60
0
100
AcDbEllipse
10
40.071601
20
17.760727
30
0
11
0.353553390594086
21
-0.353553390592461
31
0
210
0
220
0
230
1
40
0.989133
41
3.12127181597773
42
-2.64795183917518
0
ELLIPSE
5
13F
100
AcDbEntity
8
1
62
256
6
ByLayer
370
18
48
1
60
0
100
AcDbEllipse
10
38.212344
20
17.608147
30
0
11
1.00762716319315
21
-1.00762716318851
31
0
210
0
220
0
230
1
40
0.989133
41
-0.304729829457243
42
-0.0443360209416244
0
ELLIPSE
5
140
100
AcDbEntity
8
1
62
256
6
ByLayer
370
18
48
1
60
0
100
AcDbEllipse
10
39.291712
20
16.072733
30
0
11
0.353553390594086
21
-0.353553390592461
31
0
210
0
220
0
230
1
40
0.989133
41
-2.93710176720672
42
-2.42314011518002
0
ELLIPSE
5
141
100
AcDbEntity
8
1
62
256
6
ByLayer
370
18
48
1
60
0
100
AcDbEllipse
10
38.212344
20
17.608147
30
0
11
1.00762716319315
21
-1.00762716318851
31
0
210
0
220
0
230
1
40
0.989133
41
2.83686282413256
42
3.09725663264818
0
ELLIPSE
5
142
100
AcDbEntity
8
1
62
256
6
ByLayer
370
18
48
1
60
0
100
AcDbEllipse
10
38.076043
20
19.075205
30
0
11
-0.318198051534675
21
0.318198051533218
31
0
210
0
220
0
230
1
40
0.989133
41
-2.11471594000526
42
0.718452538409802
0
ELLIPSE
5
143
100
AcDbEntity
8
1
62
256
6
ByLayer
370
18
48
1
60
0
100
AcDbEllipse
10
38.992233
20
19.29614
30
0
11
0.353553390594086
21
-0.353553390592461
31
0
210
0
220
0
230
1
40
0.989133
41
-0.842706664813525
42
-0.32874501278683
0
ELLIPSE
5
144
100
AcDbEntity
8
1
62
256
6
ByLayer
370
18
48
1
60
0
100
AcDbEllipse
10
37.853676
20
17.24948
30
0
11
0.989949493663441
21
-0.989949493658892
31
0
210
0
220
0
230
1
40
0.989133
41
3.09638126132799
42
-1.40718976785498
0
ELLIPSE
5
145
100
AcDbEntity
8
1
62
256
6
ByLayer
370
18
48
1
60
0
100
AcDbEllipse
10
37.853676
20
17.24948
30
0
11
0.989949493663441
21
-0.989949493658892
31
0
210
0
220
0
230
1
40
0.989133
41
0.181867346975218
42
3.09638198344489
0
ELLIPSE
5
146
100
AcDbEntity
8
1
62
256
6
ByLayer
370
18
48
1
60
0
100
AcDbEllipse
10
39.143189
20
18.17554
30
0
11
-0.318198051534675
21
0.318198051533218
31
0
210
0
220
0
230
1
40
0.989133
41
-3.11202227657912
42
-0.328745012786803
0
ELLIPSE
5
147
100
AcDbEntity
8
1
62
256
6
ByLayer
370
18
48
1
60
0
100
AcDbEllipse
10
36.353087
20
17.455568
30
0
11
0.353553390594086
21
-0.353553390592461
31
0
210
0
220
0
230
1
40
0.989133
41
1.25168843757967
42
1.76565008960639
0
ELLIPSE
5
148
100
AcDbEntity
8
1
62
256
6
ByLayer
370
18
48
1
60
0
100
AcDbEllipse
10
38.207842
20
17.603646
30
0
11
0.989949493663441
21
-0.989949493658892
31
0
210
0
220
0
230
1
40
0.989133
41
-1.31333163557182
42
-1.13012931722092
0
ELLIPSE
5
149
100
AcDbEntity
8
1
62
256
6
ByLayer
370
18
48
1
60
0
100
AcDbEllipse
10
36.874898
20
18.237512
30
0
11
-0.318198051534675
21
0.318198051533218
31
0
210
0
220
0
230
1
40
0.989133
41
-1.06751838880867
42
1.76565008960637
0
ELLIPSE
5
14A
100
AcDbEntity
8
1
62
256
6
ByLayer
370
18
48
1
60
0
100
AcDbEllipse
10
39.8013
20
17.490426
30
0
11
0.353553390594086
21
-0.353553390592461
31
0
210
0
220
0
230
1
40
0.989133
41
-2.00991697853487
42
-1.37594256398341
0
ELLIPSE
5
14B
100
AcDbEntity
8
1
62
256
6
ByLayer
370
18
48
1
60
0
100
AcDbEllipse
10
37.942044
20
17.337847
30
0
11
0.989949493663441
21
-0.989949493658892
31
0
210
0
220
0
230
1
40
0.989133
41
3.05866088756548
42
-2.73183096890509
0
ELLIPSE
5
14C
100
AcDbEntity
8
1
62
256
6
ByLayer
370
18
48
1
60
0
100
AcDbEllipse
10
40.071601
20
17.760727
30
0
11
0.353553390594086
21
-0.353553390592461
31
0
210
0
220
0
230
1
40
0.989133
41
-1.8899042160101
42
-1.37594256398342
0
ELLIPSE
5
14D
100
AcDbEntity
8
1
62
256
6
ByLayer
370
18
48
1
60
0
100
AcDbEllipse
10
38.721933
20
19.02584
30
0
11
0.353553390594086
21
-0.353553390592461
31
0
210
0
220
0
230
1
40
0.989133
41
-2.11471594000524
42
-1.48074152545377
0
ELLIPSE
5
14E
100
AcDbEntity
8
1
62
256
6
ByLayer
370
18
48
1
60
0
100
AcDbEllipse
10
37.942044
20
17.337847
30
0
11
0.989949493663441
21
-0.989949493658892
31
0
210
0
220
0
230
1
40
0.989133
41
2.01146333636887
42
2.87545856921525
0
ELLIPSE
5
14F
100
AcDbEntity
8
1
62
256
6
ByLayer
370
18
48
1
60
0
100
AcDbEllipse
10
38.212344
20
17.608147
30
0
11
-1.76776695297042
21
1.76776695296232
31
0
210
0
220
0
230
1
40
0.989133
41
0
42
6.28318530717959
0
ELLIPSE
5
150
100
AcDbEntity
8
1
62
256
6
ByLayer
370
18
48
1
60
0
100
AcDbEllipse
10
37.942044
20
17.337847
30
0
11
0.989949493663441
21
-0.989949493658892
31
0
210
0
220
0
230
1
40
0.989133
41
-2.0782777171275
42
-1.53431143539198
0
ELLIPSE
5
151
100
AcDbEntity
8
1
62
256
6
ByLayer
370
18
48
1
60
0
100
AcDbEllipse
10
38.078344
20
15.870789
30
0
11
-0.318198051534675
21
0.318198051533218
31
0
210
0
220
0
230
1
40
0.989133
41
-2.69778108161342
42
-2.42314011517999
0
ELLIPSE
5
152
100
AcDbEntity
8
1
62
256
6
ByLayer
370
18
48
1
60
0
100
AcDbEllipse
10
38.992233
20
19.29614
30
0
11
0.353553390594086
21
-0.353553390592461
31
0
210
0
220
0
230
1
40
0.989133
41
-2.11471594000524
42
-1.60075428797854
0
ELLIPSE
5
153
100
AcDbEntity
8
1
62
256
6
ByLayer
370
18
48
1
60
0
100
AcDbEllipse
10
37.942044
20
17.337847
30
0
11
0.989949493663441
21
-0.989949493658892
31
0
210
0
220
0
230
1
40
0.989133
41
0.136144695373203
42
0.781063466822043
0
ELLIPSE
5
154
100
AcDbEntity
8
1
62
256
6
ByLayer
370
18
48
1
60
0
100
AcDbEllipse
10
38.207842
20
17.603646
30
0
11
0.989949493663441
21
-0.989949493658892
31
0
210
0
220
0
230
1
40
0.989133
41
2.87545856921481
42
3.05866088756589
0
ELLIPSE
5
155
100
AcDbEntity
8
1
62
256
6
ByLayer
370
18
48
1
60
0
100
AcDbEllipse
10
38.212344
20
17.608147
30
0
11
1.00762716319315
21
-1.00762716318851
31
0
210
0
220
0
230
1
40
0.989133
41
-2.39912493185044
42
-2.13873112333482
0
ELLIPSE
5
156
100
AcDbEntity
8
1
62
256
6
ByLayer
370
18
48
1
60
0
100
AcDbEllipse
10
38.207842
20
17.603646
30
0
11
0.989949493663441
21
-0.989949493658892
31
0
210
0
220
0
230
1
40
0.989133
41
0.781063466822036
42
0.964265785172273
0
ELLIPSE
5
157
100
AcDbEntity
8
1
62
256
6
ByLayer
370
18
48
1
60
0
100
AcDbEllipse
10
38.348645
20
16.141089
30
0
11
-0.318198051534675
21
0.318198051533218
31
0
210
0
220
0
230
1
40
0.989133
41
1.02687671358454
42
-2.42314011517999
0
ELLIPSE
5
158
100
AcDbEntity
8
1
62
256
6
ByLayer
370
18
48
1
60
0
100
AcDbEllipse
10
39.021411
20
15.802433
30
0
11
0.353553390594086
21
-0.353553390592461
31
0
210
0
220
0
230
1
40
0.989133
41
-3.05711452973148
42
-2.42314011518002
0
ELLIPSE
5
159
100
AcDbEntity
8
1
62
256
6
ByLayer
370
18
48
1
60
0
100
AcDbEllipse
10
38.041912
20
17.437716
30
0
11
-3.53553390594083
21
3.53553390592464
31
0
210
0
220
0
230
1
40
0.989133
41
0
42
6.28318530717959
0
ELLIPSE
5
15A
100
AcDbEntity
8
1
62
256
6
ByLayer
370
18
48
1
60
0
100
AcDbEllipse
10
53.8594
20
30.218322
30
0
11
-1.36506935510019
21
1.83139511603788
31
0
210
0
220
0
230
1
40
0.75312
41
-0.858053350821927
42
0.176212956497901
0
ELLIPSE
5
15B
100
AcDbEntity
8
1
62
256
6
ByLayer
370
18
48
1
60
0
100
AcDbEllipse
10
51.260576
20
26.571023
30
0
11
-4.45477272148545
21
4.45477272146505
31
0
210
0
220
0
230
1
40
0.989133
41
0.261799387799149
42
0.280398039057481
0
ELLIPSE
5
15C
100
AcDbEntity
8
1
62
256
6
ByLayer
370
18
48
1
60
0
100
AcDbEllipse
10
52.234477
20
27.250233
30
0
11
-3.74766594029728
21
3.74766594028012
31
0
210
0
220
0
230
1
40
0.989133
41
-2.87979326579065
42
-2.35619449019235
0
ELLIPSE
5
15D
100
AcDbEntity
8
1
62
256
6
ByLayer
370
18
48
1
60
0
100
AcDbEllipse
10
52.66072
20
27.676476
30
0
11
-2.97084430727133
21
2.97084430725772
31
0
210
0
220
0
230
1
40
0.989133
41
-0.698105215001288
42
-0.610865238198015
0
ELLIPSE
5
15E
100
AcDbEntity
8
1
62
256
6
ByLayer
370
18
48
1
60
0
100
AcDbEllipse
10
55.341537
20
28.109964
30
0
11
-1.76487007452216
21
1.91981405082076
31
0
210
0
220
0
230
1
40
0.652432
41
2.72972696862346
42
-2.51919203123664
0
ELLIPSE
5
15F
100
AcDbEntity
8
1
62
256
6
ByLayer
370
18
48
1
60
0
100
AcDbEllipse
10
51.686819
20
26.997265
30
0
11
3.05705668955572
21
-3.05705668954167
31
0
210
0
220
0
230
1
40
0.989133
41
0.200712863979347
42
2.59181393921158
0
ELLIPSE
5
160
100
AcDbEntity
8
1
62
256
6
ByLayer
370
18
48
1
60
0
100
AcDbEllipse
10
52.66072
20
27.676476
30
0
11
-2.69246607501615
21
2.69246607500382
31
0
210
0
220
0
230
1
40
0.989133
41
-2.35619449019234
42
-1.13446401379631
0
ELLIPSE
5
161
100
AcDbEntity
8
1
62
256
6
ByLayer
370
18
48
1
60
0
100
AcDbEllipse
10
51.153204
20
21.322138
30
0
11
-1.75716568234534
21
-10.6353475716556
31
0
210
0
220
0
230
1
40
0.721983
41
-2.34102622597269
42
-2.33209212321847
0
ELLIPSE
5
162
100
AcDbEntity
8
1
62
256
6
ByLayer
370
18
48
1
60
0
100
AcDbEllipse
10
52.234477
20
27.250233
30
0
11
-3.74766594029728
21
3.74766594028012
31
0
210
0
220
0
230
1
40
0.989133
41
-1.13446401379631
42
-0.610865238198013
0
ELLIPSE
5
163
100
AcDbEntity
8
1
62
256
6
ByLayer
370
18
48
1
60
0
100
AcDbEllipse
10
52.234477
20
27.250233
30
0
11
-3.74766594029728
21
3.74766594028012
31
0
210
0
220
0
230
1
40
0.989133
41
-2.35619449019235
42
-1.13446401379631
0
ELLIPSE
5
164
100
AcDbEntity
8
1
62
256
6
ByLayer
370
18
48
1
60
0
100
AcDbEllipse
10
51.260576
20
26.571023
30
0
11
-4.45477272148545
21
4.45477272146505
31
0
210
0
220
0
230
1
40
0.989133
41
2.48531338690477
42
2.53072741539177
0
ELLIPSE
5
165
100
AcDbEntity
8
1
62
256
6
ByLayer
370
18
48
1
60
0
100
AcDbEllipse
10
51.578179
20
26.888625
30
0
11
2.63043722602
21
-2.63043722600791
31
0
210
0
220
0
230
1
40
0.989133
41
2.59181393921158
42
2.9464192428348
0
ELLIPSE
5
166
100
AcDbEntity
8
1
62
256
6
ByLayer
370
18
48
1
60
0
100
AcDbEllipse
10
52.66072
20
27.676476
30
0
11
-2.97084430727133
21
2.97084430725772
31
0
210
0
220
0
230
1
40
0.989133
41
-2.87979326579065
42
-2.79255328898737
0
ELLIPSE
5
167
100
AcDbEntity
8
1
62
256
6
ByLayer
370
18
48
1
60
0
100
AcDbEllipse
10
51.578179
20
26.888625
30
0
11
3.87594587053565
21
-3.87594587051784
31
0
210
0
220
0
230
1
40
0.989133
41
-2.86650736106133
42
-2.82526901493146
0
ELLIPSE
5
168
100
AcDbEntity
8
1
62
256
6
ByLayer
370
18
48
1
60
0
100
AcDbEllipse
10
24.676277
20
22.235759
30
0
11
-0.836069590420693
21
1.76167183095314
31
0
210
0
220
0
230
1
40
0.132393
41
-3.0075652891094
42
-0.133970400285362
0
ELLIPSE
5
169
100
AcDbEntity
8
1
62
256
6
ByLayer
370
18
48
1
60
0
100
AcDbEllipse
10
24.45241
20
22.129514
30
0
11
0.943257999448989
21
-1.98752719389584
31
0
210
0
220
0
230
1
40
0.132393
41
0.0375901703554147
42
3.1415679273732
0
ELLIPSE
5
16A
100
AcDbEntity
8
1
62
256
6
ByLayer
370
18
48
1
60
0
100
AcDbEllipse
10
28.954761
20
18.34886
30
0
11
2.0817652655485
21
-2.16015123988015
31
0
210
0
220
0
230
1
40
0.986455
41
-0.156280282981027
42
-0.0604792845384534
0
ELLIPSE
5
16B
100
AcDbEntity
8
1
62
256
6
ByLayer
370
18
48
1
60
0
100
AcDbEllipse
10
32.87588
20
2.771771
30
0
11
5.72659051508524
21
4.02568765213296
31
0
210
0
220
0
230
1
40
0.02553
41
-0.961582821111953
42
-0.80857390378316
0
ELLIPSE
5
16C
100
AcDbEntity
8
1
62
256
6
ByLayer
370
18
48
1
60
0
100
AcDbEllipse
10
38.643087
20
17.788781
30
0
11
-3.57369703919159
21
3.70825962846094
31
0
210
0
220
0
230
1
40
0.986455
41
3.08108183140579
42
-0.156280282981029
0
ELLIPSE
5
16D
100
AcDbEntity
8
1
62
256
6
ByLayer
370
18
48
1
60
0
100
AcDbEllipse
10
34.470332
20
11.041072
30
0
11
6.54467487438313
21
4.60078588815196
31
0
210
0
220
0
230
1
40
0.02553
41
1.54834725385763
42
2.15392467698382
0
ELLIPSE
5
16E
100
AcDbEntity
8
1
62
256
6
ByLayer
370
18
48
1
60
0
100
AcDbEllipse
10
33.491345
20
3.142807
30
0
11
4.09042179648946
21
2.87549118009498
31
0
210
0
220
0
230
1
40
0.02553
41
-1.55587304395469
42
-0.852933224750644
0
ELLIPSE
5
16F
100
AcDbEntity
8
1
62
256
6
ByLayer
370
18
48
1
60
0
100
AcDbEllipse
10
36.680607
20
10.521809
30
0
11
-2.77183407273955
21
-6.49097067061345
31
0
210
0
220
0
230
1
40
0.308803
41
-0.112864552383802
42
0.459238987229633
0
ELLIPSE
5
170
100
AcDbEntity
8
1
62
256
6
ByLayer
370
18
48
1
60
0
100
AcDbEllipse
10
31.485572
20
6.096108
30
0
11
-3.25817272410677
21
1.7581165343829
31
0
210
0
220
0
230
1
40
0.99535
41
2.29435456203183
42
2.4629203324754
0
ELLIPSE
5
171
100
AcDbEntity
8
1
62
256
6
ByLayer
370
18
48
1
60
0
100
AcDbEllipse
10
47.102055
20
28.795574
30
0
11
-2.22261512252017
21
-0.277932744178001
31
0
210
0
220
0
230
1
40
0.280718
41
-1.2774114498502
42
-1.19422351886429
0
ELLIPSE
5
172
100
AcDbEntity
8
1
62
256
6
ByLayer
370
18
48
1
60
0
100
AcDbEllipse
10
25.897315
20
14.855896
30
0
11
-3.25817351402543
21
1.75811512032812
31
0
210
0
220
0
230
1
40
0.99535
41
1.03102382681825
42
1.10568288157136
0
ELLIPSE
5
173
100
AcDbEntity
8
1
62
256
6
ByLayer
370
18
48
1
60
0
100
AcDbEllipse
10
30.736029
20
18.978045
30
0
11
-6.57889319530352
21
-1.18416104687438
31
0
210
0
220
0
230
1
40
0.266372
41
-0.525159587475541
42
0.0469439521383427
0
ELLIPSE
5
174
100
AcDbEntity
8
1
62
256
6
ByLayer
370
18
48
1
60
0
100
AcDbEllipse
10
31.020868
20
15.947978
30
0
11
6.54467487438313
21
4.60078588815196
31
0
210
0
220
0
230
1
40
0.02553
41
1.54834725385763
42
2.15392467698383
0
ELLIPSE
5
175
100
AcDbEntity
8
1
62
256
6
ByLayer
370
18
48
1
60
0
100
AcDbEllipse
10
52.015876
20
21.805601
30
0
11
-0.989112285721602
21
-2.01835918592536
31
0
210
0
220
0
230
1
40
0.319208
41
1.16864089035244
42
1.2518288244094
0
ELLIPSE
5
176
100
AcDbEntity
8
1
62
256
6
ByLayer
370
18
48
1
60
0
100
AcDbEllipse
10
31.841893
20
6.399661
30
0
11
-3.25817297601673
21
1.75811608683685
31
0
210
0
220
0
230
1
40
0.99535
41
1.10568318060165
42
1.18034223558453
0
ELLIPSE
5
177
100
AcDbEntity
8
1
62
256
6
ByLayer
370
18
48
1
60
0
100
AcDbEllipse
10
25.540995
20
14.552344
30
0
11
-3.25817269898273
21
1.75811658201891
31
0
210
0
220
0
230
1
40
0.99535
41
-0.251553679462895
42
-0.0829879090368784
0
POINT
5
6C
100
AcDbEntity
8
2
62
256
6
ByLayer
370
18
48
1
60
0
100
AcDbPoint
10
60
20
35
30
0
39
0
210
0
220
0
230
1
50
360
0
POINT
5
6E
100
AcDbEntity
8
80
62
256
6
ByLayer
370
18
48
1
60
0
100
AcDbPoint
10
0
20
0
30
0
39
0
210
0
220
0
230
1
50
360
0
POINT
5
70
100
AcDbEntity
8
81
62
256
6
ByLayer
370
18
48
1
60
0
100
AcDbPoint
10
60
20
35
30
0
39
0
210
0
220
0
230
1
50
360
0
SPLINE
5
178
100
AcDbEntity
8
1
62
256
6
ByLayer
370
18
48
1
60
0
100
AcDbSpline
70
4
71
3
72
9
73
5
40
0
40
0
40
0
40
0
40
0.343787484788564
40
1
40
1
40
1
40
1
41
1
10
52.4383416848743
20
20.1258362697335
30
0
41
1
10
52.3956470193074
20
20.1523512958686
30
0
41
1
10
52.2726584278357
20
20.2318855276613
30
0
41
1
10
52.1528647029371
20
20.3180035990294
30
0
41
1
10
52.0758127424935
20
20.3776085883446
30
0
0
SPLINE
5
179
100
AcDbEntity
8
1
62
256
6
ByLayer
370
18
48
1
60
0
100
AcDbSpline
70
4
71
3
72
9
73
5
40
0
40
0
40
0
40
0
40
0.87525398203529
40
1
40
1
40
1
40
1
41
1
10
45.8538092231963
20
29.2487217128349
30
0
41
1
10
45.8296465723153
20
29.3417865080507
30
0
41
1
10
45.8071851837332
20
29.4486974608966
30
0
41
1
10
45.7904245578031
20
29.5562209912826
30
0
41
1
10
45.7884242991556
20
29.5696442023286
30
0
0
SPLINE
5
17A
100
AcDbEntity
8
SK1
62
256
6
ByLayer
370
18
48
1
60
0
100
AcDbSpline
70
4
71
2
72
6
73
3
40
0
40
0
40
0
40
1
40
1
40
1
41
1
10
-28.5
20
-16.8542724489282
30
0
41
1
10
-15.3499999999286
20
-17.1845422635703
30
0
41
1
10
-2.19999999999999
20
-17.5148116792767
30
0
0
SPLINE
5
17B
100
AcDbEntity
8
SK1
62
256
6
ByLayer
370
18
48
1
60
0
100
AcDbSpline
70
4
71
2
72
6
73
3
40
0
40
0
40
0
40
1
40
1
40
1
41
1
10
-2.19999999999999
20
17.5148117187522
30
0
41
1
10
-15.3499999999294
20
17.1845422725478
30
0
41
1
10
-28.5
20
16.854272429841
30
0
0
SPLINE
5
17C
100
AcDbEntity
8
SK1
62
256
6
ByLayer
370
18
48
1
60
0
100
AcDbSpline
70
4
71
3
72
13
73
9
40
0
40
0
40
0
40
0
40
0.239456135733551
40
0.368359721896995
40
0.499998983985648
40
0.631638415256368
40
0.760542467762615
40
1
40
1
40
1
40
1
41
1
10
-2.19999999999999
20
-17.520098551796
30
0
41
1
10
-2.19909198642199
20
-17.4940410756898
30
0
41
1
10
-2.19103284106862
20
-17.4566684913667
30
0
41
1
10
-2.16563592203255
20
-17.4104493175479
30
0
41
1
10
-2.13886378679174
20
-17.3791677636994
30
0
41
1
10
-2.106277127498
20
-17.3540003935063
30
0
41
1
10
-2.05884064234166
20
-17.3309565910454
30
0
41
1
10
-2.02111030873061
20
-17.3247843360228
30
0
41
1
10
-1.99503997793928
20
-17.3251859759625
30
0
0
SPLINE
5
17D
100
AcDbEntity
8
SK1
62
256
6
ByLayer
370
18
48
1
60
0
100
AcDbSpline
70
4
71
3
72
13
73
9
40
0
40
0
40
0
40
0
40
0.2394575322828
40
0.368361584804615
40
0.500001016081333
40
0.631640278164845
40
0.760543864313148
40
1
40
1
40
1
40
1
41
1
10
-1.99503997793928
20
17.3251861589552
30
0
41
1
10
-2.02111030872965
20
17.324784519015
30
0
41
1
10
-2.05884064233982
20
17.3309567740351
30
0
41
1
10
-2.10627712749664
20
17.3540005764861
30
0
41
1
10
-2.13886378679047
20
17.3791679466684
30
0
41
1
10
-2.16563592203158
20
17.4104495005037
30
0
41
1
10
-2.19103284106788
20
17.4566686743027
30
0
41
1
10
-2.19909198642125
20
17.4940412586114
30
0
41
1
10
-2.19999999999999
20
17.5200987347078
30
0
0
SPLINE
5
17E
100
AcDbEntity
8
SK1
62
256
6
ByLayer
370
18
48
1
60
0
100
AcDbSpline
70
4
71
2
72
6
73
3
40
0
40
0
40
0
40
1
40
1
40
1
41
1
10
-1.99503997793928
20
-17.3199593099743
30
0
41
1
10
-1.19500843340703
20
-17.340052552406
30
0
41
1
10
-0.394976888875277
20
-17.3601457933935
30
0
0
SPLINE
5
17F
100
AcDbEntity
8
SK1
62
256
6
ByLayer
370
18
48
1
60
0
100
AcDbSpline
70
4
71
2
72
6
73
3
40
0
40
0
40
0
40
1
40
1
40
1
41
1
10
-0.394976888875277
20
17.3601458189993
30
0
41
1
10
-1.19500843340703
20
17.3400525762132
30
0
41
1
10
-1.99503997793928
20
17.3199593319919
30
0
0
SPLINE
5
180
100
AcDbEntity
8
SK1
62
256
6
ByLayer
370
18
48
1
60
0
100
AcDbSpline
70
4
71
2
72
6
73
3
40
0
40
0
40
0
40
1
40
1
40
1
41
1
10
-30
20
-15.9924794145163
30
0
41
1
10
-29.2499999991495
20
-16.4254650261933
30
0
41
1
10
-28.5
20
-16.8584504491481
30
0
0
SPLINE
5
181
100
AcDbEntity
8
SK1
62
256
6
ByLayer
370
18
48
1
60
0
100
AcDbSpline
70
4
71
2
72
6
73
3
40
0
40
0
40
0
40
1
40
1
40
1
41
1
10
-28.5
20
16.8584505716142
30
0
41
1
10
-29.2499999991495
20
16.4254651505507
30
0
41
1
10
-30
20
15.99247954079
30
0
0
SPLINE
5
182
100
AcDbEntity
8
SK1
62
256
6
ByLayer
370
18
48
1
60
0
100
AcDbSpline
70
4
71
2
72
6
73
3
40
0
40
0
40
0
40
1
40
1
40
1
41
1
10
-0.394976888875277
20
-17.359696795897
30
0
41
1
10
-0.305277226309727
20
-17.3671842624703
30
0
41
1
10
-0.258658740615658
20
-17.4310145299902
30
0
0
SPLINE
5
183
100
AcDbEntity
8
SK1
62
256
6
ByLayer
370
18
48
1
60
0
100
AcDbSpline
70
4
71
2
72
6
73
3
40
0
40
0
40
0
40
1
40
1
40
1
41
1
10
-0.258442643302431
20
17.4312381196178
30
0
41
1
10
-0.305123774552612
20
17.3672404580573
30
0
41
1
10
-0.394976888875277
20
17.3596982935394
30
0
0
SPLINE
5
184
100
AcDbEntity
8
SK1
62
256
6
ByLayer
370
18
48
1
60
0
100
AcDbSpline
70
4
71
3
72
287
73
283
40
0
40
0
40
0
40
0
40
0.0019139446197258
40
0.0054376836495242
40
0.0089614226793227
40
0.0124851617091212
40
0.0160089007389197
40
0.0195326397687182
40
0.0230563787985166
40
0.0265801178283151
40
0.0301038568581136
40
0.0336275958879121
40
0.0371513349177105
40
0.0441988129773075
40
0.0477225520071059
40
0.0512462910369044
40
0.0547700300667029
40
0.0582937690965014
40
0.0653412471560983
40
0.0688649861858968
40
0.0723887252156952
40
0.0794362032752922
40
0.0829599423050907
40
0.0864836813348892
40
0.0935311593944862
40
0.0970548984242847
40
0.100578637454083
40
0.104102376483882
40
0.10762611551368
40
0.111149854543479
40
0.114673593573277
40
0.118197332603075
40
0.121721071632874
40
0.128768549692471
40
0.132292288722269
40
0.135816027752068
40
0.139339766781866
40
0.142863505811665
40
0.149910983871262
40
0.15343472290106
40
0.156958461930859
40
0.160482200960657
40
0.164005939990456
40
0.171053418050053
40
0.174577157079851
40
0.17810089610965
40
0.181624635139448
40
0.185148374169247
40
0.192195852228844
40
0.195719591258642
40
0.19924333028844
40
0.202767069318239
40
0.206290808348037
40
0.213338286407634
40
0.216862025437433
40
0.220385764467231
40
0.22390950349703
40
0.227433242526828
40
0.234480720586425
40
0.238004459616224
40
0.241528198646022
40
0.245051937675821
40
0.248575676705619
40
0.255623154765216
40
0.259146893795014
40
0.262670632824813
40
0.26971811088441
40
0.276765588944007
40
0.280289327973805
40
0.283813067003604
40
0.290860545063201
40
0.294384284092999
40
0.297908023122798
40
0.301431762152596
40
0.304955501182395
40
0.308479240212193
40
0.312002979241992
40
0.319050457301589
40
0.326097935361185
40
0.329621674390984
40
0.333145413420782
40
0.336669152450581
40
0.340192891480379
40
0.343716630510178
40
0.347240369539976
40
0.354287847599573
40
0.36133532565917
40
0.368382803718767
40
0.371906542748566
40
0.375430281778364
40
0.378954020808163
40
0.382477759837961
40
0.386001498867759
40
0.389525237897558
40
0.393048976927357
40
0.396572715957155
40
0.400096454986954
40
0.403620194016752
40
0.40714393304655
40
0.410667672076349
40
0.414191411106147
40
0.417715150135946
40
0.421238889165744
40
0.424762628195543
40
0.428286367225341
40
0.430048236740241
40
0.43181010625514
40
0.433571975770039
40
0.435333845284938
40
0.438857584314737
40
0.442381323344535
40
0.444143192859434
40
0.445905062374334
40
0.447666931889233
40
0.449428801404132
40
0.451190670919031
40
0.452952540433931
40
0.456476279463729
40
0.458238148978628
40
0.460000018493528
40
0.461761888008427
40
0.463523757523326
40
0.465285627038225
40
0.467047496553124
40
0.468809366068024
40
0.470571235582923
40
0.472333105097822
40
0.474094974612721
40
0.475856844127621
40
0.47761871364252
40
0.479380583157419
40
0.481142452672318
40
0.482904322187218
40
0.484666191702117
40
0.486428061217016
40
0.488189930731915
40
0.489951800246815
40
0.491713669761714
40
0.493475539276613
40
0.495237408791512
40
0.496999278306412
40
0.498761147821311
40
0.50052301733621
40
0.502284886851109
40
0.504046756366008
40
0.505808625880908
40
0.507570495395807
40
0.509332364910706
40
0.511094234425605
40
0.512856103940505
40
0.514617973455404
40
0.516379842970303
40
0.518141712485202
40
0.519903582000102
40
0.521665451515001
40
0.5234273210299
40
0.525189190544799
40
0.526951060059698
40
0.528712929574598
40
0.530474799089497
40
0.532236668604396
40
0.533998538119295
40
0.535760407634195
40
0.537522277149094
40
0.539284146663993
40
0.541046016178892
40
0.544569755208691
40
0.54633162472359
40
0.54809349423849
40
0.551617233268288
40
0.555140972298086
40
0.556902841812985
40
0.558664711327885
40
0.560426580842784
40
0.562188450357683
40
0.565712189387482
40
0.56923592841728
40
0.572759667447079
40
0.576283406476877
40
0.579807145506675
40
0.583330884536474
40
0.586854623566272
40
0.590378362596071
40
0.59390210162587
40
0.597425840655668
40
0.600949579685466
40
0.604473318715265
40
0.607997057745063
40
0.611520796774862
40
0.61504453580466
40
0.618568274834459
40
0.622092013864257
40
0.629139491923854
40
0.636186969983451
40
0.643234448043048
40
0.646758187072846
40
0.650281926102645
40
0.653805665132444
40
0.657329404162242
40
0.660853143192041
40
0.664376882221839
40
0.671424360281436
40
0.678471838341033
40
0.681995577370831
40
0.68551931640063
40
0.689043055430428
40
0.692566794460227
40
0.696090533490025
40
0.699614272519824
40
0.706661750579421
40
0.710185489609219
40
0.713709228639018
40
0.720756706698615
40
0.727804184758211
40
0.73132792378801
40
0.734851662817808
40
0.741899140877405
40
0.745422879907204
40
0.748946618937002
40
0.752470357966801
40
0.755994096996599
40
0.763041575056196
40
0.766565314085995
40
0.770089053115793
40
0.773612792145592
40
0.77713653117539
40
0.784184009234987
40
0.787707748264786
40
0.791231487294584
40
0.794755226324382
40
0.798278965354181
40
0.805326443413778
40
0.808850182443576
40
0.812373921473375
40
0.815897660503173
40
0.819421399532972
40
0.826468877592569
40
0.829992616622367
40
0.833516355652166
40
0.835278225167065
40
0.837040094681964
40
0.840563833711763
40
0.84761131177136
40
0.851135050801158
40
0.854658789830956
40
0.858182528860755
40
0.861706267890553
40
0.868753745950151
40
0.872277484979949
40
0.875801224009748
40
0.879324963039546
40
0.882848702069344
40
0.886372441099143
40
0.889896180128941
40
0.89341991915874
40
0.896943658188538
40
0.903991136248135
40
0.907514875277934
40
0.911038614307732
40
0.918086092367329
40
0.921609831397128
40
0.925133570426926
40
0.932181048486523
40
0.935704787516321
40
0.93922852654612
40
0.942752265575918
40
0.946276004605717
40
0.953323482665314
40
0.956847221695112
40
0.960370960724911
40
0.963894699754709
40
0.967418438784508
40
0.970942177814306
40
0.974465916844105
40
0.977989655873903
40
0.981513394903702
40
0.9850371339335
40
0.988560872963299
40
0.992084611993097
40
0.995608351022896
40
0.999132090052694
40
1
40
1
40
1
40
1
41
1
10
-28.5
20
16.8570111555156
30
0
41
1
10
-28.5
20
16.8563913679757
30
0
41
1
10
-28.5
20
16.8542839989871
30
0
41
1
10
-28.5
20
16.8492032887544
30
0
41
1
10
-28.5
20
16.8407921788659
30
0
41
1
10
-28.5
20
16.8300011209595
30
0
41
1
10
-28.5
20
16.8168672741156
30
0
41
1
10
-28.5
20
16.8014255225769
30
0
41
1
10
-28.5
20
16.783709883521
30
0
41
1
10
-28.5
20
16.7637529731542
30
0
41
1
10
-28.5
20
16.7415855338906
30
0
41
1
10
-28.5
20
16.7172383450784
30
0
41
1
10
-28.5
20
16.6818353810987
30
0
41
1
10
-28.5
20
16.642411510514
30
0
41
1
10
-28.5
20
16.5986105790194
30
0
41
1
10
-28.5
20
16.5637763020887
30
0
41
1
10
-28.5
20
16.5269199075572
30
0
41
1
10
-28.5
20
16.4750169305147
30
0
41
1
10
-28.5
20
16.4194622625482
30
0
41
1
10
-28.5
20
16.3597331913305
30
0
41
1
10
-28.5
20
16.2974462059125
30
0
41
1
10
-28.5
20
16.2317181614777
30
0
41
1
10
-28.5
20
16.1619255301562
30
0
41
1
10
-28.5
20
16.0896767577218
30
0
41
1
10
-28.5
20
16.0141701499498
30
0
41
1
10
-28.5
20
15.9346970720351
30
0
41
1
10
-28.5
20
15.8734193498834
30
0
41
1
10
-28.5
20
15.8103844132608
30
0
41
1
10
-28.5
20
15.745608166167
30
0
41
1
10
-28.5
20
15.6791035033831
30
0
41
1
10
-28.5
20
15.6108850520675
30
0
41
1
10
-28.5
20
15.5409672008416
30
0
41
1
10
-28.5
20
15.4453363897878
30
0
41
1
10
-28.5
20
15.3468344295442
30
0
41
1
10
-28.5
20
15.2445501023872
30
0
41
1
10
-28.5
20
15.1663215412447
30
0
41
1
10
-28.5
20
15.0864673138636
30
0
41
1
10
-28.5
20
14.9776668598204
30
0
41
1
10
-28.5
20
14.8661866472663
30
0
41
1
10
-28.5
20
14.7510047173632
30
0
41
1
10
-28.5
20
14.6631805593238
30
0
41
1
10
-28.5
20
14.5737935545692
30
0
41
1
10
-28.5
20
14.4523474056541
30
0
41
1
10
-28.5
20
14.3283920102608
30
0
41
1
10
-28.5
20
14.2007962111626
30
0
41
1
10
-28.5
20
14.1037299196573
30
0
41
1
10
-28.5
20
14.0051547121626
30
0
41
1
10
-28.5
20
13.8715103774192
30
0
41
1
10
-28.5
20
13.7355116027341
30
0
41
1
10
-28.5
20
13.5959164295663
30
0
41
1
10
-28.5
20
13.4899116400767
30
0
41
1
10
-28.5
20
13.3824445287113
30
0
41
1
10
-28.5
20
13.2369867267196
30
0
41
1
10
-28.5
20
13.0893180063072
30
0
41
1
10
-28.5
20
12.9380809359595
30
0
41
1
10
-28.5
20
12.8234002792818
30
0
41
1
10
-28.5
20
12.7072977235968
30
0
41
1
10
-28.5
20
12.550359403554
30
0
41
1
10
-28.5
20
12.3913462445321
30
0
41
1
10
-28.5
20
12.2287775158425
30
0
41
1
10
-28.5
20
12.1056498288981
30
0
41
1
10
-28.5
20
11.9811355431936
30
0
41
1
10
-28.5
20
11.8130068133241
30
0
41
1
10
-28.5
20
11.642935768078
30
0
41
1
10
-28.5
20
11.4693068645233
30
0
41
1
10
-28.5
20
11.2938625434425
30
0
41
1
10
-28.5
20
11.0718089327865
30
0
41
1
10
-28.5
20
10.8452681360072
30
0
41
1
10
-28.5
20
10.6608198079832
30
0
41
1
10
-28.5
20
10.4745957683654
30
0
41
1
10
-28.5
20
10.2866518533399
30
0
41
1
10
-28.5
20
10.0951135357909
30
0
41
1
10
-28.5
20
9.9503895477591
30
0
41
1
10
-28.5
20
9.8043545776041
30
0
41
1
10
-28.5
20
9.65701503611822
30
0
41
1
10
-28.5
20
9.50837340526911
30
0
41
1
10
-28.5
20
9.30810992365679
30
0
41
1
10
-28.5
20
9.05534970701544
30
0
41
1
10
-28.5
20
8.79830464348922
30
0
41
1
10
-28.5
20
8.58944232029054
30
0
41
1
10
-28.5
20
8.43181572672981
30
0
41
1
10
-28.5
20
8.27292311790592
30
0
41
1
10
-28.5
20
8.11277014047184
30
0
41
1
10
-28.5
20
7.9513617118449
30
0
41
1
10
-28.5
20
7.73407184255308
30
0
41
1
10
-28.5
20
7.46030866767529
30
0
41
1
10
-28.5
20
7.12632140637373
30
0
41
1
10
-28.5
20
6.84437402550569
30
0
41
1
10
-28.5
20
6.61554359890371
30
0
41
1
10
-28.5
20
6.44309029411608
30
0
41
1
10
-28.5
20
6.26944364545889
30
0
41
1
10
-28.5
20
6.09461246091772
30
0
41
1
10
-28.5
20
5.91860523667609
30
0
41
1
10
-28.5
20
5.74143189937953
30
0
41
1
10
-28.5
20
5.56310357372001
30
0
41
1
10
-28.5
20
5.38363134733163
30
0
41
1
10
-28.5
20
5.20302692387261
30
0
41
1
10
-28.5
20
5.0213042232472
30
0
41
1
10
-28.5
20
4.83847919931264
30
0
41
1
10
-28.5
20
4.65456716028004
30
0
41
1
10
-28.5
20
4.46958486845949
30
0
41
1
10
-28.5
20
4.28355302808069
30
0
41
1
10
-28.5
20
4.09649275318182
30
0
41
1
10
-28.5
20
3.90842813226232
30
0
41
1
10
-28.5
20
3.75124940963565
30
0
41
1
10
-28.5
20
3.6243549796439
30
0
41
1
10
-28.5
20
3.52924315934183
30
0
41
1
10
-28.5
20
3.43390158445521
30
0
41
1
10
-28.5
20
3.30608717079298
30
0
41
1
10
-28.5
20
3.14669072023423
30
0
41
1
10
-28.5
20
2.9865693987912
30
0
41
1
10
-28.5
20
2.85729421649611
30
0
41
1
10
-28.5
20
2.76048089001324
30
0
41
1
10
-28.5
20
2.66347976206254
30
0
41
1
10
-28.5
20
2.56629526768592
30
0
41
1
10
-28.5
20
2.46893611478751
30
0
41
1
10
-28.5
20
2.33842740009587
30
0
41
1
10
-28.5
20
2.20905952740142
30
0
41
1
10
-28.5
20
2.07788039572898
30
0
41
1
10
-28.5
20
1.97974994874616
30
0
41
1
10
-28.5
20
1.88148715614122
30
0
41
1
10
-28.5
20
1.78310090101277
30
0
41
1
10
-28.5
20
1.68460072925305
30
0
41
1
10
-28.5
20
1.58599184128096
30
0
41
1
10
-28.5
20
1.48728649469356
30
0
41
1
10
-28.5
20
1.38848914320587
30
0
41
1
10
-28.5
20
1.28961139997082
30
0
41
1
10
-28.5
20
1.19065859360987
30
0
41
1
10
-28.5
20
1.09164071478048
30
0
41
1
10
-28.5
20
0.992564090788449
30
0
41
1
10
-28.5
20
0.893436923932512
30
0
41
1
10
-28.5
20
0.794265471937166
30
0
41
1
10
-28.5
20
0.695056741362833
30
0
41
1
10
-28.5
20
0.595816468507252
30
0
41
1
10
-28.5
20
0.49655061320999
30
0
41
1
10
-28.5
20
0.397263853181812
30
0
41
1
10
-28.5
20
0.297961366795107
30
0
41
1
10
-28.5
20
0.198647102840738
30
0
41
1
10
-28.5
20
0.0993254669347436
30
0
41
1
10
-28.5
20
5.4725149E-09
30
0
41
1
10
-28.5
20
-0.0993254684405827
30
0
41
1
10
-28.5
20
-0.198647127601248
30
0
41
1
10
-28.5
20
-0.297961388791691
30
0
41
1
10
-28.5
20
-0.397263840424017
30
0
41
1
10
-28.5
20
-0.496550594205559
30
0
41
1
10
-28.5
20
-0.595816495504096
30
0
41
1
10
-28.5
20
-0.695056784277028
30
0
41
1
10
-28.5
20
-0.794265459276176
30
0
41
1
10
-28.5
20
-0.89343688343348
30
0
41
1
10
-28.5
20
-0.992564112169902
30
0
41
1
10
-28.5
20
-1.0916407792042
30
0
41
1
10
-28.5
20
-1.19065859620264
30
0
41
1
10
-28.5
20
-1.28961134189751
30
0
41
1
10
-28.5
20
-1.38848913588993
30
0
41
1
10
-28.5
20
-1.48728656512978
30
0
41
1
10
-28.5
20
-1.58599188781932
30
0
41
1
10
-28.5
20
-1.6846006870125
30
0
41
1
10
-28.5
20
-1.78310084050699
30
0
41
1
10
-28.5
20
-1.88148718140701
30
0
41
1
10
-28.5
20
-1.9797500364362
30
0
41
1
10
-28.5
20
-2.0778804265363
30
0
41
1
10
-28.5
20
-2.17587292609082
30
0
41
1
10
-28.5
20
-2.27371679621319
30
0
41
1
10
-28.5
20
-2.37140757120352
30
0
41
1
10
-28.5
20
-2.46893613943033
30
0
41
1
10
-28.5
20
-2.59923374131699
30
0
41
1
10
-28.5
20
-2.72777279716706
30
0
41
1
10
-28.5
20
-2.8572942882393
30
0
41
1
10
-28.5
20
-2.98656948332388
30
0
41
1
10
-28.5
20
-3.14669074057869
30
0
41
1
10
-28.5
20
-3.30608709676798
30
0
41
1
10
-28.5
20
-3.43390157548936
30
0
41
1
10
-28.5
20
-3.52924322184191
30
0
41
1
10
-28.5
20
-3.62435506854831
30
0
41
1
10
-28.5
20
-3.75124942106058
30
0
41
1
10
-28.5
20
-3.90842799420625
30
0
41
1
10
-28.5
20
-4.09649259176146
30
0
41
1
10
-28.5
20
-4.28355297730505
30
0
41
1
10
-28.5
20
-4.4695846174555
30
0
41
1
10
-28.5
20
-4.65456683421039
30
0
41
1
10
-28.5
20
-4.83847943804494
30
0
41
1
10
-28.5
20
-5.0213044851898
30
0
41
1
10
-28.5
20
-5.2030267003301
30
0
41
1
10
-28.5
20
-5.38363156234237
30
0
41
1
10
-28.5
20
-5.56310445504442
30
0
41
1
10
-28.5
20
-5.74143237747984
30
0
41
1
10
-28.5
20
-5.91860495448572
30
0
41
1
10
-28.5
20
-6.09461208825527
30
0
41
1
10
-28.5
20
-6.26944357118299
30
0
41
1
10
-28.5
20
-6.4430903265563
30
0
41
1
10
-28.5
20
-6.61554357091572
30
0
41
1
10
-28.5
20
-6.84437400802861
30
0
41
1
10
-28.5
20
-7.12632144512301
30
0
41
1
10
-28.5
20
-7.46030865505762
30
0
41
1
10
-28.5
20
-7.73407184285279
30
0
41
1
10
-28.5
20
-7.95136176299604
30
0
41
1
10
-28.5
20
-8.11277014937085
30
0
41
1
10
-28.5
20
-8.27292308432649
30
0
41
1
10
-28.5
20
-8.43181570788789
30
0
41
1
10
-28.5
20
-8.5894423488798
30
0
41
1
10
-28.5
20
-8.79830467826932
30
0
41
1
10
-28.5
20
-9.05534969583792
30
0
41
1
10
-28.5
20
-9.30810991622684
30
0
41
1
10
-28.5
20
-9.50837344479851
30
0
41
1
10
-28.5
20
-9.65701506287493
30
0
41
1
10
-28.5
20
-9.80435457188474
30
0
41
1
10
-28.5
20
-9.95038952754788
30
0
41
1
10
-28.5
20
-10.095113531911
30
0
41
1
10
-28.5
20
-10.2866518813937
30
0
41
1
10
-28.5
20
-10.4745957936973
30
0
41
1
10
-28.5
20
-10.6608197986608
30
0
41
1
10
-28.5
20
-10.8452681286137
30
0
41
1
10
-28.5
20
-11.0718089525805
30
0
41
1
10
-28.5
20
-11.2938625632929
30
0
41
1
10
-28.5
20
-11.4693068596264
30
0
41
1
10
-28.5
20
-11.6429357656381
30
0
41
1
10
-28.5
20
-11.8130068303033
30
0
41
1
10
-28.5
20
-11.9811355648908
30
0
41
1
10
-28.5
20
-12.1056498404809
30
0
41
1
10
-28.5
20
-12.2287775174238
30
0
41
1
10
-28.5
20
-12.3913462461042
30
0
41
1
10
-28.5
20
-12.5503594172971
30
0
41
1
10
-28.5
20
-12.7072977423403
30
0
41
1
10
-28.5
20
-12.8234002933141
30
0
41
1
10
-28.5
20
-12.9380809438717
30
0
41
1
10
-28.5
20
-13.0893180117675
30
0
41
1
10
-28.5
20
-13.2369867372074
30
0
41
1
10
-28.5
20
-13.3824445445542
30
0
41
1
10
-28.5
20
-13.4899116562855
30
0
41
1
10
-28.5
20
-13.5959164434403
30
0
41
1
10
-28.5
20
-13.7355116125921
30
0
41
1
10
-28.5
20
-13.8715103854275
30
0
41
1
10
-28.5
20
-14.0051547249398
30
0
41
1
10
-28.5
20
-14.1037299370701
30
0
41
1
10
-28.5
20
-14.2007962250068
30
0
41
1
10
-28.5
20
-14.328392039309
30
0
41
1
10
-28.5
20
-14.4523474054459
30
0
41
1
10
-28.5
20
-14.5737935062701
30
0
41
1
10
-28.5
20
-14.6481896525931
30
0
41
1
10
-28.5
20
-14.7070919001429
30
0
41
1
10
-28.5
20
-14.7654709460418
30
0
41
1
10
-28.5
20
-14.8661866667289
30
0
41
1
10
-28.5
20
-14.9776668655465
30
0
41
1
10
-28.5
20
-15.0864673213159
30
0
41
1
10
-28.5
20
-15.1663215599361
30
0
41
1
10
-28.5
20
-15.2445501295776
30
0
41
1
10
-28.5
20
-15.3468344527491
30
0
41
1
10
-28.5
20
-15.4453363938053
30
0
41
1
10
-28.5
20
-15.5409672073329
30
0
41
1
10
-28.5
20
-15.6108850733398
30
0
41
1
10
-28.5
20
-15.679103534252
30
0
41
1
10
-28.5
20
-15.7456081924762
30
0
41
1
10
-28.5
20
-15.810384423087
30
0
41
1
10
-28.5
20
-15.8734193510279
30
0
41
1
10
-28.5
20
-15.9346970807191
30
0
41
1
10
-28.5
20
-16.0141701800502
30
0
41
1
10
-28.5
20
-16.0896767899468
30
0
41
1
10
-28.5
20
-16.1619255341458
30
0
41
1
10
-28.5
20
-16.2317181619347
30
0
41
1
10
-28.5
20
-16.2974462376793
30
0
41
1
10
-28.5
20
-16.3597332242326
30
0
41
1
10
-28.5
20
-16.4194622696319
30
0
41
1
10
-28.5
20
-16.4750169286961
30
0
41
1
10
-28.5
20
-16.5269199399481
30
0
41
1
10
-28.5
20
-16.5637763395248
30
0
41
1
10
-28.5
20
-16.5986105943247
30
0
41
1
10
-28.5
20
-16.642411504334
30
0
41
1
10
-28.5
20
-16.6818354096897
30
0
41
1
10
-28.5
20
-16.7172383773105
30
0
41
1
10
-28.5
20
-16.741585550229
30
0
41
1
10
-28.5
20
-16.7637529737167
30
0
41
1
10
-28.5
20
-16.7837098927271
30
0
41
1
10
-28.5
20
-16.8014255596809
30
0
41
1
10
-28.5
20
-16.816867307208
30
0
41
1
10
-28.5
20
-16.8300011251081
30
0
41
1
10
-28.5
20
-16.8407921763224
30
0
41
1
10
-28.5
20
-16.8492033090471
30
0
41
1
10
-28.5
20
-16.8551966659016
30
0
41
1
10
-28.5
20
-16.8587319423621
30
0
41
1
10
-28.5
20
-16.8597680746869
30
0
41
1
10
-28.5
20
-16.8586398949851
30
0
41
1
10
-28.5
20
-16.8573438877362
30
0
41
1
10
-28.5
20
-16.8570614729283
30
0
0
SPLINE
5
185
100
AcDbEntity
8
SK1
62
256
6
ByLayer
370
18
48
1
60
0
100
AcDbSpline
70
4
71
3
72
106
73
102
40
0
40
0
40
0
40
0
40
0.0075864937856426
40
0.0161184315185891
40
0.0246503692515355
40
0.033182306984482
40
0.0417142447174285
40
0.0502461824503749
40
0.0587781201833214
40
0.0673100579162679
40
0.0758419956492143
40
0.0843739333821608
40
0.0929058711151073
40
0.101437808848054
40
0.109969746581
40
0.118501684313947
40
0.13556555977984
40
0.144097497512786
40
0.152629435245733
40
0.161161372978679
40
0.169693310711625
40
0.186757186177518
40
0.195289123910465
40
0.203821061643411
40
0.220884937109304
40
0.229416874842251
40
0.237948812575197
40
0.25501268804109
40
0.263544625774037
40
0.272076563506983
40
0.28060850123993
40
0.289140438972876
40
0.297672376705822
40
0.306204314438769
40
0.314736252171716
40
0.323268189904662
40
0.340332065370555
40
0.348864003103501
40
0.357395940836448
40
0.365927878569394
40
0.374459816302341
40
0.391523691768234
40
0.40005562950118
40
0.408587567234127
40
0.417119504967073
40
0.42565144270002
40
0.442715318165912
40
0.451247255898859
40
0.459779193631806
40
0.468311131364752
40
0.476843069097698
40
0.493906944563591
40
0.502438882296538
40
0.510970820029484
40
0.519502757762431
40
0.528034695495377
40
0.54509857096127
40
0.553630508694217
40
0.562162446427163
40
0.57069438416011
40
0.579226321893056
40
0.596290197358949
40
0.604822135091895
40
0.613354072824842
40
0.621886010557788
40
0.630417948290735
40
0.647481823756628
40
0.656013761489574
40
0.664545699222521
40
0.681609574688414
40
0.698673450154307
40
0.707205387887253
40
0.7157373256202
40
0.732801201086092
40
0.741333138819039
40
0.749865076551985
40
0.758397014284932
40
0.766928952017878
40
0.775460889750825
40
0.783992827483771
40
0.801056702949664
40
0.818120578415557
40
0.826652516148504
40
0.83518445388145
40
0.843716391614397
40
0.852248329347343
40
0.860780267080289
40
0.869312204813236
40
0.886376080279129
40
0.903439955745022
40
0.920503831210915
40
0.929035768943861
40
0.937567706676808
40
0.946099644409754
40
0.954631582142701
40
0.963163519875647
40
0.971695457608594
40
0.98022739534154
40
0.988759333074486
40
0.997291270807433
40
1
40
1
40
1
40
1
41
1
10
-0.394976888875277
20
17.3601838881443
30
0
41
1
10
-0.394976888875277
20
17.3617494126201
30
0
41
1
10
-0.394976888875306
20
17.3643151424041
30
0
41
1
10
-0.394976888875277
20
17.3658104187982
30
0
41
1
10
-0.394976888875277
20
17.364743357607
30
0
41
1
10
-0.394976888875277
20
17.3611046370287
30
0
41
1
10
-0.394976888875277
20
17.3549392673806
30
0
41
1
10
-0.394976888875277
20
17.3462909837355
30
0
41
1
10
-0.394976888875277
20
17.3352007293143
30
0
41
1
10
-0.394976888875277
20
17.3217086001335
30
0
41
1
10
-0.394976888875277
20
17.3058521283006
30
0
41
1
10
-0.394976888875277
20
17.2876678324761
30
0
41
1
10
-0.394976888875277
20
17.267190526317
30
0
41
1
10
-0.394976888875277
20
17.2444530966284
30
0
41
1
10
-0.394976888875277
20
17.2194882282903
30
0
41
1
10
-0.394976888875277
20
17.1832568130363
30
0
41
1
10
-0.394976888875277
20
17.1427382851614
30
0
41
1
10
-0.394976888875277
20
17.0979462613767
30
0
41
1
10
-0.394976888875277
20
17.0622798138473
30
0
41
1
10
-0.394976888875277
20
17.0245523789023
30
0
41
1
10
-0.394976888875277
20
16.9715145338597
30
0
41
1
10
-0.394976888875277
20
16.9145140859045
30
0
41
1
10
-0.394976888875277
20
16.8535135157982
30
0
41
1
10
-0.394976888875277
20
16.7899145739052
30
0
41
1
10
-0.394976888875277
20
16.7225357594453
30
0
41
1
10
-0.394976888875277
20
16.6513062647865
30
0
41
1
10
-0.394976888875277
20
16.577583428992
30
0
41
1
10
-0.394976888875277
20
16.5002370605308
30
0
41
1
10
-0.394976888875277
20
16.4191737242595
30
0
41
1
10
-0.394976888875277
20
16.3565947837564
30
0
41
1
10
-0.394976888875277
20
16.2922298184193
30
0
41
1
10
-0.394976888875277
20
16.2260943534788
30
0
41
1
10
-0.394976888875277
20
16.1582019227301
30
0
41
1
10
-0.394976888875277
20
16.0885677968918
30
0
41
1
10
-0.394976888875277
20
16.0172057910894
30
0
41
1
10
-0.394976888875277
20
15.9197362080175
30
0
41
1
10
-0.394976888875277
20
15.8189643575456
30
0
41
1
10
-0.394976888875277
20
15.7147364711228
30
0
41
1
10
-0.394976888875277
20
15.6349267495635
30
0
41
1
10
-0.394976888875277
20
15.553463729323
30
0
41
1
10
-0.394976888875277
20
15.4426195996911
30
0
41
1
10
-0.394976888875277
20
15.3286250260664
30
0
41
1
10
-0.394976888875277
20
15.2112966721243
30
0
41
1
10
-0.394976888875277
20
15.1217290697223
30
0
41
1
10
-0.394976888875277
20
15.0305709686995
30
0
41
1
10
-0.394976888875277
20
14.906878048735
30
0
41
1
10
-0.394976888875277
20
14.7801642402503
30
0
41
1
10
-0.394976888875277
20
14.6502180265082
30
0
41
1
10
-0.394976888875277
20
14.5512443698349
30
0
41
1
10
-0.394976888875277
20
14.4507333574048
30
0
41
1
10
-0.394976888875277
20
14.3146351144528
30
0
41
1
10
-0.394976888875277
20
14.1756274353422
30
0
41
1
10
-0.394976888875277
20
14.0334711437704
30
0
41
1
10
-0.394976888875277
20
13.9253889575191
30
0
41
1
10
-0.394976888875277
20
13.8158144643309
30
0
41
1
10
-0.394976888875277
20
13.6676860465324
30
0
41
1
10
-0.394976888875277
20
13.5167448397425
30
0
41
1
10
-0.394976888875277
20
13.3627236430939
30
0
41
1
10
-0.394976888875277
20
13.2457848907918
30
0
41
1
10
-0.394976888875277
20
13.127391952352
30
0
41
1
10
-0.394976888875277
20
12.9675509274721
30
0
41
1
10
-0.394976888875277
20
12.8049814419576
30
0
41
1
10
-0.394976888875277
20
12.6393872212047
30
0
41
1
10
-0.394976888875277
20
12.5138050377602
30
0
41
1
10
-0.394976888875277
20
12.3868007822861
30
0
41
1
10
-0.394976888875277
20
12.2155153079022
30
0
41
1
10
-0.394976888875277
20
12.0415756036957
30
0
41
1
10
-0.394976888875277
20
11.8646543426879
30
0
41
1
10
-0.394976888875277
20
11.6858676336886
30
0
41
1
10
-0.394976888875277
20
11.4590305058839
30
0
41
1
10
-0.394976888875277
20
11.2275701322441
30
0
41
1
10
-0.394976888875277
20
11.0395280715927
30
0
41
1
10
-0.394976888875277
20
10.8496518299165
30
0
41
1
10
-0.394976888875277
20
10.6572262982852
30
0
41
1
10
-0.394976888875277
20
10.4618684218406
30
0
41
1
10
-0.394976888875277
20
10.3140380853821
30
0
41
1
10
-0.394976888875277
20
10.1648479968029
30
0
41
1
10
-0.394976888875277
20
10.0143015620689
30
0
41
1
10
-0.394976888875277
20
9.86240079247779
30
0
41
1
10
-0.394976888875277
20
9.65799297250354
30
0
41
1
10
-0.394976888875277
20
9.3992804435735
30
0
41
1
10
-0.394976888875277
20
9.13609084815204
30
0
41
1
10
-0.394976888875277
20
8.92272120904667
30
0
41
1
10
-0.394976888875277
20
8.76141979935898
30
0
41
1
10
-0.394976888875277
20
8.59878513251641
30
0
41
1
10
-0.394976888875277
20
8.43482033812748
30
0
41
1
10
-0.394976888875277
20
8.26952734508268
30
0
41
1
10
-0.394976888875277
20
8.04728288893983
30
0
41
1
10
-0.394976888875277
20
7.76637137475095
30
0
41
1
10
-0.394976888875277
20
7.42389184310318
30
0
41
1
10
-0.394976888875277
20
7.13420904829047
30
0
41
1
10
-0.394976888875277
20
6.89966739484251
30
0
41
1
10
-0.394976888875277
20
6.7225342898117
30
0
41
1
10
-0.394976888875277
20
6.54409938064705
30
0
41
1
10
-0.394976888875277
20
6.36436626337326
30
0
41
1
10
-0.394976888875277
20
6.18333822517317
30
0
41
1
10
-0.394976888875277
20
6.0010194773844
30
0
41
1
10
-0.394976888875277
20
5.81741425905383
30
0
41
1
10
-0.394976888875277
20
5.63252720020009
30
0
41
1
10
-0.394976888875277
20
5.48871675629277
30
0
41
1
10
-0.394976888875277
20
5.40659331253005
30
0
41
1
10
-0.394976888875277
20
5.38678223324203
30
0
0
SPLINE
5
186
100
AcDbEntity
8
SK1
62
256
6
ByLayer
370
18
48
1
60
0
100
AcDbSpline
70
4
71
3
72
10
73
6
40
0
40
0
40
0
40
0
40
0.5
40
0.5
40
1
40
1
40
1
40
1
41
1
10
-1.30710678118655
20
3.91806548153784
30
0
41
1
10
-1.53227959010832
20
2.67440369212437
30
0
41
1
10
-1.71681589069689
20
1.34075776539186
30
0
41
1
10
-1.71598271729604
20
-1.35050010337164
30
0
41
1
10
-1.53230696904976
20
-2.67425240209695
30
0
41
1
10
-1.30710678118655
20
-3.91806548057698
30
0
0
SPLINE
5
187
100
AcDbEntity
8
SK1
62
256
6
ByLayer
370
18
48
1
60
0
100
AcDbSpline
70
4
71
3
72
22
73
18
40
0
40
0
40
0
40
0
40
0.0394331151890913
40
0.0394331151890913
40
0.0795339708694829
40
0.0795339708694829
40
0.109637917244288
40
0.109637917244288
40
0.13957706301322
40
0.13957706301322
40
0.189266399657458
40
0.189266399657458
40
0.289571152403382
40
0.289571152403382
40
0.658284396834382
40
0.658284396834382
40
1
40
1
40
1
40
1
41
1
10
-0.394976888875306
20
-5.38678189578292
30
0
41
1
10
-0.415237014773396
20
-5.40399317028476
30
0
41
1
10
-0.437419275645453
20
-5.41977813092004
30
0
41
1
10
-0.486103141154984
20
-5.44521655864725
30
0
41
1
10
-0.51341298093098
20
-5.45496005292577
30
0
41
1
10
-0.562874322366525
20
-5.46212264681108
30
0
41
1
10
-0.585106616517606
20
-5.46199323188387
30
0
41
1
10
-0.627692822126733
20
-5.45533455005088
30
0
41
1
10
-0.648523068172722
20
-5.44883772858989
30
0
41
1
10
-0.699826196362153
20
-5.42613682765011
30
0
41
1
10
-0.728695564403438
20
-5.40623396070797
30
0
41
1
10
-0.806075449923839
20
-5.34007786619352
30
0
41
1
10
-0.847522380016557
20
-5.28655870152033
30
0
41
1
10
-1.01570466784384
20
-5.03084699030373
30
0
41
1
10
-1.09210771407481
20
-4.80149729085085
30
0
41
1
10
-1.21929875138233
20
-4.35887826398974
30
0
41
1
10
-1.26692602208391
20
-4.13998960128646
30
0
41
1
10
-1.30710678118655
20
-3.91806548057696
30
0
0
SPLINE
5
188
100
AcDbEntity
8
SK1
62
256
6
ByLayer
370
18
48
1
60
0
100
AcDbSpline
70
4
71
3
72
284
73
280
40
0
40
0
40
0
40
0
40
0.0001430961152122
40
0.0037135036212183
40
0.0072839111272243
40
0.0108543186332304
40
0.0144247261392365
40
0.0179951336452425
40
0.0215655411512486
40
0.0251359486572547
40
0.0287063561632607
40
0.0322767636692668
40
0.0358471711752729
40
0.042987986187285
40
0.0465583936932911
40
0.0501288011992971
40
0.0536992087053032
40
0.0572696162113093
40
0.0644104312233214
40
0.0679808387293275
40
0.0715512462353335
40
0.0786920612473457
40
0.0822624687533517
40
0.0858328762593578
40
0.0929736912713699
40
0.096544098777376
40
0.100114506283382
40
0.103684913789388
40
0.107255321295394
40
0.1108257288014
40
0.114396136307406
40
0.117966543813412
40
0.121536951319418
40
0.128677766331431
40
0.132248173837437
40
0.135818581343443
40
0.139388988849449
40
0.142959396355455
40
0.150100211367467
40
0.153670618873473
40
0.157241026379479
40
0.160811433885485
40
0.164381841391491
40
0.171522656403503
40
0.175093063909509
40
0.178663471415516
40
0.182233878921522
40
0.185804286427528
40
0.19294510143954
40
0.196515508945546
40
0.200085916451552
40
0.203656323957558
40
0.207226731463564
40
0.214367546475576
40
0.217937953981582
40
0.221508361487588
40
0.225078768993594
40
0.228649176499601
40
0.235789991511613
40
0.239360399017619
40
0.242930806523625
40
0.246501214029631
40
0.250071621535637
40
0.257212436547649
40
0.260782844053655
40
0.264353251559661
40
0.271494066571673
40
0.278634881583685
40
0.282205289089691
40
0.285775696595698
40
0.29291651160771
40
0.296486919113716
40
0.300057326619722
40
0.303627734125728
40
0.307198141631734
40
0.31076854913774
40
0.314338956643746
40
0.321479771655758
40
0.32862058666777
40
0.332190994173776
40
0.335761401679783
40
0.339331809185789
40
0.342902216691795
40
0.346472624197801
40
0.350043031703807
40
0.357183846715819
40
0.364324661727831
40
0.371465476739843
40
0.375035884245849
40
0.378606291751855
40
0.382176699257861
40
0.385747106763867
40
0.389317514269873
40
0.39288792177588
40
0.396458329281886
40
0.400028736787892
40
0.403599144293898
40
0.407169551799904
40
0.41073995930591
40
0.414310366811916
40
0.417880774317922
40
0.421451181823928
40
0.425021589329934
40
0.42859199683594
40
0.432162404341946
40
0.433947608094949
40
0.435732811847952
40
0.437518015600955
40
0.439303219353958
40
0.442873626859965
40
0.446444034365971
40
0.448229238118974
40
0.450014441871977
40
0.45179964562498
40
0.453584849377983
40
0.455370053130986
40
0.457155256883989
40
0.460725664389995
40
0.462510868142998
40
0.464296071896001
40
0.466081275649004
40
0.467866479402007
40
0.46965168315501
40
0.471436886908013
40
0.473222090661016
40
0.475007294414019
40
0.476792498167022
40
0.478577701920025
40
0.480362905673028
40
0.482148109426031
40
0.483933313179034
40
0.485718516932037
40
0.48750372068504
40
0.489288924438043
40
0.491074128191047
40
0.49285933194405
40
0.494644535697052
40
0.496429739450055
40
0.498214943203058
40
0.500000146956062
40
0.501785350709065
40
0.503570554462068
40
0.505355758215071
40
0.507140961968074
40
0.508926165721077
40
0.51071136947408
40
0.512496573227083
40
0.514281776980086
40
0.516066980733089
40
0.517852184486092
40
0.519637388239095
40
0.521422591992098
40
0.523207795745101
40
0.524992999498104
40
0.526778203251107
40
0.52856340700411
40
0.530348610757113
40
0.532133814510116
40
0.533919018263119
40
0.535704222016122
40
0.537489425769125
40
0.539274629522128
40
0.541059833275131
40
0.542845037028134
40
0.544630240781137
40
0.54641544453414
40
0.549985852040146
40
0.55177105579315
40
0.553556259546153
40
0.557126667052159
40
0.560697074558165
40
0.562482278311168
40
0.564267482064171
40
0.566052685817174
40
0.567837889570177
40
0.571408297076183
40
0.574978704582189
40
0.578549112088195
40
0.582119519594201
40
0.585689927100207
40
0.589260334606213
40
0.592830742112219
40
0.596401149618225
40
0.599971557124231
40
0.603541964630237
40
0.607112372136244
40
0.61068277964225
40
0.614253187148256
40
0.617823594654262
40
0.621394002160268
40
0.624964409666274
40
0.62853481717228
40
0.635675632184292
40
0.642816447196304
40
0.649957262208316
40
0.653527669714322
40
0.657098077220329
40
0.660668484726335
40
0.664238892232341
40
0.667809299738347
40
0.671379707244353
40
0.678520522256365
40
0.685661337268377
40
0.689231744774383
40
0.692802152280389
40
0.696372559786395
40
0.699942967292401
40
0.703513374798407
40
0.707083782304413
40
0.714224597316426
40
0.717795004822432
40
0.721365412328438
40
0.72850622734045
40
0.735647042352462
40
0.739217449858468
40
0.742787857364474
40
0.749928672376486
40
0.753499079882492
40
0.757069487388498
40
0.760639894894504
40
0.76421030240051
40
0.771351117412523
40
0.774921524918529
40
0.778491932424535
40
0.782062339930541
40
0.785632747436547
40
0.792773562448559
40
0.796343969954565
40
0.799914377460571
40
0.803484784966577
40
0.807055192472583
40
0.814196007484595
40
0.817766414990602
40
0.821336822496608
40
0.824907230002614
40
0.82847763750862
40
0.835618452520632
40
0.839188860026638
40
0.842759267532644
40
0.844544471285647
40
0.84632967503865
40
0.849900082544656
40
0.857040897556668
40
0.860611305062674
40
0.86418171256868
40
0.867752120074686
40
0.871322527580693
40
0.878463342592705
40
0.882033750098711
40
0.885604157604717
40
0.889174565110723
40
0.892744972616729
40
0.896315380122735
40
0.899885787628741
40
0.903456195134747
40
0.907026602640753
40
0.914167417652765
40
0.917737825158771
40
0.921308232664777
40
0.92844904767679
40
0.932019455182796
40
0.935589862688802
40
0.942730677700814
40
0.94630108520682
40
0.949871492712826
40
0.953441900218832
40
0.957012307724838
40
0.96415312273685
40
0.967723530242856
40
0.971293937748862
40
0.974864345254868
40
0.978434752760875
40
0.982005160266881
40
0.985575567772887
40
0.989145975278893
40
0.992716382784899
40
0.996286790290905
40
0.999857197796911
40
1
40
1
40
1
40
1
41
1
10
-1.99503997793928
20
17.3206892113023
30
0
41
1
10
-1.99503997793928
20
17.3206252191122
30
0
41
1
10
-1.99503997793928
20
17.3189470221883
30
0
41
1
10
-1.99503997793928
20
17.3147637003649
30
0
41
1
10
-1.99503997793928
20
17.3061342577567
30
0
41
1
10
-1.99503997793928
20
17.295067771448
30
0
41
1
10
-1.99503997793928
20
17.2816041041457
30
0
41
1
10
-1.99503997793928
20
17.2657805776118
30
0
41
1
10
-1.99503997793928
20
17.2476335117891
30
0
41
1
10
-1.99503997793928
20
17.2271975457697
30
0
41
1
10
-1.99503997793928
20
17.2045053960087
30
0
41
1
10
-1.99503997793928
20
17.1795895960111
30
0
41
1
10
-1.99503997793928
20
17.143423992764
30
0
41
1
10
-1.99503997793928
20
17.1029924242496
30
0
41
1
10
-1.99503997793928
20
17.0582791326422
30
0
41
1
10
-1.99503997793928
20
17.0226787925821
30
0
41
1
10
-1.99503997793928
20
16.9850205529168
30
0
41
1
10
-1.99503997793928
20
16.9320728615657
30
0
41
1
10
-1.99503997793928
20
16.8751872660894
30
0
41
1
10
-1.99503997793928
20
16.8142877036056
30
0
41
1
10
-1.99503997793928
20
16.7507929832779
30
0
41
1
10
-1.99503997793928
20
16.6835453056651
30
0
41
1
10
-1.99503997793928
20
16.6124299551482
30
0
41
1
10
-1.99503997793928
20
16.5388242186582
30
0
41
1
10
-1.99503997793928
20
16.4616240004255
30
0
41
1
10
-1.99503997793928
20
16.3806869939664
30
0
41
1
10
-1.99503997793928
20
16.3182114219941
30
0
41
1
10
-1.99503997793928
20
16.2539521138773
30
0
41
1
10
-1.99503997793928
20
16.1879246249361
30
0
41
1
10
-1.99503997793928
20
16.1201424382026
30
0
41
1
10
-1.99503997793928
20
16.0506207732709
30
0
41
1
10
-1.99503997793928
20
15.979373490825
30
0
41
1
10
-1.99503997793928
20
15.8820499794418
30
0
41
1
10
-1.99503997793928
20
15.7814584486047
30
0
41
1
10
-1.99503997793928
20
15.677384958149
30
0
41
1
10
-1.99503997793928
20
15.5977008436634
30
0
41
1
10
-1.99503997793928
20
15.5163656256123
30
0
41
1
10
-1.99503997793928
20
15.4056838451686
30
0
41
1
10
-1.99503997793928
20
15.2918890118945
30
0
41
1
10
-1.99503997793928
20
15.1747311694574
30
0
41
1
10
-1.99503997793928
20
15.0853020659337
30
0
41
1
10
-1.99503997793928
20
14.9942846604514
30
0
41
1
10
-1.99503997793928
20
14.8707702235387
30
0
41
1
10
-1.99503997793928
20
14.7442755428493
30
0
41
1
10
-1.99503997793928
20
14.6145160455858
30
0
41
1
10
-1.99503997793928
20
14.5156939096276
30
0
41
1
10
-1.99503997793928
20
14.4153366771621
30
0
41
1
10
-1.99503997793928
20
14.2794333721973
30
0
41
1
10
-1.99503997793928
20
14.1406647198644
30
0
41
1
10
-1.99503997793928
20
13.9987118830366
30
0
41
1
10
-1.99503997793928
20
13.8907947247769
30
0
41
1
10
-1.99503997793928
20
13.7813876415877
30
0
41
1
10
-1.99503997793928
20
13.6334713769854
30
0
41
1
10
-1.99503997793928
20
13.482790135872
30
0
41
1
10
-1.99503997793928
20
13.328990109671
30
0
41
1
10
-1.99503997793928
20
13.2122307400427
30
0
41
1
10
-1.99503997793928
20
13.09401974916
30
0
41
1
10
-1.99503997793928
20
12.9344093145834
30
0
41
1
10
-1.99503997793928
20
12.7721223429484
30
0
41
1
10
-1.99503997793928
20
12.606768466692
30
0
41
1
10
-1.99503997793928
20
12.4813812679684
30
0
41
1
10
-1.99503997793928
20
12.3545748152048
30
0
41
1
10
-1.99503997793928
20
12.1835401119863
30
0
41
1
10
-1.99503997793928
20
12.0099077332894
30
0
41
1
10
-1.99503997793928
20
11.8332480165124
30
0
41
1
10
-1.99503997793928
20
11.6547268261542
30
0
41
1
10
-1.99503997793928
20
11.4282697000141
30
0
41
1
10
-1.99503997793928
20
11.1972001365959
30
0
41
1
10
-1.99503997793928
20
11.00944356136
30
0
41
1
10
-1.99503997793928
20
10.8198574498995
30
0
41
1
10
-1.99503997793928
20
10.627787937013
30
0
41
1
10
-1.99503997793928
20
10.4327334855784
30
0
41
1
10
-1.99503997793928
20
10.2851499168301
30
0
41
1
10
-1.99503997793928
20
10.13621047024
30
0
41
1
10
-1.99503997793928
20
9.98591879047714
30
0
41
1
10
-1.99503997793928
20
9.83427692622885
30
0
41
1
10
-1.99503997793928
20
9.63019833168175
30
0
41
1
10
-1.99503997793928
20
9.37195865327328
30
0
41
1
10
-1.99503997793928
20
9.1092571782612
30
0
41
1
10
-1.99503997793928
20
8.89624559944801
30
0
41
1
10
-1.99503997793928
20
8.73523611643316
30
0
41
1
10
-1.99503997793928
20
8.57289871794615
30
0
41
1
10
-1.99503997793928
20
8.40923673354897
30
0
41
1
10
-1.99503997793928
20
8.24425232954013
30
0
41
1
10
-1.99503997793928
20
8.0224014648056
30
0
41
1
10
-1.99503997793928
20
7.7420578132905
30
0
41
1
10
-1.99503997793928
20
7.40025290593451
30
0
41
1
10
-1.99503997793928
20
7.11118461088941
30
0
41
1
10
-1.99503997793928
20
6.87709665618266
30
0
41
1
10
-1.99503997793928
20
6.70033531356589
30
0
41
1
10
-1.99503997793928
20
6.52228078287743
30
0
41
1
10
-1.99503997793928
20
6.3429370741791
30
0
41
1
10
-1.99503997793928
20
6.16230788845579
30
0
41
1
10
-1.99503997793928
20
5.98039789106801
30
0
41
1
10
-1.99503997793928
20
5.79721186805691
30
0
41
1
10
-1.99503997793928
20
5.61275496243289
30
0
41
1
10
-1.99503997793928
20
5.42703270327695
30
0
41
1
10
-1.99503997793928
20
5.24005175731475
30
0
41
1
10
-1.99503997793928
20
5.05181945337139
30
0
41
1
10
-1.99503997793928
20
4.86234332329403
30
0
41
1
10
-1.99503997793928
20
4.67163207713236
30
0
41
1
10
-1.99503997793928
20
4.47969614999016
30
0
41
1
10
-1.99503997793928
20
4.28654656517494
30
0
41
1
10
-1.99503997793928
20
4.09219634432211
30
0
41
1
10
-1.99503997793928
20
3.92934661081907
30
0
41
1
10
-1.99503997793928
20
3.7982972967292
30
0
41
1
10
-1.99503997793928
20
3.69979994526253
30
0
41
1
10
-1.99503997793928
20
3.6010147061962
30
0
41
1
10
-1.99503997793928
20
3.46881385164499
30
0
41
1
10
-1.99503997793928
20
3.30310841087518
30
0
41
1
10
-1.99503997793928
20
3.13647579824178
30
0
41
1
10
-1.99503997793928
20
3.00241852965871
30
0
41
1
10
-1.99503997793928
20
2.90170218623106
30
0
41
1
10
-1.99503997793928
20
2.80072442890969
30
0
41
1
10
-1.99503997793928
20
2.69948931487846
30
0
41
1
10
-1.99503997793928
20
2.5980019734576
30
0
41
1
10
-1.99503997793928
20
2.46222694501739
30
0
41
1
10
-1.99503997793928
20
2.3263670801044
30
0
41
1
10
-1.99503997793928
20
2.18963187963746
30
0
41
1
10
-1.99503997793928
20
2.08696367451518
30
0
41
1
10
-1.99503997793928
20
1.98407765086858
30
0
41
1
10
-1.99503997793928
20
1.88098143773604
30
0
41
1
10
-1.99503997793928
20
1.77768276547397
30
0
41
1
10
-1.99503997793928
20
1.67418894734925
30
0
41
1
10
-1.99503997793928
20
1.57050946303122
30
0
41
1
10
-1.99503997793928
20
1.46665209995737
30
0
41
1
10
-1.99503997793928
20
1.36262724011792
30
0
41
1
10
-1.99503997793928
20
1.25844372920938
30
0
41
1
10
-1.99503997793928
20
1.15411255471386
30
0
41
1
10
-1.99503997793928
20
1.04964378000579
30
0
41
1
10
-1.99503997793928
20
0.945048899580655
30
0
41
1
10
-1.99503997793928
20
0.840338961204225
30
0
41
1
10
-1.99503997793928
20
0.735526073032332
30
0
41
1
10
-1.99503997793928
20
0.630622105582688
30
0
41
1
10
-1.99503997793928
20
0.525639721157262
30
0
41
1
10
-1.99503997793928
20
0.420591350928703
30
0
41
1
10
-1.99503997793928
20
0.315490126623814
30
0
41
1
10
-1.99503997793928
20
0.210348939519435
30
0
41
1
10
-1.99503997793928
20
0.105181165306249
30
0
41
1
10
-1.99503997793928
20
-2.6093687E-09
30
0
41
1
10
-1.99503997793928
20
-0.10518117389941
30
0
41
1
10
-1.99503997793928
20
-0.21034895445402
30
0
41
1
10
-1.99503997793928
20
-0.315490140896543
30
0
41
1
10
-1.99503997793928
20
-0.420591355720489
30
0
41
1
10
-1.99503997793928
20
-0.525639723935797
30
0
41
1
10
-1.99503997793928
20
-0.630622120770227
30
0
41
1
10
-1.99503997793928
20
-0.735526093018507
30
0
41
1
10
-1.99503997793928
20
-0.840338966235578
30
0
41
1
10
-1.99503997793928
20
-0.945048896197648
30
0
41
1
10
-1.99503997793928
20
-1.04964379294299
30
0
41
1
10
-1.99503997793928
20
-1.15411258033262
30
0
41
1
10
-1.99503997793928
20
-1.25844373877697
30
0
41
1
10
-1.99503997793928
20
-1.36262723194542
30
0
41
1
10
-1.99503997793928
20
-1.46665210416356
30
0
41
1
10
-1.99503997793928
20
-1.57050948928742
30
0
41
1
10
-1.99503997793928
20
-1.67418896894682
30
0
41
1
10
-1.99503997793928
20
-1.77768276258209
30
0
41
1
10
-1.99503997793928
20
-1.88098142742643
30
0
41
1
10
-1.99503997793928
20
-1.98407766278629
30
0
41
1
10
-1.99503997793928
20
-2.08696370566375
30
0
41
1
10
-1.99503997793928
20
-2.18963189754737
30
0
41
1
10
-1.99503997793928
20
-2.29207637206397
30
0
41
1
10
-1.99503997793928
20
-2.39428973936722
30
0
41
1
10
-1.99503997793928
20
-2.49626703199883
30
0
41
1
10
-1.99503997793928
20
-2.59800197223717
30
0
41
1
10
-1.99503997793928
20
-2.73345090264118
30
0
41
1
10
-1.99503997793928
20
-2.86801083241156
30
0
41
1
10
-1.99503997793928
20
-3.00241855173454
30
0
41
1
10
-1.99503997793928
20
-3.13647582573117
30
0
41
1
10
-1.99503997793928
20
-3.30310842941955
30
0
41
1
10
-1.99503997793928
20
-3.46881383607317
30
0
41
1
10
-1.99503997793928
20
-3.60101470543907
30
0
41
1
10
-1.99503997793928
20
-3.69979996514493
30
0
41
1
10
-1.99503997793928
20
-3.79829732832764
30
0
41
1
10
-1.99503997793928
20
-3.92934662557204
30
0
41
1
10
-1.99503997793928
20
-4.09219631216948
30
0
41
1
10
-1.99503997793928
20
-4.28654650347451
30
0
41
1
10
-1.99503997793928
20
-4.47969611179559
30
0
41
1
10
-1.99503997793928
20
-4.67163198724225
30
0
41
1
10
-1.99503997793928
20
-4.86234315765492
30
0
41
1
10
-1.99503997793928
20
-5.05181944357969
30
0
41
1
10
-1.99503997793928
20
-5.24005183821342
30
0
41
1
10
-1.99503997793928
20
-5.42703263168386
30
0
41
1
10
-1.99503997793928
20
-5.61275497462711
30
0
41
1
10
-1.99503997793928
20
-5.79721217482029
30
0
41
1
10
-1.99503997793928
20
-5.98039819956611
30
0
41
1
10
-1.99503997793928
20
-6.16230794338162
30
0
41
1
10
-1.99503997793928
20
-6.34293700639154
30
0
41
1
10
-1.99503997793928
20
-6.52228076981257
30
0
41
1
10
-1.99503997793928
20
-6.70033533418757
30
0
41
1
10
-1.99503997793928
20
-6.87709665926303
30
0
41
1
10
-1.99503997793928
20
-7.11118459991687
30
0
41
1
10
-1.99503997793928
20
-7.40025292645402
30
0
41
1
10
-1.99503997793928
20
-7.74205781809903
30
0
41
1
10
-1.99503997793928
20
-8.02240145976876
30
0
41
1
10
-1.99503997793928
20
-8.24425235284596
30
0
41
1
10
-1.99503997793928
20
-8.40923674956807
30
0
41
1
10
-1.99503997793928
20
-8.57289871422529
30
0
41
1
10
-1.99503997793928
20
-8.73523610803539
30
0
41
1
10
-1.99503997793928
20
-8.89624560664996
30
0
41
1
10
-1.99503997793928
20
-9.10925720032841
30
0
41
1
10
-1.99503997793928
20
-9.37195865915049
30
0
41
1
10
-1.99503997793928
20
-9.6301983246166
30
0
41
1
10
-1.99503997793928
20
-9.83427694277646
30
0
41
1
10
-1.99503997793928
20
-9.98591881051331
30
0
41
1
10
-1.99503997793928
20
-10.1362104789651
30
0
41
1
10
-1.99503997793928
20
-10.2851499142426
30
0
41
1
10
-1.99503997793928
20
-10.432733482583
30
0
41
1
10
-1.99503997793928
20
-10.6277879483349
30
0
41
1
10
-1.99503997793928
20
-10.8198574709635
30
0
41
1
10
-1.99503997793928
20
-11.0094435667743
30
0
41
1
10
-1.99503997793928
20
-11.1972001338813
30
0
41
1
10
-1.99503997793928
20
-11.4282697094187
30
0
41
1
10
-1.99503997793928
20
-11.6547268446385
30
0
41
1
10
-1.99503997793928
20
-11.8332480225582
30
0
41
1
10
-1.99503997793928
20
-12.0099077334538
30
0
41
1
10
-1.99503997793928
20
-12.1835401209566
30
0
41
1
10
-1.99503997793928
20
-12.3545748313203
30
0
41
1
10
-1.99503997793928
20
-12.4813812819682
30
0
41
1
10
-1.99503997793928
20
-12.6067684751262
30
0
41
1
10
-1.99503997793928
20
-12.7721223466594
30
0
41
1
10
-1.99503997793928
20
-12.9344093235711
30
0
41
1
10
-1.99503997793928
20
-13.0940197637218
30
0
41
1
10
-1.99503997793928
20
-13.2122307543484
30
0
41
1
10
-1.99503997793928
20
-13.3289901210133
30
0
41
1
10
-1.99503997793928
20
-13.4827901435456
30
0
41
1
10
-1.99503997793928
20
-13.6334713858817
30
0
41
1
10
-1.99503997793928
20
-13.7813876543746
30
0
41
1
10
-1.99503997793928
20
-13.8907947392413
30
0
41
1
10
-1.99503997793928
20
-13.99871189727
30
0
41
1
10
-1.99503997793928
20
-14.1406647319193
30
0
41
1
10
-1.99503997793928
20
-14.2794333813788
30
0
41
1
10
-1.99503997793928
20
-14.4153366880849
30
0
41
1
10
-1.99503997793928
20
-14.5156939237825
30
0
41
1
10
-1.99503997793928
20
-14.614516060936
30
0
41
1
10
-1.99503997793928
20
-14.7442755571137
30
0
41
1
10
-1.99503997793928
20
-14.8707702595594
30
0
41
1
10
-1.99503997793928
20
-14.9942845913974
30
0
41
1
10
-1.99503997793928
20
-15.070107125687
30
0
41
1
10
-1.99503997793928
20
-15.130016414734
30
0
41
1
10
-1.99503997793928
20
-15.1893946011099
30
0
41
1
10
-1.99503997793928
20
-15.2918890331241
30
0
41
1
10
-1.99503997793928
20
-15.4056838559475
30
0
41
1
10
-1.99503997793928
20
-15.5163656330196
30
0
41
1
10
-1.99503997793928
20
-15.5977008570348
30
0
41
1
10
-1.99503997793928
20
-15.677384979663
30
0
41
1
10
-1.99503997793928
20
-15.781458474053
30
0
41
1
10
-1.99503997793928
20
-15.8820499896637
30
0
41
1
10
-1.99503997793928
20
-15.9793734967038
30
0
41
1
10
-1.99503997793928
20
-16.0506207879892
30
0
41
1
10
-1.99503997793928
20
-16.1201424632647
30
0
41
1
10
-1.99503997793928
20
-16.1879246525291
30
0
41
1
10
-1.99503997793928
20
-16.2539521307207
30
0
41
1
10
-1.99503997793928
20
-16.3182114280861
30
0
41
1
10
-1.99503997793928
20
-16.3806869997558
30
0
41
1
10
-1.99503997793928
20
-16.4616240235723
30
0
41
1
10
-1.99503997793928
20
-16.538824252381
30
0
41
1
10
-1.99503997793928
20
-16.6124299668847
30
0
41
1
10
-1.99503997793928
20
-16.6835453043615
30
0
41
1
10
-1.99503997793928
20
-16.7507930080793
30
0
41
1
10
-1.99503997793928
20
-16.8142877377232
30
0
41
1
10
-1.99503997793928
20
-16.8751872797734
30
0
41
1
10
-1.99503997793928
20
-16.9320728583858
30
0
41
1
10
-1.99503997793928
20
-16.9850205784631
30
0
41
1
10
-1.99503997793928
20
-17.0226788299273
30
0
41
1
10
-1.99503997793928
20
-17.0582791544304
30
0
41
1
10
-1.99503997793928
20
-17.1029924178939
30
0
41
1
10
-1.99503997793928
20
-17.1434240170936
30
0
41
1
10
-1.99503997793928
20
-17.1795896288677
30
0
41
1
10
-1.99503997793928
20
-17.204505416066
30
0
41
1
10
-1.99503997793928
20
-17.2271975480507
30
0
41
1
10
-1.99503997793928
20
-17.2476335178127
30
0
41
1
10
-1.99503997793928
20
-17.2657806121613
30
0
41
1
10
-1.99503997793928
20
-17.2816041393821
30
0
41
1
10
-1.99503997793928
20
-17.2950677779805
30
0
41
1
10
-1.99503997793928
20
-17.3061342543252
30
0
41
1
10
-1.99503997793928
20
-17.3147637210185
30
0
41
1
10
-1.99503997793928
20
-17.3189468552863
30
0
41
1
10
-1.99503997793928
20
-17.3206249262185
30
0
41
1
10
-1.99503997793928
20
-17.3206887885929
30
0
0
SPLINE
5
189
100
AcDbEntity
8
SK1
62
256
6
ByLayer
370
18
48
1
60
0
100
AcDbSpline
70
4
71
3
72
282
73
278
40
0
40
0
40
0
40
0
40
0.0031455746014339
40
0.0067200662632684
40
0.0102945579251028
40
0.0138690495869372
40
0.0174435412487717
40
0.0210180329106061
40
0.0245925245724405
40
0.028167016234275
40
0.0317415078961094
40
0.0353159995579438
40
0.0424649828816127
40
0.0460394745434471
40
0.0496139662052816
40
0.053188457867116
40
0.0567629495289504
40
0.0639119328526193
40
0.0674864245144537
40
0.0710609161762882
40
0.078209899499957
40
0.0817843911617915
40
0.0853588828236259
40
0.0925078661472948
40
0.0960823578091292
40
0.0996568494709636
40
0.103231341132798
40
0.106805832794633
40
0.110380324456467
40
0.113954816118301
40
0.117529307780136
40
0.12110379944197
40
0.128252782765639
40
0.131827274427473
40
0.135401766089308
40
0.138976257751142
40
0.142550749412977
40
0.149699732736646
40
0.15327422439848
40
0.156848716060315
40
0.160423207722149
40
0.163997699383983
40
0.171146682707652
40
0.174721174369487
40
0.178295666031321
40
0.181870157693156
40
0.18544464935499
40
0.192593632678659
40
0.196168124340493
40
0.199742616002328
40
0.203317107664162
40
0.206891599325997
40
0.214040582649665
40
0.2176150743115
40
0.221189565973334
40
0.224764057635169
40
0.228338549297003
40
0.235487532620672
40
0.239062024282507
40
0.242636515944341
40
0.246211007606175
40
0.24978549926801
40
0.256934482591679
40
0.260508974253513
40
0.264083465915347
40
0.271232449239016
40
0.278381432562685
40
0.28195592422452
40
0.285530415886354
40
0.292679399210023
40
0.296253890871857
40
0.299828382533692
40
0.303402874195526
40
0.306977365857361
40
0.310551857519195
40
0.31412634918103
40
0.321275332504698
40
0.328424315828367
40
0.331998807490202
40
0.335573299152036
40
0.339147790813871
40
0.342722282475705
40
0.34629677413754
40
0.349871265799374
40
0.357020249123043
40
0.364169232446712
40
0.37131821577038
40
0.374892707432215
40
0.378467199094049
40
0.382041690755884
40
0.385616182417718
40
0.389190674079553
40
0.392765165741387
40
0.396339657403222
40
0.399914149065056
40
0.40348864072689
40
0.407063132388725
40
0.410637624050559
40
0.414212115712394
40
0.417786607374228
40
0.421361099036063
40
0.424935590697897
40
0.428510082359731
40
0.432084574021566
40
0.433871819852483
40
0.4356590656834
40
0.437446311514318
40
0.439233557345235
40
0.442808049007069
40
0.446382540668903
40
0.448169786499821
40
0.449957032330738
40
0.451744278161655
40
0.453531523992572
40
0.45531876982349
40
0.457106015654407
40
0.460680507316241
40
0.462467753147158
40
0.464254998978076
40
0.466042244808993
40
0.46782949063991
40
0.469616736470827
40
0.471403982301745
40
0.473191228132662
40
0.474978473963579
40
0.476765719794496
40
0.478552965625413
40
0.480340211456331
40
0.482127457287248
40
0.483914703118165
40
0.485701948949082
40
0.48748919478
40
0.489276440610917
40
0.491063686441834
40
0.492850932272751
40
0.494638178103668
40
0.496425423934586
40
0.498212669765503
40
0.49999991559642
40
0.501787161427337
40
0.503574407258255
40
0.505361653089172
40
0.507148898920089
40
0.508936144751006
40
0.510723390581923
40
0.512510636412841
40
0.514297882243758
40
0.516085128074675
40
0.517872373905592
40
0.519659619736509
40
0.521446865567427
40
0.523234111398344
40
0.525021357229261
40
0.526808603060178
40
0.528595848891095
40
0.530383094722013
40
0.53217034055293
40
0.533957586383847
40
0.535744832214764
40
0.537532078045682
40
0.539319323876599
40
0.541106569707516
40
0.542893815538433
40
0.54468106136935
40
0.546468307200268
40
0.550042798862102
40
0.551830044693019
40
0.553617290523936
40
0.557191782185771
40
0.560766273847605
40
0.562553519678523
40
0.56434076550944
40
0.566128011340357
40
0.567915257171274
40
0.571489748833109
40
0.575064240494943
40
0.578638732156778
40
0.582213223818612
40
0.585787715480446
40
0.589362207142281
40
0.592936698804115
40
0.59651119046595
40
0.600085682127784
40
0.603660173789619
40
0.607234665451453
40
0.610809157113287
40
0.614383648775122
40
0.617958140436956
40
0.621532632098791
40
0.625107123760625
40
0.62868161542246
40
0.635830598746128
40
0.642979582069797
40
0.650128565393466
40
0.653703057055301
40
0.657277548717135
40
0.66085204037897
40
0.664426532040804
40
0.668001023702638
40
0.671575515364473
40
0.678724498688142
40
0.685873482011811
40
0.689447973673645
40
0.693022465335479
40
0.696596956997314
40
0.700171448659148
40
0.703745940320983
40
0.707320431982817
40
0.714469415306486
40
0.71804390696832
40
0.721618398630155
40
0.728767381953824
40
0.735916365277493
40
0.739490856939327
40
0.743065348601161
40
0.75021433192483
40
0.753788823586665
40
0.757363315248499
40
0.760937806910334
40
0.764512298572168
40
0.771661281895837
40
0.775235773557671
40
0.778810265219506
40
0.78238475688134
40
0.785959248543175
40
0.793108231866843
40
0.796682723528678
40
0.800257215190512
40
0.803831706852347
40
0.807406198514181
40
0.81455518183785
40
0.818129673499684
40
0.821704165161519
40
0.825278656823353
40
0.828853148485188
40
0.836002131808857
40
0.839576623470691
40
0.843151115132526
40
0.844938360963443
40
0.84672560679436
40
0.850300098456194
40
0.857449081779863
40
0.861023573441698
40
0.864598065103532
40
0.868172556765367
40
0.871747048427201
40
0.87889603175087
40
0.882470523412704
40
0.886045015074539
40
0.889619506736373
40
0.893193998398208
40
0.896768490060042
40
0.900342981721877
40
0.903917473383711
40
0.907491965045545
40
0.914640948369214
40
0.918215440031049
40
0.921789931692883
40
0.928938915016552
40
0.932513406678386
40
0.936087898340221
40
0.94323688166389
40
0.946811373325724
40
0.950385864987559
40
0.953960356649393
40
0.957534848311227
40
0.964683831634896
40
0.968258323296731
40
0.971832814958565
40
0.9754073066204
40
0.978981798282234
40
0.982556289944068
40
0.986130781605903
40
0.989705273267737
40
0.993279764929572
40
0.996854256591406
40
1
40
1
40
1
40
1
41
1
10
-2.19999999999999
20
17.5147448834715
30
0
41
1
10
-2.19999999999996
20
17.5132050170197
30
0
41
1
10
-2.20000000000002
20
17.509214319098
30
0
41
1
10
-2.19999999999999
20
17.5008423359265
30
0
41
1
10
-2.19999999999999
20
17.4896606050755
30
0
41
1
10
-2.19999999999999
20
17.4760589345483
30
0
41
1
10
-2.19999999999999
20
17.4600756660116
30
0
41
1
10
-2.19999999999999
20
17.4417480829298
30
0
41
1
10
-2.19999999999999
20
17.4211116708093
30
0
41
1
10
-2.19999999999999
20
17.3981999720817
30
0
41
1
10
-2.19999999999999
20
17.373046254225
30
0
41
1
10
-2.19999999999999
20
17.3365615480365
30
0
41
1
10
-2.19999999999999
20
17.2957083393221
30
0
41
1
10
-2.19999999999999
20
17.2506132986913
30
0
41
1
10
-2.19999999999999
20
17.2146924230801
30
0
41
1
10
-2.19999999999999
20
17.1766986759847
30
0
41
1
10
-2.19999999999999
20
17.1233138560685
30
0
41
1
10
-2.19999999999999
20
17.0658713749173
30
0
41
1
10
-2.19999999999999
20
17.0044820563696
30
0
41
1
10
-2.19999999999999
20
16.9404819965209
30
0
41
1
10
-2.19999999999999
20
16.8725984751516
30
0
41
1
10
-2.19999999999999
20
16.8009296734765
30
0
41
1
10
-2.19999999999999
20
16.72675615712
30
0
41
1
10
-2.19999999999999
20
16.6488472996884
30
0
41
1
10
-2.19999999999999
20
16.5672977573629
30
0
41
1
10
-2.19999999999999
20
16.5043209819811
30
0
41
1
10
-2.19999999999999
20
16.4395493732765
30
0
41
1
10
-2.19999999999999
20
16.3729983406747
30
0
41
1
10
-2.19999999999999
20
16.3046816133433
30
0
41
1
10
-2.19999999999999
20
16.2346146587631
30
0
41
1
10
-2.19999999999999
20
16.1628111167189
30
0
41
1
10
-2.19999999999999
20
16.0647793469533
30
0
41
1
10
-2.19999999999999
20
15.9633134995801
30
0
41
1
10
-2.19999999999999
20
15.8584913887799
30
0
41
1
10
-2.19999999999999
20
15.7781982427732
30
0
41
1
10
-2.19999999999999
20
15.6962433497342
30
0
41
1
10
-2.19999999999999
20
15.5847743861311
30
0
41
1
10
-2.19999999999999
20
15.4700110710185
30
0
41
1
10
-2.19999999999999
20
15.3520264687641
30
0
41
1
10
-2.19999999999999
20
15.2619258251736
30
0
41
1
10
-2.19999999999999
20
15.1702262286607
30
0
41
1
10
-2.19999999999999
20
15.0458463802595
30
0
41
1
10
-2.19999999999999
20
14.9182892137509
30
0
41
1
10
-2.19999999999999
20
14.7876243835494
30
0
41
1
10
-2.19999999999999
20
14.6880675684927
30
0
41
1
10
-2.19999999999999
20
14.5869647024964
30
0
41
1
10
-2.19999999999999
20
14.4501162009323
30
0
41
1
10
-2.19999999999999
20
14.310188578504
30
0
41
1
10
-2.19999999999999
20
14.1672492498436
30
0
41
1
10
-2.19999999999999
20
14.0585319196999
30
0
41
1
10
-2.19999999999999
20
13.9483131149779
30
0
41
1
10
-2.19999999999999
20
13.7993681823229
30
0
41
1
10
-2.19999999999999
20
13.6474264445925
30
0
41
1
10
-2.19999999999999
20
13.4925540283558
30
0
41
1
10
-2.19999999999999
20
13.3749248852381
30
0
41
1
10
-2.19999999999999
20
13.2558316845062
30
0
41
1
10
-2.19999999999999
20
13.0951031858018
30
0
41
1
10
-2.19999999999999
20
12.9314463879873
30
0
41
1
10
-2.19999999999999
20
12.7649271524075
30
0
41
1
10
-2.19999999999999
20
12.6385945304865
30
0
41
1
10
-2.19999999999999
20
12.510828990928
30
0
41
1
10
-2.19999999999999
20
12.3385783725546
30
0
41
1
10
-2.19999999999999
20
12.1634558634281
30
0
41
1
10
-2.19999999999999
20
11.9855279960913
30
0
41
1
10
-2.19999999999999
20
11.8057193844339
30
0
41
1
10
-2.19999999999999
20
11.5774197426994
30
0
41
1
10
-2.19999999999999
20
11.3444552561941
30
0
41
1
10
-2.19999999999999
20
11.1553144466797
30
0
41
1
10
-2.19999999999999
20
10.96432157968
30
0
41
1
10
-2.19999999999999
20
10.7705258372791
30
0
41
1
10
-2.19999999999999
20
10.5740001677826
30
0
41
1
10
-2.19999999999999
20
10.4252200954492
30
0
41
1
10
-2.19999999999999
20
10.2750653600417
30
0
41
1
10
-2.19999999999999
20
10.1235384488298
30
0
41
1
10
-2.19999999999999
20
9.97064122920807
30
0
41
1
10
-2.19999999999999
20
9.76496631801302
30
0
41
1
10
-2.19999999999999
20
9.50443392738597
30
0
41
1
10
-2.19999999999999
20
9.23936570098886
30
0
41
1
10
-2.19999999999999
20
9.02461799380217
30
0
41
1
10
-2.19999999999999
20
8.86219304475887
30
0
41
1
10
-2.19999999999999
20
8.69841428000512
30
0
41
1
10
-2.19999999999999
20
8.53328405958746
30
0
41
1
10
-2.19999999999999
20
8.36680339868337
30
0
41
1
10
-2.19999999999999
20
8.14304412571011
30
0
41
1
10
-2.19999999999999
20
7.85994707617317
30
0
41
1
10
-2.19999999999999
20
7.51487111531026
30
0
41
1
10
-2.19999999999999
20
7.22282329277962
30
0
41
1
10
-2.19999999999999
20
6.98653548716825
30
0
41
1
10
-2.19999999999999
20
6.80797157864473
30
0
41
1
10
-2.19999999999999
20
6.62807270531451
30
0
41
1
10
-2.19999999999999
20
6.44684086969582
30
0
41
1
10
-2.19999999999999
20
6.26427776637016
30
0
41
1
10
-2.19999999999999
20
6.0803858592752
30
0
41
1
10
-2.19999999999999
20
5.89516728223867
30
0
41
1
10
-2.19999999999999
20
5.70862469092603
30
0
41
1
10
-2.19999999999999
20
5.52076103085633
30
0
41
1
10
-2.19999999999999
20
5.33157993388585
30
0
41
1
10
-2.19999999999999
20
5.14108511996025
30
0
41
1
10
-2.19999999999999
20
4.94928086714648
30
0
41
1
10
-2.19999999999999
20
4.75617251627347
30
0
41
1
10
-2.19999999999999
20
4.56176620564526
30
0
41
1
10
-2.19999999999999
20
4.36606873641344
30
0
41
1
10
-2.19999999999999
20
4.16908849962459
30
0
41
1
10
-2.19999999999999
20
4.00386590607064
30
0
41
1
10
-2.19999999999999
20
3.87107810854147
30
0
41
1
10
-2.19999999999999
20
3.77116418570387
30
0
41
1
10
-2.19999999999999
20
3.67093805129474
30
0
41
1
10
-2.19999999999999
20
3.5369018254882
30
0
41
1
10
-2.19999999999999
20
3.36855658184018
30
0
41
1
10
-2.19999999999999
20
3.19919951970698
30
0
41
1
10
-2.19999999999999
20
3.06314133422208
30
0
41
1
10
-2.19999999999999
20
2.96079189341756
30
0
41
1
10
-2.19999999999999
20
2.85815023786418
30
0
41
1
10
-2.19999999999999
20
2.75522026664268
30
0
41
1
10
-2.19999999999999
20
2.65200561172494
30
0
41
1
10
-2.19999999999999
20
2.51402705629772
30
0
41
1
10
-2.19999999999999
20
2.375450816946
30
0
41
1
10
-2.19999999999999
20
2.23639085040648
30
0
41
1
10
-2.19999999999999
20
2.13182395998015
30
0
41
1
10
-2.19999999999999
20
2.02700348752293
30
0
41
1
10
-2.19999999999999
20
1.92193653735015
30
0
41
1
10
-2.19999999999999
20
1.81663008016324
30
0
41
1
10
-2.19999999999999
20
1.71109231328518
30
0
41
1
10
-2.19999999999999
20
1.60533155404698
30
0
41
1
10
-2.19999999999999
20
1.49935698477981
30
0
41
1
10
-2.19999999999999
20
1.39317847233161
30
0
41
1
10
-2.19999999999999
20
1.28680633401083
30
0
41
1
10
-2.19999999999999
20
1.18025197439016
30
0
41
1
10
-2.19999999999999
20
1.073527020087
30
0
41
1
10
-2.19999999999999
20
0.96664434311532
30
0
41
1
10
-2.19999999999999
20
0.859616995486334
30
0
41
1
10
-2.19999999999999
20
0.752459219961509
30
0
41
1
10
-2.19999999999999
20
0.645185453734172
30
0
41
1
10
-2.19999999999999
20
0.537811163545626
30
0
41
1
10
-2.19999999999999
20
0.430352024765995
30
0
41
1
10
-2.19999999999999
20
0.322824496958617
30
0
41
1
10
-2.19999999999999
20
0.215245213108545
30
0
41
1
10
-2.19999999999999
20
0.107631302158183
30
0
41
1
10
-2.19999999999999
20
-5.9909553E-09
30
0
41
1
10
-2.19999999999999
20
-0.107631313716837
30
0
41
1
10
-2.19999999999999
20
-0.21524522393176
30
0
41
1
10
-2.19999999999999
20
-0.322824507999513
30
0
41
1
10
-2.19999999999999
20
-0.430352036900842
30
0
41
1
10
-2.19999999999999
20
-0.537811175438549
30
0
41
1
10
-2.19999999999999
20
-0.645185463980482
30
0
41
1
10
-2.19999999999999
20
-0.752459230354134
30
0
41
1
10
-2.19999999999999
20
-0.859617007920519
30
0
41
1
10
-2.19999999999999
20
-0.966644355262389
30
0
41
1
10
-2.19999999999999
20
-1.07352702949097
30
0
41
1
10
-2.19999999999999
20
-1.18025198377217
30
0
41
1
10
-2.19999999999999
20
-1.2868063464968
30
0
41
1
10
-2.19999999999999
20
-1.39317848503856
30
0
41
1
10
-2.19999999999999
20
-1.49935699380708
30
0
41
1
10
-2.19999999999999
20
-1.60533156181745
30
0
41
1
10
-2.19999999999999
20
-1.71109232444707
30
0
41
1
10
-2.19999999999999
20
-1.81663009373557
30
0
41
1
10
-2.19999999999999
20
-1.92193654804359
30
0
41
1
10
-2.19999999999999
20
-2.02700349385552
30
0
41
1
10
-2.19999999999999
20
-2.13182396747069
30
0
41
1
10
-2.19999999999999
20
-2.23639086291988
30
0
41
1
10
-2.19999999999999
20
-2.34069812940876
30
0
41
1
10
-2.19999999999999
20
-2.44473977839391
30
0
41
1
10
-2.19999999999999
20
-2.54851063247165
30
0
41
1
10
-2.19999999999999
20
-2.65200559968281
30
0
41
1
10
-2.19999999999999
20
-2.78960994504098
30
0
41
1
10
-2.19999999999999
20
-2.92668912429065
30
0
41
1
10
-2.19999999999999
20
-3.06314133551615
30
0
41
1
10
-2.19999999999999
20
-3.19919952332836
30
0
41
1
10
-2.19999999999999
20
-3.36855659963138
30
0
41
1
10
-2.19999999999999
20
-3.53690183437428
30
0
41
1
10
-2.19999999999999
20
-3.67093805397229
30
0
41
1
10
-2.19999999999999
20
-3.77116418775421
30
0
41
1
10
-2.19999999999999
20
-3.87107811616198
30
0
41
1
10
-2.19999999999999
20
-4.00386592221614
30
0
41
1
10
-2.19999999999999
20
-4.169088511784
30
0
41
1
10
-2.19999999999999
20
-4.36606871643775
30
0
41
1
10
-2.19999999999999
20
-4.56176617271484
30
0
41
1
10
-2.19999999999999
20
-4.75617249379653
30
0
41
1
10
-2.19999999999999
20
-4.94928076863457
30
0
41
1
10
-2.19999999999999
20
-5.14108500618136
30
0
41
1
10
-2.19999999999999
20
-5.33157993903225
30
0
41
1
10
-2.19999999999999
20
-5.52076102284181
30
0
41
1
10
-2.19999999999999
20
-5.70862461825791
30
0
41
1
10
-2.19999999999999
20
-5.89516734859464
30
0
41
1
10
-2.19999999999999
20
-6.0803860968085
30
0
41
1
10
-2.19999999999999
20
-6.26427796235188
30
0
41
1
10
-2.19999999999999
20
-6.44684092947378
30
0
41
1
10
-2.19999999999999
20
-6.62807271786153
30
0
41
1
10
-2.19999999999999
20
-6.80797159432129
30
0
41
1
10
-2.19999999999999
20
-6.98653550324826
30
0
41
1
10
-2.19999999999999
20
-7.22282328452872
30
0
41
1
10
-2.19999999999999
20
-7.51487112820209
30
0
41
1
10
-2.19999999999999
20
-7.85994708827315
30
0
41
1
10
-2.19999999999999
20
-8.14304411844034
30
0
41
1
10
-2.19999999999999
20
-8.36680341033821
30
0
41
1
10
-2.19999999999999
20
-8.53328407858575
30
0
41
1
10
-2.19999999999999
20
-8.69841428877766
30
0
41
1
10
-2.19999999999999
20
-8.86219304073114
30
0
41
1
10
-2.19999999999999
20
-9.02461799205523
30
0
41
1
10
-2.19999999999999
20
-9.23936571773672
30
0
41
1
10
-2.19999999999999
20
-9.50443394039922
30
0
41
1
10
-2.19999999999999
20
-9.76496631110049
30
0
41
1
10
-2.19999999999999
20
-9.97064123613964
30
0
41
1
10
-2.19999999999999
20
-10.123538466054
30
0
41
1
10
-2.19999999999999
20
-10.2750653748105
30
0
41
1
10
-2.19999999999999
20
-10.4252201002359
30
0
41
1
10
-2.19999999999999
20
-10.5740001651574
30
0
41
1
10
-2.19999999999999
20
-10.7705258416001
30
0
41
1
10
-2.19999999999999
20
-10.9643215989582
30
0
41
1
10
-2.19999999999999
20
-11.1553144582602
30
0
41
1
10
-2.19999999999999
20
-11.3444552554371
30
0
41
1
10
-2.19999999999999
20
-11.5774197477568
30
0
41
1
10
-2.19999999999999
20
-11.8057194023465
30
0
41
1
10
-2.19999999999999
20
-11.9855280067157
30
0
41
1
10
-2.19999999999999
20
-12.1634558646821
30
0
41
1
10
-2.19999999999999
20
-12.3385783781737
30
0
41
1
10
-2.19999999999999
20
-12.510829004708
30
0
41
1
10
-2.19999999999999
20
-12.6385945454976
30
0
41
1
10
-2.19999999999999
20
-12.7649271637091
30
0
41
1
10
-2.19999999999999
20
-12.9314463925932
30
0
41
1
10
-2.19999999999999
20
-13.0951031927999
30
0
41
1
10
-2.19999999999999
20
-13.2558316973182
30
0
41
1
10
-2.19999999999999
20
-13.3749248996582
30
0
41
1
10
-2.19999999999999
20
-13.4925540411334
30
0
41
1
10
-2.19999999999999
20
-13.6474264531923
30
0
41
1
10
-2.19999999999999
20
-13.7993681905533
30
0
41
1
10
-2.19999999999999
20
-13.9483131264862
30
0
41
1
10
-2.19999999999999
20
-14.0585319334344
30
0
41
1
10
-2.19999999999999
20
-14.1672492642274
30
0
41
1
10
-2.19999999999999
20
-14.3101885914782
30
0
41
1
10
-2.19999999999999
20
-14.4501162106047
30
0
41
1
10
-2.19999999999999
20
-14.5869647126432
30
0
41
1
10
-2.19999999999999
20
-14.6880675812844
30
0
41
1
10
-2.19999999999999
20
-14.7876243995297
30
0
41
1
10
-2.19999999999999
20
-14.9182892218295
30
0
41
1
10
-2.19999999999999
20
-15.0458464314392
30
0
41
1
10
-2.19999999999999
20
-15.1702261509224
30
0
41
1
10
-2.19999999999999
20
-15.2466455133785
30
0
41
1
10
-2.19999999999999
20
-15.3069761679616
30
0
41
1
10
-2.19999999999999
20
-15.3667724139347
30
0
41
1
10
-2.19999999999999
20
-15.4700110929875
30
0
41
1
10
-2.19999999999999
20
-15.5847743990242
30
0
41
1
10
-2.19999999999999
20
-15.6962433571227
30
0
41
1
10
-2.19999999999999
20
-15.7781982539187
30
0
41
1
10
-2.19999999999999
20
-15.8584914079188
30
0
41
1
10
-2.19999999999999
20
-15.9633135259672
30
0
41
1
10
-2.19999999999999
20
-16.0647793597711
30
0
41
1
10
-2.19999999999999
20
-16.1628111223414
30
0
41
1
10
-2.19999999999999
20
-16.2346146707391
30
0
41
1
10
-2.19999999999999
20
-16.3046816359758
30
0
41
1
10
-2.19999999999999
20
-16.3729983688048
30
0
41
1
10
-2.19999999999999
20
-16.439549393056
30
0
41
1
10
-2.19999999999999
20
-16.5043209901434
30
0
41
1
10
-2.19999999999999
20
-16.5672977619412
30
0
41
1
10
-2.19999999999999
20
-16.6488473199257
30
0
41
1
10
-2.19999999999999
20
-16.7267561914694
30
0
41
1
10
-2.19999999999999
20
-16.8009296884544
30
0
41
1
10
-2.19999999999999
20
-16.8725984731112
30
0
41
1
10
-2.19999999999999
20
-16.9404820184079
30
0
41
1
10
-2.19999999999999
20
-17.0044820909957
30
0
41
1
10
-2.19999999999999
20
-17.0658713913631
30
0
41
1
10
-2.19999999999999
20
-17.123313852319
30
0
41
1
10
-2.19999999999999
20
-17.1766986986672
30
0
41
1
10
-2.19999999999999
20
-17.2146924603873
30
0
41
1
10
-2.19999999999999
20
-17.250613323192
30
0
41
1
10
-2.19999999999999
20
-17.2957083328928
30
0
41
1
10
-2.19999999999999
20
-17.3365615705832
30
0
41
1
10
-2.19999999999999
20
-17.3730462873428
30
0
41
1
10
-2.19999999999999
20
-17.398199993695
30
0
41
1
10
-2.19999999999999
20
-17.4211116738093
30
0
41
1
10
-2.19999999999999
20
-17.4417480876219
30
0
41
1
10
-2.19999999999999
20
-17.4600756994924
30
0
41
1
10
-2.19999999999999
20
-17.4760589706817
30
0
41
1
10
-2.19999999999999
20
-17.4896606126055
30
0
41
1
10
-2.19999999999999
20
-17.5008423321234
30
0
41
1
10
-2.19999999999999
20
-17.5092144762
30
0
41
1
10
-2.19999999999999
20
-17.5132052230982
30
0
41
1
10
-2.19999999999999
20
-17.5147451168513
30
0
0
SPLINE
5
18A
100
AcDbEntity
8
SK1
62
256
6
ByLayer
370
18
48
1
60
0
100
AcDbSpline
70
4
71
3
72
24
73
20
40
0
40
0
40
0
40
0
40
0.469770575826712
40
0.469770575826712
40
0.663612078687295
40
0.663612078687295
40
0.860454184613411
40
0.860454184613411
40
0.903064590395674
40
0.903064590395674
40
0.923089343972159
40
0.923089343972159
40
0.943389594779288
40
0.943389594779288
40
0.961332284531898
40
0.961332284531898
40
0.988068136377815
40
0.988068136377815
40
1
40
1
40
1
40
1
41
1
10
-0.199999999999989
20
-6.10344849123027
30
0
41
1
10
-0.199999999999989
20
-5.97798788494984
30
0
41
1
10
-0.204016575726513
20
-5.8509635670122
30
0
41
1
10
-0.223752631922082
20
-5.67079358995508
30
0
41
1
10
-0.231244965282229
20
-5.61789623093799
30
0
41
1
10
-0.253819137983157
20
-5.51250015101135
30
0
41
1
10
-0.267096215270385
20
-5.45724004647028
30
0
41
1
10
-0.303692478692511
20
-5.40035311573845
30
0
41
1
10
-0.311479622041333
20
-5.39039941672755
30
0
41
1
10
-0.32547775761438
20
-5.37891036834915
30
0
41
1
10
-0.330455622185014
20
-5.3756771312581
30
0
41
1
10
-0.341078704143143
20
-5.37102422840917
30
0
41
1
10
-0.346883276538165
20
-5.36960762575521
30
0
41
1
10
-0.357630415747764
20
-5.36914354197148
30
0
41
1
10
-0.362713068049572
20
-5.36981917830482
30
0
41
1
10
-0.37458340180882
20
-5.37316903610403
30
0
41
1
10
-0.3812109954861
20
-5.37664910167555
30
0
41
1
10
-0.38989246528871
20
-5.38265091141974
30
0
41
1
10
-0.392483363308571
20
-5.38466360919151
30
0
41
1
10
-0.394976888875334
20
-5.38678189578178
30
0
0
SPLINE
5
18B
100
AcDbEntity
8
SK1
62
256
6
ByLayer
370
18
48
1
60
0
100
AcDbSpline
70
4
71
3
72
22
73
18
40
0
40
0
40
0
40
0
40
0.0260455644157247
40
0.0260455644157247
40
0.0526262165848557
40
0.0526262165848557
40
0.0706056579866929
40
0.0706056579866929
40
0.0884949509195805
40
0.0884949509195805
40
0.11748921873202
40
0.11748921873202
40
0.17459086731972
40
0.17459086731972
40
0.37652425293745
40
0.37652425293745
40
1
40
1
40
1
40
1
41
1
10
-0.394976888872947
20
5.38678223324206
30
0
41
1
10
-0.389612432086437
20
5.38222504185003
30
0
41
1
10
-0.383763200778958
20
5.37811700449893
30
0
41
1
10
-0.3709728888754
20
5.37184824531644
30
0
41
1
10
-0.363785592650885
20
5.36968256852501
30
0
41
1
10
-0.351475656346565
20
5.3691458249703
30
0
41
1
10
-0.346317238365032
20
5.36979468027801
30
0
41
1
10
-0.336550133197363
20
5.3727304206256
30
0
41
1
10
-0.331829865964124
20
5.3750241182685
30
0
41
1
10
-0.32051111143835
20
5.38234306083376
30
0
41
1
10
-0.314321448136155
20
5.3882440687963
30
0
41
1
10
-0.298260159254511
20
5.40702817233921
30
0
41
1
10
-0.290032841564653
20
5.42147709180324
30
0
41
1
10
-0.258449669573651
20
5.48745345024415
30
0
41
1
10
-0.24608390551893
20
5.5434138926733
30
0
41
1
10
-0.204764795451922
20
5.7670899064446
30
0
41
1
10
-0.200000000000358
20
5.93709576978202
30
0
41
1
10
-0.200000000000358
20
6.10344667966001
30
0
0
SPLINE
5
18C
100
AcDbEntity
8
SK1
62
256
6
ByLayer
370
18
48
1
60
0
100
AcDbSpline
70
4
71
3
72
107
73
103
40
0
40
0
40
0
40
0
40
0.0027087431780887
40
0.0112406780962259
40
0.019772613014363
40
0.0283045479325002
40
0.0368364828506373
40
0.0453684177687745
40
0.0539003526869117
40
0.0624322876050488
40
0.070964222523186
40
0.0794961574413231
40
0.0965600272775975
40
0.113623897113872
40
0.130687766950146
40
0.139219701868283
40
0.14775163678642
40
0.156283571704558
40
0.164815506622695
40
0.173347441540832
40
0.181879376458969
40
0.198943246295243
40
0.216007116131518
40
0.224539051049655
40
0.233070985967792
40
0.241602920885929
40
0.250134855804066
40
0.258666790722204
40
0.267198725640341
40
0.284262595476615
40
0.292794530394752
40
0.301326465312889
40
0.318390335149163
40
0.335454204985438
40
0.343986139903575
40
0.352518074821712
40
0.369581944657986
40
0.378113879576124
40
0.386645814494261
40
0.395177749412398
40
0.403709684330535
40
0.42077355416681
40
0.429305489084947
40
0.437837424003084
40
0.446369358921221
40
0.454901293839358
40
0.471965163675633
40
0.48049709859377
40
0.489029033511907
40
0.497560968430044
40
0.506092903348181
40
0.523156773184455
40
0.531688708102593
40
0.54022064302073
40
0.548752577938867
40
0.557284512857004
40
0.574348382693278
40
0.582880317611416
40
0.591412252529553
40
0.595678219988621
40
0.59994418744769
40
0.608476122365827
40
0.625539992202101
40
0.634071927120239
40
0.642603862038376
40
0.651135796956513
40
0.65966773187465
40
0.676731601710924
40
0.685263536629061
40
0.693795471547199
40
0.702327406465336
40
0.710859341383473
40
0.71939127630161
40
0.727923211219747
40
0.736455146137884
40
0.744987081056022
40
0.762050950892296
40
0.770582885810433
40
0.77911482072857
40
0.796178690564844
40
0.804710625482982
40
0.813242560401119
40
0.830306430237393
40
0.83883836515553
40
0.847370300073668
40
0.855902234991805
40
0.864434169909942
40
0.881498039746216
40
0.890029974664353
40
0.89856190958249
40
0.907093844500627
40
0.915625779418765
40
0.924157714336902
40
0.932689649255039
40
0.941221584173176
40
0.949753519091313
40
0.958285454009451
40
0.966817388927588
40
0.975349323845725
40
0.983881258763862
40
0.992413193681999
40
1
40
1
40
1
40
1
41
1
10
-0.394976888875277
20
-5.38678189578289
30
0
41
1
10
-0.394976888875277
20
-5.4065930765673
30
0
41
1
10
-0.394976888875277
20
-5.48871660168982
30
0
41
1
10
-0.394976888875277
20
-5.63252719489225
30
0
41
1
10
-0.394976888875277
20
-5.8174145162354
30
0
41
1
10
-0.394976888875277
20
-6.00101977124669
30
0
41
1
10
-0.394976888875277
20
-6.18333830919048
30
0
41
1
10
-0.394976888875277
20
-6.3643662218949
30
0
41
1
10
-0.394976888875277
20
-6.54409937286439
30
0
41
1
10
-0.394976888875277
20
-6.72253430941348
30
0
41
1
10
-0.394976888875277
20
-6.89966740060396
30
0
41
1
10
-0.394976888875277
20
-7.13420903787926
30
0
41
1
10
-0.394976888875277
20
-7.42389186204957
30
0
41
1
10
-0.394976888875277
20
-7.76637138106329
30
0
41
1
10
-0.394976888875277
20
-8.04728288344245
30
0
41
1
10
-0.394976888875277
20
-8.26952736598562
30
0
41
1
10
-0.394976888875277
20
-8.434820354761
30
0
41
1
10
-0.394976888875277
20
-8.59878513137221
30
0
41
1
10
-0.394976888875277
20
-8.76141979186249
30
0
41
1
10
-0.394976888875277
20
-8.922721214403
30
0
41
1
10
-0.394976888875277
20
-9.1360908691222
30
0
41
1
10
-0.394976888875277
20
-9.39928045092248
30
0
41
1
10
-0.394976888875277
20
-9.65799296546987
30
0
41
1
10
-0.394976888875277
20
-9.86240080704218
30
0
41
1
10
-0.394976888875277
20
-10.0143015815252
30
0
41
1
10
-0.394976888875277
20
-10.1648480067744
30
0
41
1
10
-0.394976888875277
20
-10.3140380843155
30
0
41
1
10
-0.394976888875277
20
-10.4618684189216
30
0
41
1
10
-0.394976888875277
20
-10.6572263081632
30
0
41
1
10
-0.394976888875277
20
-10.8496518506122
30
0
41
1
10
-0.394976888875277
20
-11.0395280782787
30
0
41
1
10
-0.394976888875277
20
-11.2275701299333
30
0
41
1
10
-0.394976888875277
20
-11.4590305143918
30
0
41
1
10
-0.394976888875277
20
-11.685867652055
30
0
41
1
10
-0.394976888875277
20
-11.864654349678
30
0
41
1
10
-0.394976888875277
20
-12.0415756040849
30
0
41
1
10
-0.394976888875277
20
-12.2155153161813
30
0
41
1
10
-0.394976888875277
20
-12.3868007979199
30
0
41
1
10
-0.394976888875277
20
-12.5138050519686
30
0
41
1
10
-0.394976888875277
20
-12.6393872302303
30
0
41
1
10
-0.394976888875277
20
-12.8049814458532
30
0
41
1
10
-0.394976888875277
20
-12.9675509360494
30
0
41
1
10
-0.394976888875277
20
-13.1273919665529
30
0
41
1
10
-0.394976888875277
20
-13.2457849051211
30
0
41
1
10
-0.394976888875277
20
-13.3627236547323
30
0
41
1
10
-0.394976888875277
20
-13.5167448476072
30
0
41
1
10
-0.394976888875277
20
-13.6676860552913
30
0
41
1
10
-0.394976888875277
20
-13.8158144768541
30
0
41
1
10
-0.394976888875277
20
-13.9253889718329
30
0
41
1
10
-0.394976888875277
20
-14.0334711580348
30
0
41
1
10
-0.394976888875277
20
-14.1756274475866
30
0
41
1
10
-0.394976888875277
20
-14.3146351237356
30
0
41
1
10
-0.394976888875277
20
-14.4507333681675
30
0
41
1
10
-0.394976888875277
20
-14.5512443837086
30
0
41
1
10
-0.394976888875277
20
-14.6502180419884
30
0
41
1
10
-0.394976888875277
20
-14.780164253239
30
0
41
1
10
-0.394976888875277
20
-14.9068780878822
30
0
41
1
10
-0.394976888875277
20
-15.0305708978545
30
0
41
1
10
-0.394976888875277
20
-15.1065165223896
30
0
41
1
10
-0.394976888875277
20
-15.1665127141503
30
0
41
1
10
-0.394976888875277
20
-15.2259771214207
30
0
41
1
10
-0.394976888875277
20
-15.3286250474485
30
0
41
1
10
-0.394976888875277
20
-15.4426196109061
30
0
41
1
10
-0.394976888875277
20
-15.5534637367265
30
0
41
1
10
-0.394976888875277
20
-15.6349267624759
30
0
41
1
10
-0.394976888875277
20
-15.7147364921469
30
0
41
1
10
-0.394976888875277
20
-15.8189643831875
30
0
41
1
10
-0.394976888875277
20
-15.9197362187748
30
0
41
1
10
-0.394976888875277
20
-16.0172057969154
30
0
41
1
10
-0.394976888875277
20
-16.0885678110446
30
0
41
1
10
-0.394976888875277
20
-16.1582019472912
30
0
41
1
10
-0.394976888875277
20
-16.2260943811825
30
0
41
1
10
-0.394976888875277
20
-16.2922298358683
30
0
41
1
10
-0.394976888875277
20
-16.3565947902754
30
0
41
1
10
-0.394976888875277
20
-16.4191737297992
30
0
41
1
10
-0.394976888875277
20
-16.5002370830775
30
0
41
1
10
-0.394976888875277
20
-16.5775834628441
30
0
41
1
10
-0.394976888875277
20
-16.6513062771915
30
0
41
1
10
-0.394976888875277
20
-16.7225357579897
30
0
41
1
10
-0.394976888875277
20
-16.7899145981056
30
0
41
1
10
-0.394976888875277
20
-16.8535135500206
30
0
41
1
10
-0.394976888875277
20
-16.9145141001581
30
0
41
1
10
-0.394976888875277
20
-16.9715145305624
30
0
41
1
10
-0.394976888875277
20
-17.024552403858
30
0
41
1
10
-0.394976888875277
20
-17.0622798511847
30
0
41
1
10
-0.394976888875277
20
-17.0979462837243
30
0
41
1
10
-0.394976888875277
20
-17.1427382787905
30
0
41
1
10
-0.394976888875277
20
-17.1832568369982
30
0
41
1
10
-0.394976888875277
20
-17.2194882612007
30
0
41
1
10
-0.394976888875277
20
-17.2444531170066
30
0
41
1
10
-0.394976888875277
20
-17.2671905287463
30
0
41
1
10
-0.394976888875277
20
-17.2876678382251
30
0
41
1
10
-0.394976888875277
20
-17.3058521626298
30
0
41
1
10
-0.394976888875277
20
-17.3217086355548
30
0
41
1
10
-0.394976888875277
20
-17.3352007360526
30
0
41
1
10
-0.394976888875277
20
-17.3462909802274
30
0
41
1
10
-0.394976888875277
20
-17.3549392880652
30
0
41
1
10
-0.394976888875277
20
-17.3611046305144
30
0
41
1
10
-0.394976888875277
20
-17.3647432146661
30
0
41
1
10
-0.394976888875277
20
-17.3658102005923
30
0
41
1
10
-0.394976888875306
20
-17.3643150511299
30
0
41
1
10
-0.394976888875277
20
-17.361749402282
30
0
41
1
10
-0.394976888875277
20
-17.3601838597835
30
0
0
SPLINE
5
18D
100
AcDbEntity
8
SK1
62
256
6
ByLayer
370
18
48
1
60
0
100
AcDbSpline
70
4
71
3
72
288
73
284
40
0
40
0
40
0
40
0
40
0.0022850428792494
40
0.0057900834674212
40
0.009295124055593
40
0.0128001646437648
40
0.0163052052319366
40
0.0198102458201084
40
0.0233152864082802
40
0.026820326996452
40
0.0303253675846238
40
0.0338304081727956
40
0.0373354487609674
40
0.0408404893491392
40
0.044345529937311
40
0.0513556111136546
40
0.0548606517018264
40
0.0583656922899982
40
0.06187073287817
40
0.0653757734663418
40
0.0723858546426854
40
0.0758908952308572
40
0.079395935819029
40
0.0864060169953726
40
0.0899110575835444
40
0.0934160981717161
40
0.10042617934806
40
0.103931219936232
40
0.107436260524403
40
0.110941301112575
40
0.114446341700747
40
0.117951382288919
40
0.121456422877091
40
0.124961463465262
40
0.128466504053434
40
0.135476585229778
40
0.13898162581795
40
0.142486666406121
40
0.145991706994293
40
0.149496747582465
40
0.156506828758809
40
0.16001186934698
40
0.163516909935152
40
0.167021950523324
40
0.170526991111496
40
0.177537072287839
40
0.181042112876011
40
0.184547153464183
40
0.188052194052355
40
0.191557234640527
40
0.19856731581687
40
0.202072356405042
40
0.205577396993214
40
0.209082437581386
40
0.212587478169557
40
0.219597559345901
40
0.223102599934073
40
0.226607640522245
40
0.230112681110416
40
0.233617721698588
40
0.240627802874932
40
0.244132843463103
40
0.247637884051275
40
0.251142924639447
40
0.254647965227619
40
0.261658046403963
40
0.265163086992134
40
0.268668127580306
40
0.27567820875665
40
0.282688289932993
40
0.286193330521165
40
0.289698371109337
40
0.296708452285681
40
0.300213492873852
40
0.303718533462024
40
0.307223574050196
40
0.310728614638368
40
0.31423365522654
40
0.317738695814711
40
0.324748776991055
40
0.331758858167398
40
0.33526389875557
40
0.338768939343742
40
0.342273979931914
40
0.345779020520086
40
0.349284061108257
40
0.352789101696429
40
0.359799182872773
40
0.366809264049117
40
0.37381934522546
40
0.377324385813632
40
0.380829426401804
40
0.384334466989975
40
0.387839507578147
40
0.391344548166319
40
0.394849588754491
40
0.398354629342663
40
0.401859669930835
40
0.405364710519006
40
0.408869751107178
40
0.41237479169535
40
0.415879832283522
40
0.419384872871694
40
0.422889913459865
40
0.426394954048037
40
0.429899994636209
40
0.433405035224381
40
0.435157555518467
40
0.436910075812552
40
0.438662596106638
40
0.440415116400724
40
0.443920156988896
40
0.447425197577068
40
0.449177717871154
40
0.45093023816524
40
0.452682758459325
40
0.454435278753412
40
0.456187799047497
40
0.457940319341583
40
0.461445359929755
40
0.463197880223841
40
0.464950400517927
40
0.466702920812013
40
0.468455441106099
40
0.470207961400185
40
0.471960481694271
40
0.473713001988356
40
0.475465522282442
40
0.477218042576528
40
0.478970562870614
40
0.4807230831647
40
0.482475603458786
40
0.484228123752872
40
0.485980644046958
40
0.487733164341044
40
0.489485684635129
40
0.491238204929215
40
0.492990725223301
40
0.494743245517387
40
0.496495765811473
40
0.498248286105559
40
0.500000806399645
40
0.501753326693731
40
0.503505846987817
40
0.505258367281903
40
0.507010887575989
40
0.508763407870074
40
0.51051592816416
40
0.512268448458246
40
0.514020968752332
40
0.515773489046418
40
0.517526009340504
40
0.51927852963459
40
0.521031049928676
40
0.522783570222762
40
0.524536090516847
40
0.526288610810933
40
0.528041131105019
40
0.529793651399105
40
0.531546171693191
40
0.533298691987277
40
0.535051212281363
40
0.536803732575449
40
0.538556252869535
40
0.54030877316362
40
0.542061293457706
40
0.543813813751793
40
0.545566334045878
40
0.54907137463405
40
0.550823894928136
40
0.552576415222222
40
0.556081455810394
40
0.559586496398566
40
0.561339016692651
40
0.563091536986737
40
0.564844057280823
40
0.566596577574909
40
0.570101618163081
40
0.573606658751253
40
0.577111699339425
40
0.580616739927596
40
0.584121780515768
40
0.58762682110394
40
0.591131861692112
40
0.594636902280284
40
0.598141942868455
40
0.601646983456627
40
0.605152024044799
40
0.608657064632971
40
0.612162105221142
40
0.615667145809314
40
0.619172186397486
40
0.622677226985658
40
0.62618226757383
40
0.633192348750173
40
0.640202429926517
40
0.64721251110286
40
0.650717551691032
40
0.654222592279204
40
0.657727632867376
40
0.661232673455548
40
0.664737714043719
40
0.668242754631891
40
0.675252835808235
40
0.682262916984578
40
0.68576795757275
40
0.689272998160922
40
0.692778038749094
40
0.696283079337266
40
0.699788119925437
40
0.703293160513609
40
0.710303241689953
40
0.713808282278125
40
0.717313322866296
40
0.72432340404264
40
0.731333485218984
40
0.734838525807155
40
0.738343566395327
40
0.745353647571671
40
0.748858688159843
40
0.752363728748014
40
0.755868769336186
40
0.759373809924358
40
0.766383891100702
40
0.769888931688873
40
0.773393972277045
40
0.776899012865217
40
0.780404053453389
40
0.787414134629732
40
0.790919175217904
40
0.794424215806076
40
0.797929256394248
40
0.80143429698242
40
0.808444378158763
40
0.811949418746935
40
0.815454459335107
40
0.818959499923279
40
0.82246454051145
40
0.829474621687794
40
0.832979662275966
40
0.836484702864138
40
0.838237223158224
40
0.839989743452309
40
0.843494784040481
40
0.850504865216825
40
0.854009905804997
40
0.857514946393168
40
0.86101998698134
40
0.864525027569512
40
0.871535108745855
40
0.875040149334027
40
0.878545189922199
40
0.882050230510371
40
0.885555271098543
40
0.889060311686715
40
0.892565352274886
40
0.896070392863058
40
0.89957543345123
40
0.906585514627574
40
0.910090555215745
40
0.913595595803917
40
0.920605676980261
40
0.924110717568433
40
0.927615758156604
40
0.934625839332948
40
0.93813087992112
40
0.941635920509292
40
0.945140961097463
40
0.948646001685635
40
0.955656082861979
40
0.95916112345015
40
0.962666164038322
40
0.966171204626494
40
0.969676245214666
40
0.973181285802838
40
0.976686326391009
40
0.980191366979181
40
0.983696407567353
40
0.987201448155525
40
0.990706488743697
40
0.994211529331868
40
0.99771656992004
40
1
40
1
40
1
40
1
41
1
10
-30
20
15.9926657164237
30
0
41
1
10
-30
20
15.9930575193314
30
0
41
1
10
-30
20
15.9936129939434
30
0
41
1
10
-30
20
15.992743696334
30
0
41
1
10
-30
20
15.9893850921089
30
0
41
1
10
-30
20
15.9836860314146
30
0
41
1
10
-30
20
15.9756808210229
30
0
41
1
10
-30
20
15.9654018084481
30
0
41
1
10
-30
20
15.9528811264941
30
0
41
1
10
-30
20
15.9381491278438
30
0
41
1
10
-30
20
15.9212355486336
30
0
41
1
10
-30
20
15.9021692443494
30
0
41
1
10
-30
20
15.8809772874923
30
0
41
1
10
-30
20
15.85768719628
30
0
41
1
10
-30
20
15.8237020449635
30
0
41
1
10
-30
20
15.786151572388
30
0
41
1
10
-30
20
15.7440467976174
30
0
41
1
10
-30
20
15.7106366986067
30
0
41
1
10
-30
20
15.6752710038507
30
0
41
1
10
-30
20
15.6253102414823
30
0
41
1
10
-30
20
15.5722298833996
30
0
41
1
10
-30
20
15.5146768571488
30
0
41
1
10
-30
20
15.454635155867
30
0
41
1
10
-30
20
15.3917322415494
30
0
41
1
10
-30
20
15.3243986601424
30
0
41
1
10
-30
20
15.2546726017927
30
0
41
1
10
-30
20
15.1823145630236
30
0
41
1
10
-30
20
15.1055630554725
30
0
41
1
10
-30
20
15.0465122402176
30
0
41
1
10
-30
20
14.985753516587
30
0
41
1
10
-30
20
14.9233034368069
30
0
41
1
10
-30
20
14.8591738020485
30
0
41
1
10
-30
20
14.7933781380804
30
0
41
1
10
-30
20
14.7259318150055
30
0
41
1
10
-30
20
14.6334478809413
30
0
41
1
10
-30
20
14.5388306139923
30
0
41
1
10
-30
20
14.4398724968665
30
0
41
1
10
-30
20
14.3643499358607
30
0
41
1
10
-30
20
14.2872489988171
30
0
41
1
10
-30
20
14.1819460940194
30
0
41
1
10
-30
20
14.0747689624993
30
0
41
1
10
-30
20
13.9632604256822
30
0
41
1
10
-30
20
13.8784200007502
30
0
41
1
10
-30
20
13.7920640526129
30
0
41
1
10
-30
20
13.674463030797
30
0
41
1
10
-30
20
13.5552283874056
30
0
41
1
10
-30
20
13.4316550911985
30
0
41
1
10
-30
20
13.337853067095
30
0
41
1
10
-30
20
13.2425907988595
30
0
41
1
10
-30
20
13.1131460860381
30
0
41
1
10
-30
20
12.9822967545723
30
0
41
1
10
-30
20
12.847084683004
30
0
41
1
10
-30
20
12.7446351532221
30
0
41
1
10
-30
20
12.6407746180399
30
0
41
1
10
-30
20
12.499887311655
30
0
41
1
10
-30
20
12.3578191289812
30
0
41
1
10
-30
20
12.2113468162578
30
0
41
1
10
-30
20
12.100530667573
30
0
41
1
10
-30
20
11.9883478761207
30
0
41
1
10
-30
20
11.836377249174
30
0
41
1
10
-30
20
11.6834503922585
30
0
41
1
10
-30
20
11.5260594948948
30
0
41
1
10
-30
20
11.4071324366749
30
0
41
1
10
-30
20
11.2868794886981
30
0
41
1
10
-30
20
11.1241532157817
30
0
41
1
10
-30
20
10.9607029988619
30
0
41
1
10
-30
20
10.7927086404326
30
0
41
1
10
-30
20
10.6229844866849
30
0
41
1
10
-30
20
10.4091173939315
30
0
41
1
10
-30
20
10.1909959678347
30
0
41
1
10
-30
20
10.0126979588287
30
0
41
1
10
-30
20
9.83272430289384
30
0
41
1
10
-30
20
9.65245023276196
30
0
41
1
10
-30
20
9.46744871362009
30
0
41
1
10
-30
20
9.32804093460692
30
0
41
1
10
-30
20
9.18740563851225
30
0
41
1
10
-30
20
9.0455543785921
30
0
41
1
10
-30
20
8.90249044231982
30
0
41
1
10
-30
20
8.70931958714519
30
0
41
1
10
-30
20
8.46674616603482
30
0
41
1
10
-30
20
8.22021686294167
30
0
41
1
10
-30
20
8.01906836645577
30
0
41
1
10
-30
20
7.86773085832669
30
0
41
1
10
-30
20
7.71524241280142
30
0
41
1
10
-30
20
7.56161298420645
30
0
41
1
10
-30
20
7.40685260452798
30
0
41
1
10
-30
20
7.19804202206524
30
0
41
1
10
-30
20
6.93651252502835
30
0
41
1
10
-30
20
6.61705894701072
30
0
41
1
10
-30
20
6.34834996432815
30
0
41
1
10
-30
20
6.12929373929515
30
0
41
1
10
-30
20
5.96484945115367
30
0
41
1
10
-30
20
5.7993974381898
30
0
41
1
10
-30
20
5.63295542814623
30
0
41
1
10
-30
20
5.46554083189747
30
0
41
1
10
-30
20
5.29717335727497
30
0
41
1
10
-30
20
5.12787591307327
30
0
41
1
10
-30
20
4.9576706384986
30
0
41
1
10
-30
20
4.78658071628462
30
0
41
1
10
-30
20
4.6146335506248
30
0
41
1
10
-30
20
4.44186113006069
30
0
41
1
10
-30
20
4.26829321973949
30
0
41
1
10
-30
20
4.09396155182321
30
0
41
1
10
-30
20
3.91890592173868
30
0
41
1
10
-30
20
3.74316620306936
30
0
41
1
10
-30
20
3.56678705857649
30
0
41
1
10
-30
20
3.42015123791836
30
0
41
1
10
-30
20
3.3009810984795
30
0
41
1
10
-30
20
3.21216327477833
30
0
41
1
10
-30
20
3.12322377081893
30
0
41
1
10
-30
20
3.00356413190352
30
0
41
1
10
-30
20
2.85589664233001
30
0
41
1
10
-30
20
2.70788037697056
30
0
41
1
10
-30
20
2.58749550859633
30
0
41
1
10
-30
20
2.49793822974365
30
0
41
1
10
-30
20
2.40833000131903
30
0
41
1
10
-30
20
2.31867596083526
30
0
41
1
10
-30
20
2.22899146909501
30
0
41
1
10
-30
20
2.10827328924756
30
0
41
1
10
-30
20
1.99097459417121
30
0
41
1
10
-30
20
1.87012467714987
30
0
41
1
10
-30
20
1.78043031683035
30
0
41
1
10
-30
20
1.69076251244053
30
0
41
1
10
-30
20
1.60113247848605
30
0
41
1
10
-30
20
1.51155313609783
30
0
41
1
10
-30
20
1.422025757727
30
0
41
1
10
-30
20
1.33256776537959
30
0
41
1
10
-30
20
1.24317741509074
30
0
41
1
10
-30
20
1.15386860885192
30
0
41
1
10
-30
20
1.06464013673647
30
0
41
1
10
-30
20
0.975500136218244
30
0
41
1
10
-30
20
0.886447988926847
30
0
41
1
10
-30
20
0.797485776681128
30
0
41
1
10
-30
20
0.708610852102623
30
0
41
1
10
-30
20
0.61982073744278
30
0
41
1
10
-30
20
0.531109764951253
30
0
41
1
10
-30
20
0.442471434007643
30
0
41
1
10
-30
20
0.35389600796347
30
0
41
1
10
-30
20
0.265373879214224
30
0
41
1
10
-30
20
0.176892371692162
30
0
41
1
10
-30
20
0.0884392148653887
30
0
41
1
10
-30
20
2.04973958E-08
30
0
41
1
10
-30
20
-0.0884392031952927
30
0
41
1
10
-30
20
-0.17689241471993
30
0
41
1
10
-30
20
-0.265373915570137
30
0
41
1
10
-30
20
-0.353895962579486
30
0
41
1
10
-30
20
-0.442471374506823
30
0
41
1
10
-30
20
-0.531109813902646
30
0
41
1
10
-30
20
-0.61982082298212
30
0
41
1
10
-30
20
-0.70861080655007
30
0
41
1
10
-30
20
-0.797485667180155
30
0
41
1
10
-30
20
-0.886448026006832
30
0
41
1
10
-30
20
-0.97550027278379
30
0
41
1
10
-30
20
-1.06464012636249
30
0
41
1
10
-30
20
-1.1538684580087
30
0
41
1
10
-30
20
-1.24317738635406
30
0
41
1
10
-30
20
-1.33256791795026
30
0
41
1
10
-30
20
-1.42202585063245
30
0
41
1
10
-30
20
-1.5115530207047
30
0
41
1
10
-30
20
-1.60113232466117
30
0
41
1
10
-30
20
-1.69076256252157
30
0
41
1
10
-30
20
-1.78043050963589
30
0
41
1
10
-30
20
-1.87012473193457
30
0
41
1
10
-30
20
-1.95984062320625
30
0
41
1
10
-30
20
-2.04956121840735
30
0
41
1
10
-30
20
-2.13928298465069
30
0
41
1
10
-30
20
-2.22899154181985
30
0
41
1
10
-30
20
-2.34971237639812
30
0
41
1
10
-30
20
-2.4670581044816
30
0
41
1
10
-30
20
-2.58749567267543
30
0
41
1
10
-30
20
-2.70788056755165
30
0
41
1
10
-30
20
-2.85589666602098
30
0
41
1
10
-30
20
-3.00356394920902
30
0
41
1
10
-30
20
-3.12322374659235
30
0
41
1
10
-30
20
-3.21216341650842
30
0
41
1
10
-30
20
-3.3009812939207
30
0
41
1
10
-30
20
-3.4201512431562
30
0
41
1
10
-30
20
-3.56678672363677
30
0
41
1
10
-30
20
-3.74316585626101
30
0
41
1
10
-30
20
-3.91890584757377
30
0
41
1
10
-30
20
-4.09396100129445
30
0
41
1
10
-30
20
-4.26829259541552
30
0
41
1
10
-30
20
-4.44186183082067
30
0
41
1
10
-30
20
-4.61463414914383
30
0
41
1
10
-30
20
-4.78658021025493
30
0
41
1
10
-30
20
-4.95767123056282
30
0
41
1
10
-30
20
-5.1278778625566
30
0
41
1
10
-30
20
-5.29717415068043
30
0
41
1
10
-30
20
-5.46553992297876
30
0
41
1
10
-30
20
-5.63295448869491
30
0
41
1
10
-30
20
-5.79939725011727
30
0
41
1
10
-30
20
-5.96484950556561
30
0
41
1
10
-30
20
-6.1292936535483
30
0
41
1
10
-30
20
-6.34834993475852
30
0
41
1
10
-30
20
-6.6170590196507
30
0
41
1
10
-30
20
-6.93651248001379
30
0
41
1
10
-30
20
-7.19804203228608
30
0
41
1
10
-30
20
-7.40685270744595
30
0
41
1
10
-30
20
-7.56161297986856
30
0
41
1
10
-30
20
-7.71524232371232
30
0
41
1
10
-30
20
-7.86773082006812
30
0
41
1
10
-30
20
-8.01906843480592
30
0
41
1
10
-30
20
-8.22021692135615
30
0
41
1
10
-30
20
-8.46674612315107
30
0
41
1
10
-30
20
-8.7093195790371
30
0
41
1
10
-30
20
-8.90249052457438
30
0
41
1
10
-30
20
-9.04555441784282
30
0
41
1
10
-30
20
-9.18740560593943
30
0
41
1
10
-30
20
-9.32804088163152
30
0
41
1
10
-30
20
-9.46744870809565
30
0
41
1
10
-30
20
-9.65245029192155
30
0
41
1
10
-30
20
-9.83272433616031
30
0
41
1
10
-30
20
-10.0126979221092
30
0
41
1
10
-30
20
-10.1909959517429
30
0
41
1
10
-30
20
-10.4091174330404
30
0
41
1
10
-30
20
-10.6229845090751
30
0
41
1
10
-30
20
-10.7927086151923
30
0
41
1
10
-30
20
-10.9607029915804
30
0
41
1
10
-30
20
-11.1241532476502
30
0
41
1
10
-30
20
-11.286879520772
30
0
41
1
10
-30
20
-11.4071324437642
30
0
41
1
10
-30
20
-11.526059483736
30
0
41
1
10
-30
20
-11.6834503898541
30
0
41
1
10
-30
20
-11.8363772717575
30
0
41
1
10
-30
20
-11.9883479026383
30
0
41
1
10
-30
20
-12.100530681097
30
0
41
1
10
-30
20
-12.211346817793
30
0
41
1
10
-30
20
-12.3578191303265
30
0
41
1
10
-30
20
-12.4998873251013
30
0
41
1
10
-30
20
-12.640774639564
30
0
41
1
10
-30
20
-12.7446351726738
30
0
41
1
10
-30
20
-12.8470846962099
30
0
41
1
10
-30
20
-12.9822967603461
30
0
41
1
10
-30
20
-13.1131460918651
30
0
41
1
10
-30
20
-13.2425908150843
30
0
41
1
10
-30
20
-13.3378530905647
30
0
41
1
10
-30
20
-13.431655102243
30
0
41
1
10
-30
20
-13.5552284439381
30
0
41
1
10
-30
20
-13.6744629632361
30
0
41
1
10
-30
20
-13.7920640428987
30
0
41
1
10
-30
20
-13.8638084100541
30
0
41
1
10
-30
20
-13.9208384799595
30
0
41
1
10
-30
20
-13.9773600368974
30
0
41
1
10
-30
20
-14.0747689786766
30
0
41
1
10
-30
20
-14.1819460903518
30
0
41
1
10
-30
20
-14.2872490063531
30
0
41
1
10
-30
20
-14.3643499644422
30
0
41
1
10
-30
20
-14.4398725346097
30
0
41
1
10
-30
20
-14.5388306330265
30
0
41
1
10
-30
20
-14.6334478734244
30
0
41
1
10
-30
20
-14.7259318226356
30
0
41
1
10
-30
20
-14.793378171537
30
0
41
1
10
-30
20
-14.8591738437125
30
0
41
1
10
-30
20
-14.9233034607296
30
0
41
1
10
-30
20
-14.9857535133679
30
0
41
1
10
-30
20
-15.0465122321639
30
0
41
1
10
-30
20
-15.1055630695376
30
0
41
1
10
-30
20
-15.1823146060513
30
0
41
1
10
-30
20
-15.2546726312332
30
0
41
1
10
-30
20
-15.3243986497297
30
0
41
1
10
-30
20
-15.3917322452796
30
0
41
1
10
-30
20
-15.4546352005829
30
0
41
1
10
-30
20
-15.5146768877911
30
0
41
1
10
-30
20
-15.5722298782127
30
0
41
1
10
-30
20
-15.6253102421943
30
0
41
1
10
-30
20
-15.6752710489662
30
0
41
1
10
-30
20
-15.7106367362118
30
0
41
1
10
-30
20
-15.7440468008705
30
0
41
1
10
-30
20
-15.7861515665346
30
0
41
1
10
-30
20
-15.8237020814765
30
0
41
1
10
-30
20
-15.8576872273509
30
0
41
1
10
-30
20
-15.8809772969169
30
0
41
1
10
-30
20
-15.9021692417172
30
0
41
1
10
-30
20
-15.921235563756
30
0
41
1
10
-30
20
-15.9381491696965
30
0
41
1
10
-30
20
-15.9528811556007
30
0
41
1
10
-30
20
-15.9654018081648
30
0
41
1
10
-30
20
-15.9756808201301
30
0
41
1
10
-30
20
-15.9836860510364
30
0
41
1
10
-30
20
-15.989385071505
30
0
41
1
10
-30
20
-15.992743547039
30
0
41
1
10
-30
20
-15.9936126366526
30
0
41
1
10
-30
20
-15.9930576757962
30
0
41
1
10
-30
20
-15.9926664236495
30
0
0
SPLINE
5
18E
100
AcDbEntity
8
SK1
62
256
6
ByLayer
370
18
48
1
60
0
100
AcDbSpline
70
4
71
3
72
22
73
18
40
0
40
0
40
0
40
0
40
0.359503326352592
40
0.359503326352592
40
0.722215553677066
40
0.722215553677066
40
0.826527133697721
40
0.826527133697721
40
0.863141914878009
40
0.863141914878009
40
0.900378805007221
40
0.900378805007221
40
0.933500873078508
40
0.933500873078508
40
0.972947835056124
40
0.972947835056124
40
1
40
1
40
1
40
1
41
1
10
-1.30710678118655
20
3.91806548153781
30
0
41
1
10
-1.26486058419175
20
4.15139729989579
30
0
41
1
10
-1.21446435132796
20
4.3814323255595
30
0
41
1
10
-1.08204001032738
20
4.82987250608483
30
0
41
1
10
-1.00537527699572
20
5.05527264511531
30
0
41
1
10
-0.832356114396674
20
5.30654108347395
30
0
41
1
10
-0.78723829488635
20
5.36152992388779
30
0
41
1
10
-0.709490490588593
20
5.41877880440927
30
0
41
1
10
-0.687203973712826
20
5.43218986569767
30
0
41
1
10
-0.639076749164047
20
5.45244590583036
30
0
41
1
10
-0.612446414061708
20
5.45928056674788
30
0
41
1
10
-0.562058433231044
20
5.46233960302246
30
0
41
1
10
-0.537713914852588
20
5.45964677314575
30
0
41
1
10
-0.488053852696936
20
5.44628701250068
30
0
41
1
10
-0.462609559288751
20
5.43420976008088
30
0
41
1
10
-0.423860760477311
20
5.40985221311715
30
0
41
1
10
-0.408979654247759
20
5.39867780521598
30
0
41
1
10
-0.394976888875391
20
5.38678223323953
30
0
0
SPLINE
5
18F
100
AcDbEntity
8
1
62
256
6
ByLayer
370
18
48
1
60
0
100
AcDbSpline
70
4
71
3
72
9
73
5
40
0
40
0
40
0
40
0
40
0.155905363130474
40
1
40
1
40
1
40
1
41
1
10
20.1707870099112
20
17.8994946104662
30
0
41
1
10
20.1983041837664
20
17.7573879216274
30
0
41
1
10
20.4070281924819
20
16.8385541591955
30
0
41
1
10
20.8299436363175
20
15.882493358342
30
0
41
1
10
21.3642866033983
20
15.1225020439775
30
0
0
SPLINE
5
190
100
AcDbEntity
8
1
62
256
6
ByLayer
370
18
48
1
60
0
100
AcDbSpline
70
4
71
3
72
9
73
5
40
0
40
0
40
0
40
0
40
0.899125204683431
40
1
40
1
40
1
40
1
41
1.02613459695995
10
37.5984743873342
20
4.55109539973643
30
0
41
1.02613459695995
10
36.8987011442779
20
4.03810555944873
30
0
41
1.02613459695995
10
35.9286225543973
20
3.73465709133895
30
0
41
1.02613459695995
10
34.8590575875975
20
3.79763291010187
30
0
41
1.02613459695995
10
34.7503006871334
20
3.80779594590455
30
0
0
SPLINE
5
191
100
AcDbEntity
8
1
62
256
6
ByLayer
370
18
48
1
60
0
100
AcDbSpline
70
4
71
3
72
16
73
12
40
0
40
0
40
0
40
0
40
0.461208588217094
40
0.461208588217094
40
0.643534962278546
40
0.643534962278546
40
0.828408472975285
40
0.828408472975285
40
0.943003644159988
40
0.943003644159988
40
1
40
1
40
1
40
1
41
1
10
8.10566243270259
20
-23.6665017920809
30
0
41
1
10
8.13394960848487
20
-23.7022583261632
30
0
41
1
10
8.17266608070923
20
-23.7370095736338
30
0
41
1
10
8.25268397516848
20
-23.7800170858174
30
0
41
1
10
8.27872153625231
20
-23.7917125768793
30
0
41
1
10
8.33934560108361
20
-23.8127037684951
30
0
41
1
10
8.37482777731262
20
-23.8222104320954
30
0
41
1
10
8.44007741480422
20
-23.8331586856493
30
0
41
1
10
8.46752172250564
20
-23.836332378473
30
0
41
1
10
8.50983152523006
20
-23.8387183279986
30
0
41
1
10
8.5242826069246
20
-23.8391299750505
30
0
41
1
10
8.53867513459474
20
-23.8391299750505
30
0
0
SPLINE
5
192
100
AcDbEntity
8
1
62
256
6
ByLayer
370
18
48
1
60
0
100
AcDbSpline
70
4
71
3
72
8
73
4
40
0
40
0
40
0
40
0
40
1
40
1
40
1
40
1
41
1
10
37.5984743873343
20
4.55109539973643
30
0
41
1
10
38.2969955089246
20
3.55744045798593
30
0
41
1
10
38.6931880134763
20
2.38239158743318
30
0
41
1
10
38.6407644513008
20
1.45981591215991
30
0
0
SPLINE
5
193
100
AcDbEntity
8
1
62
256
6
ByLayer
370
18
48
1
60
0
100
AcDbSpline
70
4
71
3
72
16
73
12
40
0
40
0
40
0
40
0
40
0.238664520516886
40
0.238664520516886
40
0.477243676809563
40
0.477243676809563
40
0.717175962218134
40
0.717175962218134
40
0.962955965218022
40
0.962955965218022
40
1
40
1
40
1
40
1
41
1
10
20.92079238
20
24.4886190390076
30
0
41
1
10
20.4840916723798
20
24.4774472754172
30
0
41
1
10
20.0509926695775
20
24.4509610891805
30
0
41
1
10
19.26391515033
20
24.3656718780195
30
0
41
1
10
18.8991880574146
20
24.3054862317241
30
0
41
1
10
18.2835116525487
20
24.1494135952404
30
0
41
1
10
18.0249815792796
20
24.0510028626091
30
0
41
1
10
17.6392199403027
20
23.8174123097642
30
0
41
1
10
17.5100639463551
20
23.6782359586606
30
0
41
1
10
17.4432353915025
20
23.5027996833027
30
0
41
1
10
17.4359824174511
20
23.4792306731536
30
0
41
1
10
17.4303191742212
20
23.4553549429959
30
0
0
SPLINE
5
194
100
AcDbEntity
8
1
62
256
6
ByLayer
370
18
48
1
60
0
100
AcDbSpline
70
4
71
3
72
10
73
6
40
0
40
0
40
0
40
0
40
0.5
40
0.5
40
1
40
1
40
1
40
1
41
1
10
29.189087965941
20
1.7108150493743
30
0
41
1
10
29.8117157096722
20
0.859765718020128
30
0
41
1
10
30.6702907665198
20
0.217848642609539
30
0
41
1
10
32.5477573547912
20
-0.66291858501026
30
0
41
1
10
33.5906344093559
20
-0.902386915740522
30
0
41
1
10
34.642908072894
20
-0.837660493444758
30
0
0
SPLINE
5
195
100
AcDbEntity
8
1
62
256
6
ByLayer
370
18
48
1
60
0
100
AcDbSpline
70
4
71
3
72
8
73
4
40
0
40
0
40
0
40
0
40
1
40
1
40
1
40
1
41
1
10
17.4495574936458
20
21.2549759673791
30
0
41
1
10
17.4419789771171
20
21.2849367393136
30
0
41
1
10
17.4355054292484
20
21.3129189568482
30
0
41
1
10
17.4303191742212
20
21.3388478541342
30
0
0
SPLINE
5
196
100
AcDbEntity
8
1
62
256
6
ByLayer
370
18
48
1
60
0
100
AcDbSpline
70
4
71
3
72
10
73
6
40
0
40
0
40
0
40
0
40
0.171329975537058
40
0.585664987768529
40
1
40
1
40
1
40
1
41
1
10
35.2064333391272
20
-0.782469944690547
30
0
41
1
10
34.9413547391237
20
-0.766551690173259
30
0
41
1
10
34.0158971557467
20
-0.634318395540987
30
0
41
1
10
32.3665911982205
20
0.0698621806660071
30
0
41
1
10
31.0970923421262
20
1.27734723765332
30
0
41
1
10
30.5628590824079
20
2.03741883273764
30
0
0
SPLINE
5
197
100
AcDbEntity
8
1
62
256
6
ByLayer
370
18
48
1
60
0
100
AcDbSpline
70
4
71
3
72
10
73
6
40
0
40
0
40
0
40
0
40
0.390699660137824
40
0.390699660137824
40
1
40
1
40
1
40
1
41
1
10
8.53867513459483
20
17.3301020066932
30
0
41
1
10
8.45606980790453
20
17.39348204405
30
0
41
1
10
8.38298095223729
20
17.4778806824472
30
0
41
1
10
8.2261467652954
20
17.7138050834476
30
0
41
1
10
8.15491942224403
20
17.8808201081295
30
0
41
1
10
8.10566243270256
20
18.0555297374794
30
0
0
SPLINE
5
198
100
AcDbEntity
8
1
62
256
6
ByLayer
370
18
48
1
60
0
100
AcDbSpline
70
4
71
3
72
10
73
6
40
0
40
0
40
0
40
0
40
0.133526170969304
40
0.566763085484652
40
1
40
1
40
1
40
1
41
1
10
34.9278065882621
20
-0.814867815487816
30
0
41
1
10
34.7281902326574
20
-0.794302717839457
30
0
41
1
10
33.868884041158
20
-0.652602884465722
30
0
41
1
10
32.2915364486762
20
0.0208546577713946
30
0
41
1
10
31.0220375925818
20
1.2283397147587
30
0
41
1
10
30.4878043328636
20
1.98841130984303
30
0
0
SPLINE
5
199
100
AcDbEntity
8
1
62
256
6
ByLayer
370
18
48
1
60
0
100
AcDbSpline
70
4
71
1
72
4
73
2
40
0
40
0
40
1
40
1
41
1
10
21.2892318538539
20
15.0734945210829
30
0
41
1
10
21.2141771043096
20
15.0244869981883
30
0
0
SPLINE
5
19A
100
AcDbEntity
8
1
62
256
6
ByLayer
370
18
48
1
60
0
100
AcDbSpline
70
4
71
3
72
8
73
4
40
0
40
0
40
0
40
0
40
1
40
1
40
1
40
1
41
1
10
35.2064333387052
20
-0.782469944665195
30
0
41
1
10
36.6215796933951
20
-0.592711478364009
30
0
41
1
10
37.9181292169954
20
0.225909979445561
30
0
41
1
10
38.640764175468
20
1.45981105798833
30
0
0
SPLINE
5
19B
100
AcDbEntity
8
1
62
256
6
ByLayer
370
18
48
1
60
0
100
AcDbSpline
70
4
71
3
72
8
73
4
40
0
40
0
40
0
40
0
40
1
40
1
40
1
40
1
41
1.02613459695995
10
26.1002587885722
20
20.9074494137863
30
0
41
1.02613459695995
10
25.8816546260319
20
20.7477668420387
30
0
41
1.02613459695995
10
25.679372539715
20
20.5643636752135
30
0
41
1.02613459695995
10
25.4958900874568
20
20.359395049294
30
0
0
SPLINE
5
19C
100
AcDbEntity
8
1
62
256
6
ByLayer
370
18
48
1
60
0
100
AcDbSpline
70
4
71
3
72
9
73
5
40
0
40
0
40
0
40
0
40
0.959880295395888
40
1
40
1
40
1
40
1
41
1.02613459695995
10
25.3180900918737
20
20.146449881417
30
0
41
1.02613459695995
10
24.9989696502967
20
19.736545491732
30
0
41
1.02613459695995
10
24.7380452508631
20
19.2335446878531
30
0
41
1.02613459695995
10
24.5692381834266
20
18.6667087725735
30
0
41
1.02613459695995
10
24.5626152309229
20
18.6438659310778
30
0
0
SPLINE
5
19D
100
AcDbEntity
8
1
62
256
6
ByLayer
370
18
48
1
60
0
100
AcDbSpline
70
4
71
3
72
10
73
6
40
0
40
0
40
0
40
0
40
0.0912060282616312
40
0.545603014130816
40
1
40
1
40
1
40
1
41
1.02613459695995
10
34.6429080728922
20
-0.837660493444523
30
0
41
1.02613459695995
10
34.5116937899893
20
-0.818404917692595
30
0
41
1.02613459695995
10
33.7203763668702
20
-0.670249262610991
30
0
41
1.02613459695995
10
32.2164816991318
20
-0.0281528651232229
30
0
41
1.02613459695995
10
30.9469828430375
20
1.17933219186405
30
0
41
1.02613459695995
10
30.4127495833192
20
1.93940378694841
30
0
0
SPLINE
5
19E
100
AcDbEntity
8
1
62
256
6
ByLayer
370
18
48
1
60
0
100
AcDbSpline
70
4
71
3
72
12
73
8
40
0
40
0
40
0
40
0
40
0.262400460878999
40
0.262400460878999
40
0.524800860614516
40
0.524800860614516
40
1
40
1
40
1
40
1
41
1
10
34.6429080728898
20
-0.837660493444133
30
0
41
1
10
34.6678612056904
20
-0.836125600889829
30
0
41
1
10
34.6928071633952
20
-0.83446930044272
30
0
41
1
10
34.7426813006075
20
-0.83091556802043
30
0
41
1
10
34.767610063268
20
-0.829018094618931
30
0
41
1
10
34.8376548057496
20
-0.823347804612752
30
0
41
1
10
34.8827506460696
20
-0.819301773994084
30
0
41
1
10
34.9278065871942
20
-0.814867817312802
30
0
0
SPLINE
5
19F
100
AcDbEntity
8
1
62
256
6
ByLayer
370
18
48
1
60
0
100
AcDbSpline
70
4
71
3
72
8
73
4
40
0
40
0
40
0
40
0
40
1
40
1
40
1
40
1
41
1
10
19.1736060873349
20
17.1984704840673
30
0
41
1
10
19.2006012982176
20
15.8447514359268
30
0
41
1
10
19.5397676740085
20
14.4681857094244
30
0
41
1
10
20.4675744428506
20
13.4856961687033
30
0
0
SPLINE
5
1A0
100
AcDbEntity
8
1
62
256
6
ByLayer
370
18
48
1
60
0
100
AcDbSpline
70
4
71
3
72
16
73
12
40
0
40
0
40
0
40
0
40
0.461208588217088
40
0.461208588217088
40
0.643534962278544
40
0.643534962278544
40
0.82840847297529
40
0.82840847297529
40
0.943003644159989
40
0.943003644159989
40
1
40
1
40
1
40
1
41
1
10
8.10566243270262
20
8.05584836782774
30
0
41
1
10
8.13394960848487
20
7.95080268681445
30
0
41
1
10
8.17266608070923
20
7.84628670970801
30
0
41
1
10
8.25268397516848
20
7.71442469145123
30
0
41
1
10
8.27872153625231
20
7.67825379650728
30
0
41
1
10
8.33934560108361
20
7.61290523367228
30
0
41
1
10
8.37482777731262
20
7.5830592305141
30
0
41
1
10
8.44007741480422
20
7.54855881865589
30
0
41
1
10
8.46752172250564
20
7.5385201810229
30
0
41
1
10
8.50983152523006
20
7.53097042135255
30
0
41
1
10
8.5242826069246
20
7.52966679426473
30
0
41
1
10
8.53867513459474
20
7.52966679426473
30
0
0
SPLINE
5
1A1
100
AcDbEntity
8
1
62
256
6
ByLayer
370
18
48
1
60
0
100
AcDbSpline
70
4
71
3
72
8
73
4
40
0
40
0
40
0
40
0
40
1
40
1
40
1
40
1
41
1
10
22.7084948470456
20
31.3570476234767
30
0
41
1
10
22.4978210948174
20
30.5476821630526
30
0
41
1
10
22.2877150412621
20
29.7381628353085
30
0
41
1
10
22.0783252273575
20
28.9284512146501
30
0
0
SPLINE
5
1A2
100
AcDbEntity
8
1
62
256
6
ByLayer
370
18
48
1
60
0
100
AcDbSpline
70
4
71
2
72
6
73
3
40
0
40
0
40
0
40
1
40
1
40
1
41
1
10
21.2141771043096
20
15.0244869981883
30
0
41
1
10
20.4699897884468
20
14.5385646929187
30
0
41
1
10
20.4504895728897
20
13.4991207426308
30
0
0
SPLINE
5
1A3
100
AcDbEntity
8
1
62
256
6
ByLayer
370
18
48
1
60
0
100
AcDbSpline
70
4
71
3
72
16
73
12
40
0
40
0
40
0
40
0
40
0.461208588217066
40
0.461208588217066
40
0.643534962278522
40
0.643534962278522
40
0.828408472975271
40
0.828408472975271
40
0.943003644159981
40
0.943003644159981
40
1
40
1
40
1
40
1
41
1
10
11.8943375672974
20
-8.05584836782774
30
0
41
1
10
11.8660503915152
20
-7.95080268681445
30
0
41
1
10
11.8273339192908
20
-7.84628670970801
30
0
41
1
10
11.7473160248315
20
-7.71442469145123
30
0
41
1
10
11.7212784637477
20
-7.67825379650728
30
0
41
1
10
11.6606543989164
20
-7.61290523367228
30
0
41
1
10
11.6251722226874
20
-7.58305923051407
30
0
41
1
10
11.5599225851958
20
-7.54855881865589
30
0
41
1
10
11.5324782774944
20
-7.5385201810229
30
0
41
1
10
11.4901684747699
20
-7.53097042135255
30
0
41
1
10
11.4757173930754
20
-7.5296667942647
30
0
41
1
10
11.4613248654053
20
-7.5296667942647
30
0
0
SPLINE
5
1A4
100
AcDbEntity
8
1
62
256
6
ByLayer
370
18
48
1
60
0
100
AcDbSpline
70
4
71
2
72
6
73
3
40
0
40
0
40
0
40
1
40
1
40
1
41
1
10
30.562859082408
20
2.03741883273767
30
0
41
1
10
30.8367262178712
20
2.21624229151644
30
0
41
1
10
31.0131248037595
20
2.50277565628795
30
0
0
SPLINE
5
1A5
100
AcDbEntity
8
1
62
256
6
ByLayer
370
18
48
1
60
0
100
AcDbSpline
70
4
71
3
72
8
73
4
40
0
40
0
40
0
40
0
40
1
40
1
40
1
40
1
41
1
10
22.511784511413
20
30.9095799811706
30
0
41
1
10
22.5465192755785
20
31.0556672831129
30
0
41
1
10
22.6114685796544
20
31.2047613842093
30
0
41
1
10
22.7084948470456
20
31.3570476234767
30
0
0
SPLINE
5
1A6
100
AcDbEntity
8
1
62
256
6
ByLayer
370
18
48
1
60
0
100
AcDbSpline
70
4
71
3
72
16
73
12
40
0
40
0
40
0
40
0
40
0.111430279628052
40
0.111430279628052
40
0.248747543515474
40
0.248747543515474
40
0.465535329195271
40
0.465535329195271
40
0.883855351867598
40
0.883855351867598
40
1
40
1
40
1
40
1
41
1
10
11.4613248654052
20
-23.8391299750503
30
0
41
1
10
11.4891847159942
20
-23.8391299750503
30
0
41
1
10
11.5173911427755
20
-23.8375361275706
30
0
41
1
10
11.5758492032393
20
-23.831150658589
30
0
41
1
10
11.6060413892306
20
-23.825666877018
30
0
41
1
10
11.6751537543576
20
-23.8089605749788
30
0
41
1
10
11.7107854085705
20
-23.796037970776
30
0
41
1
10
11.798993890746
20
-23.7556824246832
30
0
41
1
10
11.8397320068509
20
-23.7250165399981
30
0
41
1
10
11.8792917015268
20
-23.6845451449633
30
0
41
1
10
11.8871615985731
20
-23.6755726082078
30
0
41
1
10
11.8943375672975
20
-23.6665017920809
30
0
0
SPLINE
5
1A7
100
AcDbEntity
8
1
62
256
6
ByLayer
370
18
48
1
60
0
100
AcDbSpline
70
4
71
3
72
16
73
12
40
0
40
0
40
0
40
0
40
0.11143027962805
40
0.11143027962805
40
0.248747543515472
40
0.248747543515472
40
0.465535329195252
40
0.465535329195252
40
0.88385535186756
40
0.88385535186756
40
1
40
1
40
1
40
1
41
1
10
8.53867513459483
20
23.8391299750503
30
0
41
1
10
8.51081528400579
20
23.8391299750503
30
0
41
1
10
8.48260885722448
20
23.8375361275706
30
0
41
1
10
8.42415079676073
20
23.831150658589
30
0
41
1
10
8.39395861076943
20
23.825666877018
30
0
41
1
10
8.32484624564245
20
23.8089605749788
30
0
41
1
10
8.28921459142956
20
23.796037970776
30
0
41
1
10
8.201006109254
20
23.7556824246832
30
0
41
1
10
8.16026799314912
20
23.7250165399981
30
0
41
1
10
8.1207082984732
20
23.6845451449633
30
0
41
1
10
8.1128384014269
20
23.6755726082077
30
0
41
1
10
8.10566243270245
20
23.6665017920809
30
0
0
SPLINE
5
1A8
100
AcDbEntity
8
1
62
256
6
ByLayer
370
18
48
1
60
0
100
AcDbSpline
70
4
71
3
72
14
73
10
40
0
40
0
40
0
40
0
40
0.257146777765879
40
0.257146777765879
40
0.515043459777444
40
0.515043459777444
40
0.762218147059628
40
0.762218147059628
40
1
40
1
40
1
40
1
41
1
10
17.4303191742212
20
-23.4553549429959
30
0
41
1
10
17.4691434490962
20
-23.6190346355062
30
0
41
1
10
17.5852680371713
20
-23.7696203769467
30
0
41
1
10
17.9643662295079
20
-24.0254564367266
30
0
41
1
10
18.233500730627
20
-24.1343161849438
30
0
41
1
10
18.8755030997166
20
-24.301589819967
30
0
41
1
10
19.2526493539829
20
-24.3645598084091
30
0
41
1
10
20.053239606227
20
-24.4510990768829
30
0
41
1
10
20.4852178413433
20
-24.4774760852936
30
0
41
1
10
20.92079238
20
-24.4886190390076
30
0
0
SPLINE
5
1A9
100
AcDbEntity
8
1
62
256
6
ByLayer
370
18
48
1
60
0
100
AcDbSpline
70
4
71
3
72
8
73
4
40
0
40
0
40
0
40
0
40
1
40
1
40
1
40
1
41
1
10
21.4150979665882
20
-24.6479715189708
30
0
41
1
10
21.2634715016933
20
-24.6479715189708
30
0
41
1
10
21.1115905576073
20
-24.6462211497246
30
0
41
1
10
20.9609847588647
20
-24.6427113305059
30
0
0
SPLINE
5
1AA
100
AcDbEntity
8
1
62
256
6
ByLayer
370
18
48
1
60
0
100
AcDbSpline
70
4
71
3
72
10
73
6
40
0
40
0
40
0
40
0
40
0.569662971760365
40
0.569662971760365
40
1
40
1
40
1
40
1
41
1
10
8.10566243270259
20
18.9753212643828
30
0
41
1
10
8.15441862226714
20
19.0088414625798
30
0
41
1
10
8.22370629390966
20
19.0604238505184
30
0
41
1
10
8.37658822414471
20
19.1687173120905
30
0
41
1
10
8.45446449409374
20
19.2234193219803
30
0
41
1
10
8.53867513459483
20
19.2880310577442
30
0
0
SPLINE
5
1AB
100
AcDbEntity
8
1
62
256
6
ByLayer
370
18
48
1
60
0
100
AcDbSpline
70
4
71
2
72
6
73
3
40
0
40
0
40
0
40
1
40
1
40
1
41
1
10
30.5628590824079
20
2.03741883273764
30
0
41
1
10
30.5253317076358
20
2.01291507129034
30
0
41
1
10
30.4878043328636
20
1.98841130984303
30
0
0
SPLINE
5
1AC
100
AcDbEntity
8
1
62
256
6
ByLayer
370
18
48
1
60
0
100
AcDbSpline
70
4
71
3
72
10
73
6
40
0
40
0
40
0
40
0
40
0.539719091383329
40
0.539719091383329
40
1
40
1
40
1
40
1
41
1
10
11.8943375672974
20
18.0555297374795
30
0
41
1
10
11.8505865771285
20
17.9003493387736
30
0
41
1
10
11.7896099247477
20
17.7517913508358
30
0
41
1
10
11.6420402748372
20
17.507646375978
30
0
41
1
10
11.5582831583753
20
17.4044945486358
30
0
41
1
10
11.4613248654053
20
17.3301020066931
30
0
0
SPLINE
5
1AD
100
AcDbEntity
8
1
62
256
6
ByLayer
370
18
48
1
60
0
100
AcDbSpline
70
4
71
3
72
9
73
5
40
0
40
0
40
0
40
0
40
0.1578692536169
40
1
40
1
40
1
40
1
41
1
10
20.0945008174144
20
17.856863260525
30
0
41
1
10
20.1222770897014
20
17.7126657276903
30
0
41
1
10
20.3309871832382
20
16.7917762173004
30
0
41
1
10
20.7548888867731
20
15.8334858354473
30
0
41
1
10
21.2892318538539
20
15.0734945210829
30
0
0
SPLINE
5
1AE
100
AcDbEntity
8
1
62
256
6
ByLayer
370
18
48
1
60
0
100
AcDbSpline
70
4
71
2
72
6
73
3
40
0
40
0
40
0
40
1
40
1
40
1
41
1
10
30.4878043328636
20
1.98841130984303
30
0
41
1
10
30.4502769580914
20
1.96390754839572
30
0
41
1
10
30.4127495833192
20
1.93940378694842
30
0
0
SPLINE
5
1AF
100
AcDbEntity
8
1
62
256
6
ByLayer
370
18
48
1
60
0
100
AcDbSpline
70
4
71
2
72
6
73
3
40
0
40
0
40
0
40
1
40
1
40
1
41
1
10
21.9786135546204
20
15.3528103062943
30
0
41
1
10
21.6377285056453
20
15.3010478437579
30
0
41
1
10
21.3642866033983
20
15.1225020439775
30
0
0
SPLINE
5
1B0
100
AcDbEntity
8
1
62
256
6
ByLayer
370
18
48
1
60
0
100
AcDbSpline
70
4
71
3
72
8
73
4
40
0
40
0
40
0
40
0
40
1
40
1
40
1
40
1
41
1
10
21.4150979665882
20
26.3750235579347
30
0
41
1
10
21.5036689827674
20
26.7114623489928
30
0
41
1
10
21.5922950052109
20
27.0478870434361
30
0
41
1
10
21.6809703424936
20
27.3842990998227
30
0
0
SPLINE
5
1B1
100
AcDbEntity
8
1
62
256
6
ByLayer
370
18
48
1
60
0
100
AcDbSpline
70
4
71
1
72
4
73
2
40
0
40
0
40
1
40
1
41
1
10
21.3642866033983
20
15.1225020439775
30
0
41
1
10
21.2892318538539
20
15.0734945210829
30
0
0
SPLINE
5
1B2
100
AcDbEntity
8
1
62
256
6
ByLayer
370
18
48
1
60
0
100
AcDbSpline
70
4
71
3
72
12
73
8
40
0
40
0
40
0
40
0
40
0.267364247473524
40
0.267364247473524
40
0.534728442064798
40
0.534728442064798
40
1
40
1
40
1
40
1
41
1
10
34.9278065870363
20
-0.814867815361538
30
0
41
1
10
34.9526866829335
20
-0.812419364294101
30
0
41
1
10
34.9775554116258
20
-0.809852550408493
30
0
41
1
10
35.0272669148411
20
-0.804483894619324
30
0
41
1
10
35.0521102454697
20
-0.801681994726522
30
0
41
1
10
35.1201470229921
20
-0.793684459733555
30
0
41
1
10
35.1633143299609
20
-0.788251818621404
30
0
41
1
10
35.2064333387771
20
-0.782469945276887
30
0
0
SPLINE
5
1B3
100
AcDbEntity
8
1
62
256
6
ByLayer
370
18
48
1
60
0
100
AcDbSpline
70
4
71
3
72
16
73
12
40
0
40
0
40
0
40
0
40
0.461208588217085
40
0.461208588217085
40
0.643534962278541
40
0.643534962278541
40
0.828408472975291
40
0.828408472975291
40
0.943003644159993
40
0.943003644159993
40
1
40
1
40
1
40
1
41
1
10
11.8943375672974
20
23.6665017920809
30
0
41
1
10
11.8660503915152
20
23.7022583261632
30
0
41
1
10
11.8273339192908
20
23.7370095736338
30
0
41
1
10
11.7473160248315
20
23.7800170858174
30
0
41
1
10
11.7212784637477
20
23.7917125768793
30
0
41
1
10
11.6606543989164
20
23.8127037684951
30
0
41
1
10
11.6251722226874
20
23.8222104320954
30
0
41
1
10
11.5599225851958
20
23.8331586856493
30
0
41
1
10
11.5324782774944
20
23.836332378473
30
0
41
1
10
11.4901684747699
20
23.8387183279986
30
0
41
1
10
11.4757173930754
20
23.8391299750505
30
0
41
1
10
11.4613248654053
20
23.8391299750505
30
0
0
SPLINE
5
1B4
100
AcDbEntity
8
1
62
256
6
ByLayer
370
18
48
1
60
0
100
AcDbSpline
70
4
71
3
72
8
73
4
40
0
40
0
40
0
40
0
40
1
40
1
40
1
40
1
41
1
10
22.0783252273575
20
28.9284512146501
30
0
41
1
10
21.9449844527895
20
28.4128216686756
30
0
41
1
10
21.812487114003
20
27.8981147124343
30
0
41
1
10
21.6809703424936
20
27.3842990998227
30
0
0
SPLINE
5
1B5
100
AcDbEntity
8
1
62
256
6
ByLayer
370
18
48
1
60
0
100
AcDbSpline
70
4
71
3
72
8
73
4
40
0
40
0
40
0
40
0
40
1
40
1
40
1
40
1
41
1
10
25.0219404040407
20
22.0870050348456
30
0
41
1
10
25.4171652081582
20
21.7527398878502
30
0
41
1
10
25.7876114585644
20
21.3521941106682
30
0
41
1
10
26.1002587885722
20
20.9074494137862
30
0
0
SPLINE
5
1B6
100
AcDbEntity
8
1
62
256
6
ByLayer
370
18
48
1
60
0
100
AcDbSpline
70
4
71
3
72
9
73
5
40
0
40
0
40
0
40
0
40
0.160247484322834
40
1
40
1
40
1
40
1
41
1.02613459695995
10
20.0179562013725
20
17.8156149960478
30
0
41
1.02613459695995
10
20.0460419065071
20
17.6688739361369
30
0
41
1.02613459695995
10
20.2547319180315
20
16.74548263163
30
0
41
1.02613459695995
10
20.6798341372287
20
15.7844783125527
30
0
41
1.02613459695995
10
21.2141771043096
20
15.0244869981882
30
0
0
SPLINE
5
1B7
100
AcDbEntity
8
1
62
256
6
ByLayer
370
18
48
1
60
0
100
AcDbSpline
70
4
71
3
72
8
73
4
40
0
40
0
40
0
40
0
40
1
40
1
40
1
40
1
41
1
10
20.9609847588647
20
-24.6427113305059
30
0
41
1
10
20.9475812745097
20
-24.5913467317342
30
0
41
1
10
20.934183755441
20
-24.5399825588158
30
0
41
1
10
20.92079238
20
-24.4886190390076
30
0
0
SPLINE
5
1B8
100
AcDbEntity
8
1
62
256
6
ByLayer
370
18
48
1
60
0
100
AcDbSpline
70
4
71
3
72
16
73
12
40
0
40
0
40
0
40
0
40
0.111430279628047
40
0.111430279628047
40
0.248747543515467
40
0.248747543515467
40
0.465535329195252
40
0.465535329195252
40
0.883855351867553
40
0.883855351867553
40
1
40
1
40
1
40
1
41
1
10
8.53867513459483
20
-7.52966679426501
30
0
41
1
10
8.51081528400579
20
-7.52966679426501
30
0
41
1
10
8.48260885722448
20
-7.53471706780857
30
0
41
1
10
8.42415079676073
20
-7.55489210221029
30
0
41
1
10
8.39395861076943
20
-7.57218953888446
30
0
41
1
10
8.32484624564245
20
-7.62460019394089
30
0
41
1
10
8.28921459142956
20
-7.66489294253907
30
0
41
1
10
8.201006109254
20
-7.78941367630352
30
0
41
1
10
8.16026799314912
20
-7.88247511004147
30
0
41
1
10
8.12070829847318
20
-8.00269269538009
30
0
41
1
10
8.11283840142687
20
-8.02920008991578
30
0
41
1
10
8.10566243270245
20
-8.05584836782771
30
0
0
SPLINE
5
1B9
100
AcDbEntity
8
1
62
256
6
ByLayer
370
18
48
1
60
0
100
AcDbSpline
70
4
71
3
72
16
73
12
40
0
40
0
40
0
40
0
40
0.111430279628047
40
0.111430279628047
40
0.248747543515475
40
0.248747543515475
40
0.465535329195272
40
0.465535329195272
40
0.883855351867603
40
0.883855351867603
40
1
40
1
40
1
40
1
41
1
10
11.4613248654052
20
7.52966679426504
30
0
41
1
10
11.4891847159942
20
7.52966679426504
30
0
41
1
10
11.5173911427755
20
7.53471706780854
30
0
41
1
10
11.5758492032393
20
7.55489210221029
30
0
41
1
10
11.6060413892306
20
7.57218953888446
30
0
41
1
10
11.6751537543576
20
7.62460019394089
30
0
41
1
10
11.7107854085705
20
7.66489294253907
30
0
41
1
10
11.798993890746
20
7.78941367630352
30
0
41
1
10
11.8397320068509
20
7.8824751100415
30
0
41
1
10
11.8792917015268
20
8.00269269538009
30
0
41
1
10
11.8871615985731
20
8.02920008991578
30
0
41
1
10
11.8943375672975
20
8.05584836782771
30
0
0
SPLINE
5
1BA
100
AcDbEntity
8
1
62
256
6
ByLayer
370
18
48
1
60
0
100
AcDbSpline
70
4
71
3
72
10
73
6
40
0
40
0
40
0
40
0
40
0.434790140770694
40
0.434790140770694
40
1
40
1
40
1
40
1
41
1
10
11.4613248654052
20
19.2880310577442
30
0
41
1
10
11.5463855142922
20
19.2227671417225
30
0
41
1
10
11.6249791044128
20
19.1676067502435
30
0
41
1
10
11.777364361007
20
19.0596659241482
30
0
41
1
10
11.8459532322554
20
19.0085858101699
30
0
41
1
10
11.8943375672975
20
18.9753212643807
30
0
0
SPLINE
5
1BB
100
AcDbEntity
8
1
62
256
6
ByLayer
370
18
48
1
60
0
100
AcDbSpline
70
4
71
3
72
8
73
4
40
0
40
0
40
0
40
0
40
1
40
1
40
1
40
1
41
1
10
20.92079238
20
24.4886190390076
30
0
41
1
10
21.0847242867994
20
25.1173908764621
30
0
41
1
10
21.2495887675166
20
25.7463335276432
30
0
41
1
10
21.4150979665882
20
26.3750235579347
30
0
0
SPLINE
5
1BC
100
AcDbEntity
8
1
62
256
6
ByLayer
370
18
48
1
60
0
100
AcDbSpline
70
4
71
2
72
7
73
4
40
0
40
0
40
0
40
0.00647078755704
40
1
40
1
40
1
41
1
10
29.1890887635376
20
1.7108139006674
30
0
41
1
10
29.193736116525
20
1.71016303204647
30
0
41
1
10
29.9116535878269
20
1.61220965705564
30
0
41
1
10
30.4127495833192
20
1.93940378694839
30
0
0
SPLINE
5
1BD
100
AcDbEntity
8
1
62
256
6
ByLayer
370
18
48
1
60
0
100
AcDbSpline
70
4
71
3
72
10
73
6
40
0
40
0
40
0
40
0
40
0.537616842495244
40
0.537616842495244
40
1
40
1
40
1
40
1
41
1
10
36.8154293265573
20
17.6172881120645
30
0
41
1
10
36.8122274052708
20
17.628681407144
30
0
41
1
10
36.808850058567
20
17.6396754443046
30
0
41
1
10
36.8023427164803
20
17.6593559746979
30
0
41
1
10
36.7992371949993
20
17.6681713391388
30
0
41
1
10
36.7960602474607
20
17.6767077670416
30
0
0
SPLINE
5
1BE
100
AcDbEntity
8
1
62
256
6
ByLayer
370
18
48
1
60
0
100
AcDbSpline
70
4
71
3
72
10
73
6
40
0
40
0
40
0
40
0
40
0.355593196477884
40
0.355593196477884
40
1
40
1
40
1
40
1
41
1
10
39.5945512063296
20
17.9063650003816
30
0
41
1
10
39.5920732715263
20
17.8993828751025
30
0
41
1
10
39.5897024836558
20
17.8922486518251
30
0
41
1
10
39.5834083222317
20
17.8718015589868
30
0
41
1
10
39.579758871433
20
17.8580967396987
30
0
41
1
10
39.5766673992494
20
17.8438881996311
30
0
0
SPLINE
5
1BF
100
AcDbEntity
8
1
62
256
6
ByLayer
370
18
48
1
60
0
100
AcDbSpline
70
4
71
3
72
10
73
6
40
0
40
0
40
0
40
0
40
0.276054056491996
40
0.276054056491996
40
1
40
1
40
1
40
1
41
1
10
37.5129965795665
20
16.4046590124259
30
0
41
1
10
37.507601241201
20
16.4060848970983
30
0
41
1
10
37.5023002497217
20
16.4074094404147
30
0
41
1
10
37.4835207821637
20
16.4118467527528
30
0
41
1
10
37.4705691978878
20
16.4144182314791
30
0
41
1
10
37.4582255527473
20
16.4164654462857
30
0
0
SPLINE
5
1C0
100
AcDbEntity
8
1
62
256
6
ByLayer
370
18
48
1
60
0
100
AcDbSpline
70
4
71
3
72
10
73
6
40
0
40
0
40
0
40
0
40
0.201157530231528
40
0.201157530231528
40
1
40
1
40
1
40
1
41
1
10
38.6320884447919
20
18.957176214305
30
0
41
1
10
38.6343653219599
20
18.9540714237505
30
0
41
1
10
38.6367080793304
20
18.9509700606067
30
0
41
1
10
38.648650227751
20
18.9356425514987
30
0
41
1
10
38.6592981417526
20
18.9234478912732
30
0
41
1
10
38.6712332711562
20
18.911548406548
30
0
0
SPLINE
5
1C1
100
AcDbEntity
8
1
62
256
6
ByLayer
370
18
48
1
60
0
100
AcDbSpline
70
4
71
3
72
10
73
6
40
0
40
0
40
0
40
0
40
0.537616842494904
40
0.537616842494904
40
1
40
1
40
1
40
1
41
1
10
39.600255214382
20
17.590003192884
30
0
41
1
10
39.6048675369982
20
17.5800202991342
30
0
41
1
10
39.6097869764536
20
17.5705683547252
30
0
41
1
10
39.6193354975562
20
17.5539290033479
30
0
41
1
10
39.6239192459435
20
17.5465918658133
30
0
41
1
10
39.6286276356851
20
17.5395868801134
30
0
0
SPLINE
5
1C2
100
AcDbEntity
8
1
62
256
6
ByLayer
370
18
48
1
60
0
100
AcDbSpline
70
4
71
3
72
10
73
6
40
0
40
0
40
0
40
0
40
0.230438518716718
40
0.230438518716718
40
1
40
1
40
1
40
1
41
1
10
37.5102750174602
20
18.8162747521134
30
0
41
1
10
37.5136969968243
20
18.8202808123166
30
0
41
1
10
37.517033373205
20
18.8242945415844
30
0
41
1
10
37.5311228881549
20
18.84168545985
30
0
41
1
10
37.541055289081
20
18.8551011199237
30
0
41
1
10
37.550178636292
20
18.8683896443346
30
0
0
SPLINE
5
1C3
100
AcDbEntity
8
1
62
256
6
ByLayer
370
18
48
1
60
0
100
AcDbSpline
70
4
71
3
72
10
73
6
40
0
40
0
40
0
40
0
40
0.20115753023175
40
0.20115753023175
40
1
40
1
40
1
40
1
41
1
10
37.792599438353
20
16.2591184328492
30
0
41
1
10
37.7896541672858
20
16.2615548295045
30
0
41
1
10
37.7866533419662
20
16.2639981246991
30
0
41
1
10
37.7715107454414
20
16.2761251857029
30
0
41
1
10
37.7584796086601
20
16.2859366231486
30
0
41
1
10
37.744451269783
20
16.2957428984005
30
0
0
SPLINE
5
1C4
100
AcDbEntity
8
1
62
256
6
ByLayer
370
18
48
1
60
0
100
AcDbSpline
70
4
71
3
72
10
73
6
40
0
40
0
40
0
40
0
40
0.230438518716759
40
0.230438518716759
40
1
40
1
40
1
40
1
41
1
10
38.9054095234788
20
16.3910165528348
30
0
41
1
10
38.9025930056092
20
16.3876159541261
30
0
41
1
10
38.8998862454623
20
16.3842318410923
30
0
41
1
10
38.8886148587362
20
16.3696590510503
30
0
41
1
10
38.8810862843949
20
16.3586472175615
30
0
41
1
10
38.8745092468523
20
16.347905002819
30
0
0
SPLINE
5
1C5
100
AcDbEntity
8
1
62
256
6
ByLayer
370
18
48
1
60
0
100
AcDbSpline
70
4
71
3
72
10
73
6
40
0
40
0
40
0
40
0
40
0.276054056492371
40
0.276054056492371
40
1
40
1
40
1
40
1
41
1
10
38.9026879613724
20
18.8026322925223
30
0
41
1
10
38.9088102311997
20
18.8019333393116
30
0
41
1
10
38.9148730105485
20
18.8013705838647
30
0
41
1
10
38.9365069658629
20
18.7997877592831
30
0
41
1
10
38.9517253228819
20
18.7994830532999
30
0
41
1
10
38.9664623303985
20
18.7998292008693
30
0
0
SPLINE
5
1C6
100
AcDbEntity
8
1
62
256
6
ByLayer
370
18
48
1
60
0
100
AcDbSpline
70
4
71
3
72
10
73
6
40
0
40
0
40
0
40
0
40
0.355593196477755
40
0.355593196477755
40
1
40
1
40
1
40
1
41
1
10
36.8301366768138
20
17.3099296467711
30
0
41
1
10
36.8314345351864
20
17.3157316956196
30
0
41
1
10
36.8326571109134
20
17.3217177067533
30
0
41
1
10
36.8358421583846
20
17.3390556856388
30
0
41
1
10
36.8376142267554
20
17.350883122499
30
0
41
1
10
36.8390171416899
20
17.3634031053173
30
0
0
SPLINE
5
1C7
100
AcDbEntity
8
1
62
256
6
ByLayer
370
18
48
1
60
0
100
AcDbSpline
70
4
71
3
72
10
73
6
40
0
40
0
40
0
40
0
40
0.769561481283321
40
0.769561481283321
40
1
40
1
40
1
40
1
41
1
10
39.1748067031145
20
16.5573361096478
30
0
41
1
10
39.1595128064316
20
16.5528252682397
30
0
41
1
10
39.1438018996422
20
16.5476296042829
30
0
41
1
10
39.1229778496419
20
16.5398186454864
30
0
41
1
10
39.118139870202
20
16.537940965157
30
0
41
1
10
39.1132763985629
20
16.5359854455579
30
0
0
SPLINE
5
1C8
100
AcDbEntity
8
1
62
256
6
ByLayer
370
18
48
1
60
0
100
AcDbSpline
70
4
71
3
72
10
73
6
40
0
40
0
40
0
40
0
40
0.769561481283258
40
0.769561481283258
40
1
40
1
40
1
40
1
41
1
10
37.2498811800298
20
18.6589585375059
30
0
41
1
10
37.2626287670444
20
18.6609230692455
30
0
41
1
10
37.2759358472489
20
18.6637149066175
30
0
41
1
10
37.2939417690255
20
18.6687077371902
30
0
41
1
10
37.2981501322314
20
18.6699558012857
30
0
41
1
10
37.3024081423761
20
18.6713058593903
30
0
0
SPLINE
5
1C9
100
AcDbEntity
8
1
62
256
6
ByLayer
370
18
48
1
60
0
100
AcDbSpline
70
4
71
3
72
16
73
12
40
0
40
0
40
0
40
0
40
0.151731214193994
40
0.151731214193994
40
0.338643884906094
40
0.338643884906094
40
0.666881577663752
40
0.666881577663752
40
0.994651234683088
40
0.994651234683088
40
1
40
1
40
1
40
1
41
1
10
46.2121662287996
20
29.2735769924686
30
0
41
1
10
46.177359965623
20
29.2652451158142
30
0
41
1
10
46.1402622518098
20
29.2586464555974
30
0
41
1
10
46.0600859135768
20
29.2483581963274
30
0
41
1
10
46.0162973270067
20
29.2454727115467
30
0
41
1
10
45.9041472150223
20
29.2431544823414
30
0
41
1
10
45.8405292561328
20
29.2478935392201
30
0
41
1
10
45.7160632142973
20
29.2572881472574
30
0
41
1
10
45.6500735891083
20
29.2610129992627
30
0
41
1
10
45.5750538614217
20
29.256756061105
30
0
41
1
10
45.5738396491591
20
29.2566837948673
30
0
41
1
10
45.5726270096707
20
29.2566133012124
30
0
0
SPLINE
5
1CA
100
AcDbEntity
8
1
62
256
6
ByLayer
370
18
48
1
60
0
100
AcDbSpline
70
4
71
3
72
8
73
4
40
0
40
0
40
0
40
0
40
1
40
1
40
1
40
1
41
1
10
24.1982293068934
20
17.636064782471
30
0
41
1
10
24.1928070637513
20
17.6664001656582
30
0
41
1
10
24.1867803479581
20
17.6923173233766
30
0
41
1
10
24.179185852834
20
17.7129522054274
30
0
0
SPLINE
5
1CB
100
AcDbEntity
8
1
62
256
6
ByLayer
370
18
48
1
60
0
100
AcDbSpline
70
4
71
3
72
8
73
4
40
0
40
0
40
0
40
0
40
1
40
1
40
1
40
1
41
1
10
36.0253733539982
20
22.2891033264936
30
0
41
1
10
37.572653030907
20
23.3524059720148
30
0
41
1
10
39.743281704897
20
23.5715144464407
30
0
41
1
10
41.4154632449206
20
22.658736406959
30
0
0
SPLINE
5
1CC
100
AcDbEntity
8
1
62
256
6
ByLayer
370
18
48
1
60
0
100
AcDbSpline
70
4
71
3
72
8
73
4
40
0
40
0
40
0
40
0
40
1
40
1
40
1
40
1
41
1
10
36.0253733448604
20
22.2891033201957
30
0
41
1
10
36.017564007855
20
22.2837210392095
30
0
41
1
10
36.0097678789025
20
22.2783160061745
30
0
41
1
10
36.0019850072063
20
22.2728881365751
30
0
0
SPLINE
5
1CD
100
AcDbEntity
8
1
62
256
6
ByLayer
370
18
48
1
60
0
100
AcDbSpline
70
4
71
3
72
8
73
4
40
0
40
0
40
0
40
0
40
1
40
1
40
1
40
1
41
1
10
31.0967215255006
20
16.2508475913159
30
0
41
1
10
31.0812648420911
20
16.2400033608234
30
0
41
1
10
31.0658057530214
20
16.2291532897761
30
0
41
1
10
31.0503465574174
20
16.2182989956705
30
0
0
SPLINE
5
1CE
100
AcDbEntity
8
1
62
256
6
ByLayer
370
18
48
1
60
0
100
AcDbSpline
70
4
71
3
72
8
73
4
40
0
40
0
40
0
40
0
40
1
40
1
40
1
40
1
41
1.02317326254116
10
53.469182462118
20
24.9318544378482
30
0
41
1.02296676433018
10
54.1903973295488
20
26.0376130383446
30
0
41
1.0224839940336
10
54.8231695314548
20
27.069485056996
30
0
41
1.02237757420358
10
55.5253777449351
20
28.0534450535533
30
0
0
SPLINE
5
1CF
100
AcDbEntity
8
1
62
256
6
ByLayer
370
18
48
1
60
0
100
AcDbSpline
70
4
71
2
72
6
73
3
40
0
40
0
40
0
40
1
40
1
40
1
41
1.03601283770101
10
43.3161603937466
20
10.8745068182102
30
0
41
1.03601283770101
10
43.3341612050037
20
10.4822284196751
30
0
41
1.03601283770101
10
43.3521620162607
20
10.0899500211401
30
0
0
SPLINE
5
1D0
100
AcDbEntity
8
1
62
256
6
ByLayer
370
18
48
1
60
0
100
AcDbSpline
70
4
71
3
72
8
73
4
40
0
40
0
40
0
40
0
40
1
40
1
40
1
40
1
41
1
10
33.1532447801588
20
24.5980360316023
30
0
41
1
10
34.5674351901048
20
25.5659675965376
30
0
41
1
10
36.0024748904079
20
26.5501394437201
30
0
41
1
10
37.3461024965089
20
27.4631070347755
30
0
0
SPLINE
5
1D1
100
AcDbEntity
8
1
62
256
6
ByLayer
370
18
48
1
60
0
100
AcDbSpline
70
4
71
3
72
8
73
4
40
0
40
0
40
0
40
0
40
1
40
1
40
1
40
1
41
1
10
31.4639603269538
20
5.29935924012099
30
0
41
1
10
32.4629186942647
20
6.77553817586758
30
0
41
1
10
33.5106727506026
20
9.05836993236017
30
0
41
1
10
34.499811237046
20
11.3113927914555
30
0
0
SPLINE
5
1D2
100
AcDbEntity
8
1
62
256
6
ByLayer
370
18
48
1
60
0
100
AcDbSpline
70
4
71
3
72
9
73
5
40
0
40
0
40
0
40
0
40
0.787466588412849
40
1
40
1
40
1
40
1
41
1.03601283770101
10
33.7946873078068
20
24.418920139669
30
0
41
1.03551243927663
10
34.8722343273599
20
24.9784408577838
30
0
41
1.0330615841663
10
37.2616437277879
20
25.9198374663111
30
0
41
1.03000516837176
10
40.4126313322795
20
26.7274865422598
30
0
41
1.02936223451883
10
41.0803226637733
20
26.8909007436255
30
0
0
SPLINE
5
1D3
100
AcDbEntity
8
1
62
256
6
ByLayer
370
18
48
1
60
0
100
AcDbSpline
70
4
71
3
72
8
73
4
40
0
40
0
40
0
40
0
40
1
40
1
40
1
40
1
41
1
10
51.4463254975059
20
30.3358891209426
30
0
41
1
10
51.5305667010455
20
30.3422024825283
30
0
41
1
10
51.6148268606714
20
30.3483154956835
30
0
41
1
10
51.6991043491451
20
30.3542453588247
30
0
0
SPLINE
5
1D4
100
AcDbEntity
8
1
62
256
6
ByLayer
370
18
48
1
60
0
100
AcDbSpline
70
4
71
3
72
8
73
4
40
0
40
0
40
0
40
0
40
1
40
1
40
1
40
1
41
1.02317326254112
10
50.5144469428428
20
29.1350022883095
30
0
41
1.0229667643301
10
51.8161885661787
20
29.414954392584
30
0
41
1.0224839940336
10
53.0185686167973
20
29.6365521956011
30
0
41
1.02237757420358
10
54.2049126366965
20
29.9318230147273
30
0
0
SPLINE
5
1D5
100
AcDbEntity
8
1
62
256
6
ByLayer
370
18
48
1
60
0
100
AcDbSpline
70
4
71
1
72
4
73
2
40
0
40
0
40
1
40
1
41
1
10
33.7946873078068
20
24.418920139669
30
0
41
1
10
33.1532447801588
20
24.5980360316023
30
0
0
SPLINE
5
1D6
100
AcDbEntity
8
1
62
256
6
ByLayer
370
18
48
1
60
0
100
AcDbSpline
70
4
71
3
72
8
73
4
40
0
40
0
40
0
40
0
40
1
40
1
40
1
40
1
41
1
10
32.2704226707015
20
18.0304938430975
30
0
41
1
10
32.4974632924463
20
19.2418689649202
30
0
41
1
10
33.1899174503086
20
20.3117179413665
30
0
41
1
10
34.2210767206567
20
21.0308609870445
30
0
0
SPLINE
5
1D7
100
AcDbEntity
8
1
62
256
6
ByLayer
370
18
48
1
60
0
100
AcDbSpline
70
4
71
3
72
10
73
6
40
0
40
0
40
0
40
0
40
0.552683943112536
40
0.552683943112536
40
1
40
1
40
1
40
1
41
1
10
22.4390924082803
20
16.5732322272094
30
0
41
1
10
22.2966185504291
20
16.3549140466585
30
0
41
1
10
22.1829767137447
20
16.1213942343485
30
0
41
1
10
22.0425753986204
20
15.7061044058915
30
0
41
1
10
22.0014758624881
20
15.5191505815649
30
0
41
1
10
21.9798449541221
20
15.3356584265781
30
0
0
SPLINE
5
1D8
100
AcDbEntity
8
1
62
256
6
ByLayer
370
18
48
1
60
0
100
AcDbSpline
70
4
71
3
72
12
73
8
40
0
40
0
40
0
40
0
40
0.185616577167508
40
0.185616577167508
40
0.846557004245566
40
0.846557004245566
40
1
40
1
40
1
40
1
41
1
10
22.0916667883143
20
14.1830799350839
30
0
41
1
10
22.11524356526
20
14.1070948412728
30
0
41
1
10
22.1417531490085
20
14.0320380391514
30
0
41
1
10
22.2755092599301
20
13.6929935999335
30
0
41
1
10
22.4166544030242
20
13.4374469320484
30
0
41
1
10
22.6334898691843
20
13.1067976124663
30
0
41
1
10
22.6768093850644
20
13.0427451378966
30
0
41
1
10
22.7216640891818
20
12.9775164433694
30
0
0
SPLINE
5
1D9
100
AcDbEntity
8
1
62
256
6
ByLayer
370
18
48
1
60
0
100
AcDbSpline
70
4
71
3
72
10
73
6
40
0
40
0
40
0
40
0
40
0.5
40
0.5
40
1
40
1
40
1
40
1
41
1
10
34.8983683673252
20
11.5562179880413
30
0
41
1
10
34.7866677198097
20
10.1077649450473
30
0
41
1
10
34.6400834728166
20
8.66091224951458
30
0
41
1
10
34.2363040832794
20
6.09040544090993
30
0
41
1
10
33.9773964024411
20
4.94485570778184
30
0
41
1
10
33.6240972445659
20
4.22765096782135
30
0
0
SPLINE
5
1DA
100
AcDbEntity
8
1
62
256
6
ByLayer
370
18
48
1
60
0
100
AcDbSpline
70
4
71
3
72
8
73
4
40
0
40
0
40
0
40
0
40
1
40
1
40
1
40
1
41
1
10
34.5461862051292
20
11.343941387101
30
0
41
1
10
34.6588038694157
20
11.4229526391718
30
0
41
1
10
34.7771347813609
20
11.4945487726992
30
0
41
1
10
34.8983683673252
20
11.5562179880413
30
0
0
SPLINE
5
1DB
100
AcDbEntity
8
1
62
256
6
ByLayer
370
18
48
1
60
0
100
AcDbSpline
70
4
71
3
72
8
73
4
40
0
40
0
40
0
40
0
40
1
40
1
40
1
40
1
41
1
10
33.6257896453149
20
3.08129833055133
30
0
41
1
10
33.4063798236591
20
2.92693231876737
30
0
41
1
10
33.1685455463131
20
2.79402700623874
30
0
41
1
10
32.9232133387283
20
2.69173931849193
30
0
0
SPLINE
5
1DC
100
AcDbEntity
8
1
62
256
6
ByLayer
370
18
48
1
60
0
100
AcDbSpline
70
4
71
3
72
8
73
4
40
0
40
0
40
0
40
0
40
1
40
1
40
1
40
1
41
1
10
52.5475261080284
20
19.720173556325
30
0
41
1
10
52.3561729094603
20
19.8385384029679
30
0
41
1
10
52.172949220912
20
19.9714548650295
30
0
41
1
10
51.9973881936888
20
20.1173109913543
30
0
0
SPLINE
5
1DD
100
AcDbEntity
8
1
62
256
6
ByLayer
370
18
48
1
60
0
100
AcDbSpline
70
4
71
3
72
8
73
4
40
0
40
0
40
0
40
0
40
1
40
1
40
1
40
1
41
1.02801048500209
10
40.3424117506636
20
28.7501272114771
30
0
41
1.0290603306383
10
39.3496923643236
20
28.3678292902293
30
0
41
1.03019983813558
10
38.2938462348495
20
27.9250329062912
30
0
41
1.03126079838601
10
37.3461061775048
20
27.4631088288761
30
0
0
SPLINE
5
1DE
100
AcDbEntity
8
1
62
256
6
ByLayer
370
18
48
1
60
0
100
AcDbSpline
70
4
71
3
72
8
73
4
40
0
40
0
40
0
40
0
40
1
40
1
40
1
40
1
41
1
10
51.6991043491438
20
30.3542453588235
30
0
41
1
10
52.1254828228455
20
30.3144599644595
30
0
41
1
10
52.5540361391834
20
30.2736036507696
30
0
41
1
10
52.9829385325244
20
30.2325516480045
30
0
0
SPLINE
5
1DF
100
AcDbEntity
8
1
62
256
6
ByLayer
370
18
48
1
60
0
100
AcDbSpline
70
4
71
3
72
10
73
6
40
0
40
0
40
0
40
0
40
0.24410334135241
40
0.24410334135241
40
1
40
1
40
1
40
1
41
1
10
55.0098767982672
20
25.2666932853597
30
0
41
1
10
54.887712404358
20
25.2468325968456
30
0
41
1
10
54.7642164227003
20
25.2239509984571
30
0
41
1
10
54.2546174951083
20
25.1216378929379
30
0
41
1
10
53.8610185006461
20
25.0247238091377
30
0
41
1
10
53.4691824621262
20
24.9318544378608
30
0
0
SPLINE
5
1E0
100
AcDbEntity
8
1
62
256
6
ByLayer
370
18
48
1
60
0
100
AcDbSpline
70
4
71
3
72
12
73
8
40
0
40
0
40
0
40
0
40
0.0373317696744968
40
0.280652676023792
40
0.523973582373088
40
0.686187519939285
40
1
40
1
40
1
40
1
41
1.03205634404025
10
41.4154632449207
20
22.658736406959
30
0
41
1.0318026041187
10
41.6206514293732
20
22.792843857183
30
0
41
1.02984558575382
10
43.2010331630891
20
23.8154212183171
30
0
41
1.02566722369869
10
46.6174939899528
20
25.8511197454749
30
0
41
1.02325876009371
10
48.6232314346097
20
27.0002361739147
30
0
41
1.02334794718885
10
51.690203933031
20
28.4226805052632
30
0
41
1.02245227377491
10
53.3929128047894
20
29.176214378294
30
0
41
1.02236689899618
10
54.5819813301173
20
29.68329117303
30
0
0
SPLINE
5
1E1
100
AcDbEntity
8
1
62
256
6
ByLayer
370
18
48
1
60
0
100
AcDbSpline
70
4
71
2
72
6
73
3
40
0
40
0
40
0
40
1
40
1
40
1
41
0.929126212970776
10
41.9468624817036
20
13.8657117442031
30
0
41
0.88449546958444
10
43.2812592868186
20
11.6350808910852
30
0
41
1.03601283770102
10
43.3161603937466
20
10.8745068182101
30
0
0
SPLINE
5
1E2
100
AcDbEntity
8
1
62
256
6
ByLayer
370
18
48
1
60
0
100
AcDbSpline
70
4
71
3
72
10
73
6
40
0
40
0
40
0
40
0
40
0.5
40
0.5
40
1
40
1
40
1
40
1
41
1
10
31.0503465574174
20
16.2182989956705
30
0
41
1
10
29.8223439303123
20
16.1352762759964
30
0
41
1
10
28.6257325819647
20
16.0309251684849
30
0
41
1
10
26.3286478812604
20
15.7352199998455
30
0
41
1
10
25.2749164713642
20
15.5506898203685
30
0
41
1
10
24.4374471604493
20
15.2946611935913
30
0
0
SPLINE
5
1E3
100
AcDbEntity
8
1
62
256
6
ByLayer
370
18
48
1
60
0
100
AcDbSpline
70
4
71
3
72
12
73
8
40
0
40
0
40
0
40
0
40
0.0373317696752054
40
0.280652676024339
40
0.523973582373472
40
0.686187519939561
40
1
40
1
40
1
40
1
41
1.03205634404027
10
44.1268016495849
20
18.8018239654018
30
0
41
1.03180260411871
10
44.3243668293547
20
18.9467752341518
30
0
41
1.02984558575383
10
45.8369994918508
20
20.0657264876936
30
0
41
1.02566722369869
10
48.9537985679066
20
22.5276975645471
30
0
41
1.02325876009371
10
50.7482996683993
20
23.977300307295
30
0
41
1.02334794718885
10
53.18133702451
20
26.3015252253285
30
0
41
1.02245227377491
10
54.5061414903926
20
27.5926327935014
30
0
41
1.02236689899618
10
55.4153642060924
20
28.4977937163495
30
0
0
SPLINE
5
1E4
100
AcDbEntity
8
1
62
256
6
ByLayer
370
18
48
1
60
0
100
AcDbSpline
70
4
71
3
72
8
73
4
40
0
40
0
40
0
40
0
40
1
40
1
40
1
40
1
41
1
10
55.113655240308
20
25.4970044511542
30
0
41
1
10
55.0792345220482
20
25.4201527543145
30
0
41
1
10
55.0446469314461
20
25.3433798978689
30
0
41
1
10
55.0098767982661
20
25.2666932853665
30
0
0
SPLINE
5
1E5
100
AcDbEntity
8
1
62
256
6
ByLayer
370
18
48
1
60
0
100
AcDbSpline
70
4
71
3
72
8
73
4
40
0
40
0
40
0
40
0
40
1
40
1
40
1
40
1
41
1
10
24.8350647511043
20
14.4183741139555
30
0
41
1
10
24.6435842723049
20
14.6907574651914
30
0
41
1
10
24.5146330430219
20
14.9946958632793
30
0
41
1
10
24.4374471604493
20
15.2946611935913
30
0
0
SPLINE
5
1E6
100
AcDbEntity
8
1
62
256
6
ByLayer
370
18
48
1
60
0
100
AcDbSpline
70
4
71
3
72
10
73
6
40
0
40
0
40
0
40
0
40
0.5
40
0.5
40
1
40
1
40
1
40
1
41
1
10
24.1982293068934
20
17.636064782471
30
0
41
1
10
24.9528980627666
20
17.776552444321
30
0
41
1
10
26.0771969005574
20
17.6755497473573
30
0
41
1
10
28.6227303853031
20
17.2325648333178
30
0
41
1
10
30.0197384928483
20
16.8935120363287
30
0
41
1
10
31.416831566414
20
16.5087471817564
30
0
0
SPLINE
5
1E7
100
AcDbEntity
8
1
62
256
6
ByLayer
370
18
48
1
60
0
100
AcDbSpline
70
4
71
3
72
12
73
8
40
0
40
0
40
0
40
0
40
0.452180793000029
40
0.452180793000029
40
0.96426507937344
40
0.96426507937344
40
1
40
1
40
1
40
1
41
1
10
32.2704226707015
20
18.0304938430975
30
0
41
1
10
32.2222098585597
20
17.773254408441
30
0
41
1
10
32.1328359974928
20
17.5174954029356
30
0
41
1
10
31.869468044951
20
17.0137972019801
30
0
41
1
10
31.6824923052187
20
16.7647935383595
30
0
41
1
10
31.4482082210468
20
16.538114224453
30
0
41
1
10
31.4326016629191
20
16.5233447669392
30
0
41
1
10
31.416831566414
20
16.5087471817565
30
0
0
SPLINE
5
1E8
100
AcDbEntity
8
1
62
256
6
ByLayer
370
18
48
1
60
0
100
AcDbSpline
70
4
71
3
72
10
73
6
40
0
40
0
40
0
40
0
40
0.5
40
0.5
40
1
40
1
40
1
40
1
41
1
10
48.1036104516215
20
16.900186929864
30
0
41
1
10
48.5633050325631
20
16.9705733696896
30
0
41
1
10
48.8589580948963
20
16.715252825465
30
0
41
1
10
49.3726757977205
20
16.0975177430988
30
0
41
1
10
49.5844883858005
20
15.7173024997791
30
0
41
1
10
49.7841659265607
20
15.3193039404708
30
0
0
SPLINE
5
1E9
100
AcDbEntity
8
1
62
256
6
ByLayer
370
18
48
1
60
0
100
AcDbSpline
70
4
71
3
72
14
73
10
40
0
40
0
40
0
40
0
40
0.250129257644729
40
0.250129257644729
40
0.566277192435753
40
0.566277192435753
40
0.886777176233734
40
0.886777176233734
40
1
40
1
40
1
40
1
41
1
10
54.2049126366963
20
29.9318230147272
30
0
41
1
10
54.2301020598776
20
29.9215847990901
30
0
41
1
10
54.2598098468184
20
29.9073836793072
30
0
41
1
10
54.3300872009904
20
29.8693286517078
30
0
41
1
10
54.3725724113725
20
29.8433277146104
30
0
41
1
10
54.4566807087353
20
29.7858066659869
30
0
41
1
10
54.4993767646684
20
29.7534844328584
30
0
41
1
10
54.5540316913088
20
29.7078533570596
30
0
41
1
10
54.5681710820908
20
29.695636235408
30
0
41
1
10
54.5819813322987
20
29.6832911739602
30
0
0
SPLINE
5
1EA
100
AcDbEntity
8
1
62
256
6
ByLayer
370
18
48
1
60
0
100
AcDbSpline
70
4
71
3
72
8
73
4
40
0
40
0
40
0
40
0
40
1
40
1
40
1
40
1
41
1
10
34.499811237046
20
11.3113927914555
30
0
41
1
10
34.51527043265
20
11.3222470855612
30
0
41
1
10
34.5307295217197
20
11.3330971566084
30
0
41
1
10
34.5461862051292
20
11.3439413871009
30
0
0
SPLINE
5
1EB
100
AcDbEntity
8
1
62
256
6
ByLayer
370
18
48
1
60
0
100
AcDbSpline
70
4
71
3
72
22
73
18
40
0
40
0
40
0
40
0
40
0.0624999999999998
40
0.0624999999999998
40
0.125
40
0.125
40
0.25
40
0.25
40
0.5
40
0.5
40
0.75
40
0.75
40
0.875
40
0.875
40
0.9375
40
0.9375
40
1
40
1
40
1
40
1
41
1
10
53.4691824621262
20
24.9318544378608
30
0
41
1
10
53.3762138119208
20
24.9472436123824
30
0
41
1
10
53.2063094089413
20
24.7529390156348
30
0
41
1
10
52.92130354051
20
24.4686854928052
30
0
41
1
10
52.7778494486669
20
24.3148408521314
30
0
41
1
10
52.3463111711067
20
23.8388190582714
30
0
41
1
10
52.0580025275149
20
23.502299841599
30
0
41
1
10
51.2026152835734
20
22.4653653040811
30
0
41
1
10
50.642864488904
20
21.7137913407643
30
0
41
1
10
49.5432514621637
20
20.0965361024855
30
0
41
1
10
49.002348560928
20
19.2624354176342
30
0
41
1
10
48.2420098201318
20
17.9594536676902
30
0
41
1
10
47.9866024939105
20
17.5074234477865
30
0
41
1
10
47.6943713733607
20
16.8318024858498
30
0
41
1
10
47.5898169041926
20
16.5343860506535
30
0
41
1
10
47.7847821066987
20
16.5247305893457
30
0
41
1
10
47.9566926959907
20
16.7260933019126
30
0
41
1
10
48.1036104516215
20
16.900186929864
30
0
0
SPLINE
5
1EC
100
AcDbEntity
8
1
62
256
6
ByLayer
370
18
48
1
60
0
100
AcDbSpline
70
4
71
3
72
8
73
4
40
0
40
0
40
0
40
0
40
1
40
1
40
1
40
1
41
1
10
55.1136552403065
20
25.4970044511535
30
0
41
1
10
55.2163739057948
20
25.9176291401315
30
0
41
1
10
55.3190138658304
20
26.3403886098339
30
0
41
1
10
55.4216246691694
20
26.7634904325812
30
0
0
SPLINE
5
1ED
100
AcDbEntity
8
1
62
256
6
ByLayer
370
18
48
1
60
0
100
AcDbSpline
70
4
71
3
72
8
73
4
40
0
40
0
40
0
40
0
40
1
40
1
40
1
40
1
41
1
10
41.4154632449184
20
22.6587364069585
30
0
41
1
10
42.8549005756994
20
21.8730409506391
30
0
41
1
10
43.8804454006573
20
20.4142206691893
30
0
41
1
10
44.1268016495849
20
18.8018239654018
30
0
0
SPLINE
5
1EE
100
AcDbEntity
8
1
62
256
6
ByLayer
370
18
48
1
60
0
100
AcDbSpline
70
4
71
3
72
10
73
6
40
0
40
0
40
0
40
0
40
0.8697786025611
40
0.8697786025611
40
1
40
1
40
1
40
1
41
1
10
50.5144469428568
20
29.1350022883126
30
0
41
1
10
50.7951398738953
20
29.4839114571216
30
0
41
1
10
51.0818867979044
20
29.8333324061392
30
0
41
1
10
51.372983663309
20
30.2321924779112
30
0
41
1
10
51.4101199529517
20
30.2840787265074
30
0
41
1
10
51.4463254975097
20
30.3358891209473
30
0
0
SPLINE
5
1EF
100
AcDbEntity
8
1
62
256
6
ByLayer
370
18
48
1
60
0
100
AcDbSpline
70
4
71
3
72
16
73
12
40
0
40
0
40
0
40
0
40
0.211789832675876
40
0.211789832675876
40
0.424635425352729
40
0.424635425352729
40
0.625049629967193
40
0.625049629967193
40
0.824219103175402
40
0.824219103175402
40
1
40
1
40
1
40
1
41
1
10
33.6240972445664
20
4.22765096782157
30
0
41
1
10
33.5717807207371
20
4.26290422594292
30
0
41
1
10
33.4864492411884
20
4.30016392031678
30
0
41
1
10
33.2556378588091
20
4.38879743368193
30
0
41
1
10
33.1069398911301
20
4.44205182097102
30
0
41
1
10
32.7860311614073
20
4.56981051689746
30
0
41
1
10
32.6116368930057
20
4.64489610760245
30
0
41
1
10
32.2603861154568
20
4.81626147612138
30
0
41
1
10
32.0786238469762
20
4.91492633258142
30
0
41
1
10
31.752306600702
20
5.10963719735543
30
0
41
1
10
31.601968902053
20
5.20685997687247
30
0
41
1
10
31.4639603269538
20
5.29935924012099
30
0
0
SPLINE
5
1F0
100
AcDbEntity
8
1
62
256
6
ByLayer
370
18
48
1
60
0
100
AcDbSpline
70
4
71
3
72
18
73
14
40
0
40
0
40
0
40
0
40
0.0424288322684501
40
0.0424288322684501
40
0.296168298763124
40
0.296168298763124
40
0.533717034669527
40
0.533717034669527
40
0.749910157754722
40
0.749910157754722
40
0.951220132387619
40
0.951220132387619
40
1
40
1
40
1
40
1
41
1
10
52.4379896805524
20
20.1253926775949
30
0
41
1
10
52.4435999199154
20
20.1218876163738
30
0
41
1
10
52.4491020656153
20
20.1182276627807
30
0
41
1
10
52.4866143083326
20
20.0916645955706
30
0
41
1
10
52.5153162785553
20
20.0628491450099
30
0
41
1
10
52.5581600626711
20
19.9997949539709
30
0
41
1
10
52.5737178000228
20
19.9650251978428
30
0
41
1
10
52.5896244667549
20
19.8965737779179
30
0
41
1
10
52.5914033524664
20
19.8620756494357
30
0
41
1
10
52.5828169291954
20
19.7981208534206
30
0
41
1
10
52.5731570946503
20
19.7676133309808
30
0
41
1
10
52.5553732474758
20
19.7332632445803
30
0
41
1
10
52.5515809715475
20
19.7266312471383
30
0
41
1
10
52.5475261080284
20
19.720173556325
30
0
0
SPLINE
5
1F1
100
AcDbEntity
8
1
62
256
6
ByLayer
370
18
48
1
60
0
100
AcDbSpline
70
4
71
3
72
8
73
4
40
0
40
0
40
0
40
0
40
1
40
1
40
1
40
1
41
1
10
23.1373483607854
20
17.365098231048
30
0
41
1
10
23.0255677543874
20
17.2698924706631
30
0
41
1
10
22.9194277833331
20
17.1685903426603
30
0
41
1
10
22.8209430157663
20
17.0623438987179
30
0
0
SPLINE
5
1F2
100
AcDbEntity
8
1
62
256
6
ByLayer
370
18
48
1
60
0
100
AcDbSpline
70
4
71
3
72
10
73
6
40
0
40
0
40
0
40
0
40
0.580179116579152
40
0.580179116579152
40
1
40
1
40
1
40
1
41
1
10
55.525377744935
20
28.0534450535532
30
0
41
1
10
55.5397278489223
20
27.8423444833729
30
0
41
1
10
55.5413389385483
20
27.6105430525217
30
0
41
1
10
55.5020049768826
20
27.1714305063417
30
0
41
1
10
55.471859423476
20
26.9706266738031
30
0
41
1
10
55.4216246691694
20
26.7634904325812
30
0
0
SPLINE
5
1F3
100
AcDbEntity
8
1
62
256
6
ByLayer
370
18
48
1
60
0
100
AcDbSpline
70
4
71
3
72
8
73
4
40
0
40
0
40
0
40
0
40
1
40
1
40
1
40
1
41
1.03126080250991
10
47.5450197335271
20
12.9550210249524
30
0
41
1.0301998466492
10
48.3049751586813
20
13.6840635636748
30
0
41
1.02906034394352
10
49.0838615851064
20
14.5208303530329
30
0
41
1.02801050150975
10
49.7840811881655
20
15.3192073231263
30
0
0
SPLINE
5
1F4
100
AcDbEntity
8
1
62
256
6
ByLayer
370
18
48
1
60
0
100
AcDbSpline
70
4
71
3
72
8
73
4
40
0
40
0
40
0
40
0
40
1
40
1
40
1
40
1
41
1
10
44.1268016495836
20
18.8018239653999
30
0
41
1
10
44.412748365534
20
16.9305337729428
30
0
41
1
10
43.4807024717373
20
14.9456717962765
30
0
41
1
10
41.9468624737179
20
13.8657117575524
30
0
0
SPLINE
5
1F5
100
AcDbEntity
8
1
62
256
6
ByLayer
370
18
48
1
60
0
100
AcDbSpline
70
4
71
3
72
8
73
4
40
0
40
0
40
0
40
0
40
1
40
1
40
1
40
1
41
1
10
40.1426577540192
20
12.6073386698088
30
0
41
1
10
39.1113739708733
20
11.8881087873878
30
0
41
1
10
37.845050623445
20
11.6205081316932
30
0
41
1
10
36.6298688302321
20
11.8291277199792
30
0
0
SPLINE
5
1F6
100
AcDbEntity
8
1
62
256
6
ByLayer
370
18
48
1
60
0
100
AcDbSpline
70
4
71
3
72
12
73
8
40
0
40
0
40
0
40
0
40
0.369019602467739
40
0.369019602467739
40
0.74203753848614
40
0.74203753848614
40
1
40
1
40
1
40
1
41
1
10
45.5726270096961
20
29.2566133012239
30
0
41
1
10
45.5891189991078
20
29.2634931953119
30
0
41
1
10
45.6075912318911
20
29.268612261436
30
0
41
1
10
45.6470351979941
20
29.2730356903138
30
0
41
1
10
45.6685688878763
20
29.2722442736353
30
0
41
1
10
45.7043705184906
20
29.265165495767
30
0
41
1
10
45.7191159473451
20
29.2606025896098
30
0
41
1
10
45.7332935086088
20
29.2547012908083
30
0
0
SPLINE
5
1F7
100
AcDbEntity
8
1
62
256
6
ByLayer
370
18
48
1
60
0
100
AcDbSpline
70
4
71
3
72
8
73
4
40
0
40
0
40
0
40
0
40
1
40
1
40
1
40
1
41
1
10
45.5726270096961
20
29.2566133012239
30
0
41
1
10
45.5129420203935
20
29.4453975452791
30
0
41
1
10
45.4680547098895
20
29.6369718029237
30
0
41
1
10
45.4396090426226
20
29.8312735635971
30
0
0
SPLINE
5
1F8
100
AcDbEntity
8
1
62
256
6
ByLayer
370
18
48
1
60
0
100
AcDbSpline
70
4
71
2
72
6
73
3
40
0
40
0
40
0
40
1
40
1
40
1
41
1.03601283770101
10
33.7946873078068
20
24.418920139669
30
0
41
0.884495469108186
10
34.4165219020474
20
24.2452795511804
30
0
41
0.929126213251345
10
36.0253733539982
20
22.2891033264936
30
0
0
SPLINE
5
1F9
100
AcDbEntity
8
1
62
256
6
ByLayer
370
18
48
1
60
0
100
AcDbSpline
70
4
71
3
72
22
73
18
40
0
40
0
40
0
40
0
40
0.0624999999999995
40
0.0624999999999995
40
0.124999999999999
40
0.124999999999999
40
0.25
40
0.25
40
0.499999999999999
40
0.499999999999999
40
0.749999999999999
40
0.749999999999999
40
0.874999999999999
40
0.874999999999999
40
0.937499999999999
40
0.937499999999999
40
1
40
1
40
1
40
1
41
1
10
41.0803226637143
20
26.890900743611
30
0
41
1
10
40.8659545534625
20
26.817423956376
30
0
41
1
10
40.6198736235309
20
26.732074046283
30
0
41
1
10
40.5347772887119
20
26.5646490704973
30
0
41
1
10
40.8446657137062
20
26.5660087432522
30
0
41
1
10
41.5670284091963
20
26.6193730152903
30
0
41
1
10
42.0756182533721
20
26.7056201694609
30
0
41
1
10
43.5533005973202
20
26.9747162936955
30
0
41
1
10
44.5290257747575
20
27.1944044826465
30
0
41
1
10
46.4230216385154
20
27.6579732194282
30
0
41
1
10
47.3416697202509
20
27.918387262298
30
0
41
1
10
48.6417924575067
20
28.3495732334637
30
0
41
1
10
49.0648782943679
20
28.4975954202975
30
0
41
1
10
49.6732103216169
20
28.7269939544288
30
0
41
1
10
49.8719236917762
20
28.8046822011129
30
0
41
1
10
50.246733327141
20
28.9649418876706
30
0
41
1
10
50.4904295036465
20
29.0529302407796
30
0
41
1
10
50.5144469428569
20
29.1350022883126
30
0
0
SPLINE
5
1FA
100
AcDbEntity
8
1
62
256
6
ByLayer
370
18
48
1
60
0
100
AcDbSpline
70
4
71
3
72
8
73
4
40
0
40
0
40
0
40
0
40
1
40
1
40
1
40
1
41
1
10
31.416831566414
20
16.5087471817565
30
0
41
1
10
31.3171257183102
20
16.4164544928416
30
0
41
1
10
31.209339189785
20
16.3298588433853
30
0
41
1
10
31.0967215255006
20
16.2508475913158
30
0
0
SPLINE
5
1FB
100
AcDbEntity
8
1
62
256
6
ByLayer
370
18
48
1
60
0
100
AcDbSpline
70
4
71
3
72
18
73
14
40
0
40
0
40
0
40
0
40
0.191215801348466
40
0.191215801348466
40
0.381963811899617
40
0.381963811899617
40
0.578044702903761
40
0.578044702903761
40
0.777202980318988
40
0.777202980318988
40
0.976898938598163
40
0.976898938598163
40
1
40
1
40
1
40
1
41
1
10
24.4374471604493
20
15.2946611935913
30
0
41
1
10
24.3917395905709
20
15.4722932402733
30
0
41
1
10
24.3466809633501
20
15.6643425050499
30
0
41
1
10
24.2746155651293
20
16.0450627635333
30
0
41
1
10
24.2465757300796
20
16.239027909472
30
0
41
1
10
24.2101980876051
20
16.6093332038702
30
0
41
1
10
24.2018573709306
20
16.790090753201
30
0
41
1
10
24.1979156503249
20
17.1097899674096
30
0
41
1
10
24.2021503227424
20
17.2521622871634
30
0
41
1
10
24.2074815164722
20
17.4768531170323
30
0
41
1
10
24.2081402703868
20
17.5617279449583
30
0
41
1
10
24.2001984287045
20
17.624100734898
30
0
41
1
10
24.1992660243073
20
17.6302647437817
30
0
41
1
10
24.1982293068934
20
17.636064782471
30
0
0
SPLINE
5
1FC
100
AcDbEntity
8
1
62
256
6
ByLayer
370
18
48
1
60
0
100
AcDbSpline
70
4
71
3
72
14
73
10
40
0
40
0
40
0
40
0
40
0.264702745621121
40
0.264702745621121
40
0.594442017794406
40
0.594442017794406
40
0.899060432893762
40
0.899060432893762
40
1
40
1
40
1
40
1
41
1
10
52.0503710616277
20
20.284049510256
30
0
41
1
10
52.0524318619761
20
20.2668884882538
30
0
41
1
10
52.0527120412162
20
20.2494602430948
30
0
41
1
10
52.0488178348618
20
20.2118846802005
30
0
41
1
10
52.0434389890686
20
20.1915835770887
30
0
41
1
10
52.028366967752
20
20.1571383635629
30
0
41
1
10
52.0189157981346
20
20.142223223882
30
0
41
1
10
52.004827969512
20
20.1252024149105
30
0
41
1
10
52.0011601364575
20
20.1211509366349
30
0
41
1
10
51.9973881936888
20
20.1173109913543
30
0
0
SPLINE
5
1FD
100
AcDbEntity
8
1
62
256
6
ByLayer
370
18
48
1
60
0
100
AcDbSpline
70
4
71
3
72
10
73
6
40
0
40
0
40
0
40
0
40
0.5
40
0.5
40
1
40
1
40
1
40
1
41
1
10
40.3425162619919
20
28.7501674588333
30
0
41
1
10
40.6200062082692
20
28.4695454726353
30
0
41
1
10
40.8765305151447
20
28.1836570583068
30
0
41
1
10
41.2232248235882
20
27.5764181080845
30
0
41
1
10
41.3345088839049
20
27.2615534713831
30
0
41
1
10
41.0803226637143
20
26.890900743611
30
0
0
SPLINE
5
1FE
100
AcDbEntity
8
1
62
256
6
ByLayer
370
18
48
1
60
0
100
AcDbSpline
70
4
71
3
72
8
73
4
40
0
40
0
40
0
40
0
40
1
40
1
40
1
40
1
41
1
10
33.7006589387738
20
4.16853888396855
30
0
41
1
10
33.6802292357309
20
4.18777710525404
30
0
41
1
10
33.6543383695302
20
4.20727311955883
30
0
41
1
10
33.6240972445664
20
4.22765096782157
30
0
0
SPLINE
5
1FF
100
AcDbEntity
8
1
62
256
6
ByLayer
370
18
48
1
60
0
100
AcDbSpline
70
4
71
3
72
10
73
6
40
0
40
0
40
0
40
0
40
0.258575330737302
40
0.258575330737302
40
1
40
1
40
1
40
1
41
1
10
51.315278534295
20
30.3834188018951
30
0
41
1
10
51.2376858101057
20
30.3681982217108
30
0
41
1
10
51.1604234386126
20
30.3521317637807
30
0
41
1
10
50.8649183123939
20
30.2872179424944
30
0
41
1
10
50.6499953092976
20
30.232502769455
30
0
41
1
10
50.4442433854457
20
30.1735248291323
30
0
0
SPLINE
5
200
100
AcDbEntity
8
1
62
256
6
ByLayer
370
18
48
1
60
0
100
AcDbSpline
70
4
71
3
72
18
73
14
40
0
40
0
40
0
40
0
40
0.190892373757262
40
0.190892373757262
40
0.381856941150795
40
0.381856941150795
40
0.572464326369293
40
0.572464326369293
40
0.771960347999159
40
0.771960347999159
40
0.987183877459874
40
0.987183877459874
40
1
40
1
40
1
40
1
41
1
10
45.4396090426226
20
29.8312735635971
30
0
41
1
10
45.4697172289556
20
29.8376595850898
30
0
41
1
10
45.5013908107675
20
29.8390115025493
30
0
41
1
10
45.5626748865366
20
29.8311382755435
30
0
41
1
10
45.5931044730688
20
29.8218024653162
30
0
41
1
10
45.6485333650691
20
29.7941272862173
30
0
41
1
10
45.6742670708469
20
29.7754672402477
30
0
41
1
10
45.7193100075736
20
29.7307895750534
30
0
41
1
10
45.7388582333425
20
29.7039227928238
30
0
41
1
10
45.7700038466609
20
29.6441921488855
30
0
41
1
10
45.7812822930625
20
29.6102646548604
30
0
41
1
10
45.7875652195115
20
29.5738736541026
30
0
41
1
10
45.7878995528589
20
29.5718262262679
30
0
41
1
10
45.788215507733
20
29.5697748873755
30
0
0
SPLINE
5
201
100
AcDbEntity
8
1
62
256
6
ByLayer
370
18
48
1
60
0
100
AcDbSpline
70
4
71
3
72
8
73
4
40
0
40
0
40
0
40
0
40
1
40
1
40
1
40
1
41
1
10
43.3521620162607
20
10.0899500211401
30
0
41
1
10
44.7663524265288
20
11.0578815863016
30
0
41
1
10
46.2013921271733
20
12.0420534337257
30
0
41
1
10
47.5450197335264
20
12.9550210249518
30
0
0
SPLINE
5
202
100
AcDbEntity
8
1
62
256
6
ByLayer
370
18
48
1
60
0
100
AcDbSpline
70
4
71
3
72
8
73
4
40
0
40
0
40
0
40
0
40
1
40
1
40
1
40
1
41
1
10
32.331162419288
20
2.50164019259591
30
0
41
1
10
31.8663332787817
20
2.39455688786416
30
0
41
1
10
31.4095446180707
20
2.40882460013435
30
0
41
1
10
30.9950728182717
20
2.51231113636044
30
0
0
SPLINE
5
203
100
AcDbEntity
8
1
62
256
6
ByLayer
370
18
48
1
60
0
100
AcDbSpline
70
4
71
3
72
10
73
6
40
0
40
0
40
0
40
0
40
0.301254402705209
40
0.301254402705209
40
1
40
1
40
1
40
1
41
1
10
29.9245668318521
20
3.0385692980947
30
0
41
1
10
29.8197085377542
20
3.11967487117846
30
0
41
1
10
29.7194551993274
20
3.20744032362379
30
0
41
1
10
29.3979879390346
20
3.52025106437435
30
0
41
1
10
29.1942015581365
20
3.77665758707204
30
0
41
1
10
28.9835715512301
20
4.06987556877053
30
0
0
SPLINE
5
204
100
AcDbEntity
8
1
62
256
6
ByLayer
370
18
48
1
60
0
100
AcDbSpline
70
4
71
3
72
10
73
6
40
0
40
0
40
0
40
0
40
0.467786649874097
40
0.467786649874097
40
1
40
1
40
1
40
1
41
1
10
52.9829385325244
20
30.2325516480045
30
0
41
1
10
53.216399596747
20
30.2102061344266
30
0
41
1
10
53.4324138360894
20
30.1693658888547
30
0
41
1
10
53.8408636202133
20
30.0665972876445
30
0
41
1
10
54.0329868373036
20
30.0011656564184
30
0
41
1
10
54.2049126366963
20
29.9318230147272
30
0
0
SPLINE
5
205
100
AcDbEntity
8
1
62
256
6
ByLayer
370
18
48
1
60
0
100
AcDbSpline
70
4
71
3
72
16
73
12
40
0
40
0
40
0
40
0
40
0.0053487653169912
40
0.0053487653169912
40
0.333118422310144
40
0.333118422310144
40
0.661356115041355
40
0.661356115041355
40
0.848268785798704
40
0.848268785798704
40
1
40
1
40
1
40
1
41
1
10
51.9973881936889
20
20.1173109913543
30
0
41
1
10
51.9978529074259
20
20.1184454186448
30
0
41
1
10
51.9983199590811
20
20.1195805300879
30
0
41
1
10
52.026961905565
20
20.1898104360452
30
0
41
1
10
52.0444467450659
20
20.2550842420703
30
0
41
1
10
52.0749805530787
20
20.3793093993198
30
0
41
1
10
52.0906520071778
20
20.4427748389761
30
0
41
1
10
52.1292943540885
20
20.5496587738711
30
0
41
1
10
52.1464261104175
20
20.5904639296413
30
0
41
1
10
52.1829599924959
20
20.6628341230113
30
0
41
1
10
52.2017616327678
20
20.6954591743095
30
0
41
1
10
52.2216115514149
20
20.7250666361873
30
0
0
SPLINE
5
206
100
AcDbEntity
8
1
62
256
6
ByLayer
370
18
48
1
60
0
100
AcDbSpline
70
4
71
3
72
12
73
8
40
0
40
0
40
0
40
0
40
0.444122598433033
40
0.444122598433033
40
0.992850705219397
40
0.992850705219397
40
1
40
1
40
1
40
1
41
1
10
34.8983683673252
20
11.5562179880413
30
0
41
1
10
35.1342882211297
20
11.6762259227403
30
0
41
1
10
35.3887972900584
20
11.764474628429
30
0
41
1
10
35.9666869438695
20
11.8777768139015
30
0
41
1
10
36.3011812343874
20
11.8839377137029
30
0
41
1
10
36.6215051680131
20
11.830553068977
30
0
41
1
10
36.625688223062
20
11.8298454369097
30
0
41
1
10
36.6298688302321
20
11.8291277199792
30
0
0
SPLINE
5
207
100
AcDbEntity
8
1
62
256
6
ByLayer
370
18
48
1
60
0
100
AcDbSpline
70
4
71
3
72
8
73
4
40
0
40
0
40
0
40
0
40
1
40
1
40
1
40
1
41
1
10
41.946862473718
20
13.8657117575523
30
0
41
1
10
41.9391124874476
20
13.8602410328768
30
0
41
1
10
41.9313470213282
20
13.8547923701765
30
0
41
1
10
41.9235660405687
20
13.8493658193394
30
0
0
SPLINE
5
208
100
AcDbEntity
8
1
62
256
6
ByLayer
370
18
48
1
60
0
100
AcDbSpline
70
4
71
3
72
12
73
8
40
0
40
0
40
0
40
0
40
0.47955479652514
40
0.47955479652514
40
0.73675131905255
40
0.73675131905255
40
1
40
1
40
1
40
1
41
1
10
54.5819813322988
20
29.6832911739602
30
0
41
1
10
54.7541451712002
20
29.5293673324918
30
0
41
1
10
54.9131257444415
20
29.3527664525808
30
0
41
1
10
55.1229976498297
20
29.0604219346503
30
0
41
1
10
55.1906395853669
20
28.9533261626554
30
0
41
1
10
55.3132307896661
20
28.7310863748812
30
0
41
1
10
55.3682006143466
20
28.6151710704322
30
0
41
1
10
55.4153642077605
20
28.4977937180101
30
0
0
SPLINE
5
209
100
AcDbEntity
8
1
62
256
6
ByLayer
370
18
48
1
60
0
100
AcDbSpline
70
4
71
3
72
9
73
5
40
0
40
0
40
0
40
0
40
0.787466588235934
40
1
40
1
40
1
40
1
41
1.03601283770102
10
43.3161603937466
20
10.8745068182101
30
0
41
1.03551243927663
10
44.2095141498845
20
11.6960447335829
30
0
41
1.03306158416575
10
45.895192364515
20
13.6385076658061
30
0
41
1.03000516837039
10
47.7231654362147
20
16.3281612922635
30
0
41
1.02936223451679
10
48.103610453352
20
16.9001869324659
30
0
0
SPLINE
5
20A
100
AcDbEntity
8
1
62
256
6
ByLayer
370
18
48
1
60
0
100
AcDbSpline
70
4
71
3
72
12
73
8
40
0
40
0
40
0
40
0
40
0.369430042092646
40
0.369430042092646
40
0.741170068808717
40
0.741170068808717
40
1
40
1
40
1
40
1
41
1
10
55.4153642077605
20
28.4977937180101
30
0
41
1
10
55.4374739655203
20
28.4427563238418
30
0
41
1
10
55.4575586283144
20
28.3839490978082
30
0
41
1
10
55.4904747946282
20
28.2679472448462
30
0
41
1
10
55.5037995049586
20
28.2087803822669
30
0
41
1
10
55.5190195850178
20
28.1182421454631
30
0
41
1
10
55.5233112132267
20
28.0829325813243
30
0
41
1
10
55.525377744935
20
28.0534450535532
30
0
0
SPLINE
5
20B
100
AcDbEntity
8
1
62
256
6
ByLayer
370
18
48
1
60
0
100
AcDbSpline
70
4
71
3
72
8
73
4
40
0
40
0
40
0
40
0
40
1
40
1
40
1
40
1
41
1
10
30.7796422156643
20
5.96213908869171
30
0
41
1
10
30.9711226944638
20
5.68975573745578
30
0
41
1
10
31.2111686684584
20
5.46879104643719
30
0
41
1
10
31.4639603269538
20
5.29935924012099
30
0
0
INSERT
5
21D
100
AcDbEntity
8
2
62
256
6
ByLayer
370
25
48
1
60
0
100
AcDbBlockReference
2
DimnDraft3D11
10
0
20
0
30
0
41
1
42
1
43
1
50
0
210
0
220
0
230
1
0
LINE
5
72
100
AcDbEntity
8
1
62
256
6
ByLayer
370
18
48
1
60
0
100
AcDbLine
10
44.40481
20
33.54418
30
0
11
43.951256
21
33.090627
31
0
39
0
210
0
220
0
230
1
0
LINE
5
74
100
AcDbEntity
8
1
62
256
6
ByLayer
370
18
48
1
60
0
100
AcDbLine
10
58.099974
20
18.960603
30
0
11
58.54418
21
19.40481
31
0
39
0
210
0
220
0
230
1
0
LINE
5
75
100
AcDbEntity
8
1
62
256
6
ByLayer
370
18
48
1
60
0
100
AcDbLine
10
0.3
20
25
30
0
11
0
21
24.7
31
0
39
0
210
0
220
0
230
1
0
LINE
5
76
100
AcDbEntity
8
1
62
256
6
ByLayer
370
18
48
1
60
0
100
AcDbLine
10
0
20
-24.7
30
0
11
0.3
21
-25
31
0
39
0
210
0
220
0
230
1
0
LINE
5
77
100
AcDbEntity
8
1
62
256
6
ByLayer
370
18
48
1
60
0
100
AcDbLine
10
0.3
20
-25
30
0
11
20.920792
21
-25
31
0
39
0
210
0
220
0
230
1
0
LINE
5
78
100
AcDbEntity
8
1
62
256
6
ByLayer
370
18
48
1
60
0
100
AcDbLine
10
20.920792
20
-25
30
0
11
20.960985
21
-25.15
31
0
39
0
210
0
220
0
230
1
0
LINE
5
79
100
AcDbEntity
8
1
62
256
6
ByLayer
370
18
48
1
60
0
100
AcDbLine
10
20.960985
20
-25.15
30
0
11
21.814925
21
-25.15
31
0
39
0
210
0
220
0
230
1
0
LINE
5
7A
100
AcDbEntity
8
1
62
256
6
ByLayer
370
18
48
1
60
0
100
AcDbLine
10
36.683847
20
17.079221
30
0
11
36.706641
21
17.102015
31
0
39
0
210
0
220
0
230
1
0
LINE
5
7B
100
AcDbEntity
8
1
62
256
6
ByLayer
370
18
48
1
60
0
100
AcDbLine
10
22.506251
20
30.917012
30
0
11
20.920792
21
25
31
0
39
0
210
0
220
0
230
1
0
LINE
5
7C
100
AcDbEntity
8
1
62
256
6
ByLayer
370
18
48
1
60
0
100
AcDbLine
10
20.920792
20
25
30
0
11
0.3
21
25
31
0
39
0
210
0
220
0
230
1
0
LINE
5
7D
100
AcDbEntity
8
1
62
256
6
ByLayer
370
18
48
1
60
0
100
AcDbLine
10
30.903878
20
16.068496
30
0
11
31.325115
21
16.427352
31
0
39
0
210
0
220
0
230
1
0
LINE
5
7E
100
AcDbEntity
8
1
62
256
6
ByLayer
370
18
48
1
60
0
100
AcDbLine
10
24.621719
20
18.629812
30
0
11
23.137419
21
17.365323
31
0
39
0
210
0
220
0
230
1
0
LINE
5
7F
100
AcDbEntity
8
1
62
256
6
ByLayer
370
18
48
1
60
0
100
AcDbLine
10
39.718047
20
18.11428
30
0
11
39.447747
21
17.84398
31
0
39
0
210
0
220
0
230
1
0
LINE
5
80
100
AcDbEntity
8
1
62
256
6
ByLayer
370
18
48
1
60
0
100
AcDbLine
10
41.352824
20
13.677559
30
0
11
41.577446
21
13.902182
31
0
39
0
210
0
220
0
230
1
0
LINE
5
81
100
AcDbEntity
8
1
62
256
6
ByLayer
370
18
48
1
60
0
100
AcDbLine
10
34.506379
20
20.97325
30
0
11
34.284413
21
20.751284
31
0
39
0
210
0
220
0
230
1
0
LINE
5
82
100
AcDbEntity
8
1
62
256
6
ByLayer
370
18
48
1
60
0
100
AcDbLine
10
23.509152
20
24.117042
30
0
11
17.235212
21
21.139501
31
0
39
0
210
0
220
0
230
1
0
LINE
5
83
100
AcDbEntity
8
1
62
256
6
ByLayer
370
18
48
1
60
0
100
AcDbLine
10
10.25789
20
17.828142
30
0
11
8.846327
21
17.15823
31
0
39
0
210
0
220
0
230
1
0
LINE
5
84
100
AcDbEntity
8
1
62
256
6
ByLayer
370
18
48
1
60
0
100
AcDbLine
10
25.422362
20
20.176477
30
0
11
25.536008
21
20.504658
31
0
39
0
210
0
220
0
230
1
0
LINE
5
85
100
AcDbEntity
8
1
62
256
6
ByLayer
370
18
48
1
60
0
100
AcDbLine
10
23.878852
20
23.99643
30
0
11
23.55275
21
24.115913
31
0
39
0
210
0
220
0
230
1
0
LINE
5
86
100
AcDbEntity
8
80
62
256
6
ByLayer
370
18
48
1
60
0
100
AcDbLine
10
0
20
0
30
0
11
-5
21
0
31
0
39
0
210
0
220
0
230
1
0
LINE
5
87
100
AcDbEntity
8
4
62
256
6
ByLayer
370
18
48
0.05
60
0
100
AcDbLine
10
0
20
0
30
0
11
60
21
0
31
0
39
0
210
0
220
0
230
1
0
LINE
5
89
100
AcDbEntity
8
81
62
256
6
ByLayer
370
18
48
1
60
0
100
AcDbLine
10
60
20
35
30
0
11
70
21
35
31
0
39
0
210
0
220
0
230
1
0
LINE
5
8A
100
AcDbEntity
8
SK4
62
256
6
ByLayer
370
18
48
0.05
60
0
100
AcDbLine
10
-35
20
0
30
0
11
60
21
0
31
0
39
0
210
0
220
0
230
1
0
LINE
5
8C
100
AcDbEntity
8
1
62
256
6
ByLayer
370
18
48
1
60
0
100
AcDbLine
10
43.793225
20
29.481986
30
0
11
44.066495
21
32.811932
31
0
39
0
210
0
220
0
230
1
0
LINE
5
8D
100
AcDbEntity
8
1
62
256
6
ByLayer
370
18
48
1
60
0
100
AcDbLine
10
57.811932
20
19.066495
30
0
11
51.828587
21
18.575474
31
0
39
0
210
0
220
0
230
1
0
LINE
5
8E
100
AcDbEntity
8
1
62
256
6
ByLayer
370
18
48
1
60
0
100
AcDbLine
10
59.99604
20
33.706176
30
0
11
58.882495
21
20.137058
31
0
39
0
210
0
220
0
230
1
0
LINE
5
8F
100
AcDbEntity
8
1
62
256
6
ByLayer
370
18
48
1
60
0
100
AcDbLine
10
45.137058
20
33.882495
30
0
11
58.706176
21
34.99604
31
0
39
0
210
0
220
0
230
1
0
LINE
5
90
100
AcDbEntity
8
SK1
62
256
6
ByLayer
370
18
48
1
60
0
100
AcDbLine
10
-0.2
20
-17.833485
30
0
11
-0.2
21
-6.103448
31
0
39
0
210
0
220
0
230
1
0
LINE
5
92
100
AcDbEntity
8
SK1
62
256
6
ByLayer
370
18
48
1
60
0
100
AcDbLine
10
-0.2
20
6.103447
30
0
11
-0.2
21
17.833485
31
0
39
0
210
0
220
0
230
1
0
LINE
5
93
100
AcDbEntity
8
SK1
62
256
6
ByLayer
370
18
48
1
60
0
100
AcDbLine
10
-1.307107
20
-3.918065
30
0
11
-1.307107
21
3.918065
31
0
39
0
210
0
220
0
230
1
0
LINE
5
94
100
AcDbEntity
8
1
62
256
6
ByLayer
370
18
48
1
60
0
100
AcDbLine
10
21.415098
20
26.375024
30
0
11
21.415098
21
23.123264
31
0
39
0
210
0
220
0
230
1
0
LINE
5
95
100
AcDbEntity
8
1
62
256
6
ByLayer
370
18
48
1
60
0
100
AcDbLine
10
11.461325
20
23.83913
30
0
11
8.538675
21
23.83913
31
0
39
0
210
0
220
0
230
1
0
LINE
5
96
100
AcDbEntity
8
1
62
256
6
ByLayer
370
18
48
1
60
0
100
AcDbLine
10
8.538675
20
-23.83913
30
0
11
11.461325
21
-23.83913
31
0
39
0
210
0
220
0
230
1
0
LINE
5
97
100
AcDbEntity
8
1
62
256
6
ByLayer
370
18
48
1
60
0
100
AcDbLine
10
22.317822
20
-24.647972
30
0
11
21.415098
21
-24.647972
31
0
39
0
210
0
220
0
230
1
0
LINE
5
98
100
AcDbEntity
8
1
62
256
6
ByLayer
370
18
48
1
60
0
100
AcDbLine
10
8.538675
20
7.529667
30
0
11
11.461325
21
7.529667
31
0
39
0
210
0
220
0
230
1
0
LINE
5
99
100
AcDbEntity
8
1
62
256
6
ByLayer
370
18
48
1
60
0
100
AcDbLine
10
11.894338
20
18.975321
30
0
11
11.894338
21
23.666502
31
0
39
0
210
0
220
0
230
1
0
LINE
5
9A
100
AcDbEntity
8
1
62
256
6
ByLayer
370
18
48
1
60
0
100
AcDbLine
10
51.799268
20
18.528467
30
0
11
52.175936
21
18.561036
31
0
39
0
210
0
220
0
230
1
0
LINE
5
9B
100
AcDbEntity
8
1
62
256
6
ByLayer
370
18
48
1
60
0
100
AcDbLine
10
58.006318
20
19.065173
30
0
11
58.052748
21
19.069188
31
0
39
0
210
0
220
0
230
1
0
LINE
5
9C
100
AcDbEntity
8
1
62
256
6
ByLayer
370
18
48
1
60
0
100
AcDbLine
10
39.032709
20
5.600628
30
0
11
37.598474
21
4.551095
31
0
39
0
210
0
220
0
230
1
0
LINE
5
9D
100
AcDbEntity
8
1
62
256
6
ByLayer
370
18
48
1
60
0
100
AcDbLine
10
27.937825
20
22.252128
30
0
11
28.547026
21
21.385533
31
0
39
0
210
0
220
0
230
1
0
LINE
5
9E
100
AcDbEntity
8
1
62
256
6
ByLayer
370
18
48
1
60
0
100
AcDbLine
10
11.461325
20
-23.83913
30
0
11
11.461325
21
-7.529667
31
0
39
0
210
0
220
0
230
1
0
LINE
5
9F
100
AcDbEntity
8
1
62
256
6
ByLayer
370
18
48
1
60
0
100
AcDbLine
10
20.960985
20
-25.15
30
0
11
20.960985
21
-24.642711
31
0
39
0
210
0
220
0
230
1
0
LINE
5
A0
100
AcDbEntity
8
1
62
256
6
ByLayer
370
18
48
1
60
0
100
AcDbLine
10
11.461325
20
7.529667
30
0
11
11.461325
21
17.330102
31
0
39
0
210
0
220
0
230
1
0
LINE
5
A1
100
AcDbEntity
8
1
62
256
6
ByLayer
370
18
48
1
60
0
100
AcDbLine
10
21.415098
20
12.334336
30
0
11
29.189089
21
1.710814
31
0
39
0
210
0
220
0
230
1
0
LINE
5
A2
100
AcDbEntity
8
1
62
256
6
ByLayer
370
18
48
1
60
0
100
AcDbLine
10
22.078325
20
26.7925
30
0
11
22.078325
21
28.928451
31
0
39
0
210
0
220
0
230
1
0
LINE
5
A3
100
AcDbEntity
8
1
62
256
6
ByLayer
370
18
48
1
60
0
100
AcDbLine
10
51.722945
20
18.406936
30
0
11
58.100916
21
18.958422
31
0
39
0
210
0
220
0
230
1
0
LINE
5
A4
100
AcDbEntity
8
1
62
256
6
ByLayer
370
18
48
1
60
0
100
AcDbLine
10
43.632911
20
29.448045
30
0
11
43.932508
21
33.098789
31
0
39
0
210
0
220
0
230
1
0
LINE
5
A5
100
AcDbEntity
8
1
62
256
6
ByLayer
370
18
48
1
60
0
100
AcDbLine
10
38.407485
20
6.558155
30
0
11
39.032709
21
5.600628
31
0
39
0
210
0
220
0
230
1
0
LINE
5
A6
100
AcDbEntity
8
1
62
256
6
ByLayer
370
18
48
1
60
0
100
AcDbLine
10
57.523138
20
11.917907
30
0
11
58.100916
21
18.958422
31
0
39
0
210
0
220
0
230
1
0
LINE
5
A7
100
AcDbEntity
8
1
62
256
6
ByLayer
370
18
48
1
60
0
100
AcDbLine
10
40.693882
20
8.176944
30
0
11
47.436057
21
1.434769
31
0
39
0
210
0
220
0
230
1
0
LINE
5
A8
100
AcDbEntity
8
1
62
256
6
ByLayer
370
18
48
1
60
0
100
AcDbLine
10
57.523138
20
11.917907
30
0
11
47.436057
21
1.434769
31
0
39
0
210
0
220
0
230
1
0
LINE
5
A9
100
AcDbEntity
8
1
62
256
6
ByLayer
370
18
48
1
60
0
100
AcDbLine
10
0.3
20
-25
30
0
11
0.3
21
25
31
0
39
0
210
0
220
0
230
1
0
LINE
5
AA
100
AcDbEntity
8
1
62
256
6
ByLayer
370
18
48
1
60
0
100
AcDbLine
10
58.100916
20
18.958422
30
0
11
58.052748
21
19.069188
31
0
39
0
210
0
220
0
230
1
0
LINE
5
AB
100
AcDbEntity
8
1
62
256
6
ByLayer
370
18
48
1
60
0
100
AcDbLine
10
17.430319
20
23.455355
30
0
11
17.430319
21
21.338848
31
0
39
0
210
0
220
0
230
1
0
LINE
5
AC
100
AcDbEntity
8
1
62
256
6
ByLayer
370
18
48
1
60
0
100
AcDbLine
10
22.317822
20
-24.647972
30
0
11
47.436057
21
1.434769
31
0
39
0
210
0
220
0
230
1
0
LINE
5
AD
100
AcDbEntity
8
1
62
256
6
ByLayer
370
18
48
1
60
0
100
AcDbLine
10
8.105662
20
8.055848
30
0
11
8.105662
21
18.05553
31
0
39
0
210
0
220
0
230
1
0
LINE
5
AE
100
AcDbEntity
8
1
62
256
6
ByLayer
370
18
48
1
60
0
100
AcDbLine
10
11.461325
20
-7.529667
30
0
11
8.538675
21
-7.529667
31
0
39
0
210
0
220
0
230
1
0
LINE
5
AF
100
AcDbEntity
8
1
62
256
6
ByLayer
370
18
48
1
60
0
100
AcDbLine
10
21.415098
20
12.334336
30
0
11
21.415098
21
-24.647972
31
0
39
0
210
0
220
0
230
1
0
LINE
5
B0
100
AcDbEntity
8
1
62
256
6
ByLayer
370
18
48
1
60
0
100
AcDbLine
10
44.043139
20
33.05061
30
0
11
43.749531
21
29.47285
31
0
39
0
210
0
220
0
230
1
0
LINE
5
B1
100
AcDbEntity
8
1
62
256
6
ByLayer
370
18
48
1
60
0
100
AcDbLine
10
0
20
-24.7
30
0
11
0
21
24.7
31
0
39
0
210
0
220
0
230
1
0
LINE
5
B2
100
AcDbEntity
8
1
62
256
6
ByLayer
370
18
48
1
60
0
100
AcDbLine
10
8.105662
20
18.975321
30
0
11
8.105662
21
23.666502
31
0
39
0
210
0
220
0
230
1
0
LINE
5
B3
100
AcDbEntity
8
1
62
256
6
ByLayer
370
18
48
1
60
0
100
AcDbLine
10
8.538675
20
-23.83913
30
0
11
8.538675
21
-7.529667
31
0
39
0
210
0
220
0
230
1
0
LINE
5
B4
100
AcDbEntity
8
1
62
256
6
ByLayer
370
18
48
1
60
0
100
AcDbLine
10
11.894338
20
8.055848
30
0
11
11.894338
21
18.05553
31
0
39
0
210
0
220
0
230
1
0
LINE
5
B5
100
AcDbEntity
8
1
62
256
6
ByLayer
370
18
48
1
60
0
100
AcDbLine
10
20.920792
20
25
30
0
11
20.920792
21
24.488619
31
0
39
0
210
0
220
0
230
1
0
LINE
5
B6
100
AcDbEntity
8
1
62
256
6
ByLayer
370
18
48
1
60
0
100
AcDbLine
10
20.920792
20
-24.488619
30
0
11
20.920792
21
-25
31
0
39
0
210
0
220
0
230
1
0
LINE
5
B7
100
AcDbEntity
8
1
62
256
6
ByLayer
370
18
48
1
60
0
100
AcDbLine
10
11.894338
20
-23.666502
30
0
11
11.894338
21
-8.055848
31
0
39
0
210
0
220
0
230
1
0
LINE
5
B8
100
AcDbEntity
8
1
62
256
6
ByLayer
370
18
48
1
60
0
100
AcDbLine
10
8.538675
20
19.288031
30
0
11
8.538675
21
23.83913
31
0
39
0
210
0
220
0
230
1
0
LINE
5
B9
100
AcDbEntity
8
1
62
256
6
ByLayer
370
18
48
1
60
0
100
AcDbLine
10
43.932508
20
33.098789
30
0
11
44.043139
21
33.05061
31
0
39
0
210
0
220
0
230
1
0
LINE
5
BA
100
AcDbEntity
8
1
62
256
6
ByLayer
370
18
48
1
60
0
100
AcDbLine
10
11.461325
20
19.288031
30
0
11
11.461325
21
23.83913
31
0
39
0
210
0
220
0
230
1
0
LINE
5
BB
100
AcDbEntity
8
1
62
256
6
ByLayer
370
18
48
1
60
0
100
AcDbLine
10
22.078325
20
26.7925
30
0
11
25.254406
21
23.616419
31
0
39
0
210
0
220
0
230
1
0
LINE
5
BC
100
AcDbEntity
8
1
62
256
6
ByLayer
370
18
48
1
60
0
100
AcDbLine
10
8.105662
20
-23.666502
30
0
11
8.105662
21
-8.055848
31
0
39
0
210
0
220
0
230
1
0
LINE
5
BD
100
AcDbEntity
8
1
62
256
6
ByLayer
370
18
48
1
60
0
100
AcDbLine
10
8.538675
20
7.529667
30
0
11
8.538675
21
17.330102
31
0
39
0
210
0
220
0
230
1
0
LINE
5
BE
100
AcDbEntity
8
1
62
256
6
ByLayer
370
18
48
1
60
0
100
AcDbLine
10
17.306273
20
15.972901
30
0
11
17.15076
21
16.85433
31
0
39
0
210
0
220
0
230
1
0
LINE
5
BF
100
AcDbEntity
8
1
62
256
6
ByLayer
370
18
48
1
60
0
100
AcDbLine
10
17.430319
20
16.363278
30
0
11
17.430319
21
-23.455355
31
0
39
0
210
0
220
0
230
1
0
LINE
5
C0
100
AcDbEntity
8
1
62
256
6
ByLayer
370
18
48
1
60
0
100
AcDbLine
10
43.932508
20
33.098789
30
0
11
22.708495
21
31.357048
31
0
39
0
210
0
220
0
230
1
0
LINE
5
C1
100
AcDbEntity
8
1
62
256
6
ByLayer
370
18
48
1
60
0
100
AcDbLine
10
27.937825
20
22.252128
30
0
11
26.100259
21
20.907449
31
0
39
0
210
0
220
0
230
1
0
LINE
5
C2
100
AcDbEntity
8
1
62
256
6
ByLayer
370
18
48
1
60
0
100
AcDbLine
10
37.302408
20
18.671306
30
0
11
37.03661
21
18.405507
31
0
39
0
210
0
220
0
230
1
0
LINE
5
C3
100
AcDbEntity
8
1
62
256
6
ByLayer
370
18
48
1
60
0
100
AcDbLine
10
37.244476
20
18.550476
30
0
11
37.510275
21
18.816275
31
0
39
0
210
0
220
0
230
1
0
LINE
5
C4
100
AcDbEntity
8
1
62
256
6
ByLayer
370
18
48
1
60
0
100
AcDbLine
10
38.239728
20
18.909559
30
0
11
38.510028
21
19.179859
31
0
39
0
210
0
220
0
230
1
0
LINE
5
C5
100
AcDbEntity
8
1
62
256
6
ByLayer
370
18
48
1
60
0
100
AcDbLine
10
38.639611
20
16.125218
30
0
11
38.90541
21
16.391017
31
0
39
0
210
0
220
0
230
1
0
LINE
5
C6
100
AcDbEntity
8
1
62
256
6
ByLayer
370
18
48
1
60
0
100
AcDbLine
10
39.526663
20
17.078877
30
0
11
39.796963
21
17.349177
31
0
39
0
210
0
220
0
230
1
0
LINE
5
C7
100
AcDbEntity
8
1
62
256
6
ByLayer
370
18
48
1
60
0
100
AcDbLine
10
39.334457
20
17.324205
30
0
11
39.600255
21
17.590003
31
0
39
0
210
0
220
0
230
1
0
LINE
5
C8
100
AcDbEntity
8
1
62
256
6
ByLayer
370
18
48
1
60
0
100
AcDbLine
10
38.636889
20
18.536834
30
0
11
38.902688
21
18.802632
31
0
39
0
210
0
220
0
230
1
0
LINE
5
C9
100
AcDbEntity
8
1
62
256
6
ByLayer
370
18
48
1
60
0
100
AcDbLine
10
39.576667
20
17.843888
30
0
11
39.310869
21
17.57809
31
0
39
0
210
0
220
0
230
1
0
LINE
5
CA
100
AcDbEntity
8
1
62
256
6
ByLayer
370
18
48
1
60
0
100
AcDbLine
10
36.726845
20
18.396393
30
0
11
36.997146
21
18.666693
31
0
39
0
210
0
220
0
230
1
0
LINE
5
CB
100
AcDbEntity
8
1
62
256
6
ByLayer
370
18
48
1
60
0
100
AcDbLine
10
36.686669
20
17.082189
30
0
11
36.699462
21
17.094982
31
0
39
0
210
0
220
0
230
1
0
LINE
5
CC
100
AcDbEntity
8
1
62
256
6
ByLayer
370
18
48
1
60
0
100
AcDbLine
10
38.943646
20
18.578314
30
0
11
39.213947
21
18.848614
31
0
39
0
210
0
220
0
230
1
0
LINE
5
CD
100
AcDbEntity
8
1
62
256
6
ByLayer
370
18
48
1
60
0
100
AcDbLine
10
38.52506
20
15.83841
30
0
11
38.795361
21
16.10871
31
0
39
0
210
0
220
0
230
1
0
LINE
5
CE
100
AcDbEntity
8
1
62
256
6
ByLayer
370
18
48
1
60
0
100
AcDbLine
10
38.671233
20
18.911548
30
0
11
38.405435
21
18.64575
31
0
39
0
210
0
220
0
230
1
0
LINE
5
CF
100
AcDbEntity
8
1
62
256
6
ByLayer
370
18
48
1
60
0
100
AcDbLine
10
51.912636
20
31.795538
30
0
11
51.290782
21
32.446355
31
0
39
0
210
0
220
0
230
1
0
LINE
5
D0
100
AcDbEntity
8
1
62
256
6
ByLayer
370
18
48
1
60
0
100
AcDbLine
10
45.817145
20
29.733552
30
0
11
46.388563
21
30.72958
31
0
39
0
210
0
220
0
230
1
0
LINE
5
D1
100
AcDbEntity
8
1
62
256
6
ByLayer
370
18
48
1
60
0
100
AcDbLine
10
54.783105
20
22.939223
30
0
11
55.186117
21
21.752385
31
0
39
0
210
0
220
0
230
1
0
LINE
5
D2
100
AcDbEntity
8
1
62
256
6
ByLayer
370
18
48
1
60
0
100
AcDbLine
10
56.290891
20
25.567416
30
0
11
54.783105
21
22.939223
31
0
39
0
210
0
220
0
230
1
0
LINE
5
D3
100
AcDbEntity
8
1
62
256
6
ByLayer
370
18
48
1
60
0
100
AcDbLine
10
53.517457
20
20.58864
30
0
11
53.509952
21
22.016566
31
0
39
0
210
0
220
0
230
1
0
LINE
5
D4
100
AcDbEntity
8
1
62
256
6
ByLayer
370
18
48
1
60
0
100
AcDbLine
10
52.692773
20
21.607624
30
0
11
53.509952
21
22.016566
31
0
39
0
210
0
220
0
230
1
0
LINE
5
D5
100
AcDbEntity
8
1
62
256
6
ByLayer
370
18
48
1
60
0
100
AcDbLine
10
56.290891
20
25.567416
30
0
11
56.813871
21
24.589693
31
0
39
0
210
0
220
0
230
1
0
LINE
5
D6
100
AcDbEntity
8
1
62
256
6
ByLayer
370
18
48
1
60
0
100
AcDbLine
10
48.057224
20
31.893324
30
0
11
46.388563
21
30.72958
31
0
39
0
210
0
220
0
230
1
0
LINE
5
D7
100
AcDbEntity
8
1
62
256
6
ByLayer
370
18
48
1
60
0
100
AcDbLine
10
56.447753
20
27.655787
30
0
11
56.457401
21
25.889742
31
0
39
0
210
0
220
0
230
1
0
LINE
5
D8
100
AcDbEntity
8
1
62
256
6
ByLayer
370
18
48
1
60
0
100
AcDbLine
10
47.817027
20
30.515856
30
0
11
47.614344
21
30.403141
31
0
39
0
210
0
220
0
230
1
0
LINE
5
D9
100
AcDbEntity
8
1
62
256
6
ByLayer
370
18
48
1
60
0
100
AcDbLine
10
56.447753
20
27.655787
30
0
11
57.50568
21
27.221436
31
0
39
0
210
0
220
0
230
1
0
LINE
5
DA
100
AcDbEntity
8
1
62
256
6
ByLayer
370
18
48
1
60
0
100
AcDbLine
10
56.813871
20
24.589693
30
0
11
55.186117
21
21.752385
31
0
39
0
210
0
220
0
230
1
0
LINE
5
DB
100
AcDbEntity
8
1
62
256
6
ByLayer
370
18
48
1
60
0
100
AcDbLine
10
48.917396
20
31.283267
30
0
11
48.057224
21
31.893324
31
0
39
0
210
0
220
0
230
1
0
LINE
5
DC
100
AcDbEntity
8
1
62
256
6
ByLayer
370
18
48
1
60
0
100
AcDbLine
10
52.500408
20
21.16418
30
0
11
52.382326
21
20.394501
31
0
39
0
210
0
220
0
230
1
0
LINE
5
DD
100
AcDbEntity
8
1
62
256
6
ByLayer
370
18
48
1
60
0
100
AcDbLine
10
48.917396
20
31.283267
30
0
11
47.817027
21
30.515856
31
0
39
0
210
0
220
0
230
1
0
LINE
5
DE
100
AcDbEntity
8
1
62
256
6
ByLayer
370
18
48
1
60
0
100
AcDbLine
10
54.783105
20
22.939223
30
0
11
53.682736
21
22.171812
31
0
39
0
210
0
220
0
230
1
0
LINE
5
DF
100
AcDbEntity
8
1
62
256
6
ByLayer
370
18
48
1
60
0
100
AcDbLine
10
47.614344
20
30.403141
30
0
11
46.388563
21
30.72958
31
0
39
0
210
0
220
0
230
1
0
LINE
5
E0
100
AcDbEntity
8
1
62
256
6
ByLayer
370
18
48
1
60
0
100
AcDbLine
10
47.817027
20
30.515856
30
0
11
50.660199
21
31.183784
31
0
39
0
210
0
220
0
230
1
0
LINE
5
E1
100
AcDbEntity
8
1
62
256
6
ByLayer
370
18
48
1
60
0
100
AcDbLine
10
51.290782
20
32.446355
30
0
11
48.057224
21
31.893324
31
0
39
0
210
0
220
0
230
1
0
LINE
5
E2
100
AcDbEntity
8
1
62
256
6
ByLayer
370
18
48
1
60
0
100
AcDbLine
10
51.912636
20
31.795538
30
0
11
48.917396
21
31.283267
31
0
39
0
210
0
220
0
230
1
0
LINE
5
E3
100
AcDbEntity
8
1
62
256
6
ByLayer
370
18
48
1
60
0
100
AcDbLine
10
50.694826
20
30.490906
30
0
11
46.806582
21
29.577465
31
0
39
0
210
0
220
0
230
1
0
LINE
5
E4
100
AcDbEntity
8
1
62
256
6
ByLayer
370
18
48
1
60
0
100
AcDbLine
10
53.509952
20
22.016566
30
0
11
53.682736
21
22.171812
31
0
39
0
210
0
220
0
230
1
0
LINE
5
E5
100
AcDbEntity
8
1
62
256
6
ByLayer
370
18
48
1
60
0
100
AcDbLine
10
53.93652
20
31.228047
30
0
11
52.273681
21
31.841136
31
0
39
0
210
0
220
0
230
1
0
LINE
5
E6
100
AcDbEntity
8
1
62
256
6
ByLayer
370
18
48
1
60
0
100
AcDbLine
10
53.682736
20
22.171812
30
0
11
55.28536
21
24.604436
31
0
39
0
210
0
220
0
230
1
0
LINE
5
E7
100
AcDbEntity
8
1
62
256
6
ByLayer
370
18
48
1
60
0
100
AcDbLine
10
47.614344
20
30.403141
30
0
11
46.865445
21
29.638103
31
0
39
0
210
0
220
0
230
1
0
LINE
5
E8
100
AcDbEntity
8
1
62
256
6
ByLayer
370
18
48
1
60
0
100
AcDbLine
10
46.865445
20
29.638103
30
0
11
45.817145
21
29.733552
31
0
39
0
210
0
220
0
230
1
0
LINE
5
E9
100
AcDbEntity
8
1
62
256
6
ByLayer
370
18
48
1
60
0
100
AcDbLine
10
52.382326
20
20.394501
30
0
11
53.517457
21
20.58864
31
0
39
0
210
0
220
0
230
1
0
LINE
5
EA
100
AcDbEntity
8
1
62
256
6
ByLayer
370
18
48
1
60
0
100
AcDbLine
10
55.186117
20
21.752385
30
0
11
53.517457
21
20.58864
31
0
39
0
210
0
220
0
230
1
0
LINE
5
EB
100
AcDbEntity
8
1
62
256
6
ByLayer
370
18
48
1
60
0
100
AcDbLine
10
50.660199
20
31.183784
30
0
11
50.694826
21
30.490906
31
0
39
0
210
0
220
0
230
1
0
LINE
5
EC
100
AcDbEntity
8
1
62
256
6
ByLayer
370
18
48
1
60
0
100
AcDbLine
10
53.93652
20
31.228047
30
0
11
54.010274
21
32.193694
31
0
39
0
210
0
220
0
230
1
0
LINE
5
ED
100
AcDbEntity
8
1
62
256
6
ByLayer
370
18
48
1
60
0
100
AcDbLine
10
55.28536
20
24.604436
30
0
11
54.738595
21
24.806094
31
0
39
0
210
0
220
0
230
1
0
LINE
5
EE
100
AcDbEntity
8
1
62
256
6
ByLayer
370
18
48
1
60
0
100
AcDbLine
10
17.252279
20
16.278947
30
0
11
25.40489
21
20.148084
31
0
39
0
210
0
220
0
230
1
0
LINE
5
EF
100
AcDbEntity
8
1
62
256
6
ByLayer
370
18
48
1
60
0
100
AcDbLine
10
35.084459
20
4.323953
30
0
11
33.62579
21
3.081298
31
0
39
0
210
0
220
0
230
1
0
LINE
5
F0
100
AcDbEntity
8
1
62
256
6
ByLayer
370
18
48
1
60
0
100
AcDbLine
10
24.835065
20
14.418374
30
0
11
22.871901
21
12.745936
31
0
39
0
210
0
220
0
230
1
0
LINE
5
F1
100
AcDbEntity
8
1
62
256
6
ByLayer
370
18
48
1
60
0
100
AcDbLine
10
55.113655
20
25.497004
30
0
11
55.10277
21
25.444504
31
0
39
0
210
0
220
0
230
1
0
LINE
5
F2
100
AcDbEntity
8
1
62
256
6
ByLayer
370
18
48
1
60
0
100
AcDbLine
10
33.700659
20
4.168539
30
0
11
43.31616
21
10.874507
31
0
39
0
210
0
220
0
230
1
0
LINE
5
F3
100
AcDbEntity
8
1
62
256
6
ByLayer
370
18
48
1
60
0
100
AcDbLine
10
52.740506
20
21.546561
30
0
11
52.317484
21
20.872864
31
0
39
0
210
0
220
0
230
1
0
LINE
5
F4
100
AcDbEntity
8
1
62
256
6
ByLayer
370
18
48
1
60
0
100
AcDbLine
10
28.816479
20
4.289701
30
0
11
22.871901
21
12.745936
31
0
39
0
210
0
220
0
230
1
0
LINE
5
F5
100
AcDbEntity
8
1
62
256
6
ByLayer
370
18
48
1
60
0
100
AcDbLine
10
31.096722
20
16.250848
30
0
11
30.679494
21
15.895407
31
0
39
0
210
0
220
0
230
1
0
LINE
5
F6
100
AcDbEntity
8
1
62
256
6
ByLayer
370
18
48
1
60
0
100
AcDbLine
10
55.009877
20
25.266693
30
0
11
55.064209
21
25.353222
31
0
39
0
210
0
220
0
230
1
0
LINE
5
F7
100
AcDbEntity
8
1
62
256
6
ByLayer
370
18
48
1
60
0
100
AcDbLine
10
51.600615
20
30.368614
30
0
11
51.446325
21
30.335889
31
0
39
0
210
0
220
0
230
1
0
LINE
5
F8
100
AcDbEntity
8
1
62
256
6
ByLayer
370
18
48
1
60
0
100
AcDbLine
10
36.001985
20
22.272888
30
0
11
35.682297
21
22.000543
31
0
39
0
210
0
220
0
230
1
0
LINE
5
F9
100
AcDbEntity
8
1
62
256
6
ByLayer
370
18
48
1
60
0
100
AcDbLine
10
36.237224
20
4.955579
30
0
11
36.237053
21
4.95546
31
0
39
0
210
0
220
0
230
1
0
LINE
5
FA
100
AcDbEntity
8
1
62
256
6
ByLayer
370
18
48
1
60
0
100
AcDbLine
10
47.545019
20
12.95502
30
0
11
38.978228
21
6.980436
31
0
39
0
210
0
220
0
230
1
0
LINE
5
FB
100
AcDbEntity
8
1
62
256
6
ByLayer
370
18
48
1
60
0
100
AcDbLine
10
45.439609
20
29.831274
30
0
11
40.342294
21
28.75012
31
0
39
0
210
0
220
0
230
1
0
LINE
5
FC
100
AcDbEntity
8
1
62
256
6
ByLayer
370
18
48
1
60
0
100
AcDbLine
10
27.319072
20
13.554087
30
0
11
30.768536
21
8.64718
31
0
39
0
210
0
220
0
230
1
0
LINE
5
FD
100
AcDbEntity
8
1
62
256
6
ByLayer
370
18
48
1
60
0
100
AcDbLine
10
41.923566
20
13.849366
30
0
11
40.142658
21
12.607339
31
0
39
0
210
0
220
0
230
1
0
LINE
5
FE
100
AcDbEntity
8
1
62
256
6
ByLayer
370
18
48
1
60
0
100
AcDbLine
10
24.179186
20
17.712952
30
0
11
33.794687
21
24.41892
31
0
39
0
210
0
220
0
230
1
0
LINE
5
FF
100
AcDbEntity
8
1
62
256
6
ByLayer
370
18
48
1
60
0
100
AcDbLine
10
35.084459
20
4.323953
30
0
11
43.352162
21
10.08995
31
0
39
0
210
0
220
0
230
1
0
LINE
5
100
100
AcDbEntity
8
1
62
256
6
ByLayer
370
18
48
1
60
0
100
AcDbLine
10
51.699104
20
30.354245
30
0
11
51.600615
21
30.368614
31
0
39
0
210
0
220
0
230
1
0
LINE
5
101
100
AcDbEntity
8
1
62
256
6
ByLayer
370
18
48
1
60
0
100
AcDbLine
10
46.384601
20
29.312464
30
0
11
50.444243
21
30.173525
31
0
39
0
210
0
220
0
230
1
0
LINE
5
102
100
AcDbEntity
8
1
62
256
6
ByLayer
370
18
48
1
60
0
100
AcDbLine
10
51.315279
20
30.383419
30
0
11
51.600615
21
30.368614
31
0
39
0
210
0
220
0
230
1
0
LINE
5
103
100
AcDbEntity
8
1
62
256
6
ByLayer
370
18
48
1
60
0
100
AcDbLine
10
33.153245
20
24.598036
30
0
11
24.885542
21
18.832039
31
0
39
0
210
0
220
0
230
1
0
LINE
5
104
100
AcDbEntity
8
1
62
256
6
ByLayer
370
18
48
1
60
0
100
AcDbLine
10
24.835065
20
14.418374
30
0
11
30.779642
21
5.962139
31
0
39
0
210
0
220
0
230
1
0
LINE
5
105
100
AcDbEntity
8
1
62
256
6
ByLayer
370
18
48
1
60
0
100
AcDbLine
10
30.779642
20
5.962139
30
0
11
28.816479
21
4.289701
31
0
39
0
210
0
220
0
230
1
0
LINE
5
106
100
AcDbEntity
8
1
62
256
6
ByLayer
370
18
48
1
60
0
100
AcDbLine
10
34.221077
20
21.030861
30
0
11
36.001985
21
22.272888
31
0
39
0
210
0
220
0
230
1
0
LINE
5
107
100
AcDbEntity
8
1
62
256
6
ByLayer
370
18
48
1
60
0
100
AcDbLine
10
33.909171
20
20.765145
30
0
11
35.682297
21
22.000543
31
0
39
0
210
0
220
0
230
1
0
LINE
5
108
100
AcDbEntity
8
1
62
256
6
ByLayer
370
18
48
1
60
0
100
AcDbLine
10
30.679494
20
15.895407
30
0
11
27.319072
21
13.554087
31
0
39
0
210
0
220
0
230
1
0
LINE
5
109
100
AcDbEntity
8
1
62
256
6
ByLayer
370
18
48
1
60
0
100
AcDbLine
10
38.978228
20
6.980436
30
0
11
36.904606
21
5.445883
31
0
39
0
210
0
220
0
230
1
0
LINE
5
10A
100
AcDbEntity
8
1
62
256
6
ByLayer
370
18
48
1
60
0
100
AcDbLine
10
49.784027
20
15.319083
30
0
11
52.547526
21
19.720174
31
0
39
0
210
0
220
0
230
1
0
LINE
5
10B
100
AcDbEntity
8
1
62
256
6
ByLayer
370
18
48
1
60
0
100
AcDbLine
10
57.774077
20
19.02864
30
0
11
57.811932
21
19.066495
31
0
39
0
210
0
220
0
230
1
0
LINE
5
10C
100
AcDbEntity
8
1
62
256
6
ByLayer
370
18
48
1
60
0
100
AcDbLine
10
44.019707
20
32.765144
30
0
11
44.066495
21
32.811932
31
0
39
0
210
0
220
0
230
1
0
MTEXT
5
20C
100
AcDbEntity
8
SK6
62
256
6
ByLayer
370
18
48
1
60
0
100
AcDbMText
10
-6.625
20
-35.95
30
0
210
0
220
0
230
1
1
\W0.7235;C5-CCLNR-35060-16-4
40
3.5
41
0
44
1.084337
50
0
71
7
72
5
7
iso_b_vert
0
DIMENSION
5
22B
100
AcDbEntity
8
2
62
256
6
ByLayer
370
13
48
1
60
0
100
AcDbDimension
2
DimnDraft3D2
10
57.715345
20
34.914221
30
0
11
47.571687
21
46.551878
31
0
70
34
71
5
72
1
41
1
210
0
220
0
230
1
3
Standard
100
AcDb2LineAngularDimension
13
60
23
35
33
0
14
60
24
32.61875
34
0
15
58.711994
25
34.996011
35
0
16
50.881237
26
43.502799
36
0
40
0
0
DIMENSION
5
241
100
AcDbEntity
8
SK2
62
256
6
ByLayer
370
13
48
1
60
0
100
AcDbDimension
2
DimnDraft3D3
10
-37.75
20
25
30
0
11
-37.75
21
-2.688158
31
0
70
32
71
5
72
1
41
1
210
0
220
0
230
1
3
Standard
100
AcDbAlignedDimension
13
-2
23
-25
33
0
14
-2
24
25
34
0
50
90
100
AcDbRotatedDimension
1001
ACAD
1000
DSTYLE
1002
{
1070
    74
1070
     0
1070
   279
1070
     0
1070
   172
1070
     1
1070
   173
1070
     1
1070
   340
1005
20D
1070
    77
1070
     1
1070
    73
1070
     0
1070
   171
1070
     3
1070
   274
1070
     4
1070
   177
1070
     2
1070
   176
1070
     2
1070
   178
1070
     7
1070
    78
1070
     8
1070
    41
1041
3.175
1070
   147
1041
2.25
1070
    42
1041
2.0
1070
    44
1041
2.0
1070
   140
1041
4.5
1070
   343
1005
22C
1070
   344
1005
22C
1002
}
0
DIMENSION
5
24F
100
AcDbEntity
8
2
62
256
6
ByLayer
370
13
48
1
60
0
100
AcDbDimension
2
DimnDraft3D4
10
82.25
20
35
30
0
11
82.25
21
12.218421
31
0
70
32
71
5
72
1
41
1
210
0
220
0
230
1
3
Standard
100
AcDbAlignedDimension
13
62
23
0
33
0
14
62
24
35
34
0
50
90
100
AcDbRotatedDimension
1001
ACAD
1000
DSTYLE
1002
{
1070
    74
1070
     0
1070
   279
1070
     0
1070
   172
1070
     1
1070
   173
1070
     1
1070
   340
1005
20D
1070
    77
1070
     1
1070
    73
1070
     0
1070
   171
1070
     3
1070
   274
1070
     4
1070
   177
1070
     2
1070
   176
1070
     2
1070
   178
1070
     7
1070
    78
1070
     8
1070
    41
1041
3.175
1070
   147
1041
2.25
1070
    42
1041
2.0
1070
    44
1041
2.0
1070
   140
1041
4.5
1070
   343
1005
22C
1070
   344
1005
22C
1002
}
0
ENDSEC
0
SECTION
2
OBJECTS
0
DICTIONARY
5
2ba
330
0
100
AcDbDictionary
280
0
281
1
3
ACAD_GROUP
350
2bb
3
ACAD_MLINESTYLE
350
2bc
0
DICTIONARY
5
2bb
330
0
100
AcDbDictionary
280
0
281
1
0
DICTIONARY
5
2bc
330
0
100
AcDbDictionary
280
0
281
1
3
Standard
350
18
0
MLINESTYLE
5
18
330
2bc
100
AcDbMlineStyle
2
Standard
70
0
3

62
256
51
90
52
90
71
2
49
-0.5
62
256
6
ByLayer
49
0.5
62
256
6
ByLayer
0
RASTERVARIABLES
5
2a8
330

100
AcDbRasterVariables
90
0
70
1
71
1
72
1
0
ENDSEC
0
EOF
