0
SECTION
2
HEADER
9
$ACADVER
1
AC1015
9
$DWGCODEPAGE
3
ANSI_1252
9
$HANDSEED
5
2b2
9
$ANGBASE
50
0
9
$ANGDIR
70
0
9
$ATTMODE
70
1
9
$AUNITS
70
0
9
$AUPREC
70
0
9
$CECOLOR
62
256
9
$CELTSCALE
40
1
9
$CELTYPE
6
ByLayer
9
$CELWEIGHT
370
18
9
$CLAYER
8
0
9
$CMLJUST
70
0
9
$CMLSCALE
40
1
9
$CMLSTYLE
2
Standard
9
$DIMSTYLE
2
Standard
9
$TEXTSIZE
40
0.2
9
$TEXTSTYLE
7
Standard
9
$LUNITS
70
2
9
$LUPREC
70
4
9
$EXTNAMES
290
1
9
$INSUNITS
70
4
9
$LTSCALE
40
1
9
$LWDISPLAY
290
1
9
$PDMODE
70
0
9
$PDSIZE
40
0
9
$PLINEGEN
70
0
0
ENDSEC
0
SECTION
2
CLASSES
0
CLASS
1
RASTERVARIABLES
2
AcDbRasterVariables
3
ISM
90
0
280
0
281
0
0
ENDSEC
0
SECTION
2
TABLES
0
TABLE
2
VPORT
5
2a8
100
AcDbSymbolTable
0
VPORT
5
1
100
AcDbSymbolTableRecord
100
AcDbViewportTableRecord
2
*Active
70
0
10
0
20
0
11
1
21
1
12
-1
22
1
13
0
23
0
14
0.5
24
0.5
15
10
25
10
16
0
26
0
36
1
17
0
27
0
37
0
0
ENDTAB
0
TABLE
2
LTYPE
5
2a9
100
AcDbSymbolTable
0
LTYPE
5
14
100
AcDbSymbolTableRecord
100
AcDbLinetypeTableRecord
70
0
2
ByBlock
3

72
65
73
0
40
0
0
LTYPE
5
15
100
AcDbSymbolTableRecord
100
AcDbLinetypeTableRecord
70
0
2
ByLayer
3

72
65
73
0
40
0
0
LTYPE
5
16
100
AcDbSymbolTableRecord
100
AcDbLinetypeTableRecord
70
0
2
CONTINUOUS
3
Solid line
72
65
73
0
40
0
0
LTYPE
5
6A
100
AcDbSymbolTableRecord
100
AcDbLinetypeTableRecord
70
0
2
CENTER
3
____ _ ____ _ ____ _ ____
72
65
73
4
40
47.5
49
22
74
0
49
-8.5
74
0
49
8.5
74
0
49
-8.5
74
0
0
LTYPE
5
6B
100
AcDbSymbolTableRecord
100
AcDbLinetypeTableRecord
70
0
2
DASHED
3
__ __ __ __ __ __ __ __ __
72
65
73
2
40
25.72
49
12.86
74
0
49
-12.86
74
0
0
ENDTAB
0
TABLE
2
LAYER
5
2aa
100
AcDbSymbolTable
0
LAYER
5
10
100
AcDbSymbolTableRecord
100
AcDbLayerTableRecord
2
0
70
0
62
7
6
CONTINUOUS
290
1
370
-3
390
0
0
LAYER
5
6D
100
AcDbSymbolTableRecord
100
AcDbLayerTableRecord
2
2
70
0
62
7
6
CONTINUOUS
290
1
370
-3
390
0
0
LAYER
5
6F
100
AcDbSymbolTableRecord
100
AcDbLayerTableRecord
2
80
70
0
62
-6
6
CONTINUOUS
290
1
370
-3
390
0
0
LAYER
5
71
100
AcDbSymbolTableRecord
100
AcDbLayerTableRecord
2
81
70
0
62
-3
6
CONTINUOUS
290
1
370
-3
390
0
0
LAYER
5
73
100
AcDbSymbolTableRecord
100
AcDbLayerTableRecord
2
1
70
0
62
4
6
CONTINUOUS
290
1
370
-3
390
0
0
LAYER
5
8C
100
AcDbSymbolTableRecord
100
AcDbLayerTableRecord
2
4
70
0
62
-2
6
CENTER
290
1
370
-3
390
0
0
LAYER
5
294
100
AcDbSymbolTableRecord
100
AcDbLayerTableRecord
2
SK4
70
0
62
2
6
CENTER
290
1
370
-3
390
0
0
LAYER
5
295
100
AcDbSymbolTableRecord
100
AcDbLayerTableRecord
2
SK1
70
0
62
4
6
CONTINUOUS
290
1
370
-3
390
0
0
LAYER
5
296
100
AcDbSymbolTableRecord
100
AcDbLayerTableRecord
2
SK6
70
0
62
5
6
CONTINUOUS
290
1
370
-3
390
0
0
LAYER
5
297
100
AcDbSymbolTableRecord
100
AcDbLayerTableRecord
2
SK2
70
0
62
7
6
CONTINUOUS
290
1
370
-3
390
0
0
ENDTAB
0
TABLE
2
STYLE
5
2ab
100
AcDbSymbolTable
0
STYLE
5
11
100
AcDbSymbolTableRecord
100
AcDbTextStyleTableRecord
2
Standard
3
txt
70
0
71
0
40
0
41
1
42
0
50
0
0
STYLE
5
1F8
100
AcDbSymbolTableRecord
100
AcDbTextStyleTableRecord
2
iso_b_vert
3
simplex.shx
70
0
71
0
40
0
41
1
42
0
50
0
0
STYLE
5
1F9
100
AcDbSymbolTableRecord
100
AcDbTextStyleTableRecord
2
DWGDirectTextStyle
3
simplex
70
0
71
0
40
0
41
1
42
0
50
0
0
ENDTAB
0
TABLE
2
DIMSTYLE
5
2ac
100
AcDbSymbolTable
100
AcDbDimStyleTable
0
DIMSTYLE
105
27
100
AcDbSymbolTableRecord
100
AcDbDimStyleTableRecord
2
Standard
70
0
3
<>
41
0.18
42
0.0625
44
0.18
140
0.18
147
0.09
73
0
74
0
77
1
271
2
275
0
278
52
280
0
340
11
0
ENDTAB
0
TABLE
2
VIEW
5
2ad
100
AcDbSymbolTable
0
ENDTAB
0
TABLE
2
UCS
5
2ae
100
AcDbSymbolTable
0
ENDTAB
0
TABLE
2
APPID
5
2af
100
AcDbSymbolTable
0
APPID
5
12
100
AcDbSymbolTableRecord
100
AcDbRegAppTableRecord
2
ACAD
70
0
0
ENDTAB
0
TABLE
2
BLOCK_RECORD
5
2b0
100
AcDbSymbolTable
0
BLOCK_RECORD
5
1F
100
AcDbSymbolTableRecord
100
AcDbBlockTableRecord
2
*Model_Space
340
0
70
0
0
BLOCK_RECORD
5
1B
100
AcDbSymbolTableRecord
100
AcDbBlockTableRecord
2
*Paper_Space
340
0
70
0
0
BLOCK_RECORD
5
23
100
AcDbSymbolTableRecord
100
AcDbBlockTableRecord
2
*Paper_Space0
340
0
70
0
0
BLOCK_RECORD
5
1FB
100
AcDbSymbolTableRecord
100
AcDbBlockTableRecord
2
DimnDraft3D1
340
0
70
0
0
BLOCK_RECORD
5
209
100
AcDbSymbolTableRecord
100
AcDbBlockTableRecord
2
_CLOSED
340
0
70
0
0
BLOCK_RECORD
5
210
100
AcDbSymbolTableRecord
100
AcDbBlockTableRecord
2
DimnDraft3D2
340
0
70
0
0
BLOCK_RECORD
5
21E
100
AcDbSymbolTableRecord
100
AcDbBlockTableRecord
2
DimnDraft3D3
340
0
70
0
0
BLOCK_RECORD
5
22D
100
AcDbSymbolTableRecord
100
AcDbBlockTableRecord
2
DimnDraft3D4
340
0
70
0
0
ENDTAB
0
ENDSEC
0
SECTION
2
BLOCKS
0
BLOCK
5
20
100
AcDbEntity
8
0
100
AcDbBlockBegin
2
*Model_Space
70
0
10
0
20
0
30
0
3
*Model_Space
0
ENDBLK
5
21
100
AcDbEntity
8
0
100
AcDbBlockEnd
0
BLOCK
5
1C
100
AcDbEntity
8
0
100
AcDbBlockBegin
2
*Paper_Space
70
0
10
0
20
0
30
0
3
*Paper_Space
0
ENDBLK
5
1D
100
AcDbEntity
8
0
100
AcDbBlockEnd
0
BLOCK
5
24
100
AcDbEntity
8
0
100
AcDbBlockBegin
2
*Paper_Space0
70
0
10
0
20
0
30
0
3
*Paper_Space0
0
ENDBLK
5
25
100
AcDbEntity
8
0
100
AcDbBlockEnd
0
BLOCK
5
206
100
AcDbEntity
8
0
100
AcDbBlockBegin
2
DimnDraft3D1
70
0
10
0
20
0
30
0
3
DimnDraft3D1
0
MTEXT
5
1FC
100
AcDbEntity
8
2
62
256
6
ByLayer
370
18
48
1
60
0
100
AcDbMText
10
43.094067
20
-46.674116
30
0
210
0
220
0
230
1
1
\W0.7399;95%%d
40
4.5
41
0
44
1.084337
50
312.65427684
71
7
72
5
7
iso_b_vert
0
LINE
5
1FD
100
AcDbEntity
8
2
62
256
6
ByLayer
370
13
48
1
60
0
100
AcDbLine
10
45.188235
20
-33.852285
30
0
11
36.655791
21
-33.152072
31
0
39
0
210
0
220
0
230
1
0
LINE
5
1FE
100
AcDbEntity
8
2
62
256
6
ByLayer
370
13
48
1
60
0
100
AcDbLine
10
60
20
-37
30
0
11
60
21
-58.490491
31
0
39
0
210
0
220
0
230
1
0
ARC
5
1FF
100
AcDbEntity
8
2
62
256
6
ByLayer
370
13
48
1
60
0
100
AcDbCircle
39
0
10
60
20
-35.067807
30
0
40
21.4226837810116
210
0
220
0
230
1
100
AcDbArc
50
175.308554
51
270
0
LINE
5
200
100
AcDbEntity
8
2
62
256
6
ByLayer
370
13
48
1
60
0
100
AcDbLine
10
38.649091
20
-33.315652
30
0
11
38.924166
21
-36.506211
31
0
39
0
210
0
220
0
230
1
0
LINE
5
201
100
AcDbEntity
8
2
62
256
6
ByLayer
370
13
48
1
60
0
100
AcDbLine
10
38.649091
20
-33.315652
30
0
11
38.089015
21
-36.468693
31
0
39
0
210
0
220
0
230
1
0
LINE
5
202
100
AcDbEntity
8
2
62
256
6
ByLayer
370
13
48
1
60
0
100
AcDbLine
10
38.924166
20
-36.506211
30
0
11
38.089015
21
-36.468693
31
0
39
0
210
0
220
0
230
1
0
LINE
5
203
100
AcDbEntity
8
2
62
256
6
ByLayer
370
13
48
1
60
0
100
AcDbLine
10
60
20
-56.490491
30
0
11
56.811717
21
-56.790804
31
0
39
0
210
0
220
0
230
1
0
LINE
5
204
100
AcDbEntity
8
2
62
256
6
ByLayer
370
13
48
1
60
0
100
AcDbLine
10
60
20
-56.490491
30
0
11
56.842625
21
-55.955382
31
0
39
0
210
0
220
0
230
1
0
LINE
5
205
100
AcDbEntity
8
2
62
256
6
ByLayer
370
13
48
1
60
0
100
AcDbLine
10
56.811717
20
-56.790804
30
0
11
56.842625
21
-55.955382
31
0
39
0
210
0
220
0
230
1
0
ENDBLK
5
207
100
AcDbEntity
8
0
100
AcDbBlockEnd
0
BLOCK
5
20A
100
AcDbEntity
8
0
100
AcDbBlockBegin
2
_CLOSED
70
0
10
0
20
0
30
0
3
_CLOSED
0
LINE
5
20C
100
AcDbEntity
8
0
62
256
6
ByLayer
370
-2
48
1
60
0
100
AcDbLine
10
-1
20
0.166667
30
0
11
0
21
0
31
0
39
0
210
0
220
0
230
1
0
LINE
5
20D
100
AcDbEntity
8
0
62
256
6
ByLayer
370
-2
48
1
60
0
100
AcDbLine
10
0
20
0
30
0
11
-1
21
-0.166667
31
0
39
0
210
0
220
0
230
1
0
LINE
5
20E
100
AcDbEntity
8
0
62
256
6
ByLayer
370
-2
48
1
60
0
100
AcDbLine
10
-1
20
0.166667
30
0
11
-1
21
-0.166667
31
0
39
0
210
0
220
0
230
1
0
LINE
5
20F
100
AcDbEntity
8
0
62
256
6
ByLayer
370
-2
48
1
60
0
100
AcDbLine
10
0
20
0
30
0
11
-1
21
0
31
0
39
0
210
0
220
0
230
1
0
ENDBLK
5
20B
100
AcDbEntity
8
0
100
AcDbBlockEnd
0
BLOCK
5
21B
100
AcDbEntity
8
0
100
AcDbBlockBegin
2
DimnDraft3D2
70
0
10
0
20
0
30
0
3
DimnDraft3D2
0
MTEXT
5
211
100
AcDbEntity
8
2
62
256
6
ByLayer
370
18
48
1
60
0
100
AcDbMText
10
25.843421
20
-61.125
30
0
210
0
220
0
230
1
1
\W0.7346;60.0
40
4.5
41
0
44
1.084337
50
0
71
7
72
5
7
iso_b_vert
0
LINE
5
212
100
AcDbEntity
8
2
62
256
6
ByLayer
370
13
48
1
60
0
100
AcDbLine
10
0
20
-27
30
0
11
0
21
-64.25
31
0
39
0
210
0
220
0
230
1
0
LINE
5
213
100
AcDbEntity
8
2
62
256
6
ByLayer
370
13
48
1
60
0
100
AcDbLine
10
60
20
-37
30
0
11
60
21
-64.25
31
0
39
0
210
0
220
0
230
1
0
LINE
5
214
100
AcDbEntity
8
2
62
256
6
ByLayer
370
13
48
1
60
0
100
AcDbLine
10
0
20
-62.25
30
0
11
60
21
-62.25
31
0
39
0
210
0
220
0
230
1
0
LINE
5
215
100
AcDbEntity
8
2
62
256
6
ByLayer
370
13
48
1
60
0
100
AcDbLine
10
0
20
-62.25
30
0
11
3.174998
21
-61.832003
31
0
39
0
210
0
220
0
230
1
0
LINE
5
216
100
AcDbEntity
8
2
62
256
6
ByLayer
370
13
48
1
60
0
100
AcDbLine
10
0
20
-62.25
30
0
11
3.175002
21
-62.667997
31
0
39
0
210
0
220
0
230
1
0
LINE
5
217
100
AcDbEntity
8
2
62
256
6
ByLayer
370
13
48
1
60
0
100
AcDbLine
10
3.174998
20
-61.832003
30
0
11
3.175002
21
-62.667997
31
0
39
0
210
0
220
0
230
1
0
LINE
5
218
100
AcDbEntity
8
2
62
256
6
ByLayer
370
13
48
1
60
0
100
AcDbLine
10
60
20
-62.25
30
0
11
56.825002
21
-62.667997
31
0
39
0
210
0
220
0
230
1
0
LINE
5
219
100
AcDbEntity
8
2
62
256
6
ByLayer
370
13
48
1
60
0
100
AcDbLine
10
60
20
-62.25
30
0
11
56.824998
21
-61.832003
31
0
39
0
210
0
220
0
230
1
0
LINE
5
21A
100
AcDbEntity
8
2
62
256
6
ByLayer
370
13
48
1
60
0
100
AcDbLine
10
56.825002
20
-62.667997
30
0
11
56.824998
21
-61.832003
31
0
39
0
210
0
220
0
230
1
0
ENDBLK
5
21C
100
AcDbEntity
8
0
100
AcDbBlockEnd
0
BLOCK
5
22A
100
AcDbEntity
8
0
100
AcDbBlockBegin
2
DimnDraft3D3
70
0
10
0
20
0
30
0
3
DimnDraft3D3
0
MTEXT
5
21F
100
AcDbEntity
8
SK2
62
256
6
ByLayer
370
18
48
1
60
0
100
AcDbMText
10
-38.875
20
-1.563158
30
0
210
0
220
0
230
1
1
\W0.6740;50
40
4.5
41
0
44
1.084337
50
90
71
7
72
5
7
iso_b_vert
0
LINE
5
221
100
AcDbEntity
8
SK2
62
256
6
ByLayer
370
13
48
1
60
0
100
AcDbLine
10
-2
20
-25
30
0
11
-39.75
21
-25
31
0
39
0
210
0
220
0
230
1
0
LINE
5
222
100
AcDbEntity
8
SK2
62
256
6
ByLayer
370
13
48
1
60
0
100
AcDbLine
10
-2
20
25
30
0
11
-39.75
21
25
31
0
39
0
210
0
220
0
230
1
0
LINE
5
223
100
AcDbEntity
8
SK2
62
256
6
ByLayer
370
13
48
1
60
0
100
AcDbLine
10
-37.75
20
-25
30
0
11
-37.75
21
25
31
0
39
0
210
0
220
0
230
1
0
LINE
5
224
100
AcDbEntity
8
SK2
62
256
6
ByLayer
370
13
48
1
60
0
100
AcDbLine
10
-37.75
20
-25
30
0
11
-38.167997
21
-21.825002
31
0
39
0
210
0
220
0
230
1
0
LINE
5
225
100
AcDbEntity
8
SK2
62
256
6
ByLayer
370
13
48
1
60
0
100
AcDbLine
10
-37.75
20
-25
30
0
11
-37.332003
21
-21.824998
31
0
39
0
210
0
220
0
230
1
0
LINE
5
226
100
AcDbEntity
8
SK2
62
256
6
ByLayer
370
13
48
1
60
0
100
AcDbLine
10
-38.167997
20
-21.825002
30
0
11
-37.332003
21
-21.824998
31
0
39
0
210
0
220
0
230
1
0
LINE
5
227
100
AcDbEntity
8
SK2
62
256
6
ByLayer
370
13
48
1
60
0
100
AcDbLine
10
-37.75
20
25
30
0
11
-37.332003
21
21.825002
31
0
39
0
210
0
220
0
230
1
0
LINE
5
228
100
AcDbEntity
8
SK2
62
256
6
ByLayer
370
13
48
1
60
0
100
AcDbLine
10
-37.75
20
25
30
0
11
-38.167997
21
21.824998
31
0
39
0
210
0
220
0
230
1
0
LINE
5
229
100
AcDbEntity
8
SK2
62
256
6
ByLayer
370
13
48
1
60
0
100
AcDbLine
10
-37.332003
20
21.825002
30
0
11
-38.167997
21
21.824998
31
0
39
0
210
0
220
0
230
1
0
ENDBLK
5
22B
100
AcDbEntity
8
0
100
AcDbBlockEnd
0
BLOCK
5
238
100
AcDbEntity
8
0
100
AcDbBlockBegin
2
DimnDraft3D4
70
0
10
0
20
0
30
0
3
DimnDraft3D4
0
MTEXT
5
22E
100
AcDbEntity
8
2
62
256
6
ByLayer
370
18
48
1
60
0
100
AcDbMText
10
81.125
20
-21.656579
30
0
210
0
220
0
230
1
1
\W0.7346;35.0
40
4.5
41
0
44
1.084337
50
90
71
7
72
5
7
iso_b_vert
0
LINE
5
22F
100
AcDbEntity
8
2
62
256
6
ByLayer
370
13
48
1
60
0
100
AcDbLine
10
62
20
0
30
0
11
84.25
21
0
31
0
39
0
210
0
220
0
230
1
0
LINE
5
230
100
AcDbEntity
8
2
62
256
6
ByLayer
370
13
48
1
60
0
100
AcDbLine
10
62
20
-35
30
0
11
84.25
21
-35
31
0
39
0
210
0
220
0
230
1
0
LINE
5
231
100
AcDbEntity
8
2
62
256
6
ByLayer
370
13
48
1
60
0
100
AcDbLine
10
82.25
20
0
30
0
11
82.25
21
-35
31
0
39
0
210
0
220
0
230
1
0
LINE
5
232
100
AcDbEntity
8
2
62
256
6
ByLayer
370
13
48
1
60
0
100
AcDbLine
10
82.25
20
0
30
0
11
82.667997
21
-3.174998
31
0
39
0
210
0
220
0
230
1
0
LINE
5
233
100
AcDbEntity
8
2
62
256
6
ByLayer
370
13
48
1
60
0
100
AcDbLine
10
82.25
20
0
30
0
11
81.832003
21
-3.175002
31
0
39
0
210
0
220
0
230
1
0
LINE
5
234
100
AcDbEntity
8
2
62
256
6
ByLayer
370
13
48
1
60
0
100
AcDbLine
10
82.667997
20
-3.174998
30
0
11
81.832003
21
-3.175002
31
0
39
0
210
0
220
0
230
1
0
LINE
5
235
100
AcDbEntity
8
2
62
256
6
ByLayer
370
13
48
1
60
0
100
AcDbLine
10
82.25
20
-35
30
0
11
81.832003
21
-31.825002
31
0
39
0
210
0
220
0
230
1
0
LINE
5
236
100
AcDbEntity
8
2
62
256
6
ByLayer
370
13
48
1
60
0
100
AcDbLine
10
82.25
20
-35
30
0
11
82.667997
21
-31.824998
31
0
39
0
210
0
220
0
230
1
0
LINE
5
237
100
AcDbEntity
8
2
62
256
6
ByLayer
370
13
48
1
60
0
100
AcDbLine
10
81.832003
20
-31.825002
30
0
11
82.667997
21
-31.824998
31
0
39
0
210
0
220
0
230
1
0
ENDBLK
5
239
100
AcDbEntity
8
0
100
AcDbBlockEnd
0
ENDSEC
0
SECTION
2
ENTITIES
0
ARC
5
117
100
AcDbEntity
8
SK1
62
256
6
ByLayer
370
18
48
1
60
0
100
AcDbCircle
39
0
10
0.6
20
-18.75
30
0
40
1.00000000000001
210
0
220
0
230
-1
100
AcDbArc
50
113.578178
51
126.869898
0
ARC
5
118
100
AcDbEntity
8
SK1
62
256
6
ByLayer
370
18
48
1
60
0
100
AcDbCircle
39
0
10
0.6
20
18.75
30
0
40
1.00000000000001
210
0
220
0
230
-1
100
AcDbArc
50
233.130102
51
246.421822
0
ELLIPSE
5
119
100
AcDbEntity
8
1
62
256
6
ByLayer
370
18
48
1
60
0
100
AcDbEllipse
10
17.329058
20
-18.748852
30
0
11
-0.0227270275731017
21
2.77595171119973
31
0
210
0
220
0
230
1
40
0.080275
41
-0.535121258375908
42
0.000256566004590555
0
ELLIPSE
5
11A
100
AcDbEntity
8
1
62
256
6
ByLayer
370
18
48
1
60
0
100
AcDbEllipse
10
10
20
-17.843094
30
0
11
2
21
0
31
0
210
0
220
0
230
1
40
0.580703
41
-2.86316899596237
42
-0.278325648826447
0
ELLIPSE
5
11B
100
AcDbEntity
8
1
62
256
6
ByLayer
370
18
48
1
60
0
100
AcDbEllipse
10
41.057363
20
-19.550614
30
0
11
1.76776695297042
21
1.76776695296232
31
0
210
0
220
0
230
1
40
0.989133
41
-2.0469496413473
42
-1.49010222862698
0
ELLIPSE
5
11C
100
AcDbEntity
8
1
62
256
6
ByLayer
370
18
48
1
60
0
100
AcDbEllipse
10
43.940803
20
0
30
0
11
-22.2034662478545
21
25.1495301448736
31
0
210
0
220
0
230
1
40
0.006924
41
-0.206253268708805
42
-0.00610023860374355
0
ELLIPSE
5
11D
100
AcDbEntity
8
1
62
256
6
ByLayer
370
18
48
1
60
0
100
AcDbEllipse
10
53.518218
20
-28.518218
30
0
11
2.37173880783045
21
2.37173880781959
31
0
210
0
220
0
230
1
40
0.989133
41
-2.59181393921158
42
-1.70086719047659
0
ELLIPSE
5
11E
100
AcDbEntity
8
1
62
256
6
ByLayer
370
18
48
1
60
0
100
AcDbEllipse
10
53.518218
20
-28.518218
30
0
11
2.37173880783045
21
2.37173880781959
31
0
210
0
220
0
230
1
40
0.989133
41
-1.68166364135479
42
-1.54290498204424
0
ELLIPSE
5
11F
100
AcDbEntity
8
1
62
256
6
ByLayer
370
18
48
1
60
0
100
AcDbEllipse
10
53.518218
20
-28.518218
30
0
11
2.37173880783045
21
2.37173880781959
31
0
210
0
220
0
230
1
40
0.989133
41
-1.23157622516254
42
-0.200712863979354
0
ELLIPSE
5
120
100
AcDbEntity
8
1
62
256
6
ByLayer
370
18
48
1
60
0
100
AcDbEllipse
10
53.164749
20
-28.164749
30
0
11
-3.88908729653492
21
-3.8890872965171
31
0
210
0
220
0
230
1
40
0.989133
41
-2.53072741539178
42
-2.33726583878244
0
ELLIPSE
5
121
100
AcDbEntity
8
1
62
256
6
ByLayer
370
18
48
1
60
0
100
AcDbEllipse
10
53.445445
20
-28.445445
30
0
11
3.37752183088368
21
3.37752183086821
31
0
210
0
220
0
230
1
40
0.989133
41
0.704393121263897
42
0.721861308332415
0
ELLIPSE
5
122
100
AcDbEntity
8
1
62
256
6
ByLayer
370
18
48
1
60
0
100
AcDbEllipse
10
53.445445
20
-28.445445
30
0
11
3.37752183088368
21
3.37752183086821
31
0
210
0
220
0
230
1
40
0.989133
41
2.77078139220238
42
2.78626538272476
0
ELLIPSE
5
123
100
AcDbEntity
8
1
62
256
6
ByLayer
370
18
48
1
60
0
100
AcDbEllipse
10
53.164749
20
-28.164749
30
0
11
-3.88908729653492
21
-3.8890872965171
31
0
210
0
220
0
230
1
40
0.989133
41
-0.434226991240621
42
-0.261799387799152
0
ELLIPSE
5
124
100
AcDbEntity
8
1
62
256
6
ByLayer
370
18
48
1
60
0
100
AcDbEllipse
10
24.45241
20
-22.129514
30
0
11
0.943257999448964
21
1.98752719389586
31
0
210
0
220
0
230
1
40
0.132393
41
-3.14156792737321
42
-0.0375901703554024
0
ELLIPSE
5
125
100
AcDbEntity
8
1
62
256
6
ByLayer
370
18
48
1
60
0
100
AcDbEllipse
10
24.676277
20
-22.235759
30
0
11
-0.836069590420684
21
-1.76167183095312
31
0
210
0
220
0
230
1
40
0.132393
41
0.133968564381997
42
3.00756345360658
0
ELLIPSE
5
126
100
AcDbEntity
8
1
62
256
6
ByLayer
370
18
48
1
60
0
100
AcDbEllipse
10
42.702528
20
-21.065681
30
0
11
2.87977528400875
21
2.98820921516756
31
0
210
0
220
0
230
1
40
0.986455
41
-2.98531237060877
42
-0.0138074336181775
0
ELLIPSE
5
127
100
AcDbEntity
8
1
62
256
6
ByLayer
370
18
48
1
60
0
100
AcDbEllipse
10
42.259342
20
-19.392987
30
0
11
-0.268700576851503
21
-0.268700576850273
31
0
210
0
220
0
230
1
40
0.989133
41
2.42225340979502
42
2.68594738862235
0
ELLIPSE
5
128
100
AcDbEntity
8
1
62
256
6
ByLayer
370
18
48
1
60
0
100
AcDbEllipse
10
41.009644
20
-21.170697
30
0
11
-0.268700576851503
21
-0.268700576850273
31
0
210
0
220
0
230
1
40
0.989133
41
0.455613680093759
42
1.06840509419364
0
ELLIPSE
5
129
100
AcDbEntity
8
1
62
256
6
ByLayer
370
18
48
1
60
0
100
AcDbEllipse
10
43.05851
20
-19.335773
30
0
11
0.300520382004971
21
0.300520382003595
31
0
210
0
220
0
230
1
40
0.989133
41
2.42225340979506
42
-3.14158919864636
0
ELLIPSE
5
12A
100
AcDbEntity
8
1
62
256
6
ByLayer
370
18
48
1
60
0
100
AcDbEllipse
10
41.229015
20
-21.938253
30
0
11
0.300520382004971
21
0.300520382003595
31
0
210
0
220
0
230
1
40
0.989133
41
3.51676188998784E-06
42
1.06840509419363
0
ELLIPSE
5
12B
100
AcDbEntity
8
1
62
256
6
ByLayer
370
18
48
1
60
0
100
AcDbEllipse
10
43.27788
20
-20.103329
30
0
11
-0.268700576851503
21
-0.268700576850273
31
0
210
0
220
0
230
1
40
0.989133
41
1.37505585859845
42
2.6859505900918
0
ELLIPSE
5
12C
100
AcDbEntity
8
1
62
256
6
ByLayer
370
18
48
1
60
0
100
AcDbEllipse
10
42.028183
20
-21.881038
30
0
11
-0.268700576851503
21
-0.268700576850273
31
0
210
0
220
0
230
1
40
0.989133
41
0.455656467956229
42
2.11560264539022
0
ELLIPSE
5
12D
100
AcDbEntity
8
1
62
256
6
ByLayer
370
18
48
1
60
0
100
AcDbEllipse
10
43.719454
20
-20.766322
30
0
11
0.300520382004971
21
0.300520382003595
31
0
210
0
220
0
230
1
40
0.989133
41
1.37505585859843
42
3.14157045834449
0
ELLIPSE
5
12E
100
AcDbEntity
8
1
62
256
6
ByLayer
370
18
48
1
60
0
100
AcDbEllipse
10
43.162301
20
-21.347354
30
0
11
-0.268700576851503
21
-0.268700576850273
31
0
210
0
220
0
230
1
40
0.989133
41
0.327858307401845
42
3.11070847430903
0
ELLIPSE
5
12F
100
AcDbEntity
8
1
62
256
6
ByLayer
370
18
48
1
60
0
100
AcDbEllipse
10
42.034603
20
-20.527853
30
0
11
2.82842712475267
21
2.82842712473971
31
0
210
0
220
0
230
1
40
0.989133
41
0.790861385157308
42
3.14158710851734
0
ELLIPSE
5
130
100
AcDbEntity
8
1
62
256
6
ByLayer
370
18
48
1
60
0
100
AcDbEllipse
10
42.034603
20
-20.527853
30
0
11
2.82842712475267
21
2.82842712473971
31
0
210
0
220
0
230
1
40
0.989133
41
9.25359672438654E-05
42
0.790861385157306
0
ELLIPSE
5
131
100
AcDbEntity
8
1
62
256
6
ByLayer
370
18
48
1
60
0
100
AcDbEllipse
10
42.143762
20
-20.637013
30
0
11
0.813172798366392
21
0.813172798362668
31
0
210
0
220
0
230
1
40
0.989133
41
1.50864578969161
42
2.10741347849625
0
ELLIPSE
5
132
100
AcDbEntity
8
1
62
256
6
ByLayer
370
18
48
1
60
0
100
AcDbEllipse
10
42.143762
20
-20.637013
30
0
11
0.813172798366392
21
0.813172798362668
31
0
210
0
220
0
230
1
40
0.989133
41
2.72944968966501
42
-0.0517435354044309
0
ELLIPSE
5
133
100
AcDbEntity
8
1
62
256
6
ByLayer
370
18
48
1
60
0
100
AcDbEllipse
10
42.143762
20
-20.637013
30
0
11
0.813172798366392
21
0.813172798362668
31
0
210
0
220
0
230
1
40
0.989133
41
0.118491029831412
42
0.790860751325605
0
ELLIPSE
5
134
100
AcDbEntity
8
1
62
256
6
ByLayer
370
18
48
1
60
0
100
AcDbEllipse
10
42.055395
20
-20.548645
30
0
11
0.813172798366392
21
0.813172798362668
31
0
210
0
220
0
230
1
40
0.989133
41
-3.08671874739813
42
-0.118404155601882
0
ELLIPSE
5
135
100
AcDbEntity
8
1
62
256
6
ByLayer
370
18
48
1
60
0
100
AcDbEllipse
10
33.419128
20
-19.583461
30
0
11
-1.86177536637312
21
-2.35297642300877
31
0
210
0
220
0
230
1
40
0.877989
41
-1.50628975689406
42
0.0317898717377303
0
ELLIPSE
5
136
100
AcDbEntity
8
1
62
256
6
ByLayer
370
18
48
1
60
0
100
AcDbEllipse
10
34.223965
20
-21.981292
30
0
11
2.0817652655485
21
2.16015123988016
31
0
210
0
220
0
230
1
40
0.986455
41
0.0604884076533375
42
0.156280282981023
0
ELLIPSE
5
137
100
AcDbEntity
8
1
62
256
6
ByLayer
370
18
48
1
60
0
100
AcDbEllipse
10
10
20
-18.309067
30
0
11
-2.00000000000002
21
2.02127811016475E-15
31
0
210
0
220
0
230
1
40
0.716939
41
0.75150462149233
42
2.39008803209747
0
ELLIPSE
5
138
100
AcDbEntity
8
1
62
256
6
ByLayer
370
18
48
1
60
0
100
AcDbEllipse
10
38.760335
20
-7.154746
30
0
11
-4.60348651606401
21
3.18394601548759
31
0
210
0
220
0
230
1
40
0.714389
41
3.13614006881363
42
-2.45736043240097
0
ELLIPSE
5
139
100
AcDbEntity
8
1
62
256
6
ByLayer
370
18
48
1
60
0
100
AcDbEllipse
10
10
20
-18.309067
30
0
11
-2.00000000000004
21
2.02127811016477E-15
31
0
210
0
220
0
230
1
40
0.716939
41
-2.39008803209746
42
-0.751504621492336
0
ELLIPSE
5
13A
100
AcDbEntity
8
1
62
256
6
ByLayer
370
18
48
1
60
0
100
AcDbEllipse
10
28.411941
20
-21.875465
30
0
11
-4.60348651607744
21
3.18394601549468
31
0
210
0
220
0
230
1
40
0.714389
41
2.44645526284942
42
3.1361400688134
0
ELLIPSE
5
13B
100
AcDbEntity
8
1
62
256
6
ByLayer
370
18
48
1
60
0
100
AcDbEllipse
10
17.329058
20
-18.748852
30
0
11
-0.0227270275735567
21
2.77595171116239
31
0
210
0
220
0
230
1
40
0.080275
41
0.818993975386565
42
-2.77414710362925
0
ELLIPSE
5
13C
100
AcDbEntity
8
1
62
256
6
ByLayer
370
18
48
1
60
0
100
AcDbEllipse
10
18.187217
20
0
30
0
11
1.53075794227798E-15
21
25.0000000000001
31
0
210
0
220
0
230
1
40
0.087489
41
0.353363115402329
42
2.78822953818746
0
ELLIPSE
5
13D
100
AcDbEntity
8
1
62
256
6
ByLayer
370
18
48
1
60
0
100
AcDbEllipse
10
10
20
-15.807097
30
0
11
-1.88518478424961
21
3.17407998038681
31
0
210
0
220
0
230
1
40
0.21042
41
-3.1276123585686
42
-2.4746004255161
0
ELLIPSE
5
13E
100
AcDbEntity
8
1
62
256
6
ByLayer
370
18
48
1
60
0
100
AcDbEllipse
10
-1.056258
20
0
30
0
11
-11.7092723497277
21
-24.677186440938
31
0
210
0
220
0
230
1
40
0.341999
41
2.05975995310053
42
2.97437958168082
0
ELLIPSE
5
13F
100
AcDbEntity
8
1
62
256
6
ByLayer
370
18
48
1
60
0
100
AcDbEllipse
10
22.494172
20
-64.852384
30
0
11
-2.34311535993462E-15
21
38.2672415935297
31
0
210
0
220
0
230
-1
40
0.104528
41
-0.20472750483317
42
-0.104149827605797
0
ELLIPSE
5
140
100
AcDbEntity
8
1
62
256
6
ByLayer
370
18
48
1
60
0
100
AcDbEllipse
10
21.056258
20
0
30
0
11
-11.7092723497275
21
-24.6771864409378
31
0
210
0
220
0
230
1
40
0.341999
41
-1.08183270048927
42
-0.167213071908978
0
ELLIPSE
5
141
100
AcDbEntity
8
1
62
256
6
ByLayer
370
18
48
1
60
0
100
AcDbEllipse
10
10
20
-17.843094
30
0
11
1.65
21
0
31
0
210
0
220
0
230
1
40
0.580703
41
0
42
6.28318530717959
0
ELLIPSE
5
142
100
AcDbEntity
8
1
62
256
6
ByLayer
370
18
48
1
60
0
100
AcDbEllipse
10
21.056258
20
0
30
0
11
-11.7092723497278
21
24.6771864409381
31
0
210
0
220
0
230
1
40
0.341999
41
0.167213071908976
42
1.08183270048926
0
ELLIPSE
5
143
100
AcDbEntity
8
1
62
256
6
ByLayer
370
18
48
1
60
0
100
AcDbEllipse
10
-1.056258
20
0
30
0
11
-11.709272349727
21
24.677186440937
31
0
210
0
220
0
230
1
40
0.341999
41
-2.97437958168081
42
-2.0597599531005
0
ELLIPSE
5
144
100
AcDbEntity
8
1
62
256
6
ByLayer
370
18
48
1
60
0
100
AcDbEllipse
10
10
20
-15.807097
30
0
11
-1.88518478424619
21
-3.17407998038192
31
0
210
0
220
0
230
1
40
0.21042
41
-0.666992228074264
42
-0.013980295021225
0
ELLIPSE
5
145
100
AcDbEntity
8
1
62
256
6
ByLayer
370
18
48
1
60
0
100
AcDbEllipse
10
59.210551
20
-34.210551
30
0
11
-0.561266007568108
21
-0.561266007565537
31
0
210
0
220
0
230
1
40
0.989133
41
0.698131700797746
42
2.44346095279205
0
ELLIPSE
5
146
100
AcDbEntity
8
1
62
256
6
ByLayer
370
18
48
1
60
0
100
AcDbEllipse
10
48.035984
20
-33.293514
30
0
11
-0.561266007568108
21
-0.561266007565537
31
0
210
0
220
0
230
1
40
0.989133
41
-0.698131700797752
42
0.698131700797701
0
ELLIPSE
5
147
100
AcDbEntity
8
1
62
256
6
ByLayer
370
18
48
1
60
0
100
AcDbEllipse
10
58.293514
20
-23.035984
30
0
11
-0.561266007568108
21
-0.561266007565537
31
0
210
0
220
0
230
1
40
0.989133
41
2.44346095279207
42
-2.44346095279209
0
ELLIPSE
5
148
100
AcDbEntity
8
1
62
256
6
ByLayer
370
18
48
1
60
0
100
AcDbEllipse
10
52.844425
20
-31.073697
30
0
11
-6.09125951004473
21
-1.37050088276364
31
0
210
0
220
0
230
1
40
0.534007
41
-0.689694569840984
42
-0.60995630141867
0
ELLIPSE
5
149
100
AcDbEntity
8
1
62
256
6
ByLayer
370
18
48
1
60
0
100
AcDbEllipse
10
38.225382
20
-12.746505
30
0
11
-1.86177536637382
21
-2.35297642300843
31
0
210
0
220
0
230
1
40
0.877989
41
-3.07708608368868
42
-1.50628975689376
0
ELLIPSE
5
14A
100
AcDbEntity
8
1
62
256
6
ByLayer
370
18
48
1
60
0
100
AcDbEllipse
10
36.536876
20
-7.90088
30
0
11
5.72659051508523
21
-4.02568765213298
31
0
210
0
220
0
230
1
40
0.02553
41
0.808573903783143
42
1.21583528734086
0
ELLIPSE
5
14B
100
AcDbEntity
8
1
62
256
6
ByLayer
370
18
48
1
60
0
100
AcDbEllipse
10
45.79443
20
-18.301866
30
0
11
-6.10979165037695
21
7.86297520616367
31
0
210
0
220
0
230
1
40
0.131287
41
-0.399813170216088
42
0.319387729728975
0
ELLIPSE
5
14C
100
AcDbEntity
8
1
62
256
6
ByLayer
370
18
48
1
60
0
100
AcDbEllipse
10
49.818811
20
-30.400454
30
0
11
-1.05474550226451
21
0.233843842380543
31
0
210
0
220
0
230
1
40
0.175059
41
0.82908629970614
42
1.35268507529744
0
ELLIPSE
5
14D
100
AcDbEntity
8
1
62
256
6
ByLayer
370
18
48
1
60
0
100
AcDbEllipse
10
36.825705
20
-11.555117
30
0
11
-2.62028884206638
21
-1.46588890325066
31
0
210
0
220
0
230
1
40
0.995355
41
-2.34656261732452
42
-2.34045295844055
0
ELLIPSE
5
14E
100
AcDbEntity
8
1
62
256
6
ByLayer
370
18
48
1
60
0
100
AcDbEllipse
10
40.376929
20
-16.203402
30
0
11
-4.09042179648945
21
2.87549118009498
31
0
210
0
220
0
230
1
40
0.02553
41
0.907011211182716
42
1.348042316539
0
ELLIPSE
5
14F
100
AcDbEntity
8
1
62
256
6
ByLayer
370
18
48
1
60
0
100
AcDbEllipse
10
37.387393
20
-20.456054
30
0
11
-4.09042179648945
21
2.87549118009498
31
0
210
0
220
0
230
1
40
0.02553
41
0.907011211182724
42
1.34804231653901
0
ELLIPSE
5
150
100
AcDbEntity
8
1
62
256
6
ByLayer
370
18
48
1
60
0
100
AcDbEllipse
10
37.876067
20
-19.760909
30
0
11
-6.95114826962559
21
-1.22574374099253
31
0
210
0
220
0
230
1
40
0.085467
41
0.973171014437441
42
1.43723454276475
0
ELLIPSE
5
151
100
AcDbEntity
8
1
62
256
6
ByLayer
370
18
48
1
60
0
100
AcDbEllipse
10
55.671706
20
-27.051855
30
0
11
-0.347448904480153
21
-6.87818786580914
31
0
210
0
220
0
230
1
40
0.548566
41
-2.34732956846978
42
-2.26759130039269
0
ELLIPSE
5
152
100
AcDbEntity
8
1
62
256
6
ByLayer
370
18
48
1
60
0
100
AcDbEllipse
10
32.018843
20
-18.391834
30
0
11
-2.64703605068601
21
-1.41354613739329
31
0
210
0
220
0
230
1
40
0.995513
41
0.118190398754606
42
0.124301957595291
0
ELLIPSE
5
153
100
AcDbEntity
8
1
62
256
6
ByLayer
370
18
48
1
60
0
100
AcDbEllipse
10
40.988176
20
-25.138822
30
0
11
-9.28421974186881
21
3.35239987202583
31
0
210
0
220
0
230
1
40
0.116247
41
-0.310845503056521
42
0.40835539688904
0
ELLIPSE
5
154
100
AcDbEntity
8
1
62
256
6
ByLayer
370
18
48
1
60
0
100
AcDbEllipse
10
39.888255
20
-16.898547
30
0
11
-1.22346796593274
21
6.93824243175424
31
0
210
0
220
0
230
1
40
0.060067
41
-1.46303974565802
42
-0.998976217311823
0
ELLIPSE
5
155
100
AcDbEntity
8
1
62
256
6
ByLayer
370
18
48
1
60
0
100
AcDbEllipse
10
54.019724
20
-24.424602
30
0
11
-0.571116453340018
21
0.918981791325605
31
0
210
0
220
0
230
1
40
0.218147
41
-1.3329618350497
42
-0.809363059450774
0
ELLIPSE
5
156
100
AcDbEntity
8
1
62
256
6
ByLayer
370
18
48
1
60
0
100
AcDbEllipse
10
41.243558
20
-21.404611
30
0
11
-0.268700576851503
21
-0.268700576850273
31
0
210
0
220
0
230
1
40
0.989133
41
-1.76653679499138
42
1.06840509419364
0
ELLIPSE
5
157
100
AcDbEntity
8
1
62
256
6
ByLayer
370
18
48
1
60
0
100
AcDbEllipse
10
42.377676
20
-20.870927
30
0
11
0.830850467896096
21
0.830850467892291
31
0
210
0
220
0
230
1
40
0.989133
41
-1.98310602889246
42
-1.85661832549505
0
ELLIPSE
5
158
100
AcDbEntity
8
1
62
256
6
ByLayer
370
18
48
1
60
0
100
AcDbEllipse
10
42.262097
20
-22.114952
30
0
11
-0.268700576851503
21
-0.268700576850273
31
0
210
0
220
0
230
1
40
0.989133
41
-0.719339243794749
42
2.11560264539022
0
ELLIPSE
5
159
100
AcDbEntity
8
1
62
256
6
ByLayer
370
18
48
1
60
0
100
AcDbEllipse
10
40.801984
20
-20.741618
30
0
11
0.300520382004971
21
0.300520382003595
31
0
210
0
220
0
230
1
40
0.989133
41
-0.697028907448725
42
0.0212075429970151
0
ELLIPSE
5
15A
100
AcDbEntity
8
1
62
256
6
ByLayer
370
18
48
1
60
0
100
AcDbEllipse
10
41.462928
20
-22.172167
30
0
11
0.300520382004971
21
0.300520382003595
31
0
210
0
220
0
230
1
40
0.989133
41
0.350168643747914
42
1.06840509419363
0
ELLIPSE
5
15B
100
AcDbEntity
8
1
62
256
6
ByLayer
370
18
48
1
60
0
100
AcDbEllipse
10
42.377676
20
-20.870927
30
0
11
0.830850467896096
21
0.830850467892291
31
0
210
0
220
0
230
1
40
0.989133
41
-3.03030358008905
42
-2.90381587669166
0
ELLIPSE
5
15C
100
AcDbEntity
8
1
62
256
6
ByLayer
370
18
48
1
60
0
100
AcDbEllipse
10
43.292424
20
-19.569687
30
0
11
0.300520382004971
21
0.300520382003595
31
0
210
0
220
0
230
1
40
0.989133
41
-2.79142400984192
42
-2.07318755939614
0
ELLIPSE
5
15D
100
AcDbEntity
8
1
62
256
6
ByLayer
370
18
48
1
60
0
100
AcDbEllipse
10
43.396215
20
-21.581268
30
0
11
-0.268700576851503
21
-0.268700576850273
31
0
210
0
220
0
230
1
40
0.989133
41
0.327858307401845
42
-3.12038511059277
0
ELLIPSE
5
15E
100
AcDbEntity
8
1
62
256
6
ByLayer
370
18
48
1
60
0
100
AcDbEllipse
10
42.377676
20
-20.870927
30
0
11
0.830850467896096
21
0.830850467892291
31
0
210
0
220
0
230
1
40
0.989133
41
-0.935908477695848
42
-0.809420774298469
0
ELLIPSE
5
15F
100
AcDbEntity
8
1
62
256
6
ByLayer
370
18
48
1
60
0
100
AcDbEllipse
10
40.801984
20
-20.741618
30
0
11
0.300520382004971
21
0.300520382003595
31
0
210
0
220
0
230
1
40
0.989133
41
-1.76653679499135
42
-1.0483003445456
0
ELLIPSE
5
160
100
AcDbEntity
8
1
62
256
6
ByLayer
370
18
48
1
60
0
100
AcDbEllipse
10
41.462928
20
-22.172167
30
0
11
0.300520382004971
21
0.300520382003595
31
0
210
0
220
0
230
1
40
0.989133
41
-0.719339243794732
42
-0.00110279334898018
0
ELLIPSE
5
161
100
AcDbEntity
8
1
62
256
6
ByLayer
370
18
48
1
60
0
100
AcDbEllipse
10
43.03862
20
-22.301475
30
0
11
0.300520382004971
21
0.300520382003595
31
0
210
0
220
0
230
1
40
0.989133
41
0.327858307401832
42
1.04609475784758
0
ELLIPSE
5
162
100
AcDbEntity
8
1
62
256
6
ByLayer
370
18
48
1
60
0
100
AcDbEllipse
10
41.716732
20
-19.440378
30
0
11
0.300520382004971
21
0.300520382003595
31
0
210
0
220
0
230
1
40
0.989133
41
-1.74422645864529
42
-1.02599000819956
0
ELLIPSE
5
163
100
AcDbEntity
8
1
62
256
6
ByLayer
370
18
48
1
60
0
100
AcDbEllipse
10
42.804707
20
-22.067562
30
0
11
0.300520382004971
21
0.300520382003595
31
0
210
0
220
0
230
1
40
0.989133
41
0.327858307401845
42
2.11560264539023
0
ELLIPSE
5
164
100
AcDbEntity
8
1
62
256
6
ByLayer
370
18
48
1
60
0
100
AcDbEllipse
10
42.377676
20
-20.870927
30
0
11
-1.62634559673278
21
-1.62634559672533
31
0
210
0
220
0
230
1
40
0.989133
41
0
42
6.28318530717959
0
ELLIPSE
5
165
100
AcDbEntity
8
1
62
256
6
ByLayer
370
18
48
1
60
0
100
AcDbEllipse
10
42.377676
20
-20.870927
30
0
11
0.830850467896096
21
0.830850467892291
31
0
210
0
220
0
230
1
40
0.989133
41
2.20568417589393
42
2.33217187929134
0
ELLIPSE
5
166
100
AcDbEntity
8
1
62
256
6
ByLayer
370
18
48
1
60
0
100
AcDbEllipse
10
42.377676
20
-20.870927
30
0
11
0.830850467896096
21
0.830850467892291
31
0
210
0
220
0
230
1
40
0.989133
41
1.15848662469734
42
1.28497432809474
0
ELLIPSE
5
167
100
AcDbEntity
8
1
62
256
6
ByLayer
370
18
48
1
60
0
100
AcDbEllipse
10
41.716732
20
-19.440378
30
0
11
0.300520382004971
21
0.300520382003595
31
0
210
0
220
0
230
1
40
0.989133
41
-2.81373434618795
42
-2.09549789574219
0
ELLIPSE
5
168
100
AcDbEntity
8
1
62
256
6
ByLayer
370
18
48
1
60
0
100
AcDbEllipse
10
43.953368
20
-21.000235
30
0
11
0.300520382004971
21
0.300520382003595
31
0
210
0
220
0
230
1
40
0.989133
41
2.44456374614106
42
-3.12038511059276
0
ELLIPSE
5
169
100
AcDbEntity
8
1
62
256
6
ByLayer
370
18
48
1
60
0
100
AcDbEllipse
10
43.03862
20
-22.301475
30
0
11
0.300520382004971
21
0.300520382003595
31
0
210
0
220
0
230
1
40
0.989133
41
1.39736619494449
42
2.11560264539023
0
ELLIPSE
5
16A
100
AcDbEntity
8
1
62
256
6
ByLayer
370
18
48
1
60
0
100
AcDbEllipse
10
43.292424
20
-19.569687
30
0
11
0.300520382004971
21
0.300520382003595
31
0
210
0
220
0
230
1
40
0.989133
41
2.42225340979504
42
3.14048986024078
0
ELLIPSE
5
16B
100
AcDbEntity
8
1
62
256
6
ByLayer
370
18
48
1
60
0
100
AcDbEllipse
10
41.359137
20
-20.160585
30
0
11
-0.268700576851503
21
-0.268700576850273
31
0
210
0
220
0
230
1
40
0.989133
41
-2.81373434618793
42
0.0212075429970061
0
ELLIPSE
5
16C
100
AcDbEntity
8
1
62
256
6
ByLayer
370
18
48
1
60
0
100
AcDbEllipse
10
42.493255
20
-19.626901
30
0
11
-0.268700576851503
21
-0.268700576850273
31
0
210
0
220
0
230
1
40
0.989133
41
2.42225340979502
42
-1.02599000819957
0
ELLIPSE
5
16D
100
AcDbEntity
8
1
62
256
6
ByLayer
370
18
48
1
60
0
100
AcDbEllipse
10
43.953368
20
-21.000235
30
0
11
0.300520382004971
21
0.300520382003595
31
0
210
0
220
0
230
1
40
0.989133
41
1.37505585859843
42
2.09329230904423
0
ELLIPSE
5
16E
100
AcDbEntity
8
1
62
256
6
ByLayer
370
18
48
1
60
0
100
AcDbEllipse
10
42.287563
20
-20.780814
30
0
11
-2.82842712475267
21
-2.82842712473971
31
0
210
0
220
0
230
1
40
0.989133
41
0
42
6.28318530717959
0
ELLIPSE
5
16F
100
AcDbEntity
8
1
62
256
6
ByLayer
370
18
48
1
60
0
100
AcDbEllipse
10
43.511794
20
-20.337242
30
0
11
-0.268700576851503
21
-0.268700576850273
31
0
210
0
220
0
230
1
40
0.989133
41
1.37505585859843
42
-2.07318755939617
0
ELLIPSE
5
170
100
AcDbEntity
8
1
62
256
6
ByLayer
370
18
48
1
60
0
100
AcDbEllipse
10
42.377676
20
-20.870927
30
0
11
0.830850467896096
21
0.830850467892291
31
0
210
0
220
0
230
1
40
0.989133
41
0.111289073500737
42
0.237776776898134
0
ELLIPSE
5
171
100
AcDbEntity
8
1
62
256
6
ByLayer
370
18
48
1
60
0
100
AcDbEllipse
10
53.122884
20
-23.739524
30
0
11
-1.49844311916081
21
9.06767817845259
31
0
210
0
220
0
230
1
40
0.721982
41
2.27742320714693
42
2.34099386650185
0
ELLIPSE
5
172
100
AcDbEntity
8
1
62
256
6
ByLayer
370
18
48
1
60
0
100
AcDbEllipse
10
53.6517
20
-28.504354
30
0
11
-3.18198051534675
21
-3.18198051533218
31
0
210
0
220
0
230
1
40
0.989133
41
1.13446401379631
42
2.35619449019235
0
ELLIPSE
5
173
100
AcDbEntity
8
1
62
256
6
ByLayer
370
18
48
1
60
0
100
AcDbEllipse
10
55.03135
20
-31.024429
30
0
11
-1.15902115055672
21
-1.55495811739088
31
0
210
0
220
0
230
1
40
0.75312
41
-0.162904209625024
42
0.858053350821821
0
ELLIPSE
5
174
100
AcDbEntity
8
1
62
256
6
ByLayer
370
18
48
1
60
0
100
AcDbEllipse
10
49.233913
20
-29.271633
30
0
11
-8.77928482741935
21
-0.377181017513324
31
0
210
0
220
0
230
1
40
0.731858
41
-2.21990583893494
42
-2.1563351793681
0
ELLIPSE
5
175
100
AcDbEntity
8
1
62
256
6
ByLayer
370
18
48
1
60
0
100
AcDbEllipse
10
54.005169
20
-28.857824
30
0
11
2.30693672462581
21
2.30693672461524
31
0
210
0
220
0
230
1
40
0.989133
41
-2.00712863979348
42
-0.78539816339745
0
ELLIPSE
5
176
100
AcDbEntity
8
1
62
256
6
ByLayer
370
18
48
1
60
0
100
AcDbEllipse
10
53.6517
20
-28.504354
30
0
11
-3.18198051534675
21
-3.18198051533218
31
0
210
0
220
0
230
1
40
0.989133
41
2.35619449019235
42
2.87979326579064
0
ELLIPSE
5
177
100
AcDbEntity
8
1
62
256
6
ByLayer
370
18
48
1
60
0
100
AcDbEllipse
10
54.005169
20
-28.857824
30
0
11
-2.53778696600816
21
-2.53778696599653
31
0
210
0
220
0
230
1
40
0.989133
41
0.610865238198015
42
0.704629737755971
0
ELLIPSE
5
178
100
AcDbEntity
8
1
62
256
6
ByLayer
370
18
48
1
60
0
100
AcDbEllipse
10
54.005169
20
-28.857824
30
0
11
-2.53778696600816
21
-2.53778696599653
31
0
210
0
220
0
230
1
40
0.989133
41
2.78602876623268
42
2.87979326579064
0
ELLIPSE
5
179
100
AcDbEntity
8
1
62
256
6
ByLayer
370
18
48
1
60
0
100
AcDbEllipse
10
56.289769
20
-29.234314
30
0
11
-1.49847459157381
21
-1.63003079786518
31
0
210
0
220
0
230
1
40
0.652432
41
2.51919203123627
42
-2.74303571549626
0
ELLIPSE
5
17A
100
AcDbEntity
8
1
62
256
6
ByLayer
370
18
48
1
60
0
100
AcDbEllipse
10
53.6517
20
-28.504354
30
0
11
-3.18198051534675
21
-3.18198051533218
31
0
210
0
220
0
230
1
40
0.989133
41
0.610865238198012
42
1.13446401379631
0
POINT
5
6C
100
AcDbEntity
8
2
62
256
6
ByLayer
370
18
48
1
60
0
100
AcDbPoint
10
60
20
35
30
0
39
0
210
0
220
0
230
1
50
360
0
POINT
5
6E
100
AcDbEntity
8
80
62
256
6
ByLayer
370
18
48
1
60
0
100
AcDbPoint
10
0
20
0
30
0
39
0
210
0
220
0
230
1
50
360
0
POINT
5
70
100
AcDbEntity
8
81
62
256
6
ByLayer
370
18
48
1
60
0
100
AcDbPoint
10
60
20
-35
30
0
39
0
210
0
220
0
230
1
50
360
0
SPLINE
5
17B
100
AcDbEntity
8
SK1
62
256
6
ByLayer
370
18
48
1
60
0
100
AcDbSpline
70
4
71
3
72
13
73
9
40
0
40
0
40
0
40
0
40
0.239456135686852
40
0.368359721835155
40
0.499998983918667
40
0.631638415195385
40
0.7605424677172
40
1
40
1
40
1
40
1
41
1
10
-2.19999999999999
20
-17.5200987347078
30
0
41
1
10
-2.19909198642125
20
-17.4940412586114
30
0
41
1
10
-2.19103284106788
20
-17.4566686743027
30
0
41
1
10
-2.16563592203161
20
-17.4104495005037
30
0
41
1
10
-2.13886378679047
20
-17.3791679466684
30
0
41
1
10
-2.10627712749664
20
-17.3540005764861
30
0
41
1
10
-2.05884064233982
20
-17.3309567740351
30
0
41
1
10
-2.02111030872965
20
-17.324784519015
30
0
41
1
10
-1.99503997793928
20
-17.3251861589552
30
0
0
SPLINE
5
17C
100
AcDbEntity
8
1
62
256
6
ByLayer
370
18
48
1
60
0
100
AcDbSpline
70
4
71
3
72
15
73
11
40
0
40
0
40
0
40
0
40
0.143459157598573
40
0.307117590520182
40
0.431245302732249
40
0.521964778897061
40
0.63796289379627
40
0.793823133168792
40
0.989470377372747
40
1
40
1
40
1
40
1
41
1
10
43.4447383596553
20
-20.0121378110088
30
0
41
1
10
43.4169751347702
20
-20.1372672709291
30
0
41
1
10
43.3408616047037
20
-20.3987679096124
30
0
41
1
10
43.1828149531193
20
-20.7492735674288
30
0
41
1
10
43.0059210484864
20
-21.0338156868424
30
0
41
1
10
42.82815956759
20
-21.265142705223
30
0
41
1
10
42.6103324353105
20
-21.4984642040532
30
0
41
1
10
42.2943702335777
20
-21.7610625803851
30
0
41
1
10
42.0189026057815
20
-21.9218158808563
30
0
41
1
10
41.85578571452
20
-21.9969756969147
30
0
41
1
10
41.8474387762553
20
-22.0007715062984
30
0
0
SPLINE
5
17D
100
AcDbEntity
8
SK1
62
256
6
ByLayer
370
18
48
1
60
0
100
AcDbSpline
70
4
71
3
72
13
73
9
40
0
40
0
40
0
40
0
40
0.239457532237385
40
0.368361584743632
40
0.500001016014352
40
0.631640278103004
40
0.760543864266449
40
1
40
1
40
1
40
1
41
1
10
-1.99503997793928
20
17.3251859759625
30
0
41
1
10
-2.02111030873061
20
17.3247843360228
30
0
41
1
10
-2.05884064234166
20
17.3309565910454
30
0
41
1
10
-2.106277127498
20
17.3540003935063
30
0
41
1
10
-2.13886378679174
20
17.3791677636994
30
0
41
1
10
-2.16563592203255
20
17.4104493175479
30
0
41
1
10
-2.19103284106862
20
17.4566684913667
30
0
41
1
10
-2.19909198642199
20
17.4940410756898
30
0
41
1
10
-2.19999999999999
20
17.520098551796
30
0
0
SPLINE
5
17E
100
AcDbEntity
8
SK1
62
256
6
ByLayer
370
18
48
1
60
0
100
AcDbSpline
70
4
71
2
72
6
73
3
40
0
40
0
40
0
40
1
40
1
40
1
41
1
10
-28.5
20
-16.854272429841
30
0
41
1
10
-15.3499999999294
20
-17.1845422725478
30
0
41
1
10
-2.19999999999999
20
-17.5148117187522
30
0
0
SPLINE
5
17F
100
AcDbEntity
8
SK1
62
256
6
ByLayer
370
18
48
1
60
0
100
AcDbSpline
70
4
71
2
72
6
73
3
40
0
40
0
40
0
40
1
40
1
40
1
41
1
10
-2.19999999999999
20
17.5148116792767
30
0
41
1
10
-15.3499999999286
20
17.1845422635703
30
0
41
1
10
-28.5
20
16.8542724489282
30
0
0
SPLINE
5
180
100
AcDbEntity
8
SK1
62
256
6
ByLayer
370
18
48
1
60
0
100
AcDbSpline
70
4
71
2
72
6
73
3
40
0
40
0
40
0
40
1
40
1
40
1
41
1
10
-1.99503997793928
20
-17.3199593319919
30
0
41
1
10
-1.19500843340703
20
-17.3400525762132
30
0
41
1
10
-0.394976888875277
20
-17.3601458189993
30
0
0
SPLINE
5
181
100
AcDbEntity
8
SK1
62
256
6
ByLayer
370
18
48
1
60
0
100
AcDbSpline
70
4
71
2
72
6
73
3
40
0
40
0
40
0
40
1
40
1
40
1
41
1
10
-0.394976888875277
20
17.3601457933935
30
0
41
1
10
-1.19500843340703
20
17.340052552406
30
0
41
1
10
-1.99503997793928
20
17.3199593099743
30
0
0
SPLINE
5
182
100
AcDbEntity
8
SK1
62
256
6
ByLayer
370
18
48
1
60
0
100
AcDbSpline
70
4
71
2
72
6
73
3
40
0
40
0
40
0
40
1
40
1
40
1
41
1
10
-28.5
20
16.8584504491481
30
0
41
1
10
-29.2499999991495
20
16.4254650261933
30
0
41
1
10
-30
20
15.9924794145163
30
0
0
SPLINE
5
183
100
AcDbEntity
8
SK1
62
256
6
ByLayer
370
18
48
1
60
0
100
AcDbSpline
70
4
71
2
72
6
73
3
40
0
40
0
40
0
40
1
40
1
40
1
41
1
10
-30
20
-15.99247954079
30
0
41
1
10
-29.2499999991495
20
-16.4254651505507
30
0
41
1
10
-28.5
20
-16.8584505716142
30
0
0
SPLINE
5
184
100
AcDbEntity
8
SK1
62
256
6
ByLayer
370
18
48
1
60
0
100
AcDbSpline
70
4
71
2
72
6
73
3
40
0
40
0
40
0
40
1
40
1
40
1
41
1
10
-0.258658740615658
20
17.4310145299902
30
0
41
1
10
-0.305277226309727
20
17.3671842624703
30
0
41
1
10
-0.394976888875277
20
17.359696795897
30
0
0
SPLINE
5
185
100
AcDbEntity
8
SK1
62
256
6
ByLayer
370
18
48
1
60
0
100
AcDbSpline
70
4
71
2
72
6
73
3
40
0
40
0
40
0
40
1
40
1
40
1
41
1
10
-0.394976888875277
20
-17.3596982935394
30
0
41
1
10
-0.305123774552612
20
-17.3672404580573
30
0
41
1
10
-0.258442643302431
20
-17.4312381196178
30
0
0
SPLINE
5
186
100
AcDbEntity
8
1
62
256
6
ByLayer
370
18
48
1
60
0
100
AcDbSpline
70
4
71
2
72
6
73
3
40
0
40
0
40
0
40
1
40
1
40
1
41
1.02613459695995
10
35.723883338271
20
-7.4097995433294
30
0
41
0.91507617668803
10
36.3103142307503
20
-7.79271369018564
30
0
41
0.886094351514703
10
36.4403851822649
20
-8.63234872063994
30
0
0
SPLINE
5
187
100
AcDbEntity
8
SK1
62
256
6
ByLayer
370
18
48
1
60
0
100
AcDbSpline
70
4
71
3
72
282
73
278
40
0
40
0
40
0
40
0
40
0.0031455789259344
40
0.0067200705911304
40
0.0102945622563263
40
0.0138690539215222
40
0.0174435455867181
40
0.0210180372519141
40
0.02459252891711
40
0.0281670205823059
40
0.0317415122475019
40
0.0353160039126978
40
0.0424649872430896
40
0.0460394789082856
40
0.0496139705734815
40
0.0531884622386774
40
0.0567629539038734
40
0.0639119372342652
40
0.0674864288994611
40
0.0710609205646571
40
0.0782099038950489
40
0.0817843955602449
40
0.0853588872254408
40
0.0925078705558326
40
0.0960823622210286
40
0.0996568538862245
40
0.10323134555142
40
0.106805837216616
40
0.110380328881812
40
0.113954820547008
40
0.117529312212204
40
0.1211038038774
40
0.128252787207792
40
0.131827278872988
40
0.135401770538184
40
0.13897626220338
40
0.142550753868576
40
0.149699737198968
40
0.153274228864163
40
0.156848720529359
40
0.160423212194555
40
0.163997703859751
40
0.171146687190143
40
0.174721178855339
40
0.178295670520535
40
0.181870162185731
40
0.185444653850927
40
0.192593637181319
40
0.196168128846515
40
0.19974262051171
40
0.203317112176906
40
0.206891603842102
40
0.214040587172494
40
0.21761507883769
40
0.221189570502886
40
0.224764062168082
40
0.228338553833278
40
0.23548753716367
40
0.239062028828866
40
0.242636520494062
40
0.246211012159258
40
0.249785503824453
40
0.256934487154845
40
0.260508978820041
40
0.264083470485237
40
0.271232453815629
40
0.278381437146021
40
0.281955928811217
40
0.285530420476413
40
0.292679403806805
40
0.296253895472001
40
0.299828387137197
40
0.303402878802392
40
0.306977370467588
40
0.310551862132784
40
0.31412635379798
40
0.321275337128372
40
0.328424320458764
40
0.33199881212396
40
0.335573303789156
40
0.339147795454352
40
0.342722287119548
40
0.346296778784744
40
0.349871270449939
40
0.357020253780331
40
0.364169237110723
40
0.371318220441115
40
0.374892712106311
40
0.378467203771507
40
0.382041695436703
40
0.385616187101899
40
0.389190678767095
40
0.392765170432291
40
0.396339662097487
40
0.399914153762683
40
0.403488645427878
40
0.407063137093074
40
0.41063762875827
40
0.414212120423466
40
0.417786612088662
40
0.421361103753858
40
0.424935595419054
40
0.42851008708425
40
0.432084578749446
40
0.433871824582044
40
0.435659070414642
40
0.43744631624724
40
0.439233562079838
40
0.442808053745034
40
0.44638254541023
40
0.448169791242828
40
0.449957037075426
40
0.451744282908023
40
0.453531528740622
40
0.455318774573219
40
0.457106020405817
40
0.460680512071013
40
0.462467757903611
40
0.464255003736209
40
0.466042249568807
40
0.467829495401405
40
0.469616741234003
40
0.471403987066601
40
0.473191232899199
40
0.474978478731797
40
0.476765724564395
40
0.478552970396993
40
0.480340216229591
40
0.482127462062189
40
0.483914707894787
40
0.485701953727385
40
0.487489199559983
40
0.489276445392581
40
0.491063691225179
40
0.492850937057777
40
0.494638182890375
40
0.496425428722973
40
0.498212674555571
40
0.499999920388168
40
0.501787166220767
40
0.503574412053365
40
0.505361657885962
40
0.50714890371856
40
0.508936149551158
40
0.510723395383756
40
0.512510641216354
40
0.514297887048952
40
0.51608513288155
40
0.517872378714148
40
0.519659624546746
40
0.521446870379344
40
0.523234116211942
40
0.52502136204454
40
0.526808607877138
40
0.528595853709736
40
0.530383099542334
40
0.532170345374932
40
0.53395759120753
40
0.535744837040128
40
0.537532082872726
40
0.539319328705324
40
0.541106574537922
40
0.54289382037052
40
0.544681066203118
40
0.546468312035716
40
0.550042803700912
40
0.55183004953351
40
0.553617295366107
40
0.557191787031303
40
0.560766278696499
40
0.562553524529097
40
0.564340770361695
40
0.566128016194293
40
0.567915262026891
40
0.571489753692087
40
0.575064245357283
40
0.578638737022479
40
0.582213228687675
40
0.585787720352871
40
0.589362212018067
40
0.592936703683263
40
0.596511195348459
40
0.600085687013655
40
0.60366017867885
40
0.607234670344046
40
0.610809162009242
40
0.614383653674438
40
0.617958145339634
40
0.62153263700483
40
0.625107128670026
40
0.628681620335222
40
0.635830603665614
40
0.642979586996006
40
0.650128570326398
40
0.653703061991594
40
0.657277553656789
40
0.660852045321985
40
0.664426536987181
40
0.668001028652377
40
0.671575520317573
40
0.678724503647965
40
0.685873486978357
40
0.689447978643553
40
0.693022470308749
40
0.696596961973945
40
0.700171453639141
40
0.703745945304337
40
0.707320436969533
40
0.714469420299924
40
0.71804391196512
40
0.721618403630316
40
0.728767386960708
40
0.7359163702911
40
0.739490861956296
40
0.743065353621492
40
0.750214336951884
40
0.753788828617079
40
0.757363320282275
40
0.760937811947471
40
0.764512303612667
40
0.771661286943059
40
0.775235778608255
40
0.778810270273451
40
0.782384761938647
40
0.785959253603843
40
0.793108236934235
40
0.796682728599431
40
0.800257220264627
40
0.803831711929822
40
0.807406203595018
40
0.81455518692541
40
0.818129678590606
40
0.821704170255802
40
0.825278661920998
40
0.828853153586194
40
0.836002136916586
40
0.839576628581782
40
0.843151120246978
40
0.844938366079576
40
0.846725611912174
40
0.85030010357737
40
0.857449086907761
40
0.861023578572957
40
0.864598070238153
40
0.868172561903349
40
0.871747053568545
40
0.878896036898937
40
0.882470528564133
40
0.886045020229329
40
0.889619511894525
40
0.893194003559721
40
0.896768495224917
40
0.900342986890113
40
0.903917478555309
40
0.907491970220504
40
0.914640953550896
40
0.918215445216092
40
0.921789936881288
40
0.92893892021168
40
0.932513411876876
40
0.936087903542072
40
0.943236886872464
40
0.94681137853766
40
0.950385870202856
40
0.953960361868052
40
0.957534853533247
40
0.964683836863639
40
0.968258328528835
40
0.971832820194031
40
0.975407311859227
40
0.978981803524423
40
0.982556295189619
40
0.986130786854815
40
0.989705278520011
40
0.993279770185207
40
0.996854261850403
40
1
40
1
40
1
40
1
41
1
10
-2.19999999999996
20
-17.5147448898181
30
0
41
1
10
-2.19999999999996
20
-17.5132050221523
30
0
41
1
10
-2.19999999999996
20
-17.5092143226125
30
0
41
1
10
-2.19999999999999
20
-17.5008423359265
30
0
41
1
10
-2.19999999999999
20
-17.4896606050755
30
0
41
1
10
-2.19999999999999
20
-17.4760589345483
30
0
41
1
10
-2.19999999999999
20
-17.4600756660116
30
0
41
1
10
-2.19999999999999
20
-17.4417480829298
30
0
41
1
10
-2.19999999999999
20
-17.4211116708093
30
0
41
1
10
-2.19999999999999
20
-17.3981999720817
30
0
41
1
10
-2.19999999999999
20
-17.373046254225
30
0
41
1
10
-2.19999999999999
20
-17.3365615480365
30
0
41
1
10
-2.19999999999999
20
-17.2957083393221
30
0
41
1
10
-2.19999999999999
20
-17.2506132986913
30
0
41
1
10
-2.19999999999999
20
-17.2146924230801
30
0
41
1
10
-2.19999999999999
20
-17.1766986759847
30
0
41
1
10
-2.19999999999999
20
-17.1233138560685
30
0
41
1
10
-2.19999999999999
20
-17.0658713749173
30
0
41
1
10
-2.19999999999999
20
-17.0044820563696
30
0
41
1
10
-2.19999999999999
20
-16.9404819965209
30
0
41
1
10
-2.19999999999999
20
-16.8725984751516
30
0
41
1
10
-2.19999999999999
20
-16.8009296734765
30
0
41
1
10
-2.19999999999999
20
-16.72675615712
30
0
41
1
10
-2.19999999999999
20
-16.6488472996884
30
0
41
1
10
-2.19999999999999
20
-16.5672977573629
30
0
41
1
10
-2.19999999999999
20
-16.5043209819811
30
0
41
1
10
-2.19999999999999
20
-16.4395493732765
30
0
41
1
10
-2.19999999999999
20
-16.3729983406747
30
0
41
1
10
-2.19999999999999
20
-16.3046816133433
30
0
41
1
10
-2.19999999999999
20
-16.2346146587631
30
0
41
1
10
-2.19999999999999
20
-16.1628111167189
30
0
41
1
10
-2.19999999999999
20
-16.0647793469533
30
0
41
1
10
-2.19999999999999
20
-15.9633134995801
30
0
41
1
10
-2.19999999999999
20
-15.8584913887799
30
0
41
1
10
-2.19999999999999
20
-15.7781982427732
30
0
41
1
10
-2.19999999999999
20
-15.6962433497342
30
0
41
1
10
-2.19999999999999
20
-15.5847743861311
30
0
41
1
10
-2.19999999999999
20
-15.4700110710185
30
0
41
1
10
-2.19999999999999
20
-15.3520264687641
30
0
41
1
10
-2.19999999999999
20
-15.2619258251736
30
0
41
1
10
-2.19999999999999
20
-15.1702262286607
30
0
41
1
10
-2.19999999999999
20
-15.0458463802595
30
0
41
1
10
-2.19999999999999
20
-14.9182892137509
30
0
41
1
10
-2.19999999999999
20
-14.7876243835494
30
0
41
1
10
-2.19999999999999
20
-14.6880675684927
30
0
41
1
10
-2.19999999999999
20
-14.5869647024964
30
0
41
1
10
-2.19999999999999
20
-14.4501162009323
30
0
41
1
10
-2.19999999999999
20
-14.310188578504
30
0
41
1
10
-2.19999999999999
20
-14.1672492498436
30
0
41
1
10
-2.19999999999999
20
-14.0585319196999
30
0
41
1
10
-2.19999999999999
20
-13.9483131149779
30
0
41
1
10
-2.19999999999999
20
-13.7993681823229
30
0
41
1
10
-2.19999999999999
20
-13.6474264445925
30
0
41
1
10
-2.19999999999999
20
-13.4925540283558
30
0
41
1
10
-2.19999999999999
20
-13.3749248852381
30
0
41
1
10
-2.19999999999999
20
-13.2558316845062
30
0
41
1
10
-2.19999999999999
20
-13.0951031858018
30
0
41
1
10
-2.19999999999999
20
-12.9314463879873
30
0
41
1
10
-2.19999999999999
20
-12.7649271524075
30
0
41
1
10
-2.19999999999999
20
-12.6385945304865
30
0
41
1
10
-2.19999999999999
20
-12.510828990928
30
0
41
1
10
-2.19999999999999
20
-12.3385783725546
30
0
41
1
10
-2.19999999999999
20
-12.1634558634281
30
0
41
1
10
-2.19999999999999
20
-11.9855279960913
30
0
41
1
10
-2.19999999999999
20
-11.8057193844339
30
0
41
1
10
-2.19999999999999
20
-11.5774197426994
30
0
41
1
10
-2.19999999999999
20
-11.3444552561941
30
0
41
1
10
-2.19999999999999
20
-11.1553144466797
30
0
41
1
10
-2.19999999999999
20
-10.96432157968
30
0
41
1
10
-2.19999999999999
20
-10.7705258372791
30
0
41
1
10
-2.19999999999999
20
-10.5740001677826
30
0
41
1
10
-2.19999999999999
20
-10.4252200954492
30
0
41
1
10
-2.19999999999999
20
-10.2750653600417
30
0
41
1
10
-2.19999999999999
20
-10.1235384488298
30
0
41
1
10
-2.19999999999999
20
-9.97064122920807
30
0
41
1
10
-2.19999999999999
20
-9.76496631801302
30
0
41
1
10
-2.19999999999999
20
-9.50443392738597
30
0
41
1
10
-2.19999999999999
20
-9.23936570098886
30
0
41
1
10
-2.19999999999999
20
-9.02461799380217
30
0
41
1
10
-2.19999999999999
20
-8.86219304475887
30
0
41
1
10
-2.19999999999999
20
-8.69841428000512
30
0
41
1
10
-2.19999999999999
20
-8.53328405958746
30
0
41
1
10
-2.19999999999999
20
-8.36680339868337
30
0
41
1
10
-2.19999999999999
20
-8.14304412571011
30
0
41
1
10
-2.19999999999999
20
-7.85994707617317
30
0
41
1
10
-2.19999999999999
20
-7.51487111531026
30
0
41
1
10
-2.19999999999999
20
-7.22282329277962
30
0
41
1
10
-2.19999999999999
20
-6.98653548716825
30
0
41
1
10
-2.19999999999999
20
-6.80797157864473
30
0
41
1
10
-2.19999999999999
20
-6.62807270531451
30
0
41
1
10
-2.19999999999999
20
-6.44684086969582
30
0
41
1
10
-2.19999999999999
20
-6.26427776637016
30
0
41
1
10
-2.19999999999999
20
-6.0803858592752
30
0
41
1
10
-2.19999999999999
20
-5.89516728223867
30
0
41
1
10
-2.19999999999999
20
-5.70862469092603
30
0
41
1
10
-2.19999999999999
20
-5.52076103085633
30
0
41
1
10
-2.19999999999999
20
-5.33157993388585
30
0
41
1
10
-2.19999999999999
20
-5.14108511996025
30
0
41
1
10
-2.19999999999999
20
-4.94928086714648
30
0
41
1
10
-2.19999999999999
20
-4.75617251627347
30
0
41
1
10
-2.19999999999999
20
-4.56176620564526
30
0
41
1
10
-2.19999999999999
20
-4.36606873641344
30
0
41
1
10
-2.19999999999999
20
-4.16908849962459
30
0
41
1
10
-2.19999999999999
20
-4.00386590607064
30
0
41
1
10
-2.19999999999999
20
-3.87107810854147
30
0
41
1
10
-2.19999999999999
20
-3.77116418570387
30
0
41
1
10
-2.19999999999999
20
-3.67093805129474
30
0
41
1
10
-2.19999999999999
20
-3.5369018254882
30
0
41
1
10
-2.19999999999999
20
-3.36855658184018
30
0
41
1
10
-2.19999999999999
20
-3.19919951970698
30
0
41
1
10
-2.19999999999999
20
-3.06314133422208
30
0
41
1
10
-2.19999999999999
20
-2.96079189341756
30
0
41
1
10
-2.19999999999999
20
-2.85815023786418
30
0
41
1
10
-2.19999999999999
20
-2.75522026664268
30
0
41
1
10
-2.19999999999999
20
-2.65200561172494
30
0
41
1
10
-2.19999999999999
20
-2.51402705629772
30
0
41
1
10
-2.19999999999999
20
-2.375450816946
30
0
41
1
10
-2.19999999999999
20
-2.23639085040648
30
0
41
1
10
-2.19999999999999
20
-2.13182395998015
30
0
41
1
10
-2.19999999999999
20
-2.02700348752293
30
0
41
1
10
-2.19999999999999
20
-1.92193653735015
30
0
41
1
10
-2.19999999999999
20
-1.81663008016324
30
0
41
1
10
-2.19999999999999
20
-1.71109231328518
30
0
41
1
10
-2.19999999999999
20
-1.60533155404698
30
0
41
1
10
-2.19999999999999
20
-1.49935698477981
30
0
41
1
10
-2.19999999999999
20
-1.39317847233161
30
0
41
1
10
-2.19999999999999
20
-1.28680633401083
30
0
41
1
10
-2.19999999999999
20
-1.18025197439016
30
0
41
1
10
-2.19999999999999
20
-1.073527020087
30
0
41
1
10
-2.19999999999999
20
-0.96664434311532
30
0
41
1
10
-2.19999999999999
20
-0.859616995486334
30
0
41
1
10
-2.19999999999999
20
-0.752459219961509
30
0
41
1
10
-2.19999999999999
20
-0.645185453734172
30
0
41
1
10
-2.19999999999999
20
-0.537811163545626
30
0
41
1
10
-2.19999999999999
20
-0.430352024765995
30
0
41
1
10
-2.19999999999999
20
-0.322824496958617
30
0
41
1
10
-2.19999999999999
20
-0.215245213108545
30
0
41
1
10
-2.19999999999999
20
-0.107631302158183
30
0
41
1
10
-2.19999999999999
20
5.9909553E-09
30
0
41
1
10
-2.19999999999999
20
0.107631313716837
30
0
41
1
10
-2.19999999999999
20
0.21524522393176
30
0
41
1
10
-2.19999999999999
20
0.322824507999513
30
0
41
1
10
-2.19999999999999
20
0.430352036900842
30
0
41
1
10
-2.19999999999999
20
0.537811175438549
30
0
41
1
10
-2.19999999999999
20
0.645185463980482
30
0
41
1
10
-2.19999999999999
20
0.752459230354134
30
0
41
1
10
-2.19999999999999
20
0.859617007920519
30
0
41
1
10
-2.19999999999999
20
0.966644355262389
30
0
41
1
10
-2.19999999999999
20
1.07352702949097
30
0
41
1
10
-2.19999999999999
20
1.18025198377217
30
0
41
1
10
-2.19999999999999
20
1.2868063464968
30
0
41
1
10
-2.19999999999999
20
1.39317848503856
30
0
41
1
10
-2.19999999999999
20
1.49935699380708
30
0
41
1
10
-2.19999999999999
20
1.60533156181745
30
0
41
1
10
-2.19999999999999
20
1.71109232444707
30
0
41
1
10
-2.19999999999999
20
1.81663009373557
30
0
41
1
10
-2.19999999999999
20
1.92193654804359
30
0
41
1
10
-2.19999999999999
20
2.02700349385552
30
0
41
1
10
-2.19999999999999
20
2.13182396747069
30
0
41
1
10
-2.19999999999999
20
2.23639086291988
30
0
41
1
10
-2.19999999999999
20
2.34069812940876
30
0
41
1
10
-2.19999999999999
20
2.44473977839391
30
0
41
1
10
-2.19999999999999
20
2.54851063247165
30
0
41
1
10
-2.19999999999999
20
2.65200559968281
30
0
41
1
10
-2.19999999999999
20
2.78960994504098
30
0
41
1
10
-2.19999999999999
20
2.92668912429065
30
0
41
1
10
-2.19999999999999
20
3.06314133551615
30
0
41
1
10
-2.19999999999999
20
3.19919952332836
30
0
41
1
10
-2.19999999999999
20
3.36855659963138
30
0
41
1
10
-2.19999999999999
20
3.53690183437428
30
0
41
1
10
-2.19999999999999
20
3.67093805397229
30
0
41
1
10
-2.19999999999999
20
3.77116418775421
30
0
41
1
10
-2.19999999999999
20
3.87107811616198
30
0
41
1
10
-2.19999999999999
20
4.00386592221614
30
0
41
1
10
-2.19999999999999
20
4.169088511784
30
0
41
1
10
-2.19999999999999
20
4.36606871643775
30
0
41
1
10
-2.19999999999999
20
4.56176617271484
30
0
41
1
10
-2.19999999999999
20
4.75617249379653
30
0
41
1
10
-2.19999999999999
20
4.94928076863457
30
0
41
1
10
-2.19999999999999
20
5.14108500618136
30
0
41
1
10
-2.19999999999999
20
5.33157993903225
30
0
41
1
10
-2.19999999999999
20
5.52076102284181
30
0
41
1
10
-2.19999999999999
20
5.70862461825791
30
0
41
1
10
-2.19999999999999
20
5.89516734859464
30
0
41
1
10
-2.19999999999999
20
6.0803860968085
30
0
41
1
10
-2.19999999999999
20
6.26427796235188
30
0
41
1
10
-2.19999999999999
20
6.44684092947378
30
0
41
1
10
-2.19999999999999
20
6.62807271786153
30
0
41
1
10
-2.19999999999999
20
6.80797159432129
30
0
41
1
10
-2.19999999999999
20
6.98653550324826
30
0
41
1
10
-2.19999999999999
20
7.22282328452872
30
0
41
1
10
-2.19999999999999
20
7.51487112820209
30
0
41
1
10
-2.19999999999999
20
7.85994708827315
30
0
41
1
10
-2.19999999999999
20
8.14304411844034
30
0
41
1
10
-2.19999999999999
20
8.36680341033821
30
0
41
1
10
-2.19999999999999
20
8.53328407858575
30
0
41
1
10
-2.19999999999999
20
8.69841428877766
30
0
41
1
10
-2.19999999999999
20
8.86219304073114
30
0
41
1
10
-2.19999999999999
20
9.02461799205523
30
0
41
1
10
-2.19999999999999
20
9.23936571773672
30
0
41
1
10
-2.19999999999999
20
9.50443394039922
30
0
41
1
10
-2.19999999999999
20
9.76496631110049
30
0
41
1
10
-2.19999999999999
20
9.97064123613964
30
0
41
1
10
-2.19999999999999
20
10.123538466054
30
0
41
1
10
-2.19999999999999
20
10.2750653748105
30
0
41
1
10
-2.19999999999999
20
10.4252201002359
30
0
41
1
10
-2.19999999999999
20
10.5740001651574
30
0
41
1
10
-2.19999999999999
20
10.7705258416001
30
0
41
1
10
-2.19999999999999
20
10.9643215989582
30
0
41
1
10
-2.19999999999999
20
11.1553144582602
30
0
41
1
10
-2.19999999999999
20
11.3444552554371
30
0
41
1
10
-2.19999999999999
20
11.5774197477568
30
0
41
1
10
-2.19999999999999
20
11.8057194023465
30
0
41
1
10
-2.19999999999999
20
11.9855280067157
30
0
41
1
10
-2.19999999999999
20
12.1634558646821
30
0
41
1
10
-2.19999999999999
20
12.3385783781737
30
0
41
1
10
-2.19999999999999
20
12.510829004708
30
0
41
1
10
-2.19999999999999
20
12.6385945454976
30
0
41
1
10
-2.19999999999999
20
12.7649271637091
30
0
41
1
10
-2.19999999999999
20
12.9314463925932
30
0
41
1
10
-2.19999999999999
20
13.0951031927999
30
0
41
1
10
-2.19999999999999
20
13.2558316973182
30
0
41
1
10
-2.19999999999999
20
13.3749248996582
30
0
41
1
10
-2.19999999999999
20
13.4925540411334
30
0
41
1
10
-2.19999999999999
20
13.6474264531923
30
0
41
1
10
-2.19999999999999
20
13.7993681905533
30
0
41
1
10
-2.19999999999999
20
13.9483131264862
30
0
41
1
10
-2.19999999999999
20
14.0585319334344
30
0
41
1
10
-2.19999999999999
20
14.1672492642274
30
0
41
1
10
-2.19999999999999
20
14.3101885914782
30
0
41
1
10
-2.19999999999999
20
14.4501162106047
30
0
41
1
10
-2.19999999999999
20
14.5869647126432
30
0
41
1
10
-2.19999999999999
20
14.6880675812844
30
0
41
1
10
-2.19999999999999
20
14.7876243995297
30
0
41
1
10
-2.19999999999999
20
14.9182892218295
30
0
41
1
10
-2.19999999999999
20
15.0458464314392
30
0
41
1
10
-2.19999999999999
20
15.1702261509224
30
0
41
1
10
-2.19999999999999
20
15.2466455133785
30
0
41
1
10
-2.19999999999999
20
15.3069761679616
30
0
41
1
10
-2.19999999999999
20
15.3667724139347
30
0
41
1
10
-2.19999999999999
20
15.4700110929875
30
0
41
1
10
-2.19999999999999
20
15.5847743990242
30
0
41
1
10
-2.19999999999999
20
15.6962433571227
30
0
41
1
10
-2.19999999999999
20
15.7781982539187
30
0
41
1
10
-2.19999999999999
20
15.8584914079188
30
0
41
1
10
-2.19999999999999
20
15.9633135259672
30
0
41
1
10
-2.19999999999999
20
16.0647793597711
30
0
41
1
10
-2.19999999999999
20
16.1628111223414
30
0
41
1
10
-2.19999999999999
20
16.2346146707391
30
0
41
1
10
-2.19999999999999
20
16.3046816359758
30
0
41
1
10
-2.19999999999999
20
16.3729983688048
30
0
41
1
10
-2.19999999999999
20
16.439549393056
30
0
41
1
10
-2.19999999999999
20
16.5043209901434
30
0
41
1
10
-2.19999999999999
20
16.5672977619412
30
0
41
1
10
-2.19999999999999
20
16.6488473199257
30
0
41
1
10
-2.19999999999999
20
16.7267561914694
30
0
41
1
10
-2.19999999999999
20
16.8009296884544
30
0
41
1
10
-2.19999999999999
20
16.8725984731112
30
0
41
1
10
-2.19999999999999
20
16.9404820184079
30
0
41
1
10
-2.19999999999999
20
17.0044820909957
30
0
41
1
10
-2.19999999999999
20
17.0658713913631
30
0
41
1
10
-2.19999999999999
20
17.123313852319
30
0
41
1
10
-2.19999999999999
20
17.1766986986672
30
0
41
1
10
-2.19999999999999
20
17.2146924603873
30
0
41
1
10
-2.19999999999999
20
17.250613323192
30
0
41
1
10
-2.19999999999999
20
17.2957083328928
30
0
41
1
10
-2.19999999999999
20
17.3365615705832
30
0
41
1
10
-2.19999999999999
20
17.3730462873428
30
0
41
1
10
-2.19999999999999
20
17.398199993695
30
0
41
1
10
-2.19999999999999
20
17.4211116738093
30
0
41
1
10
-2.19999999999999
20
17.4417480876219
30
0
41
1
10
-2.19999999999999
20
17.4600756994924
30
0
41
1
10
-2.19999999999999
20
17.4760589706817
30
0
41
1
10
-2.19999999999999
20
17.4896606126055
30
0
41
1
10
-2.19999999999999
20
17.5008423321234
30
0
41
1
10
-2.19999999999999
20
17.5092144719208
30
0
41
1
10
-2.20000000000002
20
17.5132052168486
30
0
41
1
10
-2.19999999999999
20
17.5147451091238
30
0
0
SPLINE
5
188
100
AcDbEntity
8
SK1
62
256
6
ByLayer
370
18
48
1
60
0
100
AcDbSpline
70
4
71
3
72
287
73
283
40
0
40
0
40
0
40
0
40
0.0019139616007271
40
0.0054377006297872
40
0.0089614396588473
40
0.0124851786879075
40
0.0160089177169676
40
0.0195326567460278
40
0.0230563957750879
40
0.0265801348041481
40
0.0301038738332083
40
0.0336276128622684
40
0.0371513518913286
40
0.0441988299494488
40
0.047722568978509
40
0.0512463080075691
40
0.0547700470366293
40
0.0582937860656895
40
0.0653412641238097
40
0.0688650031528699
40
0.07238874218193
40
0.0794362202400503
40
0.0829599592691105
40
0.0864836982981707
40
0.093531176356291
40
0.0970549153853512
40
0.100578654414411
40
0.104102393443471
40
0.107626132472531
40
0.111149871501592
40
0.114673610530652
40
0.118197349559712
40
0.121721088588772
40
0.128768566646893
40
0.132292305675953
40
0.135816044705013
40
0.139339783734073
40
0.142863522763133
40
0.149911000821253
40
0.153434739850314
40
0.156958478879374
40
0.160482217908434
40
0.164005956937494
40
0.171053434995614
40
0.174577174024674
40
0.178100913053735
40
0.181624652082795
40
0.185148391111855
40
0.192195869169975
40
0.195719608199035
40
0.199243347228096
40
0.202767086257156
40
0.206290825286216
40
0.213338303344336
40
0.216862042373396
40
0.220385781402456
40
0.223909520431516
40
0.227433259460577
40
0.234480737518697
40
0.238004476547757
40
0.241528215576817
40
0.245051954605877
40
0.248575693634938
40
0.255623171693058
40
0.259146910722118
40
0.262670649751178
40
0.269718127809298
40
0.276765605867419
40
0.280289344896479
40
0.283813083925539
40
0.290860561983659
40
0.29438430101272
40
0.29790804004178
40
0.30143177907084
40
0.3049555180999
40
0.30847925712896
40
0.31200299615802
40
0.319050474216141
40
0.326097952274261
40
0.329621691303321
40
0.333145430332381
40
0.336669169361441
40
0.340192908390501
40
0.343716647419561
40
0.347240386448622
40
0.354287864506742
40
0.361335342564862
40
0.368382820622983
40
0.371906559652043
40
0.375430298681103
40
0.378954037710163
40
0.382477776739223
40
0.386001515768283
40
0.389525254797344
40
0.393048993826404
40
0.396572732855464
40
0.400096471884524
40
0.403620210913584
40
0.407143949942644
40
0.410667688971704
40
0.414191428000765
40
0.417715167029825
40
0.421238906058885
40
0.424762645087945
40
0.428286384117005
40
0.430048253631535
40
0.431810123146065
40
0.433571992660595
40
0.435333862175125
40
0.438857601204185
40
0.442381340233246
40
0.444143209747776
40
0.445905079262306
40
0.447666948776836
40
0.449428818291366
40
0.451190687805896
40
0.452952557320426
40
0.456476296349486
40
0.458238165864016
40
0.460000035378546
40
0.461761904893077
40
0.463523774407607
40
0.465285643922137
40
0.467047513436667
40
0.468809382951197
40
0.470571252465727
40
0.472333121980257
40
0.474094991494787
40
0.475856861009317
40
0.477618730523847
40
0.479380600038377
40
0.481142469552907
40
0.482904339067438
40
0.484666208581968
40
0.486428078096498
40
0.488189947611028
40
0.489951817125558
40
0.491713686640088
40
0.493475556154618
40
0.495237425669148
40
0.496999295183678
40
0.498761164698208
40
0.500523034212738
40
0.502284903727268
40
0.504046773241798
40
0.505808642756328
40
0.507570512270859
40
0.509332381785389
40
0.511094251299919
40
0.512856120814449
40
0.514617990328979
40
0.516379859843509
40
0.518141729358039
40
0.519903598872569
40
0.521665468387099
40
0.523427337901629
40
0.525189207416159
40
0.526951076930689
40
0.528712946445219
40
0.530474815959749
40
0.532236685474279
40
0.53399855498881
40
0.53576042450334
40
0.53752229401787
40
0.5392841635324
40
0.54104603304693
40
0.54456977207599
40
0.54633164159052
40
0.54809351110505
40
0.55161725013411
40
0.55514098916317
40
0.5569028586777
40
0.55866472819223
40
0.560426597706761
40
0.562188467221291
40
0.565712206250351
40
0.569235945279411
40
0.572759684308471
40
0.576283423337531
40
0.579807162366591
40
0.583330901395652
40
0.586854640424712
40
0.590378379453772
40
0.593902118482832
40
0.597425857511892
40
0.600949596540952
40
0.604473335570012
40
0.607997074599072
40
0.611520813628133
40
0.615044552657193
40
0.618568291686253
40
0.622092030715313
40
0.629139508773434
40
0.636186986831554
40
0.643234464889674
40
0.646758203918734
40
0.650281942947794
40
0.653805681976855
40
0.657329421005915
40
0.660853160034975
40
0.664376899064035
40
0.671424377122155
40
0.678471855180276
40
0.681995594209336
40
0.685519333238396
40
0.689043072267456
40
0.692566811296516
40
0.696090550325576
40
0.699614289354637
40
0.706661767412757
40
0.710185506441817
40
0.713709245470877
40
0.720756723528998
40
0.727804201587117
40
0.731327940616178
40
0.734851679645238
40
0.741899157703358
40
0.745422896732418
40
0.748946635761479
40
0.752470374790539
40
0.755994113819599
40
0.763041591877719
40
0.766565330906779
40
0.770089069935839
40
0.773612808964899
40
0.77713654799396
40
0.78418402605208
40
0.78770776508114
40
0.7912315041102
40
0.79475524313926
40
0.798278982168321
40
0.805326460226441
40
0.808850199255501
40
0.812373938284561
40
0.815897677313621
40
0.819421416342682
40
0.826468894400802
40
0.829992633429862
40
0.833516372458922
40
0.835278241973452
40
0.837040111487983
40
0.840563850517043
40
0.847611328575163
40
0.851135067604223
40
0.854658806633283
40
0.858182545662343
40
0.861706284691403
40
0.868753762749524
40
0.872277501778584
40
0.875801240807644
40
0.879324979836704
40
0.882848718865764
40
0.886372457894824
40
0.889896196923885
40
0.893419935952945
40
0.896943674982005
40
0.903991153040125
40
0.907514892069185
40
0.911038631098245
40
0.918086109156366
40
0.921609848185426
40
0.925133587214486
40
0.932181065272606
40
0.935704804301666
40
0.939228543330726
40
0.942752282359787
40
0.946276021388847
40
0.953323499446967
40
0.956847238476027
40
0.960370977505088
40
0.963894716534148
40
0.967418455563208
40
0.970942194592268
40
0.974465933621328
40
0.977989672650388
40
0.981513411679448
40
0.985037150708509
40
0.988560889737569
40
0.992084628766629
40
0.995608367795689
40
0.999132106824749
40
1
40
1
40
1
40
1
41
1
10
-28.5
20
-16.8570111720127
30
0
41
1
10
-28.5
20
-16.8563913811379
30
0
41
1
10
-28.5
20
-16.8542840086147
30
0
41
1
10
-28.5
20
-16.8492032887544
30
0
41
1
10
-28.5
20
-16.8407921788659
30
0
41
1
10
-28.5
20
-16.8300011209595
30
0
41
1
10
-28.5
20
-16.8168672741156
30
0
41
1
10
-28.5
20
-16.8014255225769
30
0
41
1
10
-28.5
20
-16.783709883521
30
0
41
1
10
-28.5
20
-16.7637529731542
30
0
41
1
10
-28.5
20
-16.7415855338906
30
0
41
1
10
-28.5
20
-16.7172383450784
30
0
41
1
10
-28.5
20
-16.6818353810987
30
0
41
1
10
-28.5
20
-16.642411510514
30
0
41
1
10
-28.5
20
-16.5986105790194
30
0
41
1
10
-28.5
20
-16.5637763020887
30
0
41
1
10
-28.5
20
-16.5269199075572
30
0
41
1
10
-28.5
20
-16.4750169305147
30
0
41
1
10
-28.5
20
-16.4194622625482
30
0
41
1
10
-28.5
20
-16.3597331913305
30
0
41
1
10
-28.5
20
-16.2974462059125
30
0
41
1
10
-28.5
20
-16.2317181614777
30
0
41
1
10
-28.5
20
-16.1619255301562
30
0
41
1
10
-28.5
20
-16.0896767577218
30
0
41
1
10
-28.5
20
-16.0141701499498
30
0
41
1
10
-28.5
20
-15.9346970720351
30
0
41
1
10
-28.5
20
-15.8734193498834
30
0
41
1
10
-28.5
20
-15.8103844132608
30
0
41
1
10
-28.5
20
-15.745608166167
30
0
41
1
10
-28.5
20
-15.6791035033831
30
0
41
1
10
-28.5
20
-15.6108850520675
30
0
41
1
10
-28.5
20
-15.5409672008416
30
0
41
1
10
-28.5
20
-15.4453363897878
30
0
41
1
10
-28.5
20
-15.3468344295442
30
0
41
1
10
-28.5
20
-15.2445501023872
30
0
41
1
10
-28.5
20
-15.1663215412447
30
0
41
1
10
-28.5
20
-15.0864673138636
30
0
41
1
10
-28.5
20
-14.9776668598204
30
0
41
1
10
-28.5
20
-14.8661866472663
30
0
41
1
10
-28.5
20
-14.7510047173632
30
0
41
1
10
-28.5
20
-14.6631805593238
30
0
41
1
10
-28.5
20
-14.5737935545692
30
0
41
1
10
-28.5
20
-14.4523474056541
30
0
41
1
10
-28.5
20
-14.3283920102608
30
0
41
1
10
-28.5
20
-14.2007962111626
30
0
41
1
10
-28.5
20
-14.1037299196573
30
0
41
1
10
-28.5
20
-14.0051547121626
30
0
41
1
10
-28.5
20
-13.8715103774192
30
0
41
1
10
-28.5
20
-13.7355116027341
30
0
41
1
10
-28.5
20
-13.5959164295663
30
0
41
1
10
-28.5
20
-13.4899116400767
30
0
41
1
10
-28.5
20
-13.3824445287113
30
0
41
1
10
-28.5
20
-13.2369867267196
30
0
41
1
10
-28.5
20
-13.0893180063072
30
0
41
1
10
-28.5
20
-12.9380809359595
30
0
41
1
10
-28.5
20
-12.8234002792818
30
0
41
1
10
-28.5
20
-12.7072977235968
30
0
41
1
10
-28.5
20
-12.550359403554
30
0
41
1
10
-28.5
20
-12.3913462445321
30
0
41
1
10
-28.5
20
-12.2287775158425
30
0
41
1
10
-28.5
20
-12.1056498288981
30
0
41
1
10
-28.5
20
-11.9811355431936
30
0
41
1
10
-28.5
20
-11.8130068133241
30
0
41
1
10
-28.5
20
-11.642935768078
30
0
41
1
10
-28.5
20
-11.4693068645233
30
0
41
1
10
-28.5
20
-11.2938625434425
30
0
41
1
10
-28.5
20
-11.0718089327865
30
0
41
1
10
-28.5
20
-10.8452681360072
30
0
41
1
10
-28.5
20
-10.6608198079832
30
0
41
1
10
-28.5
20
-10.4745957683654
30
0
41
1
10
-28.5
20
-10.2866518533399
30
0
41
1
10
-28.5
20
-10.0951135357909
30
0
41
1
10
-28.5
20
-9.9503895477591
30
0
41
1
10
-28.5
20
-9.8043545776041
30
0
41
1
10
-28.5
20
-9.65701503611822
30
0
41
1
10
-28.5
20
-9.50837340526911
30
0
41
1
10
-28.5
20
-9.30810992365676
30
0
41
1
10
-28.5
20
-9.05534970701541
30
0
41
1
10
-28.5
20
-8.79830464348922
30
0
41
1
10
-28.5
20
-8.58944232029054
30
0
41
1
10
-28.5
20
-8.43181572672981
30
0
41
1
10
-28.5
20
-8.27292311790592
30
0
41
1
10
-28.5
20
-8.11277014047184
30
0
41
1
10
-28.5
20
-7.9513617118449
30
0
41
1
10
-28.5
20
-7.73407184255308
30
0
41
1
10
-28.5
20
-7.46030866767529
30
0
41
1
10
-28.5
20
-7.12632140637373
30
0
41
1
10
-28.5
20
-6.84437402550569
30
0
41
1
10
-28.5
20
-6.61554359890371
30
0
41
1
10
-28.5
20
-6.44309029411605
30
0
41
1
10
-28.5
20
-6.26944364545889
30
0
41
1
10
-28.5
20
-6.09461246091772
30
0
41
1
10
-28.5
20
-5.91860523667609
30
0
41
1
10
-28.5
20
-5.74143189937953
30
0
41
1
10
-28.5
20
-5.56310357372001
30
0
41
1
10
-28.5
20
-5.38363134733163
30
0
41
1
10
-28.5
20
-5.20302692387261
30
0
41
1
10
-28.5
20
-5.0213042232472
30
0
41
1
10
-28.5
20
-4.83847919931264
30
0
41
1
10
-28.5
20
-4.65456716028004
30
0
41
1
10
-28.5
20
-4.46958486845949
30
0
41
1
10
-28.5
20
-4.28355302808069
30
0
41
1
10
-28.5
20
-4.09649275318182
30
0
41
1
10
-28.5
20
-3.90842813226232
30
0
41
1
10
-28.5
20
-3.75124940963562
30
0
41
1
10
-28.5
20
-3.6243549796439
30
0
41
1
10
-28.5
20
-3.5292431593418
30
0
41
1
10
-28.5
20
-3.43390158445521
30
0
41
1
10
-28.5
20
-3.30608717079298
30
0
41
1
10
-28.5
20
-3.14669072023423
30
0
41
1
10
-28.5
20
-2.9865693987912
30
0
41
1
10
-28.5
20
-2.85729421649611
30
0
41
1
10
-28.5
20
-2.76048089001324
30
0
41
1
10
-28.5
20
-2.66347976206254
30
0
41
1
10
-28.5
20
-2.56629526768592
30
0
41
1
10
-28.5
20
-2.46893611478751
30
0
41
1
10
-28.5
20
-2.33842740009587
30
0
41
1
10
-28.5
20
-2.20905952740142
30
0
41
1
10
-28.5
20
-2.07788039572898
30
0
41
1
10
-28.5
20
-1.97974994874616
30
0
41
1
10
-28.5
20
-1.88148715614122
30
0
41
1
10
-28.5
20
-1.78310090101277
30
0
41
1
10
-28.5
20
-1.68460072925305
30
0
41
1
10
-28.5
20
-1.58599184128096
30
0
41
1
10
-28.5
20
-1.48728649469356
30
0
41
1
10
-28.5
20
-1.38848914320587
30
0
41
1
10
-28.5
20
-1.28961139997082
30
0
41
1
10
-28.5
20
-1.19065859360987
30
0
41
1
10
-28.5
20
-1.09164071478048
30
0
41
1
10
-28.5
20
-0.992564090788449
30
0
41
1
10
-28.5
20
-0.893436923932512
30
0
41
1
10
-28.5
20
-0.794265471937138
30
0
41
1
10
-28.5
20
-0.695056741362833
30
0
41
1
10
-28.5
20
-0.595816468507252
30
0
41
1
10
-28.5
20
-0.49655061320999
30
0
41
1
10
-28.5
20
-0.397263853181812
30
0
41
1
10
-28.5
20
-0.297961366795107
30
0
41
1
10
-28.5
20
-0.198647102840709
30
0
41
1
10
-28.5
20
-0.0993254669347436
30
0
41
1
10
-28.5
20
-5.4725149E-09
30
0
41
1
10
-28.5
20
0.0993254684405827
30
0
41
1
10
-28.5
20
0.198647127601248
30
0
41
1
10
-28.5
20
0.297961388791691
30
0
41
1
10
-28.5
20
0.397263840424017
30
0
41
1
10
-28.5
20
0.496550594205559
30
0
41
1
10
-28.5
20
0.595816495504096
30
0
41
1
10
-28.5
20
0.695056784277028
30
0
41
1
10
-28.5
20
0.794265459276176
30
0
41
1
10
-28.5
20
0.89343688343348
30
0
41
1
10
-28.5
20
0.992564112169902
30
0
41
1
10
-28.5
20
1.09164077920423
30
0
41
1
10
-28.5
20
1.19065859620264
30
0
41
1
10
-28.5
20
1.28961134189754
30
0
41
1
10
-28.5
20
1.38848913588993
30
0
41
1
10
-28.5
20
1.48728656512978
30
0
41
1
10
-28.5
20
1.58599188781932
30
0
41
1
10
-28.5
20
1.6846006870125
30
0
41
1
10
-28.5
20
1.78310084050699
30
0
41
1
10
-28.5
20
1.88148718140701
30
0
41
1
10
-28.5
20
1.9797500364362
30
0
41
1
10
-28.5
20
2.0778804265363
30
0
41
1
10
-28.5
20
2.17587292609085
30
0
41
1
10
-28.5
20
2.27371679621319
30
0
41
1
10
-28.5
20
2.37140757120355
30
0
41
1
10
-28.5
20
2.46893613943033
30
0
41
1
10
-28.5
20
2.59923374131699
30
0
41
1
10
-28.5
20
2.72777279716706
30
0
41
1
10
-28.5
20
2.8572942882393
30
0
41
1
10
-28.5
20
2.98656948332388
30
0
41
1
10
-28.5
20
3.14669074057869
30
0
41
1
10
-28.5
20
3.30608709676801
30
0
41
1
10
-28.5
20
3.43390157548936
30
0
41
1
10
-28.5
20
3.52924322184191
30
0
41
1
10
-28.5
20
3.62435506854831
30
0
41
1
10
-28.5
20
3.75124942106058
30
0
41
1
10
-28.5
20
3.90842799420628
30
0
41
1
10
-28.5
20
4.09649259176146
30
0
41
1
10
-28.5
20
4.28355297730505
30
0
41
1
10
-28.5
20
4.4695846174555
30
0
41
1
10
-28.5
20
4.65456683421039
30
0
41
1
10
-28.5
20
4.83847943804494
30
0
41
1
10
-28.5
20
5.0213044851898
30
0
41
1
10
-28.5
20
5.2030267003301
30
0
41
1
10
-28.5
20
5.38363156234237
30
0
41
1
10
-28.5
20
5.56310445504442
30
0
41
1
10
-28.5
20
5.74143237747984
30
0
41
1
10
-28.5
20
5.91860495448572
30
0
41
1
10
-28.5
20
6.09461208825527
30
0
41
1
10
-28.5
20
6.26944357118299
30
0
41
1
10
-28.5
20
6.4430903265563
30
0
41
1
10
-28.5
20
6.61554357091572
30
0
41
1
10
-28.5
20
6.84437400802861
30
0
41
1
10
-28.5
20
7.12632144512301
30
0
41
1
10
-28.5
20
7.46030865505762
30
0
41
1
10
-28.5
20
7.73407184285281
30
0
41
1
10
-28.5
20
7.95136176299604
30
0
41
1
10
-28.5
20
8.11277014937085
30
0
41
1
10
-28.5
20
8.27292308432649
30
0
41
1
10
-28.5
20
8.43181570788789
30
0
41
1
10
-28.5
20
8.5894423488798
30
0
41
1
10
-28.5
20
8.79830467826932
30
0
41
1
10
-28.5
20
9.05534969583792
30
0
41
1
10
-28.5
20
9.30810991622687
30
0
41
1
10
-28.5
20
9.50837344479851
30
0
41
1
10
-28.5
20
9.65701506287493
30
0
41
1
10
-28.5
20
9.80435457188474
30
0
41
1
10
-28.5
20
9.95038952754788
30
0
41
1
10
-28.5
20
10.095113531911
30
0
41
1
10
-28.5
20
10.2866518813937
30
0
41
1
10
-28.5
20
10.4745957936973
30
0
41
1
10
-28.5
20
10.6608197986608
30
0
41
1
10
-28.5
20
10.8452681286137
30
0
41
1
10
-28.5
20
11.0718089525805
30
0
41
1
10
-28.5
20
11.2938625632929
30
0
41
1
10
-28.5
20
11.4693068596265
30
0
41
1
10
-28.5
20
11.6429357656381
30
0
41
1
10
-28.5
20
11.8130068303033
30
0
41
1
10
-28.5
20
11.9811355648908
30
0
41
1
10
-28.5
20
12.1056498404809
30
0
41
1
10
-28.5
20
12.2287775174238
30
0
41
1
10
-28.5
20
12.3913462461042
30
0
41
1
10
-28.5
20
12.5503594172971
30
0
41
1
10
-28.5
20
12.7072977423403
30
0
41
1
10
-28.5
20
12.8234002933141
30
0
41
1
10
-28.5
20
12.9380809438717
30
0
41
1
10
-28.5
20
13.0893180117675
30
0
41
1
10
-28.5
20
13.2369867372074
30
0
41
1
10
-28.5
20
13.3824445445542
30
0
41
1
10
-28.5
20
13.4899116562855
30
0
41
1
10
-28.5
20
13.5959164434403
30
0
41
1
10
-28.5
20
13.7355116125921
30
0
41
1
10
-28.5
20
13.8715103854275
30
0
41
1
10
-28.5
20
14.0051547249398
30
0
41
1
10
-28.5
20
14.1037299370701
30
0
41
1
10
-28.5
20
14.2007962250068
30
0
41
1
10
-28.5
20
14.328392039309
30
0
41
1
10
-28.5
20
14.452347405446
30
0
41
1
10
-28.5
20
14.5737935062701
30
0
41
1
10
-28.5
20
14.6481896525931
30
0
41
1
10
-28.5
20
14.7070919001429
30
0
41
1
10
-28.5
20
14.7654709460418
30
0
41
1
10
-28.5
20
14.8661866667289
30
0
41
1
10
-28.5
20
14.9776668655465
30
0
41
1
10
-28.5
20
15.086467321316
30
0
41
1
10
-28.5
20
15.1663215599361
30
0
41
1
10
-28.5
20
15.2445501295776
30
0
41
1
10
-28.5
20
15.3468344527491
30
0
41
1
10
-28.5
20
15.4453363938053
30
0
41
1
10
-28.5
20
15.5409672073329
30
0
41
1
10
-28.5
20
15.6108850733398
30
0
41
1
10
-28.5
20
15.679103534252
30
0
41
1
10
-28.5
20
15.7456081924762
30
0
41
1
10
-28.5
20
15.810384423087
30
0
41
1
10
-28.5
20
15.8734193510279
30
0
41
1
10
-28.5
20
15.9346970807191
30
0
41
1
10
-28.5
20
16.0141701800502
30
0
41
1
10
-28.5
20
16.0896767899468
30
0
41
1
10
-28.5
20
16.1619255341458
30
0
41
1
10
-28.5
20
16.2317181619347
30
0
41
1
10
-28.5
20
16.2974462376793
30
0
41
1
10
-28.5
20
16.3597332242326
30
0
41
1
10
-28.5
20
16.4194622696319
30
0
41
1
10
-28.5
20
16.4750169286961
30
0
41
1
10
-28.5
20
16.5269199399481
30
0
41
1
10
-28.5
20
16.5637763395248
30
0
41
1
10
-28.5
20
16.5986105943247
30
0
41
1
10
-28.5
20
16.642411504334
30
0
41
1
10
-28.5
20
16.6818354096897
30
0
41
1
10
-28.5
20
16.7172383773105
30
0
41
1
10
-28.5
20
16.741585550229
30
0
41
1
10
-28.5
20
16.7637529737167
30
0
41
1
10
-28.5
20
16.7837098927271
30
0
41
1
10
-28.5
20
16.8014255596809
30
0
41
1
10
-28.5
20
16.816867307208
30
0
41
1
10
-28.5
20
16.8300011251081
30
0
41
1
10
-28.5
20
16.8407921763224
30
0
41
1
10
-28.5
20
16.8492033090471
30
0
41
1
10
-28.5
20
16.8551966659016
30
0
41
1
10
-28.5
20
16.8587319423621
30
0
41
1
10
-28.5
20
16.8597680746869
30
0
41
1
10
-28.5
20
16.8586398973756
30
0
41
1
10
-28.5
20
16.8573438976352
30
0
41
1
10
-28.5
20
16.8570614893007
30
0
0
SPLINE
5
189
100
AcDbEntity
8
SK1
62
256
6
ByLayer
370
18
48
1
60
0
100
AcDbSpline
70
4
71
3
72
284
73
280
40
0
40
0
40
0
40
0
40
0.0001430966821617
40
0.0037135041867767
40
0.0072839116913918
40
0.0108543191960068
40
0.0144247267006218
40
0.0179951342052369
40
0.0215655417098519
40
0.025135949214467
40
0.028706356719082
40
0.0322767642236971
40
0.0358471717283121
40
0.0429879867375422
40
0.0465583942421572
40
0.0501288017467723
40
0.0536992092513873
40
0.0572696167560024
40
0.0644104317652325
40
0.0679808392698475
40
0.0715512467744625
40
0.0786920617836926
40
0.0822624692883077
40
0.0858328767929227
40
0.0929736918021528
40
0.0965440993067678
40
0.100114506811383
40
0.103684914315998
40
0.107255321820613
40
0.110825729325228
40
0.114396136829843
40
0.117966544334458
40
0.121536951839073
40
0.128677766848303
40
0.132248174352918
40
0.135818581857533
40
0.139388989362148
40
0.142959396866763
40
0.150100211875994
40
0.153670619380608
40
0.157241026885224
40
0.160811434389839
40
0.164381841894454
40
0.171522656903684
40
0.175093064408299
40
0.178663471912914
40
0.182233879417529
40
0.185804286922144
40
0.192945101931374
40
0.196515509435989
40
0.200085916940604
40
0.203656324445219
40
0.207226731949834
40
0.214367546959064
40
0.217937954463679
40
0.221508361968294
40
0.225078769472909
40
0.228649176977524
40
0.235789991986754
40
0.23936039949137
40
0.242930806995985
40
0.2465012145006
40
0.250071622005215
40
0.257212437014445
40
0.26078284451906
40
0.264353252023675
40
0.271494067032905
40
0.278634882042135
40
0.28220528954675
40
0.285775697051365
40
0.292916512060595
40
0.29648691956521
40
0.300057327069825
40
0.30362773457444
40
0.307198142079055
40
0.31076854958367
40
0.314338957088286
40
0.321479772097515
40
0.328620587106746
40
0.332190994611361
40
0.335761402115976
40
0.339331809620591
40
0.342902217125206
40
0.346472624629821
40
0.350043032134436
40
0.357183847143666
40
0.364324662152896
40
0.371465477162126
40
0.375035884666741
40
0.378606292171356
40
0.382176699675971
40
0.385747107180586
40
0.389317514685201
40
0.392887922189816
40
0.396458329694431
40
0.400028737199046
40
0.403599144703661
40
0.407169552208277
40
0.410739959712892
40
0.414310367217507
40
0.417880774722122
40
0.421451182226737
40
0.425021589731352
40
0.428591997235967
40
0.432162404740582
40
0.433947608492889
40
0.435732812245197
40
0.437518015997505
40
0.439303219749812
40
0.442873627254427
40
0.446444034759042
40
0.448229238511349
40
0.450014442263657
40
0.451799646015965
40
0.453584849768272
40
0.45537005352058
40
0.457155257272887
40
0.460725664777502
40
0.46251086852981
40
0.464296072282117
40
0.466081276034425
40
0.467866479786732
40
0.46965168353904
40
0.471436887291347
40
0.473222091043655
40
0.475007294795962
40
0.47679249854827
40
0.478577702300577
40
0.480362906052885
40
0.482148109805193
40
0.4839333135575
40
0.485718517309807
40
0.487503721062115
40
0.489288924814422
40
0.49107412856673
40
0.492859332319038
40
0.494644536071345
40
0.496429739823653
40
0.49821494357596
40
0.500000147328268
40
0.501785351080575
40
0.503570554832883
40
0.50535575858519
40
0.507140962337498
40
0.508926166089805
40
0.510711369842113
40
0.51249657359442
40
0.514281777346728
40
0.516066981099035
40
0.517852184851343
40
0.51963738860365
40
0.521422592355958
40
0.523207796108265
40
0.524992999860573
40
0.526778203612881
40
0.528563407365188
40
0.530348611117496
40
0.532133814869803
40
0.533919018622111
40
0.535704222374418
40
0.537489426126726
40
0.539274629879033
40
0.541059833631341
40
0.542845037383648
40
0.544630241135956
40
0.546415444888263
40
0.549985852392878
40
0.551771056145186
40
0.553556259897493
40
0.557126667402108
40
0.560697074906723
40
0.562482278659031
40
0.564267482411338
40
0.566052686163646
40
0.567837889915953
40
0.571408297420569
40
0.574978704925184
40
0.578549112429799
40
0.582119519934414
40
0.585689927439029
40
0.589260334943644
40
0.592830742448259
40
0.596401149952874
40
0.599971557457489
40
0.603541964962104
40
0.607112372466719
40
0.610682779971334
40
0.614253187475949
40
0.617823594980564
40
0.621394002485179
40
0.624964409989794
40
0.628534817494409
40
0.635675632503639
40
0.642816447512869
40
0.6499572625221
40
0.653527670026715
40
0.65709807753133
40
0.660668485035945
40
0.66423889254056
40
0.667809300045175
40
0.67137970754979
40
0.67852052255902
40
0.68566133756825
40
0.689231745072865
40
0.69280215257748
40
0.696372560082095
40
0.69994296758671
40
0.703513375091325
40
0.70708378259594
40
0.71422459760517
40
0.717795005109785
40
0.7213654126144
40
0.72850622762363
40
0.73564704263286
40
0.739217450137476
40
0.742787857642091
40
0.749928672651321
40
0.753499080155936
40
0.757069487660551
40
0.760639895165166
40
0.764210302669781
40
0.771351117679011
40
0.774921525183626
40
0.778491932688241
40
0.782062340192856
40
0.785632747697471
40
0.792773562706701
40
0.796343970211316
40
0.799914377715931
40
0.803484785220546
40
0.807055192725161
40
0.814196007734391
40
0.817766415239007
40
0.821336822743622
40
0.824907230248237
40
0.828477637752852
40
0.835618452762082
40
0.839188860266697
40
0.842759267771312
40
0.844544471523619
40
0.846329675275927
40
0.849900082780542
40
0.857040897789772
40
0.860611305294387
40
0.864181712799002
40
0.867752120303617
40
0.871322527808232
40
0.878463342817462
40
0.882033750322077
40
0.885604157826692
40
0.889174565331307
40
0.892744972835922
40
0.896315380340537
40
0.899885787845152
40
0.903456195349768
40
0.907026602854383
40
0.914167417863613
40
0.917737825368228
40
0.921308232872843
40
0.928449047882073
40
0.932019455386688
40
0.935589862891303
40
0.942730677900533
40
0.946301085405148
40
0.949871492909763
40
0.953441900414378
40
0.957012307918993
40
0.964153122928223
40
0.967723530432838
40
0.971293937937453
40
0.974864345442068
40
0.978434752946683
40
0.982005160451298
40
0.985575567955914
40
0.989145975460528
40
0.992716382965144
40
0.996286790469759
40
0.999857197974374
40
1
40
1
40
1
40
1
41
1
10
-1.99503997793928
20
-17.320689212063
30
0
41
1
10
-1.99503997793928
20
-17.3206252196247
30
0
41
1
10
-1.99503997793928
20
-17.3189470225139
30
0
41
1
10
-1.99503997793928
20
-17.3147637003649
30
0
41
1
10
-1.99503997793928
20
-17.3061342577567
30
0
41
1
10
-1.99503997793928
20
-17.295067771448
30
0
41
1
10
-1.99503997793928
20
-17.2816041041457
30
0
41
1
10
-1.99503997793928
20
-17.2657805776118
30
0
41
1
10
-1.99503997793928
20
-17.2476335117891
30
0
41
1
10
-1.99503997793928
20
-17.2271975457697
30
0
41
1
10
-1.99503997793928
20
-17.2045053960087
30
0
41
1
10
-1.99503997793928
20
-17.1795895960111
30
0
41
1
10
-1.99503997793928
20
-17.143423992764
30
0
41
1
10
-1.99503997793928
20
-17.1029924242496
30
0
41
1
10
-1.99503997793928
20
-17.0582791326422
30
0
41
1
10
-1.99503997793928
20
-17.0226787925821
30
0
41
1
10
-1.99503997793928
20
-16.9850205529168
30
0
41
1
10
-1.99503997793928
20
-16.9320728615657
30
0
41
1
10
-1.99503997793928
20
-16.8751872660894
30
0
41
1
10
-1.99503997793928
20
-16.8142877036056
30
0
41
1
10
-1.99503997793928
20
-16.7507929832779
30
0
41
1
10
-1.99503997793928
20
-16.6835453056651
30
0
41
1
10
-1.99503997793928
20
-16.6124299551482
30
0
41
1
10
-1.99503997793928
20
-16.5388242186582
30
0
41
1
10
-1.99503997793928
20
-16.4616240004255
30
0
41
1
10
-1.99503997793928
20
-16.3806869939664
30
0
41
1
10
-1.99503997793928
20
-16.3182114219941
30
0
41
1
10
-1.99503997793928
20
-16.2539521138773
30
0
41
1
10
-1.99503997793928
20
-16.1879246249361
30
0
41
1
10
-1.99503997793928
20
-16.1201424382026
30
0
41
1
10
-1.99503997793928
20
-16.0506207732709
30
0
41
1
10
-1.99503997793928
20
-15.979373490825
30
0
41
1
10
-1.99503997793928
20
-15.8820499794418
30
0
41
1
10
-1.99503997793928
20
-15.7814584486047
30
0
41
1
10
-1.99503997793928
20
-15.677384958149
30
0
41
1
10
-1.99503997793928
20
-15.5977008436634
30
0
41
1
10
-1.99503997793928
20
-15.5163656256123
30
0
41
1
10
-1.99503997793928
20
-15.4056838451686
30
0
41
1
10
-1.99503997793928
20
-15.2918890118945
30
0
41
1
10
-1.99503997793928
20
-15.1747311694574
30
0
41
1
10
-1.99503997793928
20
-15.0853020659337
30
0
41
1
10
-1.99503997793928
20
-14.9942846604514
30
0
41
1
10
-1.99503997793928
20
-14.8707702235387
30
0
41
1
10
-1.99503997793928
20
-14.7442755428493
30
0
41
1
10
-1.99503997793928
20
-14.6145160455858
30
0
41
1
10
-1.99503997793928
20
-14.5156939096276
30
0
41
1
10
-1.99503997793928
20
-14.4153366771621
30
0
41
1
10
-1.99503997793928
20
-14.2794333721973
30
0
41
1
10
-1.99503997793928
20
-14.1406647198644
30
0
41
1
10
-1.99503997793928
20
-13.9987118830366
30
0
41
1
10
-1.99503997793928
20
-13.8907947247769
30
0
41
1
10
-1.99503997793928
20
-13.7813876415877
30
0
41
1
10
-1.99503997793928
20
-13.6334713769854
30
0
41
1
10
-1.99503997793928
20
-13.482790135872
30
0
41
1
10
-1.99503997793928
20
-13.328990109671
30
0
41
1
10
-1.99503997793928
20
-13.2122307400427
30
0
41
1
10
-1.99503997793928
20
-13.09401974916
30
0
41
1
10
-1.99503997793928
20
-12.9344093145834
30
0
41
1
10
-1.99503997793928
20
-12.7721223429484
30
0
41
1
10
-1.99503997793928
20
-12.606768466692
30
0
41
1
10
-1.99503997793928
20
-12.4813812679684
30
0
41
1
10
-1.99503997793928
20
-12.3545748152048
30
0
41
1
10
-1.99503997793928
20
-12.1835401119863
30
0
41
1
10
-1.99503997793928
20
-12.0099077332894
30
0
41
1
10
-1.99503997793928
20
-11.8332480165124
30
0
41
1
10
-1.99503997793928
20
-11.6547268261542
30
0
41
1
10
-1.99503997793928
20
-11.4282697000141
30
0
41
1
10
-1.99503997793928
20
-11.1972001365959
30
0
41
1
10
-1.99503997793928
20
-11.00944356136
30
0
41
1
10
-1.99503997793928
20
-10.8198574498995
30
0
41
1
10
-1.99503997793928
20
-10.627787937013
30
0
41
1
10
-1.99503997793928
20
-10.4327334855784
30
0
41
1
10
-1.99503997793928
20
-10.2851499168301
30
0
41
1
10
-1.99503997793928
20
-10.13621047024
30
0
41
1
10
-1.99503997793928
20
-9.98591879047714
30
0
41
1
10
-1.99503997793928
20
-9.83427692622885
30
0
41
1
10
-1.99503997793928
20
-9.63019833168175
30
0
41
1
10
-1.99503997793928
20
-9.37195865327328
30
0
41
1
10
-1.99503997793928
20
-9.1092571782612
30
0
41
1
10
-1.99503997793928
20
-8.89624559944801
30
0
41
1
10
-1.99503997793928
20
-8.73523611643316
30
0
41
1
10
-1.99503997793928
20
-8.57289871794615
30
0
41
1
10
-1.99503997793928
20
-8.40923673354897
30
0
41
1
10
-1.99503997793928
20
-8.24425232954013
30
0
41
1
10
-1.99503997793928
20
-8.0224014648056
30
0
41
1
10
-1.99503997793928
20
-7.7420578132905
30
0
41
1
10
-1.99503997793928
20
-7.40025290593451
30
0
41
1
10
-1.99503997793928
20
-7.11118461088941
30
0
41
1
10
-1.99503997793928
20
-6.87709665618266
30
0
41
1
10
-1.99503997793928
20
-6.70033531356589
30
0
41
1
10
-1.99503997793928
20
-6.52228078287743
30
0
41
1
10
-1.99503997793928
20
-6.3429370741791
30
0
41
1
10
-1.99503997793928
20
-6.16230788845579
30
0
41
1
10
-1.99503997793928
20
-5.98039789106801
30
0
41
1
10
-1.99503997793928
20
-5.79721186805691
30
0
41
1
10
-1.99503997793928
20
-5.61275496243289
30
0
41
1
10
-1.99503997793928
20
-5.42703270327695
30
0
41
1
10
-1.99503997793928
20
-5.24005175731475
30
0
41
1
10
-1.99503997793928
20
-5.05181945337139
30
0
41
1
10
-1.99503997793928
20
-4.86234332329403
30
0
41
1
10
-1.99503997793928
20
-4.67163207713236
30
0
41
1
10
-1.99503997793928
20
-4.47969614999016
30
0
41
1
10
-1.99503997793928
20
-4.28654656517494
30
0
41
1
10
-1.99503997793928
20
-4.09219634432211
30
0
41
1
10
-1.99503997793928
20
-3.92934661081907
30
0
41
1
10
-1.99503997793928
20
-3.7982972967292
30
0
41
1
10
-1.99503997793928
20
-3.69979994526253
30
0
41
1
10
-1.99503997793928
20
-3.6010147061962
30
0
41
1
10
-1.99503997793928
20
-3.46881385164499
30
0
41
1
10
-1.99503997793928
20
-3.30310841087518
30
0
41
1
10
-1.99503997793928
20
-3.13647579824178
30
0
41
1
10
-1.99503997793928
20
-3.00241852965871
30
0
41
1
10
-1.99503997793928
20
-2.90170218623106
30
0
41
1
10
-1.99503997793928
20
-2.80072442890969
30
0
41
1
10
-1.99503997793928
20
-2.69948931487846
30
0
41
1
10
-1.99503997793928
20
-2.5980019734576
30
0
41
1
10
-1.99503997793928
20
-2.46222694501739
30
0
41
1
10
-1.99503997793928
20
-2.3263670801044
30
0
41
1
10
-1.99503997793928
20
-2.18963187963746
30
0
41
1
10
-1.99503997793928
20
-2.08696367451518
30
0
41
1
10
-1.99503997793928
20
-1.98407765086858
30
0
41
1
10
-1.99503997793928
20
-1.88098143773604
30
0
41
1
10
-1.99503997793928
20
-1.77768276547397
30
0
41
1
10
-1.99503997793928
20
-1.67418894734925
30
0
41
1
10
-1.99503997793928
20
-1.57050946303122
30
0
41
1
10
-1.99503997793928
20
-1.46665209995737
30
0
41
1
10
-1.99503997793928
20
-1.36262724011792
30
0
41
1
10
-1.99503997793928
20
-1.25844372920938
30
0
41
1
10
-1.99503997793928
20
-1.15411255471386
30
0
41
1
10
-1.99503997793928
20
-1.04964378000579
30
0
41
1
10
-1.99503997793928
20
-0.945048899580655
30
0
41
1
10
-1.99503997793928
20
-0.840338961204225
30
0
41
1
10
-1.99503997793928
20
-0.735526073032332
30
0
41
1
10
-1.99503997793928
20
-0.630622105582688
30
0
41
1
10
-1.99503997793928
20
-0.525639721157262
30
0
41
1
10
-1.99503997793928
20
-0.420591350928703
30
0
41
1
10
-1.99503997793928
20
-0.315490126623814
30
0
41
1
10
-1.99503997793928
20
-0.210348939519435
30
0
41
1
10
-1.99503997793928
20
-0.105181165306249
30
0
41
1
10
-1.99503997793928
20
2.6093687E-09
30
0
41
1
10
-1.99503997793928
20
0.10518117389941
30
0
41
1
10
-1.99503997793928
20
0.21034895445402
30
0
41
1
10
-1.99503997793928
20
0.315490140896543
30
0
41
1
10
-1.99503997793928
20
0.420591355720489
30
0
41
1
10
-1.99503997793928
20
0.525639723935797
30
0
41
1
10
-1.99503997793928
20
0.630622120770227
30
0
41
1
10
-1.99503997793928
20
0.735526093018507
30
0
41
1
10
-1.99503997793928
20
0.840338966235578
30
0
41
1
10
-1.99503997793928
20
0.945048896197648
30
0
41
1
10
-1.99503997793928
20
1.04964379294299
30
0
41
1
10
-1.99503997793928
20
1.15411258033262
30
0
41
1
10
-1.99503997793928
20
1.25844373877697
30
0
41
1
10
-1.99503997793928
20
1.36262723194542
30
0
41
1
10
-1.99503997793928
20
1.46665210416356
30
0
41
1
10
-1.99503997793928
20
1.57050948928742
30
0
41
1
10
-1.99503997793928
20
1.67418896894682
30
0
41
1
10
-1.99503997793928
20
1.77768276258209
30
0
41
1
10
-1.99503997793928
20
1.88098142742643
30
0
41
1
10
-1.99503997793928
20
1.98407766278629
30
0
41
1
10
-1.99503997793928
20
2.08696370566375
30
0
41
1
10
-1.99503997793928
20
2.18963189754737
30
0
41
1
10
-1.99503997793928
20
2.29207637206397
30
0
41
1
10
-1.99503997793928
20
2.39428973936722
30
0
41
1
10
-1.99503997793928
20
2.49626703199883
30
0
41
1
10
-1.99503997793928
20
2.59800197223717
30
0
41
1
10
-1.99503997793928
20
2.73345090264118
30
0
41
1
10
-1.99503997793928
20
2.86801083241156
30
0
41
1
10
-1.99503997793928
20
3.00241855173454
30
0
41
1
10
-1.99503997793928
20
3.13647582573117
30
0
41
1
10
-1.99503997793928
20
3.30310842941955
30
0
41
1
10
-1.99503997793928
20
3.46881383607317
30
0
41
1
10
-1.99503997793928
20
3.60101470543907
30
0
41
1
10
-1.99503997793928
20
3.69979996514493
30
0
41
1
10
-1.99503997793928
20
3.79829732832764
30
0
41
1
10
-1.99503997793928
20
3.92934662557204
30
0
41
1
10
-1.99503997793928
20
4.09219631216948
30
0
41
1
10
-1.99503997793928
20
4.28654650347451
30
0
41
1
10
-1.99503997793928
20
4.47969611179559
30
0
41
1
10
-1.99503997793928
20
4.67163198724225
30
0
41
1
10
-1.99503997793928
20
4.86234315765492
30
0
41
1
10
-1.99503997793928
20
5.05181944357969
30
0
41
1
10
-1.99503997793928
20
5.24005183821342
30
0
41
1
10
-1.99503997793928
20
5.42703263168386
30
0
41
1
10
-1.99503997793928
20
5.61275497462711
30
0
41
1
10
-1.99503997793928
20
5.79721217482029
30
0
41
1
10
-1.99503997793928
20
5.98039819956611
30
0
41
1
10
-1.99503997793928
20
6.16230794338162
30
0
41
1
10
-1.99503997793928
20
6.34293700639154
30
0
41
1
10
-1.99503997793928
20
6.52228076981257
30
0
41
1
10
-1.99503997793928
20
6.70033533418757
30
0
41
1
10
-1.99503997793928
20
6.87709665926303
30
0
41
1
10
-1.99503997793928
20
7.11118459991687
30
0
41
1
10
-1.99503997793928
20
7.40025292645402
30
0
41
1
10
-1.99503997793928
20
7.74205781809903
30
0
41
1
10
-1.99503997793928
20
8.02240145976876
30
0
41
1
10
-1.99503997793928
20
8.24425235284596
30
0
41
1
10
-1.99503997793928
20
8.40923674956807
30
0
41
1
10
-1.99503997793928
20
8.57289871422529
30
0
41
1
10
-1.99503997793928
20
8.73523610803539
30
0
41
1
10
-1.99503997793928
20
8.89624560664996
30
0
41
1
10
-1.99503997793928
20
9.10925720032841
30
0
41
1
10
-1.99503997793928
20
9.37195865915049
30
0
41
1
10
-1.99503997793928
20
9.6301983246166
30
0
41
1
10
-1.99503997793928
20
9.83427694277646
30
0
41
1
10
-1.99503997793928
20
9.98591881051331
30
0
41
1
10
-1.99503997793928
20
10.1362104789651
30
0
41
1
10
-1.99503997793928
20
10.2851499142426
30
0
41
1
10
-1.99503997793928
20
10.432733482583
30
0
41
1
10
-1.99503997793928
20
10.6277879483349
30
0
41
1
10
-1.99503997793928
20
10.8198574709635
30
0
41
1
10
-1.99503997793928
20
11.0094435667743
30
0
41
1
10
-1.99503997793928
20
11.1972001338813
30
0
41
1
10
-1.99503997793928
20
11.4282697094187
30
0
41
1
10
-1.99503997793928
20
11.6547268446385
30
0
41
1
10
-1.99503997793928
20
11.8332480225582
30
0
41
1
10
-1.99503997793928
20
12.0099077334538
30
0
41
1
10
-1.99503997793928
20
12.1835401209566
30
0
41
1
10
-1.99503997793928
20
12.3545748313203
30
0
41
1
10
-1.99503997793928
20
12.4813812819682
30
0
41
1
10
-1.99503997793928
20
12.6067684751262
30
0
41
1
10
-1.99503997793928
20
12.7721223466594
30
0
41
1
10
-1.99503997793928
20
12.9344093235711
30
0
41
1
10
-1.99503997793928
20
13.0940197637218
30
0
41
1
10
-1.99503997793928
20
13.2122307543484
30
0
41
1
10
-1.99503997793928
20
13.3289901210133
30
0
41
1
10
-1.99503997793928
20
13.4827901435456
30
0
41
1
10
-1.99503997793928
20
13.6334713858817
30
0
41
1
10
-1.99503997793928
20
13.7813876543746
30
0
41
1
10
-1.99503997793928
20
13.8907947392413
30
0
41
1
10
-1.99503997793928
20
13.99871189727
30
0
41
1
10
-1.99503997793928
20
14.1406647319193
30
0
41
1
10
-1.99503997793928
20
14.2794333813788
30
0
41
1
10
-1.99503997793928
20
14.4153366880849
30
0
41
1
10
-1.99503997793928
20
14.5156939237825
30
0
41
1
10
-1.99503997793928
20
14.614516060936
30
0
41
1
10
-1.99503997793928
20
14.7442755571137
30
0
41
1
10
-1.99503997793928
20
14.8707702595594
30
0
41
1
10
-1.99503997793928
20
14.9942845913974
30
0
41
1
10
-1.99503997793928
20
15.070107125687
30
0
41
1
10
-1.99503997793928
20
15.130016414734
30
0
41
1
10
-1.99503997793928
20
15.1893946011099
30
0
41
1
10
-1.99503997793928
20
15.2918890331241
30
0
41
1
10
-1.99503997793928
20
15.4056838559475
30
0
41
1
10
-1.99503997793928
20
15.5163656330196
30
0
41
1
10
-1.99503997793928
20
15.5977008570348
30
0
41
1
10
-1.99503997793928
20
15.677384979663
30
0
41
1
10
-1.99503997793928
20
15.781458474053
30
0
41
1
10
-1.99503997793928
20
15.8820499896637
30
0
41
1
10
-1.99503997793928
20
15.9793734967038
30
0
41
1
10
-1.99503997793928
20
16.0506207879892
30
0
41
1
10
-1.99503997793928
20
16.1201424632647
30
0
41
1
10
-1.99503997793928
20
16.1879246525291
30
0
41
1
10
-1.99503997793928
20
16.2539521307207
30
0
41
1
10
-1.99503997793928
20
16.3182114280861
30
0
41
1
10
-1.99503997793928
20
16.3806869997558
30
0
41
1
10
-1.99503997793928
20
16.4616240235723
30
0
41
1
10
-1.99503997793928
20
16.538824252381
30
0
41
1
10
-1.99503997793928
20
16.6124299668847
30
0
41
1
10
-1.99503997793928
20
16.6835453043615
30
0
41
1
10
-1.99503997793928
20
16.7507930080793
30
0
41
1
10
-1.99503997793928
20
16.8142877377232
30
0
41
1
10
-1.99503997793928
20
16.8751872797734
30
0
41
1
10
-1.99503997793928
20
16.9320728583858
30
0
41
1
10
-1.99503997793928
20
16.9850205784631
30
0
41
1
10
-1.99503997793928
20
17.0226788299273
30
0
41
1
10
-1.99503997793928
20
17.0582791544304
30
0
41
1
10
-1.99503997793928
20
17.1029924178939
30
0
41
1
10
-1.99503997793928
20
17.1434240170936
30
0
41
1
10
-1.99503997793928
20
17.1795896288677
30
0
41
1
10
-1.99503997793928
20
17.204505416066
30
0
41
1
10
-1.99503997793928
20
17.2271975480507
30
0
41
1
10
-1.99503997793928
20
17.2476335178127
30
0
41
1
10
-1.99503997793928
20
17.2657806121613
30
0
41
1
10
-1.99503997793928
20
17.2816041393821
30
0
41
1
10
-1.99503997793928
20
17.2950677779805
30
0
41
1
10
-1.99503997793928
20
17.3061342543252
30
0
41
1
10
-1.99503997793928
20
17.3147637210185
30
0
41
1
10
-1.99503997793928
20
17.3189468551844
30
0
41
1
10
-1.99503997793926
20
17.3206249260582
30
0
41
1
10
-1.99503997793926
20
17.3206887883549
30
0
0
SPLINE
5
18A
100
AcDbEntity
8
SK1
62
256
6
ByLayer
370
18
48
1
60
0
100
AcDbSpline
70
4
71
3
72
106
73
102
40
0
40
0
40
0
40
0
40
0.0075864935720483
40
0.0161184313068311
40
0.0246503690416139
40
0.0331823067763966
40
0.0417142445111794
40
0.0502461822459622
40
0.058778119980745
40
0.0673100577155277
40
0.0758419954503105
40
0.0843739331850933
40
0.0929058709198761
40
0.101437808654659
40
0.109969746389442
40
0.118501684124224
40
0.13556555959379
40
0.144097497328573
40
0.152629435063355
40
0.161161372798138
40
0.169693310532921
40
0.186757186002487
40
0.195289123737269
40
0.203821061472052
40
0.220884936941618
40
0.2294168746764
40
0.237948812411183
40
0.255012687880749
40
0.263544625615531
40
0.272076563350314
40
0.280608501085097
40
0.28914043881988
40
0.297672376554663
40
0.306204314289445
40
0.314736252024228
40
0.323268189759011
40
0.340332065228577
40
0.348864002963359
40
0.357395940698142
40
0.365927878432925
40
0.374459816167708
40
0.391523691637273
40
0.400055629372056
40
0.408587567106839
40
0.417119504841621
40
0.425651442576404
40
0.44271531804597
40
0.451247255780753
40
0.459779193515535
40
0.468311131250318
40
0.476843068985101
40
0.493906944454666
40
0.502438882189449
40
0.510970819924232
40
0.519502757659015
40
0.528034695393797
40
0.545098570863363
40
0.553630508598146
40
0.562162446332929
40
0.570694384067711
40
0.579226321802494
40
0.59629019727206
40
0.604822135006842
40
0.613354072741625
40
0.621886010476408
40
0.630417948211191
40
0.647481823680756
40
0.656013761415539
40
0.664545699150322
40
0.681609574619887
40
0.698673450089453
40
0.707205387824236
40
0.715737325559018
40
0.732801201028584
40
0.741333138763367
40
0.74986507649815
40
0.758397014232932
40
0.766928951967715
40
0.775460889702498
40
0.783992827437281
40
0.801056702906846
40
0.818120578376412
40
0.826652516111195
40
0.835184453845977
40
0.84371639158076
40
0.852248329315543
40
0.860780267050326
40
0.869312204785108
40
0.886376080254674
40
0.90343995572424
40
0.920503831193805
40
0.929035768928588
40
0.937567706663371
40
0.946099644398153
40
0.954631582132936
40
0.963163519867719
40
0.971695457602502
40
0.980227395337285
40
0.988759333072067
40
0.99729127080685
40
1
40
1
40
1
40
1
41
1
10
-0.394976888875277
20
-17.3601838882775
30
0
41
1
10
-0.394976888875277
20
-17.3617494126886
30
0
41
1
10
-0.394976888875277
20
-17.3643151424172
30
0
41
1
10
-0.394976888875277
20
-17.3658104187982
30
0
41
1
10
-0.394976888875277
20
-17.364743357607
30
0
41
1
10
-0.394976888875277
20
-17.3611046370287
30
0
41
1
10
-0.394976888875277
20
-17.3549392673806
30
0
41
1
10
-0.394976888875277
20
-17.3462909837355
30
0
41
1
10
-0.394976888875277
20
-17.3352007293143
30
0
41
1
10
-0.394976888875277
20
-17.3217086001335
30
0
41
1
10
-0.394976888875277
20
-17.3058521283006
30
0
41
1
10
-0.394976888875277
20
-17.2876678324761
30
0
41
1
10
-0.394976888875277
20
-17.267190526317
30
0
41
1
10
-0.394976888875277
20
-17.2444530966284
30
0
41
1
10
-0.394976888875277
20
-17.2194882282903
30
0
41
1
10
-0.394976888875277
20
-17.1832568130363
30
0
41
1
10
-0.394976888875277
20
-17.1427382851614
30
0
41
1
10
-0.394976888875277
20
-17.0979462613767
30
0
41
1
10
-0.394976888875277
20
-17.0622798138473
30
0
41
1
10
-0.394976888875277
20
-17.0245523789023
30
0
41
1
10
-0.394976888875277
20
-16.9715145338597
30
0
41
1
10
-0.394976888875277
20
-16.9145140859045
30
0
41
1
10
-0.394976888875277
20
-16.8535135157982
30
0
41
1
10
-0.394976888875277
20
-16.7899145739052
30
0
41
1
10
-0.394976888875277
20
-16.7225357594453
30
0
41
1
10
-0.394976888875277
20
-16.6513062647865
30
0
41
1
10
-0.394976888875277
20
-16.577583428992
30
0
41
1
10
-0.394976888875277
20
-16.5002370605308
30
0
41
1
10
-0.394976888875277
20
-16.4191737242595
30
0
41
1
10
-0.394976888875277
20
-16.3565947837564
30
0
41
1
10
-0.394976888875277
20
-16.2922298184193
30
0
41
1
10
-0.394976888875277
20
-16.2260943534788
30
0
41
1
10
-0.394976888875277
20
-16.1582019227301
30
0
41
1
10
-0.394976888875277
20
-16.0885677968918
30
0
41
1
10
-0.394976888875277
20
-16.0172057910894
30
0
41
1
10
-0.394976888875277
20
-15.9197362080175
30
0
41
1
10
-0.394976888875277
20
-15.8189643575456
30
0
41
1
10
-0.394976888875277
20
-15.7147364711228
30
0
41
1
10
-0.394976888875277
20
-15.6349267495635
30
0
41
1
10
-0.394976888875277
20
-15.553463729323
30
0
41
1
10
-0.394976888875277
20
-15.4426195996911
30
0
41
1
10
-0.394976888875277
20
-15.3286250260664
30
0
41
1
10
-0.394976888875277
20
-15.2112966721243
30
0
41
1
10
-0.394976888875277
20
-15.1217290697223
30
0
41
1
10
-0.394976888875277
20
-15.0305709686995
30
0
41
1
10
-0.394976888875277
20
-14.906878048735
30
0
41
1
10
-0.394976888875277
20
-14.7801642402503
30
0
41
1
10
-0.394976888875277
20
-14.6502180265082
30
0
41
1
10
-0.394976888875277
20
-14.5512443698349
30
0
41
1
10
-0.394976888875277
20
-14.4507333574048
30
0
41
1
10
-0.394976888875277
20
-14.3146351144528
30
0
41
1
10
-0.394976888875277
20
-14.1756274353422
30
0
41
1
10
-0.394976888875277
20
-14.0334711437704
30
0
41
1
10
-0.394976888875277
20
-13.9253889575191
30
0
41
1
10
-0.394976888875277
20
-13.8158144643309
30
0
41
1
10
-0.394976888875277
20
-13.6676860465324
30
0
41
1
10
-0.394976888875277
20
-13.5167448397425
30
0
41
1
10
-0.394976888875277
20
-13.3627236430939
30
0
41
1
10
-0.394976888875277
20
-13.2457848907918
30
0
41
1
10
-0.394976888875277
20
-13.127391952352
30
0
41
1
10
-0.394976888875277
20
-12.9675509274721
30
0
41
1
10
-0.394976888875277
20
-12.8049814419576
30
0
41
1
10
-0.394976888875277
20
-12.6393872212047
30
0
41
1
10
-0.394976888875277
20
-12.5138050377602
30
0
41
1
10
-0.394976888875277
20
-12.3868007822861
30
0
41
1
10
-0.394976888875277
20
-12.2155153079022
30
0
41
1
10
-0.394976888875277
20
-12.0415756036957
30
0
41
1
10
-0.394976888875277
20
-11.8646543426879
30
0
41
1
10
-0.394976888875277
20
-11.6858676336886
30
0
41
1
10
-0.394976888875277
20
-11.4590305058839
30
0
41
1
10
-0.394976888875277
20
-11.2275701322441
30
0
41
1
10
-0.394976888875277
20
-11.0395280715927
30
0
41
1
10
-0.394976888875277
20
-10.8496518299165
30
0
41
1
10
-0.394976888875277
20
-10.6572262982852
30
0
41
1
10
-0.394976888875277
20
-10.4618684218406
30
0
41
1
10
-0.394976888875277
20
-10.3140380853821
30
0
41
1
10
-0.394976888875277
20
-10.1648479968029
30
0
41
1
10
-0.394976888875277
20
-10.0143015620689
30
0
41
1
10
-0.394976888875277
20
-9.86240079247779
30
0
41
1
10
-0.394976888875277
20
-9.65799297250354
30
0
41
1
10
-0.394976888875277
20
-9.3992804435735
30
0
41
1
10
-0.394976888875277
20
-9.13609084815204
30
0
41
1
10
-0.394976888875277
20
-8.92272120904667
30
0
41
1
10
-0.394976888875277
20
-8.76141979935898
30
0
41
1
10
-0.394976888875277
20
-8.59878513251641
30
0
41
1
10
-0.394976888875277
20
-8.43482033812748
30
0
41
1
10
-0.394976888875277
20
-8.26952734508268
30
0
41
1
10
-0.394976888875277
20
-8.04728288893983
30
0
41
1
10
-0.394976888875277
20
-7.76637137475095
30
0
41
1
10
-0.394976888875277
20
-7.42389184310318
30
0
41
1
10
-0.394976888875277
20
-7.13420904829047
30
0
41
1
10
-0.394976888875277
20
-6.89966739484251
30
0
41
1
10
-0.394976888875277
20
-6.7225342898117
30
0
41
1
10
-0.394976888875277
20
-6.54409938064705
30
0
41
1
10
-0.394976888875277
20
-6.36436626337326
30
0
41
1
10
-0.394976888875277
20
-6.18333822517317
30
0
41
1
10
-0.394976888875277
20
-6.0010194773844
30
0
41
1
10
-0.394976888875277
20
-5.81741425905383
30
0
41
1
10
-0.394976888875277
20
-5.63252720020009
30
0
41
1
10
-0.394976888875277
20
-5.48871675629277
30
0
41
1
10
-0.394976888875277
20
-5.40659331253005
30
0
41
1
10
-0.394976888875277
20
-5.38678223324203
30
0
0
SPLINE
5
18B
100
AcDbEntity
8
SK1
62
256
6
ByLayer
370
18
48
1
60
0
100
AcDbSpline
70
4
71
3
72
107
73
103
40
0
40
0
40
0
40
0
40
0.0027087431771262
40
0.0112406780922318
40
0.0197726130073374
40
0.028304547922443
40
0.0368364828375486
40
0.0453684177526541
40
0.0539003526677597
40
0.0624322875828653
40
0.0709642224979709
40
0.0794961574130765
40
0.0965600272432876
40
0.113623897073499
40
0.13068776690371
40
0.139219701818816
40
0.147751636733921
40
0.156283571649027
40
0.164815506564132
40
0.173347441479238
40
0.181879376394344
40
0.198943246224555
40
0.216007116054766
40
0.224539050969871
40
0.233070985884977
40
0.241602920800083
40
0.250134855715188
40
0.258666790630294
40
0.267198725545399
40
0.28426259537561
40
0.292794530290716
40
0.301326465205822
40
0.318390335036033
40
0.335454204866244
40
0.34398613978135
40
0.352518074696455
40
0.369581944526666
40
0.378113879441772
40
0.386645814356878
40
0.395177749271983
40
0.403709684187089
40
0.4207735540173
40
0.429305488932405
40
0.437837423847511
40
0.446369358762617
40
0.454901293677722
40
0.471965163507933
40
0.480497098423039
40
0.489029033338145
40
0.49756096825325
40
0.506092903168356
40
0.523156772998567
40
0.531688707913673
40
0.540220642828778
40
0.548752577743884
40
0.557284512658989
40
0.5743483824892
40
0.582880317404306
40
0.591412252319412
40
0.595678219776964
40
0.599944187234517
40
0.608476122149623
40
0.625539991979834
40
0.63407192689494
40
0.642603861810045
40
0.651135796725151
40
0.659667731640256
40
0.676731601470467
40
0.685263536385573
40
0.693795471300679
40
0.702327406215784
40
0.71085934113089
40
0.719391276045995
40
0.727923210961101
40
0.736455145876207
40
0.744987080791312
40
0.762050950621523
40
0.770582885536629
40
0.779114820451734
40
0.796178690281946
40
0.804710625197051
40
0.813242560112157
40
0.830306429942368
40
0.838838364857474
40
0.847370299772579
40
0.855902234687685
40
0.86443416960279
40
0.881498039433001
40
0.890029974348107
40
0.898561909263213
40
0.907093844178318
40
0.915625779093424
40
0.924157714008529
40
0.932689648923635
40
0.941221583838741
40
0.949753518753846
40
0.958285453668952
40
0.966817388584057
40
0.975349323499163
40
0.983881258414269
40
0.992413193329374
40
1
40
1
40
1
40
1
41
1
10
-0.394976888875277
20
5.38678189578289
30
0
41
1
10
-0.394976888875277
20
5.4065930765673
30
0
41
1
10
-0.394976888875277
20
5.48871660168982
30
0
41
1
10
-0.394976888875277
20
5.63252719489225
30
0
41
1
10
-0.394976888875277
20
5.8174145162354
30
0
41
1
10
-0.394976888875277
20
6.00101977124669
30
0
41
1
10
-0.394976888875277
20
6.18333830919048
30
0
41
1
10
-0.394976888875277
20
6.3643662218949
30
0
41
1
10
-0.394976888875277
20
6.54409937286439
30
0
41
1
10
-0.394976888875277
20
6.72253430941348
30
0
41
1
10
-0.394976888875277
20
6.89966740060396
30
0
41
1
10
-0.394976888875277
20
7.13420903787926
30
0
41
1
10
-0.394976888875277
20
7.42389186204957
30
0
41
1
10
-0.394976888875277
20
7.76637138106329
30
0
41
1
10
-0.394976888875277
20
8.04728288344245
30
0
41
1
10
-0.394976888875277
20
8.26952736598562
30
0
41
1
10
-0.394976888875277
20
8.434820354761
30
0
41
1
10
-0.394976888875277
20
8.59878513137221
30
0
41
1
10
-0.394976888875277
20
8.76141979186249
30
0
41
1
10
-0.394976888875277
20
8.922721214403
30
0
41
1
10
-0.394976888875277
20
9.1360908691222
30
0
41
1
10
-0.394976888875277
20
9.39928045092248
30
0
41
1
10
-0.394976888875277
20
9.65799296546987
30
0
41
1
10
-0.394976888875277
20
9.86240080704218
30
0
41
1
10
-0.394976888875277
20
10.0143015815252
30
0
41
1
10
-0.394976888875277
20
10.1648480067744
30
0
41
1
10
-0.394976888875277
20
10.3140380843155
30
0
41
1
10
-0.394976888875277
20
10.4618684189216
30
0
41
1
10
-0.394976888875277
20
10.6572263081632
30
0
41
1
10
-0.394976888875277
20
10.8496518506122
30
0
41
1
10
-0.394976888875277
20
11.0395280782787
30
0
41
1
10
-0.394976888875277
20
11.2275701299333
30
0
41
1
10
-0.394976888875277
20
11.4590305143918
30
0
41
1
10
-0.394976888875277
20
11.685867652055
30
0
41
1
10
-0.394976888875277
20
11.864654349678
30
0
41
1
10
-0.394976888875277
20
12.0415756040849
30
0
41
1
10
-0.394976888875277
20
12.2155153161813
30
0
41
1
10
-0.394976888875277
20
12.3868007979199
30
0
41
1
10
-0.394976888875277
20
12.5138050519686
30
0
41
1
10
-0.394976888875277
20
12.6393872302303
30
0
41
1
10
-0.394976888875277
20
12.8049814458532
30
0
41
1
10
-0.394976888875277
20
12.9675509360494
30
0
41
1
10
-0.394976888875277
20
13.1273919665529
30
0
41
1
10
-0.394976888875277
20
13.2457849051211
30
0
41
1
10
-0.394976888875277
20
13.3627236547323
30
0
41
1
10
-0.394976888875277
20
13.5167448476072
30
0
41
1
10
-0.394976888875277
20
13.6676860552913
30
0
41
1
10
-0.394976888875277
20
13.8158144768541
30
0
41
1
10
-0.394976888875277
20
13.9253889718329
30
0
41
1
10
-0.394976888875277
20
14.0334711580348
30
0
41
1
10
-0.394976888875277
20
14.1756274475866
30
0
41
1
10
-0.394976888875277
20
14.3146351237356
30
0
41
1
10
-0.394976888875277
20
14.4507333681675
30
0
41
1
10
-0.394976888875277
20
14.5512443837086
30
0
41
1
10
-0.394976888875277
20
14.6502180419884
30
0
41
1
10
-0.394976888875277
20
14.780164253239
30
0
41
1
10
-0.394976888875277
20
14.9068780878822
30
0
41
1
10
-0.394976888875277
20
15.0305708978545
30
0
41
1
10
-0.394976888875277
20
15.1065165223896
30
0
41
1
10
-0.394976888875277
20
15.1665127141503
30
0
41
1
10
-0.394976888875277
20
15.2259771214207
30
0
41
1
10
-0.394976888875277
20
15.3286250474485
30
0
41
1
10
-0.394976888875277
20
15.4426196109061
30
0
41
1
10
-0.394976888875277
20
15.5534637367265
30
0
41
1
10
-0.394976888875277
20
15.6349267624759
30
0
41
1
10
-0.394976888875277
20
15.7147364921469
30
0
41
1
10
-0.394976888875277
20
15.8189643831875
30
0
41
1
10
-0.394976888875277
20
15.9197362187748
30
0
41
1
10
-0.394976888875277
20
16.0172057969154
30
0
41
1
10
-0.394976888875277
20
16.0885678110446
30
0
41
1
10
-0.394976888875277
20
16.1582019472912
30
0
41
1
10
-0.394976888875277
20
16.2260943811825
30
0
41
1
10
-0.394976888875277
20
16.2922298358683
30
0
41
1
10
-0.394976888875277
20
16.3565947902754
30
0
41
1
10
-0.394976888875277
20
16.4191737297992
30
0
41
1
10
-0.394976888875277
20
16.5002370830775
30
0
41
1
10
-0.394976888875277
20
16.5775834628441
30
0
41
1
10
-0.394976888875277
20
16.6513062771915
30
0
41
1
10
-0.394976888875277
20
16.7225357579897
30
0
41
1
10
-0.394976888875277
20
16.7899145981056
30
0
41
1
10
-0.394976888875277
20
16.8535135500206
30
0
41
1
10
-0.394976888875277
20
16.9145141001581
30
0
41
1
10
-0.394976888875277
20
16.9715145305624
30
0
41
1
10
-0.394976888875277
20
17.024552403858
30
0
41
1
10
-0.394976888875277
20
17.0622798511847
30
0
41
1
10
-0.394976888875277
20
17.0979462837243
30
0
41
1
10
-0.394976888875277
20
17.1427382787905
30
0
41
1
10
-0.394976888875277
20
17.1832568369982
30
0
41
1
10
-0.394976888875277
20
17.2194882612007
30
0
41
1
10
-0.394976888875277
20
17.2444531170066
30
0
41
1
10
-0.394976888875277
20
17.2671905287463
30
0
41
1
10
-0.394976888875277
20
17.2876678382251
30
0
41
1
10
-0.394976888875277
20
17.3058521626298
30
0
41
1
10
-0.394976888875277
20
17.3217086355548
30
0
41
1
10
-0.394976888875277
20
17.3352007360526
30
0
41
1
10
-0.394976888875277
20
17.3462909802274
30
0
41
1
10
-0.394976888875277
20
17.3549392880652
30
0
41
1
10
-0.394976888875277
20
17.3611046305144
30
0
41
1
10
-0.394976888875277
20
17.3647432146661
30
0
41
1
10
-0.394976888875277
20
17.3658102005923
30
0
41
1
10
-0.394976888875306
20
17.3643150511083
30
0
41
1
10
-0.394976888875306
20
17.3617494021688
30
0
41
1
10
-0.394976888875277
20
17.3601838595635
30
0
0
SPLINE
5
18C
100
AcDbEntity
8
SK1
62
256
6
ByLayer
370
18
48
1
60
0
100
AcDbSpline
70
4
71
3
72
288
73
284
40
0
40
0
40
0
40
0
40
0.0022851240206211
40
0.0057901646068633
40
0.0092952051931053
40
0.0128002457793475
40
0.0163052863655897
40
0.0198103269518318
40
0.0233153675380739
40
0.0268204081243161
40
0.0303254487105582
40
0.0338304892968003
40
0.0373355298830425
40
0.0408405704692846
40
0.0443456110555268
40
0.051355692228011
40
0.0548607328142532
40
0.0583657734004953
40
0.0618708139867375
40
0.0653758545729796
40
0.0723859357454639
40
0.075890976331706
40
0.0793960169179482
40
0.0864060980904324
40
0.0899111386766746
40
0.0934161792629167
40
0.100426260435401
40
0.103931301021643
40
0.107436341607885
40
0.110941382194127
40
0.11444642278037
40
0.117951463366612
40
0.121456503952854
40
0.124961544539096
40
0.128466585125338
40
0.135476666297823
40
0.138981706884064
40
0.142486747470307
40
0.145991788056549
40
0.149496828642791
40
0.156506909815275
40
0.160011950401517
40
0.163516990987759
40
0.167022031574002
40
0.170527072160244
40
0.177537153332728
40
0.18104219391897
40
0.184547234505212
40
0.188052275091455
40
0.191557315677697
40
0.198567396850181
40
0.202072437436423
40
0.205577478022665
40
0.209082518608907
40
0.212587559195149
40
0.219597640367634
40
0.223102680953876
40
0.226607721540118
40
0.23011276212636
40
0.233617802712602
40
0.240627883885087
40
0.244132924471329
40
0.247637965057571
40
0.251143005643813
40
0.254648046230055
40
0.26165812740254
40
0.265163167988782
40
0.268668208575024
40
0.275678289747508
40
0.282688370919992
40
0.286193411506235
40
0.289698452092477
40
0.296708533264961
40
0.300213573851203
40
0.303718614437445
40
0.307223655023687
40
0.310728695609929
40
0.314233736196172
40
0.317738776782414
40
0.324748857954898
40
0.331758939127382
40
0.335263979713624
40
0.338769020299867
40
0.342274060886109
40
0.345779101472351
40
0.349284142058593
40
0.352789182644835
40
0.35979926381732
40
0.366809344989804
40
0.373819426162288
40
0.37732446674853
40
0.380829507334772
40
0.384334547921014
40
0.387839588507256
40
0.391344629093499
40
0.394849669679741
40
0.398354710265983
40
0.401859750852225
40
0.405364791438467
40
0.408869832024709
40
0.412374872610952
40
0.415879913197194
40
0.419384953783436
40
0.422889994369678
40
0.42639503495592
40
0.429900075542162
40
0.433405116128404
40
0.435157636421525
40
0.436910156714647
40
0.438662677007768
40
0.440415197300889
40
0.443920237887131
40
0.447425278473373
40
0.449177798766494
40
0.450930319059615
40
0.452682839352736
40
0.454435359645857
40
0.456187879938978
40
0.457940400232099
40
0.461445440818341
40
0.463197961111463
40
0.464950481404584
40
0.466703001697705
40
0.468455521990826
40
0.470208042283947
40
0.471960562577068
40
0.473713082870189
40
0.47546560316331
40
0.477218123456431
40
0.478970643749552
40
0.480723164042673
40
0.482475684335794
40
0.484228204628915
40
0.485980724922036
40
0.487733245215158
40
0.489485765508278
40
0.4912382858014
40
0.492990806094521
40
0.494743326387642
40
0.496495846680763
40
0.498248366973884
40
0.500000887267005
40
0.501753407560126
40
0.503505927853247
40
0.505258448146368
40
0.507010968439489
40
0.50876348873261
40
0.510516009025731
40
0.512268529318852
40
0.514021049611974
40
0.515773569905095
40
0.517526090198216
40
0.519278610491337
40
0.521031130784458
40
0.522783651077579
40
0.5245361713707
40
0.526288691663821
40
0.528041211956942
40
0.529793732250063
40
0.531546252543184
40
0.533298772836305
40
0.535051293129426
40
0.536803813422547
40
0.538556333715668
40
0.540308854008789
40
0.542061374301911
40
0.543813894595032
40
0.545566414888153
40
0.549071455474395
40
0.550823975767516
40
0.552576496060637
40
0.556081536646879
40
0.559586577233121
40
0.561339097526242
40
0.563091617819363
40
0.564844138112485
40
0.566596658405605
40
0.570101698991848
40
0.57360673957809
40
0.577111780164332
40
0.580616820750574
40
0.584121861336816
40
0.587626901923059
40
0.591131942509301
40
0.594636983095543
40
0.598142023681785
40
0.601647064268027
40
0.605152104854269
40
0.608657145440511
40
0.612162186026754
40
0.615667226612995
40
0.619172267199238
40
0.62267730778548
40
0.626182348371722
40
0.633192429544206
40
0.640202510716691
40
0.647212591889175
40
0.650717632475417
40
0.654222673061659
40
0.657727713647901
40
0.661232754234143
40
0.664737794820386
40
0.668242835406628
40
0.675252916579112
40
0.682262997751596
40
0.685768038337838
40
0.689273078924081
40
0.692778119510323
40
0.696283160096565
40
0.699788200682807
40
0.703293241269049
40
0.710303322441533
40
0.713808363027776
40
0.717313403614018
40
0.724323484786502
40
0.731333565958986
40
0.734838606545228
40
0.73834364713147
40
0.745353728303955
40
0.748858768890197
40
0.752363809476439
40
0.755868850062681
40
0.759373890648923
40
0.766383971821408
40
0.76988901240765
40
0.773394052993892
40
0.776899093580134
40
0.780404134166376
40
0.78741421533886
40
0.790919255925102
40
0.794424296511345
40
0.797929337097587
40
0.801434377683829
40
0.808444458856313
40
0.811949499442555
40
0.815454540028797
40
0.81895958061504
40
0.822464621201282
40
0.829474702373766
40
0.832979742960008
40
0.83648478354625
40
0.838237303839371
40
0.839989824132492
40
0.843494864718735
40
0.850504945891219
40
0.854009986477461
40
0.857515027063703
40
0.861020067649945
40
0.864525108236188
40
0.871535189408672
40
0.875040229994914
40
0.878545270581156
40
0.882050311167398
40
0.88555535175364
40
0.889060392339883
40
0.892565432926125
40
0.896070473512367
40
0.899575514098609
40
0.906585595271093
40
0.910090635857335
40
0.913595676443578
40
0.920605757616062
40
0.924110798202304
40
0.927615838788546
40
0.93462591996103
40
0.938130960547273
40
0.941636001133515
40
0.945141041719756
40
0.948646082305999
40
0.955656163478483
40
0.959161204064725
40
0.962666244650967
40
0.96617128523721
40
0.969676325823452
40
0.973181366409694
40
0.976686406995936
40
0.980191447582178
40
0.98369648816842
40
0.987201528754662
40
0.990706569340905
40
0.994211609927147
40
0.997716650513389
40
1
40
1
40
1
40
1
41
1
10
-30
20
-15.9926656746839
30
0
41
1
10
-30
20
-15.9930575037623
30
0
41
1
10
-30
20
-15.993613001532
30
0
41
1
10
-30
20
-15.992743696334
30
0
41
1
10
-30
20
-15.9893850921089
30
0
41
1
10
-30
20
-15.9836860314146
30
0
41
1
10
-30
20
-15.9756808210229
30
0
41
1
10
-30
20
-15.9654018084481
30
0
41
1
10
-30
20
-15.9528811264941
30
0
41
1
10
-30
20
-15.9381491278438
30
0
41
1
10
-30
20
-15.9212355486336
30
0
41
1
10
-30
20
-15.9021692443494
30
0
41
1
10
-30
20
-15.8809772874923
30
0
41
1
10
-30
20
-15.85768719628
30
0
41
1
10
-30
20
-15.8237020449635
30
0
41
1
10
-30
20
-15.786151572388
30
0
41
1
10
-30
20
-15.7440467976174
30
0
41
1
10
-30
20
-15.7106366986067
30
0
41
1
10
-30
20
-15.6752710038507
30
0
41
1
10
-30
20
-15.6253102414823
30
0
41
1
10
-30
20
-15.5722298833996
30
0
41
1
10
-30
20
-15.5146768571488
30
0
41
1
10
-30
20
-15.454635155867
30
0
41
1
10
-30
20
-15.3917322415494
30
0
41
1
10
-30
20
-15.3243986601424
30
0
41
1
10
-30
20
-15.2546726017927
30
0
41
1
10
-30
20
-15.1823145630236
30
0
41
1
10
-30
20
-15.1055630554725
30
0
41
1
10
-30
20
-15.0465122402176
30
0
41
1
10
-30
20
-14.985753516587
30
0
41
1
10
-30
20
-14.9233034368069
30
0
41
1
10
-30
20
-14.8591738020485
30
0
41
1
10
-30
20
-14.7933781380804
30
0
41
1
10
-30
20
-14.7259318150055
30
0
41
1
10
-30
20
-14.6334478809413
30
0
41
1
10
-30
20
-14.5388306139923
30
0
41
1
10
-30
20
-14.4398724968665
30
0
41
1
10
-30
20
-14.3643499358607
30
0
41
1
10
-30
20
-14.2872489988171
30
0
41
1
10
-30
20
-14.1819460940194
30
0
41
1
10
-30
20
-14.0747689624993
30
0
41
1
10
-30
20
-13.9632604256822
30
0
41
1
10
-30
20
-13.8784200007502
30
0
41
1
10
-30
20
-13.7920640526129
30
0
41
1
10
-30
20
-13.674463030797
30
0
41
1
10
-30
20
-13.5552283874056
30
0
41
1
10
-30
20
-13.4316550911985
30
0
41
1
10
-30
20
-13.337853067095
30
0
41
1
10
-30
20
-13.2425907988595
30
0
41
1
10
-30
20
-13.1131460860381
30
0
41
1
10
-30
20
-12.9822967545723
30
0
41
1
10
-30
20
-12.847084683004
30
0
41
1
10
-30
20
-12.7446351532221
30
0
41
1
10
-30
20
-12.6407746180398
30
0
41
1
10
-30
20
-12.499887311655
30
0
41
1
10
-30
20
-12.3578191289812
30
0
41
1
10
-30
20
-12.2113468162578
30
0
41
1
10
-30
20
-12.100530667573
30
0
41
1
10
-30
20
-11.9883478761207
30
0
41
1
10
-30
20
-11.836377249174
30
0
41
1
10
-30
20
-11.6834503922585
30
0
41
1
10
-30
20
-11.5260594948948
30
0
41
1
10
-30
20
-11.4071324366749
30
0
41
1
10
-30
20
-11.2868794886981
30
0
41
1
10
-30
20
-11.1241532157817
30
0
41
1
10
-30
20
-10.9607029988619
30
0
41
1
10
-30
20
-10.7927086404325
30
0
41
1
10
-30
20
-10.6229844866849
30
0
41
1
10
-30
20
-10.4091173939315
30
0
41
1
10
-30
20
-10.1909959678347
30
0
41
1
10
-30
20
-10.0126979588287
30
0
41
1
10
-30
20
-9.83272430289384
30
0
41
1
10
-30
20
-9.65245023276196
30
0
41
1
10
-30
20
-9.46744871362009
30
0
41
1
10
-30
20
-9.32804093460692
30
0
41
1
10
-30
20
-9.18740563851225
30
0
41
1
10
-30
20
-9.0455543785921
30
0
41
1
10
-30
20
-8.90249044231979
30
0
41
1
10
-30
20
-8.70931958714519
30
0
41
1
10
-30
20
-8.46674616603482
30
0
41
1
10
-30
20
-8.22021686294167
30
0
41
1
10
-30
20
-8.01906836645577
30
0
41
1
10
-30
20
-7.86773085832667
30
0
41
1
10
-30
20
-7.71524241280142
30
0
41
1
10
-30
20
-7.56161298420645
30
0
41
1
10
-30
20
-7.40685260452798
30
0
41
1
10
-30
20
-7.19804202206524
30
0
41
1
10
-30
20
-6.93651252502835
30
0
41
1
10
-30
20
-6.61705894701072
30
0
41
1
10
-30
20
-6.34834996432815
30
0
41
1
10
-30
20
-6.12929373929515
30
0
41
1
10
-30
20
-5.96484945115367
30
0
41
1
10
-30
20
-5.7993974381898
30
0
41
1
10
-30
20
-5.63295542814623
30
0
41
1
10
-30
20
-5.46554083189747
30
0
41
1
10
-30
20
-5.29717335727497
30
0
41
1
10
-30
20
-5.12787591307327
30
0
41
1
10
-30
20
-4.9576706384986
30
0
41
1
10
-30
20
-4.78658071628459
30
0
41
1
10
-30
20
-4.6146335506248
30
0
41
1
10
-30
20
-4.44186113006066
30
0
41
1
10
-30
20
-4.26829321973949
30
0
41
1
10
-30
20
-4.09396155182321
30
0
41
1
10
-30
20
-3.91890592173866
30
0
41
1
10
-30
20
-3.74316620306936
30
0
41
1
10
-30
20
-3.56678705857649
30
0
41
1
10
-30
20
-3.42015123791836
30
0
41
1
10
-30
20
-3.3009810984795
30
0
41
1
10
-30
20
-3.21216327477833
30
0
41
1
10
-30
20
-3.12322377081893
30
0
41
1
10
-30
20
-3.00356413190352
30
0
41
1
10
-30
20
-2.85589664233001
30
0
41
1
10
-30
20
-2.70788037697056
30
0
41
1
10
-30
20
-2.58749550859633
30
0
41
1
10
-30
20
-2.49793822974365
30
0
41
1
10
-30
20
-2.40833000131903
30
0
41
1
10
-30
20
-2.31867596083524
30
0
41
1
10
-30
20
-2.22899146909501
30
0
41
1
10
-30
20
-2.10827328924756
30
0
41
1
10
-30
20
-1.99097459417121
30
0
41
1
10
-30
20
-1.87012467714985
30
0
41
1
10
-30
20
-1.78043031683035
30
0
41
1
10
-30
20
-1.69076251244053
30
0
41
1
10
-30
20
-1.60113247848605
30
0
41
1
10
-30
20
-1.51155313609783
30
0
41
1
10
-30
20
-1.422025757727
30
0
41
1
10
-30
20
-1.33256776537959
30
0
41
1
10
-30
20
-1.24317741509074
30
0
41
1
10
-30
20
-1.15386860885192
30
0
41
1
10
-30
20
-1.06464013673647
30
0
41
1
10
-30
20
-0.975500136218244
30
0
41
1
10
-30
20
-0.886447988926847
30
0
41
1
10
-30
20
-0.797485776681128
30
0
41
1
10
-30
20
-0.708610852102623
30
0
41
1
10
-30
20
-0.61982073744278
30
0
41
1
10
-30
20
-0.531109764951225
30
0
41
1
10
-30
20
-0.442471434007643
30
0
41
1
10
-30
20
-0.35389600796347
30
0
41
1
10
-30
20
-0.265373879214224
30
0
41
1
10
-30
20
-0.176892371692162
30
0
41
1
10
-30
20
-0.0884392148653887
30
0
41
1
10
-30
20
-2.04973958E-08
30
0
41
1
10
-30
20
0.0884392031952927
30
0
41
1
10
-30
20
0.17689241471993
30
0
41
1
10
-30
20
0.265373915570137
30
0
41
1
10
-30
20
0.353895962579486
30
0
41
1
10
-30
20
0.442471374506823
30
0
41
1
10
-30
20
0.531109813902646
30
0
41
1
10
-30
20
0.61982082298212
30
0
41
1
10
-30
20
0.70861080655007
30
0
41
1
10
-30
20
0.797485667180155
30
0
41
1
10
-30
20
0.886448026006832
30
0
41
1
10
-30
20
0.97550027278379
30
0
41
1
10
-30
20
1.06464012636249
30
0
41
1
10
-30
20
1.1538684580087
30
0
41
1
10
-30
20
1.24317738635406
30
0
41
1
10
-30
20
1.33256791795026
30
0
41
1
10
-30
20
1.42202585063245
30
0
41
1
10
-30
20
1.5115530207047
30
0
41
1
10
-30
20
1.60113232466117
30
0
41
1
10
-30
20
1.69076256252157
30
0
41
1
10
-30
20
1.78043050963589
30
0
41
1
10
-30
20
1.87012473193457
30
0
41
1
10
-30
20
1.95984062320625
30
0
41
1
10
-30
20
2.04956121840738
30
0
41
1
10
-30
20
2.13928298465069
30
0
41
1
10
-30
20
2.22899154181988
30
0
41
1
10
-30
20
2.34971237639814
30
0
41
1
10
-30
20
2.4670581044816
30
0
41
1
10
-30
20
2.58749567267543
30
0
41
1
10
-30
20
2.70788056755165
30
0
41
1
10
-30
20
2.85589666602098
30
0
41
1
10
-30
20
3.00356394920902
30
0
41
1
10
-30
20
3.12322374659235
30
0
41
1
10
-30
20
3.21216341650842
30
0
41
1
10
-30
20
3.3009812939207
30
0
41
1
10
-30
20
3.4201512431562
30
0
41
1
10
-30
20
3.56678672363679
30
0
41
1
10
-30
20
3.74316585626101
30
0
41
1
10
-30
20
3.91890584757377
30
0
41
1
10
-30
20
4.09396100129445
30
0
41
1
10
-30
20
4.26829259541552
30
0
41
1
10
-30
20
4.44186183082067
30
0
41
1
10
-30
20
4.61463414914383
30
0
41
1
10
-30
20
4.78658021025493
30
0
41
1
10
-30
20
4.95767123056282
30
0
41
1
10
-30
20
5.1278778625566
30
0
41
1
10
-30
20
5.29717415068043
30
0
41
1
10
-30
20
5.46553992297879
30
0
41
1
10
-30
20
5.63295448869491
30
0
41
1
10
-30
20
5.79939725011727
30
0
41
1
10
-30
20
5.96484950556561
30
0
41
1
10
-30
20
6.1292936535483
30
0
41
1
10
-30
20
6.34834993475852
30
0
41
1
10
-30
20
6.6170590196507
30
0
41
1
10
-30
20
6.93651248001379
30
0
41
1
10
-30
20
7.19804203228608
30
0
41
1
10
-30
20
7.40685270744595
30
0
41
1
10
-30
20
7.56161297986856
30
0
41
1
10
-30
20
7.71524232371232
30
0
41
1
10
-30
20
7.86773082006812
30
0
41
1
10
-30
20
8.01906843480592
30
0
41
1
10
-30
20
8.22021692135615
30
0
41
1
10
-30
20
8.46674612315107
30
0
41
1
10
-30
20
8.7093195790371
30
0
41
1
10
-30
20
8.90249052457438
30
0
41
1
10
-30
20
9.04555441784282
30
0
41
1
10
-30
20
9.18740560593943
30
0
41
1
10
-30
20
9.32804088163152
30
0
41
1
10
-30
20
9.46744870809565
30
0
41
1
10
-30
20
9.65245029192155
30
0
41
1
10
-30
20
9.83272433616031
30
0
41
1
10
-30
20
10.0126979221092
30
0
41
1
10
-30
20
10.1909959517429
30
0
41
1
10
-30
20
10.4091174330404
30
0
41
1
10
-30
20
10.6229845090751
30
0
41
1
10
-30
20
10.7927086151923
30
0
41
1
10
-30
20
10.9607029915804
30
0
41
1
10
-30
20
11.1241532476502
30
0
41
1
10
-30
20
11.286879520772
30
0
41
1
10
-30
20
11.4071324437642
30
0
41
1
10
-30
20
11.526059483736
30
0
41
1
10
-30
20
11.6834503898541
30
0
41
1
10
-30
20
11.8363772717575
30
0
41
1
10
-30
20
11.9883479026383
30
0
41
1
10
-30
20
12.100530681097
30
0
41
1
10
-30
20
12.211346817793
30
0
41
1
10
-30
20
12.3578191303265
30
0
41
1
10
-30
20
12.4998873251013
30
0
41
1
10
-30
20
12.640774639564
30
0
41
1
10
-30
20
12.7446351726738
30
0
41
1
10
-30
20
12.8470846962099
30
0
41
1
10
-30
20
12.9822967603461
30
0
41
1
10
-30
20
13.1131460918651
30
0
41
1
10
-30
20
13.2425908150843
30
0
41
1
10
-30
20
13.3378530905647
30
0
41
1
10
-30
20
13.431655102243
30
0
41
1
10
-30
20
13.5552284439381
30
0
41
1
10
-30
20
13.6744629632361
30
0
41
1
10
-30
20
13.7920640428987
30
0
41
1
10
-30
20
13.8638084100541
30
0
41
1
10
-30
20
13.9208384799595
30
0
41
1
10
-30
20
13.9773600368974
30
0
41
1
10
-30
20
14.0747689786766
30
0
41
1
10
-30
20
14.1819460903518
30
0
41
1
10
-30
20
14.2872490063531
30
0
41
1
10
-30
20
14.3643499644422
30
0
41
1
10
-30
20
14.4398725346097
30
0
41
1
10
-30
20
14.5388306330265
30
0
41
1
10
-30
20
14.6334478734244
30
0
41
1
10
-30
20
14.7259318226356
30
0
41
1
10
-30
20
14.793378171537
30
0
41
1
10
-30
20
14.8591738437125
30
0
41
1
10
-30
20
14.9233034607296
30
0
41
1
10
-30
20
14.9857535133679
30
0
41
1
10
-30
20
15.0465122321639
30
0
41
1
10
-30
20
15.1055630695376
30
0
41
1
10
-30
20
15.1823146060513
30
0
41
1
10
-30
20
15.2546726312332
30
0
41
1
10
-30
20
15.3243986497297
30
0
41
1
10
-30
20
15.3917322452796
30
0
41
1
10
-30
20
15.4546352005829
30
0
41
1
10
-30
20
15.5146768877911
30
0
41
1
10
-30
20
15.5722298782127
30
0
41
1
10
-30
20
15.6253102421943
30
0
41
1
10
-30
20
15.6752710489662
30
0
41
1
10
-30
20
15.7106367362118
30
0
41
1
10
-30
20
15.7440468008705
30
0
41
1
10
-30
20
15.7861515665346
30
0
41
1
10
-30
20
15.8237020814765
30
0
41
1
10
-30
20
15.8576872273509
30
0
41
1
10
-30
20
15.8809772969169
30
0
41
1
10
-30
20
15.9021692417172
30
0
41
1
10
-30
20
15.921235563756
30
0
41
1
10
-30
20
15.9381491696965
30
0
41
1
10
-30
20
15.9528811556007
30
0
41
1
10
-30
20
15.9654018081648
30
0
41
1
10
-30
20
15.9756808201301
30
0
41
1
10
-30
20
15.9836860510364
30
0
41
1
10
-30
20
15.989385071505
30
0
41
1
10
-30
20
15.992743547039
30
0
41
1
10
-30
20
15.9936126291161
30
0
41
1
10
-30
20
15.9930576912493
30
0
41
1
10
-30
20
15.9926664650758
30
0
0
SPLINE
5
18D
100
AcDbEntity
8
1
62
256
6
ByLayer
370
18
48
1
60
0
100
AcDbSpline
70
4
71
3
72
8
73
4
40
0
40
0
40
0
40
0
40
1
40
1
40
1
40
1
41
1
10
17.4495574936458
20
-21.2549759673791
30
0
41
1
10
17.4419789771171
20
-21.2849367393136
30
0
41
1
10
17.4355054292484
20
-21.3129189568481
30
0
41
1
10
17.4303191742212
20
-21.3388478541342
30
0
0
SPLINE
5
18E
100
AcDbEntity
8
1
62
256
6
ByLayer
370
18
48
1
60
0
100
AcDbSpline
70
4
71
2
72
8
73
5
40
0
40
0
40
0
40
0.515963188851346
40
0.773944783277018
40
1
40
1
40
1
41
1.02613459695995
10
42.7594986431972
20
-9.92347611032822
30
0
41
1.02613459695995
10
41.970736892121
20
-9.34798400639365
30
0
41
1.02613459695995
10
40.4644323782269
20
-9.12988040302133
30
0
41
1.02613459695995
10
39.4465798945021
20
-9.22447987824372
30
0
41
1.02613459695995
10
38.9676335660761
20
-9.36055937799732
30
0
0
SPLINE
5
18F
100
AcDbEntity
8
1
62
256
6
ByLayer
370
18
48
1
60
0
100
AcDbSpline
70
4
71
2
72
8
73
5
40
0
40
0
40
0
40
0.525956182123219
40
0.788934273184829
40
1
40
1
40
1
41
1.02613459695995
10
32.4111046043114
20
-24.644194722973
30
0
41
1.02613459695995
10
31.6239222698686
20
-24.0664558793273
30
0
41
1.02613459695995
10
30.9384632401595
20
-22.6806894142838
30
0
41
1.02613459695995
10
30.7092907717943
20
-21.7065025775397
30
0
41
1.02613459695995
10
30.6778665604545
20
-21.2451201378874
30
0
0
SPLINE
5
190
100
AcDbEntity
8
1
62
256
6
ByLayer
370
18
48
1
60
0
100
AcDbSpline
70
4
71
3
72
8
73
4
40
0
40
0
40
0
40
0
40
1
40
1
40
1
40
1
41
1
10
22.5019434830829
20
-30.8743827170475
30
0
41
1
10
22.5369756271627
20
-31.0206005720795
30
0
41
1
10
22.6022163678422
20
-31.1698248792157
30
0
41
1
10
22.6994327635228
20
-31.322231501523
30
0
0
SPLINE
5
191
100
AcDbEntity
8
1
62
256
6
ByLayer
370
18
48
1
60
0
100
AcDbSpline
70
4
71
3
72
8
73
4
40
0
40
0
40
0
40
0
40
1
40
1
40
1
40
1
41
1
10
30.1088642078484
20
-20.704455776438
30
0
41
1
10
30.0729693225211
20
-20.6739047900244
30
0
41
1
10
30.0375433355222
20
-20.6426184900653
30
0
41
1
10
30.0026080966546
20
-20.6105758580135
30
0
0
SPLINE
5
192
100
AcDbEntity
8
1
62
256
6
ByLayer
370
18
48
1
60
0
100
AcDbSpline
70
4
71
2
72
6
73
3
40
0
40
0
40
0
40
1
40
1
40
1
41
0.886138772719844
10
29.1175401437314
20
-19.0475660912984
30
0
41
0.915161195607648
10
28.2610599412283
20
-19.2418328208098
30
0
41
1.02613459695995
10
27.6751324191375
20
-18.8592473531643
30
0
0
SPLINE
5
193
100
AcDbEntity
8
1
62
256
6
ByLayer
370
18
48
1
60
0
100
AcDbSpline
70
4
71
3
72
16
73
12
40
0
40
0
40
0
40
0
40
0.11143027962805
40
0.11143027962805
40
0.248747543515472
40
0.248747543515472
40
0.465535329195252
40
0.465535329195252
40
0.88385535186756
40
0.88385535186756
40
1
40
1
40
1
40
1
41
1
10
8.5386751345948
20
-23.8391299750503
30
0
41
1
10
8.51081528400579
20
-23.8391299750503
30
0
41
1
10
8.48260885722448
20
-23.8375361275706
30
0
41
1
10
8.4241507967607
20
-23.831150658589
30
0
41
1
10
8.39395861076943
20
-23.825666877018
30
0
41
1
10
8.32484624564245
20
-23.8089605749788
30
0
41
1
10
8.28921459142956
20
-23.796037970776
30
0
41
1
10
8.201006109254
20
-23.7556824246832
30
0
41
1
10
8.16026799314912
20
-23.7250165399981
30
0
41
1
10
8.1207082984732
20
-23.6845451449633
30
0
41
1
10
8.11283840142687
20
-23.6755726082077
30
0
41
1
10
8.10566243270245
20
-23.6665017920809
30
0
0
SPLINE
5
194
100
AcDbEntity
8
1
62
256
6
ByLayer
370
18
48
1
60
0
100
AcDbSpline
70
4
71
3
72
10
73
6
40
0
40
0
40
0
40
0
40
0.569662971760365
40
0.569662971760365
40
1
40
1
40
1
40
1
41
1
10
8.10566243270256
20
-18.9753212643828
30
0
41
1
10
8.15441862226712
20
-19.0088414625798
30
0
41
1
10
8.22370629390966
20
-19.0604238505184
30
0
41
1
10
8.37658822414471
20
-19.1687173120905
30
0
41
1
10
8.45446449409374
20
-19.2234193219803
30
0
41
1
10
8.5386751345948
20
-19.2880310577442
30
0
0
SPLINE
5
195
100
AcDbEntity
8
1
62
256
6
ByLayer
370
18
48
1
60
0
100
AcDbSpline
70
4
71
3
72
16
73
12
40
0
40
0
40
0
40
0
40
0.111430279628052
40
0.111430279628052
40
0.248747543515474
40
0.248747543515474
40
0.465535329195271
40
0.465535329195271
40
0.883855351867598
40
0.883855351867598
40
1
40
1
40
1
40
1
41
1
10
11.4613248654052
20
23.8391299750503
30
0
41
1
10
11.4891847159942
20
23.8391299750503
30
0
41
1
10
11.5173911427755
20
23.8375361275706
30
0
41
1
10
11.5758492032393
20
23.831150658589
30
0
41
1
10
11.6060413892306
20
23.825666877018
30
0
41
1
10
11.6751537543576
20
23.8089605749788
30
0
41
1
10
11.7107854085705
20
23.796037970776
30
0
41
1
10
11.798993890746
20
23.7556824246832
30
0
41
1
10
11.8397320068509
20
23.7250165399981
30
0
41
1
10
11.8792917015268
20
23.6845451449633
30
0
41
1
10
11.8871615985731
20
23.6755726082078
30
0
41
1
10
11.8943375672975
20
23.6665017920809
30
0
0
SPLINE
5
196
100
AcDbEntity
8
1
62
256
6
ByLayer
370
18
48
1
60
0
100
AcDbSpline
70
4
71
3
72
8
73
4
40
0
40
0
40
0
40
0
40
1
40
1
40
1
40
1
41
1
10
26.6036219161947
20
-24.4478201993454
30
0
41
1
10
27.4173232517136
20
-25.7620133616782
30
0
41
1
10
28.940709230515
20
-26.5867845058198
30
0
41
1
10
30.4904148842673
20
-26.4269959511668
30
0
0
SPLINE
5
197
100
AcDbEntity
8
1
62
256
6
ByLayer
370
18
48
1
60
0
100
AcDbSpline
70
4
71
3
72
8
73
4
40
0
40
0
40
0
40
0
40
1
40
1
40
1
40
1
41
1
10
22.6994327635228
20
-31.322231501523
30
0
41
1
10
22.4917960004338
20
-30.5244670102343
30
0
41
1
10
22.2847126428027
20
-29.726552543075
30
0
41
1
10
22.0783252312993
20
-28.928451229893
30
0
0
SPLINE
5
198
100
AcDbEntity
8
1
62
256
6
ByLayer
370
18
48
1
60
0
100
AcDbSpline
70
4
71
2
72
10
73
7
40
0
40
0
40
0
40
0.223608437346081
40
0.445434598104344
40
0.667260758862606
40
0.778173839241738
40
1
40
1
40
1
41
1
10
39.6101585274593
20
-4.63173256384249
30
0
41
1
10
39.0609879911756
20
-4.74191422412639
30
0
41
1
10
37.9575646906466
20
-5.20367430287868
30
0
41
1
10
36.7210534589771
20
-6.11851107388304
30
0
41
1
10
36.3336071354935
20
-6.52047944291576
30
0
41
1
10
35.9032858510959
20
-6.99889674694955
30
0
41
1
10
35.6488285887266
20
-7.36079202043479
30
0
0
SPLINE
5
199
100
AcDbEntity
8
1
62
256
6
ByLayer
370
18
48
1
60
0
100
AcDbSpline
70
4
71
3
72
8
73
4
40
0
40
0
40
0
40
0
40
1
40
1
40
1
40
1
41
1
10
25.9159828837108
20
-22.9548428348589
30
0
41
1
10
26.028075661154
20
-23.3326350483684
30
0
41
1
10
26.1784384004553
20
-23.7024434329359
30
0
41
1
10
26.370415277869
20
-24.0496139856425
30
0
0
SPLINE
5
19A
100
AcDbEntity
8
1
62
256
6
ByLayer
370
18
48
1
60
0
100
AcDbSpline
70
4
71
2
72
6
73
3
40
0
40
0
40
0
40
1
40
1
40
1
41
1
10
27.6751324191375
20
-18.8592473531643
30
0
41
1
10
27.6376050443654
20
-18.834743591717
30
0
41
1
10
27.6000776695932
20
-18.8102398302696
30
0
0
SPLINE
5
19B
100
AcDbEntity
8
1
62
256
6
ByLayer
370
18
48
1
60
0
100
AcDbSpline
70
4
71
3
72
12
73
8
40
0
40
0
40
0
40
0
40
0.319932024559127
40
0.319932024559127
40
0.659954131885487
40
0.659954131885487
40
1
40
1
40
1
40
1
41
1
10
26.3704152775707
20
-24.0496139842635
30
0
41
1
10
26.3823917297869
20
-24.0712721734853
30
0
41
1
10
26.3944541741194
20
-24.0928823828399
30
0
41
1
10
26.4195125385601
20
-24.1373588508062
30
0
41
1
10
26.4325197315633
20
-24.1602191605633
30
0
41
1
10
26.4587266174012
20
-24.2058293666309
30
0
41
1
10
26.4719265524371
20
-24.2285796533774
30
0
41
1
10
26.4852216782177
20
-24.2512732264337
30
0
0
SPLINE
5
19C
100
AcDbEntity
8
1
62
256
6
ByLayer
370
18
48
1
60
0
100
AcDbSpline
70
4
71
3
72
10
73
6
40
0
40
0
40
0
40
0
40
0.390699660137824
40
0.390699660137824
40
1
40
1
40
1
40
1
41
1
10
8.5386751345948
20
-17.3301020066932
30
0
41
1
10
8.45606980790453
20
-17.39348204405
30
0
41
1
10
8.38298095223726
20
-17.4778806824472
30
0
41
1
10
8.2261467652954
20
-17.7138050834476
30
0
41
1
10
8.15491942224403
20
-17.8808201081295
30
0
41
1
10
8.10566243270256
20
-18.0555297374794
30
0
0
SPLINE
5
19D
100
AcDbEntity
8
1
62
256
6
ByLayer
370
18
48
1
60
0
100
AcDbSpline
70
4
71
3
72
10
73
6
40
0
40
0
40
0
40
0
40
0.434790140770694
40
0.434790140770694
40
1
40
1
40
1
40
1
41
1
10
11.4613248654052
20
-19.2880310577442
30
0
41
1
10
11.5463855142922
20
-19.2227671417225
30
0
41
1
10
11.6249791044128
20
-19.1676067502435
30
0
41
1
10
11.777364361007
20
-19.0596659241482
30
0
41
1
10
11.8459532322554
20
-19.0085858101699
30
0
41
1
10
11.8943375672975
20
-18.9753212643807
30
0
0
SPLINE
5
19E
100
AcDbEntity
8
1
62
256
6
ByLayer
370
18
48
1
60
0
100
AcDbSpline
70
4
71
3
72
16
73
12
40
0
40
0
40
0
40
0
40
0.461208588217085
40
0.461208588217085
40
0.643534962278541
40
0.643534962278541
40
0.828408472975291
40
0.828408472975291
40
0.943003644159993
40
0.943003644159993
40
1
40
1
40
1
40
1
41
1
10
11.8943375672974
20
-23.6665017920809
30
0
41
1
10
11.8660503915152
20
-23.7022583261632
30
0
41
1
10
11.8273339192908
20
-23.7370095736338
30
0
41
1
10
11.7473160248315
20
-23.7800170858174
30
0
41
1
10
11.7212784637477
20
-23.7917125768793
30
0
41
1
10
11.6606543989164
20
-23.8127037684951
30
0
41
1
10
11.6251722226874
20
-23.8222104320954
30
0
41
1
10
11.5599225851958
20
-23.8331586856493
30
0
41
1
10
11.5324782774944
20
-23.836332378473
30
0
41
1
10
11.4901684747699
20
-23.8387183279986
30
0
41
1
10
11.4757173930754
20
-23.8391299750505
30
0
41
1
10
11.4613248654053
20
-23.8391299750505
30
0
0
SPLINE
5
19F
100
AcDbEntity
8
1
62
256
6
ByLayer
370
18
48
1
60
0
100
AcDbSpline
70
4
71
3
72
16
73
12
40
0
40
0
40
0
40
0
40
0.461208588217066
40
0.461208588217066
40
0.643534962278522
40
0.643534962278522
40
0.828408472975271
40
0.828408472975271
40
0.943003644159981
40
0.943003644159981
40
1
40
1
40
1
40
1
41
1
10
11.8943375672974
20
8.05584836782774
30
0
41
1
10
11.8660503915152
20
7.95080268681445
30
0
41
1
10
11.8273339192908
20
7.84628670970801
30
0
41
1
10
11.7473160248315
20
7.71442469145123
30
0
41
1
10
11.7212784637477
20
7.67825379650728
30
0
41
1
10
11.6606543989164
20
7.61290523367228
30
0
41
1
10
11.6251722226874
20
7.58305923051407
30
0
41
1
10
11.5599225851958
20
7.54855881865589
30
0
41
1
10
11.5324782774944
20
7.5385201810229
30
0
41
1
10
11.4901684747699
20
7.53097042135255
30
0
41
1
10
11.4757173930754
20
7.5296667942647
30
0
41
1
10
11.4613248654053
20
7.5296667942647
30
0
0
SPLINE
5
1A0
100
AcDbEntity
8
1
62
256
6
ByLayer
370
18
48
1
60
0
100
AcDbSpline
70
4
71
3
72
10
73
6
40
0
40
0
40
0
40
0
40
0.5
40
0.5
40
1
40
1
40
1
40
1
41
1
10
25.9159828837104
20
-22.9548428348592
30
0
41
1
10
25.6945860081875
20
-22.0688609909441
30
0
41
1
10
25.6667929243667
20
-21.1357564559572
30
0
41
1
10
26.0000195354835
20
-19.329809087848
30
0
41
1
10
26.288779811653
20
-18.4379672812552
30
0
41
1
10
26.8366009520793
20
-17.6891072555305
30
0
0
SPLINE
5
1A1
100
AcDbEntity
8
1
62
256
6
ByLayer
370
18
48
1
60
0
100
AcDbSpline
70
4
71
2
72
6
73
3
40
0
40
0
40
0
40
1
40
1
40
1
41
0.877869679988385
10
30.4904147877877
20
-26.4269960047339
30
0
41
0.893236010966692
10
31.5850851698472
20
-25.8192175929596
30
0
41
1.02613459695995
10
32.4111046043114
20
-24.644194722973
30
0
0
SPLINE
5
1A2
100
AcDbEntity
8
1
62
256
6
ByLayer
370
18
48
1
60
0
100
AcDbSpline
70
4
71
3
72
8
73
4
40
0
40
0
40
0
40
0
40
1
40
1
40
1
40
1
41
1
10
20.92079238
20
-24.4886190390076
30
0
41
1
10
21.0847242867994
20
-25.1173908764621
30
0
41
1
10
21.2495887675166
20
-25.7463335276432
30
0
41
1
10
21.4150979665882
20
-26.3750235579347
30
0
0
SPLINE
5
1A3
100
AcDbEntity
8
1
62
256
6
ByLayer
370
18
48
1
60
0
100
AcDbSpline
70
4
71
3
72
10
73
6
40
0
40
0
40
0
40
0
40
0.539719091383334
40
0.539719091383334
40
1
40
1
40
1
40
1
41
1
10
11.8943375672974
20
-18.0555297374795
30
0
41
1
10
11.8505865771285
20
-17.9003493387736
30
0
41
1
10
11.7896099247477
20
-17.7517913508358
30
0
41
1
10
11.6420402748372
20
-17.507646375978
30
0
41
1
10
11.5582831583753
20
-17.4044945486358
30
0
41
1
10
11.4613248654052
20
-17.3301020066931
30
0
0
SPLINE
5
1A4
100
AcDbEntity
8
1
62
256
6
ByLayer
370
18
48
1
60
0
100
AcDbSpline
70
4
71
3
72
8
73
4
40
0
40
0
40
0
40
0
40
1
40
1
40
1
40
1
41
1
10
21.4150979665882
20
24.6479715189708
30
0
41
1
10
21.2634715016933
20
24.6479715189708
30
0
41
1
10
21.1115905576073
20
24.6462211497246
30
0
41
1
10
20.9609847588647
20
24.6427113305059
30
0
0
SPLINE
5
1A5
100
AcDbEntity
8
1
62
256
6
ByLayer
370
18
48
1
60
0
100
AcDbSpline
70
4
71
3
72
16
73
12
40
0
40
0
40
0
40
0
40
0.111430279628047
40
0.111430279628047
40
0.248747543515475
40
0.248747543515475
40
0.465535329195272
40
0.465535329195272
40
0.883855351867603
40
0.883855351867603
40
1
40
1
40
1
40
1
41
1
10
11.4613248654052
20
-7.52966679426504
30
0
41
1
10
11.4891847159942
20
-7.52966679426504
30
0
41
1
10
11.5173911427755
20
-7.53471706780854
30
0
41
1
10
11.5758492032393
20
-7.55489210221029
30
0
41
1
10
11.6060413892306
20
-7.57218953888446
30
0
41
1
10
11.6751537543576
20
-7.62460019394089
30
0
41
1
10
11.7107854085705
20
-7.66489294253907
30
0
41
1
10
11.798993890746
20
-7.78941367630352
30
0
41
1
10
11.8397320068509
20
-7.8824751100415
30
0
41
1
10
11.8792917015268
20
-8.00269269538009
30
0
41
1
10
11.8871615985731
20
-8.02920008991578
30
0
41
1
10
11.8943375672975
20
-8.05584836782771
30
0
0
SPLINE
5
1A6
100
AcDbEntity
8
1
62
256
6
ByLayer
370
18
48
1
60
0
100
AcDbSpline
70
4
71
3
72
16
73
12
40
0
40
0
40
0
40
0
40
0.461208588217094
40
0.461208588217094
40
0.643534962278546
40
0.643534962278546
40
0.828408472975285
40
0.828408472975285
40
0.943003644159988
40
0.943003644159988
40
1
40
1
40
1
40
1
41
1
10
8.10566243270262
20
23.6665017920809
30
0
41
1
10
8.13394960848487
20
23.7022583261632
30
0
41
1
10
8.17266608070923
20
23.7370095736338
30
0
41
1
10
8.25268397516848
20
23.7800170858174
30
0
41
1
10
8.27872153625233
20
23.7917125768793
30
0
41
1
10
8.33934560108361
20
23.8127037684951
30
0
41
1
10
8.37482777731262
20
23.8222104320954
30
0
41
1
10
8.44007741480422
20
23.8331586856493
30
0
41
1
10
8.46752172250564
20
23.836332378473
30
0
41
1
10
8.50983152523006
20
23.8387183279986
30
0
41
1
10
8.5242826069246
20
23.8391299750505
30
0
41
1
10
8.53867513459474
20
23.8391299750505
30
0
0
SPLINE
5
1A7
100
AcDbEntity
8
1
62
256
6
ByLayer
370
18
48
1
60
0
100
AcDbSpline
70
4
71
2
72
6
73
3
40
0
40
0
40
0
40
1
40
1
40
1
41
0.909275312889881
10
34.6139012478367
20
-7.06107026731989
30
0
41
0.946722153461369
10
35.1684626275961
20
-7.04713371125632
30
0
41
1.02613459695995
10
35.5737738391822
20
-7.31178449754014
30
0
0
SPLINE
5
1A8
100
AcDbEntity
8
1
62
256
6
ByLayer
370
18
48
1
60
0
100
AcDbSpline
70
4
71
2
72
10
73
7
40
0
40
0
40
0
40
0.186267470867218
40
0.41876247919087
40
0.651257487514522
40
0.767504991676348
40
1
40
1
40
1
41
1.02613459695995
10
39.3095043093713
20
-4.63306963988463
30
0
41
1.02613459695995
10
38.8722589960158
20
-4.74047704760953
30
0
41
1.02613459695995
10
37.8825099411022
20
-5.15466677998407
30
0
41
1.02613459695995
10
36.6459987094327
20
-6.06950355098843
30
0
41
1.02613459695995
10
36.2585523859491
20
-6.47147192002114
30
0
41
1.02613459695995
10
35.8282311015515
20
-6.94988922405494
30
0
41
1.02613459695995
10
35.5737738391822
20
-7.31178449754014
30
0
0
SPLINE
5
1A9
100
AcDbEntity
8
1
62
256
6
ByLayer
370
18
48
1
60
0
100
AcDbSpline
70
4
71
2
72
11
73
8
40
0
40
0
40
0
40
0.0610623745695759
40
0.342743662198703
40
0.530531187284788
40
0.718318712370873
40
0.812212474913915
40
1
40
1
40
1
41
1
10
26.6036219161934
20
-24.447820199341
30
0
41
1
10
26.5515656021975
20
-24.2803898726593
30
0
41
1
10
26.3195238061361
20
-23.2940058409738
30
0
41
1
10
26.4127653524471
20
-21.7820680960399
30
0
41
1
10
26.865614063948
20
-20.2937694370019
30
0
41
1
10
27.114565341051
20
-19.7904543418764
30
0
41
1
10
27.4207432368444
20
-19.2211924457081
30
0
41
1
10
27.6751324191375
20
-18.8592473531643
30
0
0
SPLINE
5
1AA
100
AcDbEntity
8
1
62
256
6
ByLayer
370
18
48
1
60
0
100
AcDbSpline
70
4
71
2
72
10
73
7
40
0
40
0
40
0
40
0.256657635948895
40
0.469041168534925
40
0.681424701120955
40
0.78761646741397
40
1
40
1
40
1
41
1
10
39.9034096817267
20
-4.64173322865119
30
0
41
1
10
39.2461789823204
20
-4.7448319829472
30
0
41
1
10
38.032619440191
20
-5.25268182577329
30
0
41
1
10
36.7961082085215
20
-6.16751859677765
30
0
41
1
10
36.4086618850379
20
-6.5694869658104
30
0
41
1
10
35.9783406006403
20
-7.0479042698442
30
0
41
1
10
35.723883338271
20
-7.4097995433294
30
0
0
SPLINE
5
1AB
100
AcDbEntity
8
1
62
256
6
ByLayer
370
18
48
1
60
0
100
AcDbSpline
70
4
71
3
72
10
73
6
40
0
40
0
40
0
40
0
40
0.725120705068684
40
0.725120705068684
40
1
40
1
40
1
40
1
41
1
10
43.7653074305205
20
-7.5432969876193
30
0
41
1
10
43.6578408672349
20
-7.11687079766176
30
0
41
1
10
43.4768707834916
20
-6.70355341302252
30
0
41
1
10
43.1441589989294
20
-6.19724352309836
30
0
41
1
10
43.0432042636785
20
-6.06323507919043
30
0
41
1
10
42.9342884229696
20
-5.93653729565446
30
0
0
SPLINE
5
1AC
100
AcDbEntity
8
1
62
256
6
ByLayer
370
18
48
1
60
0
100
AcDbSpline
70
4
71
1
72
4
73
2
40
0
40
0
40
1
40
1
41
1
10
35.6488285887266
20
-7.36079202043479
30
0
41
1
10
35.5737738391822
20
-7.31178449754015
30
0
0
SPLINE
5
1AD
100
AcDbEntity
8
1
62
256
6
ByLayer
370
18
48
1
60
0
100
AcDbSpline
70
4
71
3
72
16
73
12
40
0
40
0
40
0
40
0
40
0.461208588217088
40
0.461208588217088
40
0.643534962278544
40
0.643534962278544
40
0.82840847297529
40
0.82840847297529
40
0.943003644159989
40
0.943003644159989
40
1
40
1
40
1
40
1
41
1
10
8.10566243270262
20
-8.05584836782774
30
0
41
1
10
8.13394960848487
20
-7.95080268681445
30
0
41
1
10
8.17266608070923
20
-7.84628670970801
30
0
41
1
10
8.25268397516848
20
-7.71442469145123
30
0
41
1
10
8.27872153625231
20
-7.67825379650728
30
0
41
1
10
8.33934560108361
20
-7.61290523367228
30
0
41
1
10
8.37482777731262
20
-7.5830592305141
30
0
41
1
10
8.44007741480422
20
-7.54855881865589
30
0
41
1
10
8.46752172250564
20
-7.5385201810229
30
0
41
1
10
8.50983152523006
20
-7.53097042135255
30
0
41
1
10
8.5242826069246
20
-7.52966679426473
30
0
41
1
10
8.53867513459474
20
-7.52966679426473
30
0
0
SPLINE
5
1AE
100
AcDbEntity
8
1
62
256
6
ByLayer
370
18
48
1
60
0
100
AcDbSpline
70
4
71
3
72
12
73
8
40
0
40
0
40
0
40
0
40
0.255591276239667
40
0.255591276239667
40
0.511182496769833
40
0.511182496769833
40
1
40
1
40
1
40
1
41
1
10
39.6101585279403
20
-4.63173256374597
30
0
41
1
10
39.6351559364117
20
-4.63211244641852
30
0
41
1
10
39.660151789038
20
-4.63261396407611
30
0
41
1
10
39.7101368762712
20
-4.63385882667197
30
0
41
1
10
39.7351266957655
20
-4.63460218695346
30
0
41
1
10
39.8078950766139
20
-4.63711715483026
30
0
41
1
10
39.8556648648831
20
-4.63920824584829
30
0
41
1
10
39.903409681355
20
-4.64173322863161
30
0
0
SPLINE
5
1AF
100
AcDbEntity
8
1
62
256
6
ByLayer
370
18
48
1
60
0
100
AcDbSpline
70
4
71
2
72
6
73
3
40
0
40
0
40
0
40
1
40
1
40
1
41
1.02613459695995
10
42.7594986431972
20
-9.92347611032822
30
0
41
0.893236016722497
10
43.5855180365642
20
-8.74845329880309
30
0
41
0.87786968131941
10
43.7653074305205
20
-7.54329698761928
30
0
0
SPLINE
5
1B0
100
AcDbEntity
8
1
62
256
6
ByLayer
370
18
48
1
60
0
100
AcDbSpline
70
4
71
3
72
12
73
8
40
0
40
0
40
0
40
0
40
0.499908752885119
40
0.499908752885119
40
0.749942341629091
40
0.749942341629091
40
1
40
1
40
1
40
1
41
1
10
39.3095043086453
20
-4.63306964006298
30
0
41
1
10
39.359591812601
20
-4.63185623682071
30
0
41
1
10
39.409693820133
20
-4.6311410790982
30
0
41
1
10
39.4848552457667
20
-4.63080899047378
30
0
41
1
10
39.5099158078834
20
-4.63082178200398
30
0
41
1
10
39.5600374073714
20
-4.63109314271298
30
0
41
1
10
39.5850990471076
20
-4.63135173871186
30
0
41
1
10
39.6101585279352
20
-4.63173256468795
30
0
0
SPLINE
5
1B1
100
AcDbEntity
8
1
62
256
6
ByLayer
370
18
48
1
60
0
100
AcDbSpline
70
4
71
2
72
6
73
3
40
0
40
0
40
0
40
1
40
1
40
1
41
1.02613459695995
10
27.5250229200488
20
-18.761232307375
30
0
41
0.924939779748679
10
26.9963739261808
20
-18.4160472547637
30
0
41
0.891889788847045
10
26.8366232266624
20
-17.6892085401524
30
0
0
SPLINE
5
1B2
100
AcDbEntity
8
1
62
256
6
ByLayer
370
18
48
1
60
0
100
AcDbSpline
70
4
71
3
72
14
73
10
40
0
40
0
40
0
40
0
40
0.25714677776588
40
0.25714677776588
40
0.515043459777445
40
0.515043459777445
40
0.762218147059629
40
0.762218147059629
40
1
40
1
40
1
40
1
41
1
10
17.4303191742212
20
23.4553549429959
30
0
41
1
10
17.4691434490962
20
23.6190346355062
30
0
41
1
10
17.5852680371713
20
23.7696203769467
30
0
41
1
10
17.9643662295079
20
24.0254564367266
30
0
41
1
10
18.233500730627
20
24.1343161849438
30
0
41
1
10
18.8755030997166
20
24.301589819967
30
0
41
1
10
19.2526493539829
20
24.3645598084091
30
0
41
1
10
20.053239606227
20
24.4510990768829
30
0
41
1
10
20.4852178413433
20
24.4774760852936
30
0
41
1
10
20.92079238
20
24.4886190390076
30
0
0
SPLINE
5
1B3
100
AcDbEntity
8
1
62
256
6
ByLayer
370
18
48
1
60
0
100
AcDbSpline
70
4
71
3
72
16
73
12
40
0
40
0
40
0
40
0
40
0.111430279628047
40
0.111430279628047
40
0.248747543515467
40
0.248747543515467
40
0.465535329195252
40
0.465535329195252
40
0.883855351867553
40
0.883855351867553
40
1
40
1
40
1
40
1
41
1
10
8.53867513459483
20
7.52966679426501
30
0
41
1
10
8.51081528400579
20
7.52966679426501
30
0
41
1
10
8.48260885722448
20
7.53471706780857
30
0
41
1
10
8.42415079676073
20
7.55489210221029
30
0
41
1
10
8.39395861076943
20
7.57218953888446
30
0
41
1
10
8.32484624564245
20
7.62460019394089
30
0
41
1
10
8.28921459142956
20
7.66489294253907
30
0
41
1
10
8.201006109254
20
7.78941367630352
30
0
41
1
10
8.16026799314912
20
7.88247511004147
30
0
41
1
10
8.12070829847318
20
8.00269269538009
30
0
41
1
10
8.11283840142687
20
8.02920008991578
30
0
41
1
10
8.10566243270245
20
8.05584836782771
30
0
0
SPLINE
5
1B4
100
AcDbEntity
8
1
62
256
6
ByLayer
370
18
48
1
60
0
100
AcDbSpline
70
4
71
3
72
8
73
4
40
0
40
0
40
0
40
0
40
1
40
1
40
1
40
1
41
1
10
20.9609847588647
20
24.6427113305059
30
0
41
1
10
20.9475812745097
20
24.5913467317342
30
0
41
1
10
20.934183755441
20
24.5399825588158
30
0
41
1
10
20.92079238
20
24.4886190390076
30
0
0
SPLINE
5
1B5
100
AcDbEntity
8
1
62
256
6
ByLayer
370
18
48
1
60
0
100
AcDbSpline
70
4
71
1
72
4
73
2
40
0
40
0
40
1
40
1
41
1
10
35.723883338271
20
-7.4097995433294
30
0
41
1
10
35.6488285887266
20
-7.36079202043479
30
0
0
SPLINE
5
1B6
100
AcDbEntity
8
1
62
256
6
ByLayer
370
18
48
1
60
0
100
AcDbSpline
70
4
71
2
72
11
73
8
40
0
40
0
40
0
40
0.0353878362392701
40
0.324771485367489
40
0.517693918119635
40
0.710616350871781
40
0.807077567247854
40
1
40
1
40
1
41
1
10
26.4852216790677
20
-24.25127322627
30
0
41
1
10
26.4584911884151
20
-24.1547827484757
30
0
41
1
10
26.2444690565918
20
-23.2449983180792
30
0
41
1
10
26.3377106029027
20
-21.7330605731452
30
0
41
1
10
26.7905593144036
20
-20.2447619141073
30
0
41
1
10
27.0395105915066
20
-19.7414468189818
30
0
41
1
10
27.3456884873
20
-19.1721849228135
30
0
41
1
10
27.6000776695932
20
-18.8102398302696
30
0
0
SPLINE
5
1B7
100
AcDbEntity
8
1
62
256
6
ByLayer
370
18
48
1
60
0
100
AcDbSpline
70
4
71
3
72
16
73
12
40
0
40
0
40
0
40
0
40
0.238664520516886
40
0.238664520516886
40
0.477243676809563
40
0.477243676809563
40
0.717175962218134
40
0.717175962218134
40
0.962955965218023
40
0.962955965218023
40
1
40
1
40
1
40
1
41
1
10
20.92079238
20
-24.4886190390076
30
0
41
1
10
20.4840916723798
20
-24.4774472754172
30
0
41
1
10
20.0509926695775
20
-24.4509610891805
30
0
41
1
10
19.26391515033
20
-24.3656718780195
30
0
41
1
10
18.8991880574146
20
-24.3054862317241
30
0
41
1
10
18.2835116525487
20
-24.1494135952404
30
0
41
1
10
18.0249815792796
20
-24.0510028626091
30
0
41
1
10
17.6392199403027
20
-23.8174123097642
30
0
41
1
10
17.5100639463551
20
-23.6782359586606
30
0
41
1
10
17.4432353915025
20
-23.5027996833027
30
0
41
1
10
17.4359824174511
20
-23.4792306731536
30
0
41
1
10
17.4303191742212
20
-23.4553549429959
30
0
0
SPLINE
5
1B8
100
AcDbEntity
8
1
62
256
6
ByLayer
370
18
48
1
60
0
100
AcDbSpline
70
4
71
3
72
8
73
4
40
0
40
0
40
0
40
0
40
1
40
1
40
1
40
1
41
1
10
22.0783252312993
20
-28.9284512298929
30
0
41
1
10
21.944984455627
20
-28.412821679672
30
0
41
1
10
21.8124871157497
20
-27.8981147192006
30
0
41
1
10
21.6809703431662
20
-27.3842991023746
30
0
0
SPLINE
5
1B9
100
AcDbEntity
8
1
62
256
6
ByLayer
370
18
48
1
60
0
100
AcDbSpline
70
4
71
2
72
11
73
8
40
0
40
0
40
0
40
0.0079111859457789
40
0.305537830162045
40
0.50395559297289
40
0.702373355783734
40
0.801582237189156
40
1
40
1
40
1
41
1.02613459695995
10
26.3704152775793
20
-24.0496139844557
30
0
41
1.02613459695995
10
26.3651851294688
20
-24.0281909262998
30
0
41
1.02613459695995
10
26.1694143070474
20
-23.1959907951846
30
0
41
1.02613459695995
10
26.2626558533584
20
-21.6840530502506
30
0
41
1.02613459695995
10
26.7155045648593
20
-20.1957543912127
30
0
41
1.02613459695995
10
26.9644558419622
20
-19.6924392960872
30
0
41
1.02613459695995
10
27.2706337377556
20
-19.1231773999188
30
0
41
1.02613459695995
10
27.5250229200488
20
-18.761232307375
30
0
0
SPLINE
5
1BA
100
AcDbEntity
8
1
62
256
6
ByLayer
370
18
48
1
60
0
100
AcDbSpline
70
4
71
3
72
10
73
6
40
0
40
0
40
0
40
0
40
0.5
40
0.5
40
1
40
1
40
1
40
1
41
1
10
34.6138952776967
20
-7.0610704173624
30
0
41
1
10
35.1527183849046
20
-6.32496900195122
30
0
41
1
10
35.8914338249694
20
-5.77565397215309
30
0
41
1
10
37.4856135101707
20
-4.91345285594832
30
0
41
1
10
38.3828237117434
20
-4.65551909628772
30
0
41
1
10
39.3095043093713
20
-4.63306963988464
30
0
0
SPLINE
5
1BB
100
AcDbEntity
8
1
62
256
6
ByLayer
370
18
48
1
60
0
100
AcDbSpline
70
4
71
3
72
8
73
4
40
0
40
0
40
0
40
0
40
1
40
1
40
1
40
1
41
1
10
39.9034096817263
20
-4.64173322865122
30
0
41
1
10
41.0353699152102
20
-4.70159690212816
30
0
41
1
10
42.1337268995121
20
-5.13894198059864
30
0
41
1
10
42.9342884229639
20
-5.93653729564963
30
0
0
SPLINE
5
1BC
100
AcDbEntity
8
1
62
256
6
ByLayer
370
18
48
1
60
0
100
AcDbSpline
70
4
71
3
72
12
73
8
40
0
40
0
40
0
40
0
40
0.323508446938397
40
0.323508446938397
40
0.66174290517773
40
0.66174290517773
40
1
40
1
40
1
40
1
41
1
10
26.4852216790223
20
-24.2512732257493
30
0
41
1
10
26.4977304043991
20
-24.2726244846963
30
0
41
1
10
26.5103235902931
20
-24.2939258810279
30
0
41
1
10
26.5362544795371
20
-24.3373944567008
30
0
41
1
10
26.5496001967519
20
-24.3595572750074
30
0
41
1
10
26.5764743345205
20
-24.403772135692
30
0
41
1
10
26.5900029919364
20
-24.4258245402861
30
0
41
1
10
26.6036219145061
20
-24.4478201966181
30
0
0
SPLINE
5
1BD
100
AcDbEntity
8
1
62
256
6
ByLayer
370
18
48
1
60
0
100
AcDbSpline
70
4
71
3
72
8
73
4
40
0
40
0
40
0
40
0
40
1
40
1
40
1
40
1
41
1
10
21.4150979665882
20
-26.3750235579347
30
0
41
1
10
21.5036689829913
20
-26.7114623498435
30
0
41
1
10
21.5922950056591
20
-27.0478870451375
30
0
41
1
10
21.6809703431662
20
-27.3842991023746
30
0
0
SPLINE
5
1BE
100
AcDbEntity
8
1
62
256
6
ByLayer
370
18
48
1
60
0
100
AcDbSpline
70
4
71
2
72
6
73
3
40
0
40
0
40
0
40
1
40
1
40
1
41
1
10
27.6000776695932
20
-18.8102398302696
30
0
41
1
10
27.562550294821
20
-18.7857360688223
30
0
41
1
10
27.5250229200488
20
-18.761232307375
30
0
0
SPLINE
5
1BF
100
AcDbEntity
8
SK1
62
256
6
ByLayer
370
18
48
1
60
0
100
AcDbSpline
70
4
71
3
72
22
73
18
40
0
40
0
40
0
40
0
40
0.0260455644157247
40
0.0260455644157247
40
0.0526262165848557
40
0.0526262165848557
40
0.0706056579866929
40
0.0706056579866929
40
0.0884949509195805
40
0.0884949509195805
40
0.11748921873202
40
0.11748921873202
40
0.17459086731972
40
0.17459086731972
40
0.37652425293745
40
0.37652425293745
40
1
40
1
40
1
40
1
41
1
10
-0.394976888872947
20
-5.38678223324206
30
0
41
1
10
-0.389612432086437
20
-5.38222504185003
30
0
41
1
10
-0.383763200778958
20
-5.37811700449893
30
0
41
1
10
-0.3709728888754
20
-5.37184824531644
30
0
41
1
10
-0.363785592650885
20
-5.36968256852501
30
0
41
1
10
-0.351475656346565
20
-5.3691458249703
30
0
41
1
10
-0.346317238365032
20
-5.36979468027801
30
0
41
1
10
-0.336550133197363
20
-5.3727304206256
30
0
41
1
10
-0.331829865964124
20
-5.3750241182685
30
0
41
1
10
-0.32051111143835
20
-5.38234306083376
30
0
41
1
10
-0.314321448136184
20
-5.3882440687963
30
0
41
1
10
-0.298260159254511
20
-5.40702817233921
30
0
41
1
10
-0.290032841564653
20
-5.42147709180324
30
0
41
1
10
-0.258449669573651
20
-5.48745345024415
30
0
41
1
10
-0.24608390551893
20
-5.5434138926733
30
0
41
1
10
-0.204764795451922
20
-5.7670899064446
30
0
41
1
10
-0.200000000000358
20
-5.93709576978202
30
0
41
1
10
-0.200000000000358
20
-6.10344667966001
30
0
0
SPLINE
5
1C0
100
AcDbEntity
8
SK1
62
256
6
ByLayer
370
18
48
1
60
0
100
AcDbSpline
70
4
71
3
72
10
73
6
40
0
40
0
40
0
40
0
40
0.5
40
0.5
40
1
40
1
40
1
40
1
41
1
10
-1.30710678118655
20
-3.91806548153784
30
0
41
1
10
-1.53227959010832
20
-2.67440369212437
30
0
41
1
10
-1.71681589069689
20
-1.34075776539186
30
0
41
1
10
-1.71598271729604
20
1.35050010337164
30
0
41
1
10
-1.53230696904976
20
2.67425240209695
30
0
41
1
10
-1.30710678118655
20
3.91806548057698
30
0
0
SPLINE
5
1C1
100
AcDbEntity
8
SK1
62
256
6
ByLayer
370
18
48
1
60
0
100
AcDbSpline
70
4
71
3
72
22
73
18
40
0
40
0
40
0
40
0
40
0.359503326352592
40
0.359503326352592
40
0.722215553677066
40
0.722215553677066
40
0.826527133697721
40
0.826527133697721
40
0.863141914878009
40
0.863141914878009
40
0.900378805007221
40
0.900378805007221
40
0.933500873078508
40
0.933500873078508
40
0.972947835056124
40
0.972947835056124
40
1
40
1
40
1
40
1
41
1
10
-1.30710678118655
20
-3.91806548153781
30
0
41
1
10
-1.26486058419175
20
-4.15139729989579
30
0
41
1
10
-1.21446435132796
20
-4.3814323255595
30
0
41
1
10
-1.08204001032738
20
-4.82987250608483
30
0
41
1
10
-1.00537527699572
20
-5.05527264511531
30
0
41
1
10
-0.832356114396674
20
-5.30654108347395
30
0
41
1
10
-0.78723829488635
20
-5.36152992388779
30
0
41
1
10
-0.709490490588593
20
-5.41877880440927
30
0
41
1
10
-0.687203973712826
20
-5.43218986569767
30
0
41
1
10
-0.639076749164047
20
-5.45244590583036
30
0
41
1
10
-0.612446414061708
20
-5.45928056674788
30
0
41
1
10
-0.562058433231044
20
-5.46233960302246
30
0
41
1
10
-0.537713914852588
20
-5.45964677314575
30
0
41
1
10
-0.488053852696936
20
-5.44628701250068
30
0
41
1
10
-0.462609559288751
20
-5.43420976008088
30
0
41
1
10
-0.423860760477311
20
-5.40985221311715
30
0
41
1
10
-0.408979654247759
20
-5.39867780521598
30
0
41
1
10
-0.394976888875391
20
-5.38678223323953
30
0
0
SPLINE
5
1C2
100
AcDbEntity
8
SK1
62
256
6
ByLayer
370
18
48
1
60
0
100
AcDbSpline
70
4
71
3
72
22
73
18
40
0
40
0
40
0
40
0
40
0.0394331151890913
40
0.0394331151890913
40
0.0795339708694829
40
0.0795339708694829
40
0.109637917244288
40
0.109637917244288
40
0.13957706301322
40
0.13957706301322
40
0.189266399657458
40
0.189266399657458
40
0.289571152403382
40
0.289571152403382
40
0.658284396834382
40
0.658284396834382
40
1
40
1
40
1
40
1
41
1
10
-0.394976888875306
20
5.38678189578292
30
0
41
1
10
-0.415237014773396
20
5.40399317028476
30
0
41
1
10
-0.437419275645453
20
5.41977813092004
30
0
41
1
10
-0.486103141154984
20
5.44521655864725
30
0
41
1
10
-0.51341298093098
20
5.45496005292577
30
0
41
1
10
-0.562874322366525
20
5.46212264681108
30
0
41
1
10
-0.585106616517606
20
5.46199323188387
30
0
41
1
10
-0.627692822126733
20
5.45533455005088
30
0
41
1
10
-0.648523068172722
20
5.44883772858989
30
0
41
1
10
-0.699826196362153
20
5.42613682765011
30
0
41
1
10
-0.728695564403438
20
5.40623396070797
30
0
41
1
10
-0.806075449923839
20
5.34007786619352
30
0
41
1
10
-0.847522380016557
20
5.28655870152033
30
0
41
1
10
-1.01570466784384
20
5.03084699030373
30
0
41
1
10
-1.09210771407481
20
4.80149729085085
30
0
41
1
10
-1.21929875138233
20
4.35887826398974
30
0
41
1
10
-1.26692602208391
20
4.13998960128646
30
0
41
1
10
-1.30710678118655
20
3.91806548057696
30
0
0
SPLINE
5
1C3
100
AcDbEntity
8
SK1
62
256
6
ByLayer
370
18
48
1
60
0
100
AcDbSpline
70
4
71
3
72
24
73
20
40
0
40
0
40
0
40
0
40
0.469770575826712
40
0.469770575826712
40
0.663612078687295
40
0.663612078687295
40
0.860454184613411
40
0.860454184613411
40
0.903064590395674
40
0.903064590395674
40
0.923089343972159
40
0.923089343972159
40
0.943389594779288
40
0.943389594779288
40
0.961332284531898
40
0.961332284531898
40
0.988068136377815
40
0.988068136377815
40
1
40
1
40
1
40
1
41
1
10
-0.199999999999989
20
6.10344849123027
30
0
41
1
10
-0.199999999999989
20
5.97798788494984
30
0
41
1
10
-0.204016575726513
20
5.8509635670122
30
0
41
1
10
-0.223752631922082
20
5.67079358995508
30
0
41
1
10
-0.231244965282229
20
5.61789623093799
30
0
41
1
10
-0.253819137983157
20
5.51250015101135
30
0
41
1
10
-0.267096215270385
20
5.45724004647028
30
0
41
1
10
-0.303692478692511
20
5.40035311573845
30
0
41
1
10
-0.311479622041333
20
5.39039941672755
30
0
41
1
10
-0.32547775761438
20
5.37891036834915
30
0
41
1
10
-0.330455622185014
20
5.3756771312581
30
0
41
1
10
-0.341078704143143
20
5.37102422840917
30
0
41
1
10
-0.346883276538165
20
5.36960762575521
30
0
41
1
10
-0.357630415747764
20
5.36914354197148
30
0
41
1
10
-0.362713068049572
20
5.36981917830482
30
0
41
1
10
-0.37458340180882
20
5.37316903610403
30
0
41
1
10
-0.3812109954861
20
5.37664910167555
30
0
41
1
10
-0.38989246528871
20
5.38265091141974
30
0
41
1
10
-0.392483363308571
20
5.38466360919151
30
0
41
1
10
-0.394976888875334
20
5.38678189578178
30
0
0
SPLINE
5
1C4
100
AcDbEntity
8
1
62
256
6
ByLayer
370
18
48
1
60
0
100
AcDbSpline
70
4
71
3
72
8
73
4
40
0
40
0
40
0
40
0
40
1
40
1
40
1
40
1
41
1
10
45.5181947313653
20
-18.0378772656773
30
0
41
1
10
45.8390340182038
20
-18.261634495569
30
0
41
1
10
46.1221402537573
20
-18.5270487379002
30
0
41
1
10
46.3707837337935
20
-18.8298421652453
30
0
0
SPLINE
5
1C5
100
AcDbEntity
8
1
62
256
6
ByLayer
370
18
48
1
60
0
100
AcDbSpline
70
4
71
3
72
11
73
7
40
0
40
0
40
0
40
0
40
0.268536746558077
40
0.487975722590654
40
0.707414698623231
40
1
40
1
40
1
40
1
41
1.02490909094425
10
47.2835898685254
20
-22.268287278813
30
0
41
1.02297680709541
10
48.3664801560581
20
-23.058793545224
30
0
41
1.019109996622
10
50.2355043969392
20
-24.4617677039605
30
0
41
1.01332460673153
10
53.1158734902737
20
-26.9201214015741
30
0
41
1.01203732298747
10
54.7449372779179
20
-28.1281366141292
30
0
41
1.00929221524307
10
56.0490763458828
20
-29.2895234487812
30
0
41
1.0087712828333
10
56.5925502638953
20
-29.8317983820298
30
0
0
SPLINE
5
1C6
100
AcDbEntity
8
1
62
256
6
ByLayer
370
18
48
1
60
0
100
AcDbSpline
70
4
71
1
72
4
73
2
40
0
40
0
40
1
40
1
41
1
10
56.5925502638952
20
-29.8317983820298
30
0
41
1
10
55.7876751719819
20
-30.9767431630133
30
0
0
SPLINE
5
1C7
100
AcDbEntity
8
1
62
256
6
ByLayer
370
18
48
1
60
0
100
AcDbSpline
70
4
71
3
72
8
73
4
40
0
40
0
40
0
40
0
40
1
40
1
40
1
40
1
41
1
10
56.5651559078918
20
-28.1260753647513
30
0
41
1
10
56.5957739230828
20
-28.4158625979568
30
0
41
1
10
56.6255478072376
20
-28.7077202517251
30
0
41
1
10
56.6536710757144
20
-29.0001669371182
30
0
0
SPLINE
5
1C8
100
AcDbEntity
8
1
62
256
6
ByLayer
370
18
48
1
60
0
100
AcDbSpline
70
4
71
1
72
4
73
2
40
0
40
0
40
1
40
1
41
1
10
47.4937702758855
20
-16.5451427828035
30
0
41
1
10
47.7130137934912
20
-15.7295851537552
30
0
0
SPLINE
5
1C9
100
AcDbEntity
8
1
62
256
6
ByLayer
370
18
48
1
60
0
100
AcDbSpline
70
4
71
3
72
13
73
9
40
0
40
0
40
0
40
0
40
0.250661764437226
40
0.250661764437226
40
0.250661764437226
40
0.653096502165464
40
0.653096502165464
40
1
40
1
40
1
40
1
41
1
10
47.2835899195742
20
-22.2682873160786
30
0
41
1
10
47.2252742411854
20
-22.5536081774002
30
0
41
1
10
47.1362670194743
20
-22.83499771128
30
0
41
1
10
47.0197439447578
20
-23.1032553842971
30
0
41
1
10
46.8342853108864
20
-23.5302154665327
30
0
41
1
10
46.5737851856525
20
-23.9331153079469
30
0
41
1
10
45.9884080458388
20
-24.5776581814893
30
0
41
1
10
45.6711446898838
20
-24.8406577813136
30
0
41
1
10
45.3275142786661
20
-25.0508291275574
30
0
0
SPLINE
5
1CA
100
AcDbEntity
8
1
62
256
6
ByLayer
370
18
48
1
60
0
100
AcDbSpline
70
4
71
3
72
8
73
4
40
0
40
0
40
0
40
0
40
1
40
1
40
1
40
1
41
1
10
39.9841342534189
20
-27.8364007520152
30
0
41
1
10
39.8079192224589
20
-27.7149270117444
30
0
41
1
10
39.6320806209333
20
-27.5937625538356
30
0
41
1
10
39.45729499358
20
-27.473447335843
30
0
0
SPLINE
5
1CB
100
AcDbEntity
8
1
62
256
6
ByLayer
370
18
48
1
60
0
100
AcDbSpline
70
4
71
3
72
16
73
12
40
0
40
0
40
0
40
0
40
0.25
40
0.25
40
0.500000000000001
40
0.500000000000001
40
0.750000000000001
40
0.750000000000001
40
0.875
40
0.875
40
1
40
1
40
1
40
1
41
1
10
54.1779703676958
20
-31.5218763442365
30
0
41
1
10
53.1556765600684
20
-31.1309551264098
30
0
41
1
10
52.0749576133237
20
-30.7449017727504
30
0
41
1
10
49.673850723718
20
-29.9927638003946
30
0
41
1
10
48.4631519533378
20
-29.6157700781541
30
0
41
1
10
45.989881542815
20
-28.8812939317039
30
0
41
1
10
44.6588442553187
20
-28.5218569715474
30
0
41
1
10
42.7044689668168
20
-28.1154995526796
30
0
41
1
10
42.0603506973088
20
-28.0033289580022
30
0
41
1
10
40.9049368719264
20
-27.8612857350786
30
0
41
1
10
40.4054931318767
20
-27.8332845324282
30
0
41
1
10
39.9841342534154
20
-27.8364007520124
30
0
0
SPLINE
5
1CC
100
AcDbEntity
8
1
62
256
6
ByLayer
370
18
48
1
60
0
100
AcDbSpline
70
4
71
3
72
8
73
4
40
0
40
0
40
0
40
0
40
1
40
1
40
1
40
1
41
1
10
43.851134463134
20
-16.8752491120072
30
0
41
1
10
43.1061326824252
20
-16.3556757880593
30
0
41
1
10
42.1944532479296
20
-16.1234980722212
30
0
41
1
10
41.3136831766229
20
-16.2141201424999
30
0
0
SPLINE
5
1CD
100
AcDbEntity
8
1
62
256
6
ByLayer
370
18
48
1
60
0
100
AcDbSpline
70
4
71
3
72
8
73
4
40
0
40
0
40
0
40
0
40
1
40
1
40
1
40
1
41
1
10
34.0513905072207
20
-20.9417307281861
30
0
41
1
10
33.3262937329835
20
-21.2996594681779
30
0
41
1
10
32.7816147866433
20
-21.6166326874545
30
0
41
1
10
32.268096706381
20
-21.6169782536822
30
0
0
SPLINE
5
1CE
100
AcDbEntity
8
1
62
256
6
ByLayer
370
18
48
1
60
0
100
AcDbSpline
70
4
71
3
72
11
73
7
40
0
40
0
40
0
40
0
40
0.379738014043156
40
0.569607021064734
40
0.759476028086312
40
1
40
1
40
1
40
1
41
1.02830968163241
10
47.4937702758854
20
-16.5451427828035
30
0
41
1.02566133279165
10
49.1109137692384
20
-18.5419129836652
30
0
41
1.02050308371814
10
50.9857501084805
20
-21.3705681263677
30
0
41
1.01332460673153
10
53.4914956215448
20
-26.3266305741885
30
0
41
1.0120630214142
10
55.100086534324
20
-27.4612837513907
30
0
41
1.00944729087556
10
56.1423401212407
20
-28.9595744340746
30
0
41
1.00885690313847
10
56.6481313773681
20
-29.5303746531994
30
0
0
SPLINE
5
1CF
100
AcDbEntity
8
1
62
256
6
ByLayer
370
18
48
1
60
0
100
AcDbSpline
70
4
71
3
72
10
73
6
40
0
40
0
40
0
40
0
40
0.494168352806885
40
0.494168352806885
40
1
40
1
40
1
40
1
41
1
10
38.2257385814741
20
-8.91307095752148
30
0
41
1
10
38.1339613047362
20
-8.8631812602361
30
0
41
1
10
38.0361057668163
20
-8.81591903735261
30
0
41
1
10
37.8328108716774
20
-8.7322175892516
30
0
41
1
10
37.7258303619361
20
-8.6955242825459
30
0
41
1
10
37.6189818552896
20
-8.66671336376388
30
0
0
SPLINE
5
1D0
100
AcDbEntity
8
1
62
256
6
ByLayer
370
18
48
1
60
0
100
AcDbSpline
70
4
71
1
72
4
73
2
40
0
40
0
40
1
40
1
41
1
10
39.45729499358
20
-27.473447335843
30
0
41
1
10
40.0923721028197
20
-27.0737232984305
30
0
0
SPLINE
5
1D1
100
AcDbEntity
8
1
62
256
6
ByLayer
370
18
48
1
60
0
100
AcDbSpline
70
4
71
3
72
8
73
4
40
0
40
0
40
0
40
0
40
1
40
1
40
1
40
1
41
1
10
54.1779703676958
20
-31.5218763442365
30
0
41
1
10
54.4597107162083
20
-31.4544389499037
30
0
41
1
10
54.7434309920499
20
-31.3850547181531
30
0
41
1
10
55.0276707612288
20
-31.3131725110912
30
0
0
SPLINE
5
1D2
100
AcDbEntity
8
1
62
256
6
ByLayer
370
18
48
1
60
0
100
AcDbSpline
70
4
71
3
72
12
73
8
40
0
40
0
40
0
40
0
40
0.500000000000002
40
0.500000000000002
40
0.750000000000001
40
0.750000000000001
40
1
40
1
40
1
40
1
41
1
10
34.0513905072184
20
-20.941730728176
30
0
41
1
10
34.0162045576996
20
-20.7930895809075
30
0
41
1
10
33.9838814348648
20
-20.6456870509523
30
0
41
1
10
33.9400762182465
20
-20.4262078451429
30
0
41
1
10
33.9261838836562
20
-20.3533571005613
30
0
41
1
10
33.9011702045488
20
-20.2078533189771
30
0
41
1
10
33.8531638701707
20
-20.1270389271658
30
0
41
1
10
33.9010893963762
20
-20.0588642729186
30
0
0
SPLINE
5
1D3
100
AcDbEntity
8
1
62
256
6
ByLayer
370
18
48
1
60
0
100
AcDbSpline
70
4
71
3
72
8
73
4
40
0
40
0
40
0
40
0
40
1
40
1
40
1
40
1
41
1
10
40.7464352578791
20
-24.825764181508
30
0
41
1
10
41.0672745448228
20
-25.0495214114731
30
0
41
1
10
41.4135825146183
20
-25.22503040475
30
0
41
1
10
41.7827341778759
20
-25.3563994500208
30
0
0
SPLINE
5
1D4
100
AcDbEntity
8
1
62
256
6
ByLayer
370
18
48
1
60
0
100
AcDbSpline
70
4
71
3
72
11
73
7
40
0
40
0
40
0
40
0
40
0.268536746003808
40
0.487975722202665
40
0.707414698401523
40
1
40
1
40
1
40
1
41
1.0249090909279
10
45.3275142353353
20
-25.0508290990111
30
0
41
1.0229768070834
10
46.4474483654804
20
-25.7886400336496
30
0
41
1.0191099966158
10
48.4222154567948
20
-27.0411936731743
30
0
41
1.01332460673153
10
51.7678974288288
20
-28.8376340342155
30
0
41
1.01203732298747
10
53.4969711482424
20
-29.9033838809043
30
0
41
1.00929221524307
10
55.0716197215879
20
-30.6799675957947
30
0
41
1.0087712828333
10
55.7876751719819
20
-30.9767431630133
30
0
0
SPLINE
5
1D5
100
AcDbEntity
8
1
62
256
6
ByLayer
370
18
48
1
60
0
100
AcDbSpline
70
4
71
3
72
8
73
4
40
0
40
0
40
0
40
0
40
1
40
1
40
1
40
1
41
1
10
36.4121526719365
20
-19.9226607844276
30
0
41
1
10
36.6464963011733
20
-20.0894332270774
30
0
41
1
10
36.8667210554749
20
-20.288366148175
30
0
41
1
10
37.0542440174718
20
-20.5129344611395
30
0
0
SPLINE
5
1D6
100
AcDbEntity
8
1
62
256
6
ByLayer
370
18
48
1
60
0
100
AcDbSpline
70
4
71
3
72
8
73
4
40
0
40
0
40
0
40
0
40
1
40
1
40
1
40
1
41
1
10
38.6235452688369
20
-9.16293474630078
30
0
41
1
10
38.4968847994891
20
-9.07209184001803
30
0
41
1
10
38.3644333979957
20
-8.98846480943405
30
0
41
1
10
38.2257385814741
20
-8.91307095752148
30
0
0
SPLINE
5
1D7
100
AcDbEntity
8
1
62
256
6
ByLayer
370
18
48
1
60
0
100
AcDbSpline
70
4
71
3
72
8
73
4
40
0
40
0
40
0
40
0
40
1
40
1
40
1
40
1
41
1
10
40.0923721028197
20
-27.0737232984305
30
0
41
1
10
40.4647114905647
20
-26.8393690740509
30
0
41
1
10
41.0815642826998
20
-26.2126772997341
30
0
41
1
10
41.782734172745
20
-25.3563994598328
30
0
0
SPLINE
5
1D8
100
AcDbEntity
8
1
62
256
6
ByLayer
370
18
48
1
60
0
100
AcDbSpline
70
4
71
3
72
10
73
6
40
0
40
0
40
0
40
0
40
0.465995854460557
40
0.465995854460557
40
1
40
1
40
1
40
1
41
1
10
37.5763610715147
20
-21.5305070975561
30
0
41
1
10
37.532150808424
20
-21.3610114584576
30
0
41
1
10
37.4691718697093
20
-21.193079215633
30
0
41
1
10
37.2989112153388
20
-20.8493436476304
30
0
41
1
10
37.1854042332834
20
-20.6736851973703
30
0
41
1
10
37.0542440174718
20
-20.5129344611396
30
0
0
SPLINE
5
1D9
100
AcDbEntity
8
1
62
256
6
ByLayer
370
18
48
1
60
0
100
AcDbSpline
70
4
71
3
72
8
73
4
40
0
40
0
40
0
40
0
40
1
40
1
40
1
40
1
41
1
10
48.2398530533228
20
-16.0925385699222
30
0
41
1
10
48.0636380223652
20
-15.9710648296531
30
0
41
1
10
47.887799420842
20
-15.8499003717461
30
0
41
1
10
47.7130137934912
20
-15.7295851537552
30
0
0
SPLINE
5
1DA
100
AcDbEntity
8
1
62
256
6
ByLayer
370
18
48
1
60
0
100
AcDbSpline
70
4
71
3
72
8
73
4
40
0
40
0
40
0
40
0
40
1
40
1
40
1
40
1
41
1
10
39.6694948794468
20
-11.0883977380552
30
0
41
1
10
39.8207923609892
20
-11.6093014109029
30
0
41
1
10
39.6836695384277
20
-12.2510270154001
30
0
41
1
10
39.576619485385
20
-13.0820241155121
30
0
0
SPLINE
5
1DB
100
AcDbEntity
8
1
62
256
6
ByLayer
370
18
48
1
60
0
100
AcDbSpline
70
4
71
3
72
18
73
14
40
0
40
0
40
0
40
0
40
0.14886543669072
40
0.14886543669072
40
0.336868556410371
40
0.336868556410371
40
0.519491108027855
40
0.519491108027855
40
0.711563055534811
40
0.711563055534811
40
0.930180979444766
40
0.930180979444766
40
1
40
1
40
1
40
1
41
1
10
53.0010559127209
20
-22.4915174065698
30
0
41
1
10
52.9982824235237
20
-22.4968340223501
30
0
41
1
10
52.99714402444
20
-22.5046033484643
30
0
41
1
10
52.9986551909757
20
-22.5271562303309
30
0
41
1
10
53.002442763248
20
-22.5436143349694
30
0
41
1
10
53.0150522355972
20
-22.5808883978966
30
0
41
1
10
53.0238703457605
20
-22.6020174978039
30
0
41
1
10
53.0455359285937
20
-22.6474325535216
30
0
41
1
10
53.0588050304004
20
-22.6723508574119
30
0
41
1
10
53.08945646786
20
-22.7254584345553
30
0
41
1
10
53.1074970482606
20
-22.7542443112262
30
0
41
1
10
53.1319532408585
20
-22.7907808047588
30
0
41
1
10
53.13796711064
20
-22.7995794902368
30
0
41
1
10
53.1440231374735
20
-22.8082648758234
30
0
0
SPLINE
5
1DC
100
AcDbEntity
8
1
62
256
6
ByLayer
370
18
48
1
60
0
100
AcDbSpline
70
4
71
3
72
12
73
8
40
0
40
0
40
0
40
0
40
0.252749620142203
40
0.252749620142203
40
0.674711209428768
40
0.674711209428768
40
1
40
1
40
1
40
1
41
1
10
36.2972797027392
20
-8.71933057887799
30
0
41
1
10
36.3876905053174
20
-8.6838216994779
30
0
41
1
10
36.4845419177535
20
-8.65401729561918
30
0
41
1
10
36.7563698242237
20
-8.59440689873423
30
0
41
1
10
36.9440736772813
20
-8.57769369130438
30
0
41
1
10
37.2888948439955
20
-8.59644100305252
30
0
41
1
10
37.4465145265404
20
-8.62127934289535
30
0
41
1
10
37.6012960441465
20
-8.66200241520835
30
0
0
SPLINE
5
1DD
100
AcDbEntity
8
1
62
256
6
ByLayer
370
18
48
1
60
0
100
AcDbSpline
70
4
71
3
72
10
73
6
40
0
40
0
40
0
40
0
40
0.325288492889665
40
0.325288492889665
40
1
40
1
40
1
40
1
41
1
10
29.3468138322665
20
-17.9572891758584
30
0
41
1
10
29.3054950613195
20
-18.0577885607453
30
0
41
1
10
29.2704523564345
20
-18.1578944726693
30
0
41
1
10
29.182680003346
20
-18.4653714731731
30
0
41
1
10
29.1503950591251
20
-18.6752767677378
30
0
41
1
10
29.1494245078072
20
-18.8872430697893
30
0
0
SPLINE
5
1DE
100
AcDbEntity
8
1
62
256
6
ByLayer
370
18
48
1
60
0
100
AcDbSpline
70
4
71
3
72
12
73
8
40
0
40
0
40
0
40
0
40
0.407174084711928
40
0.407174084711928
40
0.699511272430928
40
0.699511272430928
40
1
40
1
40
1
40
1
41
1
10
56.582876223221
20
-29.8221541005734
30
0
41
1
10
56.5952538353463
20
-29.7849184136718
30
0
41
1
10
56.6064911361728
20
-29.7459074266757
30
0
41
1
10
56.6231029637128
20
-29.6777649242177
30
0
41
1
10
56.6292903295904
20
-29.6487372144543
30
0
41
1
10
56.6400376942264
20
-29.5898954559225
30
0
41
1
10
56.6445868182062
20
-29.5598583143503
30
0
41
1
10
56.6481313823102
20
-29.5303746587768
30
0
0
SPLINE
5
1DF
100
AcDbEntity
8
1
62
256
6
ByLayer
370
18
48
1
60
0
100
AcDbSpline
70
4
71
3
72
8
73
4
40
0
40
0
40
0
40
0
40
1
40
1
40
1
40
1
41
1
10
55.0276707612288
20
-31.3131725110913
30
0
41
1
10
55.200270290408
20
-31.2695233231853
30
0
41
1
10
55.3682605717311
20
-31.2071153843378
30
0
41
1
10
55.5221689077827
20
-31.1320702159459
30
0
0
SPLINE
5
1E0
100
AcDbEntity
8
1
62
256
6
ByLayer
370
18
48
1
60
0
100
AcDbSpline
70
4
71
3
72
18
73
14
40
0
40
0
40
0
40
0
40
0.0384430513828776
40
0.0384430513828776
40
0.294505767099362
40
0.294505767099362
40
0.507931675708711
40
0.507931675708711
40
0.723079147095952
40
0.723079147095952
40
0.912685296049715
40
0.912685296049715
40
1
40
1
40
1
40
1
41
1
10
48.0196110666804
20
-30.0978044764537
30
0
41
1
10
48.0139511610177
20
-30.0963172436305
30
0
41
1
10
48.0082681222289
20
-30.0948488451541
30
0
41
1
10
47.964942659691
20
-30.0838478151014
30
0
41
1
10
47.9259814929982
20
-30.0750861662056
30
0
41
1
10
47.8577304690775
20
-30.0621780904425
30
0
41
1
10
47.8271663956178
20
-30.0573805163864
30
0
41
1
10
47.7723843139573
20
-30.0511419072027
30
0
41
1
10
47.7474290892418
20
-30.0496578884687
30
0
41
1
10
47.7107496450107
20
-30.0505535374703
30
0
41
1
10
47.6973226079886
20
-30.0525106022432
30
0
41
1
10
47.684744684833
20
-30.0573198669325
30
0
41
1
10
47.681727304893
20
-30.0591419242418
30
0
41
1
10
47.6796998168835
20
-30.0612123205926
30
0
0
SPLINE
5
1E1
100
AcDbEntity
8
1
62
256
6
ByLayer
370
18
48
1
60
0
100
AcDbSpline
70
4
71
3
72
8
73
4
40
0
40
0
40
0
40
0
40
1
40
1
40
1
40
1
41
1
10
35.4655683975654
20
-9.25328506883082
30
0
41
1
10
35.720260850572
20
-9.01909368285868
30
0
41
1
10
35.9933092304283
20
-8.83871510523375
30
0
41
1
10
36.2972797027613
20
-8.7193305788789
30
0
0
SPLINE
5
1E2
100
AcDbEntity
8
1
62
256
6
ByLayer
370
18
48
1
60
0
100
AcDbSpline
70
4
71
3
72
8
73
4
40
0
40
0
40
0
40
0
40
1
40
1
40
1
40
1
41
1
10
39.4016887276146
20
-15.6700087407746
30
0
41
1
10
39.6360323568514
20
-15.8367811834244
30
0
41
1
10
39.8966241547564
20
-15.9782914853333
30
0
41
1
10
40.1710160263852
20
-16.079287699084
30
0
0
SPLINE
5
1E3
100
AcDbEntity
8
1
62
256
6
ByLayer
370
18
48
1
60
0
100
AcDbSpline
70
4
71
3
72
16
73
12
40
0
40
0
40
0
40
0
40
0.0076436986798972
40
0.0076436986798972
40
0.0409116539642748
40
0.0409116539642748
40
0.185161591066356
40
0.185161591066356
40
0.761039897349149
40
0.761039897349149
40
1
40
1
40
1
40
1
41
1
10
34.7807471848804
20
-10.1909754582697
30
0
41
1
10
34.7828024431644
20
-10.1880518279208
30
0
41
1
10
34.7848253376385
20
-10.1850933320152
30
0
41
1
10
34.7953325297534
20
-10.1693140325345
30
0
41
1
10
34.8030183179334
20
-10.1562812419166
30
0
41
1
10
34.8406794321548
20
-10.0897179592958
30
0
41
1
10
34.8660398824196
20
-10.0396809231063
30
0
41
1
10
35.0034662621382
20
-9.79362581869015
30
0
41
1
10
35.1290228641128
20
-9.6122736142928
30
0
41
1
10
35.3345980925406
20
-9.38026204854094
30
0
41
1
10
35.3984060690456
20
-9.31504127171581
30
0
41
1
10
35.4655683975653
20
-9.25328506883085
30
0
0
SPLINE
5
1E4
100
AcDbEntity
8
1
62
256
6
ByLayer
370
18
48
1
60
0
100
AcDbSpline
70
4
71
3
72
16
73
12
40
0
40
0
40
0
40
0
40
0.125
40
0.125
40
0.250000000000001
40
0.250000000000001
40
0.5
40
0.5
40
0.75
40
0.75
40
1
40
1
40
1
40
1
41
1
10
48.2398530533313
20
-16.0925385699281
30
0
41
1
10
48.364304978782
20
-16.5124960947966
30
0
41
1
10
48.5457735776665
20
-16.9914758613859
30
0
41
1
10
49.0558816317774
20
-18.0676293903258
30
0
41
1
10
49.3742884924635
20
-18.6446403812845
30
0
41
1
10
50.4206847468508
20
-20.3722134138045
30
0
41
1
10
51.2084823343938
20
-21.4789835878473
30
0
41
1
10
52.7481927372167
20
-23.5091515944226
30
0
41
1
10
53.5180248016126
20
-24.489615898517
30
0
41
1
10
55.0576843689369
20
-26.4437192260536
30
0
41
1
10
55.8242830297851
20
-27.324144814511
30
0
41
1
10
56.5651559078918
20
-28.1260753647513
30
0
0
SPLINE
5
1E5
100
AcDbEntity
8
1
62
256
6
ByLayer
370
18
48
1
60
0
100
AcDbSpline
70
4
71
3
72
12
73
8
40
0
40
0
40
0
40
0
40
0.418782075282762
40
0.418782075282762
40
0.706182120811183
40
0.706182120811183
40
1
40
1
40
1
40
1
41
1
10
55.5221689077827
20
-31.1320702159459
30
0
41
1
10
55.5587721956733
20
-31.1139631026853
30
0
41
1
10
55.595909659424
20
-31.0934195813814
30
0
41
1
10
55.656592079025
20
-31.0562536051155
30
0
41
1
10
55.6809923947275
20
-31.0402759553249
30
0
41
1
10
55.7288371591085
20
-31.006877440317
30
0
41
1
10
55.7523832666213
20
-30.9893379029677
30
0
41
1
10
55.7749377567886
20
-30.9714565697287
30
0
0
SPLINE
5
1E6
100
AcDbEntity
8
1
62
256
6
ByLayer
370
18
48
1
60
0
100
AcDbSpline
70
4
71
3
72
10
73
6
40
0
40
0
40
0
40
0
40
0.474805431212336
40
0.474805431212336
40
1
40
1
40
1
40
1
41
1
10
40.1710160263852
20
-16.079287699084
30
0
41
1
10
40.3462189593723
20
-16.1391906947709
30
0
41
1
10
40.5277645712786
20
-16.1817964738083
30
0
41
1
10
40.9110515309256
20
-16.2314628976873
30
0
41
1
10
41.1154074243745
20
-16.234520653076
30
0
41
1
10
41.3136831766229
20
-16.2141201424998
30
0
0
SPLINE
5
1E7
100
AcDbEntity
8
1
62
256
6
ByLayer
370
18
48
1
60
0
100
AcDbSpline
70
4
71
3
72
12
73
8
40
0
40
0
40
0
40
0
40
0.32296159576427
40
0.32296159576427
40
0.710971356423584
40
0.710971356423584
40
1
40
1
40
1
40
1
41
1
10
46.3707837355526
20
-18.8298421673876
30
0
41
1
10
46.6197356683955
20
-19.1348631932974
30
0
41
1
10
46.8297156214218
20
-19.4783398714379
30
0
41
1
10
47.1803660864623
20
-20.2714968909191
30
0
41
1
10
47.304395512489
20
-20.7408929577015
30
0
41
1
10
47.3723472094999
20
-21.5638360364694
30
0
41
1
10
47.3537935857034
20
-21.924580767261
30
0
41
1
10
47.2835899195742
20
-22.2682873160786
30
0
0
SPLINE
5
1E8
100
AcDbEntity
8
1
62
256
6
ByLayer
370
18
48
1
60
0
100
AcDbSpline
70
4
71
3
72
12
73
8
40
0
40
0
40
0
40
0
40
0.5
40
0.5
40
0.75
40
0.75
40
1
40
1
40
1
40
1
41
1
10
39.5766194853749
20
-13.0820241155131
30
0
41
1
10
39.4267291150858
20
-13.0965514266009
30
0
41
1
10
39.2790965126614
20
-13.1131780586617
30
0
41
1
10
39.0609355994138
20
-13.1417219894811
30
0
41
1
10
38.9887763517999
20
-13.151756649903
30
0
41
1
10
38.8456219341666
20
-13.1743095312172
30
0
41
1
10
38.7552690428626
20
-13.1537336407988
30
0
41
1
10
38.7073435166589
20
-13.2219082950473
30
0
0
SPLINE
5
1E9
100
AcDbEntity
8
1
62
256
6
ByLayer
370
18
48
1
60
0
100
AcDbSpline
70
4
71
3
72
8
73
4
40
0
40
0
40
0
40
0
40
1
40
1
40
1
40
1
41
1
10
46.3707837426998
20
-18.8298421554952
30
0
41
1
10
46.9554258414553
20
-17.8570365255184
30
0
41
1
10
47.3652299838824
20
-17.0232961025823
30
0
41
1
10
47.4937702758855
20
-16.5451427828035
30
0
0
SPLINE
5
1EA
100
AcDbEntity
8
1
62
256
6
ByLayer
370
18
48
1
60
0
100
AcDbSpline
70
4
71
3
72
8
73
4
40
0
40
0
40
0
40
0
40
1
40
1
40
1
40
1
41
1
10
37.5763610715147
20
-21.530507097556
30
0
41
1
10
37.7998255168233
20
-22.3872368775995
30
0
41
1
10
38.3193741100629
20
-23.1331021494846
30
0
41
1
10
39.0793749896477
20
-23.6631360278379
30
0
0
SPLINE
5
1EB
100
AcDbEntity
8
1
62
256
6
ByLayer
370
18
48
1
60
0
100
AcDbSpline
70
4
71
3
72
12
73
8
40
0
40
0
40
0
40
0
40
0.252749620142198
40
0.252749620142198
40
0.674711209428766
40
0.674711209428766
40
1
40
1
40
1
40
1
41
1
10
29.1494245077996
20
-18.8872430697678
30
0
41
1
10
29.1489954193331
20
-18.9809550597941
30
0
41
1
10
29.1559928669582
20
-19.0789690330906
30
0
41
1
10
29.1974906117317
20
-19.3470061422439
30
0
41
1
10
29.2483862490654
20
-19.5249043150923
30
0
41
1
10
29.3868005070075
20
-19.8372680094717
30
0
41
1
10
29.4648439567253
20
-19.9753045255049
30
0
41
1
10
29.5562048734747
20
-20.1062441875562
30
0
0
SPLINE
5
1EC
100
AcDbEntity
8
1
62
256
6
ByLayer
370
18
48
1
60
0
100
AcDbSpline
70
4
71
3
72
8
73
4
40
0
40
0
40
0
40
0
40
1
40
1
40
1
40
1
41
1
10
56.6481313823102
20
-29.5303746587768
30
0
41
1
10
56.6680124784278
20
-29.3582022087441
30
0
41
1
10
56.670748428796
20
-29.1777499697631
30
0
41
1
10
56.6536710757144
20
-29.0001669371182
30
0
0
SPLINE
5
1ED
100
AcDbEntity
8
1
62
256
6
ByLayer
370
18
48
1
60
0
100
AcDbSpline
70
4
71
3
72
10
73
6
40
0
40
0
40
0
40
0
40
0.494168352806877
40
0.494168352806877
40
1
40
1
40
1
40
1
41
1
10
30.0026080966546
20
-20.6105758580135
30
0
41
1
10
29.9254858217935
20
-20.5398392391589
30
0
41
1
10
29.8484440694541
20
-20.4629691486543
30
0
41
1
10
29.7013015394481
20
-20.2993902660982
30
0
41
1
10
29.6304261897212
20
-20.2113369223626
30
0
41
1
10
29.5666985874551
20
-20.1211859833494
30
0
0
SPLINE
5
1EE
100
AcDbEntity
8
1
62
256
6
ByLayer
370
18
48
1
60
0
100
AcDbSpline
70
4
71
3
72
13
73
9
40
0
40
0
40
0
40
0
40
0.287856992129662
40
0.287856992129662
40
0.605626331970861
40
0.605626331970861
40
0.605626331970861
40
1
40
1
40
1
40
1
41
1
10
45.3275142786661
20
-25.0508291275574
30
0
41
1
10
45.0281350162192
20
-25.2338794067987
30
0
41
1
10
44.6962961507688
20
-25.3733672435502
30
0
41
1
10
43.9818019255606
20
-25.566253048934
30
0
41
1
10
43.5891230790799
20
-25.6124210576698
30
0
41
1
10
43.2009518258838
20
-25.607011270483
30
0
41
1
10
42.7214580152177
20
-25.6003287574124
30
0
41
1
10
42.2351589954751
20
-25.5143495048791
30
0
41
1
10
41.7827341801244
20
-25.3563994508209
30
0
0
SPLINE
5
1EF
100
AcDbEntity
8
1
62
256
6
ByLayer
370
18
48
1
60
0
100
AcDbSpline
70
4
71
3
72
11
73
7
40
0
40
0
40
0
40
0
40
0.379738014043162
40
0.569607021064743
40
0.759476028086324
40
1
40
1
40
1
40
1
41
1.02830968163241
10
40.0923721028197
20
-27.0737232984305
30
0
41
1.02566133279165
10
42.5158837944972
20
-27.9234247559874
30
0
41
1.02050308371814
10
45.8071647460293
20
-28.7371699049775
30
0
41
1.01332460673153
10
51.343244865937
20
-29.3825438650668
30
0
41
1.0120630214142
10
52.999738582361
20
-30.4490547111386
30
0
41
1.00944729087556
10
54.7934125201105
20
-30.8784406436981
30
0
41
1.00885690313847
10
55.5221689006619
20
-31.1320702134676
30
0
0
SPLINE
5
1F0
100
AcDbEntity
8
1
62
256
6
ByLayer
370
18
48
1
60
0
100
AcDbSpline
70
4
71
3
72
14
73
10
40
0
40
0
40
0
40
0
40
0.0151857536690272
40
0.0151857536690272
40
0.065573031577494
40
0.065573031577494
40
0.287642754348332
40
0.287642754348332
40
1
40
1
40
1
40
1
41
1
10
29.9744930645979
20
-17.0279314361426
30
0
41
1
10
29.9704128629754
20
-17.0337355734552
30
0
41
1
10
29.9661730270388
20
-17.0394388773026
30
0
41
1
10
29.9479041011484
20
-17.0629217042974
30
0
41
1
10
29.933699316829
20
-17.0787987200023
30
0
41
1
10
29.8599723168255
20
-17.1608295642137
30
0
41
1
10
29.8044118191446
20
-17.2218964008683
30
0
41
1
10
29.583873098241
20
-17.4920608677868
30
0
41
1
10
29.4459954392291
20
-17.7160503813977
30
0
41
1
10
29.3468138322665
20
-17.9572891758582
30
0
0
SPLINE
5
1F1
100
AcDbEntity
8
1
62
256
6
ByLayer
370
18
48
1
60
0
100
AcDbSpline
70
4
71
3
72
12
73
8
40
0
40
0
40
0
40
0
40
0.392678099452574
40
0.392678099452574
40
0.79127933596875
40
0.79127933596875
40
1
40
1
40
1
40
1
41
1
10
41.6432365407924
20
-21.7879082827363
30
0
41
1
10
41.6590727016753
20
-21.7947789296278
30
0
41
1
10
41.6757882327923
20
-21.8035696560083
30
0
41
1
10
41.7087666387289
20
-21.824559786352
30
0
41
1
10
41.7254174364355
20
-21.8370904205337
30
0
41
1
10
41.7486655202531
20
-21.8573279680465
30
0
41
1
10
41.7564216548174
20
-21.8646040522845
30
0
41
1
10
41.7637763283985
20
-21.8719742000753
30
0
0
SPLINE
5
1F2
100
AcDbEntity
8
1
62
256
6
ByLayer
370
18
48
1
60
0
100
AcDbSpline
70
4
71
3
72
12
73
8
40
0
40
0
40
0
40
0
40
0.392678099449944
40
0.392678099449944
40
0.79127933596611
40
0.79127933596611
40
1
40
1
40
1
40
1
41
1
10
43.1121156264509
20
-19.9539448588638
30
0
41
1
10
43.0947047599496
20
-19.9454995063538
30
0
41
1
10
43.0768998218578
20
-19.9356193729985
30
0
41
1
10
43.0431581007947
20
-19.9138659275282
30
0
41
1
10
43.0268571998317
20
-19.9016851900901
30
0
41
1
10
43.0051344372263
20
-19.8829729637897
30
0
41
1
10
42.9980850313121
20
-19.8764036082018
30
0
41
1
10
42.9915758388449
20
-19.8698789415249
30
0
0
SPLINE
5
1F3
100
AcDbEntity
8
1
62
256
6
ByLayer
370
18
48
1
60
0
100
AcDbSpline
70
4
71
3
72
14
73
10
40
0
40
0
40
0
40
0
40
0.0829586012802275
40
0.0829586012802275
40
0.459195015075156
40
0.459195015075156
40
0.835474799669106
40
0.835474799669106
40
1
40
1
40
1
40
1
41
1
10
43.5321228226904
20
-21.039839719552
30
0
41
1
10
43.5316308830106
20
-21.0357740527951
30
0
41
1
10
43.5312004464012
20
-21.0316690094035
30
0
41
1
10
43.5292004900503
20
-21.0089216829405
30
0
41
1
10
43.5289536984883
20
-20.9893515536099
30
0
41
1
10
43.5317834706045
20
-20.9512411288496
30
0
41
1
10
43.5349002551536
20
-20.932276831746
30
0
41
1
10
43.5412317264521
20
-20.9072024087576
30
0
41
1
10
43.5434169264281
20
-20.8997689007442
30
0
41
1
10
43.5458011455353
20
-20.8926145073677
30
0
0
SPLINE
5
1F4
100
AcDbEntity
8
1
62
256
6
ByLayer
370
18
48
1
60
0
100
AcDbSpline
70
4
71
3
72
14
73
10
40
0
40
0
40
0
40
0
40
0.164525200330966
40
0.164525200330966
40
0.54080498492486
40
0.54080498492486
40
0.917041398719709
40
0.917041398719709
40
1
40
1
40
1
40
1
41
1
10
41.9576688873826
20
-19.7850317101128
30
0
41
1
10
41.9509768163822
20
-19.7891817550634
30
0
41
1
10
41.9440510950552
20
-19.7933091656963
30
0
41
1
10
41.9207912232285
20
-19.8065775157876
30
0
41
1
10
41.9033639949387
20
-19.8155615349724
30
0
41
1
10
41.8686926203836
20
-19.8314652380209
30
0
41
1
10
41.8510616355871
20
-19.8385671881767
30
0
41
1
10
41.8307332564461
20
-19.84574246127
30
0
41
1
10
41.827071392374
20
-19.8469934842784
30
0
41
1
10
41.8234507769292
20
-19.8481910049565
30
0
0
SPLINE
5
1F5
100
AcDbEntity
8
1
62
256
6
ByLayer
370
18
48
1
60
0
100
AcDbSpline
70
4
71
3
72
14
73
10
40
0
40
0
40
0
40
0
40
0.164525200330971
40
0.164525200330971
40
0.540804984924852
40
0.540804984924852
40
0.917041398719692
40
0.917041398719692
40
1
40
1
40
1
40
1
41
1
10
42.7976832798602
20
-21.9568214314868
30
0
41
1
10
42.8037121151588
20
-21.9520081508344
30
0
41
1
10
42.8100601388464
20
-21.9473030425621
30
0
41
1
10
42.831771503086
20
-21.9324861848836
30
0
41
1
10
42.8486720895802
20
-21.9229755239033
30
0
41
1
10
42.8836193275266
20
-21.9073476842461
30
0
41
1
10
42.9020523100534
20
-21.9010477318206
30
0
41
1
10
42.9239700273144
20
-21.8954617968473
30
0
41
1
10
42.9279453349183
20
-21.8945242173708
30
0
41
1
10
42.9319013903138
20
-21.8936621366433
30
0
0
SPLINE
5
1F6
100
AcDbEntity
8
1
62
256
6
ByLayer
370
18
48
1
60
0
100
AcDbSpline
70
4
71
3
72
14
73
10
40
0
40
0
40
0
40
0
40
0.082958601280302
40
0.082958601280302
40
0.459195015075157
40
0.459195015075157
40
0.835474799669019
40
0.835474799669019
40
1
40
1
40
1
40
1
41
1
10
41.2232293445526
20
-20.7020134220478
30
0
41
1
10
41.2233858442817
20
-20.7057436488541
30
0
41
1
10
41.2235028373593
20
-20.7095352487138
30
0
41
1
10
41.2239134555903
20
-20.7306932370569
30
0
41
1
10
41.2233582494219
20
-20.7494613686571
30
0
41
1
10
41.2202526139144
20
-20.7872959300261
30
0
41
1
10
41.2176624711609
20
-20.8067868689253
30
0
41
1
10
41.2128795074495
20
-20.8334097995008
30
0
41
1
10
41.2112720051129
20
-20.8414210051536
30
0
41
1
10
41.2095510217075
20
-20.8492386342319
30
0
0
LINE
5
72
100
AcDbEntity
8
1
62
256
6
ByLayer
370
18
48
1
60
0
100
AcDbLine
10
0.3
20
-25
30
0
11
20.920792
21
-25
31
0
39
0
210
0
220
0
230
1
0
LINE
5
74
100
AcDbEntity
8
1
62
256
6
ByLayer
370
18
48
1
60
0
100
AcDbLine
10
20.920792
20
25
30
0
11
0.3
21
25
31
0
39
0
210
0
220
0
230
1
0
LINE
5
75
100
AcDbEntity
8
1
62
256
6
ByLayer
370
18
48
1
60
0
100
AcDbLine
10
0.3
20
25
30
0
11
0
21
24.7
31
0
39
0
210
0
220
0
230
1
0
LINE
5
76
100
AcDbEntity
8
1
62
256
6
ByLayer
370
18
48
1
60
0
100
AcDbLine
10
0
20
-24.7
30
0
11
0.3
21
-25
31
0
39
0
210
0
220
0
230
1
0
LINE
5
77
100
AcDbEntity
8
1
62
256
6
ByLayer
370
18
48
1
60
0
100
AcDbLine
10
20.960985
20
25.15
30
0
11
20.920792
21
25
31
0
39
0
210
0
220
0
230
1
0
LINE
5
78
100
AcDbEntity
8
1
62
256
6
ByLayer
370
18
48
1
60
0
100
AcDbLine
10
20.920792
20
-25
30
0
11
22.496737
21
-30.881507
31
0
39
0
210
0
220
0
230
1
0
LINE
5
79
100
AcDbEntity
8
1
62
256
6
ByLayer
370
18
48
1
60
0
100
AcDbLine
10
21.738816
20
25.15
30
0
11
20.960985
21
25.15
31
0
39
0
210
0
220
0
230
1
0
LINE
5
7A
100
AcDbEntity
8
1
62
256
6
ByLayer
370
18
48
1
60
0
100
AcDbLine
10
8.846327
20
-17.15823
30
0
11
10.25789
21
-17.828142
31
0
39
0
210
0
220
0
230
1
0
LINE
5
7B
100
AcDbEntity
8
1
62
256
6
ByLayer
370
18
48
1
60
0
100
AcDbLine
10
17.235212
20
-21.139501
30
0
11
23.509152
21
-24.117042
31
0
39
0
210
0
220
0
230
1
0
LINE
5
7C
100
AcDbEntity
8
1
62
256
6
ByLayer
370
18
48
1
60
0
100
AcDbLine
10
42.75799
20
-19.636293
30
0
11
42.991888
21
-19.870191
31
0
39
0
210
0
220
0
230
1
0
LINE
5
7D
100
AcDbEntity
8
1
62
256
6
ByLayer
370
18
48
1
60
0
100
AcDbLine
10
41.763433
20
-21.87163
30
0
11
41.529535
21
-21.637733
31
0
39
0
210
0
220
0
230
1
0
LINE
5
7E
100
AcDbEntity
8
1
62
256
6
ByLayer
370
18
48
1
60
0
100
AcDbLine
10
43.418934
20
-21.066842
30
0
11
43.652848
21
-21.300756
31
0
39
0
210
0
220
0
230
1
0
LINE
5
7F
100
AcDbEntity
8
1
62
256
6
ByLayer
370
18
48
1
60
0
100
AcDbLine
10
46.930707
20
-33.31077
30
0
11
47.474718
21
-33.85478
31
0
39
0
210
0
220
0
230
1
0
LINE
5
80
100
AcDbEntity
8
1
62
256
6
ByLayer
370
18
48
1
60
0
100
AcDbLine
10
31.623992
20
-21.987231
30
0
11
32.208395
21
-22.416157
31
0
39
0
210
0
220
0
230
1
0
LINE
5
81
100
AcDbEntity
8
1
62
256
6
ByLayer
370
18
48
1
60
0
100
AcDbLine
10
30.108339
20
-20.704002
30
0
11
31.492595
21
-21.883263
31
0
39
0
210
0
220
0
230
1
0
LINE
5
82
100
AcDbEntity
8
1
62
256
6
ByLayer
370
18
48
1
60
0
100
AcDbLine
10
35.07183
20
-9.705138
30
0
11
29.625543
21
-17.45255
31
0
39
0
210
0
220
0
230
1
0
LINE
5
83
100
AcDbEntity
8
1
62
256
6
ByLayer
370
18
48
1
60
0
100
AcDbLine
10
23.55275
20
-24.115913
30
0
11
23.878852
21
-23.99643
31
0
39
0
210
0
220
0
230
1
0
LINE
5
84
100
AcDbEntity
8
1
62
256
6
ByLayer
370
18
48
1
60
0
100
AcDbLine
10
25.536008
20
-20.504658
30
0
11
25.422362
21
-20.176477
31
0
39
0
210
0
220
0
230
1
0
LINE
5
85
100
AcDbEntity
8
1
62
256
6
ByLayer
370
18
48
1
60
0
100
AcDbLine
10
58.85478
20
-22.474718
30
0
11
58.31077
21
-21.930707
31
0
39
0
210
0
220
0
230
1
0
LINE
5
86
100
AcDbEntity
8
1
62
256
6
ByLayer
370
18
48
1
60
0
100
AcDbLine
10
41.102505
20
-20.441098
30
0
11
41.082359
21
-20.420952
31
0
39
0
210
0
220
0
230
1
0
LINE
5
87
100
AcDbEntity
8
1
62
256
6
ByLayer
370
18
48
1
60
0
100
AcDbLine
10
39.206176
20
-23.35628
30
0
11
39.459136
21
-23.609241
31
0
39
0
210
0
220
0
230
1
0
LINE
5
88
100
AcDbEntity
8
1
62
256
6
ByLayer
370
18
48
1
60
0
100
AcDbLine
10
45.11599
20
-17.952386
30
0
11
44.86303
21
-17.699426
31
0
39
0
210
0
220
0
230
1
0
LINE
5
89
100
AcDbEntity
8
1
62
256
6
ByLayer
370
18
48
1
60
0
100
AcDbLine
10
36.657628
20
-20.113718
30
0
11
36.173101
21
-19.700944
31
0
39
0
210
0
220
0
230
1
0
LINE
5
8A
100
AcDbEntity
8
80
62
256
6
ByLayer
370
18
48
1
60
0
100
AcDbLine
10
0
20
0
30
0
11
-5
21
0
31
0
39
0
210
0
220
0
230
1
0
LINE
5
8B
100
AcDbEntity
8
4
62
256
6
ByLayer
370
18
48
0.05
60
0
100
AcDbLine
10
0
20
0
30
0
11
60
21
0
31
0
39
0
210
0
220
0
230
1
0
LINE
5
8D
100
AcDbEntity
8
81
62
256
6
ByLayer
370
18
48
1
60
0
100
AcDbLine
10
60
20
-35
30
0
11
70
21
-35
31
0
39
0
210
0
220
0
230
1
0
LINE
5
8E
100
AcDbEntity
8
SK4
62
256
6
ByLayer
370
18
48
0.05
60
0
100
AcDbLine
10
-35
20
0
30
0
11
60
21
0
31
0
39
0
210
0
220
0
230
1
0
LINE
5
90
100
AcDbEntity
8
1
62
256
6
ByLayer
370
18
48
1
60
0
100
AcDbLine
10
20.920792
20
-24.488619
30
0
11
20.920792
21
-25
31
0
39
0
210
0
220
0
230
1
0
LINE
5
91
100
AcDbEntity
8
1
62
256
6
ByLayer
370
18
48
1
60
0
100
AcDbLine
10
20.920792
20
25
30
0
11
20.920792
21
24.488619
31
0
39
0
210
0
220
0
230
1
0
LINE
5
92
100
AcDbEntity
8
1
62
256
6
ByLayer
370
18
48
1
60
0
100
AcDbLine
10
0.3
20
0
30
0
11
0.3
21
-25
31
0
39
0
210
0
220
0
230
1
0
LINE
5
93
100
AcDbEntity
8
1
62
256
6
ByLayer
370
18
48
1
60
0
100
AcDbLine
10
0.3
20
25
30
0
11
0.3
21
0
31
0
39
0
210
0
220
0
230
1
0
LINE
5
94
100
AcDbEntity
8
1
62
256
6
ByLayer
370
18
48
1
60
0
100
AcDbLine
10
17.430319
20
-16.363278
30
0
11
17.430319
21
23.455355
31
0
39
0
210
0
220
0
230
1
0
LINE
5
95
100
AcDbEntity
8
1
62
256
6
ByLayer
370
18
48
1
60
0
100
AcDbLine
10
0
20
0
30
0
11
0
21
-24.7
31
0
39
0
210
0
220
0
230
1
0
LINE
5
96
100
AcDbEntity
8
1
62
256
6
ByLayer
370
18
48
1
60
0
100
AcDbLine
10
0
20
24.7
30
0
11
0
21
0
31
0
39
0
210
0
220
0
230
1
0
LINE
5
97
100
AcDbEntity
8
1
62
256
6
ByLayer
370
18
48
1
60
0
100
AcDbLine
10
54.17797
20
-31.521876
30
0
11
53.648687
21
-31.5535
31
0
39
0
210
0
220
0
230
1
0
LINE
5
98
100
AcDbEntity
8
SK1
62
256
6
ByLayer
370
18
48
1
60
0
100
AcDbLine
10
-0.2
20
17.833485
30
0
11
-0.2
21
6.103448
31
0
39
0
210
0
220
0
230
1
0
LINE
5
9A
100
AcDbEntity
8
SK1
62
256
6
ByLayer
370
18
48
1
60
0
100
AcDbLine
10
-0.2
20
-6.103447
30
0
11
-0.2
21
-17.833485
31
0
39
0
210
0
220
0
230
1
0
LINE
5
9B
100
AcDbEntity
8
1
62
256
6
ByLayer
370
18
48
1
60
0
100
AcDbLine
10
21.415098
20
-26.375024
30
0
11
21.415098
21
-23.123105
31
0
39
0
210
0
220
0
230
1
0
LINE
5
9C
100
AcDbEntity
8
1
62
256
6
ByLayer
370
18
48
1
60
0
100
AcDbLine
10
21.415098
20
-18.254395
30
0
11
21.415098
21
24.647972
31
0
39
0
210
0
220
0
230
1
0
LINE
5
9D
100
AcDbEntity
8
1
62
256
6
ByLayer
370
18
48
1
60
0
100
AcDbLine
10
49.550612
20
-30.530121
30
0
11
50.324565
21
-30.73349
31
0
39
0
210
0
220
0
230
1
0
LINE
5
9E
100
AcDbEntity
8
1
62
256
6
ByLayer
370
18
48
1
60
0
100
AcDbLine
10
46.82976
20
-30.175396
30
0
11
47.088123
21
-33.323681
31
0
39
0
210
0
220
0
230
1
0
LINE
5
9F
100
AcDbEntity
8
1
62
256
6
ByLayer
370
18
48
1
60
0
100
AcDbLine
10
33.996025
20
-23.664643
30
0
11
33.002956
21
-25.077295
31
0
39
0
210
0
220
0
230
1
0
LINE
5
A0
100
AcDbEntity
8
1
62
256
6
ByLayer
370
18
48
1
60
0
100
AcDbLine
10
43.35135
20
-10.356576
30
0
11
42.297
21
-11.856403
31
0
39
0
210
0
220
0
230
1
0
LINE
5
A1
100
AcDbEntity
8
1
62
256
6
ByLayer
370
18
48
1
60
0
100
AcDbLine
10
52.905775
20
-21.639589
30
0
11
58.325329
21
-22.108203
31
0
39
0
210
0
220
0
230
1
0
LINE
5
A2
100
AcDbEntity
8
1
62
256
6
ByLayer
370
18
48
1
60
0
100
AcDbLine
10
20.960985
20
25.15
30
0
11
20.960985
21
24.642711
31
0
39
0
210
0
220
0
230
1
0
LINE
5
A3
100
AcDbEntity
8
1
62
256
6
ByLayer
370
18
48
1
60
0
100
AcDbLine
10
47.198754
20
-33.275502
30
0
11
46.946878
21
-30.20626
31
0
39
0
210
0
220
0
230
1
0
LINE
5
A4
100
AcDbEntity
8
1
62
256
6
ByLayer
370
18
48
1
60
0
100
AcDbLine
10
52.991022
20
-21.761891
30
0
11
53.716598
21
-21.82463
31
0
39
0
210
0
220
0
230
1
0
LINE
5
A5
100
AcDbEntity
8
1
62
256
6
ByLayer
370
18
48
1
60
0
100
AcDbLine
10
58.325329
20
-22.108203
30
0
11
58.282785
21
-22.206035
31
0
39
0
210
0
220
0
230
1
0
LINE
5
A6
100
AcDbEntity
8
1
62
256
6
ByLayer
370
18
48
1
60
0
100
AcDbLine
10
56.310054
20
-26.661803
30
0
11
55.94607
21
-26.796048
31
0
39
0
210
0
220
0
230
1
0
LINE
5
A7
100
AcDbEntity
8
1
62
256
6
ByLayer
370
18
48
1
60
0
100
AcDbLine
10
54.536598
20
-24.741853
30
0
11
53.855714
21
-23.708339
31
0
39
0
210
0
220
0
230
1
0
LINE
5
A8
100
AcDbEntity
8
1
62
256
6
ByLayer
370
18
48
1
60
0
100
AcDbLine
10
50.324584
20
-30.733494
30
0
11
49.116647
21
-30.449721
31
0
39
0
210
0
220
0
230
1
0
LINE
5
A9
100
AcDbEntity
8
1
62
256
6
ByLayer
370
18
48
1
60
0
100
AcDbLine
10
52.721742
20
-31.766221
30
0
11
52.742376
21
-31.353342
31
0
39
0
210
0
220
0
230
1
0
LINE
5
AA
100
AcDbEntity
8
1
62
256
6
ByLayer
370
18
48
1
60
0
100
AcDbLine
10
17.252279
20
-16.278947
30
0
11
25.40489
21
-20.148084
31
0
39
0
210
0
220
0
230
1
0
LINE
5
AB
100
AcDbEntity
8
1
62
256
6
ByLayer
370
18
48
1
60
0
100
AcDbLine
10
54.536587
20
-24.741836
30
0
11
54.08
21
-24.087011
31
0
39
0
210
0
220
0
230
1
0
LINE
5
AC
100
AcDbEntity
8
1
62
256
6
ByLayer
370
18
48
1
60
0
100
AcDbLine
10
41.084858
20
-20.423586
30
0
11
41.096133
21
-20.434862
31
0
39
0
210
0
220
0
230
1
0
LINE
5
AD
100
AcDbEntity
8
1
62
256
6
ByLayer
370
18
48
1
60
0
100
AcDbLine
10
56.565156
20
-28.126075
30
0
11
56.439267
21
-27.583866
31
0
39
0
210
0
220
0
230
1
0
LINE
5
AE
100
AcDbEntity
8
1
62
256
6
ByLayer
370
18
48
1
60
0
100
AcDbLine
10
42.143762
20
-19.493313
30
0
11
42.141147
21
-19.493344
31
0
39
0
210
0
220
0
230
1
0
LINE
5
AF
100
AcDbEntity
8
1
62
256
6
ByLayer
370
18
48
1
60
0
100
AcDbLine
10
46.990756
20
-30.217656
30
0
11
47.249175
21
-33.366614
31
0
39
0
210
0
220
0
230
1
0
LINE
5
B0
100
AcDbEntity
8
1
62
256
6
ByLayer
370
18
48
1
60
0
100
AcDbLine
10
58.366614
20
-22.249175
30
0
11
53.024996
21
-21.810817
31
0
39
0
210
0
220
0
230
1
0
LINE
5
B1
100
AcDbEntity
8
1
62
256
6
ByLayer
370
18
48
1
60
0
100
AcDbLine
10
58.295106
20
-22.177666
30
0
11
58.366614
21
-22.249175
31
0
39
0
210
0
220
0
230
1
0
LINE
5
B2
100
AcDbEntity
8
1
62
256
6
ByLayer
370
18
48
1
60
0
100
AcDbLine
10
47.170407
20
-33.287847
30
0
11
47.249175
21
-33.366614
31
0
39
0
210
0
220
0
230
1
0
LINE
5
B3
100
AcDbEntity
8
1
62
256
6
ByLayer
370
18
48
1
60
0
100
AcDbLine
10
26.836228
20
-17.689617
30
0
11
34.61392
21
-7.061037
31
0
39
0
210
0
220
0
230
1
0
LINE
5
B4
100
AcDbEntity
8
1
62
256
6
ByLayer
370
18
48
1
60
0
100
AcDbLine
10
8.105662
20
-18.975321
30
0
11
8.105662
21
-23.666502
31
0
39
0
210
0
220
0
230
1
0
LINE
5
B5
100
AcDbEntity
8
1
62
256
6
ByLayer
370
18
48
1
60
0
100
AcDbLine
10
11.894338
20
-8.055848
30
0
11
11.894338
21
-18.05553
31
0
39
0
210
0
220
0
230
1
0
LINE
5
B6
100
AcDbEntity
8
1
62
256
6
ByLayer
370
18
48
1
60
0
100
AcDbLine
10
11.461325
20
-23.83913
30
0
11
8.538675
21
-23.83913
31
0
39
0
210
0
220
0
230
1
0
LINE
5
B7
100
AcDbEntity
8
1
62
256
6
ByLayer
370
18
48
1
60
0
100
AcDbLine
10
17.430319
20
-23.455355
30
0
11
17.430319
21
-21.338848
31
0
39
0
210
0
220
0
230
1
0
LINE
5
B8
100
AcDbEntity
8
1
62
256
6
ByLayer
370
18
48
1
60
0
100
AcDbLine
10
22.243598
20
24.647972
30
0
11
46.285067
21
-2.585759
31
0
39
0
210
0
220
0
230
1
0
LINE
5
B9
100
AcDbEntity
8
1
62
256
6
ByLayer
370
18
48
1
60
0
100
AcDbLine
10
8.538675
20
-7.529667
30
0
11
8.538675
21
-17.330102
31
0
39
0
210
0
220
0
230
1
0
LINE
5
BA
100
AcDbEntity
8
1
62
256
6
ByLayer
370
18
48
1
60
0
100
AcDbLine
10
33.002956
20
-25.077295
30
0
11
32.411105
21
-24.644195
31
0
39
0
210
0
220
0
230
1
0
LINE
5
BB
100
AcDbEntity
8
1
62
256
6
ByLayer
370
18
48
1
60
0
100
AcDbLine
10
22.243598
20
24.647972
30
0
11
21.415098
21
24.647972
31
0
39
0
210
0
220
0
230
1
0
LINE
5
BC
100
AcDbEntity
8
1
62
256
6
ByLayer
370
18
48
1
60
0
100
AcDbLine
10
8.105662
20
-8.055848
30
0
11
8.105662
21
-18.05553
31
0
39
0
210
0
220
0
230
1
0
LINE
5
BD
100
AcDbEntity
8
1
62
256
6
ByLayer
370
18
48
1
60
0
100
AcDbLine
10
11.461325
20
-19.288031
30
0
11
11.461325
21
-23.83913
31
0
39
0
210
0
220
0
230
1
0
LINE
5
BE
100
AcDbEntity
8
1
62
256
6
ByLayer
370
18
48
1
60
0
100
AcDbLine
10
8.538675
20
-7.529667
30
0
11
11.461325
21
-7.529667
31
0
39
0
210
0
220
0
230
1
0
LINE
5
BF
100
AcDbEntity
8
1
62
256
6
ByLayer
370
18
48
1
60
0
100
AcDbLine
10
8.538675
20
23.83913
30
0
11
11.461325
21
23.83913
31
0
39
0
210
0
220
0
230
1
0
LINE
5
C0
100
AcDbEntity
8
1
62
256
6
ByLayer
370
18
48
1
60
0
100
AcDbLine
10
47.088123
20
-33.323681
30
0
11
47.198754
21
-33.275502
31
0
39
0
210
0
220
0
230
1
0
LINE
5
C1
100
AcDbEntity
8
1
62
256
6
ByLayer
370
18
48
1
60
0
100
AcDbLine
10
47.088123
20
-33.323681
30
0
11
22.699433
21
-31.322232
31
0
39
0
210
0
220
0
230
1
0
LINE
5
C2
100
AcDbEntity
8
1
62
256
6
ByLayer
370
18
48
1
60
0
100
AcDbLine
10
22.078325
20
-26.7925
30
0
11
22.078325
21
-28.928451
31
0
39
0
210
0
220
0
230
1
0
LINE
5
C3
100
AcDbEntity
8
1
62
256
6
ByLayer
370
18
48
1
60
0
100
AcDbLine
10
8.105662
20
23.666502
30
0
11
8.105662
21
8.055848
31
0
39
0
210
0
220
0
230
1
0
LINE
5
C4
100
AcDbEntity
8
1
62
256
6
ByLayer
370
18
48
1
60
0
100
AcDbLine
10
42.934288
20
-5.936537
30
0
11
46.285067
21
-2.585759
31
0
39
0
210
0
220
0
230
1
0
LINE
5
C5
100
AcDbEntity
8
1
62
256
6
ByLayer
370
18
48
1
60
0
100
AcDbLine
10
11.461325
20
7.529667
30
0
11
8.538675
21
7.529667
31
0
39
0
210
0
220
0
230
1
0
LINE
5
C6
100
AcDbEntity
8
1
62
256
6
ByLayer
370
18
48
1
60
0
100
AcDbLine
10
17.306273
20
-15.972901
30
0
11
17.15076
21
-16.85433
31
0
39
0
210
0
220
0
230
1
0
LINE
5
C7
100
AcDbEntity
8
1
62
256
6
ByLayer
370
18
48
1
60
0
100
AcDbLine
10
57.796284
20
-15.661517
30
0
11
58.325329
21
-22.108203
31
0
39
0
210
0
220
0
230
1
0
LINE
5
C8
100
AcDbEntity
8
1
62
256
6
ByLayer
370
18
48
1
60
0
100
AcDbLine
10
8.538675
20
-19.288031
30
0
11
8.538675
21
-23.83913
31
0
39
0
210
0
220
0
230
1
0
LINE
5
C9
100
AcDbEntity
8
1
62
256
6
ByLayer
370
18
48
1
60
0
100
AcDbLine
10
11.894338
20
23.666502
30
0
11
11.894338
21
8.055848
31
0
39
0
210
0
220
0
230
1
0
LINE
5
CA
100
AcDbEntity
8
1
62
256
6
ByLayer
370
18
48
1
60
0
100
AcDbLine
10
11.461325
20
23.83913
30
0
11
11.461325
21
7.529667
31
0
39
0
210
0
220
0
230
1
0
LINE
5
CB
100
AcDbEntity
8
1
62
256
6
ByLayer
370
18
48
1
60
0
100
AcDbLine
10
11.461325
20
-7.529667
30
0
11
11.461325
21
-17.330102
31
0
39
0
210
0
220
0
230
1
0
LINE
5
CC
100
AcDbEntity
8
1
62
256
6
ByLayer
370
18
48
1
60
0
100
AcDbLine
10
43.35135
20
-10.356576
30
0
11
42.759499
21
-9.923476
31
0
39
0
210
0
220
0
230
1
0
LINE
5
CD
100
AcDbEntity
8
1
62
256
6
ByLayer
370
18
48
1
60
0
100
AcDbLine
10
22.078325
20
-26.7925
30
0
11
25.915983
21
-22.954843
31
0
39
0
210
0
220
0
230
1
0
LINE
5
CE
100
AcDbEntity
8
1
62
256
6
ByLayer
370
18
48
1
60
0
100
AcDbLine
10
11.894338
20
-18.975321
30
0
11
11.894338
21
-23.666502
31
0
39
0
210
0
220
0
230
1
0
LINE
5
CF
100
AcDbEntity
8
1
62
256
6
ByLayer
370
18
48
1
60
0
100
AcDbLine
10
57.796284
20
-15.661517
30
0
11
46.285067
21
-2.585759
31
0
39
0
210
0
220
0
230
1
0
LINE
5
D0
100
AcDbEntity
8
1
62
256
6
ByLayer
370
18
48
1
60
0
100
AcDbLine
10
8.538675
20
23.83913
30
0
11
8.538675
21
7.529667
31
0
39
0
210
0
220
0
230
1
0
LINE
5
D1
100
AcDbEntity
8
SK1
62
256
6
ByLayer
370
18
48
1
60
0
100
AcDbLine
10
-1.307107
20
3.918065
30
0
11
-1.307107
21
-3.918065
31
0
39
0
210
0
220
0
230
1
0
LINE
5
D2
100
AcDbEntity
8
1
62
256
6
ByLayer
370
18
48
1
60
0
100
AcDbLine
10
47.962883
20
-34.080323
30
0
11
59.137451
21
-34.99736
31
0
39
0
210
0
220
0
230
1
0
LINE
5
D3
100
AcDbEntity
8
1
62
256
6
ByLayer
370
18
48
1
60
0
100
AcDbLine
10
59.99736
20
-34.137451
30
0
11
59.080323
21
-22.962883
31
0
39
0
210
0
220
0
230
1
0
LINE
5
D4
100
AcDbEntity
8
1
62
256
6
ByLayer
370
18
48
1
60
0
100
AcDbLine
10
34.780747
20
-10.190975
30
0
11
36.043778
21
-11.266964
31
0
39
0
210
0
220
0
230
1
0
LINE
5
D5
100
AcDbEntity
8
1
62
256
6
ByLayer
370
18
48
1
60
0
100
AcDbLine
10
38.707344
20
-13.221908
30
0
11
36.043778
21
-11.266964
31
0
39
0
210
0
220
0
230
1
0
LINE
5
D6
100
AcDbEntity
8
1
62
256
6
ByLayer
370
18
48
1
60
0
100
AcDbLine
10
39.669495
20
-11.088398
30
0
11
47.49377
21
-16.545143
31
0
39
0
210
0
220
0
230
1
0
LINE
5
D7
100
AcDbEntity
8
1
62
256
6
ByLayer
370
18
48
1
60
0
100
AcDbLine
10
33.901089
20
-20.058864
30
0
11
31.237524
21
-18.10392
31
0
39
0
210
0
220
0
230
1
0
LINE
5
D8
100
AcDbEntity
8
1
62
256
6
ByLayer
370
18
48
1
60
0
100
AcDbLine
10
40.746435
20
-24.825764
30
0
11
40.316648
21
-24.459624
31
0
39
0
210
0
220
0
230
1
0
LINE
5
D9
100
AcDbEntity
8
1
62
256
6
ByLayer
370
18
48
1
60
0
100
AcDbLine
10
47.432353
20
-30.333769
30
0
11
41.422403
21
-28.754556
31
0
39
0
210
0
220
0
230
1
0
LINE
5
DA
100
AcDbEntity
8
1
62
256
6
ByLayer
370
18
48
1
60
0
100
AcDbLine
10
35.948698
20
-19.527839
30
0
11
33.932929
21
-18.123384
31
0
39
0
210
0
220
0
230
1
0
LINE
5
DB
100
AcDbEntity
8
1
62
256
6
ByLayer
370
18
48
1
60
0
100
AcDbLine
10
32.312598
20
-22.490648
30
0
11
39.457295
21
-27.473447
31
0
39
0
210
0
220
0
230
1
0
LINE
5
DC
100
AcDbEntity
8
1
62
256
6
ByLayer
370
18
48
1
60
0
100
AcDbLine
10
48.239853
20
-16.092539
30
0
11
49.678121
21
-17.010694
31
0
39
0
210
0
220
0
230
1
0
LINE
5
DD
100
AcDbEntity
8
1
62
256
6
ByLayer
370
18
48
1
60
0
100
AcDbLine
10
29.974493
20
-17.027931
30
0
11
31.237524
21
-18.10392
31
0
39
0
210
0
220
0
230
1
0
LINE
5
DE
100
AcDbEntity
8
1
62
256
6
ByLayer
370
18
48
1
60
0
100
AcDbLine
10
38.656873
20
-23.303202
30
0
11
40.316648
21
-24.459624
31
0
39
0
210
0
220
0
230
1
0
LINE
5
DF
100
AcDbEntity
8
1
62
256
6
ByLayer
370
18
48
1
60
0
100
AcDbLine
10
49.678121
20
-17.010694
30
0
11
53.223645
21
-22.095585
31
0
39
0
210
0
220
0
230
1
0
LINE
5
E0
100
AcDbEntity
8
1
62
256
6
ByLayer
370
18
48
1
60
0
100
AcDbLine
10
40.568316
20
-10.746786
30
0
11
39.950114
21
-10.293052
31
0
39
0
210
0
220
0
230
1
0
LINE
5
E1
100
AcDbEntity
8
1
62
256
6
ByLayer
370
18
48
1
60
0
100
AcDbLine
10
42.454714
20
-11.973001
30
0
11
49.678121
21
-17.010694
31
0
39
0
210
0
220
0
230
1
0
LINE
5
E2
100
AcDbEntity
8
1
62
256
6
ByLayer
370
18
48
1
60
0
100
AcDbLine
10
34.809448
20
-18.766712
30
0
11
33.901089
21
-20.058864
31
0
39
0
210
0
220
0
230
1
0
LINE
5
E3
100
AcDbEntity
8
1
62
256
6
ByLayer
370
18
48
1
60
0
100
AcDbLine
10
47.713014
20
-15.729585
30
0
11
40.568316
21
-10.746786
31
0
39
0
210
0
220
0
230
1
0
LINE
5
E4
100
AcDbEntity
8
1
62
256
6
ByLayer
370
18
48
1
60
0
100
AcDbLine
10
38.623545
20
-9.162935
30
0
11
39.950114
21
-10.293052
31
0
39
0
210
0
220
0
230
1
0
LINE
5
E5
100
AcDbEntity
8
1
62
256
6
ByLayer
370
18
48
1
60
0
100
AcDbLine
10
34.780747
20
-10.190975
30
0
11
29.974493
21
-17.027931
31
0
39
0
210
0
220
0
230
1
0
LINE
5
E6
100
AcDbEntity
8
1
62
256
6
ByLayer
370
18
48
1
60
0
100
AcDbLine
10
36.043778
20
-11.266964
30
0
11
31.237524
21
-18.10392
31
0
39
0
210
0
220
0
230
1
0
LINE
5
E7
100
AcDbEntity
8
1
62
256
6
ByLayer
370
18
48
1
60
0
100
AcDbLine
10
36.412153
20
-19.922661
30
0
11
35.948698
21
-19.527839
31
0
39
0
210
0
220
0
230
1
0
LINE
5
E8
100
AcDbEntity
8
1
62
256
6
ByLayer
370
18
48
1
60
0
100
AcDbLine
10
33.932929
20
-18.123384
30
0
11
34.809448
21
-18.766712
31
0
39
0
210
0
220
0
230
1
0
LINE
5
E9
100
AcDbEntity
8
1
62
256
6
ByLayer
370
18
48
1
60
0
100
AcDbLine
10
32.268097
20
-21.616978
30
0
11
40.092372
21
-27.073723
31
0
39
0
210
0
220
0
230
1
0
LINE
5
EA
100
AcDbEntity
8
1
62
256
6
ByLayer
370
18
48
1
60
0
100
AcDbLine
10
39.079375
20
-23.663136
30
0
11
40.746435
21
-24.825764
31
0
39
0
210
0
220
0
230
1
0
LINE
5
EB
100
AcDbEntity
8
1
62
256
6
ByLayer
370
18
48
1
60
0
100
AcDbLine
10
48.019611
20
-30.097804
30
0
11
49.052056
21
-30.369096
31
0
39
0
210
0
220
0
230
1
0
LINE
5
EC
100
AcDbEntity
8
1
62
256
6
ByLayer
370
18
48
1
60
0
100
AcDbLine
10
39.079375
20
-23.663136
30
0
11
38.656873
21
-23.303202
31
0
39
0
210
0
220
0
230
1
0
LINE
5
ED
100
AcDbEntity
8
1
62
256
6
ByLayer
370
18
48
1
60
0
100
AcDbLine
10
49.052056
20
-30.369096
30
0
11
49.076095
21
-30.37862
31
0
39
0
210
0
220
0
230
1
0
LINE
5
EE
100
AcDbEntity
8
1
62
256
6
ByLayer
370
18
48
1
60
0
100
AcDbLine
10
53.753106
20
-23.681795
30
0
11
53.144023
21
-22.808265
31
0
39
0
210
0
220
0
230
1
0
LINE
5
EF
100
AcDbEntity
8
1
62
256
6
ByLayer
370
18
48
1
60
0
100
AcDbLine
10
33.932929
20
-18.123384
30
0
11
36.922465
21
-13.870732
31
0
39
0
210
0
220
0
230
1
0
LINE
5
F0
100
AcDbEntity
8
1
62
256
6
ByLayer
370
18
48
1
60
0
100
AcDbLine
10
40.565602
20
-10.574992
30
0
11
42.454714
21
-11.973001
31
0
39
0
210
0
220
0
230
1
0
LINE
5
F1
100
AcDbEntity
8
1
62
256
6
ByLayer
370
18
48
1
60
0
100
AcDbLine
10
39.984134
20
-27.836401
30
0
11
41.422403
21
-28.754556
31
0
39
0
210
0
220
0
230
1
0
LINE
5
F2
100
AcDbEntity
8
1
62
256
6
ByLayer
370
18
48
1
60
0
100
AcDbLine
10
53.770789
20
-23.70036
30
0
11
53.753106
21
-23.681795
31
0
39
0
210
0
220
0
230
1
0
LINE
5
F3
100
AcDbEntity
8
1
62
256
6
ByLayer
370
18
48
1
60
0
100
AcDbLine
10
45.518195
20
-18.037877
30
0
11
43.851134
21
-16.875249
31
0
39
0
210
0
220
0
230
1
0
LINE
5
F4
100
AcDbEntity
8
1
62
256
6
ByLayer
370
18
48
1
60
0
100
AcDbLine
10
38.707344
20
-13.221908
30
0
11
37.798984
21
-14.51406
31
0
39
0
210
0
220
0
230
1
0
LINE
5
F5
100
AcDbEntity
8
1
62
256
6
ByLayer
370
18
48
1
60
0
100
AcDbLine
10
36.922465
20
-13.870732
30
0
11
37.798984
21
-14.51406
31
0
39
0
210
0
220
0
230
1
0
LINE
5
F6
100
AcDbEntity
8
1
62
256
6
ByLayer
370
18
48
1
60
0
100
AcDbLine
10
42.394741
20
-21.969087
30
0
11
42.628654
21
-22.203
31
0
39
0
210
0
220
0
230
1
0
LINE
5
F7
100
AcDbEntity
8
1
62
256
6
ByLayer
370
18
48
1
60
0
100
AcDbLine
10
42.636589
20
-19.365979
30
0
11
42.870503
21
-19.599893
31
0
39
0
210
0
220
0
230
1
0
LINE
5
F8
100
AcDbEntity
8
1
62
256
6
ByLayer
370
18
48
1
60
0
100
AcDbLine
10
43.486325
20
-20.416294
30
0
11
43.720239
21
-20.650208
31
0
39
0
210
0
220
0
230
1
0
LINE
5
F9
100
AcDbEntity
8
1
62
256
6
ByLayer
370
18
48
1
60
0
100
AcDbLine
10
42.993499
20
-21.687328
30
0
11
43.227412
21
-21.921242
31
0
39
0
210
0
220
0
230
1
0
LINE
5
FA
100
AcDbEntity
8
1
62
256
6
ByLayer
370
18
48
1
60
0
100
AcDbLine
10
41.113198
20
-21.533022
30
0
11
41.347112
21
-21.766935
31
0
39
0
210
0
220
0
230
1
0
LINE
5
FB
100
AcDbEntity
8
1
62
256
6
ByLayer
370
18
48
1
60
0
100
AcDbLine
10
54.758336
20
-22.877607
30
0
11
54.751962
21
-24.090447
31
0
39
0
210
0
220
0
230
1
0
LINE
5
FC
100
AcDbEntity
8
1
62
256
6
ByLayer
370
18
48
1
60
0
100
AcDbLine
10
50.137739
20
-32.452205
30
0
11
48.721773
21
-31.464693
31
0
39
0
210
0
220
0
230
1
0
LINE
5
FD
100
AcDbEntity
8
1
62
256
6
ByLayer
370
18
48
1
60
0
100
AcDbLine
10
48.412547
20
-30.925687
30
0
11
48.721773
21
-31.464693
31
0
39
0
210
0
220
0
230
1
0
LINE
5
FE
100
AcDbEntity
8
1
62
256
6
ByLayer
370
18
48
1
60
0
100
AcDbLine
10
53.366132
20
-32.376454
30
0
11
50.851053
21
-31.946303
31
0
39
0
210
0
220
0
230
1
0
LINE
5
FF
100
AcDbEntity
8
1
62
256
6
ByLayer
370
18
48
1
60
0
100
AcDbLine
10
57.106173
20
-27.0562
30
0
11
55.840097
21
-24.849326
31
0
39
0
210
0
220
0
230
1
0
LINE
5
100
100
AcDbEntity
8
1
62
256
6
ByLayer
370
18
48
1
60
0
100
AcDbLine
10
50.851053
20
-31.946303
30
0
11
50.137739
21
-32.452205
31
0
39
0
210
0
220
0
230
1
0
LINE
5
101
100
AcDbEntity
8
1
62
256
6
ByLayer
370
18
48
1
60
0
100
AcDbLine
10
54.751962
20
-24.090447
30
0
11
54.598772
21
-24.064248
31
0
39
0
210
0
220
0
230
1
0
LINE
5
102
100
AcDbEntity
8
1
62
256
6
ByLayer
370
18
48
1
60
0
100
AcDbLine
10
55.840097
20
-24.849326
30
0
11
56.174302
21
-23.865119
31
0
39
0
210
0
220
0
230
1
0
LINE
5
103
100
AcDbEntity
8
1
62
256
6
ByLayer
370
18
48
1
60
0
100
AcDbLine
10
54.144055
20
-22.772547
30
0
11
54.758336
21
-22.877607
31
0
39
0
210
0
220
0
230
1
0
LINE
5
104
100
AcDbEntity
8
1
62
256
6
ByLayer
370
18
48
1
60
0
100
AcDbLine
10
53.366132
20
-32.376454
30
0
11
52.850449
21
-32.916155
31
0
39
0
210
0
220
0
230
1
0
LINE
5
105
100
AcDbEntity
8
1
62
256
6
ByLayer
370
18
48
1
60
0
100
AcDbLine
10
55.840097
20
-24.849326
30
0
11
54.751962
21
-24.090447
31
0
39
0
210
0
220
0
230
1
0
LINE
5
106
100
AcDbEntity
8
1
62
256
6
ByLayer
370
18
48
1
60
0
100
AcDbLine
10
54.320889
20
-23.925186
30
0
11
54.598772
21
-24.064248
31
0
39
0
210
0
220
0
230
1
0
LINE
5
107
100
AcDbEntity
8
1
62
256
6
ByLayer
370
18
48
1
60
0
100
AcDbLine
10
54.320889
20
-23.925186
30
0
11
54.144055
21
-22.772547
31
0
39
0
210
0
220
0
230
1
0
LINE
5
108
100
AcDbEntity
8
1
62
256
6
ByLayer
370
18
48
1
60
0
100
AcDbLine
10
49.685803
20
-31.053008
30
0
11
49.467169
21
-30.829662
31
0
39
0
210
0
220
0
230
1
0
LINE
5
109
100
AcDbEntity
8
1
62
256
6
ByLayer
370
18
48
1
60
0
100
AcDbLine
10
52.850449
20
-32.916155
30
0
11
50.137739
21
-32.452205
31
0
39
0
210
0
220
0
230
1
0
LINE
5
10A
100
AcDbEntity
8
1
62
256
6
ByLayer
370
18
48
1
60
0
100
AcDbLine
10
50.851053
20
-31.946303
30
0
11
49.762918
21
-31.187425
31
0
39
0
210
0
220
0
230
1
0
LINE
5
10B
100
AcDbEntity
8
1
62
256
6
ByLayer
370
18
48
1
60
0
100
AcDbLine
10
55.098289
20
-31.900851
30
0
11
55.159451
21
-32.701632
31
0
39
0
210
0
220
0
230
1
0
LINE
5
10C
100
AcDbEntity
8
1
62
256
6
ByLayer
370
18
48
1
60
0
100
AcDbLine
10
57.539864
20
-26.245404
30
0
11
56.174302
21
-23.865119
31
0
39
0
210
0
220
0
230
1
0
LINE
5
10D
100
AcDbEntity
8
1
62
256
6
ByLayer
370
18
48
1
60
0
100
AcDbLine
10
57.106173
20
-27.0562
30
0
11
57.539864
21
-26.245404
31
0
39
0
210
0
220
0
230
1
0
LINE
5
10E
100
AcDbEntity
8
1
62
256
6
ByLayer
370
18
48
1
60
0
100
AcDbLine
10
49.685803
20
-31.053008
30
0
11
52.721742
21
-31.766221
31
0
39
0
210
0
220
0
230
1
0
LINE
5
10F
100
AcDbEntity
8
1
62
256
6
ByLayer
370
18
48
1
60
0
100
AcDbLine
10
56.174302
20
-23.865119
30
0
11
54.758336
21
-22.877607
31
0
39
0
210
0
220
0
230
1
0
LINE
5
110
100
AcDbEntity
8
1
62
256
6
ByLayer
370
18
48
1
60
0
100
AcDbLine
10
49.467169
20
-30.829662
30
0
11
48.412547
21
-30.925687
31
0
39
0
210
0
220
0
230
1
0
LINE
5
111
100
AcDbEntity
8
1
62
256
6
ByLayer
370
18
48
1
60
0
100
AcDbLine
10
57.25807
20
-27.352626
30
0
11
57.249943
21
-28.840097
31
0
39
0
210
0
220
0
230
1
0
LINE
5
112
100
AcDbEntity
8
1
62
256
6
ByLayer
370
18
48
1
60
0
100
AcDbLine
10
49.762918
20
-31.187425
30
0
11
49.685803
21
-31.053008
31
0
39
0
210
0
220
0
230
1
0
LINE
5
113
100
AcDbEntity
8
1
62
256
6
ByLayer
370
18
48
1
60
0
100
AcDbLine
10
53.697745
20
-32.417233
30
0
11
55.098289
21
-31.900851
31
0
39
0
210
0
220
0
230
1
0
LINE
5
114
100
AcDbEntity
8
1
62
256
6
ByLayer
370
18
48
1
60
0
100
AcDbLine
10
57.249943
20
-28.840097
30
0
11
58.127249
21
-28.479903
31
0
39
0
210
0
220
0
230
1
0
LINE
5
115
100
AcDbEntity
8
1
62
256
6
ByLayer
370
18
48
1
60
0
100
AcDbLine
10
49.762918
20
-31.187425
30
0
11
48.721773
21
-31.464693
31
0
39
0
210
0
220
0
230
1
0
LINE
5
116
100
AcDbEntity
8
1
62
256
6
ByLayer
370
18
48
1
60
0
100
AcDbLine
10
54.598772
20
-24.064248
30
0
11
56.310054
21
-26.661803
31
0
39
0
210
0
220
0
230
1
0
MTEXT
5
1F7
100
AcDbEntity
8
SK6
62
256
6
ByLayer
370
18
48
1
60
0
100
AcDbMText
10
-1.625
20
34.2
30
0
210
0
220
0
230
1
1
\W0.7258;C5-CCLNL-35060-12-4
40
3.5
41
0
44
1.084337
50
0
71
7
72
5
7
iso_b_vert
0
DIMENSION
5
208
100
AcDbEntity
8
2
62
256
6
ByLayer
370
13
48
1
60
0
100
AcDbDimension
2
DimnDraft3D1
10
60
20
-33.4125
30
0
11
47.554118
21
-46.53416
31
0
70
34
71
5
72
1
41
1
210
0
220
0
230
1
3
Standard
100
AcDb2LineAngularDimension
13
47.181534
23
-34.015864
33
0
14
59.141329
24
-34.997341
34
0
15
60
25
-35
35
0
16
44.244568
26
-49.583239
36
0
40
0
0
DIMENSION
5
21D
100
AcDbEntity
8
2
62
256
6
ByLayer
370
13
48
1
60
0
100
AcDbDimension
2
DimnDraft3D2
10
60
20
-62.25
30
0
11
24.718421
21
-62.25
31
0
70
32
71
5
72
1
41
1
210
0
220
0
230
1
3
Standard
100
AcDbAlignedDimension
13
0
23
-27
33
0
14
60
24
-37
34
0
50
0
100
AcDbRotatedDimension
1001
ACAD
1000
DSTYLE
1002
{
1070
   279
1070
     0
1070
   172
1070
     1
1070
   173
1070
     1
1070
   340
1005
1F8
1070
    77
1070
     1
1070
    73
1070
     0
1070
   171
1070
     3
1070
   274
1070
     4
1070
   177
1070
     2
1070
   176
1070
     2
1070
   178
1070
     7
1070
    78
1070
     8
1070
    41
1041
3.175
1070
   147
1041
2.25
1070
    42
1041
2.0
1070
    44
1041
2.0
1070
   140
1041
4.5
1070
   343
1005
209
1070
   344
1005
209
1002
}
0
DIMENSION
5
22C
100
AcDbEntity
8
SK2
62
256
6
ByLayer
370
13
48
1
60
0
100
AcDbDimension
2
DimnDraft3D3
10
-37.75
20
25
30
0
11
-37.75
21
-2.688158
31
0
70
32
71
5
72
1
41
1
210
0
220
0
230
1
3
Standard
100
AcDbAlignedDimension
13
-2
23
-25
33
0
14
-2
24
25
34
0
50
90
100
AcDbRotatedDimension
1001
ACAD
1000
DSTYLE
1002
{
1070
    74
1070
     0
1070
   279
1070
     0
1070
   172
1070
     1
1070
   173
1070
     1
1070
   340
1005
1F8
1070
    77
1070
     1
1070
    73
1070
     0
1070
   171
1070
     3
1070
   274
1070
     4
1070
   177
1070
     2
1070
   176
1070
     2
1070
   178
1070
     7
1070
    78
1070
     8
1070
    41
1041
3.175
1070
   147
1041
2.25
1070
    42
1041
2.0
1070
    44
1041
2.0
1070
   140
1041
4.5
1070
   343
1005
209
1070
   344
1005
209
1002
}
0
DIMENSION
5
23A
100
AcDbEntity
8
2
62
256
6
ByLayer
370
13
48
1
60
0
100
AcDbDimension
2
DimnDraft3D4
10
82.25
20
-35
30
0
11
82.25
21
-22.781579
31
0
70
32
71
5
72
1
41
1
210
0
220
0
230
1
3
Standard
100
AcDbAlignedDimension
13
62
23
0
33
0
14
62
24
-35
34
0
50
90
100
AcDbRotatedDimension
1001
ACAD
1000
DSTYLE
1002
{
1070
    74
1070
     0
1070
   279
1070
     0
1070
   172
1070
     1
1070
   173
1070
     1
1070
   340
1005
1F8
1070
    77
1070
     1
1070
    73
1070
     0
1070
   171
1070
     3
1070
   274
1070
     4
1070
   177
1070
     2
1070
   176
1070
     2
1070
   178
1070
     7
1070
    78
1070
     8
1070
    41
1041
3.175
1070
   147
1041
2.25
1070
    42
1041
2.0
1070
    44
1041
2.0
1070
   140
1041
4.5
1070
   343
1005
209
1070
   344
1005
209
1002
}
0
ENDSEC
0
SECTION
2
OBJECTS
0
DICTIONARY
5
2a5
330
0
100
AcDbDictionary
280
0
281
1
3
ACAD_GROUP
350
2a6
3
ACAD_MLINESTYLE
350
2a7
0
DICTIONARY
5
2a6
330
0
100
AcDbDictionary
280
0
281
1
0
DICTIONARY
5
2a7
330
0
100
AcDbDictionary
280
0
281
1
3
Standard
350
18
0
MLINESTYLE
5
18
330
2a7
100
AcDbMlineStyle
2
Standard
70
0
3

62
256
51
90
52
90
71
2
49
-0.5
62
256
6
ByLayer
49
0.5
62
256
6
ByLayer
0
RASTERVARIABLES
5
293
330

100
AcDbRasterVariables
90
0
70
1
71
1
72
1
0
ENDSEC
0
EOF
