0
SECTION
2
HEADER
9
$ACADVER
1
AC1015
9
$DWGCODEPAGE
3
ANSI_1252
9
$HANDSEED
5
1e0
9
$ANGBASE
50
0
9
$ANGDIR
70
0
9
$ATTMODE
70
1
9
$AUNITS
70
0
9
$AUPREC
70
0
9
$CECOLOR
62
256
9
$CELTSCALE
40
1
9
$CELTYPE
6
ByLayer
9
$CELWEIGHT
370
18
9
$CLAYER
8
0
9
$CMLJUST
70
0
9
$CMLSCALE
40
1
9
$CMLSTYLE
2
Standard
9
$DIMSTYLE
2
Standard
9
$TEXTSIZE
40
0.2
9
$TEXTSTYLE
7
Standard
9
$LUNITS
70
2
9
$LUPREC
70
4
9
$EXTNAMES
290
1
9
$INSUNITS
70
4
9
$LTSCALE
40
1
9
$LWDISPLAY
290
1
9
$PDMODE
70
0
9
$PDSIZE
40
0
9
$PLINEGEN
70
0
0
ENDSEC
0
SECTION
2
CLASSES
0
CLASS
1
RASTERVARIABLES
2
AcDbRasterVariables
3
ISM
90
0
280
0
281
0
0
ENDSEC
0
SECTION
2
TABLES
0
TABLE
2
VPORT
5
1d6
100
AcDbSymbolTable
0
VPORT
5
1
100
AcDbSymbolTableRecord
100
AcDbViewportTableRecord
2
*Active
70
0
10
0
20
0
11
1
21
1
12
-1
22
1
13
0
23
0
14
0.5
24
0.5
15
10
25
10
16
0
26
0
36
1
17
0
27
0
37
0
0
ENDTAB
0
TABLE
2
LTYPE
5
1d7
100
AcDbSymbolTable
0
LTYPE
5
14
100
AcDbSymbolTableRecord
100
AcDbLinetypeTableRecord
70
0
2
ByBlock
3

72
65
73
0
40
0
0
LTYPE
5
15
100
AcDbSymbolTableRecord
100
AcDbLinetypeTableRecord
70
0
2
ByLayer
3

72
65
73
0
40
0
0
LTYPE
5
16
100
AcDbSymbolTableRecord
100
AcDbLinetypeTableRecord
70
0
2
CONTINUOUS
3
Solid line
72
65
73
0
40
0
0
LTYPE
5
6A
100
AcDbSymbolTableRecord
100
AcDbLinetypeTableRecord
70
0
2
CENTER
3
____ _ ____ _ ____ _ ____
72
65
73
4
40
47.5
49
22
74
0
49
-8.5
74
0
49
8.5
74
0
49
-8.5
74
0
0
LTYPE
5
6B
100
AcDbSymbolTableRecord
100
AcDbLinetypeTableRecord
70
0
2
DASHED
3
__ __ __ __ __ __ __ __ __
72
65
73
2
40
25.72
49
12.86
74
0
49
-12.86
74
0
0
ENDTAB
0
TABLE
2
LAYER
5
1d8
100
AcDbSymbolTable
0
LAYER
5
10
100
AcDbSymbolTableRecord
100
AcDbLayerTableRecord
2
0
70
0
62
7
6
CONTINUOUS
290
1
370
-3
390
0
0
LAYER
5
6D
100
AcDbSymbolTableRecord
100
AcDbLayerTableRecord
2
81
70
0
62
-3
6
CONTINUOUS
290
1
370
-3
390
0
0
LAYER
5
6F
100
AcDbSymbolTableRecord
100
AcDbLayerTableRecord
2
80
70
0
62
-6
6
CONTINUOUS
290
1
370
-3
390
0
0
LAYER
5
71
100
AcDbSymbolTableRecord
100
AcDbLayerTableRecord
2
1
70
0
62
4
6
CONTINUOUS
290
1
370
-3
390
0
0
LAYER
5
C3
100
AcDbSymbolTableRecord
100
AcDbLayerTableRecord
2
4
70
0
62
-2
6
CENTER
290
1
370
-3
390
0
0
LAYER
5
131
100
AcDbSymbolTableRecord
100
AcDbLayerTableRecord
2
2
70
0
62
7
6
CONTINUOUS
290
1
370
-3
390
0
0
LAYER
5
1c1
100
AcDbSymbolTableRecord
100
AcDbLayerTableRecord
2
SK3
70
0
62
1
6
DASHED
290
1
370
-3
390
0
0
LAYER
5
1c2
100
AcDbSymbolTableRecord
100
AcDbLayerTableRecord
2
SK1
70
0
62
4
6
CONTINUOUS
290
1
370
-3
390
0
0
LAYER
5
1c3
100
AcDbSymbolTableRecord
100
AcDbLayerTableRecord
2
SK4
70
0
62
2
6
CENTER
290
1
370
-3
390
0
0
LAYER
5
1c4
100
AcDbSymbolTableRecord
100
AcDbLayerTableRecord
2
SK6
70
0
62
5
6
CONTINUOUS
290
1
370
-3
390
0
0
LAYER
5
1c5
100
AcDbSymbolTableRecord
100
AcDbLayerTableRecord
2
SK2
70
0
62
7
6
CONTINUOUS
290
1
370
-3
390
0
0
ENDTAB
0
TABLE
2
STYLE
5
1d9
100
AcDbSymbolTable
0
STYLE
5
11
100
AcDbSymbolTableRecord
100
AcDbTextStyleTableRecord
2
Standard
3
txt
70
0
71
0
40
0
41
1
42
0
50
0
0
STYLE
5
100
100
AcDbSymbolTableRecord
100
AcDbTextStyleTableRecord
2
iso_b_vert
3
simplex.shx
70
0
71
0
40
0
41
1
42
0
50
0
0
STYLE
5
101
100
AcDbSymbolTableRecord
100
AcDbTextStyleTableRecord
2
DWGDirectTextStyle
3
simplex
70
0
71
0
40
0
41
1
42
0
50
0
0
ENDTAB
0
TABLE
2
DIMSTYLE
5
1da
100
AcDbSymbolTable
100
AcDbDimStyleTable
0
DIMSTYLE
105
27
100
AcDbSymbolTableRecord
100
AcDbDimStyleTableRecord
2
Standard
70
0
3
<>
41
0.18
42
0.0625
44
0.18
140
0.18
147
0.09
73
0
74
0
77
1
271
2
275
0
278
52
280
0
340
11
0
ENDTAB
0
TABLE
2
VIEW
5
1db
100
AcDbSymbolTable
0
ENDTAB
0
TABLE
2
UCS
5
1dc
100
AcDbSymbolTable
0
ENDTAB
0
TABLE
2
APPID
5
1dd
100
AcDbSymbolTable
0
APPID
5
12
100
AcDbSymbolTableRecord
100
AcDbRegAppTableRecord
2
ACAD
70
0
0
ENDTAB
0
TABLE
2
BLOCK_RECORD
5
1de
100
AcDbSymbolTable
0
BLOCK_RECORD
5
1F
100
AcDbSymbolTableRecord
100
AcDbBlockTableRecord
2
*Model_Space
340
0
70
0
0
BLOCK_RECORD
5
1B
100
AcDbSymbolTableRecord
100
AcDbBlockTableRecord
2
*Paper_Space
340
0
70
0
0
BLOCK_RECORD
5
23
100
AcDbSymbolTableRecord
100
AcDbBlockTableRecord
2
*Paper_Space0
340
0
70
0
0
BLOCK_RECORD
5
103
100
AcDbSymbolTableRecord
100
AcDbBlockTableRecord
2
DimnDraft3D1
340
0
70
0
0
BLOCK_RECORD
5
113
100
AcDbSymbolTableRecord
100
AcDbBlockTableRecord
2
DimnDraft3D2
340
0
70
0
0
BLOCK_RECORD
5
121
100
AcDbSymbolTableRecord
100
AcDbBlockTableRecord
2
DimnDraft3D3
340
0
70
0
0
BLOCK_RECORD
5
12F
100
AcDbSymbolTableRecord
100
AcDbBlockTableRecord
2
DimnDraft3D4
340
0
70
0
0
BLOCK_RECORD
5
13E
100
AcDbSymbolTableRecord
100
AcDbBlockTableRecord
2
DimnDraft3D5
340
0
70
0
0
BLOCK_RECORD
5
14C
100
AcDbSymbolTableRecord
100
AcDbBlockTableRecord
2
DimnDraft3D6
340
0
70
0
0
BLOCK_RECORD
5
15A
100
AcDbSymbolTableRecord
100
AcDbBlockTableRecord
2
DimnDraft3D7
340
0
70
0
0
ENDTAB
0
ENDSEC
0
SECTION
2
BLOCKS
0
BLOCK
5
20
100
AcDbEntity
8
0
100
AcDbBlockBegin
2
*Model_Space
70
0
10
0
20
0
30
0
3
*Model_Space
0
ENDBLK
5
21
100
AcDbEntity
8
0
100
AcDbBlockEnd
0
BLOCK
5
1C
100
AcDbEntity
8
0
100
AcDbBlockBegin
2
*Paper_Space
70
0
10
0
20
0
30
0
3
*Paper_Space
0
ENDBLK
5
1D
100
AcDbEntity
8
0
100
AcDbBlockEnd
0
BLOCK
5
24
100
AcDbEntity
8
0
100
AcDbBlockBegin
2
*Paper_Space0
70
0
10
0
20
0
30
0
3
*Paper_Space0
0
ENDBLK
5
25
100
AcDbEntity
8
0
100
AcDbBlockEnd
0
BLOCK
5
110
100
AcDbEntity
8
0
100
AcDbBlockBegin
2
DimnDraft3D1
70
0
10
0
20
0
30
0
3
DimnDraft3D1
0
MTEXT
5
104
100
AcDbEntity
8
SK2
62
256
6
ByLayer
370
18
48
1
60
0
100
AcDbMText
10
-42.198478
20
3.457895
30
0
210
0
220
0
230
1
1
\W0.6740;50
40
3
41
0
44
1.084337
50
90
71
7
72
5
7
iso_b_vert
0
MTEXT
5
106
100
AcDbEntity
8
SK2
62
256
6
ByLayer
370
18
48
1
60
0
100
AcDbMText
10
-42.198478
20
-4.018668
30
0
210
0
220
0
230
1
1
%%c
40
3
41
0
44
1.084337
50
90
71
7
72
5
7
iso_b_vert
0
LINE
5
107
100
AcDbEntity
8
SK2
62
256
6
ByLayer
370
13
48
1
60
0
100
AcDbLine
10
-1.7
20
25
30
0
11
-42.698478
21
25
31
0
39
0
210
0
220
0
230
1
0
LINE
5
108
100
AcDbEntity
8
SK2
62
256
6
ByLayer
370
13
48
1
60
0
100
AcDbLine
10
-1.7
20
-25
30
0
11
-42.698478
21
-25
31
0
39
0
210
0
220
0
230
1
0
LINE
5
109
100
AcDbEntity
8
SK2
62
256
6
ByLayer
370
13
48
1
60
0
100
AcDbLine
10
-40.698478
20
25
30
0
11
-40.698478
21
-25
31
0
39
0
210
0
220
0
230
1
0
LINE
5
10A
100
AcDbEntity
8
SK2
62
256
6
ByLayer
370
13
48
1
60
0
100
AcDbLine
10
-40.698478
20
25
30
0
11
-40.280481
21
21.825002
31
0
39
0
210
0
220
0
230
1
0
LINE
5
10B
100
AcDbEntity
8
SK2
62
256
6
ByLayer
370
13
48
1
60
0
100
AcDbLine
10
-40.698478
20
25
30
0
11
-41.116474
21
21.824998
31
0
39
0
210
0
220
0
230
1
0
LINE
5
10C
100
AcDbEntity
8
SK2
62
256
6
ByLayer
370
13
48
1
60
0
100
AcDbLine
10
-40.280481
20
21.825002
30
0
11
-41.116474
21
21.824998
31
0
39
0
210
0
220
0
230
1
0
LINE
5
10D
100
AcDbEntity
8
SK2
62
256
6
ByLayer
370
13
48
1
60
0
100
AcDbLine
10
-40.698478
20
-25
30
0
11
-41.116474
21
-21.825002
31
0
39
0
210
0
220
0
230
1
0
LINE
5
10E
100
AcDbEntity
8
SK2
62
256
6
ByLayer
370
13
48
1
60
0
100
AcDbLine
10
-40.698478
20
-25
30
0
11
-40.280481
21
-21.824998
31
0
39
0
210
0
220
0
230
1
0
LINE
5
10F
100
AcDbEntity
8
SK2
62
256
6
ByLayer
370
13
48
1
60
0
100
AcDbLine
10
-41.116474
20
-21.825002
30
0
11
-40.280481
21
-21.824998
31
0
39
0
210
0
220
0
230
1
0
ENDBLK
5
111
100
AcDbEntity
8
0
100
AcDbBlockEnd
0
BLOCK
5
11E
100
AcDbEntity
8
0
100
AcDbBlockBegin
2
DimnDraft3D2
70
0
10
0
20
0
30
0
3
DimnDraft3D2
0
MTEXT
5
114
100
AcDbEntity
8
SK2
62
256
6
ByLayer
370
18
48
1
60
0
100
AcDbMText
10
8.957895
20
44.473059
30
0
210
0
220
0
230
1
1
\W0.6740;20
40
3
41
0
44
1.084337
50
0
71
7
72
5
7
iso_b_vert
0
LINE
5
115
100
AcDbEntity
8
SK2
62
256
6
ByLayer
370
13
48
1
60
0
100
AcDbLine
10
0
20
26.7
30
0
11
0
21
45.723059
31
0
39
0
210
0
220
0
230
1
0
LINE
5
116
100
AcDbEntity
8
SK2
62
256
6
ByLayer
370
13
48
1
60
0
100
AcDbLine
10
20
20
35
30
0
11
20
21
45.723059
31
0
39
0
210
0
220
0
230
1
0
LINE
5
117
100
AcDbEntity
8
SK2
62
256
6
ByLayer
370
13
48
1
60
0
100
AcDbLine
10
0
20
43.723059
30
0
11
20
21
43.723059
31
0
39
0
210
0
220
0
230
1
0
LINE
5
118
100
AcDbEntity
8
SK2
62
256
6
ByLayer
370
13
48
1
60
0
100
AcDbLine
10
0
20
43.723059
30
0
11
3.174998
21
44.141056
31
0
39
0
210
0
220
0
230
1
0
LINE
5
119
100
AcDbEntity
8
SK2
62
256
6
ByLayer
370
13
48
1
60
0
100
AcDbLine
10
0
20
43.723059
30
0
11
3.175002
21
43.305062
31
0
39
0
210
0
220
0
230
1
0
LINE
5
11A
100
AcDbEntity
8
SK2
62
256
6
ByLayer
370
13
48
1
60
0
100
AcDbLine
10
3.174998
20
44.141056
30
0
11
3.175002
21
43.305062
31
0
39
0
210
0
220
0
230
1
0
LINE
5
11B
100
AcDbEntity
8
SK2
62
256
6
ByLayer
370
13
48
1
60
0
100
AcDbLine
10
20
20
43.723059
30
0
11
16.825002
21
43.305062
31
0
39
0
210
0
220
0
230
1
0
LINE
5
11C
100
AcDbEntity
8
SK2
62
256
6
ByLayer
370
13
48
1
60
0
100
AcDbLine
10
20
20
43.723059
30
0
11
16.824998
21
44.141056
31
0
39
0
210
0
220
0
230
1
0
LINE
5
11D
100
AcDbEntity
8
SK2
62
256
6
ByLayer
370
13
48
1
60
0
100
AcDbLine
10
16.825002
20
43.305062
30
0
11
16.824998
21
44.141056
31
0
39
0
210
0
220
0
230
1
0
ENDBLK
5
11F
100
AcDbEntity
8
0
100
AcDbBlockEnd
0
BLOCK
5
12C
100
AcDbEntity
8
0
100
AcDbBlockBegin
2
DimnDraft3D3
70
0
10
0
20
0
30
0
3
DimnDraft3D3
0
MTEXT
5
122
100
AcDbEntity
8
SK2
62
256
6
ByLayer
370
18
48
1
60
0
100
AcDbMText
10
11.957895
20
54.54633
30
0
210
0
220
0
230
1
1
\W0.6740;26
40
3
41
0
44
1.084337
50
0
71
7
72
5
7
iso_b_vert
0
LINE
5
123
100
AcDbEntity
8
SK2
62
256
6
ByLayer
370
13
48
1
60
0
100
AcDbLine
10
0
20
26.7
30
0
11
0
21
55.79633
31
0
39
0
210
0
220
0
230
1
0
LINE
5
124
100
AcDbEntity
8
SK2
62
256
6
ByLayer
370
13
48
1
60
0
100
AcDbLine
10
26
20
38
30
0
11
26
21
55.79633
31
0
39
0
210
0
220
0
230
1
0
LINE
5
125
100
AcDbEntity
8
SK2
62
256
6
ByLayer
370
13
48
1
60
0
100
AcDbLine
10
0
20
53.79633
30
0
11
26
21
53.79633
31
0
39
0
210
0
220
0
230
1
0
LINE
5
126
100
AcDbEntity
8
SK2
62
256
6
ByLayer
370
13
48
1
60
0
100
AcDbLine
10
0
20
53.79633
30
0
11
3.174998
21
54.214327
31
0
39
0
210
0
220
0
230
1
0
LINE
5
127
100
AcDbEntity
8
SK2
62
256
6
ByLayer
370
13
48
1
60
0
100
AcDbLine
10
0
20
53.79633
30
0
11
3.175002
21
53.378334
31
0
39
0
210
0
220
0
230
1
0
LINE
5
128
100
AcDbEntity
8
SK2
62
256
6
ByLayer
370
13
48
1
60
0
100
AcDbLine
10
3.174998
20
54.214327
30
0
11
3.175002
21
53.378334
31
0
39
0
210
0
220
0
230
1
0
LINE
5
129
100
AcDbEntity
8
SK2
62
256
6
ByLayer
370
13
48
1
60
0
100
AcDbLine
10
26
20
53.79633
30
0
11
22.825002
21
53.378334
31
0
39
0
210
0
220
0
230
1
0
LINE
5
12A
100
AcDbEntity
8
SK2
62
256
6
ByLayer
370
13
48
1
60
0
100
AcDbLine
10
26
20
53.79633
30
0
11
22.824998
21
54.214327
31
0
39
0
210
0
220
0
230
1
0
LINE
5
12B
100
AcDbEntity
8
SK2
62
256
6
ByLayer
370
13
48
1
60
0
100
AcDbLine
10
22.825002
20
53.378334
30
0
11
22.824998
21
54.214327
31
0
39
0
210
0
220
0
230
1
0
ENDBLK
5
12D
100
AcDbEntity
8
0
100
AcDbBlockEnd
0
BLOCK
5
13B
100
AcDbEntity
8
0
100
AcDbBlockBegin
2
DimnDraft3D4
70
0
10
0
20
0
30
0
3
DimnDraft3D4
0
MTEXT
5
130
100
AcDbEntity
8
2
62
256
6
ByLayer
370
18
48
1
60
0
100
AcDbMText
10
59.711842
20
66.371475
30
0
210
0
220
0
230
1
1
\W0.6217;123
40
3
41
0
44
1.084337
50
0
71
7
72
5
7
iso_b_vert
0
LINE
5
132
100
AcDbEntity
8
2
62
256
6
ByLayer
370
13
48
1
60
0
100
AcDbLine
10
0
20
26.7
30
0
11
0
21
67.621475
31
0
39
0
210
0
220
0
230
1
0
LINE
5
133
100
AcDbEntity
8
2
62
256
6
ByLayer
370
13
48
1
60
0
100
AcDbLine
10
123
20
37
30
0
11
123
21
67.621475
31
0
39
0
210
0
220
0
230
1
0
LINE
5
134
100
AcDbEntity
8
2
62
256
6
ByLayer
370
13
48
1
60
0
100
AcDbLine
10
0
20
65.621475
30
0
11
123
21
65.621475
31
0
39
0
210
0
220
0
230
1
0
LINE
5
135
100
AcDbEntity
8
2
62
256
6
ByLayer
370
13
48
1
60
0
100
AcDbLine
10
0
20
65.621475
30
0
11
3.174998
21
66.039471
31
0
39
0
210
0
220
0
230
1
0
LINE
5
136
100
AcDbEntity
8
2
62
256
6
ByLayer
370
13
48
1
60
0
100
AcDbLine
10
0
20
65.621475
30
0
11
3.175002
21
65.203478
31
0
39
0
210
0
220
0
230
1
0
LINE
5
137
100
AcDbEntity
8
2
62
256
6
ByLayer
370
13
48
1
60
0
100
AcDbLine
10
3.174998
20
66.039471
30
0
11
3.175002
21
65.203478
31
0
39
0
210
0
220
0
230
1
0
LINE
5
138
100
AcDbEntity
8
2
62
256
6
ByLayer
370
13
48
1
60
0
100
AcDbLine
10
123
20
65.621475
30
0
11
119.825002
21
65.203478
31
0
39
0
210
0
220
0
230
1
0
LINE
5
139
100
AcDbEntity
8
2
62
256
6
ByLayer
370
13
48
1
60
0
100
AcDbLine
10
123
20
65.621475
30
0
11
119.824998
21
66.039471
31
0
39
0
210
0
220
0
230
1
0
LINE
5
13A
100
AcDbEntity
8
2
62
256
6
ByLayer
370
13
48
1
60
0
100
AcDbLine
10
119.825002
20
65.203478
30
0
11
119.824998
21
66.039471
31
0
39
0
210
0
220
0
230
1
0
ENDBLK
5
13C
100
AcDbEntity
8
0
100
AcDbBlockEnd
0
BLOCK
5
149
100
AcDbEntity
8
0
100
AcDbBlockBegin
2
DimnDraft3D5
70
0
10
0
20
0
30
0
3
DimnDraft3D5
0
MTEXT
5
13F
100
AcDbEntity
8
SK2
62
256
6
ByLayer
370
18
48
1
60
0
100
AcDbMText
10
142.228833
20
7.332895
30
0
210
0
220
0
230
1
1
\W0.5321;16
40
3
41
0
44
1.084337
50
90
71
7
72
5
7
iso_b_vert
0
LINE
5
140
100
AcDbEntity
8
SK2
62
256
6
ByLayer
370
13
48
1
60
0
100
AcDbLine
10
131.045209
20
0
30
0
11
144.978833
21
0
31
0
39
0
210
0
220
0
230
1
0
LINE
5
141
100
AcDbEntity
8
SK2
62
256
6
ByLayer
370
13
48
1
60
0
100
AcDbLine
10
125
20
16
30
0
11
144.978833
21
16
31
0
39
0
210
0
220
0
230
1
0
LINE
5
142
100
AcDbEntity
8
SK2
62
256
6
ByLayer
370
13
48
1
60
0
100
AcDbLine
10
142.978833
20
0
30
0
11
142.978833
21
16
31
0
39
0
210
0
220
0
230
1
0
LINE
5
143
100
AcDbEntity
8
SK2
62
256
6
ByLayer
370
13
48
1
60
0
100
AcDbLine
10
142.978833
20
0
30
0
11
142.560837
21
3.174998
31
0
39
0
210
0
220
0
230
1
0
LINE
5
144
100
AcDbEntity
8
SK2
62
256
6
ByLayer
370
13
48
1
60
0
100
AcDbLine
10
142.978833
20
0
30
0
11
143.39683
21
3.175002
31
0
39
0
210
0
220
0
230
1
0
LINE
5
145
100
AcDbEntity
8
SK2
62
256
6
ByLayer
370
13
48
1
60
0
100
AcDbLine
10
142.560837
20
3.174998
30
0
11
143.39683
21
3.175002
31
0
39
0
210
0
220
0
230
1
0
LINE
5
146
100
AcDbEntity
8
SK2
62
256
6
ByLayer
370
13
48
1
60
0
100
AcDbLine
10
142.978833
20
16
30
0
11
143.39683
21
12.825002
31
0
39
0
210
0
220
0
230
1
0
LINE
5
147
100
AcDbEntity
8
SK2
62
256
6
ByLayer
370
13
48
1
60
0
100
AcDbLine
10
142.978833
20
16
30
0
11
142.560837
21
12.824998
31
0
39
0
210
0
220
0
230
1
0
LINE
5
148
100
AcDbEntity
8
SK2
62
256
6
ByLayer
370
13
48
1
60
0
100
AcDbLine
10
143.39683
20
12.825002
30
0
11
142.560837
21
12.824998
31
0
39
0
210
0
220
0
230
1
0
ENDBLK
5
14A
100
AcDbEntity
8
0
100
AcDbBlockEnd
0
BLOCK
5
157
100
AcDbEntity
8
0
100
AcDbBlockBegin
2
DimnDraft3D6
70
0
10
0
20
0
30
0
3
DimnDraft3D6
0
MTEXT
5
14D
100
AcDbEntity
8
SK2
62
256
6
ByLayer
370
18
48
1
60
0
100
AcDbMText
10
155.264471
20
16.957895
30
0
210
0
220
0
230
1
1
\W0.6740;36
40
3
41
0
44
1.084337
50
90
71
7
72
5
7
iso_b_vert
0
LINE
5
14E
100
AcDbEntity
8
SK2
62
256
6
ByLayer
370
13
48
1
60
0
100
AcDbLine
10
122
20
36
30
0
11
158.014471
21
36
31
0
39
0
210
0
220
0
230
1
0
LINE
5
14F
100
AcDbEntity
8
SK2
62
256
6
ByLayer
370
13
48
1
60
0
100
AcDbLine
10
131.045209
20
0
30
0
11
158.014471
21
0
31
0
39
0
210
0
220
0
230
1
0
LINE
5
150
100
AcDbEntity
8
SK2
62
256
6
ByLayer
370
13
48
1
60
0
100
AcDbLine
10
156.014471
20
36
30
0
11
156.014471
21
0
31
0
39
0
210
0
220
0
230
1
0
LINE
5
151
100
AcDbEntity
8
SK2
62
256
6
ByLayer
370
13
48
1
60
0
100
AcDbLine
10
156.014471
20
36
30
0
11
156.432468
21
32.825002
31
0
39
0
210
0
220
0
230
1
0
LINE
5
152
100
AcDbEntity
8
SK2
62
256
6
ByLayer
370
13
48
1
60
0
100
AcDbLine
10
156.014471
20
36
30
0
11
155.596474
21
32.824998
31
0
39
0
210
0
220
0
230
1
0
LINE
5
153
100
AcDbEntity
8
SK2
62
256
6
ByLayer
370
13
48
1
60
0
100
AcDbLine
10
156.432468
20
32.825002
30
0
11
155.596474
21
32.824998
31
0
39
0
210
0
220
0
230
1
0
LINE
5
154
100
AcDbEntity
8
SK2
62
256
6
ByLayer
370
13
48
1
60
0
100
AcDbLine
10
156.014471
20
0
30
0
11
155.596474
21
3.174998
31
0
39
0
210
0
220
0
230
1
0
LINE
5
155
100
AcDbEntity
8
SK2
62
256
6
ByLayer
370
13
48
1
60
0
100
AcDbLine
10
156.014471
20
0
30
0
11
156.432468
21
3.175002
31
0
39
0
210
0
220
0
230
1
0
LINE
5
156
100
AcDbEntity
8
SK2
62
256
6
ByLayer
370
13
48
1
60
0
100
AcDbLine
10
155.596474
20
3.174998
30
0
11
156.432468
21
3.175002
31
0
39
0
210
0
220
0
230
1
0
ENDBLK
5
158
100
AcDbEntity
8
0
100
AcDbBlockEnd
0
BLOCK
5
165
100
AcDbEntity
8
0
100
AcDbBlockBegin
2
DimnDraft3D7
70
0
10
0
20
0
30
0
3
DimnDraft3D7
0
MTEXT
5
15B
100
AcDbEntity
8
SK2
62
256
6
ByLayer
370
18
48
1
60
0
100
AcDbMText
10
155.264471
20
-23.7
30
0
210
0
220
0
230
1
1
\W0.7361;45
40
3
41
0
44
1.084337
50
90
71
7
72
5
7
iso_b_vert
0
LINE
5
15C
100
AcDbEntity
8
SK2
62
256
6
ByLayer
370
13
48
1
60
0
100
AcDbLine
10
131.045209
20
0
30
0
11
158.014471
21
0
31
0
39
0
210
0
220
0
230
1
0
LINE
5
15D
100
AcDbEntity
8
SK2
62
256
6
ByLayer
370
13
48
1
60
0
100
AcDbLine
10
122
20
-45
30
0
11
158.014471
21
-45
31
0
39
0
210
0
220
0
230
1
0
LINE
5
15E
100
AcDbEntity
8
SK2
62
256
6
ByLayer
370
13
48
1
60
0
100
AcDbLine
10
156.014471
20
0
30
0
11
156.014471
21
-45
31
0
39
0
210
0
220
0
230
1
0
LINE
5
15F
100
AcDbEntity
8
SK2
62
256
6
ByLayer
370
13
48
1
60
0
100
AcDbLine
10
156.014471
20
0
30
0
11
156.432468
21
-3.174998
31
0
39
0
210
0
220
0
230
1
0
LINE
5
160
100
AcDbEntity
8
SK2
62
256
6
ByLayer
370
13
48
1
60
0
100
AcDbLine
10
156.014471
20
0
30
0
11
155.596474
21
-3.175002
31
0
39
0
210
0
220
0
230
1
0
LINE
5
161
100
AcDbEntity
8
SK2
62
256
6
ByLayer
370
13
48
1
60
0
100
AcDbLine
10
156.432468
20
-3.174998
30
0
11
155.596474
21
-3.175002
31
0
39
0
210
0
220
0
230
1
0
LINE
5
162
100
AcDbEntity
8
SK2
62
256
6
ByLayer
370
13
48
1
60
0
100
AcDbLine
10
156.014471
20
-45
30
0
11
155.596474
21
-41.825002
31
0
39
0
210
0
220
0
230
1
0
LINE
5
163
100
AcDbEntity
8
SK2
62
256
6
ByLayer
370
13
48
1
60
0
100
AcDbLine
10
156.014471
20
-45
30
0
11
156.432468
21
-41.824998
31
0
39
0
210
0
220
0
230
1
0
LINE
5
164
100
AcDbEntity
8
SK2
62
256
6
ByLayer
370
13
48
1
60
0
100
AcDbLine
10
155.596474
20
-41.825002
30
0
11
156.432468
21
-41.824998
31
0
39
0
210
0
220
0
230
1
0
ENDBLK
5
166
100
AcDbEntity
8
0
100
AcDbBlockEnd
0
ENDSEC
0
SECTION
2
ENTITIES
0
ARC
5
C5
100
AcDbEntity
8
SK1
62
256
6
ByLayer
370
18
48
1
60
0
100
AcDbCircle
39
0
10
-0.6
20
-18.75
30
0
40
1
210
0
220
0
230
1
100
AcDbArc
50
53.129154
51
66.421822
0
ARC
5
C6
100
AcDbEntity
8
SK1
62
256
6
ByLayer
370
18
48
1
60
0
100
AcDbCircle
39
0
10
-0.6
20
18.75
30
0
40
1
210
0
220
0
230
1
100
AcDbArc
50
293.578178
51
306.870846
0
ARC
5
C7
100
AcDbEntity
8
1
62
256
6
ByLayer
370
13
48
1
60
0
100
AcDbCircle
39
0
10
82
20
25
30
0
40
6
210
0
220
0
230
1
100
AcDbArc
50
285
51
195
0
ARC
5
C8
100
AcDbEntity
8
1
62
256
6
ByLayer
370
13
48
1
60
0
100
AcDbCircle
39
0
10
113
20
25
30
0
40
6
210
0
220
0
230
1
100
AcDbArc
50
285
51
195
0
ARC
5
C9
100
AcDbEntity
8
1
62
256
6
ByLayer
370
13
48
1
60
0
100
AcDbCircle
39
0
10
51
20
25
30
0
40
6
210
0
220
0
230
1
100
AcDbArc
50
285
51
195
0
CIRCLE
5
CA
100
AcDbEntity
8
1
62
256
6
ByLayer
370
18
48
1
60
0
100
AcDbCircle
10
113
20
25
30
0
40
5.2896
39
0
210
0
220
0
230
1
0
CIRCLE
5
CB
100
AcDbEntity
8
1
62
256
6
ByLayer
370
18
48
1
60
0
100
AcDbCircle
10
82
20
25
30
0
40
5.2896
39
0
210
0
220
0
230
1
0
CIRCLE
5
CC
100
AcDbEntity
8
1
62
256
6
ByLayer
370
18
48
1
60
0
100
AcDbCircle
10
51
20
25
30
0
40
5.2896
39
0
210
0
220
0
230
1
0
ELLIPSE
5
CD
100
AcDbEntity
8
1
62
256
6
ByLayer
370
18
48
1
60
0
100
AcDbEllipse
10
29.5
20
-7.566987
30
0
11
5.00000000000001
21
-5.66549845232301E-15
31
0
210
-6.12303176911189E-17
220
6.12303176911189E-17
230
1
40
0.866025
41
-0.304692654015395
42
2.34619382340565
0
ELLIPSE
5
CE
100
AcDbEntity
8
1
62
256
6
ByLayer
370
18
48
1
60
0
100
AcDbEllipse
10
29.5
20
-17.566987
30
0
11
5.00000000000001
21
-5.66549845232301E-15
31
0
210
-6.12303176911189E-17
220
6.12303176911189E-17
230
1
40
0.866025
41
2.34619382340565
42
-0.523598775598299
0
ELLIPSE
5
CF
100
AcDbEntity
8
1
62
256
6
ByLayer
370
18
48
1
60
0
100
AcDbEllipse
10
29.5
20
-3.710581
30
0
11
5.00000000000001
21
-5.66549845232301E-15
31
0
210
-6.12303176911189E-17
220
6.12303176911189E-17
230
1
40
0.866025
41
0.775397496610755
42
-2.34619382340565
0
ELLIPSE
5
D0
100
AcDbEntity
8
1
62
256
6
ByLayer
370
18
48
1
60
0
100
AcDbEllipse
10
113
20
-14.232051
30
0
11
5.2896
21
-5.99364412268155E-15
31
0
210
-6.12303176911189E-17
220
6.12303176911189E-17
230
1
40
0.5
41
0
42
6.28318530717959
0
ELLIPSE
5
D1
100
AcDbEntity
8
1
62
256
6
ByLayer
370
18
48
1
60
0
100
AcDbEllipse
10
82
20
-14.232051
30
0
11
5.2896
21
-5.99364412268155E-15
31
0
210
-6.12303176911189E-17
220
6.12303176911189E-17
230
1
40
0.5
41
0
42
6.28318530717959
0
ELLIPSE
5
D2
100
AcDbEntity
8
1
62
256
6
ByLayer
370
18
48
1
60
0
100
AcDbEllipse
10
51
20
-14.232051
30
0
11
5.2896
21
-5.99364412268155E-15
31
0
210
-6.12303176911189E-17
220
6.12303176911189E-17
230
1
40
0.5
41
0
42
6.28318530717959
0
ELLIPSE
5
D3
100
AcDbEntity
8
1
62
256
6
ByLayer
370
18
48
1
60
0
100
AcDbEllipse
10
29.5
20
-6.816987
30
0
11
-1.25463254194236E-15
21
-6.83012702014414
31
0
210
-6.12303176911189E-17
220
6.12303176911189E-17
230
1
40
0.732051
41
1.04719755126915
42
1.26610367280802
0
ELLIPSE
5
D4
100
AcDbEntity
8
1
62
256
6
ByLayer
370
18
48
1
60
0
100
AcDbEllipse
10
29.5
20
-7.066987
30
0
11
5.00000000000001
21
-5.66549845232301E-15
31
0
210
-6.12303176911189E-17
220
6.12303176911189E-17
230
1
40
0.866025
41
-2.34627883837924
42
-0.0578249397799384
0
ELLIPSE
5
D5
100
AcDbEntity
8
1
62
256
6
ByLayer
370
18
48
1
60
0
100
AcDbEllipse
10
21.056258
20
0
30
0
11
11.7092723497385
21
-24.6771864409518
31
0
210
-6.12303176911189E-17
220
6.12303176911189E-17
230
1
40
0.341999
41
-2.97437958168088
42
-2.05975995310095
0
ELLIPSE
5
D6
100
AcDbEntity
8
1
62
256
6
ByLayer
370
18
48
1
60
0
100
AcDbEllipse
10
-1.056258
20
0
30
0
11
11.7092723497219
21
24.6771864409307
31
0
210
-6.12303176911189E-17
220
6.12303176911189E-17
230
1
40
0.341999
41
-1.08183270048948
42
-0.167213071909013
0
ELLIPSE
5
D7
100
AcDbEntity
8
1
62
256
6
ByLayer
370
18
48
1
60
0
100
AcDbEllipse
10
21.056258
20
0
30
0
11
11.7092723497378
21
24.6771864409508
31
0
210
-6.12303176911189E-17
220
6.12303176911189E-17
230
1
40
0.341999
41
2.05975995310092
42
2.97437958168088
0
ELLIPSE
5
D8
100
AcDbEntity
8
1
62
256
6
ByLayer
370
18
48
1
60
0
100
AcDbEllipse
10
-1.056258
20
0
30
0
11
11.7092723497225
21
-24.6771864409315
31
0
210
-6.12303176911189E-17
220
6.12303176911189E-17
230
1
40
0.341999
41
0.167213071909007
42
1.08183270048946
0
POINT
5
6C
100
AcDbEntity
8
81
62
256
6
ByLayer
370
18
48
0.05
60
0
100
AcDbPoint
10
123
20
26
30
0
39
0
210
0
220
0
230
1
50
360
0
POINT
5
6E
100
AcDbEntity
8
80
62
256
6
ByLayer
370
18
48
0.05
60
0
100
AcDbPoint
10
0
20
0
30
0
39
0
210
0
220
0
230
1
50
360
0
SPLINE
5
D9
100
AcDbEntity
8
SK1
62
256
6
ByLayer
370
18
48
1
60
0
100
AcDbSpline
70
4
71
2
72
6
73
3
40
0
40
0
40
0
40
1
40
1
40
1
41
1
10
-2.19492113517956
20
-17.5202263833814
30
-3.6E-15
41
1
10
-2.59746056758979
20
-17.510113191717
30
-3.6E-15
41
1
10
-3
20
-17.5000000000527
30
-3.6E-15
0
SPLINE
5
DA
100
AcDbEntity
8
SK1
62
256
6
ByLayer
370
18
48
1
60
0
100
AcDbSpline
70
4
71
2
72
6
73
3
40
0
40
0
40
0
40
1
40
1
40
1
41
1
10
-3.00000000000006
20
17.5000000000204
30
-3.6E-15
41
1
10
-2.59746056758979
20
17.5101131916847
30
-3.6E-15
41
1
10
-2.19492113517956
20
17.5202263833491
30
-3.6E-15
0
SPLINE
5
DB
100
AcDbEntity
8
SK1
62
256
6
ByLayer
370
18
48
1
60
0
100
AcDbSpline
70
4
71
2
72
6
73
3
40
0
40
0
40
0
40
1
40
1
40
1
41
1
10
-3
20
-17.5000000000527
30
-3.6E-15
41
1
10
-15.7502365839533
20
-17.1796696772131
30
-3.6E-15
41
1
10
-28.5004731679065
20
-16.8593393543736
30
-3.6E-15
0
SPLINE
5
DC
100
AcDbEntity
8
SK1
62
256
6
ByLayer
370
18
48
1
60
0
100
AcDbSpline
70
4
71
2
72
6
73
3
40
0
40
0
40
0
40
1
40
1
40
1
41
1
10
-28.5004731679065
20
16.8593393543424
30
-3.6E-15
41
1
10
-15.7502365839533
20
17.1796696771814
30
-3.6E-15
41
1
10
-3.00000000000006
20
17.5000000000204
30
-3.6E-15
0
SPLINE
5
DD
100
AcDbEntity
8
SK1
62
256
6
ByLayer
370
18
48
1
60
0
100
AcDbSpline
70
4
71
3
72
17
73
13
40
0
40
0
40
0
40
0
40
0.368066162904695
40
0.698744768848034
40
0.919722265352178
40
0.979040159475576
40
0.99439017844
40
0.998356071656495
40
0.999426919618036
40
0.999758362149591
40
0.999886078306792
40
1
40
1
40
1
40
1
41
1
10
-2.04830088301202
20
17.2644932075008
30
-3.6E-15
41
1
10
-2.04438218086534
20
17.2802830963956
30
-3.6E-15
41
1
10
-2.03675145152158
20
17.3041165675853
30
-3.6E-15
41
1
10
-2.02517063259336
20
17.3210063123014
30
-3.6E-15
41
1
10
-2.01559323582097
20
17.3250016516456
30
-3.6E-15
41
1
10
-2.00768901554534
20
17.3252327684529
30
-3.6E-15
41
1
10
-2.00380516667911
20
17.3251785507293
30
-3.6E-15
41
1
10
-2.00187788566851
20
17.3251575881422
30
-3.6E-15
41
1
10
-2.00091336052134
20
17.3251518978023
30
-3.6E-15
41
1
10
-2.00042649118467
20
17.325150525806
30
-3.6E-15
41
1
10
-2.0001757619728
20
17.3251501921912
30
-3.6E-15
41
1
10
-2.00005827015008
20
17.3251501462653
30
-3.6E-15
41
1
10
-2
20
17.3251501414068
30
-3.6E-15
0
SPLINE
5
DE
100
AcDbEntity
8
SK1
62
256
6
ByLayer
370
18
48
1
60
0
100
AcDbSpline
70
4
71
3
72
16
73
12
40
0
40
0
40
0
40
0
40
0.0001148047638781
40
0.0002449984363871
40
0.0005889295839191
40
0.0017176163399294
40
0.0059264113142994
40
0.0222525459666092
40
0.0853902290336682
40
0.449345236363576
40
1
40
1
40
1
40
1
41
1
10
-2.00000000000003
20
-17.3251501409626
30
-3.6E-15
41
1
10
-2.0000585185424
20
-17.3251501462379
30
-3.6E-15
41
1
10
-2.00017678047186
20
-17.3251501923338
30
-3.6E-15
41
1
10
-2.00042916024083
20
-17.325150530211
30
-3.6E-15
41
1
10
-2.0009168124358
20
-17.3251519117344
30
-3.6E-15
41
1
10
-2.0018794148553
20
-17.3251575865835
30
-3.6E-15
41
1
10
-2.00380742037208
20
-17.3251782293045
30
-3.6E-15
41
1
10
-2.00769039691656
20
-17.3252273730752
30
-3.6E-15
41
1
10
-2.01876784861673
20
-17.32479574079
30
-3.6E-15
41
1
10
-2.03068723815068
20
-17.3153118188663
30
-3.6E-15
41
1
10
-2.04071074693292
20
-17.2882496883118
30
-3.6E-15
41
1
10
-2.04640160271816
20
-17.2648076706366
30
-3.6E-15
0
SPLINE
5
DF
100
AcDbEntity
8
SK1
62
256
6
ByLayer
370
18
48
1
60
0
100
AcDbSpline
70
4
71
2
72
6
73
3
40
0
40
0
40
0
40
1
40
1
40
1
41
1
10
-0.400000000000034
20
-17.3251501409625
30
-3.6E-15
41
1
10
-1.20000000000002
20
-17.3251501409625
30
-3.6E-15
41
1
10
-2
20
-17.3251501409625
30
-3.6E-15
0
SPLINE
5
E0
100
AcDbEntity
8
SK1
62
256
6
ByLayer
370
18
48
1
60
0
100
AcDbSpline
70
4
71
2
72
6
73
3
40
0
40
0
40
0
40
1
40
1
40
1
41
1
10
-2
20
17.3251501414068
30
-3.6E-15
41
1
10
-1.19999999999999
20
17.3251501414067
30
-3.6E-15
41
1
10
-0.400000000000034
20
17.3251501414068
30
-3.6E-15
0
SPLINE
5
E1
100
AcDbEntity
8
SK1
62
256
6
ByLayer
370
18
48
1
60
0
100
AcDbSpline
70
4
71
2
72
6
73
3
40
0
40
0
40
0
40
1
40
1
40
1
41
1
10
-28.5003904504267
20
-16.8597456617469
30
-3.6E-15
41
1
10
-29.2501952787077
20
-16.4010253845872
30
-3.6E-15
41
1
10
-30.0000000000001
20
-15.9423013487186
30
-3.6E-15
0
SPLINE
5
E2
100
AcDbEntity
8
SK1
62
256
6
ByLayer
370
18
48
1
60
0
100
AcDbSpline
70
4
71
2
72
6
73
3
40
0
40
0
40
0
40
1
40
1
40
1
41
1
10
-30
20
15.9408160639395
30
-3.6E-15
41
1
10
-29.2502016135251
20
16.3993636736336
30
-3.6E-15
41
1
10
-28.5004032853135
20
16.8579102610954
30
-3.6E-15
0
SPLINE
5
E3
100
AcDbEntity
8
SK1
62
256
6
ByLayer
370
18
48
1
60
0
100
AcDbSpline
70
4
71
3
72
11
73
7
40
0
40
0
40
0
40
0
40
0.245755007744082
40
0.501794198211013
40
0.756953870258491
40
1
40
1
40
1
40
1
41
1
10
-0.200000000000046
20
-17.5191731511753
30
-3.6E-15
41
1
10
-0.199994647676419
20
-17.493844966999
30
-3.6E-15
41
1
10
-0.209350242264463
20
-17.445622853432
30
-3.6E-15
41
1
10
-0.254178184246655
20
-17.3766360753192
30
-3.6E-15
41
1
10
-0.324420736760828
20
-17.33275982811
30
-3.6E-15
41
1
10
-0.373991067023724
20
-17.3239685556464
30
-3.6E-15
41
1
10
-0.400000000000034
20
-17.3241476526065
30
-3.6E-15
0
SPLINE
5
E4
100
AcDbEntity
8
SK1
62
256
6
ByLayer
370
18
48
1
60
0
100
AcDbSpline
70
4
71
3
72
11
73
7
40
0
40
0
40
0
40
0
40
0.243046950855158
40
0.49820466819248
40
0.754242469704497
40
1
40
1
40
1
40
1
41
1
10
-0.400000000000006
20
17.3241468641747
30
-3.6E-15
41
1
10
-0.373991174653781
20
17.3239674893689
30
-3.6E-15
41
1
10
-0.32442120264767
20
17.332758304075
30
-3.6E-15
41
1
10
-0.254178044541106
20
17.376633929413
30
-3.6E-15
41
1
10
-0.209350044376095
20
17.4456203921355
30
-3.6E-15
41
1
10
-0.199994500672233
20
17.4938412312524
30
-3.6E-15
41
1
10
-0.200000000000046
20
17.5191688355706
30
-3.6E-15
0
SPLINE
5
E5
100
AcDbEntity
8
1
62
256
6
ByLayer
370
18
48
1
60
0
100
AcDbSpline
70
4
71
3
72
24
73
20
40
0
40
0
40
0
40
0
40
0.0625
40
0.0625
40
0.125
40
0.125
40
0.25
40
0.25
40
0.375
40
0.375
40
0.5
40
0.5
40
0.625
40
0.625
40
0.75
40
0.75
40
0.875
40
0.875
40
1
40
1
40
1
40
1
41
1
10
114.2213525108
20
31.6385840391127
30
-3.6E-15
41
1
10
115.12162934382
20
31.47295303046
30
-3.6E-15
41
1
10
115.947595768231
20
31.1297323205129
30
-3.6E-15
41
1
10
117.354447887727
20
30.2250093518674
30
-3.6E-15
41
1
10
117.926369669303
20
29.6790037830607
30
-3.6E-15
41
1
10
119.323860935652
20
27.8231296372316
30
-3.6E-15
41
1
10
119.794226749819
20
26.3384312398873
30
-3.6E-15
41
1
10
119.699427511253
20
23.2476911421399
30
-3.6E-15
41
1
10
119.088086538111
20
21.6097583855115
30
-3.6E-15
41
1
10
116.705378478839
20
19.0984149392984
30
-3.6E-15
41
1
10
114.891774798538
20
18.2520473570351
30
-3.6E-15
41
1
10
111.122863770326
20
18.2479605795487
30
-3.6E-15
41
1
10
109.320200747299
20
19.0789062096371
30
-3.6E-15
41
1
10
106.913564165115
20
21.600651085534
30
-3.6E-15
41
1
10
106.301381855318
20
23.2328794694228
30
-3.6E-15
41
1
10
106.205058379183
20
26.3501734657192
30
-3.6E-15
41
1
10
106.684175674413
20
27.8325496955068
30
-3.6E-15
41
1
10
108.527438660812
20
30.2829129991319
30
-3.6E-15
41
1
10
109.970236095111
20
31.3058763737858
30
-3.6E-15
41
1
10
111.7786474892
20
31.6385840391127
30
-3.6E-15
0
SPLINE
5
E6
100
AcDbEntity
8
1
62
256
6
ByLayer
370
18
48
1
60
0
100
AcDbSpline
70
4
71
3
72
24
73
20
40
0
40
0
40
0
40
0
40
0.0625
40
0.0625
40
0.125
40
0.125
40
0.25
40
0.25
40
0.375
40
0.375
40
0.5
40
0.5
40
0.625
40
0.625
40
0.75
40
0.75
40
0.875
40
0.875
40
1
40
1
40
1
40
1
41
1
10
83.2213525108001
20
31.6385840391127
30
-3.6E-15
41
1
10
84.1216293438203
20
31.47295303046
30
-3.6E-15
41
1
10
84.947595768231
20
31.1297323205129
30
-3.6E-15
41
1
10
86.3544478877272
20
30.2250093518674
30
-3.6E-15
41
1
10
86.9263696693027
20
29.6790037830607
30
-3.6E-15
41
1
10
88.3238609356521
20
27.8231296372316
30
-3.6E-15
41
1
10
88.7942267498192
20
26.3384312398873
30
-3.6E-15
41
1
10
88.6994275112527
20
23.2476911421399
30
-3.6E-15
41
1
10
88.0880865381111
20
21.6097583855115
30
-3.6E-15
41
1
10
85.7053784788391
20
19.0984149392985
30
-3.6E-15
41
1
10
83.8917747985384
20
18.2520473570351
30
-3.6E-15
41
1
10
80.1228637703263
20
18.2479605795487
30
-3.6E-15
41
1
10
78.3202007472989
20
19.0789062096371
30
-3.6E-15
41
1
10
75.9135641651149
20
21.600651085534
30
-3.6E-15
41
1
10
75.301381855318
20
23.2328794694228
30
-3.6E-15
41
1
10
75.2050583791825
20
26.3501734657192
30
-3.6E-15
41
1
10
75.6841756744127
20
27.8325496955068
30
-3.6E-15
41
1
10
77.5274386608121
20
30.2829129991319
30
-3.6E-15
41
1
10
78.9702360951109
20
31.3058763737858
30
-3.6E-15
41
1
10
80.7786474892
20
31.6385840391127
30
-3.6E-15
0
SPLINE
5
E7
100
AcDbEntity
8
1
62
256
6
ByLayer
370
18
48
1
60
0
100
AcDbSpline
70
4
71
3
72
24
73
20
40
0
40
0
40
0
40
0
40
0.0624999999999997
40
0.0624999999999997
40
0.124999999999999
40
0.124999999999999
40
0.25
40
0.25
40
0.375
40
0.375
40
0.5
40
0.5
40
0.625
40
0.625
40
0.75
40
0.75
40
0.875
40
0.875
40
1
40
1
40
1
40
1
41
1
10
52.2213525108001
20
31.6385840391127
30
-3.6E-15
41
1
10
53.1216293438203
20
31.47295303046
30
-3.6E-15
41
1
10
53.947595768231
20
31.1297323205129
30
-3.6E-15
41
1
10
55.3544478877272
20
30.2250093518674
30
-3.6E-15
41
1
10
55.9263696693027
20
29.6790037830607
30
-3.6E-15
41
1
10
57.3238609356521
20
27.8231296372316
30
-3.6E-15
41
1
10
57.7942267498192
20
26.3384312398873
30
-3.6E-15
41
1
10
57.6994275112526
20
23.2476911421399
30
-3.6E-15
41
1
10
57.0880865381111
20
21.6097583855115
30
-3.6E-15
41
1
10
54.705378478839
20
19.0984149392984
30
-3.6E-15
41
1
10
52.8917747985384
20
18.2520473570351
30
-3.6E-15
41
1
10
49.1228637703263
20
18.2479605795487
30
-3.6E-15
41
1
10
47.3202007472988
20
19.0789062096371
30
-3.6E-15
41
1
10
44.9135641651149
20
21.600651085534
30
-3.6E-15
41
1
10
44.301381855318
20
23.2328794694228
30
-3.6E-15
41
1
10
44.2050583791826
20
26.3501734657192
30
-3.6E-15
41
1
10
44.6841756744128
20
27.8325496955068
30
-3.6E-15
41
1
10
46.5274386608121
20
30.2829129991319
30
-3.6E-15
41
1
10
47.9702360951109
20
31.3058763737858
30
-3.6E-15
41
1
10
49.7786474891999
20
31.6385840391127
30
-3.6E-15
0
SPLINE
5
E8
100
AcDbEntity
8
1
62
256
6
ByLayer
370
18
48
1
60
0
100
AcDbSpline
70
4
71
3
72
24
73
20
40
0
40
0
40
0
40
0
40
0.0625
40
0.0625
40
0.125
40
0.125
40
0.25
40
0.25
40
0.375
40
0.375
40
0.5
40
0.5
40
0.625
40
0.625
40
0.75
40
0.75
40
0.875
40
0.875
40
1
40
1
40
1
40
1
41
1
10
114.2213525108
20
-43.5321049406584
30
-3.6E-15
41
1
10
115.12162934382
20
-43.5911100429679
30
-3.6E-15
41
1
10
115.947595768231
20
-43.7116519686625
30
-3.6E-15
41
1
10
117.354447887727
20
-43.9893697129148
30
-3.6E-15
41
1
10
117.926369669303
20
-44.1415479667251
30
-3.6E-15
41
1
10
119.323860935652
20
-44.5730146592298
30
-3.6E-15
41
1
10
119.794226749819
20
-44.8083857671846
30
-3.6E-15
41
1
10
119.699427511253
20
-45.030139142185
30
-3.6E-15
41
1
10
119.088086538111
20
-45.0101484998531
30
-3.6E-15
41
1
10
116.705378478839
20
-44.8574869744053
30
-3.6E-15
41
1
10
114.891774798538
20
-44.7476053279257
30
-3.6E-15
41
1
10
111.122863770326
20
-44.7471322385206
30
-3.6E-15
41
1
10
109.320200747299
20
-44.8558090009228
30
-3.6E-15
41
1
10
106.913564165115
20
-45.0100813867972
30
-3.6E-15
41
1
10
106.301381855318
20
-45.0311226021282
30
-3.6E-15
41
1
10
106.205058379183
20
-44.8076224548889
30
-3.6E-15
41
1
10
106.684175674413
20
-44.5706842203649
30
-3.6E-15
41
1
10
108.527438660812
20
-44.0012869930659
30
-3.6E-15
41
1
10
109.970236095111
20
-43.6506301491411
30
-3.6E-15
41
1
10
111.7786474892
20
-43.5321049406584
30
-3.6E-15
0
SPLINE
5
E9
100
AcDbEntity
8
1
62
256
6
ByLayer
370
18
48
1
60
0
100
AcDbSpline
70
4
71
3
72
24
73
20
40
0
40
0
40
0
40
0
40
0.0625000000000002
40
0.0625000000000002
40
0.125
40
0.125
40
0.25
40
0.25
40
0.375
40
0.375
40
0.5
40
0.5
40
0.625
40
0.625
40
0.75
40
0.75
40
0.875
40
0.875
40
1
40
1
40
1
40
1
41
1
10
83.2213525108
20
-43.5321049406584
30
-3.6E-15
41
1
10
84.1216293438203
20
-43.5911100429679
30
-3.6E-15
41
1
10
84.947595768231
20
-43.7116519686625
30
-3.6E-15
41
1
10
86.3544478877272
20
-43.9893697129148
30
-3.6E-15
41
1
10
86.9263696693027
20
-44.1415479667251
30
-3.6E-15
41
1
10
88.3238609356521
20
-44.5730146592298
30
-3.6E-15
41
1
10
88.7942267498192
20
-44.8083857671846
30
-3.6E-15
41
1
10
88.6994275112527
20
-45.030139142185
30
-3.6E-15
41
1
10
88.0880865381111
20
-45.0101484998531
30
-3.6E-15
41
1
10
85.7053784788391
20
-44.8574869744053
30
-3.6E-15
41
1
10
83.8917747985384
20
-44.7476053279257
30
-3.6E-15
41
1
10
80.1228637703263
20
-44.7471322385206
30
-3.6E-15
41
1
10
78.3202007472989
20
-44.8558090009228
30
-3.6E-15
41
1
10
75.9135641651149
20
-45.0100813867972
30
-3.6E-15
41
1
10
75.301381855318
20
-45.0311226021282
30
-3.6E-15
41
1
10
75.2050583791825
20
-44.8076224548889
30
-3.6E-15
41
1
10
75.6841756744127
20
-44.5706842203649
30
-3.6E-15
41
1
10
77.5274386608121
20
-44.0012869930659
30
-3.6E-15
41
1
10
78.9702360951109
20
-43.6506301491411
30
-3.6E-15
41
1
10
80.7786474892
20
-43.5321049406584
30
-3.6E-15
0
SPLINE
5
EA
100
AcDbEntity
8
1
62
256
6
ByLayer
370
18
48
1
60
0
100
AcDbSpline
70
4
71
3
72
24
73
20
40
0
40
0
40
0
40
0
40
0.0625000000000001
40
0.0625000000000001
40
0.125
40
0.125
40
0.25
40
0.25
40
0.375
40
0.375
40
0.5
40
0.5
40
0.625
40
0.625
40
0.75
40
0.75
40
0.875
40
0.875
40
1
40
1
40
1
40
1
41
1
10
52.2213525108
20
-43.5321049406584
30
-3.6E-15
41
1
10
53.1216293438203
20
-43.5911100429679
30
-3.6E-15
41
1
10
53.947595768231
20
-43.7116519686625
30
-3.6E-15
41
1
10
55.3544478877272
20
-43.9893697129148
30
-3.6E-15
41
1
10
55.9263696693027
20
-44.1415479667251
30
-3.6E-15
41
1
10
57.323860935652
20
-44.5730146592298
30
-3.6E-15
41
1
10
57.7942267498192
20
-44.8083857671846
30
-3.6E-15
41
1
10
57.6994275112527
20
-45.030139142185
30
-3.6E-15
41
1
10
57.0880865381111
20
-45.0101484998531
30
-3.6E-15
41
1
10
54.7053784788391
20
-44.8574869744053
30
-3.6E-15
41
1
10
52.8917747985384
20
-44.7476053279257
30
-3.6E-15
41
1
10
49.1228637703263
20
-44.7471322385206
30
-3.6E-15
41
1
10
47.3202007472988
20
-44.8558090009228
30
-3.6E-15
41
1
10
44.9135641651149
20
-45.0100813867972
30
-3.6E-15
41
1
10
44.301381855318
20
-45.0311226021282
30
-3.6E-15
41
1
10
44.2050583791826
20
-44.8076224548889
30
-3.6E-15
41
1
10
44.6841756744127
20
-44.5706842203649
30
-3.6E-15
41
1
10
46.5274386608121
20
-44.0012869930659
30
-3.6E-15
41
1
10
47.970236095111
20
-43.6506301491411
30
-3.6E-15
41
1
10
49.7786474892
20
-43.5321049406584
30
-3.6E-15
0
SPLINE
5
EB
100
AcDbEntity
8
1
62
256
6
ByLayer
370
18
48
1
60
0
100
AcDbSpline
70
4
71
3
72
8
73
4
40
0
40
0
40
0
40
0
40
1
40
1
40
1
40
1
41
1
10
120
20
5.38268590217984
30
-3.6E-15
41
1
10
121.054421876024
20
3.86075901727563
30
-3.6E-15
41
1
10
122.061555825273
20
2.31284299325034
30
-3.6E-15
41
1
10
123
20
0.734993995195197
30
-3.6E-15
0
SPLINE
5
EC
100
AcDbEntity
8
1
62
256
6
ByLayer
370
18
48
1
60
0
100
AcDbSpline
70
4
71
3
72
8
73
4
40
0
40
0
40
0
40
0
40
1
40
1
40
1
40
1
41
1
10
122
20
-38.3654118544163
30
-3.6E-15
41
1
10
121.35747858537
20
-39.3828877478552
30
-3.6E-15
41
1
10
120.688958938396
20
-40.3882593308203
30
-3.6E-15
41
1
10
120
20
-41.3826859021798
30
-3.6E-15
0
SPLINE
5
ED
100
AcDbEntity
8
1
62
256
6
ByLayer
370
18
48
1
60
0
100
AcDbSpline
70
4
71
3
72
8
73
4
40
0
40
0
40
0
40
0
40
1
40
1
40
1
40
1
41
1
10
23
20
5.38268590217984
30
-3.6E-15
41
1
10
21.998978262258
20
5.59422668617586
30
-3.6E-15
41
1
10
20.9989209552843
20
5.80021580894345
30
-3.6E-15
41
1
10
19.9999999999999
20
6.00000000000031
30
-3.6E-15
0
SPLINE
5
EE
100
AcDbEntity
8
1
62
256
6
ByLayer
370
18
48
1
60
0
100
AcDbSpline
70
4
71
3
72
8
73
4
40
0
40
0
40
0
40
0
40
1
40
1
40
1
40
1
41
1
10
20
20
-39
30
-3.6E-15
41
1
10
20.9989209552844
20
-39.7991367642275
30
-3.6E-15
41
1
10
21.998978262258
20
-40.5932049484338
30
-3.6E-15
41
1
10
23
20
-41.3826859021798
30
-3.6E-15
0
SPLINE
5
EF
100
AcDbEntity
8
1
62
256
6
ByLayer
370
18
48
1
60
0
100
AcDbSpline
70
4
71
3
72
8
73
4
40
0
40
0
40
0
40
0
40
1
40
1
40
1
40
1
41
1
10
122
20
-38.3654118544163
30
-3.6E-15
41
1
10
122.333424265315
20
-38.1127462725763
30
-3.6E-15
41
1
10
122.666759287831
20
-37.8596042620326
30
-3.6E-15
41
1
10
123
20
-37.6059692628831
30
-3.6E-15
0
SPLINE
5
F0
100
AcDbEntity
8
SK1
62
256
6
ByLayer
370
18
48
1
60
0
100
AcDbSpline
70
4
71
3
72
24
73
20
40
0
40
0
40
0
40
0
40
0.0299003298961598
40
0.0299003298961598
40
0.0528622635029575
40
0.0528622635029575
40
0.0709275158045023
40
0.0709275158045023
40
0.0890039000876284
40
0.0890039000876284
40
0.113622484917879
40
0.113622484917879
40
0.157577258657198
40
0.157577258657198
40
0.296025140029481
40
0.296025140029481
40
0.878150828056824
40
0.878150828056824
40
1
40
1
40
1
40
1
41
1
10
-0.400000000000034
20
-5.16866682996294
30
-3.6E-15
41
1
10
-0.394094307655593
20
-5.16300784544387
30
-3.6E-15
41
1
10
-0.38760623850834
20
-5.15782429554133
30
-3.6E-15
41
1
10
-0.374945775641891
20
-5.1507540726119
30
-3.6E-15
41
1
10
-0.368929355824349
20
-5.14835070696063
30
-3.6E-15
41
1
10
-0.35770867701234
20
-5.14629827954843
30
-3.6E-15
41
1
10
-0.352495529695659
20
-5.14618209741417
30
-3.6E-15
41
1
10
-0.342356257615734
20
-5.14777530545462
30
-3.6E-15
41
1
10
-0.337316914191916
20
-5.1495007928761
30
-3.6E-15
41
1
10
-0.326353738404208
20
-5.15512166080453
30
-3.6E-15
41
1
10
-0.320571087776074
20
-5.159612909418
30
-3.6E-15
41
1
10
-0.306345382412019
20
-5.17348963231109
30
-3.6E-15
41
1
10
-0.298929389281341
20
-5.18414440403348
30
-3.6E-15
41
1
10
-0.27264918279883
20
-5.22929437458617
30
-3.6E-15
41
1
10
-0.260939846150876
20
-5.26761390191825
30
-3.6E-15
41
1
10
-0.210796530798632
20
-5.46289223314824
30
-3.6E-15
41
1
10
-0.204366482898308
20
-5.62478131775703
30
-3.6E-15
41
1
10
-0.200325121553306
20
-5.8154278903541
30
-3.6E-15
41
1
10
-0.200000000000046
20
-5.8484679854401
30
-3.6E-15
41
1
10
-0.200000000000046
20
-5.88142452370545
30
-3.6E-15
0
SPLINE
5
F1
100
AcDbEntity
8
SK1
62
256
6
ByLayer
370
18
48
1
60
0
100
AcDbSpline
70
4
71
3
72
26
73
22
40
0
40
0
40
0
40
0
40
0.466011607458037
40
0.466011607458037
40
0.670240466301686
40
0.670240466301686
40
0.774567270182216
40
0.774567270182216
40
0.857070717706426
40
0.857070717706426
40
0.898538406950332
40
0.898538406950332
40
0.918045307993245
40
0.918045307993245
40
0.937772855809265
40
0.937772855809265
40
0.955553297254233
40
0.955553297254233
40
0.984230712729838
40
0.984230712729838
40
1
40
1
40
1
40
1
41
1
10
-0.200000000000046
20
5.88142397393347
30
-3.6E-15
41
1
10
-0.200000000000046
20
5.75538988127934
30
-3.6E-15
41
1
10
-0.204053336884726
20
5.62782146467677
30
-3.6E-15
41
1
10
-0.224291300238008
20
5.44372978251536
30
-3.6E-15
41
1
10
-0.232375898168357
20
5.3873284499669
30
-3.6E-15
41
1
10
-0.251389677244674
20
5.30297629006839
30
-3.6E-15
41
1
10
-0.259003952916999
20
5.27447755328694
30
-3.6E-15
41
1
10
-0.27707323276249
20
5.22483382882945
30
-3.6E-15
41
1
10
-0.286541211569755
20
5.20296176881411
30
-3.6E-15
41
1
10
-0.306529791401147
20
5.17375294403038
30
-3.6E-15
41
1
10
-0.314426911926432
20
5.1643717298173
30
-3.6E-15
41
1
10
-0.328481919155991
20
5.15398148698225
30
-3.6E-15
41
1
10
-0.333472930985636
20
5.15114386616668
30
-3.6E-15
41
1
10
-0.343977733072507
20
5.14732547572157
30
-3.6E-15
41
1
10
-0.349636276202261
20
5.14634920679938
30
-3.6E-15
41
1
10
-0.360093315739732
20
5.1465317925306
30
-3.6E-15
41
1
10
-0.365036235354125
20
5.14747094480913
30
-3.6E-15
41
1
10
-0.377122372198755
20
5.15149960910935
30
-3.6E-15
41
1
10
-0.384002450469694
20
5.1555505154767
30
-3.6E-15
41
1
10
-0.393629001799525
20
5.16285427826699
30
-3.6E-15
41
1
10
-0.396890469609758
20
5.16568716298278
30
-3.6E-15
41
1
10
-0.400000000000063
20
5.16866679574503
30
-3.6E-15
0
SPLINE
5
F2
100
AcDbEntity
8
SK1
62
256
6
ByLayer
370
18
48
1
60
0
100
AcDbSpline
70
4
71
3
72
10
73
6
40
0
40
0
40
0
40
0
40
0.5
40
0.5
40
1
40
1
40
1
40
1
41
1
10
-1.30710678118658
20
-3.80474436172739
30
-3.6E-15
41
1
10
-1.52921682270323
20
-2.59907728352431
30
-3.6E-15
41
1
10
-1.70909405340876
20
-1.31281235086669
30
-3.6E-15
41
1
10
-1.70963179300867
20
1.30649832374493
30
-3.6E-15
41
1
10
-1.52966155970611
20
2.5966617696443
30
-3.6E-15
41
1
10
-1.30710678118666
20
3.80474664113297
30
-3.6E-15
0
SPLINE
5
F3
100
AcDbEntity
8
SK1
62
256
6
ByLayer
370
18
48
1
60
0
100
AcDbSpline
70
4
71
3
72
20
73
16
40
0
40
0
40
0
40
0
40
0.0482142915045296
40
0.0482142915045296
40
0.324895566596886
40
0.324895566596886
40
0.462917931598625
40
0.462917931598625
40
0.600949767396257
40
0.600949767396257
40
0.738995437056015
40
0.738995437056015
40
0.877061363974612
40
0.877061363974612
40
1
40
1
40
1
40
1
41
1
10
-2.20000000000002
20
-15.0247809138971
30
-3.6E-15
41
1
10
-2.20000000000002
20
-15.0987632316059
30
-3.6E-15
41
1
10
-2.1999999916315
20
-15.1713153633958
30
-3.6E-15
41
1
10
-2.19999985652711
20
-15.6498272161843
30
-3.6E-15
41
1
10
-2.19999939887509
20
-16.0101821224506
30
-3.6E-15
41
1
10
-2.19999683011554
20
-16.4712024133173
30
-3.6E-15
41
1
10
-2.19999564996834
20
-16.6117543332689
30
-3.6E-15
41
1
10
-2.19999230715837
20
-16.8650200442632
30
-3.6E-15
41
1
10
-2.19999013861349
20
-16.9778482087755
30
-3.6E-15
41
1
10
-2.19998437020206
20
-17.1737303581388
30
-3.6E-15
41
1
10
-2.19998076728291
20
-17.2568757984566
30
-3.6E-15
41
1
10
-2.19997155592222
20
-17.390896629152
30
-3.6E-15
41
1
10
-2.19996594630399
20
-17.4418577268988
30
-3.6E-15
41
1
10
-2.19995278239719
20
-17.5046282196893
30
-3.6E-15
41
1
10
-2.19994549394477
20
-17.5201645225441
30
-3.6E-15
41
1
10
-2.19993683202816
20
-17.5201014540432
30
-3.6E-15
0
SPLINE
5
F4
100
AcDbEntity
8
SK1
62
256
6
ByLayer
370
18
48
1
60
0
100
AcDbSpline
70
4
71
3
72
20
73
16
40
0
40
0
40
0
40
0
40
0.106713268043374
40
0.106713268043374
40
0.253973588632764
40
0.253973588632764
40
0.401204679365698
40
0.401204679365698
40
0.548416466828087
40
0.548416466828087
40
0.69561549138421
40
0.69561549138421
40
0.842806095182983
40
0.842806095182983
40
1
40
1
40
1
40
1
41
1
10
-2.19993679437147
20
17.5201067466238
30
-3.6E-15
41
1
10
-2.19994431777536
20
17.5202028706431
30
-3.6E-15
41
1
10
-2.19995080551473
20
17.5085225600387
30
-3.6E-15
41
1
10
-2.19996422500265
20
17.4552443316022
30
-3.6E-15
41
1
10
-2.19997041029711
20
17.4038992989506
30
-3.6E-15
41
1
10
-2.19998045819511
20
17.2645372816575
30
-3.6E-15
41
1
10
-2.19998432672412
20
17.1764163911093
30
-3.6E-15
41
1
10
-2.19999043378135
20
16.9665639550929
30
-3.6E-15
41
1
10
-2.19999267824218
20
16.8447172876608
30
-3.6E-15
41
1
10
-2.19999607391787
20
16.569798663462
30
-3.6E-15
41
1
10
-2.1999972302832
20
16.4165791409565
30
-3.6E-15
41
1
10
-2.19999885859693
20
16.0808080953317
30
-3.6E-15
41
1
10
-2.19999933084273
20
15.8980848535623
30
-3.6E-15
41
1
10
-2.19999991533382
20
15.4916218225696
30
-3.6E-15
41
1
10
-2.20000000000002
20
15.2657541717871
30
-3.6E-15
41
1
10
-2.20000000000002
20
15.0247808645651
30
-3.6E-15
0
SPLINE
5
F5
100
AcDbEntity
8
1
62
256
6
ByLayer
370
18
48
1
60
0
100
AcDbSpline
70
4
71
3
72
16
73
12
40
0
40
0
40
0
40
0
40
0.0773436766578812
40
0.0773436766578812
40
0.181588290672628
40
0.181588290672628
40
0.353924998170016
40
0.353924998170016
40
0.659870482236099
40
0.659870482236099
40
1
40
1
40
1
40
1
41
1
10
11.4613248654052
20
23.8391299750503
30
-3.6E-15
41
1
10
11.480691273438
20
23.8391299750503
30
-3.6E-15
41
1
10
11.5001920479834
20
23.8383766644784
30
-3.6E-15
41
1
10
11.5443643455559
20
23.8350242537625
30
-3.6E-15
41
1
10
11.5688999660417
20
23.8318379431383
30
-3.6E-15
41
1
10
11.6286300521075
20
23.8212426939765
30
-3.6E-15
41
1
10
11.66158714279
20
23.812328084785
30
-3.6E-15
41
1
10
11.7407360052433
20
23.7850663392819
30
-3.6E-15
41
1
10
11.7798892743244
20
23.7642694363116
30
-3.6E-15
41
1
10
11.8468244213921
20
23.7185457490814
30
-3.6E-15
41
1
10
11.8734747805012
20
23.692873493267
30
-3.6E-15
41
1
10
11.8943375672974
20
23.6665017920809
30
-3.6E-15
0
SPLINE
5
F6
100
AcDbEntity
8
1
62
256
6
ByLayer
370
18
48
1
60
0
100
AcDbSpline
70
4
71
3
72
18
73
14
40
0
40
0
40
0
40
0
40
0.0809805960320807
40
0.0809805960320807
40
0.544227292214069
40
0.544227292214069
40
0.699318265621662
40
0.699318265621662
40
0.856346274356483
40
0.856346274356483
40
0.96657199953882
40
0.96657199953882
40
1
40
1
40
1
40
1
41
1
10
8.10566243270256
20
23.6665017920809
30
-3.6E-15
41
1
10
8.11065289887432
20
23.672810013698
30
-3.6E-15
41
1
10
8.11597900857609
20
23.6790700603507
30
-3.6E-15
41
1
10
8.15400172089505
20
23.7205303134149
30
-3.6E-15
41
1
10
8.1977744361825
20
23.7548029562659
30
-3.6E-15
41
1
10
8.28487257800725
20
23.7938243006291
30
-3.6E-15
41
1
10
8.30967508046021
20
23.8031592998669
30
-3.6E-15
41
1
10
8.36604668219428
20
23.8196134016841
30
-3.6E-15
41
1
10
8.3983775068167
20
23.8268687494612
30
-3.6E-15
41
1
10
8.45889576423616
20
23.8353793525422
30
-3.6E-15
41
1
10
8.48604318765894
20
23.8378105604685
30
-3.6E-15
41
1
10
8.52183069664619
20
23.8389905264494
30
-3.6E-15
41
1
10
8.53025906116028
20
23.8391299750503
30
-3.6E-15
41
1
10
8.53867513459477
20
23.8391299750503
30
-3.6E-15
0
SPLINE
5
F7
100
AcDbEntity
8
1
62
256
6
ByLayer
370
18
48
1
60
0
100
AcDbSpline
70
4
71
3
72
18
73
14
40
0
40
0
40
0
40
0
40
0.0809805960320641
40
0.0809805960320641
40
0.544227292213938
40
0.544227292213938
40
0.699318265621562
40
0.699318265621562
40
0.856346274356419
40
0.856346274356419
40
0.966571999538781
40
0.966571999538781
40
1
40
1
40
1
40
1
41
1
10
11.8943375672974
20
8.05584836782771
30
-3.6E-15
41
1
10
11.8893471011257
20
8.03731605051115
30
-3.6E-15
41
1
10
11.8840209914239
20
8.01885383673363
30
-3.6E-15
41
1
10
11.8459982791049
20
7.89611164850155
30
-3.6E-15
41
1
10
11.8022255638175
20
7.79219397274093
30
-3.6E-15
41
1
10
11.7151274219928
20
7.67169814060131
30
-3.6E-15
41
1
10
11.6903249195398
20
7.64266520230271
30
-3.6E-15
41
1
10
11.6339533178057
20
7.59122859579532
30
-3.6E-15
41
1
10
11.6016224931834
20
7.56839473241365
30
-3.6E-15
41
1
10
11.5411042357638
20
7.54154007085771
30
-3.6E-15
41
1
10
11.5139568123411
20
7.53384342094336
30
-3.6E-15
41
1
10
11.4781693033538
20
7.53010833377257
30
-3.6E-15
41
1
10
11.4697409388397
20
7.52966679426501
30
-3.6E-15
41
1
10
11.4613248654052
20
7.52966679426501
30
-3.6E-15
0
SPLINE
5
F8
100
AcDbEntity
8
1
62
256
6
ByLayer
370
18
48
1
60
0
100
AcDbSpline
70
4
71
3
72
16
73
12
40
0
40
0
40
0
40
0
40
0.0773436766578223
40
0.0773436766578223
40
0.181588290672541
40
0.181588290672541
40
0.353924998169886
40
0.353924998169886
40
0.659870482235857
40
0.659870482235857
40
1
40
1
40
1
40
1
41
1
10
8.53867513459483
20
7.52966679426501
30
-3.6E-15
41
1
10
8.51930872656195
20
7.52966679426501
30
-3.6E-15
41
1
10
8.4998079520166
20
7.53205286469702
30
-3.6E-15
41
1
10
8.45563565444411
20
7.54265601007379
30
-3.6E-15
41
1
10
8.43110003395827
20
7.55272636772355
30
-3.6E-15
41
1
10
8.37136994789256
20
7.58609718460599
30
-3.6E-15
41
1
10
8.33841285720999
20
7.61407037421819
30
-3.6E-15
41
1
10
8.25926399475679
20
7.69895209889248
30
-3.6E-15
41
1
10
8.22011072567562
20
7.76300791758402
30
-3.6E-15
41
1
10
8.15317557860794
20
7.90167589305835
30
-3.6E-15
41
1
10
8.12652521949872
20
7.97837348437849
30
-3.6E-15
41
1
10
8.10566243270256
20
8.05584836782774
30
-3.6E-15
0
SPLINE
5
F9
100
AcDbEntity
8
1
62
256
6
ByLayer
370
18
48
1
60
0
100
AcDbSpline
70
4
71
3
72
16
73
12
40
0
40
0
40
0
40
0
40
0.0773436766579011
40
0.0773436766579011
40
0.18158829067263
40
0.18158829067263
40
0.353924998170037
40
0.353924998170037
40
0.659870482236127
40
0.659870482236127
40
1
40
1
40
1
40
1
41
1
10
11.4613248654052
20
-7.52966679426498
30
-3.6E-15
41
1
10
11.480691273438
20
-7.52966679426498
30
-3.6E-15
41
1
10
11.5001920479834
20
-7.53205286469699
30
-3.6E-15
41
1
10
11.5443643455559
20
-7.54265601007381
30
-3.6E-15
41
1
10
11.5688999660418
20
-7.55272636772355
30
-3.6E-15
41
1
10
11.6286300521075
20
-7.58609718460605
30
-3.6E-15
41
1
10
11.66158714279
20
-7.61407037421822
30
-3.6E-15
41
1
10
11.7407360052433
20
-7.69895209889256
30
-3.6E-15
41
1
10
11.7798892743244
20
-7.76300791758416
30
-3.6E-15
41
1
10
11.8468244213921
20
-7.90167589305844
30
-3.6E-15
41
1
10
11.8734747805012
20
-7.97837348437855
30
-3.6E-15
41
1
10
11.8943375672974
20
-8.05584836782771
30
-3.6E-15
0
SPLINE
5
FA
100
AcDbEntity
8
1
62
256
6
ByLayer
370
18
48
1
60
0
100
AcDbSpline
70
4
71
3
72
18
73
14
40
0
40
0
40
0
40
0
40
0.080980596032093
40
0.080980596032093
40
0.544227292214091
40
0.544227292214091
40
0.699318265621672
40
0.699318265621672
40
0.856346274356484
40
0.856346274356484
40
0.966571999538838
40
0.966571999538838
40
1
40
1
40
1
40
1
41
1
10
8.10566243270256
20
-8.05584836782776
30
-3.6E-15
41
1
10
8.11065289887432
20
-8.03731605051121
30
-3.6E-15
41
1
10
8.11597900857609
20
-8.01885383673363
30
-3.6E-15
41
1
10
8.15400172089505
20
-7.89611164850152
30
-3.6E-15
41
1
10
8.1977744361825
20
-7.7921939727409
30
-3.6E-15
41
1
10
8.28487257800725
20
-7.67169814060128
30
-3.6E-15
41
1
10
8.30967508046021
20
-7.64266520230268
30
-3.6E-15
41
1
10
8.36604668219428
20
-7.59122859579532
30
-3.6E-15
41
1
10
8.3983775068167
20
-7.56839473241365
30
-3.6E-15
41
1
10
8.45889576423616
20
-7.54154007085771
30
-3.6E-15
41
1
10
8.48604318765894
20
-7.53384342094336
30
-3.6E-15
41
1
10
8.52183069664619
20
-7.5301083337726
30
-3.6E-15
41
1
10
8.53025906116028
20
-7.52966679426498
30
-3.6E-15
41
1
10
8.53867513459477
20
-7.52966679426498
30
-3.6E-15
0
SPLINE
5
FB
100
AcDbEntity
8
1
62
256
6
ByLayer
370
18
48
1
60
0
100
AcDbSpline
70
4
71
3
72
18
73
14
40
0
40
0
40
0
40
0
40
0.080980596032104
40
0.080980596032104
40
0.544227292214092
40
0.544227292214092
40
0.699318265621667
40
0.699318265621667
40
0.85634627435648
40
0.85634627435648
40
0.966571999538837
40
0.966571999538837
40
1
40
1
40
1
40
1
41
1
10
11.8943375672974
20
-23.6665017920809
30
-3.6E-15
41
1
10
11.8893471011256
20
-23.672810013698
30
-3.6E-15
41
1
10
11.8840209914239
20
-23.6790700603507
30
-3.6E-15
41
1
10
11.8459982791049
20
-23.7205303134149
30
-3.6E-15
41
1
10
11.8022255638174
20
-23.7548029562659
30
-3.6E-15
41
1
10
11.7151274219927
20
-23.7938243006291
30
-3.6E-15
41
1
10
11.6903249195398
20
-23.8031592998669
30
-3.6E-15
41
1
10
11.6339533178057
20
-23.8196134016841
30
-3.6E-15
41
1
10
11.6016224931833
20
-23.8268687494612
30
-3.6E-15
41
1
10
11.5411042357638
20
-23.8353793525422
30
-3.6E-15
41
1
10
11.5139568123411
20
-23.8378105604685
30
-3.6E-15
41
1
10
11.4781693033538
20
-23.8389905264494
30
-3.6E-15
41
1
10
11.4697409388397
20
-23.8391299750504
30
-3.6E-15
41
1
10
11.4613248654052
20
-23.8391299750504
30
-3.6E-15
0
SPLINE
5
FC
100
AcDbEntity
8
1
62
256
6
ByLayer
370
18
48
1
60
0
100
AcDbSpline
70
4
71
3
72
16
73
12
40
0
40
0
40
0
40
0
40
0.0773436766578238
40
0.0773436766578238
40
0.181588290672561
40
0.181588290672561
40
0.353924998169929
40
0.353924998169929
40
0.659870482235919
40
0.659870482235919
40
1
40
1
40
1
40
1
41
1
10
8.53867513459483
20
-23.8391299750504
30
-3.6E-15
41
1
10
8.51930872656195
20
-23.8391299750504
30
-3.6E-15
41
1
10
8.4998079520166
20
-23.8383766644784
30
-3.6E-15
41
1
10
8.45563565444411
20
-23.8350242537625
30
-3.6E-15
41
1
10
8.43110003395827
20
-23.8318379431383
30
-3.6E-15
41
1
10
8.3713699478925
20
-23.8212426939766
30
-3.6E-15
41
1
10
8.33841285720996
20
-23.812328084785
30
-3.6E-15
41
1
10
8.25926399475674
20
-23.7850663392819
30
-3.6E-15
41
1
10
8.22011072567557
20
-23.7642694363116
30
-3.6E-15
41
1
10
8.15317557860794
20
-23.7185457490814
30
-3.6E-15
41
1
10
8.12652521949872
20
-23.692873493267
30
-3.6E-15
41
1
10
8.10566243270256
20
-23.6665017920809
30
-3.6E-15
0
SPLINE
5
FD
100
AcDbEntity
8
SK1
62
256
6
ByLayer
370
18
48
1
60
0
100
AcDbSpline
70
4
71
3
72
22
73
18
40
0
40
0
40
0
40
0
40
0.352684316750051
40
0.352684316750051
40
0.750046292484896
40
0.750046292484896
40
0.835479263400859
40
0.835479263400859
40
0.869352774138348
40
0.869352774138348
40
0.903637365464606
40
0.903637365464606
40
0.934112944215772
40
0.934112944215772
40
0.983611230456551
40
0.983611230456551
40
1
40
1
40
1
40
1
41
1
10
-1.30710678118658
20
-3.80474436172739
30
-3.6E-15
41
1
10
-1.26637440296076
20
-4.02584957204772
30
-3.6E-15
41
1
10
-1.21786346361696
20
-4.24386265362051
30
-3.6E-15
41
1
10
-1.08311917044625
20
-4.69265802851214
30
-3.6E-15
41
1
10
-1.00360006874376
20
-4.93633956823067
30
-3.6E-15
41
1
10
-0.8033447497628
20
-5.16879396055816
30
-3.6E-15
41
1
10
-0.76102131187784
20
-5.2085340012797
30
-3.6E-15
41
1
10
-0.689167148695759
20
-5.24561851051851
30
-3.6E-15
41
1
10
-0.666676206231443
20
-5.25408214518689
30
-3.6E-15
41
1
10
-0.619919785859793
20
-5.26355270960357
30
-3.6E-15
41
1
10
-0.595012690956537
20
-5.26445496143651
30
-3.6E-15
41
1
10
-0.549926195162868
20
-5.25839930645884
30
-3.6E-15
41
1
10
-0.529028206588038
20
-5.25231844804927
30
-3.6E-15
41
1
10
-0.478237300450672
20
-5.2307965704984
30
-3.6E-15
41
1
10
-0.449806665426422
20
-5.21177878736734
30
-3.6E-15
41
1
10
-0.416050679082105
20
-5.18357602352125
30
-3.6E-15
41
1
10
-0.407890864165267
20
-5.17622805658175
30
-3.6E-15
41
1
10
-0.400000000000034
20
-5.16866682996363
30
-3.6E-15
0
SPLINE
5
FE
100
AcDbEntity
8
SK1
62
256
6
ByLayer
370
18
48
1
60
0
100
AcDbSpline
70
4
71
3
72
22
73
18
40
0
40
0
40
0
40
0
40
0.0434921783994958
40
0.0434921783994958
40
0.0876860403067019
40
0.0876860403067019
40
0.118952127699581
40
0.118952127699581
40
0.150155842428293
40
0.150155842428293
40
0.196307791915999
40
0.196307791915999
40
0.283435745194097
40
0.283435745194097
40
0.579041181948964
40
0.579041181948964
40
1
40
1
40
1
40
1
41
1
10
-0.400000000000034
20
5.16866679574528
30
-3.6E-15
41
1
10
-0.420550053748514
20
5.18835839085108
30
-3.6E-15
41
1
10
-0.443027188827443
20
5.20675192843447
30
-3.6E-15
41
1
10
-0.492732016073404
20
5.23775963373393
30
-3.6E-15
41
1
10
-0.520750465867991
20
5.25056923469424
30
-3.6E-15
41
1
10
-0.57132317141145
20
5.26230651341535
30
-3.6E-15
41
1
10
-0.593569294960218
20
5.2641885571677
30
-3.6E-15
41
1
10
-0.636876257397915
20
5.26111275520464
30
-3.6E-15
41
1
10
-0.658413974519078
20
5.25617334660447
30
-3.6E-15
41
1
10
-0.70801905917827
20
5.23795018495881
30
-3.6E-15
41
1
10
-0.73522293133459
20
5.22174262348992
30
-3.6E-15
41
1
10
-0.805307091704606
20
5.16870577827882
30
-3.6E-15
41
1
10
-0.843008552736933
20
5.12565182749091
30
-3.6E-15
41
1
10
-0.98697835479976
20
4.93030734845306
30
-3.6E-15
41
1
10
-1.05565821402416
20
4.75512394253201
30
-3.6E-15
41
1
10
-1.19912511806342
20
4.32976589005261
30
-3.6E-15
41
1
10
-1.25838015422249
20
4.06924736884375
30
-3.6E-15
41
1
10
-1.30710678118658
20
3.80474664113271
30
-3.6E-15
0
LINE
5
70
100
AcDbEntity
8
1
62
256
6
ByLayer
370
18
48
1
60
0
100
AcDbLine
10
20
20
-25
30
0
11
0.3
21
-25
31
0
39
0
210
0
220
0
230
1
0
LINE
5
72
100
AcDbEntity
8
1
62
256
6
ByLayer
370
18
48
1
60
0
100
AcDbLine
10
0.3
20
25
30
0
11
20
21
25
31
0
39
0
210
0
220
0
230
1
0
LINE
5
73
100
AcDbEntity
8
1
62
256
6
ByLayer
370
18
48
1
60
0
100
AcDbLine
10
0.3
20
-25
30
0
11
0
21
-24.7
31
0
39
0
210
0
220
0
230
1
0
LINE
5
74
100
AcDbEntity
8
1
62
256
6
ByLayer
370
18
48
1
60
0
100
AcDbLine
10
0
20
24.7
30
0
11
0.3
21
25
31
0
39
0
210
0
220
0
230
1
0
LINE
5
75
100
AcDbEntity
8
1
62
256
6
ByLayer
370
18
48
1
60
0
100
AcDbLine
10
123
20
-42
30
0
11
120
21
-45
31
0
39
0
210
0
220
0
230
1
0
LINE
5
76
100
AcDbEntity
8
1
62
256
6
ByLayer
370
18
48
1
60
0
100
AcDbLine
10
44.74803
20
-45
30
0
11
23
21
-45
31
0
39
0
210
0
220
0
230
1
0
LINE
5
77
100
AcDbEntity
8
1
62
256
6
ByLayer
370
18
48
1
60
0
100
AcDbLine
10
75.74803
20
-45
30
0
11
57.245771
21
-45
31
0
39
0
210
0
220
0
230
1
0
LINE
5
78
100
AcDbEntity
8
1
62
256
6
ByLayer
370
18
48
1
60
0
100
AcDbLine
10
106.74803
20
-45
30
0
11
88.245771
21
-45
31
0
39
0
210
0
220
0
230
1
0
LINE
5
79
100
AcDbEntity
8
1
62
256
6
ByLayer
370
18
48
1
60
0
100
AcDbLine
10
120
20
-45
30
0
11
119.245771
21
-45
31
0
39
0
210
0
220
0
230
1
0
LINE
5
7A
100
AcDbEntity
8
1
62
256
6
ByLayer
370
18
48
1
60
0
100
AcDbLine
10
23
20
-45
30
0
11
20
21
-42
31
0
39
0
210
0
220
0
230
1
0
LINE
5
7B
100
AcDbEntity
8
1
62
256
6
ByLayer
370
18
48
1
60
0
100
AcDbLine
10
120
20
36
30
0
11
23
21
36
31
0
39
0
210
0
220
0
230
1
0
LINE
5
7C
100
AcDbEntity
8
1
62
256
6
ByLayer
370
18
48
1
60
0
100
AcDbLine
10
123
20
0.734994
30
0
11
123
21
-0.679492
31
0
39
0
210
0
220
0
230
1
0
LINE
5
7D
100
AcDbEntity
8
1
62
256
6
ByLayer
370
18
48
1
60
0
100
AcDbLine
10
120
20
-41.382686
30
0
11
23
21
-41.382686
31
0
39
0
210
0
220
0
230
1
0
LINE
5
7E
100
AcDbEntity
8
1
62
256
6
ByLayer
370
18
48
1
60
0
100
AcDbLine
10
23
20
5.382686
30
0
11
120
21
5.382686
31
0
39
0
210
0
220
0
230
1
0
LINE
5
7F
100
AcDbEntity
8
1
62
256
6
ByLayer
370
18
48
1
60
0
100
AcDbLine
10
123
20
36
30
0
11
122.057148
21
36
31
0
39
0
210
0
220
0
230
1
0
LINE
5
80
100
AcDbEntity
8
1
62
256
6
ByLayer
370
18
48
1
60
0
100
AcDbLine
10
123
20
36
30
0
11
123
21
34.999782
31
0
39
0
210
0
220
0
230
1
0
LINE
5
81
100
AcDbEntity
8
1
62
256
6
ByLayer
370
18
48
1
60
0
100
AcDbLine
10
26
20
-6.80291
30
0
11
26
21
-14.474658
31
0
39
0
210
0
220
0
230
1
0
LINE
5
82
100
AcDbEntity
8
1
62
256
6
ByLayer
370
18
48
1
60
0
100
AcDbLine
10
33.830127
20
-19.732051
30
0
11
122
21
-19.732051
31
0
39
0
210
0
220
0
230
1
0
LINE
5
83
100
AcDbEntity
8
1
62
256
6
ByLayer
370
18
48
1
60
0
100
AcDbLine
10
123
20
-0.679492
30
0
11
33.070714
21
-0.679492
31
0
39
0
210
0
220
0
230
1
0
LINE
5
84
100
AcDbEntity
8
1
62
256
6
ByLayer
370
18
48
1
60
0
100
AcDbLine
10
123
20
-0.679607
30
0
11
123
21
-8.866025
31
0
39
0
210
0
220
0
230
1
0
LINE
5
85
100
AcDbEntity
8
1
62
256
6
ByLayer
370
18
48
1
60
0
100
AcDbLine
10
123
20
-10.232051
30
0
11
123
21
-19.232051
31
0
39
0
210
0
220
0
230
1
0
LINE
5
86
100
AcDbEntity
8
SK3
62
256
6
ByLayer
370
18
48
0.05
60
0
100
AcDbLine
10
34.5
20
16
30
0
11
26
21
16
31
0
39
0
210
0
220
0
230
1
0
LINE
5
88
100
AcDbEntity
8
SK3
62
256
6
ByLayer
370
18
48
0.05
60
0
100
AcDbLine
10
26
20
16
30
0
11
26
21
36
31
0
39
0
210
0
220
0
230
1
0
LINE
5
89
100
AcDbEntity
8
1
62
256
6
ByLayer
370
18
48
1
60
0
100
AcDbLine
10
33.830127
20
-19.732051
30
0
11
33.830127
21
-10.232051
31
0
39
0
210
0
220
0
230
1
0
LINE
5
8A
100
AcDbEntity
8
1
62
256
6
ByLayer
370
18
48
1
60
0
100
AcDbLine
10
26
20
-6.80291
30
0
11
26
21
-0.618379
31
0
39
0
210
0
220
0
230
1
0
LINE
5
8B
100
AcDbEntity
8
1
62
256
6
ByLayer
370
18
48
1
60
0
100
AcDbLine
10
111.778647
20
31.638584
30
0
11
114.221353
21
31.638584
31
0
39
0
210
0
220
0
230
1
0
LINE
5
8C
100
AcDbEntity
8
1
62
256
6
ByLayer
370
18
48
1
60
0
100
AcDbLine
10
80.778647
20
31.638584
30
0
11
83.221353
21
31.638584
31
0
39
0
210
0
220
0
230
1
0
LINE
5
8D
100
AcDbEntity
8
1
62
256
6
ByLayer
370
18
48
1
60
0
100
AcDbLine
10
49.778647
20
31.638584
30
0
11
52.221353
21
31.638584
31
0
39
0
210
0
220
0
230
1
0
LINE
5
8E
100
AcDbEntity
8
1
62
256
6
ByLayer
370
18
48
1
60
0
100
AcDbLine
10
111.778647
20
-43.532105
30
0
11
114.221353
21
-43.532105
31
0
39
0
210
0
220
0
230
1
0
LINE
5
8F
100
AcDbEntity
8
1
62
256
6
ByLayer
370
18
48
1
60
0
100
AcDbLine
10
80.778647
20
-43.532105
30
0
11
83.221353
21
-43.532105
31
0
39
0
210
0
220
0
230
1
0
LINE
5
90
100
AcDbEntity
8
1
62
256
6
ByLayer
370
18
48
1
60
0
100
AcDbLine
10
49.778647
20
-43.532105
30
0
11
52.221353
21
-43.532105
31
0
39
0
210
0
220
0
230
1
0
LINE
5
91
100
AcDbEntity
8
1
62
256
6
ByLayer
370
18
48
1
60
0
100
AcDbLine
10
122
20
36
30
0
11
120
21
36
31
0
39
0
210
0
220
0
230
1
0
LINE
5
92
100
AcDbEntity
8
1
62
256
6
ByLayer
370
18
48
1
60
0
100
AcDbLine
10
120
20
36
30
0
11
120
21
5.382686
31
0
39
0
210
0
220
0
230
1
0
LINE
5
93
100
AcDbEntity
8
1
62
256
6
ByLayer
370
18
48
1
60
0
100
AcDbLine
10
120
20
-41.382686
30
0
11
120
21
-45
31
0
39
0
210
0
220
0
230
1
0
LINE
5
94
100
AcDbEntity
8
1
62
256
6
ByLayer
370
18
48
1
60
0
100
AcDbLine
10
123
20
0.734994
30
0
11
123
21
35
31
0
39
0
210
0
220
0
230
1
0
LINE
5
95
100
AcDbEntity
8
1
62
256
6
ByLayer
370
18
48
1
60
0
100
AcDbLine
10
123
20
-42
30
0
11
123
21
-37.605969
31
0
39
0
210
0
220
0
230
1
0
LINE
5
96
100
AcDbEntity
8
1
62
256
6
ByLayer
370
18
48
1
60
0
100
AcDbLine
10
23
20
5.382686
30
0
11
23
21
36
31
0
39
0
210
0
220
0
230
1
0
LINE
5
97
100
AcDbEntity
8
1
62
256
6
ByLayer
370
18
48
1
60
0
100
AcDbLine
10
23
20
-45
30
0
11
23
21
-41.382686
31
0
39
0
210
0
220
0
230
1
0
LINE
5
98
100
AcDbEntity
8
1
62
256
6
ByLayer
370
18
48
1
60
0
100
AcDbLine
10
20
20
33
30
0
11
20
21
6
31
0
39
0
210
0
220
0
230
1
0
LINE
5
99
100
AcDbEntity
8
1
62
256
6
ByLayer
370
18
48
1
60
0
100
AcDbLine
10
20
20
-39
30
0
11
20
21
-42
31
0
39
0
210
0
220
0
230
1
0
LINE
5
9A
100
AcDbEntity
8
1
62
256
6
ByLayer
370
18
48
1
60
0
100
AcDbLine
10
20
20
6
30
0
11
20
21
-39
31
0
39
0
210
0
220
0
230
1
0
LINE
5
9B
100
AcDbEntity
8
1
62
256
6
ByLayer
370
18
48
1
60
0
100
AcDbLine
10
23
20
-41.382686
30
0
11
23
21
5.382686
31
0
39
0
210
0
220
0
230
1
0
LINE
5
9C
100
AcDbEntity
8
1
62
256
6
ByLayer
370
18
48
1
60
0
100
AcDbLine
10
20
20
33
30
0
11
23
21
36
31
0
39
0
210
0
220
0
230
1
0
LINE
5
9D
100
AcDbEntity
8
1
62
256
6
ByLayer
370
18
48
1
60
0
100
AcDbLine
10
123
20
-37.605969
30
0
11
123
21
-19.232051
31
0
39
0
210
0
220
0
230
1
0
LINE
5
9E
100
AcDbEntity
8
1
62
256
6
ByLayer
370
18
48
1
60
0
100
AcDbLine
10
122
20
-19.732051
30
0
11
122
21
-38.365412
31
0
39
0
210
0
220
0
230
1
0
LINE
5
9F
100
AcDbEntity
8
1
62
256
6
ByLayer
370
18
48
1
60
0
100
AcDbLine
10
123
20
-19.232051
30
0
11
122
21
-19.732051
31
0
39
0
210
0
220
0
230
1
0
LINE
5
A0
100
AcDbEntity
8
1
62
256
6
ByLayer
370
18
48
1
60
0
100
AcDbLine
10
122
20
36
30
0
11
123
21
35
31
0
39
0
210
0
220
0
230
1
0
LINE
5
A1
100
AcDbEntity
8
SK3
62
256
6
ByLayer
370
18
48
0.05
60
0
100
AcDbLine
10
123
20
16
30
0
11
34.269696
21
16
31
0
39
0
210
0
220
0
230
1
0
LINE
5
A2
100
AcDbEntity
8
1
62
256
6
ByLayer
370
18
48
1
60
0
100
AcDbLine
10
123
20
-8.866025
30
0
11
34.269696
21
-8.866025
31
0
39
0
210
0
220
0
230
1
0
LINE
5
A3
100
AcDbEntity
8
1
62
256
6
ByLayer
370
18
48
1
60
0
100
AcDbLine
10
33.830127
20
-10.232051
30
0
11
123
21
-10.232051
31
0
39
0
210
0
220
0
230
1
0
LINE
5
A4
100
AcDbEntity
8
1
62
256
6
ByLayer
370
18
48
1
60
0
100
AcDbLine
10
123
20
-10.232051
30
0
11
123
21
-8.866025
31
0
39
0
210
0
220
0
230
1
0
LINE
5
A5
100
AcDbEntity
8
SK1
62
256
6
ByLayer
370
18
48
1
60
0
100
AcDbLine
10
-2.2
20
15.024781
30
0
11
-2.2
21
10.241692
31
0
39
0
210
0
220
0
230
1
0
LINE
5
A7
100
AcDbEntity
8
SK1
62
256
6
ByLayer
370
18
48
1
60
0
100
AcDbLine
10
-2.2
20
10.241692
30
0
11
-2.2
21
-10.241692
31
0
39
0
210
0
220
0
230
1
0
LINE
5
A8
100
AcDbEntity
8
SK1
62
256
6
ByLayer
370
18
48
1
60
0
100
AcDbLine
10
-2.2
20
-10.241692
30
0
11
-2.2
21
-15.024781
31
0
39
0
210
0
220
0
230
1
0
LINE
5
A9
100
AcDbEntity
8
SK1
62
256
6
ByLayer
370
18
48
1
60
0
100
AcDbLine
10
-30
20
15.939357
30
0
11
-30
21
-15.940851
31
0
39
0
210
0
220
0
230
1
0
LINE
5
AA
100
AcDbEntity
8
SK1
62
256
6
ByLayer
370
18
48
1
60
0
100
AcDbLine
10
-28.500473
20
-16.859339
30
0
11
-28.500473
21
16.859339
31
0
39
0
210
0
220
0
230
1
0
LINE
5
AB
100
AcDbEntity
8
1
62
256
6
ByLayer
370
18
48
1
60
0
100
AcDbLine
10
11.461325
20
23.83913
30
0
11
8.538675
21
23.83913
31
0
39
0
210
0
220
0
230
1
0
LINE
5
AC
100
AcDbEntity
8
1
62
256
6
ByLayer
370
18
48
1
60
0
100
AcDbLine
10
8.538675
20
7.529667
30
0
11
11.461325
21
7.529667
31
0
39
0
210
0
220
0
230
1
0
LINE
5
AD
100
AcDbEntity
8
1
62
256
6
ByLayer
370
18
48
1
60
0
100
AcDbLine
10
11.461325
20
-7.529667
30
0
11
8.538675
21
-7.529667
31
0
39
0
210
0
220
0
230
1
0
LINE
5
AE
100
AcDbEntity
8
1
62
256
6
ByLayer
370
18
48
1
60
0
100
AcDbLine
10
8.538675
20
-23.83913
30
0
11
11.461325
21
-23.83913
31
0
39
0
210
0
220
0
230
1
0
LINE
5
AF
100
AcDbEntity
8
1
62
256
6
ByLayer
370
18
48
1
60
0
100
AcDbLine
10
0
20
24.7
30
0
11
0
21
-24.7
31
0
39
0
210
0
220
0
230
1
0
LINE
5
B0
100
AcDbEntity
8
1
62
256
6
ByLayer
370
18
48
1
60
0
100
AcDbLine
10
0.3
20
-25
30
0
11
0.3
21
25
31
0
39
0
210
0
220
0
230
1
0
LINE
5
B1
100
AcDbEntity
8
1
62
256
6
ByLayer
370
13
48
1
60
0
100
AcDbLine
10
11.894338
20
-8.055848
30
0
11
11.894338
21
-23.666502
31
0
39
0
210
0
220
0
230
1
0
LINE
5
B2
100
AcDbEntity
8
1
62
256
6
ByLayer
370
13
48
1
60
0
100
AcDbLine
10
11.461325
20
-7.529667
30
0
11
11.461325
21
-23.83913
31
0
39
0
210
0
220
0
230
1
0
LINE
5
B3
100
AcDbEntity
8
1
62
256
6
ByLayer
370
13
48
1
60
0
100
AcDbLine
10
8.538675
20
-7.529667
30
0
11
8.538675
21
-23.83913
31
0
39
0
210
0
220
0
230
1
0
LINE
5
B4
100
AcDbEntity
8
1
62
256
6
ByLayer
370
13
48
1
60
0
100
AcDbLine
10
8.105662
20
-8.055848
30
0
11
8.105662
21
-23.666502
31
0
39
0
210
0
220
0
230
1
0
LINE
5
B5
100
AcDbEntity
8
1
62
256
6
ByLayer
370
13
48
1
60
0
100
AcDbLine
10
11.894338
20
23.666502
30
0
11
11.894338
21
8.055848
31
0
39
0
210
0
220
0
230
1
0
LINE
5
B6
100
AcDbEntity
8
1
62
256
6
ByLayer
370
13
48
1
60
0
100
AcDbLine
10
11.461325
20
23.83913
30
0
11
11.461325
21
7.529667
31
0
39
0
210
0
220
0
230
1
0
LINE
5
B7
100
AcDbEntity
8
1
62
256
6
ByLayer
370
13
48
1
60
0
100
AcDbLine
10
8.538675
20
23.83913
30
0
11
8.538675
21
7.529667
31
0
39
0
210
0
220
0
230
1
0
LINE
5
B8
100
AcDbEntity
8
1
62
256
6
ByLayer
370
13
48
1
60
0
100
AcDbLine
10
8.105662
20
23.666502
30
0
11
8.105662
21
8.055848
31
0
39
0
210
0
220
0
230
1
0
LINE
5
B9
100
AcDbEntity
8
SK1
62
256
6
ByLayer
370
18
48
1
60
0
100
AcDbLine
10
-0.2
20
5.881424
30
0
11
-0.2
21
17.833485
31
0
39
0
210
0
220
0
230
1
0
LINE
5
BA
100
AcDbEntity
8
SK1
62
256
6
ByLayer
370
18
48
1
60
0
100
AcDbLine
10
-0.2
20
-17.833485
30
0
11
-0.2
21
-5.881425
31
0
39
0
210
0
220
0
230
1
0
LINE
5
BB
100
AcDbEntity
8
SK1
62
256
6
ByLayer
370
13
48
1
60
0
100
AcDbLine
10
-1.307107
20
-3.804744
30
0
11
-1.307107
21
3.804747
31
0
39
0
210
0
220
0
230
1
0
LINE
5
BC
100
AcDbEntity
8
SK1
62
256
6
ByLayer
370
13
48
1
60
0
100
AcDbLine
10
-0.4
20
-17.32515
30
0
11
-0.4
21
-5.168667
31
0
39
0
210
0
220
0
230
1
0
LINE
5
BD
100
AcDbEntity
8
SK1
62
256
6
ByLayer
370
13
48
1
60
0
100
AcDbLine
10
-0.4
20
5.168667
30
0
11
-0.4
21
17.32515
31
0
39
0
210
0
220
0
230
1
0
LINE
5
BE
100
AcDbEntity
8
SK1
62
256
6
ByLayer
370
13
48
1
60
0
100
AcDbLine
10
-2
20
-17.32515
30
0
11
-2
21
17.32515
31
0
39
0
210
0
220
0
230
1
0
LINE
5
BF
100
AcDbEntity
8
80
62
256
6
ByLayer
370
13
48
1
60
0
100
AcDbLine
10
0
20
0
30
0
11
-22.903748
21
0
31
0
39
0
210
0
220
0
230
1
0
LINE
5
C0
100
AcDbEntity
8
SK4
62
256
6
ByLayer
370
18
48
0.05
60
0
100
AcDbLine
10
129.045209
20
0
30
0
11
-37.854661
21
0
31
0
39
0
210
0
220
0
230
1
0
LINE
5
C2
100
AcDbEntity
8
4
62
256
6
ByLayer
370
18
48
0.05
60
0
100
AcDbLine
10
0
20
0
30
0
11
123
21
0
31
0
39
0
210
0
220
0
230
1
0
LINE
5
C4
100
AcDbEntity
8
81
62
256
6
ByLayer
370
13
48
1
60
0
100
AcDbLine
10
123
20
26
30
0
11
133
21
26
31
0
39
0
210
0
220
0
230
1
0
MTEXT
5
FF
100
AcDbEntity
8
SK6
62
256
6
ByLayer
370
18
48
1
60
0
100
AcDbMText
10
7.445564
20
-58.486981
30
0
210
0
220
0
230
1
1
\W0.7335;C5-ASHR3-36123-20
40
3.5
41
0
44
1.084337
50
0
71
7
72
5
7
iso_b_vert
0
DIMENSION
5
112
100
AcDbEntity
8
SK2
62
256
6
ByLayer
370
13
48
1
60
0
100
AcDbDimension
2
DimnDraft3D1
10
-42.698478
20
-25
30
0
11
-42.948478
21
2.707895
31
0
70
33
71
5
72
1
41
1
210
0
220
0
230
1
3
Standard
100
AcDbAlignedDimension
13
-1.7
23
25
33
0
14
-1.7
24
-25
34
0
1001
ACAD
1000
DSTYLE
1002
{
1070
   279
1070
     0
1070
    74
1070
     0
1070
   173
1070
     1
1070
   340
1005
100
1070
    77
1070
     1
1070
    73
1070
     0
1070
   171
1070
     3
1070
   274
1070
     4
1070
   177
1070
     7
1070
   176
1070
     7
1070
   178
1070
     7
1070
    78
1070
     8
1070
    41
1041
3.175
1070
   147
1041
1.5
1070
    42
1041
2.0
1070
    44
1041
2.0
1070
   140
1041
3.0
1070
   343
1005
0
1070
   344
1005
0
1002
}
0
DIMENSION
5
120
100
AcDbEntity
8
SK2
62
256
6
ByLayer
370
13
48
1
60
0
100
AcDbDimension
2
DimnDraft3D2
10
20
20
43.723059
30
0
11
8.207895
21
43.723059
31
0
70
32
71
5
72
1
41
1
210
0
220
0
230
1
3
Standard
100
AcDbAlignedDimension
13
0
23
26.7
33
0
14
20
24
35
34
0
50
0
100
AcDbRotatedDimension
1001
ACAD
1000
DSTYLE
1002
{
1070
   279
1070
     0
1070
   172
1070
     1
1070
   173
1070
     1
1070
   340
1005
100
1070
    77
1070
     1
1070
    73
1070
     0
1070
   171
1070
     3
1070
   274
1070
     4
1070
   177
1070
     7
1070
   176
1070
     7
1070
   178
1070
     7
1070
    78
1070
     8
1070
    41
1041
3.175
1070
   147
1041
1.5
1070
    42
1041
2.0
1070
    44
1041
2.0
1070
   140
1041
3.0
1070
   343
1005
0
1070
   344
1005
0
1002
}
0
DIMENSION
5
12E
100
AcDbEntity
8
SK2
62
256
6
ByLayer
370
13
48
1
60
0
100
AcDbDimension
2
DimnDraft3D3
10
26
20
53.79633
30
0
11
11.207895
21
53.79633
31
0
70
32
71
5
72
1
41
1
210
0
220
0
230
1
3
Standard
100
AcDbAlignedDimension
13
0
23
26.7
33
0
14
26
24
38
34
0
50
0
100
AcDbRotatedDimension
1001
ACAD
1000
DSTYLE
1002
{
1070
   279
1070
     0
1070
   172
1070
     1
1070
   173
1070
     1
1070
   340
1005
100
1070
    77
1070
     1
1070
    73
1070
     0
1070
   171
1070
     3
1070
   274
1070
     4
1070
   177
1070
     7
1070
   176
1070
     7
1070
   178
1070
     7
1070
    78
1070
     8
1070
    41
1041
3.175
1070
   147
1041
1.5
1070
    42
1041
2.0
1070
    44
1041
2.0
1070
   140
1041
3.0
1070
   343
1005
0
1070
   344
1005
0
1002
}
0
DIMENSION
5
13D
100
AcDbEntity
8
2
62
256
6
ByLayer
370
13
48
1
60
0
100
AcDbDimension
2
DimnDraft3D4
10
123
20
65.621475
30
0
11
58.961842
21
65.621475
31
0
70
32
71
5
72
1
41
1
210
0
220
0
230
1
3
Standard
100
AcDbAlignedDimension
13
0
23
26.7
33
0
14
123
24
37
34
0
50
0
100
AcDbRotatedDimension
1001
ACAD
1000
DSTYLE
1002
{
1070
   279
1070
     0
1070
   172
1070
     1
1070
   173
1070
     1
1070
   340
1005
100
1070
    77
1070
     1
1070
    73
1070
     0
1070
   171
1070
     3
1070
   274
1070
     4
1070
   177
1070
     7
1070
   176
1070
     7
1070
   178
1070
     7
1070
    78
1070
     8
1070
    41
1041
3.175
1070
   147
1041
1.5
1070
    42
1041
2.0
1070
    44
1041
2.0
1070
   140
1041
3.0
1070
   343
1005
0
1070
   344
1005
0
1002
}
0
DIMENSION
5
14B
100
AcDbEntity
8
SK2
62
256
6
ByLayer
370
13
48
1
60
0
100
AcDbDimension
2
DimnDraft3D5
10
142.978833
20
16
30
0
11
142.978833
21
6.582895
31
0
70
32
71
5
72
1
41
1
210
0
220
0
230
1
3
Standard
100
AcDbAlignedDimension
13
131.045209
23
0
33
0
14
125
24
16
34
0
50
90
100
AcDbRotatedDimension
1001
ACAD
1000
DSTYLE
1002
{
1070
    74
1070
     0
1070
   279
1070
     0
1070
   172
1070
     1
1070
   173
1070
     1
1070
   340
1005
100
1070
    77
1070
     1
1070
    73
1070
     0
1070
   171
1070
     3
1070
   274
1070
     4
1070
   177
1070
     7
1070
   176
1070
     7
1070
   178
1070
     7
1070
    78
1070
     8
1070
    41
1041
3.175
1070
   147
1041
1.5
1070
    42
1041
2.0
1070
    44
1041
2.0
1070
   140
1041
3.0
1070
   343
1005
0
1070
   344
1005
0
1002
}
0
DIMENSION
5
159
100
AcDbEntity
8
SK2
62
256
6
ByLayer
370
13
48
1
60
0
100
AcDbDimension
2
DimnDraft3D6
10
156.014471
20
0
30
0
11
156.014471
21
16.207895
31
0
70
32
71
5
72
1
41
1
210
0
220
0
230
1
3
Standard
100
AcDbAlignedDimension
13
122
23
36
33
0
14
131.045209
24
0
34
0
50
90
100
AcDbRotatedDimension
1001
ACAD
1000
DSTYLE
1002
{
1070
    74
1070
     0
1070
   279
1070
     0
1070
   172
1070
     1
1070
   173
1070
     1
1070
   340
1005
100
1070
    77
1070
     1
1070
    73
1070
     0
1070
   171
1070
     3
1070
   274
1070
     4
1070
   177
1070
     7
1070
   176
1070
     7
1070
   178
1070
     7
1070
    78
1070
     8
1070
    41
1041
3.175
1070
   147
1041
1.5
1070
    42
1041
2.0
1070
    44
1041
2.0
1070
   140
1041
3.0
1070
   343
1005
0
1070
   344
1005
0
1002
}
0
DIMENSION
5
167
100
AcDbEntity
8
SK2
62
256
6
ByLayer
370
13
48
1
60
0
100
AcDbDimension
2
DimnDraft3D7
10
156.014471
20
-45
30
0
11
156.014471
21
11.999077
31
0
70
32
71
5
72
1
41
1
210
0
220
0
230
1
3
Standard
100
AcDbAlignedDimension
13
131.045209
23
0
33
0
14
122
24
-45
34
0
50
90
100
AcDbRotatedDimension
1001
ACAD
1000
DSTYLE
1002
{
1070
    74
1070
     0
1070
   279
1070
     0
1070
   172
1070
     1
1070
   173
1070
     1
1070
   340
1005
100
1070
    77
1070
     1
1070
    73
1070
     0
1070
   171
1070
     3
1070
   274
1070
     4
1070
   177
1070
     7
1070
   176
1070
     7
1070
   178
1070
     7
1070
    78
1070
     8
1070
    41
1041
3.175
1070
   147
1041
1.5
1070
    42
1041
2.0
1070
    44
1041
2.0
1070
   140
1041
3.0
1070
   343
1005
0
1070
   344
1005
0
1002
}
0
ENDSEC
0
SECTION
2
OBJECTS
0
DICTIONARY
5
1d3
330
0
100
AcDbDictionary
280
0
281
1
3
ACAD_GROUP
350
1d4
3
ACAD_MLINESTYLE
350
1d5
0
DICTIONARY
5
1d4
330
0
100
AcDbDictionary
280
0
281
1
0
DICTIONARY
5
1d5
330
0
100
AcDbDictionary
280
0
281
1
3
Standard
350
18
0
MLINESTYLE
5
18
330
1d5
100
AcDbMlineStyle
2
Standard
70
0
3

62
256
51
90
52
90
71
2
49
-0.5
62
256
6
ByLayer
49
0.5
62
256
6
ByLayer
0
RASTERVARIABLES
5
1c0
330

100
AcDbRasterVariables
90
0
70
1
71
1
72
1
0
ENDSEC
0
EOF
