0
SECTION
2
HEADER
9
$ACADVER
1
AC1015
9
$DWGCODEPAGE
3
ANSI_1252
9
$HANDSEED
5
195
9
$ANGBASE
50
0
9
$ANGDIR
70
0
9
$ATTMODE
70
1
9
$AUNITS
70
0
9
$AUPREC
70
0
9
$CECOLOR
62
256
9
$CELTSCALE
40
1
9
$CELTYPE
6
ByLayer
9
$CELWEIGHT
370
18
9
$CLAYER
8
0
9
$CMLJUST
70
0
9
$CMLSCALE
40
1
9
$CMLSTYLE
2
Standard
9
$DIMSTYLE
2
Standard
9
$TEXTSIZE
40
0.2
9
$TEXTSTYLE
7
Standard
9
$LUNITS
70
2
9
$LUPREC
70
4
9
$EXTNAMES
290
1
9
$INSUNITS
70
4
9
$LTSCALE
40
1
9
$LWDISPLAY
290
1
9
$PDMODE
70
0
9
$PDSIZE
40
0
9
$PLINEGEN
70
0
0
ENDSEC
0
SECTION
2
CLASSES
0
CLASS
1
RASTERVARIABLES
2
AcDbRasterVariables
3
ISM
90
0
280
0
281
0
0
ENDSEC
0
SECTION
2
TABLES
0
TABLE
2
VPORT
5
18b
100
AcDbSymbolTable
0
VPORT
5
1
100
AcDbSymbolTableRecord
100
AcDbViewportTableRecord
2
*Active
70
0
10
0
20
0
11
1
21
1
12
-1
22
1
13
0
23
0
14
0.5
24
0.5
15
10
25
10
16
0
26
0
36
1
17
0
27
0
37
0
0
ENDTAB
0
TABLE
2
LTYPE
5
18c
100
AcDbSymbolTable
0
LTYPE
5
14
100
AcDbSymbolTableRecord
100
AcDbLinetypeTableRecord
70
0
2
ByBlock
3

72
65
73
0
40
0
0
LTYPE
5
15
100
AcDbSymbolTableRecord
100
AcDbLinetypeTableRecord
70
0
2
ByLayer
3

72
65
73
0
40
0
0
LTYPE
5
16
100
AcDbSymbolTableRecord
100
AcDbLinetypeTableRecord
70
0
2
CONTINUOUS
3
Solid line
72
65
73
0
40
0
0
LTYPE
5
6A
100
AcDbSymbolTableRecord
100
AcDbLinetypeTableRecord
70
0
2
CENTER
3
____ _ ____ _ ____ _ ____
72
65
73
4
40
47.5
49
22
74
0
49
-8.5
74
0
49
8.5
74
0
49
-8.5
74
0
0
LTYPE
5
6B
100
AcDbSymbolTableRecord
100
AcDbLinetypeTableRecord
70
0
2
DASHED
3
__ __ __ __ __ __ __ __ __
72
65
73
2
40
25.72
49
12.86
74
0
49
-12.86
74
0
0
ENDTAB
0
TABLE
2
LAYER
5
18d
100
AcDbSymbolTable
0
LAYER
5
10
100
AcDbSymbolTableRecord
100
AcDbLayerTableRecord
2
0
70
0
62
7
6
CONTINUOUS
290
1
370
-3
390
0
0
LAYER
5
6D
100
AcDbSymbolTableRecord
100
AcDbLayerTableRecord
2
80
70
0
62
-6
6
CONTINUOUS
290
1
370
-3
390
0
0
LAYER
5
6F
100
AcDbSymbolTableRecord
100
AcDbLayerTableRecord
2
81
70
0
62
-3
6
CONTINUOUS
290
1
370
-3
390
0
0
LAYER
5
71
100
AcDbSymbolTableRecord
100
AcDbLayerTableRecord
2
1
70
0
62
4
6
CONTINUOUS
290
1
370
-3
390
0
0
LAYER
5
B3
100
AcDbSymbolTableRecord
100
AcDbLayerTableRecord
2
4
70
0
62
-2
6
CENTER
290
1
370
-3
390
0
0
LAYER
5
E7
100
AcDbSymbolTableRecord
100
AcDbLayerTableRecord
2
2
70
0
62
7
6
CONTINUOUS
290
1
370
-3
390
0
0
LAYER
5
177
100
AcDbSymbolTableRecord
100
AcDbLayerTableRecord
2
SK1
70
0
62
4
6
CONTINUOUS
290
1
370
-3
390
0
0
LAYER
5
178
100
AcDbSymbolTableRecord
100
AcDbLayerTableRecord
2
SK4
70
0
62
2
6
CENTER
290
1
370
-3
390
0
0
LAYER
5
179
100
AcDbSymbolTableRecord
100
AcDbLayerTableRecord
2
SK6
70
0
62
5
6
CONTINUOUS
290
1
370
-3
390
0
0
LAYER
5
17a
100
AcDbSymbolTableRecord
100
AcDbLayerTableRecord
2
SK2
70
0
62
7
6
CONTINUOUS
290
1
370
-3
390
0
0
ENDTAB
0
TABLE
2
STYLE
5
18e
100
AcDbSymbolTable
0
STYLE
5
11
100
AcDbSymbolTableRecord
100
AcDbTextStyleTableRecord
2
Standard
3
txt
70
0
71
0
40
0
41
1
42
0
50
0
0
STYLE
5
CC
100
AcDbSymbolTableRecord
100
AcDbTextStyleTableRecord
2
iso_b_vert
3
simplex.shx
70
0
71
0
40
0
41
1
42
0
50
0
0
STYLE
5
CD
100
AcDbSymbolTableRecord
100
AcDbTextStyleTableRecord
2
DWGDirectTextStyle
3
simplex
70
0
71
0
40
0
41
1
42
0
50
0
0
ENDTAB
0
TABLE
2
DIMSTYLE
5
18f
100
AcDbSymbolTable
100
AcDbDimStyleTable
0
DIMSTYLE
105
27
100
AcDbSymbolTableRecord
100
AcDbDimStyleTableRecord
2
Standard
70
0
3
<>
41
0.18
42
0.0625
44
0.18
140
0.18
147
0.09
73
0
74
0
77
1
271
2
275
0
278
52
280
0
340
11
0
ENDTAB
0
TABLE
2
VIEW
5
190
100
AcDbSymbolTable
0
ENDTAB
0
TABLE
2
UCS
5
191
100
AcDbSymbolTable
0
ENDTAB
0
TABLE
2
APPID
5
192
100
AcDbSymbolTable
0
APPID
5
12
100
AcDbSymbolTableRecord
100
AcDbRegAppTableRecord
2
ACAD
70
0
0
ENDTAB
0
TABLE
2
BLOCK_RECORD
5
193
100
AcDbSymbolTable
0
BLOCK_RECORD
5
1F
100
AcDbSymbolTableRecord
100
AcDbBlockTableRecord
2
*Model_Space
340
0
70
0
0
BLOCK_RECORD
5
1B
100
AcDbSymbolTableRecord
100
AcDbBlockTableRecord
2
*Paper_Space
340
0
70
0
0
BLOCK_RECORD
5
23
100
AcDbSymbolTableRecord
100
AcDbBlockTableRecord
2
*Paper_Space0
340
0
70
0
0
BLOCK_RECORD
5
CF
100
AcDbSymbolTableRecord
100
AcDbBlockTableRecord
2
DimnDraft3D1
340
0
70
0
0
BLOCK_RECORD
5
DE
100
AcDbSymbolTableRecord
100
AcDbBlockTableRecord
2
_CLOSED
340
0
70
0
0
BLOCK_RECORD
5
E5
100
AcDbSymbolTableRecord
100
AcDbBlockTableRecord
2
DimnDraft3D2
340
0
70
0
0
BLOCK_RECORD
5
F4
100
AcDbSymbolTableRecord
100
AcDbBlockTableRecord
2
DimnDraft3D3
340
0
70
0
0
BLOCK_RECORD
5
102
100
AcDbSymbolTableRecord
100
AcDbBlockTableRecord
2
DimnDraft3D4
340
0
70
0
0
BLOCK_RECORD
5
110
100
AcDbSymbolTableRecord
100
AcDbBlockTableRecord
2
DimnDraft3D5
340
0
70
0
0
ENDTAB
0
ENDSEC
0
SECTION
2
BLOCKS
0
BLOCK
5
20
100
AcDbEntity
8
0
100
AcDbBlockBegin
2
*Model_Space
70
0
10
0
20
0
30
0
3
*Model_Space
0
ENDBLK
5
21
100
AcDbEntity
8
0
100
AcDbBlockEnd
0
BLOCK
5
1C
100
AcDbEntity
8
0
100
AcDbBlockBegin
2
*Paper_Space
70
0
10
0
20
0
30
0
3
*Paper_Space
0
ENDBLK
5
1D
100
AcDbEntity
8
0
100
AcDbBlockEnd
0
BLOCK
5
24
100
AcDbEntity
8
0
100
AcDbBlockBegin
2
*Paper_Space0
70
0
10
0
20
0
30
0
3
*Paper_Space0
0
ENDBLK
5
25
100
AcDbEntity
8
0
100
AcDbBlockEnd
0
BLOCK
5
DB
100
AcDbEntity
8
0
100
AcDbBlockBegin
2
DimnDraft3D1
70
0
10
0
20
0
30
0
3
DimnDraft3D1
0
MTEXT
5
D0
100
AcDbEntity
8
SK2
62
256
6
ByLayer
370
18
48
1
60
0
100
AcDbMText
10
58.957895
20
44.28405
30
0
210
0
220
0
230
1
1
\W0.6740;60
40
3
41
0
44
1.084337
50
0
71
7
72
5
7
iso_b_vert
0
LINE
5
D2
100
AcDbEntity
8
SK2
62
256
6
ByLayer
370
13
48
1
60
0
100
AcDbLine
10
30
20
29.5
30
0
11
30
21
46.53405
31
0
39
0
210
0
220
0
230
1
0
LINE
5
D3
100
AcDbEntity
8
SK2
62
256
6
ByLayer
370
13
48
1
60
0
100
AcDbLine
10
90
20
19.96765
30
0
11
90
21
46.53405
31
0
39
0
210
0
220
0
230
1
0
LINE
5
D4
100
AcDbEntity
8
SK2
62
256
6
ByLayer
370
13
48
1
60
0
100
AcDbLine
10
30
20
43.53405
30
0
11
90
21
43.53405
31
0
39
0
210
0
220
0
230
1
0
LINE
5
D5
100
AcDbEntity
8
SK2
62
256
6
ByLayer
370
13
48
1
60
0
100
AcDbLine
10
30
20
43.53405
30
0
11
32.999998
21
44.063031
31
0
39
0
210
0
220
0
230
1
0
LINE
5
D6
100
AcDbEntity
8
SK2
62
256
6
ByLayer
370
13
48
1
60
0
100
AcDbLine
10
30
20
43.53405
30
0
11
33.000002
21
43.005069
31
0
39
0
210
0
220
0
230
1
0
LINE
5
D7
100
AcDbEntity
8
SK2
62
256
6
ByLayer
370
13
48
1
60
0
100
AcDbLine
10
32.999998
20
44.063031
30
0
11
33.000002
21
43.005069
31
0
39
0
210
0
220
0
230
1
0
LINE
5
D8
100
AcDbEntity
8
SK2
62
256
6
ByLayer
370
13
48
1
60
0
100
AcDbLine
10
90
20
43.53405
30
0
11
87.000002
21
43.005069
31
0
39
0
210
0
220
0
230
1
0
LINE
5
D9
100
AcDbEntity
8
SK2
62
256
6
ByLayer
370
13
48
1
60
0
100
AcDbLine
10
90
20
43.53405
30
0
11
86.999998
21
44.063031
31
0
39
0
210
0
220
0
230
1
0
LINE
5
DA
100
AcDbEntity
8
SK2
62
256
6
ByLayer
370
13
48
1
60
0
100
AcDbLine
10
87.000002
20
43.005069
30
0
11
86.999998
21
44.063031
31
0
39
0
210
0
220
0
230
1
0
ENDBLK
5
DC
100
AcDbEntity
8
0
100
AcDbBlockEnd
0
BLOCK
5
DF
100
AcDbEntity
8
0
100
AcDbBlockBegin
2
_CLOSED
70
0
10
0
20
0
30
0
3
_CLOSED
0
LINE
5
E1
100
AcDbEntity
8
0
62
256
6
ByLayer
370
-2
48
1
60
0
100
AcDbLine
10
-1
20
0.166667
30
0
11
0
21
0
31
0
39
0
210
0
220
0
230
1
0
LINE
5
E2
100
AcDbEntity
8
0
62
256
6
ByLayer
370
-2
48
1
60
0
100
AcDbLine
10
0
20
0
30
0
11
-1
21
-0.166667
31
0
39
0
210
0
220
0
230
1
0
LINE
5
E3
100
AcDbEntity
8
0
62
256
6
ByLayer
370
-2
48
1
60
0
100
AcDbLine
10
-1
20
0.166667
30
0
11
-1
21
-0.166667
31
0
39
0
210
0
220
0
230
1
0
LINE
5
E4
100
AcDbEntity
8
0
62
256
6
ByLayer
370
-2
48
1
60
0
100
AcDbLine
10
0
20
0
30
0
11
-1
21
0
31
0
39
0
210
0
220
0
230
1
0
ENDBLK
5
E0
100
AcDbEntity
8
0
100
AcDbBlockEnd
0
BLOCK
5
F1
100
AcDbEntity
8
0
100
AcDbBlockBegin
2
DimnDraft3D2
70
0
10
0
20
0
30
0
3
DimnDraft3D2
0
MTEXT
5
E6
100
AcDbEntity
8
2
62
256
6
ByLayer
370
18
48
1
60
0
100
AcDbMText
10
13.957895
20
44.28405
30
0
210
0
220
0
230
1
1
\W0.6740;30
40
3
41
0
44
1.084337
50
0
71
7
72
5
7
iso_b_vert
0
LINE
5
E8
100
AcDbEntity
8
2
62
256
6
ByLayer
370
13
48
1
60
0
100
AcDbLine
10
0
20
26.2
30
0
11
0
21
46.53405
31
0
39
0
210
0
220
0
230
1
0
LINE
5
E9
100
AcDbEntity
8
2
62
256
6
ByLayer
370
13
48
1
60
0
100
AcDbLine
10
30
20
29.5
30
0
11
30
21
46.53405
31
0
39
0
210
0
220
0
230
1
0
LINE
5
EA
100
AcDbEntity
8
2
62
256
6
ByLayer
370
13
48
1
60
0
100
AcDbLine
10
0
20
43.53405
30
0
11
30
21
43.53405
31
0
39
0
210
0
220
0
230
1
0
LINE
5
EB
100
AcDbEntity
8
2
62
256
6
ByLayer
370
13
48
1
60
0
100
AcDbLine
10
0
20
43.53405
30
0
11
2.999998
21
44.063031
31
0
39
0
210
0
220
0
230
1
0
LINE
5
EC
100
AcDbEntity
8
2
62
256
6
ByLayer
370
13
48
1
60
0
100
AcDbLine
10
0
20
43.53405
30
0
11
3.000002
21
43.005069
31
0
39
0
210
0
220
0
230
1
0
LINE
5
ED
100
AcDbEntity
8
2
62
256
6
ByLayer
370
13
48
1
60
0
100
AcDbLine
10
2.999998
20
44.063031
30
0
11
3.000002
21
43.005069
31
0
39
0
210
0
220
0
230
1
0
LINE
5
EE
100
AcDbEntity
8
2
62
256
6
ByLayer
370
13
48
1
60
0
100
AcDbLine
10
30
20
43.53405
30
0
11
27.000002
21
43.005069
31
0
39
0
210
0
220
0
230
1
0
LINE
5
EF
100
AcDbEntity
8
2
62
256
6
ByLayer
370
13
48
1
60
0
100
AcDbLine
10
30
20
43.53405
30
0
11
26.999998
21
44.063031
31
0
39
0
210
0
220
0
230
1
0
LINE
5
F0
100
AcDbEntity
8
2
62
256
6
ByLayer
370
13
48
1
60
0
100
AcDbLine
10
27.000002
20
43.005069
30
0
11
26.999998
21
44.063031
31
0
39
0
210
0
220
0
230
1
0
ENDBLK
5
F2
100
AcDbEntity
8
0
100
AcDbBlockEnd
0
BLOCK
5
FF
100
AcDbEntity
8
0
100
AcDbBlockBegin
2
DimnDraft3D3
70
0
10
0
20
0
30
0
3
DimnDraft3D3
0
MTEXT
5
F5
100
AcDbEntity
8
SK2
62
256
6
ByLayer
370
18
48
1
60
0
100
AcDbMText
10
122.688795
20
-4.756579
30
0
210
0
220
0
230
1
1
\W0.7998;%%c 38.1
40
3
41
0
44
1.084337
50
90
71
7
72
5
7
iso_b_vert
0
LINE
5
F6
100
AcDbEntity
8
SK2
62
256
6
ByLayer
370
13
48
1
60
0
100
AcDbLine
10
90.5
20
-19.045
30
0
11
126.438795
21
-19.045
31
0
39
0
210
0
220
0
230
1
0
LINE
5
F7
100
AcDbEntity
8
SK2
62
256
6
ByLayer
370
13
48
1
60
0
100
AcDbLine
10
90.5
20
19.045
30
0
11
126.438795
21
19.045
31
0
39
0
210
0
220
0
230
1
0
LINE
5
F8
100
AcDbEntity
8
SK2
62
256
6
ByLayer
370
13
48
1
60
0
100
AcDbLine
10
123.438795
20
-19.045
30
0
11
123.438795
21
19.045
31
0
39
0
210
0
220
0
230
1
0
LINE
5
F9
100
AcDbEntity
8
SK2
62
256
6
ByLayer
370
13
48
1
60
0
100
AcDbLine
10
123.438795
20
-19.045
30
0
11
122.909814
21
-16.045002
31
0
39
0
210
0
220
0
230
1
0
LINE
5
FA
100
AcDbEntity
8
SK2
62
256
6
ByLayer
370
13
48
1
60
0
100
AcDbLine
10
123.438795
20
-19.045
30
0
11
123.967776
21
-16.044998
31
0
39
0
210
0
220
0
230
1
0
LINE
5
FB
100
AcDbEntity
8
SK2
62
256
6
ByLayer
370
13
48
1
60
0
100
AcDbLine
10
122.909814
20
-16.045002
30
0
11
123.967776
21
-16.044998
31
0
39
0
210
0
220
0
230
1
0
LINE
5
FC
100
AcDbEntity
8
SK2
62
256
6
ByLayer
370
13
48
1
60
0
100
AcDbLine
10
123.438795
20
19.045
30
0
11
123.967776
21
16.045002
31
0
39
0
210
0
220
0
230
1
0
LINE
5
FD
100
AcDbEntity
8
SK2
62
256
6
ByLayer
370
13
48
1
60
0
100
AcDbLine
10
123.438795
20
19.045
30
0
11
122.909814
21
16.044998
31
0
39
0
210
0
220
0
230
1
0
LINE
5
FE
100
AcDbEntity
8
SK2
62
256
6
ByLayer
370
13
48
1
60
0
100
AcDbLine
10
123.967776
20
16.045002
30
0
11
122.909814
21
16.044998
31
0
39
0
210
0
220
0
230
1
0
ENDBLK
5
100
100
AcDbEntity
8
0
100
AcDbBlockEnd
0
BLOCK
5
10D
100
AcDbEntity
8
0
100
AcDbBlockBegin
2
DimnDraft3D4
70
0
10
0
20
0
30
0
3
DimnDraft3D4
0
MTEXT
5
103
100
AcDbEntity
8
SK2
62
256
6
ByLayer
370
18
48
1
60
0
100
AcDbMText
10
132.436111
20
-3.402632
30
0
210
0
220
0
230
1
1
\W0.8066;%%c 57
40
3
41
0
44
1.084337
50
90
71
7
72
5
7
iso_b_vert
0
LINE
5
104
100
AcDbEntity
8
SK2
62
256
6
ByLayer
370
13
48
1
60
0
100
AcDbLine
10
31
20
-28.5
30
0
11
136.186111
21
-28.5
31
0
39
0
210
0
220
0
230
1
0
LINE
5
105
100
AcDbEntity
8
SK2
62
256
6
ByLayer
370
13
48
1
60
0
100
AcDbLine
10
31
20
28.5
30
0
11
136.186111
21
28.5
31
0
39
0
210
0
220
0
230
1
0
LINE
5
106
100
AcDbEntity
8
SK2
62
256
6
ByLayer
370
13
48
1
60
0
100
AcDbLine
10
133.186111
20
-28.5
30
0
11
133.186111
21
28.5
31
0
39
0
210
0
220
0
230
1
0
LINE
5
107
100
AcDbEntity
8
SK2
62
256
6
ByLayer
370
13
48
1
60
0
100
AcDbLine
10
133.186111
20
-28.5
30
0
11
132.65713
21
-25.500002
31
0
39
0
210
0
220
0
230
1
0
LINE
5
108
100
AcDbEntity
8
SK2
62
256
6
ByLayer
370
13
48
1
60
0
100
AcDbLine
10
133.186111
20
-28.5
30
0
11
133.715092
21
-25.499998
31
0
39
0
210
0
220
0
230
1
0
LINE
5
109
100
AcDbEntity
8
SK2
62
256
6
ByLayer
370
13
48
1
60
0
100
AcDbLine
10
132.65713
20
-25.500002
30
0
11
133.715092
21
-25.499998
31
0
39
0
210
0
220
0
230
1
0
LINE
5
10A
100
AcDbEntity
8
SK2
62
256
6
ByLayer
370
13
48
1
60
0
100
AcDbLine
10
133.186111
20
28.5
30
0
11
133.715092
21
25.500002
31
0
39
0
210
0
220
0
230
1
0
LINE
5
10B
100
AcDbEntity
8
SK2
62
256
6
ByLayer
370
13
48
1
60
0
100
AcDbLine
10
133.186111
20
28.5
30
0
11
132.65713
21
25.499998
31
0
39
0
210
0
220
0
230
1
0
LINE
5
10C
100
AcDbEntity
8
SK2
62
256
6
ByLayer
370
13
48
1
60
0
100
AcDbLine
10
133.715092
20
25.500002
30
0
11
132.65713
21
25.499998
31
0
39
0
210
0
220
0
230
1
0
ENDBLK
5
10E
100
AcDbEntity
8
0
100
AcDbBlockEnd
0
BLOCK
5
11B
100
AcDbEntity
8
0
100
AcDbBlockBegin
2
DimnDraft3D5
70
0
10
0
20
0
30
0
3
DimnDraft3D5
0
MTEXT
5
111
100
AcDbEntity
8
SK2
62
256
6
ByLayer
370
18
48
1
60
0
100
AcDbMText
10
-38.531808
20
-3.402632
30
0
210
0
220
0
230
1
1
\W0.8066;%%c 50
40
3
41
0
44
1.084337
50
90
71
7
72
5
7
iso_b_vert
0
LINE
5
112
100
AcDbEntity
8
SK2
62
256
6
ByLayer
370
13
48
1
60
0
100
AcDbLine
10
-1.2
20
-25
30
0
11
-40.781808
21
-25
31
0
39
0
210
0
220
0
230
1
0
LINE
5
113
100
AcDbEntity
8
SK2
62
256
6
ByLayer
370
13
48
1
60
0
100
AcDbLine
10
-1.2
20
25
30
0
11
-40.781808
21
25
31
0
39
0
210
0
220
0
230
1
0
LINE
5
114
100
AcDbEntity
8
SK2
62
256
6
ByLayer
370
13
48
1
60
0
100
AcDbLine
10
-37.781808
20
-25
30
0
11
-37.781808
21
25
31
0
39
0
210
0
220
0
230
1
0
LINE
5
115
100
AcDbEntity
8
SK2
62
256
6
ByLayer
370
13
48
1
60
0
100
AcDbLine
10
-37.781808
20
-25
30
0
11
-38.310789
21
-22.000002
31
0
39
0
210
0
220
0
230
1
0
LINE
5
116
100
AcDbEntity
8
SK2
62
256
6
ByLayer
370
13
48
1
60
0
100
AcDbLine
10
-37.781808
20
-25
30
0
11
-37.252827
21
-21.999998
31
0
39
0
210
0
220
0
230
1
0
LINE
5
117
100
AcDbEntity
8
SK2
62
256
6
ByLayer
370
13
48
1
60
0
100
AcDbLine
10
-38.310789
20
-22.000002
30
0
11
-37.252827
21
-21.999998
31
0
39
0
210
0
220
0
230
1
0
LINE
5
118
100
AcDbEntity
8
SK2
62
256
6
ByLayer
370
13
48
1
60
0
100
AcDbLine
10
-37.781808
20
25
30
0
11
-37.252827
21
22.000002
31
0
39
0
210
0
220
0
230
1
0
LINE
5
119
100
AcDbEntity
8
SK2
62
256
6
ByLayer
370
13
48
1
60
0
100
AcDbLine
10
-37.781808
20
25
30
0
11
-38.310789
21
21.999998
31
0
39
0
210
0
220
0
230
1
0
LINE
5
11A
100
AcDbEntity
8
SK2
62
256
6
ByLayer
370
13
48
1
60
0
100
AcDbLine
10
-37.252827
20
22.000002
30
0
11
-38.310789
21
21.999998
31
0
39
0
210
0
220
0
230
1
0
ENDBLK
5
11C
100
AcDbEntity
8
0
100
AcDbBlockEnd
0
ENDSEC
0
SECTION
2
ENTITIES
0
ARC
5
B6
100
AcDbEntity
8
SK1
62
256
6
ByLayer
370
18
48
1
60
0
100
AcDbCircle
39
0
10
30.395085
20
19.345
30
0
40
0.6
210
0
220
0
230
1
100
AcDbArc
50
228.816292
51
270
0
ARC
5
B7
100
AcDbEntity
8
SK1
62
256
6
ByLayer
370
18
48
1
60
0
100
AcDbCircle
39
0
10
40.7625
20
0
30
0
40
4.7625
210
0
220
0
230
1
100
AcDbArc
50
90
51
270
0
ARC
5
B8
100
AcDbEntity
8
SK1
62
256
6
ByLayer
370
18
48
1
60
0
100
AcDbCircle
39
0
10
-30.395085
20
-19.345
30
0
40
0.6
210
0
220
0
230
-1
100
AcDbArc
50
48.816292
51
90
0
POINT
5
6C
100
AcDbEntity
8
80
62
256
6
ByLayer
370
18
48
1
60
0
100
AcDbPoint
10
0
20
0
30
0
39
0
210
0
220
0
230
1
50
360
0
POINT
5
6E
100
AcDbEntity
8
81
62
256
6
ByLayer
370
18
48
1
60
0
100
AcDbPoint
10
30
20
0
30
0
39
0
210
0
220
0
230
1
50
360
0
SPLINE
5
B9
100
AcDbEntity
8
SK1
62
256
6
ByLayer
370
18
48
1
60
0
100
AcDbSpline
70
4
71
3
72
25
73
21
40
0
40
0
40
0
40
0
40
0.0451445804044697
40
0.0662501195616739
40
0.0847063781534514
40
0.107495934815105
40
0.124566772688833
40
0.155724716153843
40
0.209432321905484
40
0.270968920265238
40
0.777325582072208
40
0.823981739083715
40
0.868622954119697
40
0.888504157433833
40
0.91692126716435
40
0.94455241892927
40
0.965239501055916
40
0.982713944124361
40
0.998519826946533
40
1
40
1
40
1
40
1
41
1
10
-2.09429771640845
20
-17.5282918765558
30
-2.743E-13
41
1
10
-2.09323584167037
20
-17.4922273244913
30
-1.206E-13
41
1
10
-2.08086137782284
20
-17.4447170351552
30
2.55E-14
41
1
10
-2.05055075515603
20
-17.3857761485081
30
-3.9E-15
41
1
10
-2.01130783298257
20
-17.3583843669192
30
1.3E-15
41
1
10
-1.97552284998505
20
-17.3308981130099
30
-3E-16
41
1
10
-1.92130290428454
20
-17.3217640868509
30
1E-16
41
1
10
-1.84416548606538
20
-17.3207678563588
30
-1E-16
41
1
10
-1.73297413014758
20
-17.3259198948029
30
0
41
1
10
-1.26124388047272
20
-17.328122394936
30
-1E-16
41
1
10
-0.794119646310045
20
-17.3285311453373
30
0
41
1
10
-0.341475383465197
20
-17.3590550476057
30
0
41
1
10
-0.257020587207565
20
-17.3609602867826
30
0
41
1
10
-0.18665254026347
20
-17.3634974799853
30
0
41
1
10
-0.128730736166229
20
-17.371759936943
30
0
41
1
10
-0.0770865660614083
20
-17.4004015342079
30
0
41
1
10
-0.0377394188389936
20
-17.4320052232884
30
0
41
1
10
-0.0153292696450804
20
-17.4667953585686
30
0
41
1
10
-0.0043067091462423
20
-17.4909396472681
30
0
41
1
10
-0.0003296777914337
20
-17.5033976985446
30
0
41
1
10
-3E-16
20
-17.5044677669611
30
0
0
SPLINE
5
BA
100
AcDbEntity
8
SK1
62
256
6
ByLayer
370
18
48
1
60
0
100
AcDbSpline
70
4
71
3
72
25
73
21
40
0
40
0
40
0
40
0
40
0.0451445804044697
40
0.0662501195616739
40
0.0847063781534514
40
0.107495934815105
40
0.124566772688833
40
0.155724716153843
40
0.209432321905484
40
0.270968920265238
40
0.777325582072208
40
0.823981739083715
40
0.868622954119697
40
0.888504157433833
40
0.91692126716435
40
0.94455241892927
40
0.965239501055916
40
0.982713944124361
40
0.998519826946533
40
1
40
1
40
1
40
1
41
1
10
-2.09429771640845
20
17.5282918765558
30
-2.743E-13
41
1
10
-2.09323584167037
20
17.4922273244913
30
-1.206E-13
41
1
10
-2.08086137782284
20
17.4447170351552
30
2.55E-14
41
1
10
-2.05055075515603
20
17.3857761485081
30
-3.9E-15
41
1
10
-2.01130783298257
20
17.3583843669192
30
1.3E-15
41
1
10
-1.97552284998505
20
17.3308981130099
30
-3E-16
41
1
10
-1.92130290428454
20
17.3217640868509
30
1E-16
41
1
10
-1.84416548606538
20
17.3207678563588
30
-1E-16
41
1
10
-1.73297413014758
20
17.3259198948029
30
0
41
1
10
-1.26124388047272
20
17.328122394936
30
-1E-16
41
1
10
-0.794119646310045
20
17.3285311453373
30
0
41
1
10
-0.341475383465197
20
17.3590550476057
30
0
41
1
10
-0.257020587207565
20
17.3609602867826
30
0
41
1
10
-0.18665254026347
20
17.3634974799853
30
0
41
1
10
-0.128730736166229
20
17.371759936943
30
0
41
1
10
-0.0770865660614083
20
17.4004015342079
30
0
41
1
10
-0.0377394188389936
20
17.4320052232884
30
0
41
1
10
-0.0153292696450804
20
17.4667953585686
30
0
41
1
10
-0.0043067091462423
20
17.4909396472681
30
0
41
1
10
-0.0003296777914337
20
17.5033976985446
30
0
41
1
10
-3E-16
20
17.5044677669611
30
0
0
SPLINE
5
BB
100
AcDbEntity
8
1
62
256
6
ByLayer
370
18
48
1
60
0
100
AcDbSpline
70
4
71
3
72
22
73
18
40
0
40
0
40
0
40
0
40
0.0927330516749022
40
0.0927330516749022
40
0.27264919985765
40
0.27264919985765
40
0.452570034734488
40
0.452570034734488
40
0.500000000133982
40
0.500000000133982
40
0.547429943613337
40
0.547429943613337
40
0.727350818010385
40
0.727350818010385
40
0.907267005709078
40
0.907267005709078
40
1
40
1
40
1
40
1
41
1
10
8.10567482396451
20
-23.6665482943798
30
0
41
1
10
7.92935148439471
20
-23.4436702769936
30
0
41
1
10
7.76685513775662
20
-23.1921397598928
30
0
41
1
10
7.3338521250333
20
-22.3707154959916
30
0
41
1
10
7.10410612513563
20
-21.7194766871207
30
0
41
1
10
6.7735263743452
20
-20.2224447815166
30
0
41
1
10
6.67137320109457
20
-19.3700586065434
30
0
41
1
10
6.62713793331886
20
-18.1883903930939
30
0
41
1
10
6.62250092524113
20
-17.9358218708429
30
0
41
1
10
6.62250092524014
20
-17.4195173078746
30
0
41
1
10
6.62713792902748
20
-17.1556170368017
30
0
41
1
10
6.67137317980535
20
-15.8655949123509
30
0
41
1
10
6.77352637452748
20
-14.7629252173372
30
0
41
1
10
7.1041062228712
20
-12.4561410744499
30
0
41
1
10
7.33385229978464
20
-11.242194638444
30
0
41
1
10
7.76685533899665
20
-9.36013402757729
30
0
41
1
10
7.92935159351394
20
-8.7105513370889
30
0
41
1
10
8.10567482397444
20
-8.05577151319619
30
0
0
SPLINE
5
BC
100
AcDbEntity
8
1
62
256
6
ByLayer
370
18
48
1
60
0
100
AcDbSpline
70
4
71
3
72
22
73
18
40
0
40
0
40
0
40
0
40
0.0927330516749022
40
0.0927330516749022
40
0.27264919985765
40
0.27264919985765
40
0.452570034734488
40
0.452570034734488
40
0.500000000133982
40
0.500000000133982
40
0.547429943613337
40
0.547429943613337
40
0.727350818010385
40
0.727350818010385
40
0.907267005709078
40
0.907267005709078
40
1
40
1
40
1
40
1
41
1
10
8.10567482396464
20
23.6665482943798
30
0
41
1
10
7.92935148439484
20
23.4436702769936
30
0
41
1
10
7.76685513775675
20
23.1921397598927
30
0
41
1
10
7.33385212503343
20
22.3707154959915
30
0
41
1
10
7.10410612513575
20
21.7194766871207
30
0
41
1
10
6.77352637434531
20
20.2224447815165
30
0
41
1
10
6.67137320109468
20
19.3700586065434
30
0
41
1
10
6.62713793331896
20
18.1883903930938
30
0
41
1
10
6.62250092524123
20
17.9358218708428
30
0
41
1
10
6.62250092524024
20
17.4195173078746
30
0
41
1
10
6.62713792902758
20
17.1556170368016
30
0
41
1
10
6.67137317980544
20
15.8655949123509
30
0
41
1
10
6.77352637452756
20
14.7629252173371
30
0
41
1
10
7.10410622287127
20
12.4561410744499
30
0
41
1
10
7.3338522997847
20
11.2421946384439
30
0
41
1
10
7.7668553389967
20
9.36013402757725
30
0
41
1
10
7.92935159351399
20
8.71055133708886
30
0
41
1
10
8.10567482397449
20
8.05577151319614
30
0
0
SPLINE
5
BD
100
AcDbEntity
8
1
62
256
6
ByLayer
370
18
48
1
60
0
100
AcDbSpline
70
4
71
3
72
14
73
10
40
0
40
0
40
0
40
0
40
0.239397111289125
40
0.239397111289125
40
0.612781250184906
40
0.612781250184906
40
0.805943621259814
40
0.805943621259814
40
1
40
1
40
1
40
1
41
1
10
8.10566243270252
20
-23.6665017920826
30
0
41
1
10
8.09095796262549
20
-23.6479145393459
30
0
41
1
10
8.13798361688695
20
-23.7032843924784
30
0
41
1
10
8.19265323173055
20
-23.7481959874034
30
0
41
1
10
8.23529756799636
20
-23.7746429958952
30
0
41
1
10
8.32413879135682
20
-23.8081529301734
30
0
41
1
10
8.3595677983887
20
-23.8185995294702
30
0
41
1
10
8.44116088643751
20
-23.8340785151528
30
0
41
1
10
8.49042210071883
20
-23.8391299750504
30
0
41
1
10
8.53867513459474
20
-23.8391299750504
30
0
0
SPLINE
5
BE
100
AcDbEntity
8
1
62
256
6
ByLayer
370
18
48
1
60
0
100
AcDbSpline
70
4
71
3
72
14
73
10
40
0
40
0
40
0
40
0
40
0.239397111289125
40
0.239397111289125
40
0.612781250184906
40
0.612781250184906
40
0.805943621259814
40
0.805943621259814
40
1
40
1
40
1
40
1
41
1
10
8.10566243270265
20
23.6665017920826
30
0
41
1
10
8.09095796262562
20
23.6479145393459
30
0
41
1
10
8.13798361688708
20
23.7032843924783
30
0
41
1
10
8.19265323173068
20
23.7481959874033
30
0
41
1
10
8.2352975679965
20
23.7746429958951
30
0
41
1
10
8.32413879135696
20
23.8081529301734
30
0
41
1
10
8.35956779838883
20
23.8185995294702
30
0
41
1
10
8.44116088643764
20
23.8340785151527
30
0
41
1
10
8.49042210071897
20
23.8391299750503
30
0
41
1
10
8.53867513459488
20
23.8391299750503
30
0
0
SPLINE
5
BF
100
AcDbEntity
8
1
62
256
6
ByLayer
370
18
48
1
60
0
100
AcDbSpline
70
4
71
3
72
14
73
10
40
0
40
0
40
0
40
0
40
0.239397111289486
40
0.239397111289486
40
0.61278125018505
40
0.61278125018505
40
0.805943621259882
40
0.805943621259882
40
1
40
1
40
1
40
1
41
1
10
8.10566243270258
20
-8.05584836782783
30
0
41
1
10
8.12036690277972
20
-8.00124266646396
30
0
41
1
10
8.13798361688571
20
-7.94714297480044
30
0
41
1
10
8.19265323172929
20
-7.81219451169196
30
0
41
1
10
8.23529756799513
20
-7.73121702125247
30
0
41
1
10
8.32413879135579
20
-7.62715004590019
30
0
41
1
10
8.35956779838777
20
-7.59440752379593
30
0
41
1
10
8.44116088643694
20
-7.54568860481045
30
0
41
1
10
8.49042210071858
20
-7.5296667942651
30
0
41
1
10
8.53867513459479
20
-7.5296667942651
30
0
0
SPLINE
5
C0
100
AcDbEntity
8
1
62
256
6
ByLayer
370
18
48
1
60
0
100
AcDbSpline
70
4
71
3
72
14
73
10
40
0
40
0
40
0
40
0
40
0.239397111289486
40
0.239397111289486
40
0.61278125018505
40
0.61278125018505
40
0.805943621259882
40
0.805943621259882
40
1
40
1
40
1
40
1
41
1
10
8.10566243270262
20
8.05584836782778
30
0
41
1
10
8.12036690277977
20
8.00124266646392
30
0
41
1
10
8.13798361688575
20
7.94714297480039
30
0
41
1
10
8.19265323172934
20
7.81219451169192
30
0
41
1
10
8.23529756799517
20
7.73121702125242
30
0
41
1
10
8.32413879135584
20
7.62715004590015
30
0
41
1
10
8.35956779838781
20
7.59440752379588
30
0
41
1
10
8.44116088643698
20
7.5456886048104
30
0
41
1
10
8.49042210071862
20
7.52966679426505
30
0
41
1
10
8.53867513459483
20
7.52966679426505
30
0
0
SPLINE
5
C1
100
AcDbEntity
8
1
62
256
6
ByLayer
370
18
48
1
60
0
100
AcDbSpline
70
4
71
3
72
9
73
5
40
0
40
0
40
0
40
0
40
0.494949494949496
40
1
40
1
40
1
40
1
41
1
10
8.53867513459474
20
-23.8391299750504
30
0
41
1
10
9.02086313732103
20
-23.8391299750504
30
0
41
1
10
9.99507971425784
20
-23.8391299750504
30
0
41
1
10
10.9692962911946
20
-23.8391299750504
30
0
41
1
10
11.4613248654051
20
-23.8391299750504
30
0
0
SPLINE
5
C2
100
AcDbEntity
8
1
62
256
6
ByLayer
370
18
48
1
60
0
100
AcDbSpline
70
4
71
3
72
9
73
5
40
0
40
0
40
0
40
0
40
0.505050505050505
40
1
40
1
40
1
40
1
41
1
10
11.4613248654052
20
-7.52966679426511
30
0
41
1
10
10.9692962911947
20
-7.52966679426511
30
0
41
1
10
9.99507971425789
20
-7.52966679401164
30
0
41
1
10
9.02086313732108
20
-7.5296667942651
30
0
41
1
10
8.53867513459479
20
-7.5296667942651
30
0
0
SPLINE
5
C3
100
AcDbEntity
8
1
62
256
6
ByLayer
370
18
48
1
60
0
100
AcDbSpline
70
4
71
3
72
9
73
5
40
0
40
0
40
0
40
0
40
0.505050505050505
40
1
40
1
40
1
40
1
41
1
10
11.4613248654052
20
7.52966679426505
30
0
41
1
10
10.9692962911947
20
7.52966679426505
30
0
41
1
10
9.99507971425793
20
7.52966679401158
30
0
41
1
10
9.02086313732112
20
7.52966679426505
30
0
41
1
10
8.53867513459483
20
7.52966679426505
30
0
0
SPLINE
5
C4
100
AcDbEntity
8
1
62
256
6
ByLayer
370
18
48
1
60
0
100
AcDbSpline
70
4
71
3
72
9
73
5
40
0
40
0
40
0
40
0
40
0.494949494949496
40
1
40
1
40
1
40
1
41
1
10
8.53867513459488
20
23.8391299750503
30
0
41
1
10
9.02086313732117
20
23.8391299750503
30
0
41
1
10
9.99507971425797
20
23.8391299750503
30
0
41
1
10
10.9692962911948
20
23.8391299750503
30
0
41
1
10
11.4613248654053
20
23.8391299750503
30
0
0
SPLINE
5
C5
100
AcDbEntity
8
1
62
256
6
ByLayer
370
18
48
1
60
0
100
AcDbSpline
70
4
71
3
72
14
73
10
40
0
40
0
40
0
40
0
40
0.239397111289475
40
0.239397111289475
40
0.612781250185036
40
0.612781250185036
40
0.805943621259863
40
0.805943621259863
40
1
40
1
40
1
40
1
41
1
10
11.8943375672974
20
-23.666501792081
30
0
41
1
10
11.8796330972202
20
-23.6850890448178
30
0
41
1
10
11.8620163831142
20
-23.7032843924772
30
0
41
1
10
11.8073467682706
20
-23.7481959874026
30
0
41
1
10
11.7647024320048
20
-23.7746429958946
30
0
41
1
10
11.6758612086441
20
-23.8081529301731
30
0
41
1
10
11.6404322016121
20
-23.81859952947
30
0
41
1
10
11.558839113563
20
-23.8340785151527
30
0
41
1
10
11.5095778992813
20
-23.8391299750504
30
0
41
1
10
11.4613248654051
20
-23.8391299750504
30
0
0
SPLINE
5
C6
100
AcDbEntity
8
1
62
256
6
ByLayer
370
18
48
1
60
0
100
AcDbSpline
70
4
71
3
72
14
73
10
40
0
40
0
40
0
40
0
40
0.239397111284482
40
0.239397111284482
40
0.612781250183029
40
0.612781250183029
40
0.805943621258938
40
0.805943621258938
40
1
40
1
40
1
40
1
41
1
10
11.8943375672974
20
-8.05584836775995
30
0
41
1
10
11.909042037373
20
-8.11045406911773
30
0
41
1
10
11.8620163830966
20
-7.94714297475087
30
0
41
1
10
11.8073467682528
20
-7.81219451165698
30
0
41
1
10
11.7647024319871
20
-7.73121702122572
30
0
41
1
10
11.6758612086292
20
-7.62715004588576
30
0
41
1
10
11.6404322015988
20
-7.59440752378582
30
0
41
1
10
11.5588391135546
20
-7.54568860480753
30
0
41
1
10
11.5095778992772
20
-7.52966679426511
30
0
41
1
10
11.4613248654052
20
-7.52966679426511
30
0
0
SPLINE
5
C7
100
AcDbEntity
8
1
62
256
6
ByLayer
370
18
48
1
60
0
100
AcDbSpline
70
4
71
3
72
14
73
10
40
0
40
0
40
0
40
0
40
0.239397111284482
40
0.239397111284482
40
0.612781250183029
40
0.612781250183029
40
0.805943621258938
40
0.805943621258938
40
1
40
1
40
1
40
1
41
1
10
11.8943375672974
20
8.05584836775988
30
0
41
1
10
11.909042037373
20
8.11045406911767
30
0
41
1
10
11.8620163830966
20
7.9471429747508
30
0
41
1
10
11.8073467682529
20
7.81219451165691
30
0
41
1
10
11.7647024319871
20
7.73121702122566
30
0
41
1
10
11.6758612086293
20
7.6271500458857
30
0
41
1
10
11.6404322015988
20
7.59440752378575
30
0
41
1
10
11.5588391135547
20
7.54568860480747
30
0
41
1
10
11.5095778992773
20
7.52966679426504
30
0
41
1
10
11.4613248654052
20
7.52966679426504
30
0
0
SPLINE
5
C8
100
AcDbEntity
8
1
62
256
6
ByLayer
370
18
48
1
60
0
100
AcDbSpline
70
4
71
3
72
14
73
10
40
0
40
0
40
0
40
0
40
0.239397111289475
40
0.239397111289475
40
0.612781250185036
40
0.612781250185036
40
0.805943621259863
40
0.805943621259863
40
1
40
1
40
1
40
1
41
1
10
11.8943375672975
20
23.6665017920809
30
0
41
1
10
11.8796330972203
20
23.6850890448177
30
0
41
1
10
11.8620163831143
20
23.7032843924771
30
0
41
1
10
11.8073467682707
20
23.7481959874025
30
0
41
1
10
11.7647024320049
20
23.7746429958945
30
0
41
1
10
11.6758612086443
20
23.8081529301731
30
0
41
1
10
11.6404322016123
20
23.8185995294699
30
0
41
1
10
11.5588391135631
20
23.8340785151526
30
0
41
1
10
11.5095778992815
20
23.8391299750503
30
0
41
1
10
11.4613248654053
20
23.8391299750503
30
0
0
SPLINE
5
C9
100
AcDbEntity
8
1
62
256
6
ByLayer
370
18
48
1
60
0
100
AcDbSpline
70
4
71
3
72
22
73
18
40
0
40
0
40
0
40
0
40
0.0927330516750335
40
0.0927330516750335
40
0.272649199857765
40
0.272649199857765
40
0.452570034734589
40
0.452570034734589
40
0.500000000134082
40
0.500000000134082
40
0.547429943613437
40
0.547429943613437
40
0.72735081801048
40
0.72735081801048
40
0.907267005709169
40
0.907267005709169
40
1
40
1
40
1
40
1
41
1
10
11.8943251760354
20
-23.6665482943798
30
0
41
1
10
12.0706485156054
20
-23.4436702769933
30
0
41
1
10
12.2331448622437
20
-23.1921397598921
30
0
41
1
10
12.6661478749671
20
-22.3707154959903
30
0
41
1
10
12.8958938748647
20
-21.7194766871194
30
0
41
1
10
13.2264736256549
20
-20.2224447815151
30
0
41
1
10
13.3286267989055
20
-19.3700586065419
30
0
41
1
10
13.3728620666811
20
-18.1883903930923
30
0
41
1
10
13.3774990747588
20
-17.9358218708413
30
0
41
1
10
13.3774990747597
20
-17.419517307873
30
0
41
1
10
13.3728620709724
20
-17.1556170368
30
0
41
1
10
13.3286268201944
20
-15.8655949123492
30
0
41
1
10
13.2264736254722
20
-14.7629252173354
30
0
41
1
10
12.8958937771284
20
-12.4561410744481
30
0
41
1
10
12.6661477002149
20
-11.2421946384421
30
0
41
1
10
12.233144661003
20
-9.36013402757603
30
0
41
1
10
12.0706484064858
20
-8.71055133708827
30
0
41
1
10
11.8943251760255
20
-8.0557715131962
30
0
0
SPLINE
5
CA
100
AcDbEntity
8
1
62
256
6
ByLayer
370
18
48
1
60
0
100
AcDbSpline
70
4
71
3
72
22
73
18
40
0
40
0
40
0
40
0
40
0.0927330516750335
40
0.0927330516750335
40
0.272649199857765
40
0.272649199857765
40
0.452570034734589
40
0.452570034734589
40
0.500000000134082
40
0.500000000134082
40
0.547429943613437
40
0.547429943613437
40
0.72735081801048
40
0.72735081801048
40
0.907267005709169
40
0.907267005709169
40
1
40
1
40
1
40
1
41
1
10
11.8943251760355
20
23.6665482943797
30
0
41
1
10
12.0706485156055
20
23.4436702769932
30
0
41
1
10
12.2331448622438
20
23.192139759892
30
0
41
1
10
12.6661478749672
20
22.3707154959902
30
0
41
1
10
12.8958938748648
20
21.7194766871193
30
0
41
1
10
13.226473625655
20
20.222444781515
30
0
41
1
10
13.3286267989056
20
19.3700586065418
30
0
41
1
10
13.3728620666812
20
18.1883903930922
30
0
41
1
10
13.3774990747589
20
17.9358218708412
30
0
41
1
10
13.3774990747598
20
17.4195173078729
30
0
41
1
10
13.3728620709725
20
17.1556170367999
30
0
41
1
10
13.3286268201945
20
15.8655949123491
30
0
41
1
10
13.2264736254723
20
14.7629252173353
30
0
41
1
10
12.8958937771285
20
12.456141074448
30
0
41
1
10
12.666147700215
20
11.242194638442
30
0
41
1
10
12.2331446610031
20
9.36013402757596
30
0
41
1
10
12.0706484064859
20
8.7105513370882
30
0
41
1
10
11.8943251760256
20
8.05577151319613
30
0
0
LINE
5
70
100
AcDbEntity
8
1
62
256
6
ByLayer
370
18
48
1
60
0
100
AcDbLine
10
30
20
0
30
0
11
30
21
24
31
0
39
0
210
0
220
0
230
1
0
LINE
5
72
100
AcDbEntity
8
1
62
256
6
ByLayer
370
18
48
1
60
0
100
AcDbLine
10
30
20
0
30
0
11
30
21
-24
31
0
39
0
210
0
220
0
230
1
0
LINE
5
73
100
AcDbEntity
8
1
62
256
6
ByLayer
370
18
48
1
60
0
100
AcDbLine
10
30
20
0
30
0
11
30
21
28
31
0
39
0
210
0
220
0
230
1
0
LINE
5
74
100
AcDbEntity
8
1
62
256
6
ByLayer
370
18
48
1
60
0
100
AcDbLine
10
30
20
0
30
0
11
30
21
-24
31
0
39
0
210
0
220
0
230
1
0
LINE
5
75
100
AcDbEntity
8
1
62
256
6
ByLayer
370
18
48
1
60
0
100
AcDbLine
10
30
20
-28
30
0
11
30
21
0
31
0
39
0
210
0
220
0
230
1
0
LINE
5
76
100
AcDbEntity
8
SK1
62
256
6
ByLayer
370
18
48
1
60
0
100
AcDbLine
10
89
20
19.045
30
0
11
90
21
18.46765
31
0
39
0
210
0
220
0
230
1
0
LINE
5
78
100
AcDbEntity
8
SK1
62
256
6
ByLayer
370
18
48
1
60
0
100
AcDbLine
10
32.5
20
19.045
30
0
11
32.5
21
-19.045
31
0
39
0
210
0
220
0
230
1
0
LINE
5
79
100
AcDbEntity
8
SK1
62
256
6
ByLayer
370
18
48
1
60
0
100
AcDbLine
10
89
20
-19.045
30
0
11
90
21
-18.46765
31
0
39
0
210
0
220
0
230
1
0
LINE
5
7A
100
AcDbEntity
8
SK1
62
256
6
ByLayer
370
18
48
1
60
0
100
AcDbLine
10
90
20
-18.46765
30
0
11
90
21
18.46765
31
0
39
0
210
0
220
0
230
1
0
LINE
5
7B
100
AcDbEntity
8
SK1
62
256
6
ByLayer
370
18
48
1
60
0
100
AcDbLine
10
31.380385
20
18.745
30
0
11
32.5
21
19.045
31
0
39
0
210
0
220
0
230
1
0
LINE
5
7C
100
AcDbEntity
8
SK1
62
256
6
ByLayer
370
18
48
1
60
0
100
AcDbLine
10
30.395085
20
18.745
30
0
11
31.380385
21
18.745
31
0
39
0
210
0
220
0
230
1
0
LINE
5
7D
100
AcDbEntity
8
SK1
62
256
6
ByLayer
370
18
48
1
60
0
100
AcDbLine
10
31.380385
20
-18.745
30
0
11
32.5
21
-19.045
31
0
39
0
210
0
220
0
230
1
0
LINE
5
7E
100
AcDbEntity
8
SK1
62
256
6
ByLayer
370
18
48
1
60
0
100
AcDbLine
10
31.380385
20
18.745
30
0
11
31.380385
21
-18.745
31
0
39
0
210
0
220
0
230
1
0
LINE
5
7F
100
AcDbEntity
8
SK1
62
256
6
ByLayer
370
18
48
1
60
0
100
AcDbLine
10
32.5
20
19.045
30
0
11
89
21
19.045
31
0
39
0
210
0
220
0
230
1
0
LINE
5
80
100
AcDbEntity
8
SK1
62
256
6
ByLayer
370
18
48
1
60
0
100
AcDbLine
10
32.5
20
-19.045
30
0
11
89
21
-19.045
31
0
39
0
210
0
220
0
230
1
0
LINE
5
81
100
AcDbEntity
8
SK1
62
256
6
ByLayer
370
18
48
1
60
0
100
AcDbLine
10
30.395085
20
-18.745
30
0
11
31.380385
21
-18.745
31
0
39
0
210
0
220
0
230
1
0
LINE
5
82
100
AcDbEntity
8
SK1
62
256
6
ByLayer
370
18
48
1
60
0
100
AcDbLine
10
40.7625
20
4.7625
30
0
11
90
21
4.7625
31
0
39
0
210
0
220
0
230
1
0
LINE
5
83
100
AcDbEntity
8
SK1
62
256
6
ByLayer
370
18
48
1
60
0
100
AcDbLine
10
89
20
19.045
30
0
11
89
21
4.7625
31
0
39
0
210
0
220
0
230
1
0
LINE
5
84
100
AcDbEntity
8
SK1
62
256
6
ByLayer
370
18
48
1
60
0
100
AcDbLine
10
40.7625
20
-4.7625
30
0
11
90
21
-4.7625
31
0
39
0
210
0
220
0
230
1
0
LINE
5
85
100
AcDbEntity
8
SK1
62
256
6
ByLayer
370
18
48
1
60
0
100
AcDbLine
10
89
20
-19.045
30
0
11
89
21
-4.7625
31
0
39
0
210
0
220
0
230
1
0
LINE
5
86
100
AcDbEntity
8
SK1
62
256
6
ByLayer
370
18
48
1
60
0
100
AcDbLine
10
96
20
-22.7
30
0
11
96
21
22.7
31
0
39
0
210
0
220
0
230
1
0
LINE
5
87
100
AcDbEntity
8
SK1
62
256
6
ByLayer
370
18
48
1
60
0
100
AcDbLine
10
109
20
-22.7
30
0
11
109
21
22.7
31
0
39
0
210
0
220
0
230
1
0
LINE
5
88
100
AcDbEntity
8
SK1
62
256
6
ByLayer
370
18
48
1
60
0
100
AcDbLine
10
97
20
-23.7
30
0
11
108
21
-23.7
31
0
39
0
210
0
220
0
230
1
0
LINE
5
89
100
AcDbEntity
8
SK1
62
256
6
ByLayer
370
18
48
1
60
0
100
AcDbLine
10
96
20
-22.7
30
0
11
97
21
-23.7
31
0
39
0
210
0
220
0
230
1
0
LINE
5
8A
100
AcDbEntity
8
SK1
62
256
6
ByLayer
370
18
48
1
60
0
100
AcDbLine
10
109
20
-22.7
30
0
11
108
21
-23.7
31
0
39
0
210
0
220
0
230
1
0
LINE
5
8B
100
AcDbEntity
8
SK1
62
256
6
ByLayer
370
13
48
1
60
0
100
AcDbLine
10
90
20
-8.6475
30
0
11
96
21
-8.6475
31
0
39
0
210
0
220
0
230
1
0
LINE
5
8C
100
AcDbEntity
8
SK1
62
256
6
ByLayer
370
18
48
1
60
0
100
AcDbLine
10
90
20
-9.5275
30
0
11
96
21
-9.5275
31
0
39
0
210
0
220
0
230
1
0
LINE
5
8D
100
AcDbEntity
8
SK1
62
256
6
ByLayer
370
18
48
1
60
0
100
AcDbLine
10
109
20
22.7
30
0
11
108
21
23.7
31
0
39
0
210
0
220
0
230
1
0
LINE
5
8E
100
AcDbEntity
8
SK1
62
256
6
ByLayer
370
18
48
1
60
0
100
AcDbLine
10
97
20
23.7
30
0
11
108
21
23.7
31
0
39
0
210
0
220
0
230
1
0
LINE
5
8F
100
AcDbEntity
8
SK1
62
256
6
ByLayer
370
18
48
1
60
0
100
AcDbLine
10
96
20
22.7
30
0
11
97
21
23.7
31
0
39
0
210
0
220
0
230
1
0
LINE
5
90
100
AcDbEntity
8
SK1
62
256
6
ByLayer
370
13
48
1
60
0
100
AcDbLine
10
90
20
8.6475
30
0
11
96
21
8.6475
31
0
39
0
210
0
220
0
230
1
0
LINE
5
91
100
AcDbEntity
8
SK1
62
256
6
ByLayer
370
18
48
1
60
0
100
AcDbLine
10
90
20
9.5275
30
0
11
96
21
9.5275
31
0
39
0
210
0
220
0
230
1
0
LINE
5
92
100
AcDbEntity
8
SK1
62
256
6
ByLayer
370
18
48
1
60
0
100
AcDbLine
10
97
20
-23.7
30
0
11
97
21
23.7
31
0
39
0
210
0
220
0
230
1
0
LINE
5
93
100
AcDbEntity
8
SK1
62
256
6
ByLayer
370
18
48
1
60
0
100
AcDbLine
10
108
20
-23.7
30
0
11
108
21
23.7
31
0
39
0
210
0
220
0
230
1
0
LINE
5
94
100
AcDbEntity
8
1
62
256
6
ByLayer
370
18
48
1
60
0
100
AcDbLine
10
22.020726
20
-28.5
30
0
11
22.020726
21
28.5
31
0
39
0
210
0
220
0
230
1
0
LINE
5
95
100
AcDbEntity
8
1
62
256
6
ByLayer
370
18
48
1
60
0
100
AcDbLine
10
20
20
-25
30
0
11
0.3
21
-25
31
0
39
0
210
0
220
0
230
1
0
LINE
5
96
100
AcDbEntity
8
1
62
256
6
ByLayer
370
18
48
1
60
0
100
AcDbLine
10
0
20
-24.7
30
0
11
0
21
24.7
31
0
39
0
210
0
220
0
230
1
0
LINE
5
97
100
AcDbEntity
8
SK1
62
256
6
ByLayer
370
18
48
1
60
0
100
AcDbLine
10
-30
20
-15.970112
30
0
11
-30
21
15.970112
31
0
39
0
210
0
220
0
230
1
0
LINE
5
98
100
AcDbEntity
8
SK1
62
256
6
ByLayer
370
18
48
1
60
0
100
AcDbLine
10
-2.1
20
-17.528142
30
0
11
-2.1
21
17.528142
31
0
39
0
210
0
220
0
230
1
0
LINE
5
99
100
AcDbEntity
8
1
62
256
6
ByLayer
370
18
48
1
60
0
100
AcDbLine
10
20
20
25
30
0
11
0.3
21
25
31
0
39
0
210
0
220
0
230
1
0
LINE
5
9A
100
AcDbEntity
8
SK1
62
256
6
ByLayer
370
18
48
1
60
0
100
AcDbLine
10
-28.5
20
-16.836137
30
0
11
-28.5
21
16.836137
31
0
39
0
210
0
220
0
230
1
0
LINE
5
9B
100
AcDbEntity
8
SK1
62
256
6
ByLayer
370
18
48
1
60
0
100
AcDbLine
10
-28.5
20
-16.836137
30
0
11
-2.094298
21
-17.528292
31
0
39
0
210
0
220
0
230
1
0
LINE
5
9C
100
AcDbEntity
8
SK1
62
256
6
ByLayer
370
18
48
1
60
0
100
AcDbLine
10
-28.5
20
16.836137
30
0
11
-2.094298
21
17.528292
31
0
39
0
210
0
220
0
230
1
0
LINE
5
9D
100
AcDbEntity
8
SK1
62
256
6
ByLayer
370
18
48
1
60
0
100
AcDbLine
10
-30
20
15.970112
30
0
11
-28.5
21
16.836137
31
0
39
0
210
0
220
0
230
1
0
LINE
5
9E
100
AcDbEntity
8
SK1
62
256
6
ByLayer
370
18
48
1
60
0
100
AcDbLine
10
-30
20
-15.970112
30
0
11
-28.5
21
-16.836137
31
0
39
0
210
0
220
0
230
1
0
LINE
5
9F
100
AcDbEntity
8
1
62
256
6
ByLayer
370
18
48
1
60
0
100
AcDbLine
10
0
20
24.7
30
0
11
0.3
21
25
31
0
39
0
210
0
220
0
230
1
0
LINE
5
A0
100
AcDbEntity
8
1
62
256
6
ByLayer
370
18
48
1
60
0
100
AcDbLine
10
0
20
-24.7
30
0
11
0.3
21
-25
31
0
39
0
210
0
220
0
230
1
0
LINE
5
A1
100
AcDbEntity
8
1
62
256
6
ByLayer
370
18
48
1
60
0
100
AcDbLine
10
22.020726
20
28.5
30
0
11
29.5
21
28.5
31
0
39
0
210
0
220
0
230
1
0
LINE
5
A2
100
AcDbEntity
8
1
62
256
6
ByLayer
370
18
48
1
60
0
100
AcDbLine
10
22.020726
20
-28.5
30
0
11
29.5
21
-28.5
31
0
39
0
210
0
220
0
230
1
0
LINE
5
A3
100
AcDbEntity
8
1
62
256
6
ByLayer
370
18
48
1
60
0
100
AcDbLine
10
20
20
-25
30
0
11
20
21
25
31
0
39
0
210
0
220
0
230
1
0
LINE
5
A4
100
AcDbEntity
8
1
62
256
6
ByLayer
370
18
48
1
60
0
100
AcDbLine
10
20
20
25
30
0
11
22.020726
21
28.5
31
0
39
0
210
0
220
0
230
1
0
LINE
5
A5
100
AcDbEntity
8
1
62
256
6
ByLayer
370
18
48
1
60
0
100
AcDbLine
10
22.020726
20
-28.5
30
0
11
20
21
-25
31
0
39
0
210
0
220
0
230
1
0
LINE
5
A6
100
AcDbEntity
8
1
62
256
6
ByLayer
370
18
48
1
60
0
100
AcDbLine
10
30
20
28
30
0
11
29.5
21
28.5
31
0
39
0
210
0
220
0
230
1
0
LINE
5
A7
100
AcDbEntity
8
1
62
256
6
ByLayer
370
18
48
1
60
0
100
AcDbLine
10
30
20
-28
30
0
11
29.5
21
-28.5
31
0
39
0
210
0
220
0
230
1
0
LINE
5
A8
100
AcDbEntity
8
1
62
256
6
ByLayer
370
13
48
1
60
0
100
AcDbLine
10
8.105662
20
-8.055848
30
0
11
8.105675
21
-23.666548
31
0
39
0
210
0
220
0
230
1
0
LINE
5
A9
100
AcDbEntity
8
1
62
256
6
ByLayer
370
13
48
1
60
0
100
AcDbLine
10
8.105662
20
8.055848
30
0
11
8.105675
21
23.666548
31
0
39
0
210
0
220
0
230
1
0
LINE
5
AA
100
AcDbEntity
8
1
62
256
6
ByLayer
370
13
48
1
60
0
100
AcDbLine
10
8.538675
20
-7.529667
30
0
11
8.538675
21
-23.83913
31
0
39
0
210
0
220
0
230
1
0
LINE
5
AB
100
AcDbEntity
8
1
62
256
6
ByLayer
370
13
48
1
60
0
100
AcDbLine
10
8.538675
20
7.529667
30
0
11
8.538675
21
23.83913
31
0
39
0
210
0
220
0
230
1
0
LINE
5
AC
100
AcDbEntity
8
1
62
256
6
ByLayer
370
13
48
1
60
0
100
AcDbLine
10
11.461325
20
-7.529667
30
0
11
11.461325
21
-23.83913
31
0
39
0
210
0
220
0
230
1
0
LINE
5
AD
100
AcDbEntity
8
1
62
256
6
ByLayer
370
13
48
1
60
0
100
AcDbLine
10
11.461325
20
7.529667
30
0
11
11.461325
21
23.83913
31
0
39
0
210
0
220
0
230
1
0
LINE
5
AE
100
AcDbEntity
8
1
62
256
6
ByLayer
370
13
48
1
60
0
100
AcDbLine
10
11.894338
20
-8.055848
30
0
11
11.894325
21
-23.666548
31
0
39
0
210
0
220
0
230
1
0
LINE
5
AF
100
AcDbEntity
8
1
62
256
6
ByLayer
370
13
48
1
60
0
100
AcDbLine
10
11.894338
20
8.055848
30
0
11
11.894325
21
23.666548
31
0
39
0
210
0
220
0
230
1
0
LINE
5
B0
100
AcDbEntity
8
80
62
256
6
ByLayer
370
13
48
1
60
0
100
AcDbLine
10
0
20
0
30
0
11
-8
21
0
31
0
39
0
210
0
220
0
230
1
0
LINE
5
B1
100
AcDbEntity
8
81
62
256
6
ByLayer
370
13
48
1
60
0
100
AcDbLine
10
30
20
0
30
0
11
38
21
0
31
0
39
0
210
0
220
0
230
1
0
LINE
5
B2
100
AcDbEntity
8
4
62
256
6
ByLayer
370
13
48
0.05
60
0
100
AcDbLine
10
0
20
0
30
0
11
30
21
0
31
0
39
0
210
0
220
0
230
1
0
LINE
5
B4
100
AcDbEntity
8
SK4
62
256
6
ByLayer
370
13
48
0.05
60
0
100
AcDbLine
10
-33.056023
20
0
30
0
11
112.028254
21
0
31
0
39
0
210
0
220
0
230
1
0
MTEXT
5
CB
100
AcDbEntity
8
SK6
62
256
6
ByLayer
370
18
48
1
60
0
100
AcDbMText
10
42.203428
20
-45.665333
30
0
210
0
220
0
230
1
1
\W0.7066;C5-A391.10-38 030
40
3.5
41
0
44
1.084337
50
0
71
7
72
5
7
iso_b_vert
0
DIMENSION
5
DD
100
AcDbEntity
8
SK2
62
256
6
ByLayer
370
13
48
1
60
0
100
AcDbDimension
2
DimnDraft3D1
10
90
20
43.53405
30
0
11
58.207895
21
43.53405
31
0
70
32
71
5
72
1
41
1
210
0
220
0
230
1
3
Standard
100
AcDbAlignedDimension
13
30
23
29.5
33
0
14
90
24
19.96765
34
0
50
0
100
AcDbRotatedDimension
1001
ACAD
1000
DSTYLE
1002
{
1070
   279
1070
     0
1070
   173
1070
     1
1070
   340
1005
CC
1070
   271
1070
     0
1070
   272
1070
     2
1070
    77
1070
     1
1070
    73
1070
     0
1070
   171
1070
     4
1070
   274
1070
     4
1070
   177
1070
     7
1070
   176
1070
     7
1070
   178
1070
     7
1070
    41
1041
3.0
1070
   147
1041
1.5
1070
    42
1041
1.5
1070
    44
1041
3.0
1070
   140
1041
3.0
1070
   343
1005
DE
1070
   344
1005
DE
1002
}
0
DIMENSION
5
F3
100
AcDbEntity
8
2
62
256
6
ByLayer
370
13
48
1
60
0
100
AcDbDimension
2
DimnDraft3D2
10
30
20
43.53405
30
0
11
13.207895
21
43.53405
31
0
70
32
71
5
72
1
41
1
210
0
220
0
230
1
3
Standard
100
AcDbAlignedDimension
13
0
23
26.2
33
0
14
30
24
29.5
34
0
50
0
100
AcDbRotatedDimension
1001
ACAD
1000
DSTYLE
1002
{
1070
   279
1070
     0
1070
   173
1070
     1
1070
   340
1005
CC
1070
   271
1070
     0
1070
   272
1070
     2
1070
    77
1070
     1
1070
    73
1070
     0
1070
   171
1070
     4
1070
   274
1070
     4
1070
   177
1070
     7
1070
   176
1070
     7
1070
   178
1070
     7
1070
    41
1041
3.0
1070
   147
1041
1.5
1070
    42
1041
1.5
1070
    44
1041
3.0
1070
   140
1041
3.0
1070
   343
1005
DE
1070
   344
1005
DE
1002
}
0
DIMENSION
5
101
100
AcDbEntity
8
SK2
62
256
6
ByLayer
370
13
48
1
60
0
100
AcDbDimension
2
DimnDraft3D3
10
123.438795
20
19.045
30
0
11
123.438795
21
-5.506579
31
0
70
32
71
5
72
1
41
1
210
0
220
0
230
1
3
Standard
100
AcDbAlignedDimension
13
90.5
23
-19.045
33
0
14
90.5
24
19.045
34
0
50
90
100
AcDbRotatedDimension
1001
ACAD
1000
DSTYLE
1002
{
1070
    74
1070
     0
1070
   279
1070
     0
1070
   173
1070
     1
1070
   340
1005
CC
1070
   271
1070
     0
1070
   272
1070
     2
1070
    77
1070
     1
1070
    73
1070
     0
1070
   171
1070
     4
1070
   274
1070
     4
1070
   177
1070
     7
1070
   176
1070
     7
1070
   178
1070
     7
1070
    41
1041
3.0
1070
   147
1041
1.5
1070
    42
1041
1.5
1070
    44
1041
3.0
1070
   140
1041
3.0
1070
   343
1005
DE
1070
   344
1005
DE
1002
}
0
DIMENSION
5
10F
100
AcDbEntity
8
SK2
62
256
6
ByLayer
370
13
48
1
60
0
100
AcDbDimension
2
DimnDraft3D4
10
133.186111
20
28.5
30
0
11
133.186111
21
-4.152632
31
0
70
32
71
5
72
1
41
1
210
0
220
0
230
1
3
Standard
100
AcDbAlignedDimension
13
31
23
-28.5
33
0
14
31
24
28.5
34
0
50
90
100
AcDbRotatedDimension
1001
ACAD
1000
DSTYLE
1002
{
1070
    74
1070
     0
1070
   279
1070
     0
1070
   173
1070
     1
1070
   340
1005
CC
1070
   271
1070
     0
1070
   272
1070
     2
1070
    77
1070
     1
1070
    73
1070
     0
1070
   171
1070
     4
1070
   274
1070
     4
1070
   177
1070
     7
1070
   176
1070
     7
1070
   178
1070
     7
1070
    41
1041
3.0
1070
   147
1041
1.5
1070
    42
1041
1.5
1070
    44
1041
3.0
1070
   140
1041
3.0
1070
   343
1005
DE
1070
   344
1005
DE
1002
}
0
DIMENSION
5
11D
100
AcDbEntity
8
SK2
62
256
6
ByLayer
370
13
48
1
60
0
100
AcDbDimension
2
DimnDraft3D5
10
-37.781808
20
25
30
0
11
-37.781808
21
-4.152632
31
0
70
32
71
5
72
1
41
1
210
0
220
0
230
1
3
Standard
100
AcDbAlignedDimension
13
-1.2
23
-25
33
0
14
-1.2
24
25
34
0
50
90
100
AcDbRotatedDimension
1001
ACAD
1000
DSTYLE
1002
{
1070
    74
1070
     0
1070
   279
1070
     0
1070
   173
1070
     1
1070
   340
1005
CC
1070
   271
1070
     0
1070
   272
1070
     2
1070
    77
1070
     1
1070
    73
1070
     0
1070
   171
1070
     4
1070
   274
1070
     4
1070
   177
1070
     7
1070
   176
1070
     7
1070
   178
1070
     7
1070
    41
1041
3.0
1070
   147
1041
1.5
1070
    42
1041
1.5
1070
    44
1041
3.0
1070
   140
1041
3.0
1070
   343
1005
DE
1070
   344
1005
DE
1002
}
0
ENDSEC
0
SECTION
2
OBJECTS
0
DICTIONARY
5
188
330
0
100
AcDbDictionary
280
0
281
1
3
ACAD_GROUP
350
189
3
ACAD_MLINESTYLE
350
18a
0
DICTIONARY
5
189
330
0
100
AcDbDictionary
280
0
281
1
0
DICTIONARY
5
18a
330
0
100
AcDbDictionary
280
0
281
1
3
Standard
350
18
0
MLINESTYLE
5
18
330
18a
100
AcDbMlineStyle
2
Standard
70
0
3

62
256
51
90
52
90
71
2
49
-0.5
62
256
6
ByLayer
49
0.5
62
256
6
ByLayer
0
RASTERVARIABLES
5
176
330

100
AcDbRasterVariables
90
0
70
1
71
1
72
1
0
ENDSEC
0
EOF
