0
SECTION
2
HEADER
9
$ACADVER
1
AC1015
9
$DWGCODEPAGE
3
ANSI_1252
9
$HANDSEED
5
287
9
$ANGBASE
50
0
9
$ANGDIR
70
0
9
$ATTMODE
70
1
9
$AUNITS
70
0
9
$AUPREC
70
0
9
$CECOLOR
62
256
9
$CELTSCALE
40
1
9
$CELTYPE
6
ByLayer
9
$CELWEIGHT
370
18
9
$CLAYER
8
0
9
$CMLJUST
70
0
9
$CMLSCALE
40
1
9
$CMLSTYLE
2
Standard
9
$DIMSTYLE
2
Standard
9
$TEXTSIZE
40
0.2
9
$TEXTSTYLE
7
Standard
9
$LUNITS
70
2
9
$LUPREC
70
4
9
$EXTNAMES
290
1
9
$INSUNITS
70
4
9
$LTSCALE
40
1
9
$LWDISPLAY
290
1
9
$PDMODE
70
0
9
$PDSIZE
40
0
9
$PLINEGEN
70
0
0
ENDSEC
0
SECTION
2
CLASSES
0
CLASS
1
RASTERVARIABLES
2
AcDbRasterVariables
3
ISM
90
0
280
0
281
0
0
ENDSEC
0
SECTION
2
TABLES
0
TABLE
2
VPORT
5
27d
100
AcDbSymbolTable
0
VPORT
5
1
100
AcDbSymbolTableRecord
100
AcDbViewportTableRecord
2
*Active
70
0
10
0
20
0
11
1
21
1
12
-1
22
1
13
0
23
0
14
0.5
24
0.5
15
10
25
10
16
0
26
0
36
1
17
0
27
0
37
0
0
ENDTAB
0
TABLE
2
LTYPE
5
27e
100
AcDbSymbolTable
0
LTYPE
5
14
100
AcDbSymbolTableRecord
100
AcDbLinetypeTableRecord
70
0
2
ByBlock
3

72
65
73
0
40
0
0
LTYPE
5
15
100
AcDbSymbolTableRecord
100
AcDbLinetypeTableRecord
70
0
2
ByLayer
3

72
65
73
0
40
0
0
LTYPE
5
16
100
AcDbSymbolTableRecord
100
AcDbLinetypeTableRecord
70
0
2
CONTINUOUS
3
Solid line
72
65
73
0
40
0
0
LTYPE
5
6A
100
AcDbSymbolTableRecord
100
AcDbLinetypeTableRecord
70
0
2
CENTER
3
____ _ ____ _ ____ _ ____
72
65
73
4
40
47.5
49
22
74
0
49
-8.5
74
0
49
8.5
74
0
49
-8.5
74
0
0
LTYPE
5
6B
100
AcDbSymbolTableRecord
100
AcDbLinetypeTableRecord
70
0
2
DASHED
3
__ __ __ __ __ __ __ __ __
72
65
73
2
40
25.72
49
12.86
74
0
49
-12.86
74
0
0
ENDTAB
0
TABLE
2
LAYER
5
27f
100
AcDbSymbolTable
0
LAYER
5
10
100
AcDbSymbolTableRecord
100
AcDbLayerTableRecord
2
0
70
0
62
7
6
CONTINUOUS
290
1
370
-3
390
0
0
LAYER
5
6D
100
AcDbSymbolTableRecord
100
AcDbLayerTableRecord
2
80
70
0
62
-6
6
CONTINUOUS
290
1
370
-3
390
0
0
LAYER
5
6F
100
AcDbSymbolTableRecord
100
AcDbLayerTableRecord
2
81
70
0
62
-3
6
CONTINUOUS
290
1
370
-3
390
0
0
LAYER
5
76
100
AcDbSymbolTableRecord
100
AcDbLayerTableRecord
2
1
70
0
62
4
6
CONTINUOUS
290
1
370
-3
390
0
0
LAYER
5
95
100
AcDbSymbolTableRecord
100
AcDbLayerTableRecord
2
4
70
0
62
-2
6
CENTER
290
1
370
-3
390
0
0
LAYER
5
1F1
100
AcDbSymbolTableRecord
100
AcDbLayerTableRecord
2
2
70
0
62
7
6
CONTINUOUS
290
1
370
-3
390
0
0
LAYER
5
269
100
AcDbSymbolTableRecord
100
AcDbLayerTableRecord
2
SK2
70
0
62
7
6
CONTINUOUS
290
1
370
-3
390
0
0
LAYER
5
26a
100
AcDbSymbolTableRecord
100
AcDbLayerTableRecord
2
SK1
70
0
62
4
6
CONTINUOUS
290
1
370
-3
390
0
0
LAYER
5
26b
100
AcDbSymbolTableRecord
100
AcDbLayerTableRecord
2
SK4
70
0
62
2
6
CENTER
290
1
370
-3
390
0
0
LAYER
5
26c
100
AcDbSymbolTableRecord
100
AcDbLayerTableRecord
2
SK6
70
0
62
5
6
CONTINUOUS
290
1
370
-3
390
0
0
ENDTAB
0
TABLE
2
STYLE
5
280
100
AcDbSymbolTable
0
STYLE
5
11
100
AcDbSymbolTableRecord
100
AcDbTextStyleTableRecord
2
Standard
3
txt
70
0
71
0
40
0
41
1
42
0
50
0
0
STYLE
5
1E2
100
AcDbSymbolTableRecord
100
AcDbTextStyleTableRecord
2
iso_b_vert
3
simplex.shx
70
0
71
0
40
0
41
1
42
0
50
0
0
STYLE
5
1E3
100
AcDbSymbolTableRecord
100
AcDbTextStyleTableRecord
2
DWGDirectTextStyle
3
simplex
70
0
71
0
40
0
41
1
42
0
50
0
0
ENDTAB
0
TABLE
2
DIMSTYLE
5
281
100
AcDbSymbolTable
100
AcDbDimStyleTable
0
DIMSTYLE
105
27
100
AcDbSymbolTableRecord
100
AcDbDimStyleTableRecord
2
Standard
70
0
3
<>
41
0.18
42
0.0625
44
0.18
140
0.18
147
0.09
73
0
74
0
77
1
271
2
275
0
278
52
280
0
340
11
0
ENDTAB
0
TABLE
2
VIEW
5
282
100
AcDbSymbolTable
0
ENDTAB
0
TABLE
2
UCS
5
283
100
AcDbSymbolTable
0
ENDTAB
0
TABLE
2
APPID
5
284
100
AcDbSymbolTable
0
APPID
5
12
100
AcDbSymbolTableRecord
100
AcDbRegAppTableRecord
2
ACAD
70
0
0
ENDTAB
0
TABLE
2
BLOCK_RECORD
5
285
100
AcDbSymbolTable
0
BLOCK_RECORD
5
1F
100
AcDbSymbolTableRecord
100
AcDbBlockTableRecord
2
*Model_Space
340
0
70
0
0
BLOCK_RECORD
5
1B
100
AcDbSymbolTableRecord
100
AcDbBlockTableRecord
2
*Paper_Space
340
0
70
0
0
BLOCK_RECORD
5
23
100
AcDbSymbolTableRecord
100
AcDbBlockTableRecord
2
*Paper_Space0
340
0
70
0
0
BLOCK_RECORD
5
1E5
100
AcDbSymbolTableRecord
100
AcDbBlockTableRecord
2
DimnDraft3D1
340
0
70
0
0
BLOCK_RECORD
5
1EF
100
AcDbSymbolTableRecord
100
AcDbBlockTableRecord
2
DimnDraft3D2
340
0
70
0
0
BLOCK_RECORD
5
1FA
100
AcDbSymbolTableRecord
100
AcDbBlockTableRecord
2
DimnDraft3D3
340
0
70
0
0
BLOCK_RECORD
5
205
100
AcDbSymbolTableRecord
100
AcDbBlockTableRecord
2
DimnDraft3D4
340
0
70
0
0
ENDTAB
0
ENDSEC
0
SECTION
2
BLOCKS
0
BLOCK
5
20
100
AcDbEntity
8
0
100
AcDbBlockBegin
2
*Model_Space
70
0
10
0
20
0
30
0
3
*Model_Space
0
ENDBLK
5
21
100
AcDbEntity
8
0
100
AcDbBlockEnd
0
BLOCK
5
1C
100
AcDbEntity
8
0
100
AcDbBlockBegin
2
*Paper_Space
70
0
10
0
20
0
30
0
3
*Paper_Space
0
ENDBLK
5
1D
100
AcDbEntity
8
0
100
AcDbBlockEnd
0
BLOCK
5
24
100
AcDbEntity
8
0
100
AcDbBlockBegin
2
*Paper_Space0
70
0
10
0
20
0
30
0
3
*Paper_Space0
0
ENDBLK
5
25
100
AcDbEntity
8
0
100
AcDbBlockEnd
0
BLOCK
5
1EC
100
AcDbEntity
8
0
100
AcDbBlockBegin
2
DimnDraft3D1
70
0
10
0
20
0
30
0
3
DimnDraft3D1
0
MTEXT
5
1E6
100
AcDbEntity
8
SK2
62
256
6
ByLayer
370
18
48
1
60
0
100
AcDbMText
10
29.820967
20
-34.224866
30
0
210
0
220
0
230
1
1
\W0.6756;18.4
40
3.5
41
0
44
1.084337
50
0
71
7
72
5
7
iso_b_vert
0
LINE
5
1E7
100
AcDbEntity
8
SK2
62
256
6
ByLayer
370
13
48
1
60
0
100
AcDbLine
10
23.6
20
-21.5875
30
0
11
23.6
21
-37.1
31
0
39
0
210
0
220
0
230
1
0
LINE
5
1E8
100
AcDbEntity
8
SK2
62
256
6
ByLayer
370
13
48
1
60
0
100
AcDbLine
10
42
20
-21.5875
30
0
11
42
21
-37.1
31
0
39
0
210
0
220
0
230
1
0
LINE
5
1E9
100
AcDbEntity
8
SK2
62
256
6
ByLayer
370
13
48
1
60
0
100
AcDbLine
10
23.6
20
-35.1
30
0
11
42
21
-35.1
31
0
39
0
210
0
220
0
230
1
0
SOLID
5
1EA
100
AcDbEntity
8
SK2
62
256
6
ByLayer
370
13
48
1
60
0
100
AcDbTrace
10
23.6
20
-35.1
30
0
11
27.099998
21
-34.639216
31
0
12
27.100002
22
-35.560784
32
0
13
23.6
23
-35.1
33
0
39
0
210
0
220
0
230
1
0
SOLID
5
1EB
100
AcDbEntity
8
SK2
62
256
6
ByLayer
370
13
48
1
60
0
100
AcDbTrace
10
42
20
-35.1
30
0
11
38.500002
21
-35.560784
31
0
12
38.499998
22
-34.639216
32
0
13
42
23
-35.1
33
0
39
0
210
0
220
0
230
1
0
ENDBLK
5
1ED
100
AcDbEntity
8
0
100
AcDbBlockEnd
0
BLOCK
5
1F7
100
AcDbEntity
8
0
100
AcDbBlockBegin
2
DimnDraft3D2
70
0
10
0
20
0
30
0
3
DimnDraft3D2
0
MTEXT
5
1F0
100
AcDbEntity
8
2
62
256
6
ByLayer
370
18
48
1
60
0
100
AcDbMText
10
17.583534
20
-44.224866
30
0
210
0
220
0
230
1
1
\W0.7640;42.0
40
3.5
41
0
44
1.084337
50
0
71
7
72
5
7
iso_b_vert
0
LINE
5
1F2
100
AcDbEntity
8
2
62
256
6
ByLayer
370
13
48
1
60
0
100
AcDbLine
10
0
20
-26.5875
30
0
11
0
21
-47.1
31
0
39
0
210
0
220
0
230
1
0
LINE
5
1F3
100
AcDbEntity
8
2
62
256
6
ByLayer
370
13
48
1
60
0
100
AcDbLine
10
42
20
-21.5875
30
0
11
42
21
-47.1
31
0
39
0
210
0
220
0
230
1
0
LINE
5
1F4
100
AcDbEntity
8
2
62
256
6
ByLayer
370
13
48
1
60
0
100
AcDbLine
10
0
20
-45.1
30
0
11
42
21
-45.1
31
0
39
0
210
0
220
0
230
1
0
SOLID
5
1F5
100
AcDbEntity
8
2
62
256
6
ByLayer
370
13
48
1
60
0
100
AcDbTrace
10
0
20
-45.1
30
0
11
3.499998
21
-44.639216
31
0
12
3.500002
22
-45.560784
32
0
13
0
23
-45.1
33
0
39
0
210
0
220
0
230
1
0
SOLID
5
1F6
100
AcDbEntity
8
2
62
256
6
ByLayer
370
13
48
1
60
0
100
AcDbTrace
10
42
20
-45.1
30
0
11
38.500002
21
-45.560784
31
0
12
38.499998
22
-44.639216
32
0
13
42
23
-45.1
33
0
39
0
210
0
220
0
230
1
0
ENDBLK
5
1F8
100
AcDbEntity
8
0
100
AcDbBlockEnd
0
BLOCK
5
202
100
AcDbEntity
8
0
100
AcDbBlockBegin
2
DimnDraft3D3
70
0
10
0
20
0
30
0
3
DimnDraft3D3
0
MTEXT
5
1FB
100
AcDbEntity
8
SK2
62
256
6
ByLayer
370
18
48
1
60
0
100
AcDbMText
10
-53.350134
20
3.159534
30
0
210
0
220
0
230
1
1
\W0.6740;50
40
3.5
41
0
44
1.084337
50
90
71
7
72
5
7
iso_b_vert
0
MTEXT
5
1FC
100
AcDbEntity
8
SK2
62
256
6
ByLayer
370
18
48
1
60
0
100
AcDbMText
10
-53.350134
20
-3.813122
30
0
210
0
220
0
230
1
1
%%c
40
3.5
41
0
44
1.084337
50
90
71
7
72
5
7
iso_b_vert
0
LINE
5
1FD
100
AcDbEntity
8
SK2
62
256
6
ByLayer
370
13
48
1
60
0
100
AcDbLine
10
-1.5875
20
25
30
0
11
-53.6
21
25
31
0
39
0
210
0
220
0
230
1
0
LINE
5
1FE
100
AcDbEntity
8
SK2
62
256
6
ByLayer
370
13
48
1
60
0
100
AcDbLine
10
-1.5875
20
-25
30
0
11
-53.6
21
-25
31
0
39
0
210
0
220
0
230
1
0
LINE
5
1FF
100
AcDbEntity
8
SK2
62
256
6
ByLayer
370
13
48
1
60
0
100
AcDbLine
10
-51.6
20
25
30
0
11
-51.6
21
-25
31
0
39
0
210
0
220
0
230
1
0
SOLID
5
200
100
AcDbEntity
8
SK2
62
256
6
ByLayer
370
13
48
1
60
0
100
AcDbTrace
10
-51.6
20
25
30
0
11
-51.139216
21
21.500002
31
0
12
-52.060784
22
21.499998
32
0
13
-51.6
23
25
33
0
39
0
210
0
220
0
230
1
0
SOLID
5
201
100
AcDbEntity
8
SK2
62
256
6
ByLayer
370
13
48
1
60
0
100
AcDbTrace
10
-51.6
20
-25
30
0
11
-52.060784
21
-21.500002
31
0
12
-51.139216
22
-21.499998
32
0
13
-51.6
23
-25
33
0
39
0
210
0
220
0
230
1
0
ENDBLK
5
203
100
AcDbEntity
8
0
100
AcDbBlockEnd
0
BLOCK
5
20D
100
AcDbEntity
8
0
100
AcDbBlockBegin
2
DimnDraft3D4
70
0
10
0
20
0
30
0
3
DimnDraft3D4
0
MTEXT
5
206
100
AcDbEntity
8
SK2
62
256
6
ByLayer
370
18
48
1
60
0
100
AcDbMText
10
61.138077
20
2.975267
30
0
210
0
220
0
230
1
1
\W0.7361;40
40
3.5
41
0
44
1.084337
50
90
71
7
72
5
7
iso_b_vert
0
MTEXT
5
207
100
AcDbEntity
8
SK2
62
256
6
ByLayer
370
18
48
1
60
0
100
AcDbMText
10
61.138077
20
-3.997389
30
0
210
0
220
0
230
1
1
%%c
40
3.5
41
0
44
1.084337
50
90
71
7
72
5
7
iso_b_vert
0
LINE
5
208
100
AcDbEntity
8
SK2
62
256
6
ByLayer
370
13
48
1
60
0
100
AcDbLine
10
43.5875
20
20
30
0
11
64.888211
21
20
31
0
39
0
210
0
220
0
230
1
0
LINE
5
209
100
AcDbEntity
8
SK2
62
256
6
ByLayer
370
13
48
1
60
0
100
AcDbLine
10
43.5875
20
-20
30
0
11
64.888211
21
-20
31
0
39
0
210
0
220
0
230
1
0
LINE
5
20A
100
AcDbEntity
8
SK2
62
256
6
ByLayer
370
13
48
1
60
0
100
AcDbLine
10
62.888211
20
20
30
0
11
62.888211
21
-20
31
0
39
0
210
0
220
0
230
1
0
SOLID
5
20B
100
AcDbEntity
8
SK2
62
256
6
ByLayer
370
13
48
1
60
0
100
AcDbTrace
10
62.888211
20
20
30
0
11
63.348994
21
16.500002
31
0
12
62.427427
22
16.499998
32
0
13
62.888211
23
20
33
0
39
0
210
0
220
0
230
1
0
SOLID
5
20C
100
AcDbEntity
8
SK2
62
256
6
ByLayer
370
13
48
1
60
0
100
AcDbTrace
10
62.888211
20
-20
30
0
11
62.427427
21
-16.500002
31
0
12
63.348994
22
-16.499998
32
0
13
62.888211
23
-20
33
0
39
0
210
0
220
0
230
1
0
ENDBLK
5
20E
100
AcDbEntity
8
0
100
AcDbBlockEnd
0
ENDSEC
0
SECTION
2
ENTITIES
0
ARC
5
123
100
AcDbEntity
8
1
62
256
6
ByLayer
370
18
48
1
60
0
100
AcDbCircle
39
0
10
51.9255
20
14.299495
30
0
40
0.6
210
0
220
0
230
1
100
AcDbArc
50
0
51
90
0
ARC
5
124
100
AcDbEntity
8
1
62
256
6
ByLayer
370
18
48
1
60
0
100
AcDbCircle
39
0
10
51.9255
20
5.499495
30
0
40
0.6
210
0
220
0
230
1
100
AcDbArc
50
270
51
0
0
ARC
5
125
100
AcDbEntity
8
1
62
256
6
ByLayer
370
18
48
1
60
0
100
AcDbCircle
39
0
10
-46.4255
20
13.149495
30
0
40
0.25
210
0
220
0
230
-1
100
AcDbArc
50
180
51
270
0
ARC
5
126
100
AcDbEntity
8
1
62
256
6
ByLayer
370
18
48
1
60
0
100
AcDbCircle
39
0
10
51.9255
20
5.499495
30
0
40
0.6
210
0
220
0
230
1
100
AcDbArc
50
270
51
0
0
ARC
5
127
100
AcDbEntity
8
1
62
256
6
ByLayer
370
18
48
1
60
0
100
AcDbCircle
39
0
10
-46.4255
20
-13.149495
30
0
40
0.25
210
0
220
0
230
-1
100
AcDbArc
50
90
51
180
0
ARC
5
128
100
AcDbEntity
8
1
62
256
6
ByLayer
370
18
48
1
60
0
100
AcDbCircle
39
0
10
51.9255
20
-5.499495
30
0
40
0.6
210
0
220
0
230
1
100
AcDbArc
50
0
51
90
0
ARC
5
129
100
AcDbEntity
8
1
62
256
6
ByLayer
370
18
48
1
60
0
100
AcDbCircle
39
0
10
51.9255
20
-14.299495
30
0
40
0.6
210
0
220
0
230
1
100
AcDbArc
50
270
51
0
0
ARC
5
12A
100
AcDbEntity
8
1
62
256
6
ByLayer
370
18
48
1
60
0
100
AcDbCircle
39
0
10
-46.4255
20
-6.649495
30
0
40
0.25
210
0
220
0
230
-1
100
AcDbArc
50
180
51
270
0
ARC
5
12B
100
AcDbEntity
8
1
62
256
6
ByLayer
370
18
48
1
60
0
100
AcDbCircle
39
0
10
-23.6
20
23
30
0
40
3
210
0
220
0
230
-1
100
AcDbArc
50
270
51
345.812417
0
ARC
5
12C
100
AcDbEntity
8
1
62
256
6
ByLayer
370
18
48
1
60
0
100
AcDbCircle
39
0
10
-23.6
20
-23
30
0
40
3
210
0
220
0
230
-1
100
AcDbArc
50
14.187583
51
90
0
ARC
5
12D
100
AcDbEntity
8
1
62
256
6
ByLayer
370
18
48
1
60
0
100
AcDbCircle
39
0
10
-46.4255
20
6.649495
30
0
40
0.25
210
0
220
0
230
-1
100
AcDbArc
50
90
51
180
0
ARC
5
12E
100
AcDbEntity
8
1
62
256
6
ByLayer
370
18
48
1
60
0
100
AcDbCircle
39
0
10
-46.4255
20
13.149495
30
0
40
0.25
210
0
220
0
230
-1
100
AcDbArc
50
180
51
270
0
ARC
5
12F
100
AcDbEntity
8
1
62
256
6
ByLayer
370
18
48
1
60
0
100
AcDbCircle
39
0
10
-46.4255
20
6.649495
30
0
40
0.25
210
0
220
0
230
-1
100
AcDbArc
50
90
51
180
0
ARC
5
130
100
AcDbEntity
8
1
62
256
6
ByLayer
370
18
48
1
60
0
100
AcDbCircle
39
0
10
51.9255
20
14.299495
30
0
40
0.6
210
0
220
0
230
1
100
AcDbArc
50
0
51
90
0
ELLIPSE
5
131
100
AcDbEntity
8
1
62
256
6
ByLayer
370
18
48
1
60
0
100
AcDbEllipse
10
-1.056258
20
0
30
0
11
11.7092723497281
21
24.6771864409386
31
0
210
0
220
0
230
-1
40
0.341999
41
0.167213071908976
42
1.08183270048924
0
ELLIPSE
5
132
100
AcDbEntity
8
1
62
256
6
ByLayer
370
18
48
1
60
0
100
AcDbEllipse
10
21.056258
20
0
30
0
11
11.7092723497282
21
24.6771864409384
31
0
210
0
220
0
230
-1
40
0.341999
41
-2.97437958168082
42
-2.05975995310055
0
ELLIPSE
5
133
100
AcDbEntity
8
1
62
256
6
ByLayer
370
18
48
1
60
0
100
AcDbEllipse
10
-1.056258
20
0
30
0
11
11.7092723497281
21
-24.6771864409385
31
0
210
0
220
0
230
-1
40
0.341999
41
-1.08183270048925
42
-0.167213071908975
0
ELLIPSE
5
134
100
AcDbEntity
8
1
62
256
6
ByLayer
370
18
48
1
60
0
100
AcDbEllipse
10
21.056258
20
0
30
0
11
11.7092723497287
21
-24.677186440939
31
0
210
0
220
0
230
-1
40
0.341999
41
2.05975995310057
42
2.97437958168082
0
POINT
5
6C
100
AcDbEntity
8
80
62
256
6
ByLayer
370
18
48
1
60
0
100
AcDbPoint
10
0
20
0
30
0
39
0
210
0
220
0
230
1
50
360
0
POINT
5
6E
100
AcDbEntity
8
81
62
256
6
ByLayer
370
18
48
1
60
0
100
AcDbPoint
10
42
20
0
30
0
39
0
210
0
220
0
230
1
50
360
0
POINT
5
70
100
AcDbEntity
8
SK2
62
256
6
ByLayer
370
18
48
1
60
1
100
AcDbPoint
10
0
20
25
30
0
39
0
210
0
220
0
230
1
50
360
0
POINT
5
72
100
AcDbEntity
8
SK2
62
256
6
ByLayer
370
18
48
1
60
1
100
AcDbPoint
10
0
20
-25
30
0
39
0
210
0
220
0
230
1
50
360
0
POINT
5
73
100
AcDbEntity
8
SK2
62
256
6
ByLayer
370
18
48
1
60
1
100
AcDbPoint
10
42
20
20
30
0
39
0
210
0
220
0
230
1
50
360
0
POINT
5
74
100
AcDbEntity
8
SK2
62
256
6
ByLayer
370
18
48
1
60
1
100
AcDbPoint
10
42
20
-20
30
0
39
0
210
0
220
0
230
1
50
360
0
SPLINE
5
135
100
AcDbEntity
8
SK1
62
256
6
ByLayer
370
18
48
1
60
0
100
AcDbSpline
70
4
71
2
72
6
73
3
40
0
40
0
40
0
40
1
40
1
40
1
41
1
10
-28.5
20
-16.8545316091351
30
0
41
1
10
-15.3499999982428
20
-17.1846808487114
30
0
41
1
10
-2.2
20
-17.5148290000611
30
0
0
SPLINE
5
136
100
AcDbEntity
8
SK1
62
256
6
ByLayer
370
18
48
1
60
0
100
AcDbSpline
70
4
71
2
72
6
73
3
40
0
40
0
40
0
40
1
40
1
40
1
41
1
10
-2.2
20
17.5148287077807
30
0
41
1
10
-15.3499999982431
20
17.1846805562453
30
0
41
1
10
-28.5
20
16.8545313165689
30
0
0
SPLINE
5
137
100
AcDbEntity
8
SK1
62
256
6
ByLayer
370
18
48
1
60
0
100
AcDbSpline
70
4
71
3
72
13
73
9
40
0
40
0
40
0
40
0
40
0.239406556343043
40
0.368294011542703
40
0.499927738071867
40
0.63157346105366
40
0.760494011740437
40
1
40
1
40
1
40
1
41
1
10
-2.2
20
-17.5200962264206
30
0
41
1
10
-2.19909121920765
20
-17.494049013599
30
0
41
1
10
-2.19103207709686
20
-17.4566916816953
30
0
41
1
10
-2.1656349077566
20
-17.4104934409328
30
0
41
1
10
-2.13886243910254
20
-17.379225724067
30
0
41
1
10
-2.10627567684699
20
-17.3540697297103
30
0
41
1
10
-2.05883863807622
20
-17.3310363194719
30
0
41
1
10
-2.0211092598112
20
-17.3248666993254
30
0
41
1
10
-1.9950399779393
20
-17.3252688086104
30
0
0
SPLINE
5
138
100
AcDbEntity
8
SK1
62
256
6
ByLayer
370
18
48
1
60
0
100
AcDbSpline
70
4
71
3
72
13
73
9
40
0
40
0
40
0
40
0
40
0.239505987673052
40
0.368426538155646
40
0.500072261058253
40
0.631705987654754
40
0.760593443052828
40
1
40
1
40
1
40
1
41
1
10
-1.9950399779393
20
17.3252686883829
30
0
41
1
10
-2.02110925982339
20
17.3248665791032
30
0
41
1
10
-2.05883863809936
20
17.3310361992814
30
0
41
1
10
-2.10627567686483
20
17.3540696096461
30
0
41
1
10
-2.13886243911924
20
17.3792256041407
30
0
41
1
10
-2.16563490776915
20
17.4104933211739
30
0
41
1
10
-2.19103207710596
20
17.4566915621889
30
0
41
1
10
-2.19909121921685
20
17.4940488942773
30
0
41
1
10
-2.2
20
17.5200961072231
30
0
0
SPLINE
5
139
100
AcDbEntity
8
SK1
62
256
6
ByLayer
370
18
48
1
60
0
100
AcDbSpline
70
4
71
2
72
6
73
3
40
0
40
0
40
0
40
1
40
1
40
1
41
1
10
-30
20
-15.9931874249212
30
0
41
1
10
-29.2499999297894
20
-16.425998517687
30
0
41
1
10
-28.5
20
-16.8588088951667
30
0
0
SPLINE
5
13A
100
AcDbEntity
8
SK1
62
256
6
ByLayer
370
18
48
1
60
0
100
AcDbSpline
70
4
71
2
72
6
73
3
40
0
40
0
40
0
40
1
40
1
40
1
41
1
10
-1.9950399779393
20
-17.3200478774323
30
0
41
1
10
-1.19497688886898
20
-17.340134563042
30
0
41
1
10
-0.394913799811292
20
-17.3602212447177
30
0
0
SPLINE
5
13B
100
AcDbEntity
8
SK1
62
256
6
ByLayer
370
18
48
1
60
0
100
AcDbSpline
70
4
71
3
72
11
73
7
40
0
40
0
40
0
40
0
40
0.242589954178666
40
0.502544718947617
40
0.761087572808693
40
1
40
1
40
1
40
1
41
1
10
-0.200000000000003
20
17.5545583467653
30
0
41
1
10
-0.20095788927037
20
17.528914023106
30
0
41
1
10
-0.211248315226285
20
17.4799022728817
30
0
41
1
10
-0.255179720944199
20
17.413949611085
30
0
41
1
10
-0.321113897423828
20
17.3707504109673
30
0
41
1
10
-0.369683795840203
20
17.3607068368228
30
0
41
1
10
-0.394913799811292
20
17.3597802673791
30
0
0
SPLINE
5
13C
100
AcDbEntity
8
SK1
62
256
6
ByLayer
370
18
48
1
60
0
100
AcDbSpline
70
4
71
2
72
6
73
3
40
0
40
0
40
0
40
1
40
1
40
1
41
1
10
-28.5
20
16.8588088260863
30
0
41
1
10
-29.2499999297871
20
16.4259984461422
30
0
41
1
10
-30
20
15.9931873508859
30
0
0
SPLINE
5
13D
100
AcDbEntity
8
SK1
62
256
6
ByLayer
370
18
48
1
60
0
100
AcDbSpline
70
4
71
2
72
6
73
3
40
0
40
0
40
0
40
1
40
1
40
1
41
1
10
-0.394913799811292
20
17.3602209523781
30
0
41
1
10
-1.19497688886898
20
17.3401342706943
30
0
41
1
10
-1.9950399779393
20
17.3200475850767
30
0
0
SPLINE
5
13E
100
AcDbEntity
8
SK1
62
256
6
ByLayer
370
18
48
1
60
0
100
AcDbSpline
70
4
71
3
72
11
73
7
40
0
40
0
40
0
40
0
40
0.238912427113115
40
0.497455280942484
40
0.757410045745039
40
1
40
1
40
1
40
1
41
1
10
-0.394913799811292
20
-17.3597801301672
30
0
41
1
10
-0.369683795838412
20
-17.3607066995757
30
0
41
1
10
-0.321113897416481
20
-17.3707502735068
30
0
41
1
10
-0.255179720936411
20
-17.4139494728385
30
0
41
1
10
-0.211248315224637
20
-17.4799021334557
30
0
41
1
10
-0.20095788926875
20
-17.5289138828002
30
0
41
1
10
-0.200000000000003
20
-17.5545582060013
30
0
0
SPLINE
5
13F
100
AcDbEntity
8
SK1
62
256
6
ByLayer
370
13
48
1
60
0
100
AcDbSpline
70
4
71
3
72
45
73
41
40
0
40
0
40
0
40
0
40
0.0143964910904981
40
0.0429613827313662
40
0.0715262743722343
40
0.100091166013102
40
0.157220949294839
40
0.214350732576575
40
0.242915624217443
40
0.271480515858311
40
0.300045407499179
40
0.328610299140047
40
0.357175190780915
40
0.385740082421783
40
0.414304974062651
40
0.428587419883086
40
0.44286986570352
40
0.471434757344388
40
0.485717203164822
40
0.492858426075039
40
0.499999648985256
40
0.507140871895473
40
0.51428209480569
40
0.528564540626124
40
0.557129432266992
40
0.571411878087426
40
0.58569432390786
40
0.614259215548728
40
0.642824107189596
40
0.671388998830465
40
0.699953890471333
40
0.728518782112201
40
0.757083673753069
40
0.785648565393937
40
0.842778348675673
40
0.899908131957409
40
0.928473023598278
40
0.957037915239146
40
0.985602806880014
40
1
40
1
40
1
40
1
41
1
10
-1.99503997793931
20
17.3207234241631
30
0
41
1
10
-1.99503997793931
20
17.3142492882706
30
0
41
1
10
-1.99503997793931
20
17.2745092218817
30
0
41
1
10
-1.9950399779393
20
17.1138751154123
30
0
41
1
10
-1.9950399779393
20
16.7867763596001
30
0
41
1
10
-1.9950399779393
20
16.1866009265939
30
0
41
1
10
-1.9950399779393
20
15.1524691326423
30
0
41
1
10
-1.9950399779393
20
13.7813331880937
30
0
41
1
10
-1.9950399779393
20
12.4962106263157
30
0
41
1
10
-1.9950399779393
20
11.4421779521075
30
0
41
1
10
-1.9950399779393
20
10.2994799380558
30
0
41
1
10
-1.9950399779393
20
9.07001746022104
30
0
41
1
10
-1.9950399779393
20
7.75535376586828
30
0
41
1
10
-1.9950399779393
20
6.35676341745574
30
0
41
1
10
-1.9950399779393
20
5.12318926412425
30
0
41
1
10
-1.9950399779393
20
4.09531236648536
30
0
41
1
10
-1.9950399779393
20
3.04236295320666
30
0
41
1
10
-1.9950399779393
20
1.95640625727882
30
0
41
1
10
-1.9950399779393
20
0.981337226851394
30
0
41
1
10
-1.9950399779393
20
0.420771319084707
30
0
41
1
10
-1.9950399779393
20
6.88173714E-08
30
0
41
1
10
-1.9950399779393
20
-0.420771221994357
30
0
41
1
10
-1.9950399779393
20
-0.981337209960486
30
0
41
1
10
-1.9950399779393
20
-1.95640624898675
30
0
41
1
10
-1.9950399779393
20
-3.04236280324244
30
0
41
1
10
-1.9950399779393
20
-4.0953123914187
30
0
41
1
10
-1.9950399779393
20
-5.12318891405303
30
0
41
1
10
-1.9950399779393
20
-6.35676356337379
30
0
41
1
10
-1.9950399779393
20
-7.75535358782813
30
0
41
1
10
-1.9950399779393
20
-9.07001720037854
30
0
41
1
10
-1.9950399779393
20
-10.2994801886281
30
0
41
1
10
-1.9950399779393
20
-11.4421777785236
30
0
41
1
10
-1.9950399779393
20
-12.4962104807244
30
0
41
1
10
-1.9950399779393
20
-13.7813335607202
30
0
41
1
10
-1.9950399779393
20
-15.152468715744
30
0
41
1
10
-1.9950399779393
20
-16.1866016937524
30
0
41
1
10
-1.9950399779393
20
-16.786776230537
30
0
41
1
10
-1.9950399779393
20
-17.1138754381146
30
0
41
1
10
-1.9950399779393
20
-17.2745113554581
30
0
41
1
10
-1.9950399779393
20
-17.3142508656134
30
0
41
1
10
-1.9950399779393
20
-17.3207245757294
30
0
0
SPLINE
5
140
100
AcDbEntity
8
SK1
62
256
6
ByLayer
370
13
48
1
60
0
100
AcDbSpline
70
4
71
3
72
20
73
16
40
0
40
0
40
0
40
0
40
0.0470038574081491
40
0.117713655508897
40
0.188423453609645
40
0.259133251710392
40
0.32984304981114
40
0.400552847911888
40
0.471262646012636
40
0.612682242214131
40
0.754101838415627
40
0.824811636516374
40
0.895521434617122
40
0.96623123271787
40
1
40
1
40
1
40
1
41
1
10
-0.394913799811292
20
-5.38724256160785
30
0
41
1
10
-0.394913799811292
20
-5.71905475014273
30
0
41
1
10
-0.394913799811292
20
-6.53483549462592
30
0
41
1
10
-0.394913799811292
20
-7.7796880789966
30
0
41
1
10
-0.394913799811292
20
-9.09679923539031
30
0
41
1
10
-0.394913799811292
20
-10.3283869583107
30
0
41
1
10
-0.394913799811292
20
-11.4729576347282
30
0
41
1
10
-0.394913799811292
20
-12.5286533763275
30
0
41
1
10
-0.394913799811292
20
-13.8156305223415
30
0
41
1
10
-0.394913799811292
20
-15.1889742433629
30
0
41
1
10
-0.394913799811292
20
-16.224825355641
30
0
41
1
10
-0.394913799811292
20
-16.8259463034278
30
0
41
1
10
-0.394913799811292
20
-17.1536380024563
30
0
41
1
10
-0.394913799811306
20
-17.3128928099578
30
0
41
1
10
-0.394913799811292
20
-17.3529972367022
30
0
41
1
10
-0.394913799811292
20
-17.3598235615475
30
0
0
SPLINE
5
141
100
AcDbEntity
8
SK1
62
256
6
ByLayer
370
18
48
1
60
0
100
AcDbSpline
70
4
71
3
72
45
73
41
40
0
40
0
40
0
40
0
40
0.0161744568669314
40
0.0446347882023009
40
0.0730951195376705
40
0.10155545087304
40
0.158476113543779
40
0.215396776214518
40
0.243857107549888
40
0.272317438885258
40
0.300777770220627
40
0.329238101555997
40
0.357698432891366
40
0.386158764226736
40
0.414619095562105
40
0.42884926122979
40
0.443079426897475
40
0.471539758232845
40
0.485769923900529
40
0.492885006734372
40
0.500000089568214
40
0.507115172402057
40
0.514230255235899
40
0.528460420903584
40
0.556920752238953
40
0.571150917906638
40
0.585381083574323
40
0.613841414909692
40
0.642301746245062
40
0.670762077580432
40
0.699222408915801
40
0.727682740251171
40
0.75614307158654
40
0.78460340292191
40
0.841524065592649
40
0.898444728263388
40
0.926905059598758
40
0.955365390934127
40
0.983825722269497
40
1
40
1
40
1
40
1
41
1
10
-28.5
20
16.8572679975842
30
0
41
1
10
-28.5
20
16.8520505579299
30
0
41
1
10
-28.5
20
16.8140882583114
30
0
41
1
10
-28.5
20
16.6531187925377
30
0
41
1
10
-28.5
20
16.3328856609547
30
0
41
1
10
-28.5
20
15.7436769514769
30
0
41
1
10
-28.5
20
14.7294543359372
30
0
41
1
10
-28.5
20
13.3839106046769
30
0
41
1
10
-28.5
20
12.1202723366856
30
0
41
1
10
-28.5
20
11.0855105352455
30
0
41
1
10
-28.5
20
9.96451720849825
30
0
41
1
10
-28.5
20
8.75967545377557
30
0
41
1
10
-28.5
20
7.47337327542297
30
0
41
1
10
-28.5
20
6.10815549439155
30
0
41
1
10
-28.5
20
4.9096720321497
30
0
41
1
10
-28.5
20
3.9114668992739
30
0
41
1
10
-28.5
20
2.89299469927084
30
0
41
1
10
-28.5
20
1.85830102725041
30
0
41
1
10
-28.5
20
0.929573956929886
30
0
41
1
10
-28.5
20
0.39746341502854
30
0
41
1
10
-28.5
20
1.847321585E-07
30
0
41
1
10
-28.5
20
-0.397463221290906
30
0
41
1
10
-28.5
20
-0.929574056191939
30
0
41
1
10
-28.5
20
-1.85830097558352
30
0
41
1
10
-28.5
20
-2.89299452712916
30
0
41
1
10
-28.5
20
-3.91146685141305
30
0
41
1
10
-28.5
20
-4.90967166078667
30
0
41
1
10
-28.5
20
-6.10815570815367
30
0
41
1
10
-28.5
20
-7.47337302390389
30
0
41
1
10
-28.5
20
-8.75967525472745
30
0
41
1
10
-28.5
20
-9.96451747418803
30
0
41
1
10
-28.5
20
-11.0855103162798
30
0
41
1
10
-28.5
20
-12.1202722318355
30
0
41
1
10
-28.5
20
-13.3839109677473
30
0
41
1
10
-28.5
20
-14.7294539424714
30
0
41
1
10
-28.5
20
-15.7436777114931
30
0
41
1
10
-28.5
20
-16.3328855300396
30
0
41
1
10
-28.5
20
-16.653119129773
30
0
41
1
10
-28.5
20
-16.814088418693
30
0
41
1
10
-28.5
20
-16.852050506233
30
0
41
1
10
-28.5
20
-16.8572680025755
30
0
0
SPLINE
5
142
100
AcDbEntity
8
SK1
62
256
6
ByLayer
370
18
48
1
60
0
100
AcDbSpline
70
4
71
3
72
8
73
4
40
0
40
0
40
0
40
0
40
1
40
1
40
1
40
1
41
0.980125716641434
10
-0.199999999999998
20
-6.09733116863208
30
0
41
0.980125716641434
10
-0.199999999999998
20
-6.09103348980348
30
0
41
0.980125716641434
10
-0.199999999999998
20
-6.08473348951768
30
0
41
0.980125716641434
10
-0.199999999999998
20
-6.07843116862766
30
0
0
SPLINE
5
143
100
AcDbEntity
8
SK1
62
256
6
ByLayer
370
18
48
1
60
0
100
AcDbSpline
70
4
71
3
72
45
73
41
40
0
40
0
40
0
40
0
40
0.0183638491593694
40
0.0466953536043109
40
0.0750268580492525
40
0.103358362494194
40
0.160021371384077
40
0.21668438027396
40
0.245015884718902
40
0.273347389163843
40
0.301678893608785
40
0.330010398053726
40
0.358341902498668
40
0.386673406943609
40
0.415004911388551
40
0.429170663611022
40
0.443336415833492
40
0.471667920278434
40
0.485833672500904
40
0.49291654861214
40
0.499999424723375
40
0.507082300834611
40
0.514165176945846
40
0.528330929168317
40
0.556662433613259
40
0.570828185835729
40
0.5849939380582
40
0.613325442503141
40
0.641656946948083
40
0.669988451393025
40
0.698319955837966
40
0.726651460282907
40
0.754982964727849
40
0.783314469172791
40
0.839977478062674
40
0.896640486952557
40
0.924971991397498
40
0.95330349584244
40
0.981635000287381
40
1
40
1
40
1
40
1
41
1
10
-30
20
-15.9933157830342
30
0
41
1
10
-30
20
-15.9901937812792
30
0
41
1
10
-30
20
-15.9552410516038
30
0
41
1
10
-30
20
-15.7965331178349
30
0
41
1
10
-30
20
-15.4890632796306
30
0
41
1
10
-30
20
-14.9202435431779
30
0
41
1
10
-30
20
-13.9430327235572
30
0
41
1
10
-30
20
-12.6450678356931
30
0
41
1
10
-30
20
-11.42137036219
30
0
41
1
10
-30
20
-10.4224345134304
30
0
41
1
10
-30
20
-9.34179268341313
30
0
41
1
10
-30
20
-8.18272261240932
30
0
41
1
10
-30
20
-6.94914665451279
30
0
41
1
10
-30
20
-5.64597210397028
30
0
41
1
10
-30
20
-4.51272453462846
30
0
41
1
10
-30
20
-3.56968201835699
30
0
41
1
10
-30
20
-2.61530592334967
30
0
41
1
10
-30
20
-1.67591474804155
30
0
41
1
10
-30
20
-0.833341855678981
30
0
41
1
10
-30
20
-0.354131622770439
30
0
41
1
10
-30
20
4.002277763E-07
30
0
41
1
10
-30
20
0.354131996183753
30
0
41
1
10
-30
20
0.8333415404785
30
0
41
1
10
-30
20
1.675914880346
30
0
41
1
10
-30
20
2.61530613672116
30
0
41
1
10
-30
20
3.56968220154852
30
0
41
1
10
-30
20
4.51272494557483
30
0
41
1
10
-30
20
5.64597176408017
30
0
41
1
10
-30
20
6.94914704263562
30
0
41
1
10
-30
20
8.18272269843544
30
0
41
1
10
-30
20
9.34179238961875
30
0
41
1
10
-30
20
10.4224348167646
30
0
41
1
10
-30
20
11.421370391299
30
0
41
1
10
-30
20
12.6450674903884
30
0
41
1
10
-30
20
13.9430330734596
30
0
41
1
10
-30
20
14.9202427964398
30
0
41
1
10
-30
20
15.4890634139888
30
0
41
1
10
-30
20
15.7965327535813
30
0
41
1
10
-30
20
15.9552429401369
30
0
41
1
10
-30
20
15.9901952829526
30
0
41
1
10
-30
20
15.9933162168889
30
0
0
SPLINE
5
144
100
AcDbEntity
8
SK1
62
256
6
ByLayer
370
18
48
1
60
0
100
AcDbSpline
70
4
71
3
72
8
73
4
40
0
40
0
40
0
40
0
40
1
40
1
40
1
40
1
41
1
10
-0.200000000000003
20
-17.5678956551955
30
0
41
1
10
-0.158647770558687
20
-17.5694768599048
30
0
41
1
10
-0.12367096814225
20
-17.5703195350957
30
0
41
1
10
-0.0921367507582147
20
-17.5703208979864
30
0
0
SPLINE
5
145
100
AcDbEntity
8
SK1
62
256
6
ByLayer
370
18
48
1
60
0
100
AcDbSpline
70
4
71
3
72
45
73
41
40
0
40
0
40
0
40
0
40
0.0138691984753046
40
0.0424651339086718
40
0.071061069342039
40
0.0996570047754062
40
0.156848875642141
40
0.214040746508875
40
0.242636681942242
40
0.271232617375609
40
0.299828552808977
40
0.328424488242344
40
0.357020423675711
40
0.385616359109078
40
0.414212294542445
40
0.428510262259129
40
0.442808229975812
40
0.47140416540918
40
0.485702133125863
40
0.492851116984205
40
0.500000100842547
40
0.507149084700889
40
0.514298068559231
40
0.528596036275914
40
0.557191971709281
40
0.571489939425965
40
0.585787907142649
40
0.614383842576016
40
0.642979778009383
40
0.67157571344275
40
0.700171648876117
40
0.728767584309484
40
0.757363519742852
40
0.785959455176219
40
0.843151326042953
40
0.900343196909688
40
0.928939132343055
40
0.957535067776422
40
0.986131003209789
40
1
40
1
40
1
40
1
41
1
10
-2.2
20
17.5147525414731
30
0
41
1
10
-2.2
20
17.5079648950388
30
0
41
1
10
-2.2
20
17.4676153190077
30
0
41
1
10
-2.2
20
17.3066644250431
30
0
41
1
10
-2.2
20
16.9766929599708
30
0
41
1
10
-2.2
20
16.3719288388599
30
0
41
1
10
-2.2
20
15.3294666616432
30
0
41
1
10
-2.2
20
13.9476224427057
30
0
41
1
10
-2.2
20
12.6535104390874
30
0
41
1
10
-2.2
20
11.5914144609754
30
0
41
1
10
-2.2
20
10.4396347881955
30
0
41
1
10
-2.2
20
9.19987052615133
30
0
41
1
10
-2.2
20
7.87333982787851
30
0
41
1
10
-2.2
20
6.4607857552443
30
0
41
1
10
-2.2
20
5.21252898167785
30
0
41
1
10
-2.2
20
4.17223684682958
30
0
41
1
10
-2.2
20
3.10486150423552
30
0
41
1
10
-2.2
20
1.99745537289451
30
0
41
1
10
-2.2
20
1.00299597482069
30
0
41
1
10
-2.2
20
0.430523794544825
30
0
41
1
10
-2.2
20
2.03164063E-08
30
0
41
1
10
-2.2
20
-0.430523737893537
30
0
41
1
10
-2.2
20
-1.00299590932914
30
0
41
1
10
-2.2
20
-1.99745538275133
30
0
41
1
10
-2.2
20
-3.10486136355075
30
0
41
1
10
-2.2
20
-4.17223690222141
30
0
41
1
10
-2.2
20
-5.21252864051553
30
0
41
1
10
-2.2
20
-6.46078587277512
30
0
41
1
10
-2.2
20
-7.87333968058334
30
0
41
1
10
-2.2
20
-9.19987024087132
30
0
41
1
10
-2.2
20
-10.4396350324424
30
0
41
1
10
-2.2
20
-11.5914143063802
30
0
41
1
10
-2.2
20
-12.6535102764493
30
0
41
1
10
-2.2
20
-13.9476228193307
30
0
41
1
10
-2.2
20
-15.3294662349403
30
0
41
1
10
-2.2
20
-16.3719296090069
30
0
41
1
10
-2.2
20
-16.9766928316826
30
0
41
1
10
-2.2
20
-17.3066647416644
30
0
41
1
10
-2.2
20
-17.4676154204534
30
0
41
1
10
-2.2
20
-17.5079647980204
30
0
41
1
10
-2.2
20
-17.5147524582475
30
0
0
SPLINE
5
146
100
AcDbEntity
8
SK1
62
256
6
ByLayer
370
18
48
1
60
0
100
AcDbSpline
70
4
71
3
72
8
73
4
40
0
40
0
40
0
40
0
40
1
40
1
40
1
40
1
41
0.980125716641431
10
-0.199999999999999
20
6.07843244581186
30
0
41
0.980125716641431
10
-0.200000000000013
20
6.08463002352106
30
0
41
0.980125716641431
10
-0.200000000000013
20
6.09082535712451
30
0
41
0.980125716641431
10
-0.200000000000013
20
6.09701844581184
30
0
0
SPLINE
5
147
100
AcDbEntity
8
SK1
62
256
6
ByLayer
370
13
48
1
60
0
100
AcDbSpline
70
4
71
3
72
20
73
16
40
0
40
0
40
0
40
0
40
0.0337680661685993
40
0.104477923047613
40
0.175187779926626
40
0.24589763680564
40
0.387317350563667
40
0.528737064321694
40
0.599446921200707
40
0.670156778079721
40
0.740866634958734
40
0.811576491837748
40
0.882286348716761
40
0.952996205595775
40
1
40
1
40
1
40
1
41
1
10
-0.394913799811278
20
17.3598229030173
30
0
41
1
10
-0.394913799811306
20
17.3529963885074
30
0
41
1
10
-0.394913799811292
20
17.3128915919851
30
0
41
1
10
-0.394913799811292
20
17.1536376810083
30
0
41
1
10
-0.394913799811292
20
16.8259464323311
30
0
41
1
10
-0.394913799811292
20
16.2248245878661
30
0
41
1
10
-0.394913799811292
20
15.1889746622834
30
0
41
1
10
-0.394913799811292
20
13.8156301488903
30
0
41
1
10
-0.394913799811292
20
12.5286535254346
30
0
41
1
10
-0.394913799811292
20
11.4729578043957
30
0
41
1
10
-0.394913799811292
20
10.3283867090429
30
0
41
1
10
-0.394913799811292
20
9.09679950047928
30
0
41
1
10
-0.394913799811292
20
7.77968825069564
30
0
41
1
10
-0.394913799811292
20
6.53483606378791
30
0
41
1
10
-0.394913799811292
20
5.71905630139051
30
0
41
1
10
-0.394913799811292
20
5.38724490303878
30
0
0
SPLINE
5
148
100
AcDbEntity
8
SK1
62
256
6
ByLayer
370
18
48
1
60
0
100
AcDbSpline
70
4
71
3
72
30
73
26
40
0
40
0
40
0
40
0
40
0.125
40
0.125
40
0.25
40
0.25
40
0.375
40
0.375
40
0.40625
40
0.40625
40
0.4375
40
0.4375
40
0.5
40
0.5
40
0.5625
40
0.5625
40
0.625
40
0.625
40
0.75
40
0.75
40
0.8125
40
0.8125
40
0.875
40
0.875
40
1
40
1
40
1
40
1
41
1
10
-1.30710678118655
20
-3.91808269248793
30
0
41
1
10
-1.36342296385064
20
-3.60715642249775
30
0
41
1
10
-1.41678689271535
20
-3.29287187674927
30
0
41
1
10
-1.51435013598103
20
-2.65639932915295
30
0
41
1
10
-1.55846884179031
20
-2.33418302861881
30
0
41
1
10
-1.63296978491243
20
-1.68004719877024
30
0
41
1
10
-1.66337509736468
20
-1.34813830750838
30
0
41
1
10
-1.68970631303115
20
-0.925864288812164
30
0
41
1
10
-1.69439129498724
20
-0.840882546248253
30
0
41
1
10
-1.70245250680871
20
-0.670897601193587
30
0
41
1
10
-1.7058243793803
20
-0.586052568901891
30
0
41
1
10
-1.71388361409092
20
-0.331968562037986
30
0
41
1
10
-1.71646782396985
20
-0.163187101305908
30
0
41
1
10
-1.71636335941632
20
0.173213348331899
30
0
41
1
10
-1.71367008139578
20
0.34083166255536
30
0
41
1
10
-1.7029362602337
20
0.674902568806147
30
0
41
1
10
-1.69494665814693
20
0.841362289300548
30
0
41
1
10
-1.66399327242203
20
1.33914312869118
30
0
41
1
10
-1.63408221528162
20
1.66887252592326
30
0
41
1
10
-1.57830442880825
20
2.16069253761427
30
0
41
1
10
-1.55787000582583
20
2.32431800389296
30
0
41
1
10
-1.51394731043966
20
2.65007047288915
30
0
41
1
10
-1.49055743488208
20
2.81150726182858
30
0
41
1
10
-1.41696122519085
20
3.29195215520878
30
0
41
1
10
-1.36342501012531
20
3.60714571014046
30
0
41
1
10
-1.30710678118655
20
3.91808311129771
30
0
0
SPLINE
5
149
100
AcDbEntity
8
SK1
62
256
6
ByLayer
370
18
48
1
60
0
100
AcDbSpline
70
4
71
3
72
32
73
28
40
0
40
0
40
0
40
0
40
0.249999999999998
40
0.249999999999998
40
0.374999999999997
40
0.374999999999997
40
0.499999999999997
40
0.499999999999997
40
0.624999999999997
40
0.624999999999997
40
0.687499999999996
40
0.687499999999996
40
0.749999999999996
40
0.749999999999996
40
0.812499999999995
40
0.812499999999995
40
0.843749999999996
40
0.843749999999996
40
0.874999999999997
40
0.874999999999997
40
0.890624999999997
40
0.890624999999997
40
0.906249999999998
40
0.906249999999998
40
0.937499999999998
40
0.937499999999998
40
1
40
1
40
1
40
1
41
1
10
-1.30710678118655
20
3.91808311129773
30
0
41
1
10
-1.27767538362411
20
4.08057618757042
30
0
41
1
10
-1.24419096070108
20
4.24098765739043
30
0
41
1
10
-1.1846596238009
20
4.47808143591084
30
0
41
1
10
-1.16322641885091
20
4.55658654617713
30
0
41
1
10
-1.11622081339455
20
4.71196262616601
30
0
41
1
10
-1.09072783956068
20
4.78866062339219
30
0
41
1
10
-1.03396027230484
20
4.93953094779022
30
0
41
1
10
-1.00277623392995
20
5.01373263568618
30
0
41
1
10
-0.948685190430993
20
5.1222025819495
30
0
41
1
10
-0.929418355061671
20
5.15788155457756
30
0
41
1
10
-0.887207638430866
20
5.22789848621366
30
0
41
1
10
-0.864122395129357
20
5.26246883011029
30
0
41
1
10
-0.813063784087021
20
5.32779515181215
30
0
41
1
10
-0.785188235536481
20
5.35873160222474
30
0
41
1
10
-0.73634132235469
20
5.40008757388514
30
0
41
1
10
-0.718704728838105
20
5.41307616107972
30
0
41
1
10
-0.68109042505219
20
5.43539999221906
30
0
41
1
10
-0.660679139807655
20
5.44494090294222
30
0
41
1
10
-0.628779113836131
20
5.45481846069109
30
0
41
1
10
-0.617932285477281
20
5.45738916347958
30
0
41
1
10
-0.595755791454039
20
5.460899222482
30
0
41
1
10
-0.584290866885155
20
5.46183060563837
30
0
41
1
10
-0.550367797420392
20
5.46186904162576
30
0
41
1
10
-0.528055384786214
20
5.45826434527578
30
0
41
1
10
-0.464148785594148
20
5.43856597575441
30
0
41
1
10
-0.427340171474114
20
5.41481400234119
30
0
41
1
10
-0.394913799811292
20
5.38724490303798
30
0
0
SPLINE
5
14A
100
AcDbEntity
8
SK1
62
256
6
ByLayer
370
18
48
1
60
0
100
AcDbSpline
70
4
71
3
72
32
73
28
40
0
40
0
40
0
40
0
40
0.0312499999999992
40
0.0312499999999992
40
0.0624999999999984
40
0.0624999999999984
40
0.0937499999999977
40
0.0937499999999977
40
0.124999999999997
40
0.124999999999997
40
0.156249999999996
40
0.156249999999996
40
0.187499999999996
40
0.187499999999996
40
0.249999999999996
40
0.249999999999996
40
0.312499999999997
40
0.312499999999997
40
0.374999999999998
40
0.374999999999998
40
0.499999999999999
40
0.499999999999999
40
0.625
40
0.625
40
0.75
40
0.75
40
1
40
1
40
1
40
1
41
1
10
-0.394913799811292
20
-5.38724256160785
30
0
41
1
10
-0.411056331481689
20
-5.40096705709072
30
0
41
1
10
-0.428167571421071
20
-5.41359596702645
30
0
41
1
10
-0.465243842399829
20
-5.43564998709786
30
0
41
1
10
-0.485181785775097
20
-5.44498472977625
30
0
41
1
10
-0.527084358655003
20
-5.45802310642136
30
0
41
1
10
-0.549712129856715
20
-5.46177888945653
30
0
41
1
10
-0.594583752204912
20
-5.46190211761595
30
0
41
1
10
-0.617332847382016
20
-5.45828493727092
30
0
41
1
10
-0.659998030986756
20
-5.4452224540847
30
0
41
1
10
-0.680380496424021
20
-5.43574711585012
30
0
41
1
10
-0.717826906306087
20
-5.41366379171245
30
0
41
1
10
-0.735187935399338
20
-5.40097830060952
30
0
41
1
10
-0.784458452137201
20
-5.35950654192547
30
0
41
1
10
-0.812482621038882
20
-5.32846061496338
30
0
41
1
10
-0.863582196387256
20
-5.26323158283498
30
0
41
1
10
-0.886670718365792
20
-5.22873034693703
30
0
41
1
10
-0.929029640850715
20
-5.15857889561175
30
0
41
1
10
-0.948347177186207
20
-5.12284414993096
30
0
41
1
10
-1.00255771394654
20
-5.01423503792978
30
0
41
1
10
-1.03377854809035
20
-4.93997760418031
30
0
41
1
10
-1.09059413059555
20
-4.78904752584498
30
0
41
1
10
-1.11609621830422
20
-4.71234577760799
30
0
41
1
10
-1.16310814037331
20
-4.55700258195827
30
0
41
1
10
-1.1845725282583
20
-4.4784107078415
30
0
41
1
10
-1.24415567180661
20
-4.24116014101821
30
0
41
1
10
-1.2776606709638
20
-4.08065708556941
30
0
41
1
10
-1.30710678118655
20
-3.91808269248793
30
0
0
SPLINE
5
14B
100
AcDbEntity
8
SK1
62
256
6
ByLayer
370
18
48
1
60
0
100
AcDbSpline
70
4
71
3
72
20
73
16
40
0
40
0
40
0
40
0
40
0.0411527557889171
40
0.113602951177307
40
0.186053146565697
40
0.258503341954087
40
0.403403732730867
40
0.548304123507647
40
0.620754318896037
40
0.693204514284427
40
0.765654709672817
40
0.838104905061207
40
0.910555100449597
40
0.983005295837987
40
1
40
1
40
1
40
1
41
1
10
-0.200000000000003
20
17.5678954941522
30
0
41
1
10
-0.200000000000003
20
17.5625116388382
30
0
41
1
10
-0.200000000000003
20
17.5230998409311
30
0
41
1
10
-0.200000000000003
20
17.3563637126861
30
0
41
1
10
-0.200000000000003
20
17.025651689934
30
0
41
1
10
-0.200000000000003
20
16.4197046477864
30
0
41
1
10
-0.200000000000003
20
15.3750949753852
30
0
41
1
10
-0.200000000000003
20
13.9904902630881
30
0
41
1
10
-0.200000000000003
20
12.6940608651256
30
0
41
1
10
-0.200000000000003
20
11.6298862423998
30
0
41
1
10
-0.200000000000003
20
10.4757654026211
30
0
41
1
10
-0.200000000000003
20
9.23334543659817
30
0
41
1
10
-0.200000000000003
20
7.90375553528958
30
0
41
1
10
-0.200000000000003
20
6.84892354046241
30
0
41
1
10
-0.200000000000003
20
6.24422115048941
30
0
41
1
10
-0.200000000000003
20
6.1285406827036
30
0
0
SPLINE
5
14C
100
AcDbEntity
8
SK1
62
256
6
ByLayer
370
18
48
1
60
0
100
AcDbSpline
70
4
71
3
72
10
73
6
40
0
40
0
40
0
40
0
40
0.5
40
0.5
40
1
40
1
40
1
40
1
41
1
10
0
20
-5.59084178336474
30
0
41
1
10
-0.0263362950988721
20
-5.6833569191449
30
0
41
1
10
-0.0551840705731479
20
-5.77467039414981
30
0
41
1
10
-0.120484964942364
20
-5.95425247849945
30
0
41
1
10
-0.156757673658632
20
-6.04256970895179
30
0
41
1
10
-0.199999999996336
20
-6.12853949501226
30
0
0
SPLINE
5
14D
100
AcDbEntity
8
SK1
62
256
6
ByLayer
370
18
48
1
60
0
100
AcDbSpline
70
4
71
3
72
26
73
22
40
0
40
0
40
0
40
0
40
0.0312500000000005
40
0.0312500000000005
40
0.062500000000001
40
0.062500000000001
40
0.0937500000000015
40
0.0937500000000015
40
0.125000000000002
40
0.125000000000002
40
0.187500000000003
40
0.187500000000003
40
0.250000000000004
40
0.250000000000004
40
0.375000000000003
40
0.375000000000003
40
0.500000000000003
40
0.500000000000003
40
0.750000000000001
40
0.750000000000001
40
1
40
1
40
1
40
1
41
1
10
-0.394913799809103
20
5.38724490303881
30
0
41
1
10
-0.388649866092592
20
5.38191926832218
30
0
41
1
10
-0.381798613971014
20
5.37724701067964
30
0
41
1
10
-0.36663190093924
20
5.37078830603718
30
0
41
1
10
-0.358239511690414
20
5.36911498831623
30
0
41
1
10
-0.341344926981591
20
5.37086979141577
30
0
41
1
10
-0.333033202589888
20
5.37434773304167
30
0
41
1
10
-0.318577749103355
20
5.3843005254995
30
0
41
1
10
-0.312400979321552
20
5.39054104494753
30
0
41
1
10
-0.29583148662644
20
5.41090649401403
30
0
41
1
10
-0.287591117889988
20
5.42618911912561
30
0
41
1
10
-0.273296210573392
20
5.45757128507671
30
0
41
1
10
-0.267463037667554
20
5.47353830586394
30
0
41
1
10
-0.251984748535037
20
5.52184612225128
30
0
41
1
10
-0.244365057600788
20
5.55459465358774
30
0
41
1
10
-0.231573562776518
20
5.6205357075076
30
0
41
1
10
-0.226533735280697
20
5.65356559342112
30
0
41
1
10
-0.213920028330776
20
5.75227393156237
30
0
41
1
10
-0.208771139684643
20
5.81781617640925
30
0
41
1
10
-0.201932717755426
20
5.94845143863398
30
0
41
1
10
-0.200330038101583
20
6.01354333629575
30
0
41
1
10
-0.200000000000003
20
6.0784324458117
30
0
0
SPLINE
5
14E
100
AcDbEntity
8
SK1
62
256
6
ByLayer
370
18
48
1
60
0
100
AcDbSpline
70
4
71
3
72
20
73
16
40
0
40
0
40
0
40
0
40
0.0169947585570173
40
0.0894449528884673
40
0.161895147219917
40
0.234345341551367
40
0.306795535882817
40
0.379245730214267
40
0.451695924545717
40
0.596596313208617
40
0.741496701871517
40
0.813946896202967
40
0.886397090534417
40
0.958847284865867
40
1
40
1
40
1
40
1
41
1
10
-0.200000000000003
20
-6.12853949501147
30
0
41
1
10
-0.200000000000003
20
-6.24422036059772
30
0
41
1
10
-0.200000000000003
20
-6.84892323096861
30
0
41
1
10
-0.200000000000003
20
-7.9037553959202
30
0
41
1
10
-0.200000000000003
20
-9.23334514476059
30
0
41
1
10
-0.200000000000003
20
-10.4757656452374
30
0
41
1
10
-0.200000000000003
20
-11.6298860926996
30
0
41
1
10
-0.200000000000003
20
-12.6940606980929
30
0
41
1
10
-0.200000000000003
20
-13.9904906407439
30
0
41
1
10
-0.200000000000003
20
-15.3750945461546
30
0
41
1
10
-0.200000000000003
20
-16.4197054187038
30
0
41
1
10
-0.200000000000003
20
-17.0256515618456
30
0
41
1
10
-0.200000000000003
20
-17.3563640277398
30
0
41
1
10
-0.200000000000003
20
-17.5231003722359
30
0
41
1
10
-0.200000000000003
20
-17.5625118656995
30
0
41
1
10
-0.200000000000003
20
-17.5678956551955
30
0
0
SPLINE
5
14F
100
AcDbEntity
8
SK1
62
256
6
ByLayer
370
18
48
1
60
0
100
AcDbSpline
70
4
71
3
72
10
73
6
40
0
40
0
40
0
40
0
40
0.5
40
0.5
40
1
40
1
40
1
40
1
41
1
10
-0.200000000000003
20
6.1285406827036
30
0
41
1
10
-0.156757675993006
20
6.04257107114418
30
0
41
1
10
-0.120484961900118
20
5.95425401706129
30
0
41
1
10
-0.0551840630306941
20
5.77467228126494
30
0
41
1
10
-0.0263362878809232
20
5.68335897850545
30
0
41
1
10
1.705E-13
20
5.59084400956894
30
0
0
SPLINE
5
150
100
AcDbEntity
8
SK1
62
256
6
ByLayer
370
18
48
1
60
0
100
AcDbSpline
70
4
71
3
72
28
73
24
40
0
40
0
40
0
40
0
40
0.250000000000001
40
0.250000000000001
40
0.500000000000002
40
0.500000000000002
40
0.625000000000003
40
0.625000000000003
40
0.750000000000003
40
0.750000000000003
40
0.812500000000004
40
0.812500000000004
40
0.843750000000003
40
0.843750000000003
40
0.875000000000003
40
0.875000000000003
40
0.906250000000002
40
0.906250000000002
40
0.937500000000001
40
0.937500000000001
40
0.968750000000001
40
0.968750000000001
40
1
40
1
40
1
40
1
41
1
10
-0.200000000000003
20
-6.07843116862756
30
0
41
1
10
-0.20032985965473
20
-6.01357702681159
30
0
41
1
10
-0.201930655445096
20
-5.94848814748218
30
0
41
1
10
-0.208773542204611
20
-5.81776970228771
30
0
41
1
10
-0.213933058044106
20
-5.75209301058729
30
0
41
1
10
-0.226581907125791
20
-5.65322539656984
30
0
41
1
10
-0.231616433421493
20
-5.6202929490232
30
0
41
1
10
-0.244374377579419
20
-5.55456420326033
30
0
41
1
10
-0.252035382751359
20
-5.52169220269835
30
0
41
1
10
-0.267422418729026
20
-5.47365965349925
30
0
41
1
10
-0.273206407019188
20
-5.45783596374687
30
0
41
1
10
-0.283724888361988
20
-5.43464123738525
30
0
41
1
10
-0.287542348293442
20
-5.42700107315457
30
0
41
1
10
-0.29616469803905
20
-5.41201401791542
30
0
41
1
10
-0.301003751718966
20
-5.40461199814789
30
0
41
1
10
-0.312019326339495
20
-5.39094692539055
30
0
41
1
10
-0.318249907555952
20
-5.38460165612528
30
0
41
1
10
-0.332559804953661
20
-5.37459778054654
30
0
41
1
10
-0.340894665894936
20
-5.3709894160074
30
0
41
1
10
-0.357931156529872
20
-5.36907270427514
30
0
41
1
10
-0.366427856888876
20
-5.37072488685558
30
0
41
1
10
-0.381681431788636
20
-5.37716945917046
30
0
41
1
10
-0.388608058083719
20
-5.38188137503886
30
0
41
1
10
-0.394913799811292
20
-5.38724256160015
30
0
0
SPLINE
5
151
100
AcDbEntity
8
SK1
62
256
6
ByLayer
370
18
48
1
60
0
100
AcDbSpline
70
4
71
3
72
8
73
4
40
0
40
0
40
0
40
0
40
1
40
1
40
1
40
1
41
1
10
-0.0921467517112831
20
17.5703207785711
30
0
41
1
10
-0.123678356297248
20
17.5703192270606
30
0
41
1
10
-0.158652135289174
20
17.569476547771
30
0
41
1
10
-0.199999999996379
20
17.5678954941522
30
0
0
SPLINE
5
152
100
AcDbEntity
8
1
62
256
6
ByLayer
370
18
48
1
60
0
100
AcDbSpline
70
4
71
3
72
12
73
8
40
0
40
0
40
0
40
0
40
0.249999999999998
40
0.249999999999998
40
0.499999999999997
40
0.499999999999997
40
1
40
1
40
1
40
1
41
1
10
42.3245000000068
20
14.1775976034331
30
0
41
1
10
42.3245000000062
20
14.1924378510664
30
0
41
1
10
42.3218101058425
20
14.2092659533737
30
0
41
1
10
42.3135026485538
20
14.2438881515721
30
0
41
1
10
42.3078290051662
20
14.2618847017252
30
0
41
1
10
42.2874766500648
20
14.3171419602466
30
0
41
1
10
42.2700729926385
20
14.3543885787198
30
0
41
1
10
42.2495
20
14.3919878841886
30
0
0
SPLINE
5
153
100
AcDbEntity
8
1
62
256
6
ByLayer
370
18
48
1
60
0
100
AcDbSpline
70
4
71
3
72
14
73
10
40
0
40
0
40
0
40
0
40
0.25
40
0.25
40
0.5
40
0.5
40
0.75
40
0.75
40
1
40
1
40
1
40
1
41
1
10
42.3245000000001
20
-17.0663360248446
30
0
41
1
10
42.3245000000001
20
-17.0602063448816
30
0
41
1
10
42.3228790884289
20
-17.0554417118855
30
0
41
1
10
42.3157237685987
20
-17.050394459048
30
0
41
1
10
42.3101243352504
20
-17.0501458087765
30
0
41
1
10
42.2959401497
20
-17.0543147310199
30
0
41
1
10
42.2873637090464
20
-17.0586844662361
30
0
41
1
10
42.2690111551928
20
-17.0704653043412
30
0
41
1
10
42.259309512901
20
-17.0777868692096
30
0
41
1
10
42.2495
20
-17.0859271543189
30
0
0
SPLINE
5
154
100
AcDbEntity
8
1
62
256
6
ByLayer
370
18
48
1
60
0
100
AcDbSpline
70
4
71
3
72
14
73
10
40
0
40
0
40
0
40
0
40
0.25
40
0.25
40
0.5
40
0.5
40
0.75
40
0.75
40
1
40
1
40
1
40
1
41
1
10
42.2495
20
-15.5703702247132
30
0
41
1
10
42.2596892182419
20
-15.5537244060085
30
0
41
1
10
42.2691410712168
20
-15.5371479955473
30
0
41
1
10
42.286488561992
20
-15.5041362228495
30
0
41
1
10
42.2943464228541
20
-15.4877581462691
30
0
41
1
10
42.3078272140934
20
-15.4560122948547
30
0
41
1
10
42.313524884287
20
-15.4405314920262
30
0
41
1
10
42.3219195342536
20
-15.4107737469564
30
0
41
1
10
42.3245
20
-15.397025683911
30
0
41
1
10
42.3245
20
-15.3850933995447
30
0
0
SPLINE
5
155
100
AcDbEntity
8
1
62
256
6
ByLayer
370
18
48
1
60
0
100
AcDbSpline
70
4
71
3
72
20
73
16
40
0
40
0
40
0
40
0
40
0.125000000000023
40
0.125000000000023
40
0.187500000000032
40
0.187500000000032
40
0.250000000000041
40
0.250000000000041
40
0.375000000000037
40
0.375000000000037
40
0.500000000000034
40
0.500000000000034
40
0.750000000000013
40
0.750000000000013
40
1
40
1
40
1
40
1
41
1
10
41.6055
20
15.7591455874816
30
0
41
1
10
41.5912412099917
20
15.7707955390167
30
0
41
1
10
41.5768820097357
20
15.7804531729583
30
0
41
1
10
41.5574184338992
20
15.788465770257
30
0
41
1
10
41.55141786387
20
15.7899919676717
30
0
41
1
10
41.540736957698
20
15.7903960135115
30
0
41
1
10
41.536294750605
20
15.789278403277
30
0
41
1
10
41.5253975583987
20
15.7823442394068
30
0
41
1
10
41.521806464736
20
15.77297526137
30
0
41
1
10
41.5198177849194
20
15.7505443210121
30
0
41
1
10
41.5212007233627
20
15.7375040508776
30
0
41
1
10
41.5298415453329
20
15.6949118150192
30
0
41
1
10
41.5413348811657
20
15.663103963605
30
0
41
1
10
41.5695088592519
20
15.598922252976
30
0
41
1
10
41.5863155531056
20
15.5663315348299
30
0
41
1
10
41.6055
20
15.5333158840139
30
0
0
SPLINE
5
156
100
AcDbEntity
8
1
62
256
6
ByLayer
370
18
48
1
60
0
100
AcDbSpline
70
4
71
3
72
14
73
10
40
0
40
0
40
0
40
0
40
0.25
40
0.25
40
0.5
40
0.5
40
0.75
40
0.75
40
1
40
1
40
1
40
1
41
1
10
42.3245
20
17.7986396737458
30
0
41
1
10
42.3245
20
17.8046677602699
30
0
41
1
10
42.3219585951293
20
17.8129038412025
30
0
41
1
10
42.31345050483
20
17.8320919898525
30
0
41
1
10
42.3076457024702
20
17.8426975094091
30
0
41
1
10
42.2938160716918
20
17.8653586799415
30
0
41
1
10
42.2858454453667
20
17.8772918268094
30
0
41
1
10
42.2686722258868
20
17.9014801599266
30
0
41
1
10
42.2593984893985
20
17.9138435403137
30
0
41
1
10
42.2495
20
17.9264544727241
30
0
0
SPLINE
5
157
100
AcDbEntity
8
1
62
256
6
ByLayer
370
18
48
1
60
0
100
AcDbSpline
70
4
71
3
72
8
73
4
40
0
40
0
40
0
40
0
40
1
40
1
40
1
40
1
41
1
10
42.2495
20
-17.9264544727241
30
0
41
1
10
42.036344592726
20
-18.1980199940686
30
0
41
1
10
41.8216327980189
20
-18.46793539229
30
0
41
1
10
41.6055
20
-18.7363442052146
30
0
0
SPLINE
5
158
100
AcDbEntity
8
1
62
256
6
ByLayer
370
18
48
1
60
0
100
AcDbSpline
70
4
71
3
72
8
73
4
40
0
40
0
40
0
40
0
40
1
40
1
40
1
40
1
41
1
10
42.2495
20
18.654960886978
30
0
41
1
10
42.0350473703234
20
18.8478202535533
30
0
41
1
10
41.8203746839424
20
19.0403524947096
30
0
41
1
10
41.6055
20
19.232584456276
30
0
0
SPLINE
5
159
100
AcDbEntity
8
1
62
256
6
ByLayer
370
18
48
1
60
0
100
AcDbSpline
70
4
71
3
72
12
73
8
40
0
40
0
40
0
40
0
40
0.250000000000005
40
0.250000000000005
40
0.500000000000011
40
0.500000000000011
40
1
40
1
40
1
40
1
41
1
10
42.3245
20
10.7754639616859
30
0
41
1
10
42.3245
20
10.7999091198558
30
0
41
1
10
42.3218179813059
20
10.8257509458841
30
0
41
1
10
42.3135624753292
20
10.8782508842314
30
0
41
1
10
42.3079815642766
20
10.9046421962933
30
0
41
1
10
42.2881010272376
20
10.984111195255
30
0
41
1
10
42.2707624125431
20
11.0374723673838
30
0
41
1
10
42.2495000000004
20
11.0912167009134
30
0
0
SPLINE
5
15A
100
AcDbEntity
8
1
62
256
6
ByLayer
370
18
48
1
60
0
100
AcDbSpline
70
4
71
3
72
8
73
4
40
0
40
0
40
0
40
0
40
1
40
1
40
1
40
1
41
1
10
42.2495
20
13.9767752987127
30
0
41
1
10
42.0348720691877
20
14.1546049768551
30
0
41
1
10
41.8202039791954
20
14.3323700434185
30
0
41
1
10
41.6055
20
14.5100772776498
30
0
0
SPLINE
5
15B
100
AcDbEntity
8
1
62
256
6
ByLayer
370
18
48
1
60
0
100
AcDbSpline
70
4
71
3
72
12
73
8
40
0
40
0
40
0
40
0
40
0.249999999999997
40
0.249999999999997
40
0.499999999999995
40
0.499999999999995
40
1
40
1
40
1
40
1
41
1
10
42.3245
20
8.18008548133105
30
0
41
1
10
42.3245
20
8.21493915084127
30
0
41
1
10
42.3219169517557
20
8.25054591711094
30
0
41
1
10
42.3139525544051
20
8.32253866084037
30
0
41
1
10
42.3084632666113
20
8.35905903325772
30
0
41
1
10
42.288693751875
20
8.46847945251014
30
0
41
1
10
42.2712510870854
20
8.54143111158015
30
0
41
1
10
42.2495000000002
20
8.61440504217302
30
0
0
SPLINE
5
15C
100
AcDbEntity
8
1
62
256
6
ByLayer
370
18
48
1
60
0
100
AcDbSpline
70
4
71
3
72
14
73
10
40
0
40
0
40
0
40
0
40
0.25
40
0.25
40
0.5
40
0.5
40
0.75
40
0.75
40
1
40
1
40
1
40
1
41
1
10
42.2495000000009
20
19.0497595350347
30
0
41
1
10
42.2592507620438
20
19.0402857484307
30
0
41
1
10
42.2685315644711
20
19.0313407515936
30
0
41
1
10
42.2859568314169
20
19.0147203145367
30
0
41
1
10
42.2941812361887
20
19.006972118358
30
0
41
1
10
42.308177764175
20
18.9940407991515
30
0
41
1
10
42.3141301132091
20
18.9886933373445
30
0
41
1
10
42.3222743165323
20
18.9818216055315
30
0
41
1
10
42.3245
20
18.9802755671428
30
0
41
1
10
42.3245
20
18.9809298975149
30
0
0
SPLINE
5
15D
100
AcDbEntity
8
1
62
256
6
ByLayer
370
18
48
1
60
0
100
AcDbSpline
70
4
71
3
72
8
73
4
40
0
40
0
40
0
40
0
40
1
40
1
40
1
40
1
41
1
10
41.6055
20
-18.8304003628101
30
0
41
1
10
41.8203025465447
20
-18.6440075237985
30
0
41
1
10
42.0349733553288
20
-18.4574120577275
30
0
41
1
10
42.2495
20
-18.2705960321683
30
0
0
SPLINE
5
15E
100
AcDbEntity
8
1
62
256
6
ByLayer
370
18
48
1
60
0
100
AcDbSpline
70
4
71
3
72
14
73
10
40
0
40
0
40
0
40
0
40
0.25
40
0.25
40
0.5
40
0.5
40
0.75
40
0.75
40
1
40
1
40
1
40
1
41
1
10
42.2495
20
-19.0679370847154
30
0
41
1
10
42.2592112781078
20
-19.0580695895894
30
0
41
1
10
42.2684631746828
20
-19.0486275483861
30
0
41
1
10
42.2858574791356
20
-19.0307635373025
30
0
41
1
10
42.2940253176557
20
-19.0223134800282
30
0
41
1
10
42.3079744336769
20
-19.0077038595556
30
0
41
1
10
42.3139402091291
20
-19.0013494349122
30
0
41
1
10
42.3221868277214
20
-18.9922305495165
30
0
41
1
10
42.3245
20
-18.9894242585628
30
0
41
1
10
42.3245
20
-18.988914520495
30
0
0
SPLINE
5
15F
100
AcDbEntity
8
1
62
256
6
ByLayer
370
18
48
1
60
0
100
AcDbSpline
70
4
71
3
72
22
73
18
40
0
40
0
40
0
40
0
40
0.124999999999999
40
0.124999999999999
40
0.249999999999998
40
0.249999999999998
40
0.312500000000008
40
0.312500000000008
40
0.375000000000019
40
0.375000000000019
40
0.50000000000002
40
0.50000000000002
40
0.625000000000021
40
0.625000000000021
40
0.750000000000023
40
0.750000000000023
40
1
40
1
40
1
40
1
41
1
10
41.6055
20
17.6200829661946
30
0
41
1
10
41.5925334988623
20
17.6308327834681
30
0
41
1
10
41.5797531930942
20
17.6402864467316
30
0
41
1
10
41.5562544517051
20
17.654302916153
30
0
41
1
10
41.5454908274748
20
17.6587687434616
30
0
41
1
10
41.5334892269528
20
17.6596867674202
30
0
41
1
10
41.530205563054
20
17.6590766548954
30
0
41
1
10
41.5250177333854
20
17.6560886458349
30
0
41
1
10
41.5231561197148
20
17.653697451913
30
0
41
1
10
41.519717166478
20
17.6445192588561
30
0
41
1
10
41.5201814178571
20
17.6355833444457
30
0
41
1
10
41.5247925885223
20
17.6150938819369
30
0
41
1
10
41.528964218601
20
17.6033152733689
30
0
41
1
10
41.5395772269019
20
17.5786246428309
30
0
41
1
10
41.5461275380489
20
17.5654512705205
30
0
41
1
10
41.5681084752691
20
17.5251641327109
30
0
41
1
10
41.5856544550338
20
17.4974380464925
30
0
41
1
10
41.6055
20
17.4690368442115
30
0
0
SPLINE
5
160
100
AcDbEntity
8
1
62
256
6
ByLayer
370
18
48
1
60
0
100
AcDbSpline
70
4
71
3
72
14
73
10
40
0
40
0
40
0
40
0
40
0.25
40
0.25
40
0.5
40
0.5
40
0.75
40
0.75
40
1
40
1
40
1
40
1
41
1
10
42.2495
20
17.0859271543188
30
0
41
1
10
42.259305222304
20
17.0777904297006
30
0
41
1
10
42.268941650508
20
17.070512356637
30
0
41
1
10
42.2873727965176
20
17.0586762048217
30
0
41
1
10
42.2959647459641
20
17.0543030091875
30
0
41
1
10
42.3101526926038
20
17.0501419836255
30
0
41
1
10
42.3157692403822
20
17.0504143348533
30
0
41
1
10
42.3228710110818
20
17.05544827789
30
0
41
1
10
42.3245000000001
20
17.0602107169181
30
0
41
1
10
42.3245000000001
20
17.0663360248446
30
0
0
SPLINE
5
161
100
AcDbEntity
8
1
62
256
6
ByLayer
370
18
48
1
60
0
100
AcDbSpline
70
4
71
3
72
14
73
10
40
0
40
0
40
0
40
0
40
0.25
40
0.25
40
0.5
40
0.5
40
0.75
40
0.75
40
1
40
1
40
1
40
1
41
1
10
42.3245
20
18.988914520495
30
0
41
1
10
42.3245
20
18.9894247455032
30
0
41
1
10
42.322179475846
20
18.9922388158724
30
0
41
1
10
42.3139404238711
20
19.0013490604847
30
0
41
1
10
42.3079761818693
20
19.0077021283887
30
0
41
1
10
42.2940034076216
20
19.0223363275757
30
0
41
1
10
42.2858210468891
20
19.0308010647053
30
0
41
1
10
42.2684517336469
20
19.0486391867036
30
0
41
1
10
42.2592082059553
20
19.0580727111611
30
0
41
1
10
42.2495
20
19.0679370847154
30
0
0
SPLINE
5
162
100
AcDbEntity
8
1
62
256
6
ByLayer
370
18
48
1
60
0
100
AcDbSpline
70
4
71
3
72
8
73
4
40
0
40
0
40
0
40
0
40
1
40
1
40
1
40
1
41
1
10
42.2495
20
-17.3075317791603
30
0
41
1
10
42.0367823196005
20
-17.5988748078191
30
0
41
1
10
41.8220560392467
20
-17.8882313992869
30
0
41
1
10
41.6055
20
-18.1757784213043
30
0
0
SPLINE
5
163
100
AcDbEntity
8
1
62
256
6
ByLayer
370
18
48
1
60
0
100
AcDbSpline
70
4
71
3
72
20
73
16
40
0
40
0
40
0
40
0
40
0.249999999999974
40
0.249999999999974
40
0.374999999999979
40
0.374999999999979
40
0.499999999999983
40
0.499999999999983
40
0.624999999999987
40
0.624999999999987
40
0.749999999999991
40
0.749999999999991
40
0.874999999999996
40
0.874999999999996
40
1
40
1
40
1
40
1
41
1
10
42.3245000000103
20
-10.4758747057858
30
0
41
1
10
42.3245000000108
20
-10.4622480685125
30
0
41
1
10
42.3237200066662
20
-10.4489518311854
30
0
41
1
10
42.3205608214897
20
-10.4305545407478
30
0
41
1
10
42.3191774382012
20
-10.424704653761
30
0
41
1
10
42.3154601805353
20
-10.4138219207665
30
0
41
1
10
42.3130942942823
20
-10.4087403605802
30
0
41
1
10
42.3071073011925
20
-10.4003169334065
30
0
41
1
10
42.3033938502503
20
-10.39688473922
30
0
41
1
10
42.294518318095
20
-10.3929059165863
30
0
41
1
10
42.2892737818143
20
-10.3923980908058
30
0
41
1
10
42.2781480202122
20
-10.3946418601521
30
0
41
1
10
42.2722402591584
20
-10.3973541368364
30
0
41
1
10
42.2607361074498
20
-10.4047199434933
30
0
41
1
10
42.2549952414778
20
-10.4094314721799
30
0
41
1
10
42.2494999999996
20
-10.4146279387547
30
0
0
SPLINE
5
164
100
AcDbEntity
8
1
62
256
6
ByLayer
370
18
48
1
60
0
100
AcDbSpline
70
4
71
3
72
24
73
20
40
0
40
0
40
0
40
0
40
0.0624999999999808
40
0.0624999999999808
40
0.0937499999999826
40
0.0937499999999826
40
0.124999999999984
40
0.124999999999984
40
0.187499999999985
40
0.187499999999985
40
0.249999999999985
40
0.249999999999985
40
0.374999999999991
40
0.374999999999991
40
0.499999999999997
40
0.499999999999997
40
0.749999999999999
40
0.749999999999999
40
1
40
1
40
1
40
1
41
1
10
41.6055000000005
20
11.0193324895507
30
0
41
1
10
41.5963514999414
20
11.0278652865442
30
0
41
1
10
41.5866876697863
20
11.0351999066992
30
0
41
1
10
41.5723330899366
20
11.041820006238
30
0
41
1
10
41.5675547787909
20
11.0432723168304
30
0
41
1
10
41.5586414963532
20
11.0442508533819
30
0
41
1
10
41.5543655001453
20
11.0437754546187
30
0
41
1
10
41.5430939816221
20
11.0397104876866
30
0
41
1
10
41.5373469222961
20
11.0335113934086
30
0
41
1
10
41.5289338815004
20
11.01793447613
30
0
41
1
10
41.5261574723945
20
11.0085824314792
30
0
41
1
10
41.5204500881332
20
10.9788847800534
30
0
41
1
10
41.5199364302341
20
10.9563668452074
30
0
41
1
10
41.5218901242228
20
10.9105914997112
30
0
41
1
10
41.524441710891
20
10.8869493256596
30
0
41
1
10
41.5351213490498
20
10.8145461173041
30
0
41
1
10
41.5459598179365
20
10.7658633474734
30
0
41
1
10
41.5721839896752
20
10.6679632963495
30
0
41
1
10
41.5876647221102
20
10.6187362951507
30
0
41
1
10
41.6054999999999
20
10.5692423325784
30
0
0
SPLINE
5
165
100
AcDbEntity
8
1
62
256
6
ByLayer
370
18
48
1
60
0
100
AcDbSpline
70
4
71
3
72
12
73
8
40
0
40
0
40
0
40
0
40
0.499999999999996
40
0.499999999999996
40
0.749999999999998
40
0.749999999999998
40
1
40
1
40
1
40
1
41
1
10
42.2495000000001
20
-8.61440504217305
30
0
41
1
10
42.2712546187304
20
-8.54141926306806
30
0
41
1
10
42.2887186806718
20
-8.46839262995721
30
0
41
1
10
42.3085114899594
20
-8.35876643188212
30
0
41
1
10
42.3139715238253
20
-8.32238837700743
30
0
41
1
10
42.321917021225
20
-8.2505240515008
30
0
41
1
10
42.3245
20
-8.21495282829224
30
0
41
1
10
42.3245
20
-8.18008548133105
30
0
0
SPLINE
5
166
100
AcDbEntity
8
1
62
256
6
ByLayer
370
18
48
1
60
0
100
AcDbSpline
70
4
71
3
72
12
73
8
40
0
40
0
40
0
40
0
40
0.250000000000005
40
0.250000000000005
40
0.500000000000009
40
0.500000000000009
40
1
40
1
40
1
40
1
41
1
10
42.3245
20
12.6809876861899
30
0
41
1
10
42.3245
20
12.6997071452707
30
0
41
1
10
42.3218553248734
20
12.719794914746
30
0
41
1
10
42.3135999420662
20
12.7614838723725
30
0
41
1
10
42.3078812973899
20
12.78314743734
30
0
41
1
10
42.2877834430177
20
12.8478323650262
30
0
41
1
10
42.2704170019078
20
12.8913749481953
30
0
41
1
10
42.2495000000001
20
12.9353083296312
30
0
0
SPLINE
5
167
100
AcDbEntity
8
1
62
256
6
ByLayer
370
18
48
1
60
0
100
AcDbSpline
70
4
71
3
72
22
73
18
40
0
40
0
40
0
40
0
40
0.250000000000008
40
0.250000000000008
40
0.312500000000007
40
0.312500000000007
40
0.375000000000007
40
0.375000000000007
40
0.500000000000005
40
0.500000000000005
40
0.625000000000004
40
0.625000000000004
40
0.750000000000003
40
0.750000000000003
40
0.875000000000001
40
0.875000000000001
40
1
40
1
40
1
40
1
41
1
10
41.6055
20
19.5115512430934
30
0
41
1
10
41.5825379974329
20
19.5328190622729
30
0
41
1
10
41.5607535476664
20
19.5519654120075
30
0
41
1
10
41.5404048884699
20
19.5674556705879
30
0
41
1
10
41.5367592237661
20
19.5700669054193
30
0
41
1
10
41.5304144574532
20
19.574200409037
30
0
41
1
10
41.5277190447527
20
19.5757123360829
30
0
41
1
10
41.521544858164
20
19.5782568081098
30
0
41
1
10
41.5198761092045
20
19.5773008110934
30
0
41
1
10
41.521565633523
20
19.5705019246575
30
0
41
1
10
41.5248695785995
20
19.5646759138372
30
0
41
1
10
41.5348644937965
20
19.5500522686143
30
0
41
1
10
41.5416097334609
20
19.5411548521571
30
0
41
1
10
41.5570551246182
20
19.521869396227
30
0
41
1
10
41.5659412283818
20
19.5112472832549
30
0
41
1
10
41.5848489615513
20
19.4893103171526
30
0
41
1
10
41.5949114395793
20
19.4779400570609
30
0
41
1
10
41.6055
20
19.4662256251216
30
0
0
SPLINE
5
168
100
AcDbEntity
8
1
62
256
6
ByLayer
370
18
48
1
60
0
100
AcDbSpline
70
4
71
3
72
20
73
16
40
0
40
0
40
0
40
0
40
0.25
40
0.25
40
0.375
40
0.375
40
0.5
40
0.5
40
0.625
40
0.625
40
0.75
40
0.75
40
0.875
40
0.875
40
1
40
1
40
1
40
1
41
1
10
41.6055
20
-19.4662256251216
30
0
41
1
10
41.5842527177492
20
-19.4897321106051
30
0
41
1
10
41.5647591784121
20
-19.512245602338
30
0
41
1
10
41.541538810157
20
-19.5412455910611
30
0
41
1
10
41.5348191531312
20
-19.5501143780702
30
0
41
1
10
41.5248488902685
20
-19.5647104400402
30
0
41
1
10
41.52154227505
20
-19.5705386140865
30
0
41
1
10
41.5198797900556
20
-19.5773439817586
30
0
41
1
10
41.5215268512072
20
-19.5782810305198
30
0
41
1
10
41.5299273542161
20
-19.5747851907473
30
0
41
1
10
41.5364749055013
20
-19.5704541370685
30
0
41
1
10
41.5527289309234
20
-19.5580671841504
30
0
41
1
10
41.5623212415122
20
-19.5501066098877
30
0
41
1
10
41.5830767110618
20
-19.5320647148509
30
0
41
1
10
41.5940553495815
20
-19.5221514838591
30
0
41
1
10
41.6055
20
-19.5115512430934
30
0
0
SPLINE
5
169
100
AcDbEntity
8
1
62
256
6
ByLayer
370
18
48
1
60
0
100
AcDbSpline
70
4
71
3
72
24
73
20
40
0
40
0
40
0
40
0
40
0.250000000000017
40
0.250000000000017
40
0.375000000000014
40
0.375000000000014
40
0.500000000000012
40
0.500000000000012
40
0.625000000000009
40
0.625000000000009
40
0.750000000000006
40
0.750000000000006
40
0.812500000000004
40
0.812500000000004
40
0.875000000000003
40
0.875000000000003
40
0.937500000000001
40
0.937500000000001
40
1
40
1
40
1
40
1
41
1
10
41.6055
20
-16.5974568928041
30
0
41
1
10
41.5859306350477
20
-16.627954617671
30
0
41
1
10
41.5684043776613
20
-16.6584924379041
30
0
41
1
10
41.5469810411721
20
-16.7021612457542
30
0
41
1
10
41.5406367983317
20
-16.7163852039587
30
0
41
1
10
41.5300049616654
20
-16.7439749121277
30
0
41
1
10
41.5257550687406
20
-16.7572748958537
30
0
41
1
10
41.5206023010412
20
-16.7813697613153
30
0
41
1
10
41.5196580046164
20
-16.7924512939753
30
0
41
1
10
41.5230585867862
20
-16.8094781184495
30
0
41
1
10
41.5275718217049
20
-16.8154965617001
30
0
41
1
10
41.5392932037595
20
-16.8179133314042
30
0
41
1
10
41.5438737154884
20
-16.817642095108
30
0
41
1
10
41.5543259951703
20
-16.8150413247482
30
0
41
1
10
41.5602042505498
20
-16.8126777169457
30
0
41
1
10
41.5724281931626
20
-16.8063867311992
30
0
41
1
10
41.5789268310879
20
-16.8023930464153
30
0
41
1
10
41.5921113198276
20
-16.7932881819859
30
0
41
1
10
41.5987765869105
20
-16.7882045166474
30
0
41
1
10
41.6055
20
-16.7826993267327
30
0
0
SPLINE
5
16A
100
AcDbEntity
8
1
62
256
6
ByLayer
370
18
48
1
60
0
100
AcDbSpline
70
4
71
3
72
34
73
30
40
0
40
0
40
0
40
0
40
0.0156249999999983
40
0.0156249999999983
40
0.0234374999999987
40
0.0234374999999987
40
0.031249999999999
40
0.031249999999999
40
0.0390624999999993
40
0.0390624999999993
40
0.0468749999999996
40
0.0468749999999996
40
0.0624999999999999
40
0.0624999999999999
40
0.0937500000000006
40
0.0937500000000006
40
0.125000000000001
40
0.125000000000001
40
0.187500000000001
40
0.187500000000001
40
0.250000000000001
40
0.250000000000001
40
0.375000000000001
40
0.375000000000001
40
0.500000000000001
40
0.500000000000001
40
0.75
40
0.75
40
1
40
1
40
1
40
1
41
1
10
41.6055
20
3.7827284368679
30
0
41
1
10
41.6007705655568
20
3.79341283717162
30
0
41
1
10
41.5955490543377
20
3.80393894997178
30
0
41
1
10
41.5859003902771
20
3.81747507150769
30
0
41
1
10
41.5823183437861
20
3.82165526629146
30
0
41
1
10
41.5743140468773
20
3.82737232957584
30
0
41
1
10
41.5697160151604
20
3.82862227898582
30
0
41
1
10
41.561718660099
20
3.82613095390147
30
0
41
1
10
41.558300967182
20
3.82273280877368
30
0
41
1
10
41.552786193003
20
3.81471355379796
30
0
41
1
10
41.5506031074559
20
3.81011898269335
30
0
41
1
10
41.5448209116843
20
3.79555104104094
30
0
41
1
10
41.5420279700429
20
3.78480993104316
30
0
41
1
10
41.5349886696624
20
3.75206608762755
30
0
41
1
10
41.532125846609
20
3.72959578922288
30
0
41
1
10
41.5275463608367
20
3.68459100105358
30
0
41
1
10
41.5259366758227
20
3.66192772349066
30
0
41
1
10
41.5221879375994
20
3.59367053200728
30
0
41
1
10
41.5211237145157
20
3.54781048965836
30
0
41
1
10
41.5202775475736
20
3.45573587755703
30
0
41
1
10
41.5205447726049
20
3.40951027799315
30
0
41
1
10
41.5225656456907
20
3.27045940636378
30
0
41
1
10
41.5255202243384
20
3.17719305974373
30
0
41
1
10
41.5328352228856
20
2.99069866673483
30
0
41
1
10
41.5372388978757
20
2.89738223912494
30
0
41
1
10
41.5515416895533
20
2.61725417967082
30
0
41
1
10
41.5625016305453
20
2.43026460991308
30
0
41
1
10
41.5843793089832
20
2.05588144168121
30
0
41
1
10
41.5953521388833
20
1.86845803691855
30
0
41
1
10
41.6055
20
1.68093354208526
30
0
0
SPLINE
5
16B
100
AcDbEntity
8
1
62
256
6
ByLayer
370
18
48
1
60
0
100
AcDbSpline
70
4
71
3
72
22
73
18
40
0
40
0
40
0
40
0
40
0.250000000000025
40
0.250000000000025
40
0.50000000000005
40
0.50000000000005
40
0.625000000000067
40
0.625000000000067
40
0.687500000000066
40
0.687500000000066
40
0.750000000000066
40
0.750000000000066
40
0.875000000000053
40
0.875000000000053
40
0.937500000000026
40
0.937500000000026
40
1
40
1
40
1
40
1
41
1
10
41.6055
20
-17.4690368442115
30
0
41
1
10
41.5855915537273
20
-17.4975280653221
30
0
41
1
10
41.5676956760301
20
-17.52586355086
30
0
41
1
10
41.5386672707896
20
-17.5791828628332
30
0
41
1
10
41.5270549522047
20
-17.6049237622154
30
0
41
1
10
41.5201581473621
20
-17.6357460390406
30
0
41
1
10
41.5196999481554
20
-17.6445659272814
30
0
41
1
10
41.5232122879929
20
-17.6538000958583
30
0
41
1
10
41.5250723321223
20
-17.6561404219928
30
0
41
1
10
41.5302755446604
20
-17.6590961389691
30
0
41
1
10
41.533673850252
20
-17.6596962012999
30
0
41
1
10
41.5456268441332
20
-17.6587096977065
30
0
41
1
10
41.5563272950884
20
-17.6542651322379
30
0
41
1
10
41.5739236789625
20
-17.6437607679609
30
0
41
1
10
41.5801432038352
20
-17.6395811173996
30
0
41
1
10
41.5926860165345
20
-17.630425455486
30
0
41
1
10
41.5990533120789
20
-17.6254275627389
30
0
41
1
10
41.6055
20
-17.6200829661947
30
0
0
SPLINE
5
16C
100
AcDbEntity
8
1
62
256
6
ByLayer
370
18
48
1
60
0
100
AcDbSpline
70
4
71
3
72
14
73
10
40
0
40
0
40
0
40
0
40
0.25
40
0.25
40
0.5
40
0.5
40
0.75
40
0.75
40
1
40
1
40
1
40
1
41
1
10
42.3245
20
-18.2309126238237
30
0
41
1
10
42.3245
20
-18.2269178971008
30
0
41
1
10
42.3226261329832
20
-18.2247594643014
30
0
41
1
10
42.314843542028
20
-18.2248115931792
30
0
41
1
10
42.3091628945776
20
-18.226981040974
30
0
41
1
10
42.2948542225229
20
-18.2350325359301
30
0
41
1
10
42.2865896124374
20
-18.2407014516844
30
0
41
1
10
42.2686127181097
20
-18.254375599661
30
0
41
1
10
42.259209704467
20
-18.2621405398416
30
0
41
1
10
42.2495
20
-18.2705960321683
30
0
0
SPLINE
5
16D
100
AcDbEntity
8
1
62
256
6
ByLayer
370
18
48
1
60
0
100
AcDbSpline
70
4
71
3
72
12
73
8
40
0
40
0
40
0
40
0
40
0.249999999999996
40
0.249999999999996
40
0.499999999999993
40
0.499999999999993
40
1
40
1
40
1
40
1
41
1
10
42.3245000000014
20
17.1637626739618
30
0
41
1
10
42.3245000000014
20
17.1715373958858
30
0
41
1
10
42.3219119832026
20
17.1813988967017
30
0
41
1
10
42.3134329614606
20
17.2035631073316
30
0
41
1
10
42.3076482942255
20
17.2155633646174
30
0
41
1
10
42.2869260374197
20
17.2535669467308
30
0
41
1
10
42.2694532524701
20
17.2802033455514
30
0
41
1
10
42.2495
20
17.3075317791603
30
0
0
SPLINE
5
16E
100
AcDbEntity
8
1
62
256
6
ByLayer
370
18
48
1
60
0
100
AcDbSpline
70
4
71
3
72
18
73
14
40
0
40
0
40
0
40
0
40
0.125
40
0.125
40
0.25
40
0.25
40
0.375
40
0.375
40
0.5
40
0.5
40
0.75
40
0.75
40
1
40
1
40
1
40
1
41
1
10
42.2494999999998
20
10.4146279387551
30
0
41
1
10
42.2550049788101
20
10.4094222642644
30
0
41
1
10
42.2607471989824
20
10.4047102840507
30
0
41
1
10
42.2722719837174
20
10.3973363917775
30
0
41
1
10
42.2782056647285
20
10.394621772586
30
0
41
1
10
42.2893124647998
20
10.3923988253768
30
0
41
1
10
42.2945557627869
20
10.392912597402
30
0
41
1
10
42.303434328157
20
10.396913079466
30
0
41
1
10
42.3071286351407
20
10.4003404441786
30
0
41
1
10
42.3160954547509
20
10.4129759221183
30
0
41
1
10
42.3195542386962
20
10.4245951089764
30
0
41
1
10
42.3237421835355
20
10.4491802546459
30
0
41
1
10
42.3245
20
10.4622966572633
30
0
41
1
10
42.3245
20
10.4758747057917
30
0
0
SPLINE
5
16F
100
AcDbEntity
8
1
62
256
6
ByLayer
370
18
48
1
60
0
100
AcDbSpline
70
4
71
3
72
12
73
8
40
0
40
0
40
0
40
0
40
0.249999999999997
40
0.249999999999997
40
0.499999999999994
40
0.499999999999994
40
1
40
1
40
1
40
1
41
1
10
42.324500000009
20
16.3675876053922
30
0
41
1
10
42.3245000000084
20
16.3772221576381
30
0
41
1
10
42.3218736994013
20
16.3890583159478
30
0
41
1
10
42.3134493924229
20
16.4145929308426
30
0
41
1
10
42.3076705406041
20
16.4282616213631
30
0
41
1
10
42.2870412716419
20
16.4708624306539
30
0
41
1
10
42.2696463919063
20
16.5001337171808
30
0
41
1
10
42.2495
20
16.5300799335829
30
0
0
SPLINE
5
170
100
AcDbEntity
8
1
62
256
6
ByLayer
370
18
48
1
60
0
100
AcDbSpline
70
4
71
3
72
8
73
4
40
0
40
0
40
0
40
0
40
1
40
1
40
1
40
1
41
1
10
42.2495
20
15.2329620912908
30
0
41
1
10
42.0348350239476
20
15.4083593488627
30
0
41
1
10
41.8201683008329
20
15.5837537555398
30
0
41
1
10
41.6055
20
15.7591455874816
30
0
0
SPLINE
5
171
100
AcDbEntity
8
1
62
256
6
ByLayer
370
18
48
1
60
0
100
AcDbSpline
70
4
71
3
72
24
73
20
40
0
40
0
40
0
40
0
40
0.0625000000000012
40
0.0625000000000012
40
0.125000000000003
40
0.125000000000003
40
0.187500000000004
40
0.187500000000004
40
0.250000000000005
40
0.250000000000005
40
0.375000000000007
40
0.375000000000007
40
0.50000000000001
40
0.50000000000001
40
0.625000000000012
40
0.625000000000012
40
0.750000000000015
40
0.750000000000015
40
1
40
1
40
1
40
1
41
1
10
41.6055
20
12.9705056015292
30
0
41
1
10
41.5972284375665
20
12.9776122011715
30
0
41
1
10
41.5889144198408
20
12.9837280890158
30
0
41
1
10
41.5721570837898
20
12.9929284146393
30
0
41
1
10
41.563911018039
20
12.9957843445631
30
0
41
1
10
41.549332527511
20
12.9966079268731
30
0
41
1
10
41.5430585144056
20
12.9945698287035
30
0
41
1
10
41.5331756087365
20
12.9866643331887
30
0
41
1
10
41.529511798149
20
12.9808577601684
30
0
41
1
10
41.5216186437243
20
12.9606395868765
30
0
41
1
10
41.5201840617249
20
12.9433949621493
30
0
41
1
10
41.5209199022983
20
12.9077348478638
30
0
41
1
10
41.5231238534934
20
12.8888737778533
30
0
41
1
10
41.5298133073727
20
12.8498542855238
30
0
41
1
10
41.5343587101987
20
12.829630606807
30
0
41
1
10
41.5449466014965
20
12.7892938647489
30
0
41
1
10
41.5510225071257
20
12.7690160851208
30
0
41
1
10
41.5711758684454
20
12.7079111464973
30
0
41
1
10
41.5871256147204
20
12.6668188134641
30
0
41
1
10
41.6055
20
12.6253933182574
30
0
0
SPLINE
5
172
100
AcDbEntity
8
1
62
256
6
ByLayer
370
18
48
1
60
0
100
AcDbSpline
70
4
71
3
72
8
73
4
40
0
40
0
40
0
40
0
40
1
40
1
40
1
40
1
41
1
10
41.6055
20
-19.232584456276
30
0
41
1
10
41.8203746839424
20
-19.0403524947096
30
0
41
1
10
42.0350473703234
20
-18.8478202535533
30
0
41
1
10
42.2495
20
-18.654960886978
30
0
0
SPLINE
5
173
100
AcDbEntity
8
1
62
256
6
ByLayer
370
18
48
1
60
0
100
AcDbSpline
70
4
71
3
72
8
73
4
40
0
40
0
40
0
40
0
40
1
40
1
40
1
40
1
41
1
10
42.2495
20
19.0497595350354
30
0
41
1
10
42.0352478964824
20
19.2579256967411
30
0
41
1
10
41.8205696375729
20
19.4655042942751
30
0
41
1
10
41.6055
20
19.67254327625
30
0
0
SPLINE
5
174
100
AcDbEntity
8
1
62
256
6
ByLayer
370
18
48
1
60
0
100
AcDbSpline
70
4
71
3
72
20
73
16
40
0
40
0
40
0
40
0
40
0.0624999999999993
40
0.0624999999999993
40
0.124999999999999
40
0.124999999999999
40
0.249999999999999
40
0.249999999999999
40
0.374999999999999
40
0.374999999999999
40
0.499999999999999
40
0.499999999999999
40
0.75
40
0.75
40
1
40
1
40
1
40
1
41
1
10
11.4613248654051
20
-7.5296667942651
30
0
41
1
10
11.4772013120199
20
-7.5296667942651
30
0
41
1
10
11.4927843117432
20
-7.53122440152953
30
0
41
1
10
11.5234158787419
20
-7.53717584664562
30
0
41
1
10
11.538594003026
20
-7.54162522662267
30
0
41
1
10
11.582404000511
20
-7.55857361750111
30
0
41
1
10
11.6089650834002
20
-7.57431556968115
30
0
41
1
10
11.6582924559948
20
-7.61190750686265
30
0
41
1
10
11.6801688454702
20
-7.63307325241206
30
0
41
1
10
11.7202459771561
20
-7.67851551807129
30
0
41
1
10
11.738510007411
20
-7.70297658390788
30
0
41
1
10
11.788260382648
20
-7.77866338250456
30
0
41
1
10
11.8148780607232
20
-7.83191947486046
30
0
41
1
10
11.8602443227466
20
-7.94172327888185
30
0
41
1
10
11.8788862370737
20
-7.9984691682071
30
0
41
1
10
11.8943375672975
20
-8.05584836782774
30
0
0
SPLINE
5
175
100
AcDbEntity
8
1
62
256
6
ByLayer
370
18
48
1
60
0
100
AcDbSpline
70
4
71
3
72
12
73
8
40
0
40
0
40
0
40
0
40
0.500000000000016
40
0.500000000000016
40
0.750000000000008
40
0.750000000000008
40
1
40
1
40
1
40
1
41
1
10
42.2495
20
-18.7475864397169
30
0
41
1
10
42.2690960393407
20
-18.7255245029813
30
0
41
1
10
42.2870555714388
20
-18.7041980616753
30
0
41
1
10
42.3077712526587
20
-18.6769230565226
30
0
41
1
10
42.3137084244209
20
-18.6685026888432
30
0
41
1
10
42.3220552838793
20
-18.6547549787377
30
0
41
1
10
42.3245
20
-18.6493424979473
30
0
41
1
10
42.3245000000001
20
-18.6463193271822
30
0
0
SPLINE
5
176
100
AcDbEntity
8
1
62
256
6
ByLayer
370
18
48
1
60
0
100
AcDbSpline
70
4
71
3
72
8
73
4
40
0
40
0
40
0
40
0
40
1
40
1
40
1
40
1
41
1
10
41.6055
20
-16.7826993267326
30
0
41
1
10
41.8201732371937
20
-16.6069229874504
30
0
41
1
10
42.0348401170211
20
-16.4311362953957
30
0
41
1
10
42.2495
20
-16.2553382123749
30
0
0
SPLINE
5
177
100
AcDbEntity
8
1
62
256
6
ByLayer
370
18
48
1
60
0
100
AcDbSpline
70
4
71
3
72
29
73
25
40
0
40
0
40
0
40
0
40
0.249999999999966
40
0.249999999999966
40
0.499999999999932
40
0.624999999999914
40
0.624999999999914
40
0.749999999999897
40
0.749999999999897
40
0.81249999999989
40
0.81249999999989
40
0.843749999999889
40
0.843749999999889
40
0.859374999999897
40
0.859374999999897
40
0.874999999999906
40
0.874999999999906
40
0.890624999999914
40
0.890624999999914
40
0.906249999999923
40
0.906249999999923
40
0.937499999999952
40
0.937499999999952
40
1
40
1
40
1
40
1
41
1
10
42.3245000000001
20
-2.37436329715138
30
0
41
1
10
42.3245000000001
20
-2.31940641055095
30
0
41
1
10
42.3240323999323
20
-2.26449631457598
30
0
41
1
10
42.321844723872
20
-2.15482541361561
30
0
41
1
10
42.319316428687
20
-2.07267512182739
30
0
41
1
10
42.3143104212239
20
-1.99088027341207
30
0
41
1
10
42.3099789692881
20
-1.93650712811873
30
0
41
1
10
42.3074068235437
20
-1.90939960539257
30
0
41
1
10
42.3015807534019
20
-1.86948409506093
30
0
41
1
10
42.2993630930082
20
-1.85625551520152
30
0
41
1
10
42.294437082563
20
-1.8370685365966
30
0
41
1
10
42.2925937216098
20
-1.83082493458852
30
0
41
1
10
42.2885431714969
20
-1.82243858632867
30
0
41
1
10
42.2869632734356
20
-1.81977404820708
30
0
41
1
10
42.2828407766149
20
-1.81622276581132
30
0
41
1
10
42.2801531501684
20
-1.81579903545173
30
0
41
1
10
42.2754571598492
20
-1.818479652983
30
0
41
1
10
42.2734636569784
20
-1.82104485592905
30
0
41
1
10
42.2700739002268
20
-1.82643038646239
30
0
41
1
10
42.2686013610436
20
-1.82940234054803
30
0
41
1
10
42.2645355434312
20
-1.83857501600184
30
0
41
1
10
42.2622853935207
20
-1.84504506658303
30
0
41
1
10
42.2560686746894
20
-1.86469526426165
30
0
41
1
10
42.2526604819255
20
-1.87818615996437
30
0
41
1
10
42.2495000000001
20
-1.89174587477046
30
0
0
SPLINE
5
178
100
AcDbEntity
8
1
62
256
6
ByLayer
370
18
48
1
60
0
100
AcDbSpline
70
4
71
3
72
30
73
26
40
0
40
0
40
0
40
0
40
0.0625000000000552
40
0.0625000000000552
40
0.0937500000000766
40
0.0937500000000766
40
0.109375000000087
40
0.109375000000087
40
0.125000000000098
40
0.125000000000098
40
0.140625000000109
40
0.140625000000109
40
0.156250000000119
40
0.156250000000119
40
0.187500000000121
40
0.187500000000121
40
0.250000000000113
40
0.250000000000113
40
0.375000000000095
40
0.375000000000095
40
0.500000000000077
40
0.500000000000077
40
0.750000000000039
40
0.750000000000039
40
1
40
1
40
1
40
1
41
1
10
42.2495
20
1.89174587477345
30
0
41
1
10
42.2525852516023
20
1.87850892774435
30
0
41
1
10
42.2558995972791
20
1.86538177429693
30
0
41
1
10
42.2619053807286
20
1.84617869895385
30
0
41
1
10
42.2640836821846
20
1.83981910006807
30
0
41
1
10
42.2679839014834
20
1.83071597390014
30
0
41
1
10
42.2693797552487
20
1.82777617856613
30
0
41
1
10
42.2725811609239
20
1.82230024131349
30
0
41
1
10
42.2743975026897
20
1.81968296497971
30
0
41
1
10
42.27884813873
20
1.81619781034124
30
0
41
1
10
42.281541189178
20
1.81581171408763
30
0
41
1
10
42.2859464023777
20
1.81848595671292
30
0
41
1
10
42.2876661329155
20
1.8210000637138
30
0
41
1
10
42.2919637677122
20
1.82901268865541
30
0
41
1
10
42.293902185556
20
1.83529091828615
30
0
41
1
10
42.2989931063469
20
1.85431675174539
30
0
41
1
10
42.3012688288375
20
1.86761487411221
30
0
41
1
10
42.3072342190547
20
1.90773179577889
30
0
41
1
10
42.3098351252204
20
1.93495297752472
30
0
41
1
10
42.3142149381814
20
1.98944353727734
30
0
41
1
10
42.3159006901462
20
2.01678764403917
30
0
41
1
10
42.3201218686793
20
2.09897054954351
30
0
41
1
10
42.3218227272853
20
2.1539705993095
30
0
41
1
10
42.3240293491824
20
2.26409827845998
30
0
41
1
10
42.3245000000045
20
2.31921508841691
30
0
41
1
10
42.3245000000044
20
2.3743632971161
30
0
0
SPLINE
5
179
100
AcDbEntity
8
1
62
256
6
ByLayer
370
18
48
1
60
0
100
AcDbSpline
70
4
71
3
72
8
73
4
40
0
40
0
40
0
40
0
40
1
40
1
40
1
40
1
41
1
10
42.2495
20
17.0859271543189
30
0
41
1
10
42.0348686848346
20
17.2640359061465
30
0
41
1
10
41.8202009468254
20
17.4420861479081
30
0
41
1
10
41.6055
20
17.6200829661946
30
0
0
SPLINE
5
17A
100
AcDbEntity
8
1
62
256
6
ByLayer
370
18
48
1
60
0
100
AcDbSpline
70
4
71
3
72
8
73
4
40
0
40
0
40
0
40
0
40
1
40
1
40
1
40
1
41
1
10
41.6055
20
-19.5115512430934
30
0
41
1
10
41.8204626786589
20
-19.31244894935
30
0
41
1
10
42.0351378607354
20
-19.1129342405493
30
0
41
1
10
42.2495
20
-18.9129704705177
30
0
0
SPLINE
5
17B
100
AcDbEntity
8
1
62
256
6
ByLayer
370
18
48
1
60
0
100
AcDbSpline
70
4
71
3
72
8
73
4
40
0
40
0
40
0
40
0
40
1
40
1
40
1
40
1
41
1
10
42.2495
20
18.9129704705177
30
0
41
1
10
42.0351378607354
20
19.1129342405493
30
0
41
1
10
41.8204626786589
20
19.31244894935
30
0
41
1
10
41.6055
20
19.5115512430934
30
0
0
SPLINE
5
17C
100
AcDbEntity
8
1
62
256
6
ByLayer
370
18
48
1
60
0
100
AcDbSpline
70
4
71
3
72
22
73
18
40
0
40
0
40
0
40
0
40
0.250000000000006
40
0.250000000000006
40
0.375000000000008
40
0.375000000000008
40
0.50000000000001
40
0.50000000000001
40
0.625000000000012
40
0.625000000000012
40
0.750000000000014
40
0.750000000000014
40
0.812500000000012
40
0.812500000000012
40
0.87500000000001
40
0.87500000000001
40
1
40
1
40
1
40
1
41
1
10
8.10566243270262
20
23.6665017920809
30
0
41
1
10
8.12110769698504
20
23.6860254491252
30
0
41
1
10
8.13959628273545
20
23.7049589195931
30
0
41
1
10
8.17354242877875
20
23.7323123198157
30
0
41
1
10
8.1859037300309
20
23.7412544902042
30
0
41
1
10
8.21325377892239
20
23.7587312609862
30
0
41
1
10
8.22831574375684
20
23.7673055542944
30
0
41
1
10
8.26152302146917
20
23.7837256270429
30
0
41
1
10
8.27962274066837
20
23.7915679133937
30
0
41
1
10
8.31997574676953
20
23.8062861503817
30
0
41
1
10
8.34204823512977
20
23.8130866432223
30
0
41
1
10
8.37845386159617
20
23.8219342456096
30
0
41
1
10
8.39116971420626
20
23.8246655611125
30
0
41
1
10
8.41805465341358
20
23.8295906076135
30
0
41
1
10
8.43218550139824
20
23.8317679461286
30
0
41
1
10
8.47563983861085
20
23.8370993498304
30
0
41
1
10
8.50697323176121
20
23.8391299750505
30
0
41
1
10
8.53867513459477
20
23.8391299750505
30
0
0
SPLINE
5
17D
100
AcDbEntity
8
1
62
256
6
ByLayer
370
18
48
1
60
0
100
AcDbSpline
70
4
71
3
72
8
73
4
40
0
40
0
40
0
40
0
40
1
40
1
40
1
40
1
41
1
10
41.6055
20
19.6500792121576
30
0
41
1
10
41.8208603034311
20
19.4235405354009
30
0
41
1
10
42.0355472223686
20
19.1961543314658
30
0
41
1
10
42.2495
20
18.9678441313361
30
0
0
SPLINE
5
17E
100
AcDbEntity
8
1
62
256
6
ByLayer
370
18
48
1
60
0
100
AcDbSpline
70
4
71
3
72
22
73
18
40
0
40
0
40
0
40
0
40
0.250000000000006
40
0.250000000000006
40
0.375000000000009
40
0.375000000000009
40
0.500000000000012
40
0.500000000000012
40
0.625000000000015
40
0.625000000000015
40
0.750000000000018
40
0.750000000000018
40
0.812500000000022
40
0.812500000000022
40
0.875000000000026
40
0.875000000000026
40
1
40
1
40
1
40
1
41
1
10
41.6055
20
-18.1757784213043
30
0
41
1
10
41.5852735552583
20
-18.2026354601184
30
0
41
1
10
41.5669564518919
20
-18.2292229400243
30
0
41
1
10
41.5448335316356
20
-18.2660678844065
30
0
41
1
10
41.5382665741826
20
-18.2779981266209
30
0
41
1
10
41.5277428289439
20
-18.3000981082553
30
0
41
1
10
41.5238239716692
20
-18.3101313539303
30
0
41
1
10
41.5198638916737
20
-18.3272662268364
30
0
41
1
10
41.519984207007
20
-18.3340533284695
30
0
41
1
10
41.5257809812265
20
-18.3417522150087
30
0
41
1
10
41.5316010084182
20
-18.3425395578433
30
0
41
1
10
41.5437264553199
20
-18.3388915542783
30
0
41
1
10
41.548412658276
20
-18.3368666430987
30
0
41
1
10
41.5584723291246
20
-18.3315512620657
30
0
41
1
10
41.5638465541738
20
-18.3282779831857
30
0
41
1
10
41.5808532195466
20
-18.3168828358453
30
0
41
1
10
41.593068792019
20
-18.3073886497742
30
0
41
1
10
41.6055
20
-18.2968754376165
30
0
0
SPLINE
5
17F
100
AcDbEntity
8
1
62
256
6
ByLayer
370
18
48
1
60
0
100
AcDbSpline
70
4
71
3
72
8
73
4
40
0
40
0
40
0
40
0
40
1
40
1
40
1
40
1
41
1
10
41.6055
20
16.5974568928041
30
0
41
1
10
41.8234311235556
20
16.2578238253877
30
0
41
1
10
42.0382071317381
20
15.9155530145199
30
0
41
1
10
42.2495
20
15.5703702247132
30
0
0
SPLINE
5
180
100
AcDbEntity
8
1
62
256
6
ByLayer
370
18
48
1
60
0
100
AcDbSpline
70
4
71
3
72
12
73
8
40
0
40
0
40
0
40
0
40
0.25
40
0.25
40
0.500000000000001
40
0.500000000000001
40
1
40
1
40
1
40
1
41
1
10
42.3245
20
3.63551555823594
30
0
41
1
10
42.3245
20
3.71325324495891
30
0
41
1
10
42.322321213052
20
3.79113360413112
30
0
41
1
10
42.3151576284524
20
3.94702554953727
30
0
41
1
10
42.3101186540553
20
4.02504255539907
30
0
41
1
10
42.2911229373505
20
4.25925970937664
30
0
41
1
10
42.2734535414259
20
4.41578263980531
30
0
41
1
10
42.2495000000001
20
4.57174589786129
30
0
0
SPLINE
5
181
100
AcDbEntity
8
1
62
256
6
ByLayer
370
18
48
1
60
0
100
AcDbSpline
70
4
71
3
72
16
73
12
40
0
40
0
40
0
40
0
40
0.249999999999977
40
0.249999999999977
40
0.499999999999955
40
0.499999999999955
40
0.624999999999943
40
0.624999999999943
40
0.749999999999932
40
0.749999999999932
40
1
40
1
40
1
40
1
41
1
10
42.3245000000002
20
-13.9946525728947
30
0
41
1
10
42.3245000000002
20
-13.984793931125
30
0
41
1
10
42.3233647003519
20
-13.9757224015114
30
0
41
1
10
42.3176184398475
20
-13.9610733983107
30
0
41
1
10
42.3128322576153
20
-13.9554349467432
30
0
41
1
10
42.3023862346089
20
-13.9521189582845
30
0
41
1
10
42.2984597623733
20
-13.9518627336725
30
0
41
1
10
42.2897035298767
20
-13.9530805456519
30
0
41
1
10
42.2849092874381
20
-13.9545789497624
30
0
41
1
10
42.2702584567929
20
-13.961106001764
30
0
41
1
10
42.2597292289701
20
-13.968299885058
30
0
41
1
10
42.2495
20
-13.9767752987124
30
0
0
SPLINE
5
182
100
AcDbEntity
8
1
62
256
6
ByLayer
370
18
48
1
60
0
100
AcDbSpline
70
4
71
3
72
14
73
10
40
0
40
0
40
0
40
0
40
0.25
40
0.25
40
0.5
40
0.5
40
0.75
40
0.75
40
1
40
1
40
1
40
1
41
1
10
42.2495
20
18.654960886978
30
0
41
1
10
42.2592159985016
20
18.646223193626
30
0
41
1
10
42.2687261650705
20
18.6379823211317
30
0
41
1
10
42.2863466387967
20
18.6235082432094
30
0
41
1
10
42.2946257999411
20
18.6171378972796
30
0
41
1
10
42.3087737819881
20
18.6074583306913
30
0
41
1
10
42.3146448825017
20
18.6041706494088
30
0
41
1
10
42.3224850003474
20
18.6018182843393
30
0
41
1
10
42.3245
20
18.6027592296193
30
0
41
1
10
42.3245
20
18.6056268367875
30
0
0
SPLINE
5
183
100
AcDbEntity
8
1
62
256
6
ByLayer
370
18
48
1
60
0
100
AcDbSpline
70
4
71
3
72
14
73
10
40
0
40
0
40
0
40
0
40
0.25
40
0.25
40
0.5
40
0.5
40
0.75
40
0.75
40
1
40
1
40
1
40
1
41
1
10
42.3245
20
-17.7218227111435
30
0
41
1
10
42.3245
20
-17.7167636827918
30
0
41
1
10
42.3227493810509
20
-17.7133264469951
30
0
41
1
10
42.3152458304778
20
-17.7108983856196
30
0
41
1
10
42.3096041240067
20
-17.7119307814348
30
0
41
1
10
42.2953158700719
20
-17.7181361744954
30
0
41
1
10
42.2869391226995
20
-17.7231633913709
30
0
41
1
10
42.2687589075683
20
-17.7359097762675
30
0
41
1
10
42.2592455734683
20
-17.7434107750191
30
0
41
1
10
42.2495
20
-17.7516701480928
30
0
0
SPLINE
5
184
100
AcDbEntity
8
1
62
256
6
ByLayer
370
18
48
1
60
0
100
AcDbSpline
70
4
71
3
72
8
73
4
40
0
40
0
40
0
40
0
40
1
40
1
40
1
40
1
41
1
10
42.2495
20
-18.4028498781752
30
0
41
1
10
42.0360116289069
20
-18.6577519784764
30
0
41
1
10
41.8213104962892
20
-18.9112851613349
30
0
41
1
10
41.6055
20
-19.1635661381751
30
0
0
SPLINE
5
185
100
AcDbEntity
8
1
62
256
6
ByLayer
370
18
48
1
60
0
100
AcDbSpline
70
4
71
3
72
12
73
8
40
0
40
0
40
0
40
0
40
0.500000000000007
40
0.500000000000007
40
0.750000000000004
40
0.750000000000004
40
1
40
1
40
1
40
1
41
1
10
42.2495
20
-17.3075317791603
30
0
41
1
10
42.269569104578
20
-17.2800446718393
30
0
41
1
10
42.2870379816785
20
-17.253389227797
30
0
41
1
10
42.3077415968534
20
-17.2153783121061
30
0
41
1
10
42.3134913399265
20
-17.2034216639815
30
0
41
1
10
42.321898093649
20
-17.1814239866425
30
0
41
1
10
42.3245000000031
20
-17.1714323312695
30
0
41
1
10
42.3245000000032
20
-17.1637626739603
30
0
0
SPLINE
5
186
100
AcDbEntity
8
1
62
256
6
ByLayer
370
18
48
1
60
0
100
AcDbSpline
70
4
71
3
72
8
73
4
40
0
40
0
40
0
40
0
40
1
40
1
40
1
40
1
41
1
10
41.6055
20
-14.5100772776498
30
0
41
1
10
41.8202039791954
20
-14.3323700434185
30
0
41
1
10
42.0348720691877
20
-14.1546049768551
30
0
41
1
10
42.2495
20
-13.9767752987127
30
0
0
SPLINE
5
187
100
AcDbEntity
8
1
62
256
6
ByLayer
370
18
48
1
60
0
100
AcDbSpline
70
4
71
3
72
24
73
20
40
0
40
0
40
0
40
0
40
0.250000000000031
40
0.250000000000031
40
0.375000000000034
40
0.375000000000034
40
0.500000000000037
40
0.500000000000037
40
0.62500000000004
40
0.62500000000004
40
0.687500000000037
40
0.687500000000037
40
0.750000000000033
40
0.750000000000033
40
0.81250000000003
40
0.81250000000003
40
0.875000000000026
40
0.875000000000026
40
1
40
1
40
1
40
1
41
1
10
41.6055
20
-18.7363442052146
30
0
41
1
10
41.5849336598929
20
-18.7618849236291
30
0
41
1
10
41.5662642298245
20
-18.7868862910127
30
0
41
1
10
41.5437667697861
20
-18.8209469214415
30
0
41
1
10
41.5370921639868
20
-18.8318990550104
30
0
41
1
10
41.5267461011529
20
-18.8513838063828
30
0
41
1
10
41.5229510871462
20
-18.8601468439844
30
0
41
1
10
41.5197443444473
20
-18.8737149412441
30
0
41
1
10
41.5203964193228
20
-18.8785001258787
30
0
41
1
10
41.5254777593788
20
-18.8812221123845
30
0
41
1
10
41.5278883759314
20
-18.8813989058138
30
0
41
1
10
41.5338383866355
20
-18.8802752371659
30
0
41
1
10
41.5373848683436
20
-18.8789999511004
30
0
41
1
10
41.545559270928
20
-18.8751024509132
30
0
41
1
10
41.5501882859262
20
-18.8724678743436
30
0
41
1
10
41.559992242756
20
-18.866232942027
30
0
41
1
10
41.5652186566671
20
-18.8626093330226
30
0
41
1
10
41.5817540202294
20
-18.8504066896326
30
0
41
1
10
41.5934479686377
20
-18.8408583968401
30
0
41
1
10
41.6055
20
-18.8304003628102
30
0
0
SPLINE
5
188
100
AcDbEntity
8
1
62
256
6
ByLayer
370
18
48
1
60
0
100
AcDbSpline
70
4
71
3
72
14
73
10
40
0
40
0
40
0
40
0
40
0.25
40
0.25
40
0.5
40
0.5
40
0.75
40
0.75
40
1
40
1
40
1
40
1
41
1
10
42.2495
20
18.9129704705177
30
0
41
1
10
42.2592181581407
20
18.903905065842
30
0
41
1
10
42.2686645692863
20
18.8952835726591
30
0
41
1
10
42.2861495352743
20
18.8797984618444
30
0
41
1
10
42.2943752214035
20
18.8727705037188
30
0
41
1
10
42.3084746373257
20
18.8614390573629
30
0
41
1
10
42.3143816471265
20
18.8571198467058
30
0
41
1
10
42.3223777513261
20
18.8525031712641
30
0
41
1
10
42.3245
20
18.8522049260041
30
0
41
1
10
42.3245
20
18.8539790198802
30
0
0
SPLINE
5
189
100
AcDbEntity
8
1
62
256
6
ByLayer
370
18
48
1
60
0
100
AcDbSpline
70
4
71
3
72
22
73
18
40
0
40
0
40
0
40
0
40
0.249999999999961
40
0.249999999999961
40
0.374999999999954
40
0.374999999999954
40
0.499999999999948
40
0.499999999999948
40
0.624999999999942
40
0.624999999999942
40
0.687499999999942
40
0.687499999999942
40
0.749999999999942
40
0.749999999999942
40
0.874999999999971
40
0.874999999999971
40
1
40
1
40
1
40
1
41
1
10
41.6055
20
-19.1635661381751
30
0
41
1
10
41.5846180024195
20
-19.1879770488517
30
0
41
1
10
41.5655071796185
20
-19.2117045234637
30
0
41
1
10
41.5426899901217
20
-19.2431162129388
30
0
41
1
10
41.5359677807996
20
-19.2530413976178
30
0
41
1
10
41.5257886985559
20
-19.2700761212655
30
0
41
1
10
41.5222094422121
20
-19.2774045374631
30
0
41
1
10
41.5197505065652
20
-19.2875719003495
30
0
41
1
10
41.5209171874909
20
-19.290403795087
30
0
41
1
10
41.5266132401732
20
-19.2903641595357
30
0
41
1
10
41.5291885835889
20
-19.2896418406777
30
0
41
1
10
41.5353678257385
20
-19.2869190401382
30
0
41
1
10
41.5389962843699
20
-19.2849212703509
30
0
41
1
10
41.5513547524627
20
-19.2771657902722
30
0
41
1
10
41.561088840106
20
-19.2699596696235
30
0
41
1
10
41.5824853917302
20
-19.2527621693601
30
0
41
1
10
41.593773139625
20
-19.243075582227
30
0
41
1
10
41.6055
20
-19.232584456276
30
0
0
SPLINE
5
18A
100
AcDbEntity
8
1
62
256
6
ByLayer
370
18
48
1
60
0
100
AcDbSpline
70
4
71
3
72
8
73
4
40
0
40
0
40
0
40
0
40
1
40
1
40
1
40
1
41
1
10
42.2495
20
-18.7475864397169
30
0
41
1
10
42.0357525342202
20
-18.9882311427327
30
0
41
1
10
41.8210594377484
20
-19.2277459581948
30
0
41
1
10
41.6055
20
-19.4662256251216
30
0
0
SPLINE
5
18B
100
AcDbEntity
8
1
62
256
6
ByLayer
370
18
48
1
60
0
100
AcDbSpline
70
4
71
3
72
8
73
4
40
0
40
0
40
0
40
0
40
1
40
1
40
1
40
1
41
1
10
42.2495
20
7.6335829581343
30
0
41
1
10
42.0373665452931
20
7.88319830325074
30
0
41
1
10
41.8225293003014
20
8.12967639832331
30
0
41
1
10
41.6055
20
8.37361101742607
30
0
0
SPLINE
5
18C
100
AcDbEntity
8
1
62
256
6
ByLayer
370
18
48
1
60
0
100
AcDbSpline
70
4
71
3
72
8
73
4
40
0
40
0
40
0
40
0
40
1
40
1
40
1
40
1
41
1
10
42.2495
20
-18.9678441313361
30
0
41
1
10
42.0355472223686
20
-19.1961543314658
30
0
41
1
10
41.8208603034311
20
-19.4235405354009
30
0
41
1
10
41.6055
20
-19.6500792121577
30
0
0
SPLINE
5
18D
100
AcDbEntity
8
1
62
256
6
ByLayer
370
18
48
1
60
0
100
AcDbSpline
70
4
71
3
72
18
73
14
40
0
40
0
40
0
40
0
40
0.249999999999989
40
0.249999999999989
40
0.499999999999978
40
0.499999999999978
40
0.624999999999984
40
0.624999999999984
40
0.749999999999989
40
0.749999999999989
40
0.874999999999995
40
0.874999999999995
40
1
40
1
40
1
40
1
41
1
10
42.3245
20
-7.74214285318698
30
0
41
1
10
42.3245
20
-7.72451769938351
30
0
41
1
10
42.3239122919799
20
-7.70717174850191
30
0
41
1
10
42.3207529083203
20
-7.67344138464125
30
0
41
1
10
42.3182332122497
20
-7.65674285088002
30
0
41
1
10
42.3111398930036
20
-7.63454660946678
30
0
41
1
10
42.3081771461697
20
-7.62754219862657
30
0
41
1
10
42.3002308808571
20
-7.61609615481942
30
0
41
1
10
42.2951355455777
20
-7.61165458521381
30
0
41
1
10
42.2824510330991
20
-7.60916679688762
30
0
41
1
10
42.2752644858578
20
-7.61143589895383
30
0
41
1
10
42.2616724654686
20
-7.62038941044801
30
0
41
1
10
42.2553626711961
20
-7.62668441072731
30
0
41
1
10
42.2495
20
-7.6335829581343
30
0
0
SPLINE
5
18E
100
AcDbEntity
8
1
62
256
6
ByLayer
370
18
48
1
60
0
100
AcDbSpline
70
4
71
3
72
8
73
4
40
0
40
0
40
0
40
0
40
1
40
1
40
1
40
1
41
1
10
41.6055
20
12.6253933182574
30
0
41
1
10
41.829910422179
20
12.1194546037457
30
0
41
1
10
42.0449435898546
20
11.6082675252431
30
0
41
1
10
42.2495
20
11.0912167009134
30
0
0
SPLINE
5
18F
100
AcDbEntity
8
1
62
256
6
ByLayer
370
18
48
1
60
0
100
AcDbSpline
70
4
71
3
72
8
73
4
40
0
40
0
40
0
40
0
40
1
40
1
40
1
40
1
41
1
10
41.6055
20
-18.2968754376164
30
0
41
1
10
41.8202447540081
20
-18.11526338816
30
0
41
1
10
42.0349138148107
20
-17.9335319303367
30
0
41
1
10
42.2495
20
-17.7516701480928
30
0
0
SPLINE
5
190
100
AcDbEntity
8
1
62
256
6
ByLayer
370
18
48
1
60
0
100
AcDbSpline
70
4
71
3
72
8
73
4
40
0
40
0
40
0
40
0
40
1
40
1
40
1
40
1
41
1
10
41.6055
20
19.1635661381751
30
0
41
1
10
41.8213104962892
20
18.9112851613349
30
0
41
1
10
42.0360116289069
20
18.6577519784764
30
0
41
1
10
42.2495
20
18.4028498781752
30
0
0
SPLINE
5
191
100
AcDbEntity
8
1
62
256
6
ByLayer
370
18
48
1
60
0
100
AcDbSpline
70
4
71
3
72
14
73
10
40
0
40
0
40
0
40
0
40
0.25
40
0.25
40
0.5
40
0.5
40
0.75
40
0.75
40
1
40
1
40
1
40
1
41
1
10
42.2495
20
18.2705960321683
30
0
41
1
10
42.2592295119835
20
18.2621232908817
30
0
41
1
10
42.2688025775435
20
18.2542265447333
30
0
41
1
10
42.2866018633678
20
18.2406968240446
30
0
41
1
10
42.2949542474703
20
18.2349725137476
30
0
41
1
10
42.309141149508
20
18.2269970357157
30
0
41
1
10
42.3149572318672
20
18.2247944411961
30
0
41
1
10
42.3226030338568
20
18.2247762044744
30
0
41
1
10
42.3245
20
18.2269651603499
30
0
41
1
10
42.3245
20
18.2309126238237
30
0
0
SPLINE
5
192
100
AcDbEntity
8
1
62
256
6
ByLayer
370
18
48
1
60
0
100
AcDbSpline
70
4
71
3
72
22
73
18
40
0
40
0
40
0
40
0
40
0.249999999999997
40
0.249999999999997
40
0.374999999999996
40
0.374999999999996
40
0.499999999999996
40
0.499999999999996
40
0.624999999999995
40
0.624999999999995
40
0.749999999999994
40
0.749999999999994
40
0.812499999999996
40
0.812499999999996
40
0.874999999999997
40
0.874999999999997
40
1
40
1
40
1
40
1
41
1
10
11.8943375672973
20
8.05584836782776
30
0
41
1
10
11.8788923030149
20
7.99849169434916
30
0
41
1
10
11.8604037172645
20
7.9421825395126
30
0
41
1
10
11.8264575712212
20
7.85991012495421
30
0
41
1
10
11.814096269969
20
7.83285506058496
30
0
41
1
10
11.7867462210776
20
7.77968328642046
30
0
41
1
10
11.7716842562431
20
7.75344388356999
30
0
41
1
10
11.7384769785308
20
7.70292805784931
30
0
41
1
10
11.7203772593316
20
7.67866353751185
30
0
41
1
10
11.6800242532304
20
7.63291014136064
30
0
41
1
10
11.6579517648702
20
7.611654331621
30
0
41
1
10
11.6215461384038
20
7.58390025536198
30
0
41
1
10
11.6088302857937
20
7.57531366225021
30
0
41
1
10
11.5819453465864
20
7.55980672066914
30
0
41
1
10
11.5678144986017
20
7.55293791940406
30
0
41
1
10
11.5243601613891
20
7.53610198950847
30
0
41
1
10
11.4930267682388
20
7.52966679426481
30
0
41
1
10
11.4613248654052
20
7.52966679426481
30
0
0
SPLINE
5
193
100
AcDbEntity
8
1
62
256
6
ByLayer
370
18
48
1
60
0
100
AcDbSpline
70
4
71
3
72
8
73
4
40
0
40
0
40
0
40
0
40
1
40
1
40
1
40
1
41
1
10
41.6055
20
19.4662256251216
30
0
41
1
10
41.8210594377484
20
19.2277459581948
30
0
41
1
10
42.0357525342202
20
18.9882311427327
30
0
41
1
10
42.2495
20
18.7475864397169
30
0
0
SPLINE
5
194
100
AcDbEntity
8
1
62
256
6
ByLayer
370
18
48
1
60
0
100
AcDbSpline
70
4
71
3
72
8
73
4
40
0
40
0
40
0
40
0
40
1
40
1
40
1
40
1
41
1
10
42.2495
20
17.7516701480928
30
0
41
1
10
42.0349138148107
20
17.9335319303368
30
0
41
1
10
41.8202447540081
20
18.11526338816
30
0
41
1
10
41.6055
20
18.2968754376164
30
0
0
SPLINE
5
195
100
AcDbEntity
8
1
62
256
6
ByLayer
370
18
48
1
60
0
100
AcDbSpline
70
4
71
3
72
22
73
18
40
0
40
0
40
0
40
0
40
0.125000000000009
40
0.125000000000009
40
0.250000000000019
40
0.250000000000019
40
0.312500000000013
40
0.312500000000013
40
0.375000000000007
40
0.375000000000007
40
0.500000000000002
40
0.500000000000002
40
0.624999999999997
40
0.624999999999997
40
0.749999999999992
40
0.749999999999992
40
1
40
1
40
1
40
1
41
1
10
41.6055
20
18.2968754376164
30
0
41
1
10
41.592993500049
20
18.3074523250384
30
0
41
1
10
41.5807062764317
20
18.3169884662057
30
0
41
1
10
41.558138730979
20
18.3320952215856
30
0
41
1
10
41.5477275950539
20
18.3377169168032
30
0
41
1
10
41.5354434931644
20
18.3413685698684
30
0
41
1
10
41.5319682827651
20
18.3417770780818
30
0
41
1
10
41.5263821989246
20
18.3409817366965
30
0
41
1
10
41.5242299754903
20
18.3397516724482
30
0
41
1
10
41.5199462725363
20
18.3338790234322
30
0
41
1
10
41.5198997335546
20
18.3270135233085
30
0
41
1
10
41.5238716179545
20
18.3100249021396
30
0
41
1
10
41.5278862228095
20
18.299761289305
30
0
41
1
10
41.5384305992329
20
18.2776904215159
30
0
41
1
10
41.5449915632616
20
18.2657814976337
30
0
41
1
10
41.5674181822309
20
18.228501555755
30
0
41
1
10
41.5853406471265
20
18.2025463743235
30
0
41
1
10
41.6055
20
18.1757784213043
30
0
0
SPLINE
5
196
100
AcDbEntity
8
1
62
256
6
ByLayer
370
18
48
1
60
0
100
AcDbSpline
70
4
71
3
72
8
73
4
40
0
40
0
40
0
40
0
40
1
40
1
40
1
40
1
41
1
10
41.6055
20
1.68093354208526
30
0
41
1
10
41.6661423182086
20
0.560311180695095
30
0
41
1
10
41.6661423182086
20
-0.560311180695095
30
0
41
1
10
41.6055
20
-1.68093354208526
30
0
0
SPLINE
5
197
100
AcDbEntity
8
1
62
256
6
ByLayer
370
18
48
1
60
0
100
AcDbSpline
70
4
71
3
72
10
73
6
40
0
40
0
40
0
40
0
40
0.5
40
0.5
40
1
40
1
40
1
40
1
41
1
10
41.6055000000008
20
-3.78272843686824
30
0
41
1
10
41.739622539874
20
-3.47972837989249
30
0
41
1
10
41.8621250055221
20
-3.17145220039163
30
0
41
1
10
42.0787110718596
20
-2.54199618770883
30
0
41
1
10
42.172800078506
20
-2.22081880911469
30
0
41
1
10
42.2495000000006
20
-1.89174587477075
30
0
0
SPLINE
5
198
100
AcDbEntity
8
1
62
256
6
ByLayer
370
18
48
1
60
0
100
AcDbSpline
70
4
71
3
72
10
73
6
40
0
40
0
40
0
40
0
40
0.5
40
0.5
40
1
40
1
40
1
40
1
41
1
10
42.2495
20
1.89174587477345
30
0
41
1
10
42.1728000785054
20
2.22081880911691
30
0
41
1
10
42.078711071859
20
2.5419961877106
30
0
41
1
10
41.8621250055218
20
3.17145220039248
30
0
41
1
10
41.7396225398738
20
3.47972837989292
30
0
41
1
10
41.6055000000008
20
3.78272843686824
30
0
0
SPLINE
5
199
100
AcDbEntity
8
1
62
256
6
ByLayer
370
18
48
1
60
0
100
AcDbSpline
70
4
71
3
72
14
73
10
40
0
40
0
40
0
40
0
40
0.25
40
0.25
40
0.5
40
0.5
40
0.75
40
0.75
40
1
40
1
40
1
40
1
41
1
10
42.3245
20
18.2890240128757
30
0
41
1
10
42.3245
20
18.2934918735213
30
0
41
1
10
42.3219923463417
20
18.3002811047651
30
0
41
1
10
42.313542185526
20
18.3166495690633
30
0
41
1
10
42.3076717384724
20
18.326113517657
30
0
41
1
10
42.2938197835889
20
18.3464514484414
30
0
41
1
10
42.2857841576449
20
18.3573907805796
30
0
41
1
10
42.2685852242044
20
18.3796566607554
30
0
41
1
10
42.2593328298394
20
18.3911096182016
30
0
41
1
10
42.2495
20
18.4028498781752
30
0
0
SPLINE
5
19A
100
AcDbEntity
8
1
62
256
6
ByLayer
370
18
48
1
60
0
100
AcDbSpline
70
4
71
3
72
8
73
4
40
0
40
0
40
0
40
0
40
1
40
1
40
1
40
1
41
1
10
42.2495000000003
20
-4.57174589786138
30
0
41
1
10
42.0864300612877
20
-5.63350618125855
30
0
41
1
10
41.8697062205963
20
-6.68060882615379
30
0
41
1
10
41.6055000000001
20
-7.7147398224981
30
0
0
SPLINE
5
19B
100
AcDbEntity
8
1
62
256
6
ByLayer
370
18
48
1
60
0
100
AcDbSpline
70
4
71
3
72
12
73
8
40
0
40
0
40
0
40
0
40
0.249999999999997
40
0.249999999999997
40
0.499999999999994
40
0.499999999999994
40
1
40
1
40
1
40
1
41
1
10
42.3245000000034
20
15.3850933995421
30
0
41
1
10
42.3245000000032
20
15.3970787264872
30
0
41
1
10
42.3218148236824
20
15.4112191757295
30
0
41
1
10
42.3134329178871
20
15.440781483875
30
0
41
1
10
42.307644159211
20
15.4564966194783
30
0
41
1
10
42.2872039700729
20
15.5044683083614
30
0
41
1
10
42.2698428653544
20
15.5371366987856
30
0
41
1
10
42.2495
20
15.5703702247132
30
0
0
SPLINE
5
19C
100
AcDbEntity
8
1
62
256
6
ByLayer
370
18
48
1
60
0
100
AcDbSpline
70
4
71
3
72
26
73
22
40
0
40
0
40
0
40
0
40
0.249999999999991
40
0.249999999999991
40
0.499999999999982
40
0.499999999999982
40
0.624999999999976
40
0.624999999999976
40
0.68749999999998
40
0.68749999999998
40
0.749999999999985
40
0.749999999999985
40
0.812499999999989
40
0.812499999999989
40
0.843749999999992
40
0.843749999999992
40
0.874999999999994
40
0.874999999999994
40
0.937499999999997
40
0.937499999999997
40
1
40
1
40
1
40
1
41
1
10
41.6055
20
-10.5692423325784
30
0
41
1
10
41.5876431568551
20
-10.6187961400232
30
0
41
1
10
41.5720151535183
20
-10.6685126312753
30
0
41
1
10
41.5457683658979
20
-10.766660157988
30
0
41
1
10
41.5349848127961
20
-10.8153022796541
30
0
41
1
10
41.5244066800093
20
-10.8872728105716
30
0
41
1
10
41.5218528593706
20
-10.911043650543
30
0
41
1
10
41.5204188041757
20
-10.9452806611476
30
0
41
1
10
41.5203401032587
20
-10.956485071097
30
0
41
1
10
41.521316572032
20
-10.9783092712762
30
0
41
1
10
41.5223791449289
20
-10.9889959860531
30
0
41
1
10
41.5262116700882
20
-11.00878926678
30
0
41
1
10
41.5289871161339
20
-11.0180751916216
30
0
41
1
10
41.5353102988491
20
-11.0297189979099
30
0
41
1
10
41.5377554775792
20
-11.0331628737239
30
0
41
1
10
41.5435578935232
20
-11.0388720525554
30
0
41
1
10
41.5469352756757
20
-11.0411137199878
30
0
41
1
10
41.5582572753071
20
-11.045142446326
30
0
41
1
10
41.567713171199
20
-11.0439723663317
30
0
41
1
10
41.5867407936386
20
-11.0351534278306
30
0
41
1
10
41.5963755984043
20
-11.0278428099313
30
0
41
1
10
41.6055000000004
20
-11.0193324895505
30
0
0
SPLINE
5
19D
100
AcDbEntity
8
1
62
256
6
ByLayer
370
18
48
1
60
0
100
AcDbSpline
70
4
71
3
72
8
73
4
40
0
40
0
40
0
40
0
40
1
40
1
40
1
40
1
41
1
10
41.6055
20
14.2334897125276
30
0
41
1
10
41.8265103487022
20
13.8049585330932
30
0
41
1
10
42.0414057264598
20
13.3723826835176
30
0
41
1
10
42.2495
20
12.9353083296312
30
0
0
SPLINE
5
19E
100
AcDbEntity
8
1
62
256
6
ByLayer
370
18
48
1
60
0
100
AcDbSpline
70
4
71
3
72
8
73
4
40
0
40
0
40
0
40
0
40
1
40
1
40
1
40
1
41
1
10
42.2495
20
-19.0679370847154
30
0
41
1
10
42.0353821421022
20
-19.2854992733109
30
0
41
1
10
41.8207000524708
20
-19.5023166855204
30
0
41
1
10
41.6055
20
-19.7184503955052
30
0
0
SPLINE
5
19F
100
AcDbEntity
8
1
62
256
6
ByLayer
370
18
48
1
60
0
100
AcDbSpline
70
4
71
3
72
26
73
22
40
0
40
0
40
0
40
0
40
0.125000000000002
40
0.125000000000002
40
0.250000000000003
40
0.250000000000003
40
0.375000000000005
40
0.375000000000005
40
0.500000000000007
40
0.500000000000007
40
0.625000000000008
40
0.625000000000008
40
0.687500000000009
40
0.687500000000009
40
0.75000000000001
40
0.75000000000001
40
0.812500000000011
40
0.812500000000011
40
0.875000000000012
40
0.875000000000012
40
1
40
1
40
1
40
1
41
1
10
41.6055
20
-15.5333158840139
30
0
41
1
10
41.5958918484872
20
-15.5498511209733
30
0
41
1
10
41.5868679239032
20
-15.5663315893323
30
0
41
1
10
41.5700189601487
20
-15.5991763737715
30
0
41
1
10
41.5621623485242
20
-15.615616498999
30
0
41
1
10
41.5480821720497
20
-15.6477765695351
30
0
41
1
10
41.5418265485991
20
-15.663540203776
30
0
41
1
10
41.531248218515
20
-15.694288246005
30
0
41
1
10
41.5268805409469
20
-15.7094347697568
30
0
41
1
10
41.5211849625344
20
-15.7376553641793
30
0
41
1
10
41.5197883614775
20
-15.7508866646789
30
0
41
1
10
41.5213761954244
20
-15.7677676580936
30
0
41
1
10
41.5225190456038
20
-15.7728014149721
30
0
41
1
10
41.5264023723426
20
-15.7813297714473
30
0
41
1
10
41.5291736513423
20
-15.7847936570811
30
0
41
1
10
41.5364537580244
20
-15.789331006793
30
0
41
1
10
41.541055609124
20
-15.7904205302319
30
0
41
1
10
41.5515714596233
20
-15.7899479027122
30
0
41
1
10
41.557659690864
20
-15.7883850305745
30
0
41
1
10
41.5769898352368
20
-15.7803707613262
30
0
41
1
10
41.5913559887425
20
-15.7707017605909
30
0
41
1
10
41.6055
20
-15.7591455874819
30
0
0
SPLINE
5
1A0
100
AcDbEntity
8
1
62
256
6
ByLayer
370
18
48
1
60
0
100
AcDbSpline
70
4
71
3
72
8
73
4
40
0
40
0
40
0
40
0
40
1
40
1
40
1
40
1
41
1
10
42.2495
20
-12.9353083296312
30
0
41
1
10
42.0414057264598
20
-13.3723826835176
30
0
41
1
10
41.8265103487022
20
-13.8049585330932
30
0
41
1
10
41.6055
20
-14.2334897125276
30
0
0
SPLINE
5
1A1
100
AcDbEntity
8
1
62
256
6
ByLayer
370
18
48
1
60
0
100
AcDbSpline
70
4
71
3
72
14
73
10
40
0
40
0
40
0
40
0
40
0.25
40
0.25
40
0.5
40
0.5
40
0.75
40
0.75
40
1
40
1
40
1
40
1
41
1
10
42.2495
20
-18.9678441313361
30
0
41
1
10
42.2592496041162
20
-18.9574402745057
30
0
41
1
10
42.2685192515779
20
-18.9473921852377
30
0
41
1
10
42.2859116916071
20
-18.9281390396628
30
0
41
1
10
42.2939838635032
20
-18.918985371031
30
0
41
1
10
42.3078579262551
20
-18.9026525202924
30
0
41
1
10
42.3138122574569
20
-18.8952874257051
30
0
41
1
10
42.3221165962266
20
-18.883899953024
30
0
41
1
10
42.3245
20
-18.8798131548509
30
0
41
1
10
42.3245
20
-18.8780838423543
30
0
0
SPLINE
5
1A2
100
AcDbEntity
8
1
62
256
6
ByLayer
370
18
48
1
60
0
100
AcDbSpline
70
4
71
3
72
22
73
18
40
0
40
0
40
0
40
0
40
0.125
40
0.125
40
0.25
40
0.25
40
0.375
40
0.375
40
0.5
40
0.5
40
0.625
40
0.625
40
0.75
40
0.75
40
0.875
40
0.875
40
1
40
1
40
1
40
1
41
1
10
41.6055
20
19.232584456276
30
0
41
1
10
41.5937391002438
20
19.2431060346604
30
0
41
1
10
41.5822425516907
20
19.2529637034774
30
0
41
1
10
41.5610044894119
20
19.2700210168543
30
0
41
1
10
41.551171313917
20
19.2772898909988
30
0
41
1
10
41.5348594546792
20
19.287508216025
30
0
41
1
10
41.5284482392082
20
19.2903652507063
30
0
41
1
10
41.5209227239676
20
19.2903897893652
30
0
41
1
10
41.5197485987882
20
19.2875543836234
30
0
41
1
10
41.5222241743893
20
19.277369159435
30
0
41
1
10
41.5257825078704
20
19.2700835318898
30
0
41
1
10
41.5360083026821
20
19.2529765435597
30
0
41
1
10
41.542700715944
20
19.2431003754386
30
0
41
1
10
41.5579277503396
20
19.2221399537162
30
0
41
1
10
41.566628668
20
19.2108285302577
30
0
41
1
10
41.5851924552514
20
19.1876523821414
30
0
41
1
10
41.595079721552
20
19.1757473715766
30
0
41
1
10
41.6055
20
19.1635661381751
30
0
0
SPLINE
5
1A3
100
AcDbEntity
8
1
62
256
6
ByLayer
370
18
48
1
60
0
100
AcDbSpline
70
4
71
3
72
24
73
20
40
0
40
0
40
0
40
0
40
0.250000000000006
40
0.250000000000006
40
0.500000000000012
40
0.500000000000012
40
0.625000000000009
40
0.625000000000009
40
0.687500000000007
40
0.687500000000007
40
0.750000000000006
40
0.750000000000006
40
0.812500000000004
40
0.812500000000004
40
0.875000000000003
40
0.875000000000003
40
0.937500000000001
40
0.937500000000001
40
1
40
1
40
1
40
1
41
1
10
41.6055
20
-12.6253933182574
30
0
41
1
10
41.5871052913815
20
-12.6668646329223
30
0
41
1
10
41.5710912961356
20
-12.7081105915473
30
0
41
1
10
41.5440852439905
20
-12.7901074712467
30
0
41
1
10
41.5329517483909
20
-12.831233525782
30
0
41
1
10
41.5230384094655
20
-12.8895338130816
30
0
41
1
10
41.5208319714489
20
-12.9086042462075
30
0
41
1
10
41.5203839976251
20
-12.935547051479
30
0
41
1
10
41.5207198225128
20
-12.9441587757889
30
0
41
1
10
41.5227347251933
20
-12.9603661394202
30
0
41
1
10
41.5244381152916
20
-12.9680544303652
30
0
41
1
10
41.529778126137
20
-12.9813298323849
30
0
41
1
10
41.5334545596744
20
-12.987003316287
30
0
41
1
10
41.5434049494314
20
-12.9947235523583
30
0
41
1
10
41.5497502602555
20
-12.9966617979703
30
0
41
1
10
41.5642590289375
20
-12.9956830047328
30
0
41
1
10
41.5724545920519
20
-12.9927821279149
30
0
41
1
10
41.588892883095
20
-12.9837225694705
30
0
41
1
10
41.59733722664
20
-12.9775187338987
30
0
41
1
10
41.6055000000001
20
-12.97050560153
30
0
0
SPLINE
5
1A4
100
AcDbEntity
8
1
62
256
6
ByLayer
370
18
48
1
60
0
100
AcDbSpline
70
4
71
3
72
8
73
4
40
0
40
0
40
0
40
0
40
1
40
1
40
1
40
1
41
1
10
41.6055
20
18.1757784213043
30
0
41
1
10
41.8220560392467
20
17.8882313992869
30
0
41
1
10
42.0367823196005
20
17.598874807819
30
0
41
1
10
42.2495
20
17.3075317791603
30
0
0
SPLINE
5
1A5
100
AcDbEntity
8
1
62
256
6
ByLayer
370
18
48
1
60
0
100
AcDbSpline
70
4
71
3
72
14
73
10
40
0
40
0
40
0
40
0
40
0.25
40
0.25
40
0.5
40
0.5
40
0.75
40
0.75
40
1
40
1
40
1
40
1
41
1
10
42.3245
20
-18.8539790198802
30
0
41
1
10
42.3245
20
-18.852185749926
30
0
41
1
10
42.3223878094292
20
-18.8524939229067
30
0
41
1
10
42.3143250205302
20
-18.8571560020603
30
0
41
1
10
42.3084139015723
20
-18.8614855289318
30
0
41
1
10
42.2943158035337
20
-18.8728206174963
30
0
41
1
10
42.2860834716846
20
-18.879854510313
30
0
41
1
10
42.2684766460953
20
-18.8954524968059
30
0
41
1
10
42.2591819648805
20
-18.9039388280576
30
0
41
1
10
42.2495
20
-18.9129704705177
30
0
0
SPLINE
5
1A6
100
AcDbEntity
8
1
62
256
6
ByLayer
370
18
48
1
60
0
100
AcDbSpline
70
4
71
3
72
8
73
4
40
0
40
0
40
0
40
0
40
1
40
1
40
1
40
1
41
1
10
41.6055
20
-12.9705056015292
30
0
41
1
10
41.8203319606478
20
-12.7859304687195
30
0
41
1
10
42.0350057378337
20
-12.6011103791873
30
0
41
1
10
42.2495
20
-12.4160122997164
30
0
0
SPLINE
5
1A7
100
AcDbEntity
8
1
62
256
6
ByLayer
370
18
48
1
60
0
100
AcDbSpline
70
4
71
3
72
8
73
4
40
0
40
0
40
0
40
0
40
1
40
1
40
1
40
1
41
1
10
41.6055
20
19.7184503955052
30
0
41
1
10
41.8207000524708
20
19.5023166855204
30
0
41
1
10
42.0353821421022
20
19.2854992733109
30
0
41
1
10
42.2495
20
19.0679370847154
30
0
0
SPLINE
5
1A8
100
AcDbEntity
8
1
62
256
6
ByLayer
370
18
48
1
60
0
100
AcDbSpline
70
4
71
3
72
8
73
4
40
0
40
0
40
0
40
0
40
1
40
1
40
1
40
1
41
1
10
41.6055
20
-11.019332489549
30
0
41
1
10
41.8207399691693
20
-10.8185783823276
30
0
41
1
10
42.035436607666
20
-10.6170527580397
30
0
41
1
10
42.2495
20
-10.4146279387559
30
0
0
SPLINE
5
1A9
100
AcDbEntity
8
1
62
256
6
ByLayer
370
18
48
1
60
0
100
AcDbSpline
70
4
71
3
72
8
73
4
40
0
40
0
40
0
40
0
40
1
40
1
40
1
40
1
41
1
10
42.2495
20
-16.5300799335829
30
0
41
1
10
42.0373746492063
20
-16.845389577551
30
0
41
1
10
41.8226281001308
20
-17.1583021627902
30
0
41
1
10
41.6055
20
-17.4690368442115
30
0
0
SPLINE
5
1AA
100
AcDbEntity
8
1
62
256
6
ByLayer
370
18
48
1
60
0
100
AcDbSpline
70
4
71
3
72
22
73
18
40
0
40
0
40
0
40
0
40
0.124999999999987
40
0.124999999999987
40
0.249999999999974
40
0.249999999999974
40
0.312499999999976
40
0.312499999999976
40
0.374999999999979
40
0.374999999999979
40
0.499999999999983
40
0.499999999999983
40
0.624999999999986
40
0.624999999999986
40
0.74999999999999
40
0.74999999999999
40
1
40
1
40
1
40
1
41
1
10
41.6055
20
18.8304003628101
30
0
41
1
10
41.5933808080385
20
18.8409166748025
30
0
41
1
10
41.5815029684042
20
18.850599351319
30
0
41
1
10
41.5596939458029
20
18.8666789353283
30
0
41
1
10
41.549522162378
20
18.8732288666946
30
0
41
1
10
41.5372715379926
20
18.8790458665807
30
0
41
1
10
41.5336365800474
20
18.8803378471185
30
0
41
1
10
41.5277224198727
20
18.8814041831677
30
0
41
1
10
41.525390108167
20
18.8812105482548
30
0
41
1
10
41.5203187268387
20
18.8783850311454
30
0
41
1
10
41.5197486324504
20
18.8735609996964
30
0
41
1
10
41.5230392710006
20
18.8599134489843
30
0
41
1
10
41.5268401757407
20
18.8511757274978
30
0
41
1
10
41.5373010855982
20
18.8315374121517
30
0
41
1
10
41.5438699092401
20
18.8207762383678
30
0
41
1
10
41.5666469913103
20
18.7863364356785
30
0
41
1
10
41.5850228332094
20
18.7617741819729
30
0
41
1
10
41.6055
20
18.7363442052146
30
0
0
SPLINE
5
1AB
100
AcDbEntity
8
1
62
256
6
ByLayer
370
18
48
1
60
0
100
AcDbSpline
70
4
71
3
72
14
73
10
40
0
40
0
40
0
40
0
40
0.249137035967519
40
0.249137035967519
40
0.499424690645013
40
0.499424690645013
40
0.749712345322507
40
0.749712345322507
40
1
40
1
40
1
40
1
41
1
10
41.5205010070971
20
19.8039989842347
30
0
41
1
10
41.5205591996457
20
19.803940288838
30
0
41
1
10
41.5231782053119
20
19.8012984444756
30
0
41
1
10
41.5325099783761
20
19.7918899641521
30
0
41
1
10
41.5392844828076
20
19.7850614653389
30
0
41
1
10
41.5551493578736
20
19.7690814809519
30
0
41
1
10
41.5644347870153
20
19.7597336572633
30
0
41
1
10
41.5840916007173
20
19.7399607665405
30
0
41
1
10
41.5945385189195
20
19.729459433587
30
0
41
1
10
41.6055
20
19.7184503955052
30
0
0
SPLINE
5
1AC
100
AcDbEntity
8
1
62
256
6
ByLayer
370
18
48
1
60
0
100
AcDbSpline
70
4
71
3
72
12
73
8
40
0
40
0
40
0
40
0
40
0.500000000000044
40
0.500000000000044
40
0.750000000000022
40
0.750000000000022
40
1
40
1
40
1
40
1
41
1
10
42.2495
20
-18.4028498781752
30
0
41
1
10
42.2692137713121
20
-18.3793119136173
30
0
41
1
10
42.2870761228951
20
-18.3563670284796
30
0
41
1
10
42.3077117374033
20
-18.3260475722174
30
0
41
1
10
42.3136263405846
20
-18.3165008078665
30
0
41
1
10
42.3220024813361
20
-18.3002470594535
30
0
41
1
10
42.3245000000003
20
-18.293440494456
30
0
41
1
10
42.3245000000003
20
-18.2890240128755
30
0
0
SPLINE
5
1AD
100
AcDbEntity
8
1
62
256
6
ByLayer
370
18
48
1
60
0
100
AcDbSpline
70
4
71
3
72
8
73
4
40
0
40
0
40
0
40
0
40
1
40
1
40
1
40
1
41
1
10
41.6055
20
-15.7591455874816
30
0
41
1
10
41.8201683008329
20
-15.5837537555397
30
0
41
1
10
42.0348350239476
20
-15.4083593488627
30
0
41
1
10
42.2495
20
-15.2329620912907
30
0
0
SPLINE
5
1AE
100
AcDbEntity
8
1
62
256
6
ByLayer
370
18
48
1
60
0
100
AcDbSpline
70
4
71
3
72
8
73
4
40
0
40
0
40
0
40
0
40
1
40
1
40
1
40
1
41
1
10
41.6055
20
10.5692423325784
30
0
41
1
10
41.8375575235841
20
9.92526882917289
30
0
41
1
10
42.0529095032927
20
9.27395742250883
30
0
41
1
10
42.2495
20
8.61440504217305
30
0
0
SPLINE
5
1AF
100
AcDbEntity
8
1
62
256
6
ByLayer
370
18
48
1
60
0
100
AcDbSpline
70
4
71
3
72
8
73
4
40
0
40
0
40
0
40
0
40
1
40
1
40
1
40
1
41
1
10
41.6055
20
15.5333158840139
30
0
41
1
10
41.8246182466614
20
15.1562223165521
30
0
41
1
10
42.0394393316015
20
14.7758958248991
30
0
41
1
10
42.2495
20
14.3919878841886
30
0
0
SPLINE
5
1B0
100
AcDbEntity
8
1
62
256
6
ByLayer
370
18
48
1
60
0
100
AcDbSpline
70
4
71
3
72
12
73
8
40
0
40
0
40
0
40
0
40
0.499999999999999
40
0.499999999999999
40
0.749999999999999
40
0.749999999999999
40
1
40
1
40
1
40
1
41
1
10
42.2495
20
-4.57174589786129
30
0
41
1
10
42.2734498749667
20
-4.41580651238831
30
0
41
1
10
42.2910679373763
20
-4.25978962707742
30
0
41
1
10
42.310080956516
20
-4.02558110117693
30
0
41
1
10
42.3151331006439
20
-3.94748237441897
30
0
41
1
10
42.3223201941462
20
-3.79123244662006
30
0
41
1
10
42.3245
20
-3.7132381575278
30
0
41
1
10
42.3245
20
-3.63551555823594
30
0
0
SPLINE
5
1B1
100
AcDbEntity
8
1
62
256
6
ByLayer
370
18
48
1
60
0
100
AcDbSpline
70
4
71
3
72
8
73
4
40
0
40
0
40
0
40
0
40
1
40
1
40
1
40
1
41
1
10
42.2495
20
10.4146279387558
30
0
41
1
10
42.035436607666
20
10.6170527580397
30
0
41
1
10
41.8207399691693
20
10.8185783823276
30
0
41
1
10
41.6055
20
11.019332489549
30
0
0
SPLINE
5
1B2
100
AcDbEntity
8
1
62
256
6
ByLayer
370
18
48
1
60
0
100
AcDbSpline
70
4
71
3
72
14
73
10
40
0
40
0
40
0
40
0
40
0.25
40
0.25
40
0.5
40
0.5
40
0.75
40
0.75
40
1
40
1
40
1
40
1
41
1
10
42.2494999999999
20
12.4160122997162
30
0
41
1
10
42.260085369069
20
12.4068776428477
30
0
41
1
10
42.2711217278698
20
12.3993650651572
30
0
41
1
10
42.2919675533707
20
12.3921063777258
30
0
41
1
10
42.3011759360961
20
12.3929374305927
30
0
41
1
10
42.3144074916597
20
12.4024577934998
30
0
41
1
10
42.3186099154229
20
12.4108018870577
30
0
41
1
10
42.3235869454225
20
12.4297872600658
30
0
41
1
10
42.3245
20
12.4404527178704
30
0
41
1
10
42.3245
20
12.4517920695673
30
0
0
SPLINE
5
1B3
100
AcDbEntity
8
1
62
256
6
ByLayer
370
18
48
1
60
0
100
AcDbSpline
70
4
71
3
72
20
73
16
40
0
40
0
40
0
40
0
40
0.0625000000000018
40
0.0625000000000018
40
0.125000000000004
40
0.125000000000004
40
0.250000000000001
40
0.250000000000001
40
0.374999999999999
40
0.374999999999999
40
0.499999999999997
40
0.499999999999997
40
0.749999999999998
40
0.749999999999998
40
1
40
1
40
1
40
1
41
1
10
8.53867513459485
20
-23.8391299750503
30
0
41
1
10
8.52279868798013
20
-23.8391299750503
30
0
41
1
10
8.50721568825679
20
-23.8386381480423
30
0
41
1
10
8.47658412125807
20
-23.8367571199657
30
0
41
1
10
8.46140599697401
20
-23.8353503028192
30
0
41
1
10
8.41759599948895
20
-23.8299833264009
30
0
41
1
10
8.39103491659972
20
-23.824989671385
30
0
41
1
10
8.34170754400517
20
-23.813005969379
30
0
41
1
10
8.31983115452974
20
-23.8062336877526
30
0
41
1
10
8.27975402284392
20
-23.7916155212569
30
0
41
1
10
8.26148999258896
20
-23.7837098766636
30
0
41
1
10
8.2117396173519
20
-23.7591079584198
30
0
41
1
10
8.18512193927677
20
-23.7416171457992
30
0
41
1
10
8.13975567725331
20
-23.7051129235882
30
0
41
1
10
8.1211137629262
20
-23.6860331168061
30
0
41
1
10
8.10566243270247
20
-23.6665017920809
30
0
0
SPLINE
5
1B4
100
AcDbEntity
8
1
62
256
6
ByLayer
370
18
48
1
60
0
100
AcDbSpline
70
4
71
3
72
14
73
10
40
0
40
0
40
0
40
0
40
0.25
40
0.25
40
0.5
40
0.5
40
0.75
40
0.75
40
1
40
1
40
1
40
1
41
1
10
42.3245
20
-18.9809298975149
30
0
41
1
10
42.3245
20
-18.9802749397073
30
0
41
1
10
42.3222686570517
20
-18.9818256856907
30
0
41
1
10
42.3141089561458
20
-18.9887118861319
30
0
41
1
10
42.308141619218
20
-18.9940733211362
30
0
41
1
10
42.2940927457414
20
-19.0070547541498
30
0
41
1
10
42.2858401844453
20
-19.0148307852947
30
0
41
1
10
42.2684278710244
20
-19.0314404543229
30
0
41
1
10
42.2591841270818
20
-19.040350490592
30
0
41
1
10
42.2495
20
-19.0497595350354
30
0
0
SPLINE
5
1B5
100
AcDbEntity
8
1
62
256
6
ByLayer
370
18
48
1
60
0
100
AcDbSpline
70
4
71
3
72
8
73
4
40
0
40
0
40
0
40
0
40
1
40
1
40
1
40
1
41
1
10
42.2495
20
-15.5703702247132
30
0
41
1
10
42.0382071317381
20
-15.9155530145199
30
0
41
1
10
41.8234311235556
20
-16.2578238253877
30
0
41
1
10
41.6055
20
-16.5974568928041
30
0
0
SPLINE
5
1B6
100
AcDbEntity
8
1
62
256
6
ByLayer
370
18
48
1
60
0
100
AcDbSpline
70
4
71
3
72
18
73
14
40
0
40
0
40
0
40
0
40
0.249968095770121
40
0.249968095770121
40
0.499936191540242
40
0.499936191540242
40
0.749904287310364
40
0.749904287310364
40
0.874888335195417
40
0.874888335195417
40
0.999872383080471
40
0.999872383080471
40
1
40
1
40
1
40
1
41
1
10
41.6055
20
-19.7184503955052
30
0
41
1
10
41.5944736150805
20
-19.729524619015
30
0
41
1
10
41.5838033692869
20
-19.7402505448279
30
0
41
1
10
41.5640834313706
20
-19.760087248044
30
0
41
1
10
41.5550149215231
20
-19.769216810136
30
0
41
1
10
41.5389994683375
20
-19.7853486325378
30
0
41
1
10
41.5323266018195
20
-19.7920748098037
30
0
41
1
10
41.5253343264306
20
-19.7991246202076
30
0
41
1
10
41.5235363040347
20
-19.8009378239267
30
0
41
1
10
41.5211007379348
20
-19.8033940774065
30
0
41
1
10
41.5204830212339
20
-19.8040171245136
30
0
41
1
10
41.5204996970215
20
-19.8040003055793
30
0
41
1
10
41.5205004011702
20
-19.803999595386
30
0
41
1
10
41.5205011053158
20
-19.8039988851895
30
0
0
SPLINE
5
1B7
100
AcDbEntity
8
1
62
256
6
ByLayer
370
18
48
1
60
0
100
AcDbSpline
70
4
71
3
72
14
73
10
40
0
40
0
40
0
40
0
40
0.25
40
0.25
40
0.5
40
0.5
40
0.75
40
0.75
40
1
40
1
40
1
40
1
41
1
10
42.2495
20
13.9767752987124
30
0
41
1
10
42.2597330229031
20
13.9682967416001
30
0
41
1
10
42.2702346636054
20
13.9611039699823
30
0
41
1
10
42.289965723692
20
13.9523389980604
30
0
41
1
10
42.2990953847833
20
13.9510252133539
30
0
41
1
10
42.31290217886
20
13.9555071749107
30
0
41
1
10
42.3176394355068
20
13.9611014471509
30
0
41
1
10
42.3233787738377
20
13.9757839108189
30
0
41
1
10
42.3245000000044
20
13.9848636445606
30
0
41
1
10
42.3245000000043
20
13.9946525728915
30
0
0
SPLINE
5
1B8
100
AcDbEntity
8
1
62
256
6
ByLayer
370
18
48
1
60
0
100
AcDbSpline
70
4
71
3
72
12
73
8
40
0
40
0
40
0
40
0
40
0.500000000000015
40
0.500000000000015
40
0.750000000000008
40
0.750000000000008
40
1
40
1
40
1
40
1
41
1
10
42.2495
20
-14.3919878841886
30
0
41
1
10
42.2701003209502
20
-14.354338633359
30
0
41
1
10
42.2877787394772
20
-14.3163913811337
30
0
41
1
10
42.3078803980417
20
-14.2617098394658
30
0
41
1
10
42.3135259625514
20
-14.2438253173232
30
0
41
1
10
42.3218604786181
20
-14.2090213858311
30
0
41
1
10
42.3245
20
-14.1924069066608
30
0
41
1
10
42.3245
20
-14.1775976034378
30
0
0
SPLINE
5
1B9
100
AcDbEntity
8
1
62
256
6
ByLayer
370
18
48
1
60
0
100
AcDbSpline
70
4
71
3
72
8
73
4
40
0
40
0
40
0
40
0
40
1
40
1
40
1
40
1
41
1
10
42.2495
20
16.2553382123749
30
0
41
1
10
42.0348401170211
20
16.4311362953957
30
0
41
1
10
41.8201732371937
20
16.6069229874503
30
0
41
1
10
41.6055
20
16.7826993267326
30
0
0
SPLINE
5
1BA
100
AcDbEntity
8
1
62
256
6
ByLayer
370
18
48
1
60
0
100
AcDbSpline
70
4
71
3
72
14
73
10
40
0
40
0
40
0
40
0
40
0.25
40
0.25
40
0.5
40
0.5
40
0.75
40
0.75
40
1
40
1
40
1
40
1
41
1
10
42.2495
20
17.7516701480928
30
0
41
1
10
42.2592472411427
20
17.7434093616651
30
0
41
1
10
42.2687842391549
20
17.7358911180699
30
0
41
1
10
42.2869426760122
20
17.7231617994199
30
0
41
1
10
42.2954011977379
20
17.7180938406677
30
0
41
1
10
42.3096003699559
20
17.7119377182011
30
0
41
1
10
42.3153326448495
20
17.7109091615286
30
0
41
1
10
42.3227326686985
20
17.7133385198427
30
0
41
1
10
42.3245
20
17.7167960692811
30
0
41
1
10
42.3245
20
17.7218227111435
30
0
0
SPLINE
5
1BB
100
AcDbEntity
8
1
62
256
6
ByLayer
370
18
48
1
60
0
100
AcDbSpline
70
4
71
3
72
8
73
4
40
0
40
0
40
0
40
0
40
1
40
1
40
1
40
1
41
1
10
41.6055
20
-8.37361101742607
30
0
41
1
10
41.8225293003014
20
-8.12967639832331
30
0
41
1
10
42.0373665452931
20
-7.88319830325074
30
0
41
1
10
42.2495
20
-7.6335829581343
30
0
0
SPLINE
5
1BC
100
AcDbEntity
8
1
62
256
6
ByLayer
370
18
48
1
60
0
100
AcDbSpline
70
4
71
3
72
8
73
4
40
0
40
0
40
0
40
0
40
1
40
1
40
1
40
1
41
1
10
41.6055000000001
20
7.7147398224981
30
0
41
1
10
41.8697062205963
20
6.68060882615379
30
0
41
1
10
42.0864300612877
20
5.63350618125855
30
0
41
1
10
42.2495000000003
20
4.57174589786138
30
0
0
SPLINE
5
1BD
100
AcDbEntity
8
1
62
256
6
ByLayer
370
18
48
1
60
0
100
AcDbSpline
70
4
71
3
72
18
73
14
40
0
40
0
40
0
40
0
40
0.125000000000007
40
0.125000000000007
40
0.250000000000015
40
0.250000000000015
40
0.375000000000023
40
0.375000000000023
40
0.50000000000003
40
0.50000000000003
40
0.750000000000015
40
0.750000000000015
40
1
40
1
40
1
40
1
41
1
10
42.2494999999984
20
7.63358295813148
30
0
41
1
10
42.2554139583019
20
7.62662406169031
30
0
41
1
10
42.2617704585627
20
7.62030972372813
30
0
41
1
10
42.2753056805866
20
7.61142405447751
30
0
41
1
10
42.2825539823758
20
7.60917728824262
30
0
41
1
10
42.2950877586338
20
7.61165495551509
30
0
41
1
10
42.3002300690961
20
7.61609947706594
30
0
41
1
10
42.3081590515472
20
7.62751165373612
30
0
41
1
10
42.3111279719403
20
7.63451707959214
30
0
41
1
10
42.3182224099557
20
7.65669355896853
30
0
41
1
10
42.3207451881801
20
7.67337802668843
30
0
41
1
10
42.3239121953916
20
7.7071517001383
30
0
41
1
10
42.3245
20
7.72451069593015
30
0
41
1
10
42.3245
20
7.74214285318698
30
0
0
SPLINE
5
1BE
100
AcDbEntity
8
1
62
256
6
ByLayer
370
18
48
1
60
0
100
AcDbSpline
70
4
71
3
72
8
73
4
40
0
40
0
40
0
40
0
40
1
40
1
40
1
40
1
41
1
10
42.2495
20
-14.3919878841886
30
0
41
1
10
42.0394393316015
20
-14.7758958248991
30
0
41
1
10
41.8246182466614
20
-15.1562223165521
30
0
41
1
10
41.6055
20
-15.5333158840139
30
0
0
SPLINE
5
1BF
100
AcDbEntity
8
1
62
256
6
ByLayer
370
18
48
1
60
0
100
AcDbSpline
70
4
71
3
72
8
73
4
40
0
40
0
40
0
40
0
40
1
40
1
40
1
40
1
41
1
10
41.6055
20
-19.67254327625
30
0
41
1
10
41.8205696375729
20
-19.4655042942751
30
0
41
1
10
42.0352478964824
20
-19.2579256967411
30
0
41
1
10
42.2495
20
-19.0497595350354
30
0
0
SPLINE
5
1C0
100
AcDbEntity
8
1
62
256
6
ByLayer
370
18
48
1
60
0
100
AcDbSpline
70
4
71
3
72
14
73
10
40
0
40
0
40
0
40
0
40
0.25
40
0.25
40
0.5
40
0.5
40
0.75
40
0.75
40
1
40
1
40
1
40
1
41
1
10
42.3245000000001
20
-16.2467427634162
30
0
41
1
10
42.3245000000001
20
-16.2394710002288
30
0
41
1
10
42.3230505526095
20
-16.2333911075695
30
0
41
1
10
42.3162559492657
20
-16.2254590605736
30
0
41
1
10
42.3108018796897
20
-16.2237332697389
30
0
41
1
10
42.2967025470418
20
-16.225613605279
30
0
41
1
10
42.2879424393728
20
-16.2292077635721
30
0
41
1
10
42.269327473126
20
-16.2400317807444
30
0
41
1
10
42.2594058159219
20
-16.2472257349727
30
0
41
1
10
42.2495
20
-16.2553382123748
30
0
0
SPLINE
5
1C1
100
AcDbEntity
8
1
62
256
6
ByLayer
370
18
48
1
60
0
100
AcDbSpline
70
4
71
3
72
34
73
30
40
0
40
0
40
0
40
0
40
0.250000000000002
40
0.250000000000002
40
0.500000000000004
40
0.500000000000004
40
0.625000000000005
40
0.625000000000005
40
0.750000000000006
40
0.750000000000006
40
0.812500000000007
40
0.812500000000007
40
0.875000000000007
40
0.875000000000007
40
0.906250000000008
40
0.906250000000008
40
0.937500000000008
40
0.937500000000008
40
0.953125000000006
40
0.953125000000006
40
0.960937500000005
40
0.960937500000005
40
0.968750000000005
40
0.968750000000005
40
0.976562500000004
40
0.976562500000004
40
0.984375000000003
40
0.984375000000003
40
1
40
1
40
1
40
1
41
1
10
41.6055
20
-1.68093354208526
30
0
41
1
10
41.5953465332925
20
-1.8685616238314
30
0
41
1
10
41.5843708072372
20
-2.05602622869941
30
0
41
1
10
41.5624814887405
20
-2.43060998840099
30
0
41
1
10
41.5515138517231
20
-2.61772984290386
30
0
41
1
10
41.5372027368807
20
-2.89812543294062
30
0
41
1
10
41.5327968300852
20
-2.99154315427916
30
0
41
1
10
41.5254831497148
20
-3.1782739904483
30
0
41
1
10
41.522535167938
20
-3.27154581726924
30
0
41
1
10
41.520533676288
20
-3.41078910394796
30
0
41
1
10
41.5202747525549
20
-3.45710621188022
30
0
41
1
10
41.5211546580903
20
-3.5494477281143
30
0
41
1
10
41.522240748443
20
-3.59548103644909
30
0
41
1
10
41.5260817286805
20
-3.66411512076078
30
0
41
1
10
41.5277367440043
20
-3.68693139674221
30
0
41
1
10
41.532408665708
20
-3.73185536769753
30
0
41
1
10
41.5353138606983
20
-3.75405257873078
30
0
41
1
10
41.5423699927684
20
-3.78613748291872
30
0
41
1
10
41.5451783656224
20
-3.79671257160223
30
0
41
1
10
41.5510156756257
20
-3.81100700088197
30
0
41
1
10
41.553273328892
20
-3.81559505581708
30
0
41
1
10
41.5588492493796
20
-3.82332137784206
30
0
41
1
10
41.5622569994082
20
-3.82651238166159
30
0
41
1
10
41.5703820707258
20
-3.82858172104335
30
0
41
1
10
41.5748176023891
20
-3.82712919062183
30
0
41
1
10
41.5827092358347
20
-3.82124552398889
30
0
41
1
10
41.5861296946894
20
-3.81718720805901
30
0
41
1
10
41.5956575801557
20
-3.80371592831915
30
0
41
1
10
41.6008116156138
20
-3.79332009981647
30
0
41
1
10
41.6055
20
-3.7827284368679
30
0
0
SPLINE
5
1C2
100
AcDbEntity
8
1
62
256
6
ByLayer
370
18
48
1
60
0
100
AcDbSpline
70
4
71
3
72
22
73
18
40
0
40
0
40
0
40
0
40
0.125000000000028
40
0.125000000000028
40
0.187500000000027
40
0.187500000000027
40
0.250000000000026
40
0.250000000000026
40
0.312500000000025
40
0.312500000000025
40
0.375000000000024
40
0.375000000000024
40
0.500000000000023
40
0.500000000000023
40
0.750000000000012
40
0.750000000000012
40
1
40
1
40
1
40
1
41
1
10
41.6055
20
16.7826993267326
30
0
41
1
10
41.5919745228994
20
16.79377410663
30
0
41
1
10
41.5785728919488
20
16.8032351891506
30
0
41
1
10
41.5600728324478
20
16.8127399031511
30
0
41
1
10
41.5542464597728
20
16.8150706091348
30
0
41
1
10
41.5437822549354
20
16.8176552021779
30
0
41
1
10
41.5390803570253
20
16.8178985994964
30
0
41
1
10
41.5314043088806
20
16.8162564980175
30
0
41
1
10
41.5283069146796
20
16.814376925707
30
0
41
1
10
41.5236849638678
20
16.8087898475587
30
0
41
1
10
41.5221857379061
20
16.8051654829402
30
0
41
1
10
41.5196474365467
20
16.792280964629
30
0
41
1
10
41.5206044294397
20
16.7813013056084
30
0
41
1
10
41.5284300061337
20
16.7448847871389
30
0
41
1
10
41.5400814481016
20
16.7161474341274
30
0
41
1
10
41.5688013884063
20
16.6577627074369
30
0
41
1
10
41.5859730146255
20
16.6278885715471
30
0
41
1
10
41.6055
20
16.5974568928041
30
0
0
SPLINE
5
1C3
100
AcDbEntity
8
1
62
256
6
ByLayer
370
18
48
1
60
0
100
AcDbSpline
70
4
71
3
72
14
73
10
40
0
40
0
40
0
40
0
40
0.25
40
0.25
40
0.5
40
0.5
40
0.75
40
0.75
40
1
40
1
40
1
40
1
41
1
10
42.3245
20
-15.2365834598287
30
0
41
1
10
42.3245
20
-15.2280574715485
30
0
41
1
10
42.3232265794519
20
-15.2206332405457
30
0
41
1
10
42.31687672309
20
-15.2094874469187
30
0
41
1
10
42.3116771773874
20
-15.2060071462587
30
0
41
1
10
42.2976317133279
20
-15.2051536604223
30
0
41
1
10
42.2887191089604
20
-15.2077937103421
30
0
41
1
10
42.2697156290151
20
-15.217628287636
30
0
41
1
10
42.2595363211322
20
-15.2247616701736
30
0
41
1
10
42.2495
20
-15.2329620912906
30
0
0
SPLINE
5
1C4
100
AcDbEntity
8
1
62
256
6
ByLayer
370
18
48
1
60
0
100
AcDbSpline
70
4
71
3
72
14
73
10
40
0
40
0
40
0
40
0
40
0.25
40
0.25
40
0.5
40
0.5
40
0.75
40
0.75
40
1
40
1
40
1
40
1
41
1
10
42.3245
20
18.8780838423543
30
0
41
1
10
42.3245
20
18.8798173955346
30
0
41
1
10
42.3221013638943
20
18.8839223696908
30
0
41
1
10
42.3138032295433
20
18.8952982718544
30
0
41
1
10
42.3078502165317
20
18.9026622738455
30
0
41
1
10
42.2939510937763
20
18.9190232687972
30
0
41
1
10
42.2858335791893
20
18.928226363608
30
0
41
1
10
42.2684939445531
20
18.9474193398036
30
0
41
1
10
42.2592424533952
20
18.9574479050799
30
0
41
1
10
42.2495
20
18.9678441313361
30
0
0
SPLINE
5
1C5
100
AcDbEntity
8
1
62
256
6
ByLayer
370
18
48
1
60
0
100
AcDbSpline
70
4
71
3
72
14
73
10
40
0
40
0
40
0
40
0
40
0.25
40
0.25
40
0.5
40
0.5
40
0.75
40
0.75
40
1
40
1
40
1
40
1
41
1
10
42.2495
20
-17.9264544727241
30
0
41
1
10
42.2594452716602
20
-17.9137839384981
30
0
41
1
10
42.2688578737818
20
-17.9012296925005
30
0
41
1
10
42.2860631262544
20
-17.8769739480124
30
0
41
1
10
42.2939188644348
20
-17.865200408821
30
0
41
1
10
42.3077301342475
20
-17.8425488566719
30
0
41
1
10
42.313549981919
20
-17.831883452387
30
0
41
1
10
42.3219388885767
20
-17.8129323227157
30
0
41
1
10
42.324500000001
20
-17.8045938255255
30
0
41
1
10
42.324500000001
20
-17.7986396737448
30
0
0
SPLINE
5
1C6
100
AcDbEntity
8
1
62
256
6
ByLayer
370
18
48
1
60
0
100
AcDbSpline
70
4
71
3
72
20
73
16
40
0
40
0
40
0
40
0
40
0.0625000000000003
40
0.0625000000000003
40
0.125000000000001
40
0.125000000000001
40
0.250000000000001
40
0.250000000000001
40
0.375000000000001
40
0.375000000000001
40
0.500000000000001
40
0.500000000000001
40
0.750000000000001
40
0.750000000000001
40
1
40
1
40
1
40
1
41
1
10
11.4613248654051
20
23.8391299750503
30
0
41
1
10
11.4772013120199
20
23.8391299750503
30
0
41
1
10
11.4927843117432
20
23.8386381480423
30
0
41
1
10
11.5234158787419
20
23.8367571199657
30
0
41
1
10
11.538594003026
20
23.8353503028192
30
0
41
1
10
11.582404000511
20
23.8299833264009
30
0
41
1
10
11.6089650834003
20
23.8249896713849
30
0
41
1
10
11.6582924559948
20
23.813005969379
30
0
41
1
10
11.6801688454703
20
23.8062336877526
30
0
41
1
10
11.7202459771561
20
23.7916155212569
30
0
41
1
10
11.738510007411
20
23.7837098766636
30
0
41
1
10
11.7882603826481
20
23.7591079584197
30
0
41
1
10
11.8148780607232
20
23.7416171457992
30
0
41
1
10
11.8602443227466
20
23.7051129235882
30
0
41
1
10
11.8788862370737
20
23.6860331168061
30
0
41
1
10
11.8943375672975
20
23.6665017920809
30
0
0
SPLINE
5
1C7
100
AcDbEntity
8
1
62
256
6
ByLayer
370
18
48
1
60
0
100
AcDbSpline
70
4
71
3
72
12
73
8
40
0
40
0
40
0
40
0
40
0.567291002777591
40
0.567291002777591
40
0.850936504166373
40
0.850936504166373
40
1
40
1
40
1
40
1
41
1
10
41.6055
20
19.67254327625
30
0
41
1
10
41.5829955316989
20
19.6942074323789
30
0
41
1
10
41.561880388332
20
19.7140674209438
30
0
41
1
10
41.5377038374728
20
19.7354993425979
30
0
41
1
10
41.5310440689488
20
19.7411000824371
30
0
41
1
10
41.5243283600769
20
19.7460435311614
30
0
41
1
10
41.5226447527551
20
19.7470829990588
30
0
41
1
10
41.5216320442188
20
19.747437707207
30
0
0
SPLINE
5
1C8
100
AcDbEntity
8
1
62
256
6
ByLayer
370
18
48
1
60
0
100
AcDbSpline
70
4
71
3
72
16
73
12
40
0
40
0
40
0
40
0
40
0.0197386845446156
40
0.0197386845446156
40
0.264804013408462
40
0.264804013408462
40
0.509869342272308
40
0.509869342272308
40
0.754934671136154
40
0.754934671136154
40
1
40
1
40
1
40
1
41
1
10
41.5205028758573
20
19.7470721475956
30
0
41
1
10
41.5205053482065
20
19.7469673436304
30
0
41
1
10
41.5205243021631
20
19.746846080293
30
0
41
1
10
41.5210016685143
20
19.7449974364367
30
0
41
1
10
41.5239889034551
20
19.7407194293516
30
0
41
1
10
41.5336948862717
20
19.7286365874095
30
0
41
1
10
41.5404694325865
20
19.7207454646149
30
0
41
1
10
41.5561288184669
20
19.703103159907
30
0
41
1
10
41.5652095623421
20
19.6931288968652
30
0
41
1
10
41.5844816839385
20
19.6723146861223
30
0
41
1
10
41.5947308174893
20
19.6614073739258
30
0
41
1
10
41.6055
20
19.6500792121576
30
0
0
SPLINE
5
1C9
100
AcDbEntity
8
1
62
256
6
ByLayer
370
18
48
1
60
0
100
AcDbSpline
70
4
71
3
72
14
73
10
40
0
40
0
40
0
40
0
40
0.25
40
0.25
40
0.5
40
0.5
40
0.75
40
0.75
40
1
40
1
40
1
40
1
41
1
10
42.3245
20
-18.6056268367875
30
0
41
1
10
42.3245
20
-18.6027236160964
30
0
41
1
10
42.3225179945146
20
-18.6018009379686
30
0
41
1
10
42.3145530102954
20
-18.6042057169858
30
0
41
1
10
42.3087143087579
20
-18.6074938193305
30
0
41
1
10
42.2945271501969
20
-18.6172106493221
30
0
41
1
10
42.2862785502885
20
-18.6235597234353
30
0
41
1
10
42.2685178816954
20
-18.6381579323393
30
0
41
1
10
42.2591829382417
20
-18.646252925044
30
0
41
1
10
42.2495
20
-18.654960886978
30
0
0
SPLINE
5
1CA
100
AcDbEntity
8
1
62
256
6
ByLayer
370
18
48
1
60
0
100
AcDbSpline
70
4
71
3
72
22
73
18
40
0
40
0
40
0
40
0
40
0.249999999999996
40
0.249999999999996
40
0.374999999999999
40
0.374999999999999
40
0.500000000000002
40
0.500000000000002
40
0.625000000000004
40
0.625000000000004
40
0.750000000000007
40
0.750000000000007
40
0.812500000000006
40
0.812500000000006
40
0.875000000000004
40
0.875000000000004
40
1
40
1
40
1
40
1
41
1
10
11.8943375672973
20
-23.6665017920809
30
0
41
1
10
11.8788923030149
20
-23.6860254491252
30
0
41
1
10
11.8604037172645
20
-23.7049589195931
30
0
41
1
10
11.8264575712212
20
-23.7323123198157
30
0
41
1
10
11.814096269969
20
-23.7412544902042
30
0
41
1
10
11.7867462210776
20
-23.7587312609862
30
0
41
1
10
11.7716842562431
20
-23.7673055542944
30
0
41
1
10
11.7384769785308
20
-23.7837256270429
30
0
41
1
10
11.7203772593316
20
-23.7915679133937
30
0
41
1
10
11.6800242532304
20
-23.8062861503817
30
0
41
1
10
11.6579517648702
20
-23.8130866432223
30
0
41
1
10
11.6215461384038
20
-23.8219342456095
30
0
41
1
10
11.6088302857937
20
-23.8246655611125
30
0
41
1
10
11.5819453465864
20
-23.8295906076135
30
0
41
1
10
11.5678144986017
20
-23.8317679461286
30
0
41
1
10
11.5243601613891
20
-23.8370993498304
30
0
41
1
10
11.4930267682388
20
-23.8391299750504
30
0
41
1
10
11.4613248654052
20
-23.8391299750505
30
0
0
SPLINE
5
1CB
100
AcDbEntity
8
1
62
256
6
ByLayer
370
18
48
1
60
0
100
AcDbSpline
70
4
71
3
72
16
73
12
40
0
40
0
40
0
40
0
40
0.244870256115352
40
0.244870256115352
40
0.489740512230704
40
0.489740512230704
40
0.734610768346056
40
0.734610768346056
40
0.979481024461408
40
0.979481024461408
40
1
40
1
40
1
40
1
41
1
10
41.6055
20
-19.6500792121576
30
0
41
1
10
41.5946454997647
20
-19.6614971201053
30
0
41
1
10
41.5843093311552
20
-19.6724989869337
30
0
41
1
10
41.5650555070298
20
-19.6932971537009
30
0
41
1
10
41.5559904860575
20
-19.7032556166844
30
0
41
1
10
41.5402922665503
20
-19.7209485260459
30
0
41
1
10
41.5335960738648
20
-19.7287511946129
30
0
41
1
10
41.5238589844054
20
-19.740889765792
30
0
41
1
10
41.5209274233516
20
-19.7451121254574
30
0
41
1
10
41.5205123631196
20
-19.7469103574359
30
0
41
1
10
41.5204985695314
20
-19.7470311500925
30
0
41
1
10
41.520502839793
20
-19.7471338530932
30
0
0
SPLINE
5
1CC
100
AcDbEntity
8
1
62
256
6
ByLayer
370
18
48
1
60
0
100
AcDbSpline
70
4
71
3
72
14
73
10
40
0
40
0
40
0
40
0
40
0.137563763840336
40
0.137563763840336
40
0.425042509226891
40
0.425042509226891
40
0.712521254613445
40
0.712521254613445
40
1
40
1
40
1
40
1
41
1
10
41.5220149595517
20
-19.747284072884
30
0
41
1
10
41.5230805660159
20
-19.7468148993613
30
0
41
1
10
41.524695456823
20
-19.7457814913065
30
0
41
1
10
41.5312478930885
20
-19.7409318597074
30
0
41
1
10
41.5379815917346
20
-19.7352591146847
30
0
41
1
10
41.5540464393891
20
-19.721005839838
30
0
41
1
10
41.5635576945821
20
-19.7122726293567
30
0
41
1
10
41.5836466284833
20
-19.6934639928731
30
0
41
1
10
41.5943179210633
20
-19.6833078186817
30
0
41
1
10
41.6055
20
-19.67254327625
30
0
0
SPLINE
5
1CD
100
AcDbEntity
8
1
62
256
6
ByLayer
370
18
48
1
60
0
100
AcDbSpline
70
4
71
3
72
28
73
24
40
0
40
0
40
0
40
0
40
0.250000000000007
40
0.250000000000007
40
0.500000000000014
40
0.500000000000014
40
0.625000000000018
40
0.625000000000018
40
0.750000000000022
40
0.750000000000022
40
0.812500000000018
40
0.812500000000018
40
0.843750000000015
40
0.843750000000015
40
0.875000000000012
40
0.875000000000012
40
0.906250000000009
40
0.906250000000009
40
0.937500000000006
40
0.937500000000006
40
0.968750000000003
40
0.968750000000003
40
1
40
1
40
1
40
1
41
1
10
41.6054999999996
20
-7.7147398224981
30
0
41
1
10
41.5885769852419
20
-7.78097828604783
30
0
41
1
10
41.5737786406264
20
-7.8469679361493
30
0
41
1
10
41.5484174930481
20
-7.97844052354026
30
0
41
1
10
41.537797636014
20
-8.04392844473301
30
0
41
1
10
41.5265743250118
20
-8.14164486406759
30
0
41
1
10
41.5236218884951
20
-8.17419635525957
30
0
41
1
10
41.520256070083
20
-8.2387663711832
30
0
41
1
10
41.5197737989798
20
-8.27045006288583
30
0
41
1
10
41.5228330742295
20
-8.31614906135485
30
0
41
1
10
41.5244932097765
20
-8.33114878934833
30
0
41
1
10
41.5288006947063
20
-8.35253976664805
30
0
41
1
10
41.5305311270297
20
-8.35940949468363
30
0
41
1
10
41.53487591584
20
-8.37237160833828
30
0
41
1
10
41.5375175995501
20
-8.3785400595506
30
0
41
1
10
41.5441354070324
20
-8.38918735486629
30
0
41
1
10
41.5481602808463
20
-8.39371783465455
30
0
41
1
10
41.5579708320389
20
-8.39934345018204
30
0
41
1
10
41.5637965862585
20
-8.40028225526359
30
0
41
1
10
41.5760487214159
20
-8.39770888838589
30
0
41
1
10
41.5824296550994
20
-8.39428785304659
30
0
41
1
10
41.5944898049966
20
-8.38518891230808
30
0
41
1
10
41.6001094477988
20
-8.37966984126294
30
0
41
1
10
41.6055
20
-8.37361101742607
30
0
0
SPLINE
5
1CE
100
AcDbEntity
8
1
62
256
6
ByLayer
370
18
48
1
60
0
100
AcDbSpline
70
4
71
3
72
16
73
12
40
0
40
0
40
0
40
0
40
0.250000000000013
40
0.250000000000013
40
0.500000000000026
40
0.500000000000026
40
0.625000000000019
40
0.625000000000019
40
0.750000000000013
40
0.750000000000013
40
1
40
1
40
1
40
1
41
1
10
42.3245000000022
20
-12.4517920695657
30
0
41
1
10
42.3245000000022
20
-12.440367383973
30
0
41
1
10
42.3235743306348
20
-12.429625754431
30
0
41
1
10
42.3185093869108
20
-12.4105343684028
30
0
41
1
10
42.3143452477188
20
-12.4023667097376
30
0
41
1
10
42.3043830436249
20
-12.3952686195636
30
0
41
1
10
42.3004139948646
20
-12.3938031093933
30
0
41
1
10
42.2915112087763
20
-12.3931584348768
30
0
41
1
10
42.2865270212046
20
-12.3939796046377
30
0
41
1
10
42.2710236762014
20
-12.3994427929495
30
0
41
1
10
42.2600273798581
20
-12.4069276847059
30
0
41
1
10
42.2494999999999
20
-12.4160122997158
30
0
0
SPLINE
5
1CF
100
AcDbEntity
8
1
62
256
6
ByLayer
370
18
48
1
60
0
100
AcDbSpline
70
4
71
3
72
14
73
10
40
0
40
0
40
0
40
0
40
0.25
40
0.25
40
0.5
40
0.5
40
0.75
40
0.75
40
1
40
1
40
1
40
1
41
1
10
42.2495
20
16.2553382123748
30
0
41
1
10
42.2593988680458
20
16.2472314250126
30
0
41
1
10
42.2692232297387
20
16.2400961103482
30
0
41
1
10
42.2879744187915
20
16.2291854674856
30
0
41
1
10
42.2967314342812
20
16.2256010647453
30
0
41
1
10
42.3108522464072
20
16.2237352895698
30
0
41
1
10
42.3162924651551
20
16.2254991105442
30
0
41
1
10
42.3230201101131
20
16.2333581500304
30
0
41
1
10
42.3245000000004
20
16.2394805992425
30
0
41
1
10
42.3245000000004
20
16.2467427634159
30
0
0
SPLINE
5
1D0
100
AcDbEntity
8
1
62
256
6
ByLayer
370
18
48
1
60
0
100
AcDbSpline
70
4
71
3
72
14
73
10
40
0
40
0
40
0
40
0
40
0.25
40
0.25
40
0.5
40
0.5
40
0.75
40
0.75
40
1
40
1
40
1
40
1
41
1
10
42.2495
20
15.2329620912907
30
0
41
1
10
42.2595754747045
20
15.224729678792
30
0
41
1
10
42.2696634917799
20
15.2176576935563
30
0
41
1
10
42.2887340686952
20
15.2077835490402
30
0
41
1
10
42.2976723684017
20
15.2051360238348
30
0
41
1
10
42.3117771625899
20
15.2060335303122
30
0
41
1
10
42.3169055323747
20
15.2095373596982
30
0
41
1
10
42.3231989538685
20
15.2205854056193
30
0
41
1
10
42.3245000000012
20
15.228127808386
30
0
41
1
10
42.3245000000012
20
15.2365834598277
30
0
0
SPLINE
5
1D1
100
AcDbEntity
8
1
62
256
6
ByLayer
370
18
48
1
60
0
100
AcDbSpline
70
4
71
3
72
8
73
4
40
0
40
0
40
0
40
0
40
1
40
1
40
1
40
1
41
1
10
42.2495
20
18.2705960321683
30
0
41
1
10
42.0349733553288
20
18.4574120577276
30
0
41
1
10
41.8203025465447
20
18.6440075237985
30
0
41
1
10
41.6055
20
18.8304003628101
30
0
0
SPLINE
5
1D2
100
AcDbEntity
8
1
62
256
6
ByLayer
370
18
48
1
60
0
100
AcDbSpline
70
4
71
3
72
12
73
8
40
0
40
0
40
0
40
0
40
0.500000000000011
40
0.500000000000011
40
0.750000000000006
40
0.750000000000006
40
1
40
1
40
1
40
1
41
1
10
42.2495
20
-12.9353083296312
30
0
41
1
10
42.2704007391946
20
-12.891409105862
30
0
41
1
10
42.2879822475922
20
-12.8472681461817
30
0
41
1
10
42.3079572516775
20
-12.7828646621749
30
0
41
1
10
42.3135713793242
20
-12.7616176300328
30
0
41
1
10
42.3218661041996
20
-12.7197509393173
30
0
41
1
10
42.3245
20
-12.6996254052808
30
0
41
1
10
42.3245
20
-12.6809876861899
30
0
0
SPLINE
5
1D3
100
AcDbEntity
8
1
62
256
6
ByLayer
370
18
48
1
60
0
100
AcDbSpline
70
4
71
3
72
8
73
4
40
0
40
0
40
0
40
0
40
1
40
1
40
1
40
1
41
1
10
42.2495
20
-11.0912167009134
30
0
41
1
10
42.0449435898546
20
-11.6082675252431
30
0
41
1
10
41.829910422179
20
-12.1194546037457
30
0
41
1
10
41.6055
20
-12.6253933182574
30
0
0
SPLINE
5
1D4
100
AcDbEntity
8
1
62
256
6
ByLayer
370
18
48
1
60
0
100
AcDbSpline
70
4
71
3
72
8
73
4
40
0
40
0
40
0
40
0
40
1
40
1
40
1
40
1
41
1
10
41.6055
20
-17.6200829661946
30
0
41
1
10
41.8202009468254
20
-17.4420861479081
30
0
41
1
10
42.0348686848346
20
-17.2640359061465
30
0
41
1
10
42.2495
20
-17.0859271543189
30
0
0
SPLINE
5
1D5
100
AcDbEntity
8
1
62
256
6
ByLayer
370
18
48
1
60
0
100
AcDbSpline
70
4
71
3
72
22
73
18
40
0
40
0
40
0
40
0
40
0.0625000000000032
40
0.0625000000000032
40
0.125000000000007
40
0.125000000000007
40
0.18750000000001
40
0.18750000000001
40
0.250000000000013
40
0.250000000000013
40
0.375000000000011
40
0.375000000000011
40
0.500000000000009
40
0.500000000000009
40
0.750000000000004
40
0.750000000000004
40
1
40
1
40
1
40
1
41
1
10
41.6055
20
14.5100772776504
30
0
41
1
10
41.5979531350988
20
14.5163237035142
30
0
41
1
10
41.5903309748307
20
14.5219282456636
30
0
41
1
10
41.5752150014688
20
14.5310758420371
30
0
41
1
10
41.5678082632911
20
14.5345413709489
30
0
41
1
10
41.5541074431752
20
14.5383181156671
30
0
41
1
10
41.5479040735975
20
14.5385925023582
30
0
41
1
10
41.5373699622982
20
14.5357904907593
30
0
41
1
10
41.5332138313417
20
14.532825207766
30
0
41
1
10
41.5234244585301
20
14.52014194122
30
0
41
1
10
41.5208914796619
20
14.5072078372263
30
0
41
1
10
41.5201926535017
20
14.4789157426782
30
0
41
1
10
41.5219655798816
20
14.4633166237993
30
0
41
1
10
41.5312522763401
20
14.4137784840492
30
0
41
1
10
41.5425200942079
20
14.3781366276164
30
0
41
1
10
41.5702156333428
20
14.3062248876231
30
0
41
1
10
41.5866797204592
20
14.2699815629601
30
0
41
1
10
41.6055
20
14.2334897125276
30
0
0
SPLINE
5
1D6
100
AcDbEntity
8
1
62
256
6
ByLayer
370
18
48
1
60
0
100
AcDbSpline
70
4
71
3
72
8
73
4
40
0
40
0
40
0
40
0
40
1
40
1
40
1
40
1
41
1
10
42.2495
20
-8.61440504217305
30
0
41
1
10
42.0529095032927
20
-9.27395742250883
30
0
41
1
10
41.8375575235841
20
-9.92526882917289
30
0
41
1
10
41.6055
20
-10.5692423325784
30
0
0
SPLINE
5
1D7
100
AcDbEntity
8
1
62
256
6
ByLayer
370
18
48
1
60
0
100
AcDbSpline
70
4
71
3
72
8
73
4
40
0
40
0
40
0
40
0
40
1
40
1
40
1
40
1
41
1
10
41.6055
20
18.7363442052146
30
0
41
1
10
41.8216327980189
20
18.46793539229
30
0
41
1
10
42.036344592726
20
18.1980199940686
30
0
41
1
10
42.2495
20
17.9264544727241
30
0
0
SPLINE
5
1D8
100
AcDbEntity
8
1
62
256
6
ByLayer
370
18
48
1
60
0
100
AcDbSpline
70
4
71
3
72
8
73
4
40
0
40
0
40
0
40
0
40
1
40
1
40
1
40
1
41
1
10
41.6055
20
17.4690368442115
30
0
41
1
10
41.8226281001308
20
17.1583021627902
30
0
41
1
10
42.0373746492063
20
16.845389577551
30
0
41
1
10
42.2495
20
16.5300799335829
30
0
0
SPLINE
5
1D9
100
AcDbEntity
8
1
62
256
6
ByLayer
370
18
48
1
60
0
100
AcDbSpline
70
4
71
3
72
28
73
24
40
0
40
0
40
0
40
0
40
0.03125
40
0.03125
40
0.0625
40
0.0625
40
0.09375
40
0.09375
40
0.125
40
0.125
40
0.15625
40
0.15625
40
0.1875
40
0.1875
40
0.249999999999999
40
0.249999999999999
40
0.374999999999997
40
0.374999999999997
40
0.499999999999995
40
0.499999999999995
40
0.749999999999997
40
0.749999999999997
40
1
40
1
40
1
40
1
41
1
10
41.6055000000003
20
8.37361101742655
30
0
41
1
10
41.6000047373562
20
8.37978753275468
30
0
41
1
10
41.5942117994271
20
8.38544000419907
30
0
41
1
10
41.5821363315484
20
8.39446580599048
30
0
41
1
10
41.5757647756299
20
8.39785124933769
30
0
41
1
10
41.5633172962781
20
8.40029497592636
30
0
41
1
10
41.5575147722731
20
8.39919648353919
30
0
41
1
10
41.5478233717979
20
8.3934003488371
30
0
41
1
10
41.5438090778881
20
8.38877626134607
30
0
41
1
10
41.5372371666876
20
8.3779639553226
30
0
41
1
10
41.534613239458
20
8.37171127711881
30
0
41
1
10
41.5303085729235
20
8.35860754730564
30
0
41
1
10
41.5286038692419
20
8.35169550185054
30
0
41
1
10
41.5243703523157
20
8.33024655544975
30
0
41
1
10
41.5227222129098
20
8.31500768205481
30
0
41
1
10
41.5197634773029
20
8.26920455495929
30
0
41
1
10
41.5202942584136
20
8.23786352107069
30
0
41
1
10
41.5236192209956
20
8.17441960623154
30
0
41
1
10
41.5265141599264
20
8.14228555379802
30
0
41
1
10
41.5376441464779
20
8.04503534315202
30
0
41
1
10
41.5483373226414
20
7.97887805299865
30
0
41
1
10
41.5737839041931
20
7.84691878935351
30
0
41
1
10
41.5886061523184
20
7.78086412303708
30
0
41
1
10
41.6055
20
7.71473982249807
30
0
0
SPLINE
5
1DA
100
AcDbEntity
8
1
62
256
6
ByLayer
370
18
48
1
60
0
100
AcDbSpline
70
4
71
3
72
12
73
8
40
0
40
0
40
0
40
0
40
0.499999999999991
40
0.499999999999991
40
0.749999999999995
40
0.749999999999995
40
1
40
1
40
1
40
1
41
1
10
42.2495000000002
20
-11.0912167009134
30
0
41
1
10
42.2707493762863
20
-11.037505318721
30
0
41
1
10
42.288114006892
20
-10.9840923527969
30
0
41
1
10
42.308033340519
20
-10.9044186364488
30
0
41
1
10
42.3136471049518
20
-10.8778062422474
30
0
41
1
10
42.3218575668025
20
-10.8254042330729
30
0
41
1
10
42.3245
20
-10.7998432734029
30
0
41
1
10
42.3245
20
-10.7754639616859
30
0
0
SPLINE
5
1DB
100
AcDbEntity
8
1
62
256
6
ByLayer
370
18
48
1
60
0
100
AcDbSpline
70
4
71
3
72
8
73
4
40
0
40
0
40
0
40
0
40
1
40
1
40
1
40
1
41
1
10
42.2495
20
12.4160122997164
30
0
41
1
10
42.0350057378337
20
12.6011103791873
30
0
41
1
10
41.8203319606478
20
12.7859304687195
30
0
41
1
10
41.6055
20
12.9705056015292
30
0
0
SPLINE
5
1DC
100
AcDbEntity
8
1
62
256
6
ByLayer
370
18
48
1
60
0
100
AcDbSpline
70
4
71
3
72
20
73
16
40
0
40
0
40
0
40
0
40
0.062500000000004
40
0.062500000000004
40
0.125000000000008
40
0.125000000000008
40
0.250000000000007
40
0.250000000000007
40
0.375000000000006
40
0.375000000000006
40
0.500000000000005
40
0.500000000000005
40
0.750000000000002
40
0.750000000000002
40
1
40
1
40
1
40
1
41
1
10
8.53867513459485
20
7.52966679426504
30
0
41
1
10
8.52279868798013
20
7.52966679426504
30
0
41
1
10
8.50721568825679
20
7.53122440152947
30
0
41
1
10
8.47658412125807
20
7.53717584664554
30
0
41
1
10
8.46140599697401
20
7.54162522662261
30
0
41
1
10
8.41759599948895
20
7.55857361750105
30
0
41
1
10
8.39103491659972
20
7.57431556968109
30
0
41
1
10
8.34170754400517
20
7.61190750686262
30
0
41
1
10
8.31983115452974
20
7.633073252412
30
0
41
1
10
8.27975402284392
20
7.67851551807124
30
0
41
1
10
8.26148999258896
20
7.70297658390786
30
0
41
1
10
8.2117396173519
20
7.77866338250453
30
0
41
1
10
8.18512193927677
20
7.83191947486046
30
0
41
1
10
8.13975567725331
20
7.94172327888188
30
0
41
1
10
8.12111376292623
20
7.99846916820704
30
0
41
1
10
8.10566243270247
20
8.05584836782771
30
0
0
SPLINE
5
1DD
100
AcDbEntity
8
1
62
256
6
ByLayer
370
18
48
1
60
0
100
AcDbSpline
70
4
71
3
72
22
73
18
40
0
40
0
40
0
40
0
40
0.250000000000005
40
0.250000000000005
40
0.375000000000004
40
0.375000000000004
40
0.500000000000005
40
0.500000000000005
40
0.625000000000006
40
0.625000000000006
40
0.750000000000007
40
0.750000000000007
40
0.812500000000005
40
0.812500000000005
40
0.875000000000004
40
0.875000000000004
40
1
40
1
40
1
40
1
41
1
10
8.10566243270262
20
-8.05584836782776
30
0
41
1
10
8.12110769698504
20
-7.99849169434913
30
0
41
1
10
8.13959628273545
20
-7.94218253951254
30
0
41
1
10
8.17354242877875
20
-7.85991012495418
30
0
41
1
10
8.1859037300309
20
-7.83285506058491
30
0
41
1
10
8.21325377892236
20
-7.77968328642041
30
0
41
1
10
8.22831574375684
20
-7.75344388356993
30
0
41
1
10
8.26152302146915
20
-7.70292805784925
30
0
41
1
10
8.27962274066837
20
-7.6786635375118
30
0
41
1
10
8.31997574676953
20
-7.63291014136058
30
0
41
1
10
8.34204823512977
20
-7.61165433162091
30
0
41
1
10
8.37845386159617
20
-7.58390025536193
30
0
41
1
10
8.39116971420626
20
-7.57531366225012
30
0
41
1
10
8.41805465341355
20
-7.55980672066906
30
0
41
1
10
8.43218550139824
20
-7.55293791940397
30
0
41
1
10
8.47563983861085
20
-7.53610198950838
30
0
41
1
10
8.50697323176121
20
-7.52966679426473
30
0
41
1
10
8.53867513459477
20
-7.52966679426473
30
0
0
SPLINE
5
1DE
100
AcDbEntity
8
1
62
256
6
ByLayer
370
18
48
1
60
0
100
AcDbSpline
70
4
71
3
72
20
73
16
40
0
40
0
40
0
40
0
40
0.249999999999996
40
0.249999999999996
40
0.499999999999993
40
0.499999999999993
40
0.624999999999994
40
0.624999999999994
40
0.749999999999996
40
0.749999999999996
40
0.812500000000003
40
0.812500000000003
40
0.87500000000001
40
0.87500000000001
40
1
40
1
40
1
40
1
41
1
10
41.6055
20
-14.2334897125276
30
0
41
1
10
41.5866517826199
20
-14.2700357334336
30
0
41
1
10
41.5700039298075
20
-14.3067132975129
30
0
41
1
10
41.5423540195795
20
-14.3786299644915
30
0
41
1
10
41.531260620271
20
-14.4137052273499
30
0
41
1
10
41.5219459700353
20
-14.463435638372
30
0
41
1
10
41.520163421698
20
-14.4791290996216
30
0
41
1
10
41.520937540741
20
-14.5076437025055
30
0
41
1
10
41.5235318896775
20
-14.520413368311
30
0
41
1
10
41.5333610563208
20
-14.5329477804308
30
0
41
1
10
41.5376625576701
20
-14.5359341976592
30
0
41
1
10
41.5481845403429
20
-14.538597526839
30
0
41
1
10
41.5543955213243
20
-14.538278325242
30
0
41
1
10
41.5749730316655
20
-14.5324844686063
30
0
41
1
10
41.5904547654825
20
-14.5225299905646
30
0
41
1
10
41.6055
20
-14.5100772776503
30
0
0
SPLINE
5
1DF
100
AcDbEntity
8
1
62
256
6
ByLayer
370
18
48
1
60
0
100
AcDbSpline
70
4
71
3
72
14
73
10
40
0
40
0
40
0
40
0
40
0.25
40
0.25
40
0.5
40
0.5
40
0.75
40
0.75
40
1
40
1
40
1
40
1
41
1
10
42.2495
20
-16.5300799335829
30
0
41
1
10
42.2595755187232
20
-16.515103372745
30
0
41
1
10
42.2689399471698
20
-16.500282137731
30
0
41
1
10
42.2861613172573
20
-16.4709631921383
30
0
41
1
10
42.294078365003
20
-16.4563504489578
30
0
41
1
10
42.3077457705477
20
-16.4280858342372
30
0
41
1
10
42.3134679634117
20
-16.414541490867
30
0
41
1
10
42.3218707399949
20
-16.389062427217
30
0
41
1
10
42.3245000000085
20
-16.3772185365104
30
0
41
1
10
42.3245000000091
20
-16.3675876053921
30
0
0
SPLINE
5
1E0
100
AcDbEntity
8
1
62
256
6
ByLayer
370
18
48
1
60
0
100
AcDbSpline
70
4
71
3
72
14
73
10
40
0
40
0
40
0
40
0
40
0.25
40
0.25
40
0.5
40
0.5
40
0.75
40
0.75
40
1
40
1
40
1
40
1
41
1
10
42.3245
20
18.6463193271823
30
0
41
1
10
42.3245
20
18.6493536764683
30
0
41
1
10
42.3220340114651
20
18.6547938153032
30
0
41
1
10
42.3136941357516
20
18.6685224069777
30
0
41
1
10
42.3077590882458
20
18.6769402543422
30
0
41
1
10
42.2939317352526
20
18.6951434737655
30
0
41
1
10
42.2858752775872
20
18.7051515681115
30
0
41
1
10
42.2685537467017
20
18.7258583546616
30
0
41
1
10
42.2592867142817
20
18.7365681993686
30
0
41
1
10
42.2495
20
18.7475864397169
30
0
0
LINE
5
75
100
AcDbEntity
8
1
62
256
6
ByLayer
370
18
48
1
60
0
100
AcDbLine
10
46.6755
20
-14.899495
30
0
11
51.9255
21
-14.899495
31
0
39
0
210
0
220
0
230
1
0
LINE
5
77
100
AcDbEntity
8
1
62
256
6
ByLayer
370
18
48
1
60
0
100
AcDbLine
10
46.4255
20
-6.899495
30
0
11
42.324484
21
-6.899495
31
0
39
0
210
0
220
0
230
1
0
LINE
5
78
100
AcDbEntity
8
1
62
256
6
ByLayer
370
18
48
1
60
0
100
AcDbLine
10
42.324484
20
-12.899495
30
0
11
46.4255
21
-12.899495
31
0
39
0
210
0
220
0
230
1
0
LINE
5
79
100
AcDbEntity
8
1
62
256
6
ByLayer
370
18
48
1
60
0
100
AcDbLine
10
46.6755
20
4.899495
30
0
11
51.9255
21
4.899495
31
0
39
0
210
0
220
0
230
1
0
LINE
5
7A
100
AcDbEntity
8
1
62
256
6
ByLayer
370
18
48
1
60
0
100
AcDbLine
10
51.9255
20
14.899495
30
0
11
46.6755
21
14.899495
31
0
39
0
210
0
220
0
230
1
0
LINE
5
7B
100
AcDbEntity
8
1
62
256
6
ByLayer
370
18
48
1
60
0
100
AcDbLine
10
51.9255
20
-4.899495
30
0
11
46.6755
21
-4.899495
31
0
39
0
210
0
220
0
230
1
0
LINE
5
7C
100
AcDbEntity
8
1
62
256
6
ByLayer
370
18
48
1
60
0
100
AcDbLine
10
41.521897
20
19.802603
30
0
11
41.3245
21
20
31
0
39
0
210
0
220
0
230
1
0
LINE
5
7D
100
AcDbEntity
8
1
62
256
6
ByLayer
370
18
48
1
60
0
100
AcDbLine
10
41.3245
20
-20
30
0
11
41.521897
21
-19.802603
31
0
39
0
210
0
220
0
230
1
0
LINE
5
7E
100
AcDbEntity
8
1
62
256
6
ByLayer
370
18
48
1
60
0
100
AcDbLine
10
41.3245
20
20
30
0
11
23.6
21
20
31
0
39
0
210
0
220
0
230
1
0
LINE
5
7F
100
AcDbEntity
8
1
62
256
6
ByLayer
370
18
48
1
60
0
100
AcDbLine
10
23.6
20
-20
30
0
11
41.3245
21
-20
31
0
39
0
210
0
220
0
230
1
0
LINE
5
80
100
AcDbEntity
8
1
62
256
6
ByLayer
370
18
48
1
60
0
100
AcDbLine
10
0
20
-24.7
30
0
11
0.3
21
-25
31
0
39
0
210
0
220
0
230
1
0
LINE
5
81
100
AcDbEntity
8
1
62
256
6
ByLayer
370
18
48
1
60
0
100
AcDbLine
10
0.3
20
25
30
0
11
0
21
24.7
31
0
39
0
210
0
220
0
230
1
0
LINE
5
82
100
AcDbEntity
8
1
62
256
6
ByLayer
370
18
48
1
60
0
100
AcDbLine
10
20
20
25
30
0
11
0.3
21
25
31
0
39
0
210
0
220
0
230
1
0
LINE
5
83
100
AcDbEntity
8
1
62
256
6
ByLayer
370
18
48
1
60
0
100
AcDbLine
10
0.3
20
-25
30
0
11
20
21
-25
31
0
39
0
210
0
220
0
230
1
0
LINE
5
84
100
AcDbEntity
8
1
62
256
6
ByLayer
370
18
48
1
60
0
100
AcDbLine
10
20.691505
20
22.264708
30
0
11
20
21
25
31
0
39
0
210
0
220
0
230
1
0
LINE
5
85
100
AcDbEntity
8
1
62
256
6
ByLayer
370
18
48
1
60
0
100
AcDbLine
10
20
20
-25
30
0
11
20.691505
21
-22.264708
31
0
39
0
210
0
220
0
230
1
0
LINE
5
86
100
AcDbEntity
8
SK1
62
256
6
ByLayer
370
18
48
1
60
0
100
AcDbLine
10
-0.092684
20
-17.570321
30
0
11
0
21
-17.570321
31
0
39
0
210
0
220
0
230
1
0
LINE
5
88
100
AcDbEntity
8
SK1
62
256
6
ByLayer
370
18
48
1
60
0
100
AcDbLine
10
0
20
17.570321
30
0
11
-0.092785
21
17.570321
31
0
39
0
210
0
220
0
230
1
0
LINE
5
89
100
AcDbEntity
8
1
62
256
6
ByLayer
370
18
48
1
60
0
100
AcDbLine
10
51.9255
20
14.899495
30
0
11
46.6755
21
14.899495
31
0
39
0
210
0
220
0
230
1
0
LINE
5
8A
100
AcDbEntity
8
1
62
256
6
ByLayer
370
18
48
1
60
0
100
AcDbLine
10
46.6755
20
4.899495
30
0
11
51.9255
21
4.899495
31
0
39
0
210
0
220
0
230
1
0
LINE
5
8B
100
AcDbEntity
8
1
62
256
6
ByLayer
370
18
48
1
60
0
100
AcDbLine
10
46.4255
20
12.899495
30
0
11
42.324484
21
12.899495
31
0
39
0
210
0
220
0
230
1
0
LINE
5
8C
100
AcDbEntity
8
1
62
256
6
ByLayer
370
18
48
1
60
0
100
AcDbLine
10
42.324484
20
6.899495
30
0
11
46.4255
21
6.899495
31
0
39
0
210
0
220
0
230
1
0
LINE
5
8D
100
AcDbEntity
8
1
62
256
6
ByLayer
370
18
48
1
60
0
100
AcDbLine
10
46.4255
20
12.899495
30
0
11
42.324484
21
12.899495
31
0
39
0
210
0
220
0
230
1
0
LINE
5
8E
100
AcDbEntity
8
1
62
256
6
ByLayer
370
18
48
1
60
0
100
AcDbLine
10
42.324484
20
6.899495
30
0
11
46.4255
21
6.899495
31
0
39
0
210
0
220
0
230
1
0
LINE
5
8F
100
AcDbEntity
8
1
62
256
6
ByLayer
370
13
48
1
60
0
100
AcDbLine
10
42.324383
20
12.285995
30
0
11
46.4255
21
12.285995
31
0
39
0
210
0
220
0
230
1
0
LINE
5
90
100
AcDbEntity
8
1
62
256
6
ByLayer
370
13
48
1
60
0
100
AcDbLine
10
42.324383
20
7.512995
30
0
11
46.4255
21
7.512995
31
0
39
0
210
0
220
0
230
1
0
LINE
5
91
100
AcDbEntity
8
1
62
256
6
ByLayer
370
18
48
1
60
0
100
AcDbLine
10
46.4255
20
10.187026
30
0
11
46.4255
21
6.899495
31
0
39
0
210
0
220
0
230
1
0
LINE
5
92
100
AcDbEntity
8
80
62
256
6
ByLayer
370
18
48
1
60
0
100
AcDbLine
10
0
20
0
30
0
11
-5
21
0
31
0
39
0
210
0
220
0
230
1
0
LINE
5
93
100
AcDbEntity
8
81
62
256
6
ByLayer
370
18
48
1
60
0
100
AcDbLine
10
42
20
0
30
0
11
47
21
0
31
0
39
0
210
0
220
0
230
1
0
LINE
5
94
100
AcDbEntity
8
4
62
256
6
ByLayer
370
18
48
0.05
60
0
100
AcDbLine
10
0
20
0
30
0
11
42
21
0
31
0
39
0
210
0
220
0
230
1
0
LINE
5
96
100
AcDbEntity
8
SK4
62
256
6
ByLayer
370
18
48
0.05
60
0
100
AcDbLine
10
-35
20
0
30
0
11
47
21
0
31
0
39
0
210
0
220
0
230
1
0
LINE
5
98
100
AcDbEntity
8
SK1
62
256
6
ByLayer
370
18
48
1
60
0
100
AcDbLine
10
-0.2
20
-6.078431
30
0
11
-0.2
21
-6.128539
31
0
39
0
210
0
220
0
230
1
0
LINE
5
99
100
AcDbEntity
8
SK1
62
256
6
ByLayer
370
18
48
1
60
0
100
AcDbLine
10
-0.2
20
6.128541
30
0
11
-0.2
21
6.078432
31
0
39
0
210
0
220
0
230
1
0
LINE
5
9A
100
AcDbEntity
8
SK1
62
256
6
ByLayer
370
18
48
1
60
0
100
AcDbLine
10
-1.99504
20
17.325244
30
0
11
-1.99504
21
17.320724
31
0
39
0
210
0
220
0
230
1
0
LINE
5
9B
100
AcDbEntity
8
SK1
62
256
6
ByLayer
370
18
48
1
60
0
100
AcDbLine
10
-1.99504
20
-17.320724
30
0
11
-1.99504
21
-17.325244
31
0
39
0
210
0
220
0
230
1
0
LINE
5
9C
100
AcDbEntity
8
SK1
62
256
6
ByLayer
370
18
48
1
60
0
100
AcDbLine
10
-0.394914
20
-17.359823
30
0
11
-0.394914
21
-17.360257
31
0
39
0
210
0
220
0
230
1
0
LINE
5
9D
100
AcDbEntity
8
SK1
62
256
6
ByLayer
370
18
48
1
60
0
100
AcDbLine
10
-0.394914
20
17.360257
30
0
11
-0.394914
21
17.359823
31
0
39
0
210
0
220
0
230
1
0
LINE
5
9E
100
AcDbEntity
8
SK1
62
256
6
ByLayer
370
13
48
1
60
0
100
AcDbLine
10
-1.307107
20
3.918083
30
0
11
-1.307107
21
-3.918083
31
0
39
0
210
0
220
0
230
1
0
LINE
5
9F
100
AcDbEntity
8
1
62
256
6
ByLayer
370
18
48
1
60
0
100
AcDbLine
10
42.3245
20
-18.853979
30
0
11
42.3245
21
-18.878084
31
0
39
0
210
0
220
0
230
1
0
LINE
5
A0
100
AcDbEntity
8
1
62
256
6
ByLayer
370
13
48
1
60
0
100
AcDbLine
10
8.105662
20
23.666502
30
0
11
8.105662
21
8.055848
31
0
39
0
210
0
220
0
230
1
0
LINE
5
A1
100
AcDbEntity
8
1
62
256
6
ByLayer
370
13
48
1
60
0
100
AcDbLine
10
8.538675
20
-7.529667
30
0
11
8.538675
21
-23.83913
31
0
39
0
210
0
220
0
230
1
0
LINE
5
A2
100
AcDbEntity
8
1
62
256
6
ByLayer
370
18
48
1
60
0
100
AcDbLine
10
42.3245
20
8.180085
30
0
11
42.3245
21
7.742143
31
0
39
0
210
0
220
0
230
1
0
LINE
5
A3
100
AcDbEntity
8
1
62
256
6
ByLayer
370
13
48
1
60
0
100
AcDbLine
10
41.6055
20
17.620083
30
0
11
41.6055
21
17.468992
31
0
39
0
210
0
220
0
230
1
0
LINE
5
A4
100
AcDbEntity
8
1
62
256
6
ByLayer
370
13
48
1
60
0
100
AcDbLine
10
42.2495
20
-19.04976
30
0
11
42.2495
21
-18.967827
31
0
39
0
210
0
220
0
230
1
0
LINE
5
A5
100
AcDbEntity
8
1
62
256
6
ByLayer
370
13
48
1
60
0
100
AcDbLine
10
20.691505
20
22.264708
30
0
11
20.691505
21
-22.264708
31
0
39
0
210
0
220
0
230
1
0
LINE
5
A6
100
AcDbEntity
8
1
62
256
6
ByLayer
370
13
48
1
60
0
100
AcDbLine
10
42.2495
20
18.402698
30
0
11
42.2495
21
18.654961
31
0
39
0
210
0
220
0
230
1
0
LINE
5
A7
100
AcDbEntity
8
1
62
256
6
ByLayer
370
13
48
1
60
0
100
AcDbLine
10
42.2495
20
-7.633583
30
0
11
42.2495
21
-4.571562
31
0
39
0
210
0
220
0
230
1
0
LINE
5
A8
100
AcDbEntity
8
1
62
256
6
ByLayer
370
13
48
1
60
0
100
AcDbLine
10
42.2495
20
4.571562
30
0
11
42.2495
21
7.633583
31
0
39
0
210
0
220
0
230
1
0
LINE
5
A9
100
AcDbEntity
8
1
62
256
6
ByLayer
370
18
48
1
60
0
100
AcDbLine
10
8.538675
20
-7.529667
30
0
11
11.461325
21
-7.529667
31
0
39
0
210
0
220
0
230
1
0
LINE
5
AA
100
AcDbEntity
8
1
62
256
6
ByLayer
370
18
48
1
60
0
100
AcDbLine
10
0
20
-24.7
30
0
11
0
21
24.7
31
0
39
0
210
0
220
0
230
1
0
LINE
5
AB
100
AcDbEntity
8
1
62
256
6
ByLayer
370
13
48
1
60
0
100
AcDbLine
10
42.2495
20
-1.891746
30
0
11
42.2495
21
1.891746
31
0
39
0
210
0
220
0
230
1
0
LINE
5
AC
100
AcDbEntity
8
1
62
256
6
ByLayer
370
13
48
1
60
0
100
AcDbLine
10
8.105662
20
-8.055848
30
0
11
8.105662
21
-23.666502
31
0
39
0
210
0
220
0
230
1
0
LINE
5
AD
100
AcDbEntity
8
1
62
256
6
ByLayer
370
13
48
1
60
0
100
AcDbLine
10
41.6055
20
-15.533307
30
0
11
41.6055
21
-15.759146
31
0
39
0
210
0
220
0
230
1
0
LINE
5
AE
100
AcDbEntity
8
1
62
256
6
ByLayer
370
18
48
1
60
0
100
AcDbLine
10
42.3245
20
18.853979
30
0
11
42.3245
21
18.646315
31
0
39
0
210
0
220
0
230
1
0
LINE
5
AF
100
AcDbEntity
8
1
62
256
6
ByLayer
370
18
48
1
60
0
100
AcDbLine
10
42.3245
20
17.79864
30
0
11
42.3245
21
17.721823
31
0
39
0
210
0
220
0
230
1
0
LINE
5
B0
100
AcDbEntity
8
1
62
256
6
ByLayer
370
13
48
1
60
0
100
AcDbLine
10
42.2495
20
-10.414628
30
0
11
42.2495
21
-8.614199
31
0
39
0
210
0
220
0
230
1
0
LINE
5
B1
100
AcDbEntity
8
1
62
256
6
ByLayer
370
13
48
1
60
0
100
AcDbLine
10
42.2495
20
8.614199
30
0
11
42.2495
21
10.414628
31
0
39
0
210
0
220
0
230
1
0
LINE
5
B2
100
AcDbEntity
8
1
62
256
6
ByLayer
370
18
48
1
60
0
100
AcDbLine
10
42.3245
20
-12.681014
30
0
11
42.3245
21
-13.994653
31
0
39
0
210
0
220
0
230
1
0
LINE
5
B3
100
AcDbEntity
8
1
62
256
6
ByLayer
370
18
48
1
60
0
100
AcDbLine
10
42.3245
20
15.385093
30
0
11
42.3245
21
15.236583
31
0
39
0
210
0
220
0
230
1
0
LINE
5
B4
100
AcDbEntity
8
1
62
256
6
ByLayer
370
13
48
1
60
0
100
AcDbLine
10
42.2495
20
-18.270596
30
0
11
42.2495
21
-17.926445
31
0
39
0
210
0
220
0
230
1
0
LINE
5
B5
100
AcDbEntity
8
1
62
256
6
ByLayer
370
18
48
1
60
0
100
AcDbLine
10
8.538675
20
23.83913
30
0
11
11.461325
21
23.83913
31
0
39
0
210
0
220
0
230
1
0
LINE
5
B6
100
AcDbEntity
8
1
62
256
6
ByLayer
370
18
48
1
60
0
100
AcDbLine
10
42.3245
20
13.994653
30
0
11
42.3245
21
12.681014
31
0
39
0
210
0
220
0
230
1
0
LINE
5
B7
100
AcDbEntity
8
1
62
256
6
ByLayer
370
13
48
1
60
0
100
AcDbLine
10
41.6055
20
-18.175685
30
0
11
41.6055
21
-18.296875
31
0
39
0
210
0
220
0
230
1
0
LINE
5
B8
100
AcDbEntity
8
1
62
256
6
ByLayer
370
13
48
1
60
0
100
AcDbLine
10
41.6055
20
3.782728
30
0
11
41.6055
21
1.680832
31
0
39
0
210
0
220
0
230
1
0
LINE
5
B9
100
AcDbEntity
8
1
62
256
6
ByLayer
370
13
48
1
60
0
100
AcDbLine
10
41.6055
20
-1.680832
30
0
11
41.6055
21
-3.782728
31
0
39
0
210
0
220
0
230
1
0
LINE
5
BA
100
AcDbEntity
8
1
62
256
6
ByLayer
370
13
48
1
60
0
100
AcDbLine
10
41.6055
20
16.782699
30
0
11
41.6055
21
16.597446
31
0
39
0
210
0
220
0
230
1
0
LINE
5
BB
100
AcDbEntity
8
1
62
256
6
ByLayer
370
13
48
1
60
0
100
AcDbLine
10
42.2495
20
-12.416012
30
0
11
42.2495
21
-11.090991
31
0
39
0
210
0
220
0
230
1
0
LINE
5
BC
100
AcDbEntity
8
1
62
256
6
ByLayer
370
13
48
1
60
0
100
AcDbLine
10
42.2495
20
11.090991
30
0
11
42.2495
21
12.416012
31
0
39
0
210
0
220
0
230
1
0
LINE
5
BD
100
AcDbEntity
8
1
62
256
6
ByLayer
370
18
48
1
60
0
100
AcDbLine
10
20
20
25
30
0
11
20
21
-25
31
0
39
0
210
0
220
0
230
1
0
LINE
5
BE
100
AcDbEntity
8
1
62
256
6
ByLayer
370
18
48
1
60
0
100
AcDbLine
10
42.3245
20
18.98093
30
0
11
42.3245
21
18.877899
31
0
39
0
210
0
220
0
230
1
0
LINE
5
BF
100
AcDbEntity
8
1
62
256
6
ByLayer
370
13
48
1
60
0
100
AcDbLine
10
41.6055
20
-19.163428
30
0
11
41.6055
21
-19.232584
31
0
39
0
210
0
220
0
230
1
0
LINE
5
C0
100
AcDbEntity
8
1
62
256
6
ByLayer
370
18
48
1
60
0
100
AcDbLine
10
42.3245
20
-13.994653
30
0
11
42.3245
21
-14.177598
31
0
39
0
210
0
220
0
230
1
0
LINE
5
C1
100
AcDbEntity
8
1
62
256
6
ByLayer
370
18
48
1
60
0
100
AcDbLine
10
42.3245
20
-17.066336
30
0
11
42.3245
21
-17.163763
31
0
39
0
210
0
220
0
230
1
0
LINE
5
C2
100
AcDbEntity
8
1
62
256
6
ByLayer
370
18
48
1
60
0
100
AcDbLine
10
42.3245
20
-15.385072
30
0
11
42.3245
21
-16.246743
31
0
39
0
210
0
220
0
230
1
0
LINE
5
C3
100
AcDbEntity
8
1
62
256
6
ByLayer
370
18
48
1
60
0
100
AcDbLine
10
42.3245
20
14.177598
30
0
11
42.3245
21
13.994653
31
0
39
0
210
0
220
0
230
1
0
LINE
5
C4
100
AcDbEntity
8
1
62
256
6
ByLayer
370
13
48
1
60
0
100
AcDbLine
10
11.461325
20
-7.529667
30
0
11
11.461325
21
-23.83913
31
0
39
0
210
0
220
0
230
1
0
LINE
5
C5
100
AcDbEntity
8
1
62
256
6
ByLayer
370
13
48
1
60
0
100
AcDbLine
10
42.2495
20
-17.75167
30
0
11
42.2495
21
-17.30746
31
0
39
0
210
0
220
0
230
1
0
LINE
5
C6
100
AcDbEntity
8
1
62
256
6
ByLayer
370
13
48
1
60
0
100
AcDbLine
10
41.6055
20
-18.736267
30
0
11
41.6055
21
-18.8304
31
0
39
0
210
0
220
0
230
1
0
LINE
5
C7
100
AcDbEntity
8
1
62
256
6
ByLayer
370
18
48
1
60
0
100
AcDbLine
10
42.3245
20
-17.721823
30
0
11
42.3245
21
-17.79864
31
0
39
0
210
0
220
0
230
1
0
LINE
5
C8
100
AcDbEntity
8
1
62
256
6
ByLayer
370
13
48
1
60
0
100
AcDbLine
10
42.2495
20
-18.654961
30
0
11
42.2495
21
-18.402698
31
0
39
0
210
0
220
0
230
1
0
LINE
5
C9
100
AcDbEntity
8
1
62
256
6
ByLayer
370
13
48
1
60
0
100
AcDbLine
10
42.2495
20
-17.085927
30
0
11
42.2495
21
-16.530049
31
0
39
0
210
0
220
0
230
1
0
LINE
5
CA
100
AcDbEntity
8
1
62
256
6
ByLayer
370
13
48
1
60
0
100
AcDbLine
10
23.6
20
20
30
0
11
23.6
21
-20
31
0
39
0
210
0
220
0
230
1
0
LINE
5
CB
100
AcDbEntity
8
1
62
256
6
ByLayer
370
18
48
1
60
0
100
AcDbLine
10
42.3245
20
16.246743
30
0
11
42.3245
21
15.385072
31
0
39
0
210
0
220
0
230
1
0
LINE
5
CC
100
AcDbEntity
8
1
62
256
6
ByLayer
370
18
48
1
60
0
100
AcDbLine
10
42.3245
20
17.066336
30
0
11
42.3245
21
16.367557
31
0
39
0
210
0
220
0
230
1
0
LINE
5
CD
100
AcDbEntity
8
1
62
256
6
ByLayer
370
18
48
1
60
0
100
AcDbLine
10
42.3245
20
18.605627
30
0
11
42.3245
21
18.289015
31
0
39
0
210
0
220
0
230
1
0
LINE
5
CE
100
AcDbEntity
8
1
62
256
6
ByLayer
370
13
48
1
60
0
100
AcDbLine
10
41.6055
20
19.511551
30
0
11
41.6055
21
19.466108
31
0
39
0
210
0
220
0
230
1
0
LINE
5
CF
100
AcDbEntity
8
1
62
256
6
ByLayer
370
13
48
1
60
0
100
AcDbLine
10
41.6055
20
11.019332
30
0
11
41.6055
21
10.568917
31
0
39
0
210
0
220
0
230
1
0
LINE
5
D0
100
AcDbEntity
8
1
62
256
6
ByLayer
370
13
48
1
60
0
100
AcDbLine
10
41.6055
20
-10.568917
30
0
11
41.6055
21
-11.019332
31
0
39
0
210
0
220
0
230
1
0
LINE
5
D1
100
AcDbEntity
8
1
62
256
6
ByLayer
370
18
48
1
60
0
100
AcDbLine
10
42.3245
20
-12.451792
30
0
11
42.3245
21
-12.680988
31
0
39
0
210
0
220
0
230
1
0
LINE
5
D2
100
AcDbEntity
8
1
62
256
6
ByLayer
370
18
48
1
60
0
100
AcDbLine
10
42.3245
20
7.742143
30
0
11
42.3245
21
3.63542
31
0
39
0
210
0
220
0
230
1
0
LINE
5
D3
100
AcDbEntity
8
1
62
256
6
ByLayer
370
18
48
1
60
0
100
AcDbLine
10
42.3245
20
-3.63542
30
0
11
42.3245
21
-7.742143
31
0
39
0
210
0
220
0
230
1
0
LINE
5
D4
100
AcDbEntity
8
1
62
256
6
ByLayer
370
13
48
1
60
0
100
AcDbLine
10
41.6055
20
15.759146
30
0
11
41.6055
21
15.533307
31
0
39
0
210
0
220
0
230
1
0
LINE
5
D5
100
AcDbEntity
8
1
62
256
6
ByLayer
370
13
48
1
60
0
100
AcDbLine
10
42.2495
20
-18.91297
30
0
11
42.2495
21
-18.747456
31
0
39
0
210
0
220
0
230
1
0
LINE
5
D6
100
AcDbEntity
8
1
62
256
6
ByLayer
370
18
48
1
60
0
100
AcDbLine
10
42.3245
20
15.236583
30
0
11
42.3245
21
14.177621
31
0
39
0
210
0
220
0
230
1
0
LINE
5
D7
100
AcDbEntity
8
1
62
256
6
ByLayer
370
18
48
1
60
0
100
AcDbLine
10
42.3245
20
18.988915
30
0
11
42.3245
21
18.98093
31
0
39
0
210
0
220
0
230
1
0
LINE
5
D8
100
AcDbEntity
8
1
62
256
6
ByLayer
370
13
48
1
60
0
100
AcDbLine
10
41.6055
20
14.510077
30
0
11
41.6055
21
14.233479
31
0
39
0
210
0
220
0
230
1
0
LINE
5
D9
100
AcDbEntity
8
1
62
256
6
ByLayer
370
13
48
1
60
0
100
AcDbLine
10
41.6055
20
-14.233479
30
0
11
41.6055
21
-14.510077
31
0
39
0
210
0
220
0
230
1
0
LINE
5
DA
100
AcDbEntity
8
1
62
256
6
ByLayer
370
18
48
1
60
0
100
AcDbLine
10
42.3245
20
-16.367557
30
0
11
42.3245
21
-17.066336
31
0
39
0
210
0
220
0
230
1
0
LINE
5
DB
100
AcDbEntity
8
1
62
256
6
ByLayer
370
18
48
1
60
0
100
AcDbLine
10
42.3245
20
-14.177621
30
0
11
42.3245
21
-15.236583
31
0
39
0
210
0
220
0
230
1
0
LINE
5
DC
100
AcDbEntity
8
1
62
256
6
ByLayer
370
13
48
1
60
0
100
AcDbLine
10
11.894338
20
-8.055848
30
0
11
11.894338
21
-23.666502
31
0
39
0
210
0
220
0
230
1
0
LINE
5
DD
100
AcDbEntity
8
1
62
256
6
ByLayer
370
13
48
1
60
0
100
AcDbLine
10
11.894338
20
23.666502
30
0
11
11.894338
21
8.055848
31
0
39
0
210
0
220
0
230
1
0
LINE
5
DE
100
AcDbEntity
8
1
62
256
6
ByLayer
370
13
48
1
60
0
100
AcDbLine
10
42.2495
20
17.30746
30
0
11
42.2495
21
17.75167
31
0
39
0
210
0
220
0
230
1
0
LINE
5
DF
100
AcDbEntity
8
1
62
256
6
ByLayer
370
18
48
1
60
0
100
AcDbLine
10
42.3245
20
3.635516
30
0
11
42.3245
21
2.374363
31
0
39
0
210
0
220
0
230
1
0
LINE
5
E0
100
AcDbEntity
8
1
62
256
6
ByLayer
370
13
48
1
60
0
100
AcDbLine
10
42.2495
20
15.570347
30
0
11
42.2495
21
16.255338
31
0
39
0
210
0
220
0
230
1
0
LINE
5
E1
100
AcDbEntity
8
1
62
256
6
ByLayer
370
18
48
1
60
0
100
AcDbLine
10
11.461325
20
7.529667
30
0
11
8.538675
21
7.529667
31
0
39
0
210
0
220
0
230
1
0
LINE
5
E2
100
AcDbEntity
8
1
62
256
6
ByLayer
370
13
48
1
60
0
100
AcDbLine
10
41.6055
20
19.232584
30
0
11
41.6055
21
19.163428
31
0
39
0
210
0
220
0
230
1
0
LINE
5
E3
100
AcDbEntity
8
1
62
256
6
ByLayer
370
13
48
1
60
0
100
AcDbLine
10
42.2495
20
18.747456
30
0
11
42.2495
21
18.91297
31
0
39
0
210
0
220
0
230
1
0
LINE
5
E4
100
AcDbEntity
8
1
62
256
6
ByLayer
370
13
48
1
60
0
100
AcDbLine
10
41.6055
20
-19.466108
30
0
11
41.6055
21
-19.511551
31
0
39
0
210
0
220
0
230
1
0
LINE
5
E5
100
AcDbEntity
8
1
62
256
6
ByLayer
370
13
48
1
60
0
100
AcDbLine
10
42.2495
20
-16.255338
30
0
11
42.2495
21
-15.570347
31
0
39
0
210
0
220
0
230
1
0
LINE
5
E6
100
AcDbEntity
8
1
62
256
6
ByLayer
370
18
48
1
60
0
100
AcDbLine
10
42.3245
20
-16.246743
30
0
11
42.3245
21
-16.367588
31
0
39
0
210
0
220
0
230
1
0
LINE
5
E7
100
AcDbEntity
8
1
62
256
6
ByLayer
370
13
48
1
60
0
100
AcDbLine
10
41.6055
20
8.373611
30
0
11
41.6055
21
7.714713
31
0
39
0
210
0
220
0
230
1
0
LINE
5
E8
100
AcDbEntity
8
1
62
256
6
ByLayer
370
13
48
1
60
0
100
AcDbLine
10
41.6055
20
-7.714713
30
0
11
41.6055
21
-8.373611
31
0
39
0
210
0
220
0
230
1
0
LINE
5
E9
100
AcDbEntity
8
1
62
256
6
ByLayer
370
18
48
1
60
0
100
AcDbLine
10
42.3245
20
18.878084
30
0
11
42.3245
21
18.853979
31
0
39
0
210
0
220
0
230
1
0
LINE
5
EA
100
AcDbEntity
8
1
62
256
6
ByLayer
370
18
48
1
60
0
100
AcDbLine
10
42.3245
20
-17.163684
30
0
11
42.3245
21
-17.721823
31
0
39
0
210
0
220
0
230
1
0
LINE
5
EB
100
AcDbEntity
8
1
62
256
6
ByLayer
370
18
48
1
60
0
100
AcDbLine
10
42.3245
20
18.230913
30
0
11
42.3245
21
17.798581
31
0
39
0
210
0
220
0
230
1
0
LINE
5
EC
100
AcDbEntity
8
1
62
256
6
ByLayer
370
18
48
1
60
0
100
AcDbLine
10
42.3245
20
-7.742143
30
0
11
42.3245
21
-8.180085
31
0
39
0
210
0
220
0
230
1
0
LINE
5
ED
100
AcDbEntity
8
1
62
256
6
ByLayer
370
13
48
1
60
0
100
AcDbLine
10
42.2495
20
14.391974
30
0
11
42.2495
21
15.232962
31
0
39
0
210
0
220
0
230
1
0
LINE
5
EE
100
AcDbEntity
8
1
62
256
6
ByLayer
370
13
48
1
60
0
100
AcDbLine
10
42.2495
20
-13.976775
30
0
11
42.2495
21
-12.935311
31
0
39
0
210
0
220
0
230
1
0
LINE
5
EF
100
AcDbEntity
8
1
62
256
6
ByLayer
370
18
48
1
60
0
100
AcDbLine
10
42.3245
20
10.775464
30
0
11
42.3245
21
10.475875
31
0
39
0
210
0
220
0
230
1
0
LINE
5
F0
100
AcDbEntity
8
1
62
256
6
ByLayer
370
13
48
1
60
0
100
AcDbLine
10
42.2495
20
18.967827
30
0
11
42.2495
21
19.04976
31
0
39
0
210
0
220
0
230
1
0
LINE
5
F1
100
AcDbEntity
8
1
62
256
6
ByLayer
370
18
48
1
60
0
100
AcDbLine
10
42.3245
20
18.646319
30
0
11
42.3245
21
18.605627
31
0
39
0
210
0
220
0
230
1
0
LINE
5
F2
100
AcDbEntity
8
1
62
256
6
ByLayer
370
13
48
1
60
0
100
AcDbLine
10
42.2495
20
16.530049
30
0
11
42.2495
21
17.085927
31
0
39
0
210
0
220
0
230
1
0
LINE
5
F3
100
AcDbEntity
8
1
62
256
6
ByLayer
370
13
48
1
60
0
100
AcDbLine
10
41.6055
20
18.8304
30
0
11
41.6055
21
18.736267
31
0
39
0
210
0
220
0
230
1
0
LINE
5
F4
100
AcDbEntity
8
1
62
256
6
ByLayer
370
18
48
1
60
0
100
AcDbLine
10
42.3245
20
-18.98093
30
0
11
42.3245
21
-18.988915
31
0
39
0
210
0
220
0
230
1
0
LINE
5
F5
100
AcDbEntity
8
1
62
256
6
ByLayer
370
18
48
1
60
0
100
AcDbLine
10
42.3245
20
-18.646315
30
0
11
42.3245
21
-18.853979
31
0
39
0
210
0
220
0
230
1
0
LINE
5
F6
100
AcDbEntity
8
1
62
256
6
ByLayer
370
18
48
1
60
0
100
AcDbLine
10
42.3245
20
17.721823
30
0
11
42.3245
21
17.163684
31
0
39
0
210
0
220
0
230
1
0
LINE
5
F7
100
AcDbEntity
8
1
62
256
6
ByLayer
370
18
48
1
60
0
100
AcDbLine
10
42.3245
20
12.680988
30
0
11
42.3245
21
12.451792
31
0
39
0
210
0
220
0
230
1
0
LINE
5
F8
100
AcDbEntity
8
1
62
256
6
ByLayer
370
18
48
1
60
0
100
AcDbLine
10
0.3
20
-25
30
0
11
0.3
21
25
31
0
39
0
210
0
220
0
230
1
0
LINE
5
F9
100
AcDbEntity
8
1
62
256
6
ByLayer
370
18
48
1
60
0
100
AcDbLine
10
42.3245
20
-17.798581
30
0
11
42.3245
21
-18.230913
31
0
39
0
210
0
220
0
230
1
0
LINE
5
FA
100
AcDbEntity
8
1
62
256
6
ByLayer
370
18
48
1
60
0
100
AcDbLine
10
42.3245
20
-18.605627
30
0
11
42.3245
21
-18.646319
31
0
39
0
210
0
220
0
230
1
0
LINE
5
FB
100
AcDbEntity
8
1
62
256
6
ByLayer
370
13
48
1
60
0
100
AcDbLine
10
11.461325
20
23.83913
30
0
11
11.461325
21
7.529667
31
0
39
0
210
0
220
0
230
1
0
LINE
5
FC
100
AcDbEntity
8
1
62
256
6
ByLayer
370
18
48
1
60
0
100
AcDbLine
10
42.3245
20
16.367588
30
0
11
42.3245
21
16.246743
31
0
39
0
210
0
220
0
230
1
0
LINE
5
FD
100
AcDbEntity
8
1
62
256
6
ByLayer
370
18
48
1
60
0
100
AcDbLine
10
11.461325
20
-23.83913
30
0
11
8.538675
21
-23.83913
31
0
39
0
210
0
220
0
230
1
0
LINE
5
FE
100
AcDbEntity
8
1
62
256
6
ByLayer
370
18
48
1
60
0
100
AcDbLine
10
42.3245
20
10.475875
30
0
11
42.3245
21
8.180021
31
0
39
0
210
0
220
0
230
1
0
LINE
5
FF
100
AcDbEntity
8
1
62
256
6
ByLayer
370
18
48
1
60
0
100
AcDbLine
10
42.3245
20
-8.180021
30
0
11
42.3245
21
-10.475875
31
0
39
0
210
0
220
0
230
1
0
LINE
5
100
100
AcDbEntity
8
1
62
256
6
ByLayer
370
13
48
1
60
0
100
AcDbLine
10
42.2495
20
12.935311
30
0
11
42.2495
21
13.976775
31
0
39
0
210
0
220
0
230
1
0
LINE
5
101
100
AcDbEntity
8
1
62
256
6
ByLayer
370
18
48
1
60
0
100
AcDbLine
10
42.3245
20
-2.374363
30
0
11
42.3245
21
-3.635516
31
0
39
0
210
0
220
0
230
1
0
LINE
5
102
100
AcDbEntity
8
1
62
256
6
ByLayer
370
18
48
1
60
0
100
AcDbLine
10
42.3245
20
-15.236583
30
0
11
42.3245
21
-15.385093
31
0
39
0
210
0
220
0
230
1
0
LINE
5
103
100
AcDbEntity
8
1
62
256
6
ByLayer
370
18
48
1
60
0
100
AcDbLine
10
42.3245
20
-18.230913
30
0
11
42.3245
21
-18.289024
31
0
39
0
210
0
220
0
230
1
0
LINE
5
104
100
AcDbEntity
8
1
62
256
6
ByLayer
370
18
48
1
60
0
100
AcDbLine
10
42.3245
20
2.374363
30
0
11
42.3245
21
-2.374363
31
0
39
0
210
0
220
0
230
1
0
LINE
5
105
100
AcDbEntity
8
1
62
256
6
ByLayer
370
13
48
1
60
0
100
AcDbLine
10
41.6055
20
-16.597446
30
0
11
41.6055
21
-16.782699
31
0
39
0
210
0
220
0
230
1
0
LINE
5
106
100
AcDbEntity
8
1
62
256
6
ByLayer
370
18
48
1
60
0
100
AcDbLine
10
42.3245
20
17.163763
30
0
11
42.3245
21
17.066336
31
0
39
0
210
0
220
0
230
1
0
LINE
5
107
100
AcDbEntity
8
1
62
256
6
ByLayer
370
18
48
1
60
0
100
AcDbLine
10
42.3245
20
-18.877899
30
0
11
42.3245
21
-18.98093
31
0
39
0
210
0
220
0
230
1
0
LINE
5
108
100
AcDbEntity
8
1
62
256
6
ByLayer
370
18
48
1
60
0
100
AcDbLine
10
42.3245
20
18.289024
30
0
11
42.3245
21
18.230913
31
0
39
0
210
0
220
0
230
1
0
LINE
5
109
100
AcDbEntity
8
1
62
256
6
ByLayer
370
18
48
1
60
0
100
AcDbLine
10
42.3245
20
-10.475875
30
0
11
42.3245
21
-10.775464
31
0
39
0
210
0
220
0
230
1
0
LINE
5
10A
100
AcDbEntity
8
1
62
256
6
ByLayer
370
13
48
1
60
0
100
AcDbLine
10
42.2495
20
-15.232962
30
0
11
42.2495
21
-14.391974
31
0
39
0
210
0
220
0
230
1
0
LINE
5
10B
100
AcDbEntity
8
1
62
256
6
ByLayer
370
18
48
1
60
0
100
AcDbLine
10
42.3245
20
12.451792
30
0
11
42.3245
21
10.77508
31
0
39
0
210
0
220
0
230
1
0
LINE
5
10C
100
AcDbEntity
8
1
62
256
6
ByLayer
370
18
48
1
60
0
100
AcDbLine
10
42.3245
20
-10.77508
30
0
11
42.3245
21
-12.451792
31
0
39
0
210
0
220
0
230
1
0
LINE
5
10D
100
AcDbEntity
8
1
62
256
6
ByLayer
370
13
48
1
60
0
100
AcDbLine
10
41.6055
20
18.296875
30
0
11
41.6055
21
18.175685
31
0
39
0
210
0
220
0
230
1
0
LINE
5
10E
100
AcDbEntity
8
1
62
256
6
ByLayer
370
13
48
1
60
0
100
AcDbLine
10
41.6055
20
-19.649908
30
0
11
41.6055
21
-19.672543
31
0
39
0
210
0
220
0
230
1
0
LINE
5
10F
100
AcDbEntity
8
1
62
256
6
ByLayer
370
13
48
1
60
0
100
AcDbLine
10
8.538675
20
23.83913
30
0
11
8.538675
21
7.529667
31
0
39
0
210
0
220
0
230
1
0
LINE
5
110
100
AcDbEntity
8
1
62
256
6
ByLayer
370
13
48
1
60
0
100
AcDbLine
10
41.6055
20
19.672543
30
0
11
41.6055
21
19.649908
31
0
39
0
210
0
220
0
230
1
0
LINE
5
111
100
AcDbEntity
8
1
62
256
6
ByLayer
370
18
48
1
60
0
100
AcDbLine
10
41.3245
20
20
30
0
11
41.3245
21
-20
31
0
39
0
210
0
220
0
230
1
0
LINE
5
112
100
AcDbEntity
8
1
62
256
6
ByLayer
370
13
48
1
60
0
100
AcDbLine
10
41.6055
20
-17.468992
30
0
11
41.6055
21
-17.620083
31
0
39
0
210
0
220
0
230
1
0
LINE
5
113
100
AcDbEntity
8
1
62
256
6
ByLayer
370
13
48
1
60
0
100
AcDbLine
10
42.2495
20
17.926445
30
0
11
42.2495
21
18.270596
31
0
39
0
210
0
220
0
230
1
0
LINE
5
114
100
AcDbEntity
8
1
62
256
6
ByLayer
370
13
48
1
60
0
100
AcDbLine
10
41.6055
20
12.970506
30
0
11
41.6055
21
12.625166
31
0
39
0
210
0
220
0
230
1
0
LINE
5
115
100
AcDbEntity
8
1
62
256
6
ByLayer
370
13
48
1
60
0
100
AcDbLine
10
41.6055
20
-12.625166
30
0
11
41.6055
21
-12.970506
31
0
39
0
210
0
220
0
230
1
0
LINE
5
116
100
AcDbEntity
8
1
62
256
6
ByLayer
370
18
48
1
60
0
100
AcDbLine
10
42.3245
20
-18.289015
30
0
11
42.3245
21
-18.605627
31
0
39
0
210
0
220
0
230
1
0
LINE
5
117
100
AcDbEntity
8
1
62
256
6
ByLayer
370
18
48
1
60
0
100
AcDbLine
10
52.5255
20
14.299495
30
0
11
52.5255
21
5.499495
31
0
39
0
210
0
220
0
230
1
0
LINE
5
118
100
AcDbEntity
8
1
62
256
6
ByLayer
370
13
48
1
60
0
100
AcDbLine
10
51.9255
20
14.899495
30
0
11
51.9255
21
4.899495
31
0
39
0
210
0
220
0
230
1
0
LINE
5
119
100
AcDbEntity
8
1
62
256
6
ByLayer
370
18
48
1
60
0
100
AcDbLine
10
52.5255
20
14.299495
30
0
11
52.5255
21
5.499495
31
0
39
0
210
0
220
0
230
1
0
LINE
5
11A
100
AcDbEntity
8
1
62
256
6
ByLayer
370
13
48
1
60
0
100
AcDbLine
10
46.4255
20
12.899495
30
0
11
46.4255
21
6.899495
31
0
39
0
210
0
220
0
230
1
0
LINE
5
11B
100
AcDbEntity
8
1
62
256
6
ByLayer
370
13
48
1
60
0
100
AcDbLine
10
51.9255
20
-4.899495
30
0
11
51.9255
21
-14.899495
31
0
39
0
210
0
220
0
230
1
0
LINE
5
11C
100
AcDbEntity
8
1
62
256
6
ByLayer
370
18
48
1
60
0
100
AcDbLine
10
52.5255
20
-14.299495
30
0
11
52.5255
21
-5.499495
31
0
39
0
210
0
220
0
230
1
0
LINE
5
11D
100
AcDbEntity
8
1
62
256
6
ByLayer
370
13
48
1
60
0
100
AcDbLine
10
46.4255
20
-6.899495
30
0
11
46.4255
21
-12.899495
31
0
39
0
210
0
220
0
230
1
0
LINE
5
11E
100
AcDbEntity
8
1
62
256
6
ByLayer
370
18
48
1
60
0
100
AcDbLine
10
46.6755
20
-14.899495
30
0
11
46.6755
21
-4.899495
31
0
39
0
210
0
220
0
230
1
0
LINE
5
11F
100
AcDbEntity
8
1
62
256
6
ByLayer
370
18
48
1
60
0
100
AcDbLine
10
46.6755
20
14.899495
30
0
11
46.6755
21
4.899495
31
0
39
0
210
0
220
0
230
1
0
LINE
5
120
100
AcDbEntity
8
1
62
256
6
ByLayer
370
13
48
1
60
0
100
AcDbLine
10
51.9255
20
14.899495
30
0
11
51.9255
21
4.899495
31
0
39
0
210
0
220
0
230
1
0
LINE
5
121
100
AcDbEntity
8
1
62
256
6
ByLayer
370
18
48
1
60
0
100
AcDbLine
10
46.6755
20
14.899495
30
0
11
46.6755
21
4.899495
31
0
39
0
210
0
220
0
230
1
0
LINE
5
122
100
AcDbEntity
8
1
62
256
6
ByLayer
370
13
48
1
60
0
100
AcDbLine
10
46.4255
20
12.899495
30
0
11
46.4255
21
6.899495
31
0
39
0
210
0
220
0
230
1
0
MTEXT
5
1E1
100
AcDbEntity
8
SK6
62
256
6
ByLayer
370
18
48
1
60
0
100
AcDbMText
10
0.875
20
34.125134
30
0
210
0
220
0
230
1
1
\W0.7272;C5-570-40-NG
40
3.5
41
0
44
1.084337
50
0
71
7
72
5
7
iso_b_vert
0
DIMENSION
5
1EE
100
AcDbEntity
8
SK2
62
256
6
ByLayer
370
13
48
1
60
0
100
AcDbDimension
2
DimnDraft3D1
10
42
20
-35.1
30
0
11
28.945967
21
-35.1
31
0
70
32
71
5
72
1
41
1
210
0
220
0
230
1
3
Standard
100
AcDbAlignedDimension
13
23.6
23
-21.5875
33
0
14
42
24
-21.5875
34
0
50
0
100
AcDbRotatedDimension
1001
ACAD
1000
DSTYLE
1002
{
1070
   279
1070
     0
1070
   172
1070
     1
1070
   173
1070
     1
1070
   340
1005
1E2
1070
   271
1070
     2
1070
   272
1070
     2
1070
    77
1070
     1
1070
    73
1070
     0
1070
   171
1070
     3
1070
   274
1070
     4
1070
   177
1070
     2
1070
   176
1070
     2
1070
   178
1070
     2
1070
    78
1070
     8
1070
    48
1040
-0.005
1070
    41
1041
3.5
1070
   147
1041
1.75
1070
    42
1041
1.5875
1070
    44
1041
2.0
1070
   140
1041
3.5
1070
   343
1005
0
1070
   344
1005
0
1002
}
0
DIMENSION
5
1F9
100
AcDbEntity
8
2
62
256
6
ByLayer
370
13
48
1
60
0
100
AcDbDimension
2
DimnDraft3D2
10
42
20
-45.1
30
0
11
16.708534
21
-45.1
31
0
70
32
71
5
72
1
41
1
210
0
220
0
230
1
3
Standard
100
AcDbAlignedDimension
13
0
23
-26.5875
33
0
14
42
24
-21.5875
34
0
50
0
100
AcDbRotatedDimension
1001
ACAD
1000
DSTYLE
1002
{
1070
   279
1070
     0
1070
   172
1070
     1
1070
   173
1070
     1
1070
   340
1005
1E2
1070
   271
1070
     2
1070
   272
1070
     2
1070
    77
1070
     1
1070
    73
1070
     0
1070
   171
1070
     3
1070
   274
1070
     4
1070
   177
1070
     2
1070
   176
1070
     2
1070
   178
1070
     2
1070
    78
1070
     8
1070
    48
1040
-0.005
1070
    41
1041
3.5
1070
   147
1041
1.75
1070
    42
1041
1.5875
1070
    44
1041
2.0
1070
   140
1041
3.5
1070
   343
1005
0
1070
   344
1005
0
1002
}
0
DIMENSION
5
204
100
AcDbEntity
8
SK2
62
256
6
ByLayer
370
13
48
1
60
0
100
AcDbDimension
2
DimnDraft3D3
10
-53.6
20
-25
30
0
11
-54.225
21
2.284534
31
0
70
33
71
5
72
1
41
1
210
0
220
0
230
1
3
Standard
100
AcDbAlignedDimension
13
-1.5875
23
25
33
0
14
-1.5875
24
-25
34
0
1001
ACAD
1000
DSTYLE
1002
{
1070
   279
1070
     0
1070
    74
1070
     0
1070
   173
1070
     1
1070
   340
1005
1E2
1070
   271
1070
     2
1070
   272
1070
     2
1070
    77
1070
     1
1070
    73
1070
     0
1070
   171
1070
     3
1070
   274
1070
     4
1070
   177
1070
     2
1070
   176
1070
     2
1070
   178
1070
     2
1070
    78
1070
     8
1070
    48
1040
-0.005
1070
    41
1041
3.5
1070
   147
1041
1.75
1070
    42
1041
1.5875
1070
    44
1041
2.0
1070
   140
1041
3.5
1070
   343
1005
0
1070
   344
1005
0
1002
}
0
DIMENSION
5
20F
100
AcDbEntity
8
SK2
62
256
6
ByLayer
370
13
48
1
60
0
100
AcDbDimension
2
DimnDraft3D4
10
64.888211
20
-20
30
0
11
60.263211
21
2.100267
31
0
70
33
71
5
72
1
41
1
210
0
220
0
230
1
3
Standard
100
AcDbAlignedDimension
13
43.5875
23
20
33
0
14
43.5875
24
-20
34
0
1001
ACAD
1000
DSTYLE
1002
{
1070
   279
1070
     0
1070
    74
1070
     0
1070
   173
1070
     1
1070
   340
1005
1E2
1070
   271
1070
     2
1070
   272
1070
     2
1070
    77
1070
     1
1070
    73
1070
     0
1070
   171
1070
     3
1070
   274
1070
     4
1070
   177
1070
     2
1070
   176
1070
     2
1070
   178
1070
     2
1070
    78
1070
     8
1070
    48
1040
-0.005
1070
    41
1041
3.5
1070
   147
1041
1.75
1070
    42
1041
1.5875
1070
    44
1041
2.0
1070
   140
1041
3.5
1070
   343
1005
0
1070
   344
1005
0
1002
}
0
ENDSEC
0
SECTION
2
OBJECTS
0
DICTIONARY
5
27a
330
0
100
AcDbDictionary
280
0
281
1
3
ACAD_GROUP
350
27b
3
ACAD_MLINESTYLE
350
27c
0
DICTIONARY
5
27b
330
0
100
AcDbDictionary
280
0
281
1
0
DICTIONARY
5
27c
330
0
100
AcDbDictionary
280
0
281
1
3
Standard
350
18
0
MLINESTYLE
5
18
330
27c
100
AcDbMlineStyle
2
Standard
70
0
3

62
256
51
90
52
90
71
2
49
-0.5
62
256
6
ByLayer
49
0.5
62
256
6
ByLayer
0
RASTERVARIABLES
5
268
330

100
AcDbRasterVariables
90
0
70
1
71
1
72
1
0
ENDSEC
0
EOF
