0
SECTION
2
HEADER
9
$ACADVER
1
AC1015
9
$DWGCODEPAGE
3
ANSI_1252
9
$HANDSEED
5
24b
9
$ANGBASE
50
0
9
$ANGDIR
70
0
9
$ATTMODE
70
1
9
$AUNITS
70
0
9
$AUPREC
70
0
9
$CECOLOR
62
256
9
$CELTSCALE
40
1
9
$CELTYPE
6
ByLayer
9
$CELWEIGHT
370
18
9
$CLAYER
8
0
9
$CMLJUST
70
0
9
$CMLSCALE
40
1
9
$CMLSTYLE
2
Standard
9
$DIMSTYLE
2
Standard
9
$TEXTSIZE
40
0.2
9
$TEXTSTYLE
7
Standard
9
$LUNITS
70
2
9
$LUPREC
70
4
9
$EXTNAMES
290
1
9
$INSUNITS
70
4
9
$LTSCALE
40
1
9
$LWDISPLAY
290
1
9
$PDMODE
70
0
9
$PDSIZE
40
0
9
$PLINEGEN
70
0
0
ENDSEC
0
SECTION
2
CLASSES
0
CLASS
1
RASTERVARIABLES
2
AcDbRasterVariables
3
ISM
90
0
280
0
281
0
0
ENDSEC
0
SECTION
2
TABLES
0
TABLE
2
VPORT
5
241
100
AcDbSymbolTable
0
VPORT
5
1
100
AcDbSymbolTableRecord
100
AcDbViewportTableRecord
2
*Active
70
0
10
0
20
0
11
1
21
1
12
-1
22
1
13
0
23
0
14
0.5
24
0.5
15
10
25
10
16
0
26
0
36
1
17
0
27
0
37
0
0
ENDTAB
0
TABLE
2
LTYPE
5
242
100
AcDbSymbolTable
0
LTYPE
5
14
100
AcDbSymbolTableRecord
100
AcDbLinetypeTableRecord
70
0
2
ByBlock
3

72
65
73
0
40
0
0
LTYPE
5
15
100
AcDbSymbolTableRecord
100
AcDbLinetypeTableRecord
70
0
2
ByLayer
3

72
65
73
0
40
0
0
LTYPE
5
16
100
AcDbSymbolTableRecord
100
AcDbLinetypeTableRecord
70
0
2
CONTINUOUS
3
Solid line
72
65
73
0
40
0
0
LTYPE
5
6A
100
AcDbSymbolTableRecord
100
AcDbLinetypeTableRecord
70
0
2
CENTER
3
____ _ ____ _ ____ _ ____
72
65
73
4
40
47.5
49
22
74
0
49
-8.5
74
0
49
8.5
74
0
49
-8.5
74
0
0
LTYPE
5
6B
100
AcDbSymbolTableRecord
100
AcDbLinetypeTableRecord
70
0
2
DASHED
3
__ __ __ __ __ __ __ __ __
72
65
73
2
40
25.72
49
12.86
74
0
49
-12.86
74
0
0
ENDTAB
0
TABLE
2
LAYER
5
243
100
AcDbSymbolTable
0
LAYER
5
10
100
AcDbSymbolTableRecord
100
AcDbLayerTableRecord
2
0
70
0
62
7
6
CONTINUOUS
290
1
370
-3
390
0
0
LAYER
5
6D
100
AcDbSymbolTableRecord
100
AcDbLayerTableRecord
2
80
70
0
62
-6
6
CONTINUOUS
290
1
370
-3
390
0
0
LAYER
5
6F
100
AcDbSymbolTableRecord
100
AcDbLayerTableRecord
2
81
70
0
62
-3
6
CONTINUOUS
290
1
370
-3
390
0
0
LAYER
5
72
100
AcDbSymbolTableRecord
100
AcDbLayerTableRecord
2
4
70
0
62
-2
6
CENTER
290
1
370
-3
390
0
0
LAYER
5
77
100
AcDbSymbolTableRecord
100
AcDbLayerTableRecord
2
1
70
0
62
4
6
CONTINUOUS
290
1
370
-3
390
0
0
LAYER
5
198
100
AcDbSymbolTableRecord
100
AcDbLayerTableRecord
2
2
70
0
62
7
6
CONTINUOUS
290
1
370
-3
390
0
0
LAYER
5
22d
100
AcDbSymbolTableRecord
100
AcDbLayerTableRecord
2
SK4
70
0
62
2
6
CENTER
290
1
370
-3
390
0
0
LAYER
5
22e
100
AcDbSymbolTableRecord
100
AcDbLayerTableRecord
2
SK1
70
0
62
4
6
CONTINUOUS
290
1
370
-3
390
0
0
LAYER
5
22f
100
AcDbSymbolTableRecord
100
AcDbLayerTableRecord
2
SK6
70
0
62
5
6
CONTINUOUS
290
1
370
-3
390
0
0
LAYER
5
230
100
AcDbSymbolTableRecord
100
AcDbLayerTableRecord
2
SK2
70
0
62
7
6
CONTINUOUS
290
1
370
-3
390
0
0
ENDTAB
0
TABLE
2
STYLE
5
244
100
AcDbSymbolTable
0
STYLE
5
11
100
AcDbSymbolTableRecord
100
AcDbTextStyleTableRecord
2
Standard
3
txt
70
0
71
0
40
0
41
1
42
0
50
0
0
STYLE
5
193
100
AcDbSymbolTableRecord
100
AcDbTextStyleTableRecord
2
iso_b_vert
3
simplex.shx
70
0
71
0
40
0
41
1
42
0
50
0
0
STYLE
5
194
100
AcDbSymbolTableRecord
100
AcDbTextStyleTableRecord
2
DWGDirectTextStyle
3
simplex
70
0
71
0
40
0
41
1
42
0
50
0
0
ENDTAB
0
TABLE
2
DIMSTYLE
5
245
100
AcDbSymbolTable
100
AcDbDimStyleTable
0
DIMSTYLE
105
27
100
AcDbSymbolTableRecord
100
AcDbDimStyleTableRecord
2
Standard
70
0
3
<>
41
0.18
42
0.0625
44
0.18
140
0.18
147
0.09
73
0
74
0
77
1
271
2
275
0
278
52
280
0
340
11
0
ENDTAB
0
TABLE
2
VIEW
5
246
100
AcDbSymbolTable
0
ENDTAB
0
TABLE
2
UCS
5
247
100
AcDbSymbolTable
0
ENDTAB
0
TABLE
2
APPID
5
248
100
AcDbSymbolTable
0
APPID
5
12
100
AcDbSymbolTableRecord
100
AcDbRegAppTableRecord
2
ACAD
70
0
0
ENDTAB
0
TABLE
2
BLOCK_RECORD
5
249
100
AcDbSymbolTable
0
BLOCK_RECORD
5
1F
100
AcDbSymbolTableRecord
100
AcDbBlockTableRecord
2
*Model_Space
340
0
70
0
0
BLOCK_RECORD
5
1B
100
AcDbSymbolTableRecord
100
AcDbBlockTableRecord
2
*Paper_Space
340
0
70
0
0
BLOCK_RECORD
5
23
100
AcDbSymbolTableRecord
100
AcDbBlockTableRecord
2
*Paper_Space0
340
0
70
0
0
BLOCK_RECORD
5
196
100
AcDbSymbolTableRecord
100
AcDbBlockTableRecord
2
DimnDraft3D1
340
0
70
0
0
BLOCK_RECORD
5
1A1
100
AcDbSymbolTableRecord
100
AcDbBlockTableRecord
2
DimnDraft3D22
340
0
70
0
0
BLOCK_RECORD
5
1AD
100
AcDbSymbolTableRecord
100
AcDbBlockTableRecord
2
DimnDraft3D3
340
0
70
0
0
BLOCK_RECORD
5
1B7
100
AcDbSymbolTableRecord
100
AcDbBlockTableRecord
2
DimnDraft3D44
340
0
70
0
0
BLOCK_RECORD
5
1C1
100
AcDbSymbolTableRecord
100
AcDbBlockTableRecord
2
DimnDraft3D5
340
0
70
0
0
BLOCK_RECORD
5
1C9
100
AcDbSymbolTableRecord
100
AcDbBlockTableRecord
2
DimnDraft3D6
340
0
70
0
0
ENDTAB
0
ENDSEC
0
SECTION
2
BLOCKS
0
BLOCK
5
20
100
AcDbEntity
8
0
100
AcDbBlockBegin
2
*Model_Space
70
0
10
0
20
0
30
0
3
*Model_Space
0
ENDBLK
5
21
100
AcDbEntity
8
0
100
AcDbBlockEnd
0
BLOCK
5
1C
100
AcDbEntity
8
0
100
AcDbBlockBegin
2
*Paper_Space
70
0
10
0
20
0
30
0
3
*Paper_Space
0
ENDBLK
5
1D
100
AcDbEntity
8
0
100
AcDbBlockEnd
0
BLOCK
5
24
100
AcDbEntity
8
0
100
AcDbBlockBegin
2
*Paper_Space0
70
0
10
0
20
0
30
0
3
*Paper_Space0
0
ENDBLK
5
25
100
AcDbEntity
8
0
100
AcDbBlockEnd
0
BLOCK
5
19E
100
AcDbEntity
8
0
100
AcDbBlockBegin
2
DimnDraft3D1
70
0
10
0
20
0
30
0
3
DimnDraft3D1
0
MTEXT
5
197
100
AcDbEntity
8
2
62
256
6
ByLayer
370
13
48
1
60
0
100
AcDbMText
10
141.710658
20
54.451765
30
0
210
0
220
0
230
1
1
\W0.7138;288
40
3.175
41
0
44
1.084337
50
0
71
7
72
5
7
iso_b_vert
0
LINE
5
199
100
AcDbEntity
8
2
62
256
6
ByLayer
370
13
48
1
60
0
100
AcDbLine
10
0
20
1.5875
30
0
11
0
21
56.833015
31
0
39
0
210
0
220
0
230
1
0
LINE
5
19A
100
AcDbEntity
8
2
62
256
6
ByLayer
370
13
48
1
60
0
100
AcDbLine
10
288
20
1.5875
30
0
11
288
21
56.833015
31
0
39
0
210
0
220
0
230
1
0
LINE
5
19B
100
AcDbEntity
8
2
62
256
6
ByLayer
370
13
48
1
60
0
100
AcDbLine
10
0
20
53.658015
30
0
11
288
21
53.658015
31
0
39
0
210
0
220
0
230
1
0
SOLID
5
19C
100
AcDbEntity
8
2
62
256
6
ByLayer
370
13
48
1
60
0
100
AcDbTrace
10
0
20
53.658015
30
0
11
3.174998
21
54.076012
31
0
12
3.175002
22
53.240019
32
0
13
0
23
53.658015
33
0
39
0
210
0
220
0
230
1
0
SOLID
5
19D
100
AcDbEntity
8
2
62
256
6
ByLayer
370
13
48
1
60
0
100
AcDbTrace
10
288
20
53.658015
30
0
11
284.825002
21
53.240019
31
0
12
284.824998
22
54.076012
32
0
13
288
23
53.658015
33
0
39
0
210
0
220
0
230
1
0
ENDBLK
5
19F
100
AcDbEntity
8
0
100
AcDbBlockEnd
0
BLOCK
5
1A2
100
AcDbEntity
8
0
100
AcDbBlockBegin
2
DimnDraft3D22
70
0
10
0
20
0
30
0
3
DimnDraft3D22
0
LINE
5
1A4
100
AcDbEntity
8
SK2
62
256
6
ByLayer
370
25
48
1
60
0
100
AcDbLine
10
-1.2875
20
-25
30
0
11
-49.690474
21
-25
31
0
39
0
210
0
220
0
230
1
0
LINE
5
1A6
100
AcDbEntity
8
SK2
62
256
6
ByLayer
370
25
48
1
60
0
100
AcDbLine
10
-1.2875
20
25
30
0
11
-49.690474
21
25
31
0
39
0
210
0
220
0
230
1
0
LINE
5
1A7
100
AcDbEntity
8
SK2
62
256
6
ByLayer
370
25
48
1
60
0
100
AcDbLine
10
-46.515474
20
-25
30
0
11
-46.515474
21
25
31
0
39
0
210
0
220
0
230
1
0
SOLID
5
1A8
100
AcDbEntity
8
SK2
62
256
6
ByLayer
370
25
48
1
60
0
100
AcDbTrace
10
-46.515474
20
-25
30
0
11
-46.93347
21
-21.825002
31
0
12
-46.097477
22
-21.824998
32
0
13
-46.515474
23
-25
33
0
39
0
210
0
220
0
230
1
0
SOLID
5
1A9
100
AcDbEntity
8
SK2
62
256
6
ByLayer
370
25
48
1
60
0
100
AcDbTrace
10
-46.515474
20
25
30
0
11
-46.097477
21
21.825002
31
0
12
-46.93347
22
21.824998
32
0
13
-46.515474
23
25
33
0
39
0
210
0
220
0
230
1
0
MTEXT
5
1AA
100
AcDbEntity
8
SK2
62
256
6
ByLayer
370
13
48
1
60
0
100
AcDbMText
10
-48.102974
20
-4.25309
30
0
210
0
220
0
230
1
1
%%c
40
3.175
41
0
44
1.084337
50
90
71
7
72
5
7
iso_b_vert
0
MTEXT
5
1AB
100
AcDbEntity
8
SK2
62
256
6
ByLayer
370
13
48
1
60
0
100
AcDbMText
10
-48.102974
20
3.659605
30
0
210
0
220
0
230
1
1
\W0.6740;50
40
3.175
41
0
44
1.084337
50
90
71
7
72
5
7
iso_b_vert
0
ENDBLK
5
1A3
100
AcDbEntity
8
0
100
AcDbBlockEnd
0
BLOCK
5
1B4
100
AcDbEntity
8
0
100
AcDbBlockBegin
2
DimnDraft3D3
70
0
10
0
20
0
30
0
3
DimnDraft3D3
0
MTEXT
5
1AE
100
AcDbEntity
8
SK2
62
256
6
ByLayer
370
13
48
1
60
0
100
AcDbMText
10
8.897105
20
-34.762398
30
0
210
0
220
0
230
1
1
\W0.6740;20
40
3.175
41
0
44
1.084337
50
0
71
7
72
5
7
iso_b_vert
0
LINE
5
1AF
100
AcDbEntity
8
SK2
62
256
6
ByLayer
370
13
48
1
60
0
100
AcDbLine
10
0
20
-26.2875
30
0
11
0
21
-38.731148
31
0
39
0
210
0
220
0
230
1
0
LINE
5
1B0
100
AcDbEntity
8
SK2
62
256
6
ByLayer
370
13
48
1
60
0
100
AcDbLine
10
20
20
-26.5875
30
0
11
20
21
-38.731148
31
0
39
0
210
0
220
0
230
1
0
LINE
5
1B1
100
AcDbEntity
8
SK2
62
256
6
ByLayer
370
13
48
1
60
0
100
AcDbLine
10
0
20
-35.556148
30
0
11
20
21
-35.556148
31
0
39
0
210
0
220
0
230
1
0
SOLID
5
1B2
100
AcDbEntity
8
SK2
62
256
6
ByLayer
370
13
48
1
60
0
100
AcDbTrace
10
0
20
-35.556148
30
0
11
3.174998
21
-35.138152
31
0
12
3.175002
22
-35.974145
32
0
13
0
23
-35.556148
33
0
39
0
210
0
220
0
230
1
0
SOLID
5
1B3
100
AcDbEntity
8
SK2
62
256
6
ByLayer
370
13
48
1
60
0
100
AcDbTrace
10
20
20
-35.556148
30
0
11
16.825002
21
-35.974145
31
0
12
16.824998
22
-35.138152
32
0
13
20
23
-35.556148
33
0
39
0
210
0
220
0
230
1
0
ENDBLK
5
1B5
100
AcDbEntity
8
0
100
AcDbBlockEnd
0
BLOCK
5
1B8
100
AcDbEntity
8
0
100
AcDbBlockBegin
2
DimnDraft3D44
70
0
10
0
20
0
30
0
3
DimnDraft3D44
0
LINE
5
1BA
100
AcDbEntity
8
SK2
62
256
6
ByLayer
370
25
48
1
60
0
100
AcDbLine
10
288
20
-1.5875
30
0
11
288
21
-38.999789
31
0
39
0
210
0
220
0
230
1
0
LINE
5
1BB
100
AcDbEntity
8
SK2
62
256
6
ByLayer
370
25
48
1
60
0
100
AcDbLine
10
24.409054
20
-21.5875
30
0
11
24.409054
21
-38.999789
31
0
39
0
210
0
220
0
230
1
0
LINE
5
1BC
100
AcDbEntity
8
SK2
62
256
6
ByLayer
370
25
48
1
60
0
100
AcDbLine
10
288
20
-35.824789
30
0
11
24.409054
21
-35.824789
31
0
39
0
210
0
220
0
230
1
0
SOLID
5
1BD
100
AcDbEntity
8
SK2
62
256
6
ByLayer
370
25
48
1
60
0
100
AcDbTrace
10
288
20
-35.824789
30
0
11
284.825002
21
-36.242786
31
0
12
284.824998
22
-35.406793
32
0
13
288
23
-35.824789
33
0
39
0
210
0
220
0
230
1
0
SOLID
5
1BE
100
AcDbEntity
8
SK2
62
256
6
ByLayer
370
25
48
1
60
0
100
AcDbTrace
10
24.409054
20
-35.824789
30
0
11
27.584052
21
-35.406793
31
0
12
27.584055
22
-36.242786
32
0
13
24.409054
23
-35.824789
33
0
39
0
210
0
220
0
230
1
0
MTEXT
5
1BF
100
AcDbEntity
8
SK2
62
256
6
ByLayer
370
13
48
1
60
0
100
AcDbMText
10
152.168935
20
-35.031039
30
0
210
0
220
0
230
1
1
\W0.7317;263,6
40
3.175
41
0
44
1.084337
50
0
71
7
72
5
7
iso_b_vert
0
ENDBLK
5
1B9
100
AcDbEntity
8
0
100
AcDbBlockEnd
0
BLOCK
5
1C6
100
AcDbEntity
8
0
100
AcDbBlockBegin
2
DimnDraft3D5
70
0
10
0
20
0
30
0
3
DimnDraft3D5
0
MTEXT
5
1C2
100
AcDbEntity
8
SK2
62
256
6
ByLayer
370
13
48
1
60
0
100
AcDbMText
10
37.118642
20
35.629077
30
0
210
0
220
0
230
1
1
\W0.6380;4
40
3.175
41
0
44
1.084337
50
39.8171381333531
71
7
72
5
7
iso_b_vert
0
MTEXT
5
1C3
100
AcDbEntity
8
SK2
62
256
6
ByLayer
370
13
48
1
60
0
100
AcDbMText
10
33.941925
20
32.980725
30
0
210
0
220
0
230
1
1
\W0.6380;R
40
3.175
41
0
44
1.084337
50
39.8171381333531
71
7
72
5
7
iso_b_vert
0
LINE
5
1C4
100
AcDbEntity
8
SK2
62
256
6
ByLayer
370
13
48
1
60
0
100
AcDbLine
10
21.336686
20
21.438642
30
0
11
38.364937
21
35.634677
31
0
39
0
210
0
220
0
230
1
0
SOLID
5
1C5
100
AcDbEntity
8
SK2
62
256
6
ByLayer
370
13
48
1
60
0
100
AcDbTrace
10
21.336686
20
21.438642
30
0
11
23.507717
21
23.792779
31
0
12
24.043039
22
23.150661
32
0
13
21.336686
23
21.438642
33
0
39
0
210
0
220
0
230
1
0
ENDBLK
5
1C7
100
AcDbEntity
8
0
100
AcDbBlockEnd
0
BLOCK
5
1D1
100
AcDbEntity
8
0
100
AcDbBlockBegin
2
DimnDraft3D6
70
0
10
0
20
0
30
0
3
DimnDraft3D6
0
MTEXT
5
1CA
100
AcDbEntity
8
SK2
62
256
6
ByLayer
370
13
48
1
60
0
100
AcDbMText
10
312.875105
20
31.383212
30
0
210
0
220
0
230
1
1
%%c
40
3.175
41
0
44
1.084337
50
90
71
7
72
5
7
iso_b_vert
0
MTEXT
5
1CB
100
AcDbEntity
8
SK2
62
256
6
ByLayer
370
13
48
1
60
0
100
AcDbMText
10
312.875105
20
39.295907
30
0
210
0
220
0
230
1
1
\W0.7361;40
40
3.175
41
0
44
1.084337
50
90
71
7
72
5
7
iso_b_vert
0
LINE
5
1CC
100
AcDbEntity
8
SK2
62
256
6
ByLayer
370
13
48
1
60
0
100
AcDbLine
10
287.2875
20
20
30
0
11
317.637605
21
20
31
0
39
0
210
0
220
0
230
1
0
LINE
5
1CD
100
AcDbEntity
8
SK2
62
256
6
ByLayer
370
13
48
1
60
0
100
AcDbLine
10
287.2875
20
-20
30
0
11
317.637605
21
-20
31
0
39
0
210
0
220
0
230
1
0
LINE
5
1CE
100
AcDbEntity
8
SK2
62
256
6
ByLayer
370
13
48
1
60
0
100
AcDbLine
10
314.462605
20
-20
30
0
11
314.462605
21
42.629657
31
0
39
0
210
0
220
0
230
1
0
SOLID
5
1CF
100
AcDbEntity
8
SK2
62
256
6
ByLayer
370
13
48
1
60
0
100
AcDbTrace
10
314.462605
20
20
30
0
11
314.880601
21
16.825002
31
0
12
314.044608
22
16.824998
32
0
13
314.462605
23
20
33
0
39
0
210
0
220
0
230
1
0
SOLID
5
1D0
100
AcDbEntity
8
SK2
62
256
6
ByLayer
370
13
48
1
60
0
100
AcDbTrace
10
314.462605
20
-20
30
0
11
314.044608
21
-16.825002
31
0
12
314.880601
22
-16.824998
32
0
13
314.462605
23
-20
33
0
39
0
210
0
220
0
230
1
0
ENDBLK
5
1D2
100
AcDbEntity
8
0
100
AcDbBlockEnd
0
ENDSEC
0
SECTION
2
ENTITIES
0
ARC
5
105
100
AcDbEntity
8
1
62
256
6
ByLayer
370
18
48
1
60
0
100
AcDbCircle
39
0
10
286.3
20
-19.7
30
0
40
0.3
210
0
220
0
230
1
100
AcDbArc
50
180
51
270
0
ARC
5
106
100
AcDbEntity
8
1
62
256
6
ByLayer
370
18
48
1
60
0
100
AcDbCircle
39
0
10
286.3
20
19.7
30
0
40
0.3
210
0
220
0
230
1
100
AcDbArc
50
90
51
180
0
ARC
5
107
100
AcDbEntity
8
1
62
256
6
ByLayer
370
18
48
1
60
0
100
AcDbCircle
39
0
10
-24.409054
20
24
30
0
40
4
210
0
220
0
230
-1
100
AcDbArc
50
270
51
345
0
ARC
5
108
100
AcDbEntity
8
1
62
256
6
ByLayer
370
18
48
1
60
0
100
AcDbCircle
39
0
10
-24.409054
20
-24
30
0
40
4
210
0
220
0
230
-1
100
AcDbArc
50
15
51
90
0
ARC
5
109
100
AcDbEntity
8
1
62
256
6
ByLayer
370
18
48
1
60
0
100
AcDbCircle
39
0
10
285.7
20
-19.7
30
0
40
0.3
210
0
220
0
230
1
100
AcDbArc
50
270
51
0
0
ARC
5
10A
100
AcDbEntity
8
1
62
256
6
ByLayer
370
18
48
1
60
0
100
AcDbCircle
39
0
10
285.7
20
19.7
30
0
40
0.3
210
0
220
0
230
1
100
AcDbArc
50
0
51
90
0
CIRCLE
5
10B
100
AcDbEntity
8
1
62
256
6
ByLayer
370
18
48
1
60
0
100
AcDbCircle
10
280
20
0
30
0
40
1
39
0
210
0
220
0
230
1
0
ELLIPSE
5
10C
100
AcDbEntity
8
1
62
256
6
ByLayer
370
18
48
1
60
0
100
AcDbEllipse
10
-1.056258
20
0
30
0
11
11.7092723497275
21
24.6771864409377
31
0
210
0
220
0
230
1
40
0.341999
41
-1.08183270048919
42
-0.167213071909056
0
ELLIPSE
5
10D
100
AcDbEntity
8
1
62
256
6
ByLayer
370
18
48
1
60
0
100
AcDbEllipse
10
21.056258
20
0
30
0
11
-11.7092723497272
21
24.6771864409374
31
0
210
0
220
0
230
1
40
0.341999
41
0.167213071909059
42
1.0818327004892
0
ELLIPSE
5
10E
100
AcDbEntity
8
1
62
256
6
ByLayer
370
18
48
1
60
0
100
AcDbEllipse
10
-1.056258
20
0
30
0
11
-11.7092723497279
21
24.6771864409383
31
0
210
0
220
0
230
1
40
0.341999
41
-2.97437958168074
42
-2.05975995310062
0
ELLIPSE
5
10F
100
AcDbEntity
8
1
62
256
6
ByLayer
370
18
48
1
60
0
100
AcDbEllipse
10
21.056258
20
0
30
0
11
11.7092723497276
21
24.677186440938
31
0
210
0
220
0
230
1
40
0.341999
41
2.05975995310061
42
2.97437958168074
0
POINT
5
6C
100
AcDbEntity
8
80
62
256
6
ByLayer
370
18
48
1
60
0
100
AcDbPoint
10
0
20
0
30
0
39
0
210
0
220
0
230
1
50
360
0
POINT
5
6E
100
AcDbEntity
8
81
62
256
6
ByLayer
370
18
48
1
60
0
100
AcDbPoint
10
288
20
0
30
0
39
0
210
0
220
0
230
1
50
360
0
SPLINE
5
110
100
AcDbEntity
8
1
62
256
6
ByLayer
370
18
48
1
60
0
100
AcDbSpline
70
4
71
3
72
12
73
8
40
0
40
0
40
0
40
0
40
0.0814684080197823
40
0.282954387161694
40
0.496494800032568
40
0.831758491132744
40
1
40
1
40
1
40
1
41
1
10
287.555
20
-19.77
30
0
41
1
10
287.555015582329
20
-19.7699841495472
30
0
41
1
10
287.556077393944
20
-19.7689115960186
30
0
41
1
10
287.564760637255
20
-19.7601387505968
30
0
41
1
10
287.589381414209
20
-19.7352841727275
30
0
41
1
10
287.622628100026
20
-19.701772156945
30
0
41
1
10
287.648254823464
20
-19.6759963201806
30
0
41
1
10
287.657250000005
20
-19.6669526077322
30
0
0
SPLINE
5
111
100
AcDbEntity
8
1
62
256
6
ByLayer
370
18
48
1
60
0
100
AcDbSpline
70
4
71
3
72
11
73
7
40
0
40
0
40
0
40
0
40
0.36378772195019
40
0.633109824668584
40
0.856330372739884
40
1
40
1
40
1
40
1
41
1
10
287.65725
20
19.6669526077377
30
0
41
1
10
287.637106503078
20
19.6872119969314
30
0
41
1
10
287.606499723285
20
19.7180158423594
30
0
41
1
10
287.572549591026
20
19.7522724919801
30
0
41
1
10
287.557491476118
20
19.7674829407209
30
0
41
1
10
287.555088777225
20
19.7699097409187
30
0
41
1
10
287.555
20
19.77
30
0
0
SPLINE
5
112
100
AcDbEntity
8
1
62
256
6
ByLayer
370
18
48
1
60
0
100
AcDbSpline
70
4
71
1
72
4
73
2
40
0
40
0
40
1
40
1
41
1
10
288.325
20
18.991667907708
30
0
41
1
10
287.65725
20
19.6669526077377
30
0
0
SPLINE
5
113
100
AcDbEntity
8
1
62
256
6
ByLayer
370
18
48
1
60
0
100
AcDbSpline
70
4
71
1
72
4
73
2
40
0
40
0
40
1
40
1
41
1
10
287.65725
20
19.6232090000648
30
0
41
1
10
288.325
20
18.9768631082337
30
0
0
SPLINE
5
114
100
AcDbEntity
8
1
62
256
6
ByLayer
370
18
48
1
60
0
100
AcDbSpline
70
4
71
3
72
11
73
7
40
0
40
0
40
0
40
0
40
0.353544895004883
40
0.637649992213733
40
0.866481616419227
40
1
40
1
40
1
40
1
41
1
10
287.65725
20
19.5961148774388
30
0
41
1
10
287.637736231931
20
19.6166212011108
30
0
41
1
10
287.606877005414
20
19.649762420808
30
0
41
1
10
287.572532958045
20
19.6884341492299
30
0
41
1
10
287.557376965567
20
19.7075135390098
30
0
41
1
10
287.555102572038
20
19.7120495720826
30
0
41
1
10
287.555000029089
20
19.7130051391009
30
0
0
SPLINE
5
115
100
AcDbEntity
8
1
62
256
6
ByLayer
370
18
48
1
60
0
100
AcDbSpline
70
4
71
1
72
4
73
2
40
0
40
0
40
1
40
1
41
1
10
288.325
20
18.8877094006841
30
0
41
1
10
287.65725
20
19.5961148774388
30
0
0
SPLINE
5
116
100
AcDbEntity
8
1
62
256
6
ByLayer
370
18
48
1
60
0
100
AcDbSpline
70
4
71
1
72
4
73
2
40
0
40
0
40
1
40
1
41
1
10
287.65725
20
19.4641115400998
30
0
41
1
10
288.325
20
18.8430150703283
30
0
0
SPLINE
5
117
100
AcDbEntity
8
1
62
256
6
ByLayer
370
18
48
1
60
0
100
AcDbSpline
70
4
71
3
72
11
73
7
40
0
40
0
40
0
40
0
40
0.342011787836944
40
0.642198228721811
40
0.8767253510475
40
1
40
1
40
1
40
1
41
1
10
287.65725
20
19.4094413032564
30
0
41
1
10
287.638405962704
20
19.4302315216882
30
0
41
1
10
287.607246454178
20
19.4659783235364
30
0
41
1
10
287.572478698652
20
19.5093812544871
30
0
41
1
10
287.557238712117
20
19.5326216917595
30
0
41
1
10
287.555107377871
20
19.5393112426375
30
0
41
1
10
287.555000074588
20
19.5410298872621
30
0
0
SPLINE
5
118
100
AcDbEntity
8
1
62
256
6
ByLayer
370
18
48
1
60
0
100
AcDbSpline
70
4
71
1
72
4
73
2
40
0
40
0
40
1
40
1
41
1
10
288.325
20
18.6630030512968
30
0
41
1
10
287.65725
20
19.4094413032565
30
0
0
SPLINE
5
119
100
AcDbEntity
8
1
62
256
6
ByLayer
370
18
48
1
60
0
100
AcDbSpline
70
4
71
1
72
4
73
2
40
0
40
0
40
1
40
1
41
1
10
287.65725
20
19.1867908893245
30
0
41
1
10
288.325
20
18.587552298584
30
0
0
SPLINE
5
11A
100
AcDbEntity
8
1
62
256
6
ByLayer
370
18
48
1
60
0
100
AcDbSpline
70
4
71
3
72
11
73
7
40
0
40
0
40
0
40
0
40
0.329250067109592
40
0.647313353418164
40
0.887590104473804
40
1
40
1
40
1
40
1
41
1
10
287.65725
20
19.1035364558329
30
0
41
1
10
287.639125826007
20
19.1246406317614
30
0
41
1
10
287.60760557301
20
19.1633405571413
30
0
41
1
10
287.572379703215
20
19.2119075998365
30
0
41
1
10
287.557086797367
20
19.2396890076993
30
0
41
1
10
287.555109283244
20
19.2486011368986
30
0
41
1
10
287.555000241861
20
19.250975551376
30
0
0
SPLINE
5
11B
100
AcDbEntity
8
1
62
256
6
ByLayer
370
18
48
1
60
0
100
AcDbSpline
70
4
71
1
72
4
73
2
40
0
40
0
40
1
40
1
41
1
10
288.325
20
18.3131045806204
30
0
41
1
10
287.65725
20
19.1035364558329
30
0
0
SPLINE
5
11C
100
AcDbEntity
8
1
62
256
6
ByLayer
370
18
48
1
60
0
100
AcDbSpline
70
4
71
1
72
4
73
2
40
0
40
0
40
1
40
1
41
1
10
287.65725
20
18.786012115824
30
0
41
1
10
288.325
20
18.2053559142514
30
0
0
SPLINE
5
11D
100
AcDbEntity
8
1
62
256
6
ByLayer
370
18
48
1
60
0
100
AcDbSpline
70
4
71
3
72
11
73
7
40
0
40
0
40
0
40
0
40
0.441839920559998
40
0.73405048771501
40
0.961867500839302
40
1
40
1
40
1
40
1
41
1
10
287.65725
20
18.6725412982303
30
0
41
1
10
287.632309326615
20
18.7032457165448
30
0
41
1
10
287.59797900152
20
18.7497389857026
30
0
41
1
10
287.564594625596
20
18.8046483170383
30
0
41
1
10
287.555573313104
20
18.8285226969549
30
0
41
1
10
287.555015021059
20
18.8363594717354
30
0
41
1
10
287.555000312325
20
18.8374254774193
30
0
0
SPLINE
5
11E
100
AcDbEntity
8
1
62
256
6
ByLayer
370
18
48
1
60
0
100
AcDbSpline
70
4
71
1
72
4
73
2
40
0
40
0
40
1
40
1
41
1
10
288.325
20
17.8306454136905
30
0
41
1
10
287.65725
20
18.6725412982303
30
0
0
SPLINE
5
11F
100
AcDbEntity
8
1
62
256
6
ByLayer
370
18
48
1
60
0
100
AcDbSpline
70
4
71
1
72
4
73
2
40
0
40
0
40
1
40
1
41
1
10
287.65725
20
18.2536450551968
30
0
41
1
10
288.325
20
17.6882126704918
30
0
0
SPLINE
5
120
100
AcDbEntity
8
1
62
256
6
ByLayer
370
18
48
1
60
0
100
AcDbSpline
70
4
71
3
72
11
73
7
40
0
40
0
40
0
40
0
40
0.469351758654548
40
0.761993777863446
40
0.988709287791791
40
1
40
1
40
1
40
1
41
1
10
287.65725
20
18.1075258373112
30
0
41
1
10
287.630514136621
20
18.1426232148382
30
0
41
1
10
287.595252507034
20
18.1949484938442
30
0
41
1
10
287.562509008144
20
18.2570863381311
30
0
41
1
10
287.555160567665
20
18.2829901513205
30
0
41
1
10
287.555001680443
20
18.2916794237046
30
0
41
1
10
287.555000066086
20
18.292086575487
30
0
0
SPLINE
5
121
100
AcDbEntity
8
1
62
256
6
ByLayer
370
18
48
1
60
0
100
AcDbSpline
70
4
71
1
72
4
73
2
40
0
40
0
40
1
40
1
41
1
10
288.325
20
17.204477102103
30
0
41
1
10
287.65725
20
18.1075258373112
30
0
0
SPLINE
5
122
100
AcDbEntity
8
1
62
256
6
ByLayer
370
18
48
1
60
0
100
AcDbSpline
70
4
71
1
72
4
73
2
40
0
40
0
40
1
40
1
41
1
10
287.65725
20
17.57773774939
30
0
41
1
10
288.325
20
17.0238289168013
30
0
0
SPLINE
5
123
100
AcDbEntity
8
1
62
256
6
ByLayer
370
18
48
1
60
0
100
AcDbSpline
70
4
71
3
72
10
73
6
40
0
40
0
40
0
40
0
40
0.500655634822128
40
0.79017201543491
40
1
40
1
40
1
40
1
41
1
10
287.65725
20
17.3954357623968
30
0
41
1
10
287.628459400728
20
17.4360513359832
30
0
41
1
10
287.592593064923
20
17.495054100592
30
0
41
1
10
287.560646526087
20
17.565410693159
30
0
41
1
10
287.555617495467
20
17.5922713314739
30
0
41
1
10
287.555000081396
20
17.602545625745
30
0
0
SPLINE
5
124
100
AcDbEntity
8
1
62
256
6
ByLayer
370
18
48
1
60
0
100
AcDbSpline
70
4
71
1
72
4
73
2
40
0
40
0
40
1
40
1
41
1
10
288.325
20
16.4181652094505
30
0
41
1
10
287.65725
20
17.3954357623968
30
0
0
SPLINE
5
125
100
AcDbEntity
8
1
62
256
6
ByLayer
370
18
48
1
60
0
100
AcDbSpline
70
4
71
1
72
4
73
2
40
0
40
0
40
1
40
1
41
1
10
287.65725
20
16.7409130865539
30
0
41
1
10
288.325
20
16.1940925803361
30
0
0
SPLINE
5
126
100
AcDbEntity
8
1
62
256
6
ByLayer
370
18
48
1
60
0
100
AcDbSpline
70
4
71
3
72
10
73
6
40
0
40
0
40
0
40
0
40
0.538057462057123
40
0.818130138821793
40
1
40
1
40
1
40
1
41
1
10
287.65725
20
16.5172600263618
30
0
41
1
10
287.626027033555
20
16.5650666634061
30
0
41
1
10
287.589523572285
20
16.6324796523194
30
0
41
1
10
287.559690658731
20
16.7107563317592
30
0
41
1
10
287.55549982106
20
16.7400235417015
30
0
41
1
10
287.555000929876
20
16.7508182535806
30
0
0
SPLINE
5
127
100
AcDbEntity
8
1
62
256
6
ByLayer
370
18
48
1
60
0
100
AcDbSpline
70
4
71
1
72
4
73
2
40
0
40
0
40
1
40
1
41
1
10
288.325
20
15.4472737184539
30
0
41
1
10
287.65725
20
16.5172600263618
30
0
0
SPLINE
5
128
100
AcDbEntity
8
1
62
256
6
ByLayer
370
18
48
1
60
0
100
AcDbSpline
70
4
71
1
72
4
73
2
40
0
40
0
40
1
40
1
41
1
10
287.65725
20
15.7174895437145
30
0
41
1
10
288.325
20
15.1718989586826
30
0
0
SPLINE
5
129
100
AcDbEntity
8
1
62
256
6
ByLayer
370
18
48
1
60
0
100
AcDbSpline
70
4
71
3
72
10
73
6
40
0
40
0
40
0
40
0
40
0.547301222737345
40
0.82562797293656
40
1
40
1
40
1
40
1
41
1
10
287.65725
20
15.4446939818576
30
0
41
1
10
287.625542403747
20
15.4982707951335
30
0
41
1
10
287.588937240184
20
15.5744018380708
30
0
41
1
10
287.559737360317
20
15.6632659657322
30
0
41
1
10
287.555569917055
20
15.6975178942071
30
0
41
1
10
287.555008535533
20
15.7101151220355
30
0
0
SPLINE
5
12A
100
AcDbEntity
8
1
62
256
6
ByLayer
370
18
48
1
60
0
100
AcDbSpline
70
4
71
1
72
4
73
2
40
0
40
0
40
1
40
1
41
1
10
288.325
20
14.2541356041277
30
0
41
1
10
287.65725
20
15.4446939818576
30
0
0
SPLINE
5
12B
100
AcDbEntity
8
1
62
256
6
ByLayer
370
18
48
1
60
0
100
AcDbSpline
70
4
71
1
72
4
73
2
40
0
40
0
40
1
40
1
41
1
10
287.65725
20
14.4679225924801
30
0
41
1
10
288.325
20
13.9148985452446
30
0
0
SPLINE
5
12C
100
AcDbEntity
8
1
62
256
6
ByLayer
370
18
48
1
60
0
100
AcDbSpline
70
4
71
3
72
10
73
6
40
0
40
0
40
0
40
0
40
0.613007207669485
40
0.839592277898009
40
1
40
1
40
1
40
1
41
1
10
287.65725
20
14.1335510614993
30
0
41
1
10
287.621142460231
20
14.201961925812
30
0
41
1
10
287.584893743717
20
14.2907442787931
30
0
41
1
10
287.558712646654
20
14.3926061992163
30
0
41
1
10
287.555429709201
20
14.4278624777636
30
0
41
1
10
287.555003423148
20
14.4419810199694
30
0
0
SPLINE
5
12D
100
AcDbEntity
8
1
62
256
6
ByLayer
370
18
48
1
60
0
100
AcDbSpline
70
4
71
1
72
4
73
2
40
0
40
0
40
1
40
1
41
1
10
288.325
20
12.7766387719495
30
0
41
1
10
287.65725
20
14.1335510614993
30
0
0
SPLINE
5
12E
100
AcDbEntity
8
1
62
256
6
ByLayer
370
18
48
1
60
0
100
AcDbSpline
70
4
71
1
72
4
73
2
40
0
40
0
40
1
40
1
41
1
10
287.65725
20
12.9267973886503
30
0
41
1
10
288.325
20
12.3516106251948
30
0
0
SPLINE
5
12F
100
AcDbEntity
8
1
62
256
6
ByLayer
370
18
48
1
60
0
100
AcDbSpline
70
4
71
2
72
6
73
3
40
0
40
0
40
0
40
1
40
1
40
1
41
1
10
287.65725
20
12.5090350955934
30
0
41
1
10
287.56449452426
20
12.7076362690426
30
0
41
1
10
287.555002402522
20
12.8772305165887
30
0
0
SPLINE
5
130
100
AcDbEntity
8
1
62
256
6
ByLayer
370
18
48
1
60
0
100
AcDbSpline
70
4
71
1
72
4
73
2
40
0
40
0
40
1
40
1
41
1
10
288.325
20
10.8997529695359
30
0
41
1
10
287.65725
20
12.5090350955934
30
0
0
SPLINE
5
131
100
AcDbEntity
8
1
62
256
6
ByLayer
370
18
48
1
60
0
100
AcDbSpline
70
4
71
1
72
4
73
2
40
0
40
0
40
1
40
1
41
1
10
287.65725
20
10.9719368077126
30
0
41
1
10
288.325
20
10.3440885798798
30
0
0
SPLINE
5
132
100
AcDbEntity
8
1
62
256
6
ByLayer
370
18
48
1
60
0
100
AcDbSpline
70
4
71
2
72
6
73
3
40
0
40
0
40
0
40
1
40
1
40
1
41
1
10
287.65725
20
10.4256727570727
30
0
41
1
10
287.564248120374
20
10.6687947747668
30
0
41
1
10
287.555011360507
20
10.8872087149763
30
0
0
SPLINE
5
133
100
AcDbEntity
8
1
62
256
6
ByLayer
370
18
48
1
60
0
100
AcDbSpline
70
4
71
1
72
4
73
2
40
0
40
0
40
1
40
1
41
1
10
288.325
20
8.35863214197942
30
0
41
1
10
287.65725
20
10.4256727570727
30
0
0
SPLINE
5
134
100
AcDbEntity
8
1
62
256
6
ByLayer
370
18
48
1
60
0
100
AcDbSpline
70
4
71
1
72
4
73
2
40
0
40
0
40
1
40
1
41
1
10
287.65725
20
8.31653196336435
30
0
41
1
10
288.325
20
7.54573071745718
30
0
0
SPLINE
5
135
100
AcDbEntity
8
1
62
256
6
ByLayer
370
18
48
1
60
0
100
AcDbSpline
70
4
71
3
72
10
73
6
40
0
40
0
40
0
40
0
40
0.532327471743742
40
0.833599534487852
40
1
40
1
40
1
40
1
41
1
10
287.65725
20
7.51088182920916
30
0
41
1
10
287.627311546927
20
7.62947589062387
30
0
41
1
10
287.591106560034
20
7.81323255642326
30
0
41
1
10
287.558371562559
20
8.03392348671711
30
0
41
1
10
287.55512048653
20
8.13331899347954
30
0
41
1
10
287.55503138987
20
8.16839397322262
30
0
0
SPLINE
5
136
100
AcDbEntity
8
1
62
256
6
ByLayer
370
18
48
1
60
0
100
AcDbSpline
70
4
71
2
72
6
73
3
40
0
40
0
40
0
40
1
40
1
40
1
41
1
10
288.325
20
4.05325150625469
30
0
41
1
10
288.083904837032
20
5.80595047647647
30
0
41
1
10
287.65725
20
7.51088182920917
30
0
0
SPLINE
5
137
100
AcDbEntity
8
1
62
256
6
ByLayer
370
18
48
1
60
0
100
AcDbSpline
70
4
71
2
72
6
73
3
40
0
40
0
40
0
40
1
40
1
40
1
41
1
10
287.65725
20
3.6668802111449
30
0
41
1
10
288.10370184491
20
2.65136317020439
30
0
41
1
10
288.325
20
1.54140701060834
30
0
0
SPLINE
5
138
100
AcDbEntity
8
1
62
256
6
ByLayer
370
18
48
1
60
0
100
AcDbSpline
70
4
71
3
72
18
73
14
40
0
40
0
40
0
40
0
40
0.0092762999038492
40
0.068562989504737
40
0.0951304196522278
40
0.117592414041133
40
0.13354035275087
40
0.149529937945327
40
0.169950422043849
40
0.20570098208848
40
0.318776697950094
40
0.83990637219932
40
1
40
1
40
1
40
1
41
1
10
287.657249999999
20
-3.66688021114634
30
0
41
1
10
287.656530488487
20
-3.66856317892815
30
0
41
1
10
287.651090051696
20
-3.6808852222394
30
0
41
1
10
287.642732472879
20
-3.69760154146208
30
0
41
1
10
287.630691624416
20
-3.71356954482126
30
0
41
1
10
287.622113310393
20
-3.72071043232465
30
0
41
1
10
287.614212181307
20
-3.72311277646693
30
0
41
1
10
287.606874679365
20
-3.72152338403578
30
0
41
1
10
287.598465296463
20
-3.71437670222457
30
0
41
1
10
287.584596086648
20
-3.68888331459691
30
0
41
1
10
287.558360975623
20
-3.56390605424479
30
0
41
1
10
287.556219231417
20
-3.40505327877037
30
0
41
1
10
287.554724613401
20
-3.26975155857323
30
0
41
1
10
287.555022756186
20
-3.23774823726714
30
0
0
SPLINE
5
139
100
AcDbEntity
8
1
62
256
6
ByLayer
370
18
48
1
60
0
100
AcDbSpline
70
4
71
2
72
6
73
3
40
0
40
0
40
0
40
1
40
1
40
1
41
1
10
288.325
20
-1.54140701062896
30
0
41
1
10
288.103860243444
20
-2.65129455942786
30
0
41
1
10
287.65725
20
-3.6668802111467
30
0
0
SPLINE
5
13A
100
AcDbEntity
8
1
62
256
6
ByLayer
370
18
48
1
60
0
100
AcDbSpline
70
4
71
2
72
6
73
3
40
0
40
0
40
0
40
1
40
1
40
1
41
1
10
287.65725
20
-7.51088182920917
30
0
41
1
10
288.083894802745
20
-5.80596125816181
30
0
41
1
10
288.325
20
-4.05325150625469
30
0
0
SPLINE
5
13B
100
AcDbEntity
8
1
62
256
6
ByLayer
370
18
48
1
60
0
100
AcDbSpline
70
4
71
3
72
14
73
10
40
0
40
0
40
0
40
0
40
0.108418701021961
40
0.180167597011175
40
0.252422528712325
40
0.317844072553425
40
0.418649479187762
40
0.607004012534042
40
1
40
1
40
1
40
1
41
1
10
287.657250000027
20
-8.31653196334169
30
0
41
1
10
287.64997141586
20
-8.32526615338188
30
0
41
1
10
287.637423488915
20
-8.33672320355459
30
0
41
1
10
287.6181585045
20
-8.34746564858041
30
0
41
1
10
287.602527381033
20
-8.3486467044096
30
0
41
1
10
287.587727804689
20
-8.34120718763122
30
0
41
1
10
287.572043538821
20
-8.31933184841542
30
0
41
1
10
287.557258581184
20
-8.26135863170593
30
0
41
1
10
287.552549383968
20
-8.20802499444396
30
0
41
1
10
287.555038128083
20
-8.16757126881083
30
0
0
SPLINE
5
13C
100
AcDbEntity
8
1
62
256
6
ByLayer
370
18
48
1
60
0
100
AcDbSpline
70
4
71
1
72
4
73
2
40
0
40
0
40
1
40
1
41
1
10
288.325
20
-7.54573071745703
30
0
41
1
10
287.65725
20
-8.31653196336435
30
0
0
SPLINE
5
13D
100
AcDbEntity
8
1
62
256
6
ByLayer
370
18
48
1
60
0
100
AcDbSpline
70
4
71
1
72
4
73
2
40
0
40
0
40
1
40
1
41
1
10
287.65725
20
-10.4256727570727
30
0
41
1
10
288.325
20
-8.35863214197942
30
0
0
SPLINE
5
13E
100
AcDbEntity
8
1
62
256
6
ByLayer
370
18
48
1
60
0
100
AcDbSpline
70
4
71
3
72
14
73
10
40
0
40
0
40
0
40
0
40
0.0783829871389747
40
0.215707446421184
40
0.31781229082339
40
0.419869148103726
40
0.563517127420653
40
0.809794822448589
40
1
40
1
40
1
40
1
41
1
10
287.65725000001
20
-10.9719368077072
30
0
41
1
10
287.652444151996
20
-10.9765324929058
30
0
41
1
10
287.639151691486
20
-10.9877108997616
30
0
41
1
10
287.618336548231
20
-11.0001173756791
30
0
41
1
10
287.597444554273
20
-11.0028007933594
30
0
41
1
10
287.580149715048
20
-10.995355575134
30
0
41
1
10
287.563926018898
20
-10.9720067645134
30
0
41
1
10
287.556259895161
20
-10.932851065505
30
0
41
1
10
287.554587480467
20
-10.9011800376172
30
0
41
1
10
287.555017244399
20
-10.8864398912318
30
0
0
SPLINE
5
13F
100
AcDbEntity
8
1
62
256
6
ByLayer
370
18
48
1
60
0
100
AcDbSpline
70
4
71
1
72
4
73
2
40
0
40
0
40
1
40
1
41
1
10
288.325
20
-10.3440885798798
30
0
41
1
10
287.65725
20
-10.9719368077126
30
0
0
SPLINE
5
140
100
AcDbEntity
8
1
62
256
6
ByLayer
370
18
48
1
60
0
100
AcDbSpline
70
4
71
1
72
4
73
2
40
0
40
0
40
1
40
1
41
1
10
287.65725
20
-12.5090350955934
30
0
41
1
10
288.325
20
-10.8997529695359
30
0
0
SPLINE
5
141
100
AcDbEntity
8
1
62
256
6
ByLayer
370
18
48
1
60
0
100
AcDbSpline
70
4
71
3
72
13
73
9
40
0
40
0
40
0
40
0
40
0.110242213151721
40
0.282557275529695
40
0.412606166269196
40
0.542428032766101
40
0.733732087688897
40
1
40
1
40
1
40
1
41
1
10
287.657250000004
20
-12.9267973886487
30
0
41
1
10
287.650803050241
20
-12.9324740321065
30
0
41
1
10
287.634460670417
20
-12.9449728016787
30
0
41
1
10
287.609769049183
20
-12.9576961890999
30
0
41
1
10
287.587437063048
20
-12.9584727781846
30
0
41
1
10
287.569985716961
20
-12.9480918057827
30
0
41
1
10
287.557500913942
20
-12.9211431497263
30
0
41
1
10
287.554230160885
20
-12.8950860188414
30
0
41
1
10
287.555002425298
20
-12.8772250208738
30
0
0
SPLINE
5
142
100
AcDbEntity
8
1
62
256
6
ByLayer
370
18
48
1
60
0
100
AcDbSpline
70
4
71
1
72
4
73
2
40
0
40
0
40
1
40
1
41
1
10
288.325
20
-12.3516106251948
30
0
41
1
10
287.65725
20
-12.9267973886503
30
0
0
SPLINE
5
143
100
AcDbEntity
8
1
62
256
6
ByLayer
370
18
48
1
60
0
100
AcDbSpline
70
4
71
1
72
4
73
2
40
0
40
0
40
1
40
1
41
1
10
287.65725
20
-14.1335510614993
30
0
41
1
10
288.325
20
-12.7766387719495
30
0
0
SPLINE
5
144
100
AcDbEntity
8
1
62
256
6
ByLayer
370
18
48
1
60
0
100
AcDbSpline
70
4
71
3
72
13
73
9
40
0
40
0
40
0
40
0
40
0.138853390640428
40
0.341511995921788
40
0.518494759973623
40
0.669260172089082
40
0.905494557461872
40
1
40
1
40
1
40
1
41
1
10
287.657250000002
20
-14.4679225924795
30
0
41
1
10
287.64930360173
20
-14.4746550714136
30
0
41
1
10
287.63025527438
20
-14.4886415791471
30
0
41
1
10
287.60109405941
20
-14.5028441627021
30
0
41
1
10
287.577380561363
20
-14.5015211440536
30
0
41
1
10
287.561214372378
20
-14.4866340293345
30
0
41
1
10
287.55569115143
20
-14.4645423845891
30
0
41
1
10
287.554915850397
20
-14.4472215794256
30
0
41
1
10
287.555003412463
20
-14.4419827618974
30
0
0
SPLINE
5
145
100
AcDbEntity
8
1
62
256
6
ByLayer
370
18
48
1
60
0
100
AcDbSpline
70
4
71
1
72
4
73
2
40
0
40
0
40
1
40
1
41
1
10
288.325
20
-13.9148985452446
30
0
41
1
10
287.65725
20
-14.4679225924801
30
0
0
SPLINE
5
146
100
AcDbEntity
8
1
62
256
6
ByLayer
370
18
48
1
60
0
100
AcDbSpline
70
4
71
1
72
4
73
2
40
0
40
0
40
1
40
1
41
1
10
287.65725
20
-15.4446939818576
30
0
41
1
10
288.325
20
-14.2541356041277
30
0
0
SPLINE
5
147
100
AcDbEntity
8
1
62
256
6
ByLayer
370
18
48
1
60
0
100
AcDbSpline
70
4
71
3
72
13
73
9
40
0
40
0
40
0
40
0
40
0.166242911183424
40
0.360375890725421
40
0.555799720089472
40
0.724316208407467
40
0.963610848020834
40
1
40
1
40
1
40
1
41
1
10
287.657250000001
20
-15.7174895437142
30
0
41
1
10
287.647934269862
20
-15.7252528119712
30
0
41
1
10
287.628418910791
20
-15.739446680958
30
0
41
1
10
287.598923790555
20
-15.7545791493184
30
0
41
1
10
287.575130693618
20
-15.756077901086
30
0
41
1
10
287.559249471884
20
-15.7435020486445
30
0
41
1
10
287.555257148098
20
-15.7256644826509
30
0
41
1
10
287.554989085093
20
-15.712940665717
30
0
41
1
10
287.555000472764
20
-15.7112166191105
30
0
0
SPLINE
5
148
100
AcDbEntity
8
1
62
256
6
ByLayer
370
18
48
1
60
0
100
AcDbSpline
70
4
71
1
72
4
73
2
40
0
40
0
40
1
40
1
41
1
10
288.325
20
-15.1718989586826
30
0
41
1
10
287.65725
20
-15.7174895437145
30
0
0
SPLINE
5
149
100
AcDbEntity
8
1
62
256
6
ByLayer
370
18
48
1
60
0
100
AcDbSpline
70
4
71
1
72
4
73
2
40
0
40
0
40
1
40
1
41
1
10
287.65725
20
-16.5172600263618
30
0
41
1
10
288.325
20
-15.4472737184539
30
0
0
SPLINE
5
14A
100
AcDbEntity
8
1
62
256
6
ByLayer
370
18
48
1
60
0
100
AcDbSpline
70
4
71
3
72
12
73
8
40
0
40
0
40
0
40
0
40
0.191366235578421
40
0.400705424394904
40
0.611426159911793
40
0.793354321085349
40
1
40
1
40
1
40
1
41
1
10
287.65725
20
-16.7409130865538
30
0
41
1
10
287.646627503722
20
-16.7497667997621
30
0
41
1
10
287.625380799525
20
-16.7653795144078
30
0
41
1
10
287.594288505919
20
-16.7819777186297
30
0
41
1
10
287.570624438789
20
-16.7844723098295
30
0
41
1
10
287.557467676365
20
-16.7729577055611
30
0
41
1
10
287.554735111693
20
-16.7597810462402
30
0
41
1
10
287.555000725937
20
-16.7508635079356
30
0
0
SPLINE
5
14B
100
AcDbEntity
8
1
62
256
6
ByLayer
370
18
48
1
60
0
100
AcDbSpline
70
4
71
1
72
4
73
2
40
0
40
0
40
1
40
1
41
1
10
288.325
20
-16.1940925803361
30
0
41
1
10
287.65725
20
-16.7409130865539
30
0
0
SPLINE
5
14C
100
AcDbEntity
8
1
62
256
6
ByLayer
370
18
48
1
60
0
100
AcDbSpline
70
4
71
1
72
4
73
2
40
0
40
0
40
1
40
1
41
1
10
287.65725
20
-17.3954357623968
30
0
41
1
10
288.325
20
-16.4181652094505
30
0
0
SPLINE
5
14D
100
AcDbEntity
8
1
62
256
6
ByLayer
370
18
48
1
60
0
100
AcDbSpline
70
4
71
3
72
12
73
8
40
0
40
0
40
0
40
0
40
0.215086515550325
40
0.437438636714327
40
0.661293538621337
40
0.853843971396778
40
1
40
1
40
1
40
1
41
1
10
287.65725
20
-17.5777377493899
30
0
41
1
10
287.645373678305
20
-17.5877389163178
30
0
41
1
10
287.622562049811
20
-17.6048994976594
30
0
41
1
10
287.590147318654
20
-17.6233332368948
30
0
41
1
10
287.566888680885
20
-17.6271121694884
30
0
41
1
10
287.556591726899
20
-17.6176023962012
30
0
41
1
10
287.554873954984
20
-17.607528238927
30
0
41
1
10
287.55500147232
20
-17.6022405721771
30
0
0
SPLINE
5
14E
100
AcDbEntity
8
1
62
256
6
ByLayer
370
18
48
1
60
0
100
AcDbSpline
70
4
71
1
72
4
73
2
40
0
40
0
40
1
40
1
41
1
10
288.325
20
-17.0238289168013
30
0
41
1
10
287.65725
20
-17.57773774939
30
0
0
SPLINE
5
14F
100
AcDbEntity
8
1
62
256
6
ByLayer
370
18
48
1
60
0
100
AcDbSpline
70
4
71
1
72
4
73
2
40
0
40
0
40
1
40
1
41
1
10
287.65725
20
-18.1075258373112
30
0
41
1
10
288.325
20
-17.204477102103
30
0
0
SPLINE
5
150
100
AcDbEntity
8
1
62
256
6
ByLayer
370
18
48
1
60
0
100
AcDbSpline
70
4
71
3
72
12
73
8
40
0
40
0
40
0
40
0
40
0.238383637776388
40
0.47257832284064
40
0.708422830413768
40
0.909970655360717
40
1
40
1
40
1
40
1
41
1
10
287.65725
20
-18.2536450551967
30
0
41
1
10
287.644154353144
20
-18.264869634683
30
0
41
1
10
287.619908768226
20
-18.2837252912934
30
0
41
1
10
287.586411318166
20
-18.3043177379196
30
0
41
1
10
287.563744385306
20
-18.3097189328798
30
0
41
1
10
287.555900889281
20
-18.3020816888986
30
0
41
1
10
287.554957692867
20
-18.2945959471498
30
0
41
1
10
287.555000724703
20
-18.2919300405605
30
0
0
SPLINE
5
151
100
AcDbEntity
8
1
62
256
6
ByLayer
370
18
48
1
60
0
100
AcDbSpline
70
4
71
1
72
4
73
2
40
0
40
0
40
1
40
1
41
1
10
288.325
20
-17.6882126704918
30
0
41
1
10
287.65725
20
-18.2536450551968
30
0
0
SPLINE
5
152
100
AcDbEntity
8
1
62
256
6
ByLayer
370
18
48
1
60
0
100
AcDbSpline
70
4
71
1
72
4
73
2
40
0
40
0
40
1
40
1
41
1
10
287.65725
20
-18.6725412982303
30
0
41
1
10
288.325
20
-17.8306454136905
30
0
0
SPLINE
5
153
100
AcDbEntity
8
1
62
256
6
ByLayer
370
18
48
1
60
0
100
AcDbSpline
70
4
71
3
72
12
73
8
40
0
40
0
40
0
40
0
40
0.261192139426519
40
0.505956728872235
40
0.752535483089868
40
0.96156357478199
40
1
40
1
40
1
40
1
41
1
10
287.65725
20
-18.786012115824
30
0
41
1
10
287.64295433266
20
-18.7985553899809
30
0
41
1
10
287.617380061952
20
-18.8192714267596
30
0
41
1
10
287.583004380813
20
-18.8423427456429
30
0
41
1
10
287.561085004117
20
-18.8496710722452
30
0
41
1
10
287.555355221632
20
-18.8437531907419
30
0
41
1
10
287.554994103839
20
-18.8383826837501
30
0
41
1
10
287.555000075114
20
-18.8374837408244
30
0
0
SPLINE
5
154
100
AcDbEntity
8
1
62
256
6
ByLayer
370
18
48
1
60
0
100
AcDbSpline
70
4
71
1
72
4
73
2
40
0
40
0
40
1
40
1
41
1
10
288.325
20
-18.2053559142514
30
0
41
1
10
287.65725
20
-18.786012115824
30
0
0
SPLINE
5
155
100
AcDbEntity
8
1
62
256
6
ByLayer
370
18
48
1
60
0
100
AcDbSpline
70
4
71
1
72
4
73
2
40
0
40
0
40
1
40
1
41
1
10
287.65725
20
-19.1035364558329
30
0
41
1
10
288.325
20
-18.3131045806204
30
0
0
SPLINE
5
156
100
AcDbEntity
8
1
62
256
6
ByLayer
370
18
48
1
60
0
100
AcDbSpline
70
4
71
3
72
12
73
8
40
0
40
0
40
0
40
0
40
0.28297701856678
40
0.536553999364202
40
0.750837094272304
40
0.965613435476437
40
1
40
1
40
1
40
1
41
1
10
287.65725
20
-19.1867908893245
30
0
41
1
10
287.641760186522
20
-19.2007697381244
30
0
41
1
10
287.614943225208
20
-19.2235385350738
30
0
41
1
10
287.581692039333
20
-19.248055497566
30
0
41
1
10
287.561024500697
20
-19.2581756177889
30
0
41
1
10
287.555340370391
20
-19.2556494640045
30
0
41
1
10
287.554996731975
20
-19.2516310044636
30
0
41
1
10
287.555000030127
20
-19.2510233429179
30
0
0
SPLINE
5
157
100
AcDbEntity
8
1
62
256
6
ByLayer
370
18
48
1
60
0
100
AcDbSpline
70
4
71
1
72
4
73
2
40
0
40
0
40
1
40
1
41
1
10
288.325
20
-18.587552298584
30
0
41
1
10
287.65725
20
-19.1867908893245
30
0
0
SPLINE
5
158
100
AcDbEntity
8
1
62
256
6
ByLayer
370
18
48
1
60
0
100
AcDbSpline
70
4
71
1
72
4
73
2
40
0
40
0
40
1
40
1
41
1
10
287.65725
20
-19.4094413032565
30
0
41
1
10
288.325
20
-18.6630030512968
30
0
0
SPLINE
5
159
100
AcDbEntity
8
1
62
256
6
ByLayer
370
18
48
1
60
0
100
AcDbSpline
70
4
71
3
72
11
73
7
40
0
40
0
40
0
40
0
40
0.304632312554756
40
0.566084194491727
40
0.78488009866822
40
1
40
1
40
1
40
1
41
1
10
287.65725
20
-19.4641115400997
30
0
41
1
10
287.64055915088
20
-19.4796684885192
30
0
41
1
10
287.612558144472
20
-19.5047063539096
30
0
41
1
10
287.578899199237
20
-19.5321569777169
30
0
41
1
10
287.559153228532
20
-19.5445727998412
30
0
41
1
10
287.555154530637
20
-19.5435466217527
30
0
41
1
10
287.555000003065
20
-19.5410513391963
30
0
0
SPLINE
5
15A
100
AcDbEntity
8
1
62
256
6
ByLayer
370
18
48
1
60
0
100
AcDbSpline
70
4
71
1
72
4
73
2
40
0
40
0
40
1
40
1
41
1
10
288.325
20
-18.8430150703283
30
0
41
1
10
287.65725
20
-19.4641115400998
30
0
0
SPLINE
5
15B
100
AcDbEntity
8
1
62
256
6
ByLayer
370
18
48
1
60
0
100
AcDbSpline
70
4
71
1
72
4
73
2
40
0
40
0
40
1
40
1
41
1
10
287.65725
20
-19.5961148774388
30
0
41
1
10
288.325
20
-18.8877094006841
30
0
0
SPLINE
5
15C
100
AcDbEntity
8
1
62
256
6
ByLayer
370
18
48
1
60
0
100
AcDbSpline
70
4
71
3
72
11
73
7
40
0
40
0
40
0
40
0
40
0.372996890536741
40
0.628682077128818
40
0.886371579237594
40
1
40
1
40
1
40
1
41
1
10
287.65725
20
-19.6232090000647
30
0
41
1
10
287.636507587212
20
-19.6432655346522
30
0
41
1
10
287.606116904081
20
-19.6719382822497
30
0
41
1
10
287.57095169087
20
-19.7034254966986
30
0
41
1
10
287.556864851729
20
-19.7140265710949
30
0
41
1
10
287.55502596866
20
-19.7136706022192
30
0
41
1
10
287.555000044758
20
-19.7130031276509
30
0
0
SPLINE
5
15D
100
AcDbEntity
8
1
62
256
6
ByLayer
370
18
48
1
60
0
100
AcDbSpline
70
4
71
1
72
4
73
2
40
0
40
0
40
1
40
1
41
1
10
288.325
20
-18.9768631082337
30
0
41
1
10
287.65725
20
-19.6232090000648
30
0
0
SPLINE
5
15E
100
AcDbEntity
8
1
62
256
6
ByLayer
370
18
48
1
60
0
100
AcDbSpline
70
4
71
1
72
4
73
2
40
0
40
0
40
1
40
1
41
1
10
287.65725
20
-19.6669526077377
30
0
41
1
10
288.325
20
-18.991667907708
30
0
0
SPLINE
5
15F
100
AcDbEntity
8
1
62
256
6
ByLayer
370
18
48
1
60
0
100
AcDbSpline
70
4
71
3
72
18
73
14
40
0
40
0
40
0
40
0
40
0.0395444285622923
40
0.678020344594517
40
0.738430857537991
40
0.801710634766672
40
0.82380328778938
40
0.846100958306925
40
0.862570653676968
40
0.879008358522354
40
0.905141278320466
40
0.957073783466159
40
1
40
1
40
1
40
1
41
1
10
287.55502714837
20
3.27593767934985
30
0
41
1
10
287.553140836076
20
3.28321985363526
30
0
41
1
10
287.522476480589
20
3.40786636596353
30
0
41
1
10
287.555777472251
20
3.54991441318633
30
0
41
1
10
287.58352979887
20
3.6807270572551
30
0
41
1
10
287.592010013281
20
3.70421019783176
30
0
41
1
10
287.601643329811
20
3.71751513703853
30
0
41
1
10
287.608716698743
20
3.72240064822982
30
0
41
1
10
287.616167497371
20
3.72282895899862
30
0
41
1
10
287.624105074744
20
3.71944469729671
30
0
41
1
10
287.63541804679
20
3.70869756724436
30
0
41
1
10
287.646658383323
20
3.68985797248008
30
0
41
1
10
287.654218463866
20
3.67434761955444
30
0
41
1
10
287.65725
20
3.66688021114491
30
0
0
SPLINE
5
160
100
AcDbEntity
8
1
62
256
6
ByLayer
370
18
48
1
60
0
100
AcDbSpline
70
4
71
3
72
13
73
9
40
0
40
0
40
0
40
0
40
0.0811644644508212
40
0.177297495013906
40
0.433856160876608
40
0.690627755607224
40
0.946967123456077
40
1
40
1
40
1
40
1
41
1
10
287.555022756186
20
-3.23774823726714
30
0
41
1
10
287.556685354627
20
-3.06294436151124
30
0
41
1
10
287.563432827021
20
-2.68035355923811
30
0
41
1
10
287.615581614574
20
-1.73861968642869
30
0
41
1
10
287.637544089998
20
-0.412467172213471
30
0
41
1
10
287.612774682813
20
1.2638807457142
30
0
41
1
10
287.565957676768
20
2.49522055353055
30
0
41
1
10
287.556512388558
20
3.16178375679415
30
0
41
1
10
287.55502714837
20
3.27593767934985
30
0
0
SPLINE
5
161
100
AcDbEntity
8
1
62
256
6
ByLayer
370
18
48
1
60
0
100
AcDbSpline
70
4
71
3
72
14
73
10
40
0
40
0
40
0
40
0
40
0.287575987652807
40
0.590056088248569
40
0.679730591769888
40
0.7505547070843
40
0.821712627379416
40
0.902192848596987
40
1
40
1
40
1
40
1
41
1
10
287.55503138987
20
8.16839397322262
30
0
41
1
10
287.553750469309
20
8.19725849610805
30
0
41
1
10
287.557233909262
20
8.25172471982688
30
0
41
1
10
287.567713507383
20
8.31385691431805
30
0
41
1
10
287.588436644206
20
8.34169214268601
30
0
41
1
10
287.60287063449
20
8.348791227584
30
0
41
1
10
287.619472193805
20
8.34713922347701
30
0
41
1
10
287.638437550163
20
8.33580917716713
30
0
41
1
10
287.65073612068
20
8.32429921370238
30
0
41
1
10
287.65725
20
8.31653196336445
30
0
0
SPLINE
5
162
100
AcDbEntity
8
1
62
256
6
ByLayer
370
18
48
1
60
0
100
AcDbSpline
70
4
71
3
72
10
73
6
40
0
40
0
40
0
40
0
40
0.0927554397793506
40
0.545697818068074
40
1
40
1
40
1
40
1
41
1
10
287.555038128083
20
-8.16757126881083
30
0
41
1
10
287.555388989701
20
-8.14798419455162
30
0
41
1
10
287.559039956352
20
-8.0323212615758
30
0
41
1
10
287.588693640007
20
-7.81167793161065
30
0
41
1
10
287.630758281869
20
-7.61192880535976
30
0
41
1
10
287.65725
20
-7.51088182920919
30
0
0
SPLINE
5
163
100
AcDbEntity
8
1
62
256
6
ByLayer
370
18
48
1
60
0
100
AcDbSpline
70
4
71
3
72
14
73
10
40
0
40
0
40
0
40
0
40
0.134830546589817
40
0.432278571174958
40
0.556416845271833
40
0.681679785607128
40
0.793859150360436
40
0.921826329766368
40
1
40
1
40
1
40
1
41
1
10
287.555011360507
20
10.8872087149763
30
0
41
1
10
287.554794910831
20
10.8975213538897
30
0
41
1
10
287.555917857637
20
10.9291166454892
30
0
41
1
10
287.562018268893
20
10.9678387965237
30
0
41
1
10
287.579160760749
20
10.9943615848698
30
0
41
1
10
287.596635088183
20
11.0032599089765
30
0
41
1
10
287.619157766394
20
10.9997522682054
30
0
41
1
10
287.639812086508
20
10.9871545656548
30
0
41
1
10
287.652478051636
20
10.9764938403015
30
0
41
1
10
287.65725
20
10.9719368077127
30
0
0
SPLINE
5
164
100
AcDbEntity
8
1
62
256
6
ByLayer
370
18
48
1
60
0
100
AcDbSpline
70
4
71
3
72
10
73
6
40
0
40
0
40
0
40
0
40
0.183048331564047
40
0.859515705816356
40
1
40
1
40
1
40
1
41
1
10
287.555017244399
20
-10.8864398912318
30
0
41
1
10
287.555942472327
20
-10.8599843976353
30
0
41
1
10
287.564464988637
20
-10.7346650724018
30
0
41
1
10
287.606509813793
20
-10.5749695797472
30
0
41
1
10
287.649401846817
20
-10.4476588174966
30
0
41
1
10
287.65725
20
-10.4256727570729
30
0
0
SPLINE
5
165
100
AcDbEntity
8
1
62
256
6
ByLayer
370
18
48
1
60
0
100
AcDbSpline
70
4
71
3
72
14
73
10
40
0
40
0
40
0
40
0
40
0.0617078890033155
40
0.263114248683451
40
0.466061522330642
40
0.602372188177835
40
0.739176880901662
40
0.869036933416031
40
1
40
1
40
1
40
1
41
1
10
287.555002402522
20
12.8772305165887
30
0
41
1
10
287.554969421878
20
12.8811445502882
30
0
41
1
10
287.555292053417
20
12.8974714445143
30
0
41
1
10
287.55859860252
20
12.9245618991858
30
0
41
1
10
287.57045100136
20
12.9490076024356
30
0
41
1
10
287.589461027341
20
12.959120570745
30
0
41
1
10
287.610946039811
20
12.956830747443
30
0
41
1
10
287.634417727209
20
12.9448783803618
30
0
41
1
10
287.649564454984
20
12.9335762274619
30
0
41
1
10
287.65725
20
12.9267973886504
30
0
0
SPLINE
5
166
100
AcDbEntity
8
1
62
256
6
ByLayer
370
18
48
1
60
0
100
AcDbSpline
70
4
71
3
72
10
73
6
40
0
40
0
40
0
40
0
40
0.0340274245100363
40
0.415044787858845
40
1
40
1
40
1
40
1
41
1
10
287.555002425298
20
-12.8772250208738
30
0
41
1
10
287.555036900651
20
-12.873539106952
30
0
41
1
10
287.55598463012
20
-12.8283224309488
30
0
41
1
10
287.58089688564
20
-12.7052962332344
30
0
41
1
10
287.622322050846
20
-12.585293665942
30
0
41
1
10
287.65725
20
-12.5090350955934
30
0
0
SPLINE
5
167
100
AcDbEntity
8
1
62
256
6
ByLayer
370
18
48
1
60
0
100
AcDbSpline
70
4
71
3
72
13
73
9
40
0
40
0
40
0
40
0
40
0.106322020951498
40
0.308092026541328
40
0.511861720183962
40
0.687387669813419
40
0.838178876361266
40
1
40
1
40
1
40
1
41
1
10
287.555003423148
20
14.4419810199694
30
0
41
1
10
287.554902748484
20
14.4478807434843
30
0
41
1
10
287.5557309423
20
14.4639528573804
30
0
41
1
10
287.561449200834
20
14.4873359995496
30
0
41
1
10
287.578391104751
20
14.5028448339463
30
0
41
1
10
287.603424866665
20
14.501489161909
30
0
41
1
10
287.630477830277
20
14.4883501757058
30
0
41
1
10
287.647958903935
20
14.4758016130345
30
0
41
1
10
287.65725
20
14.4679225924801
30
0
0
SPLINE
5
168
100
AcDbEntity
8
1
62
256
6
ByLayer
370
18
48
1
60
0
100
AcDbSpline
70
4
71
3
72
10
73
6
40
0
40
0
40
0
40
0
40
0.192958189275802
40
0.662877134872559
40
1
40
1
40
1
40
1
41
1
10
287.555003412463
20
-14.4419827618974
30
0
41
1
10
287.555775357579
20
-14.4247468535211
30
0
41
1
10
287.562247184345
20
-14.3638370838714
30
0
41
1
10
287.599082328815
20
-14.2562196219807
30
0
41
1
10
287.638177661418
20
-14.1703207309281
30
0
41
1
10
287.65725
20
-14.1335510614993
30
0
0
SPLINE
5
169
100
AcDbEntity
8
1
62
256
6
ByLayer
370
18
48
1
60
0
100
AcDbSpline
70
4
71
3
72
13
73
9
40
0
40
0
40
0
40
0
40
0.15693869858315
40
0.349316531427337
40
0.54311349397547
40
0.714312677860173
40
0.930589975771636
40
1
40
1
40
1
40
1
41
1
10
287.555008535533
20
15.7101151220355
30
0
41
1
10
287.554764424077
20
15.7178825742427
30
0
41
1
10
287.556326840231
20
15.7330199523804
30
0
41
1
10
287.565117235662
20
15.7510191699904
30
0
41
1
10
287.58431428651
20
15.7571096349773
30
0
41
1
10
287.612372194197
20
15.74899564906
30
0
41
1
10
287.637679226159
20
15.7329360348716
30
0
41
1
10
287.653396743984
20
15.72066053656
30
0
41
1
10
287.657250000002
20
15.7174895437139
30
0
0
SPLINE
5
16A
100
AcDbEntity
8
1
62
256
6
ByLayer
370
18
48
1
60
0
100
AcDbSpline
70
4
71
3
72
10
73
6
40
0
40
0
40
0
40
0
40
0.230543928052963
40
0.670249368460773
40
1
40
1
40
1
40
1
41
1
10
287.555000472764
20
-15.7112166191105
30
0
41
1
10
287.555973870088
20
-15.6941926951023
30
0
41
1
10
287.563390370997
20
-15.6424094026312
30
0
41
1
10
287.601280134767
20
-15.548398000889
30
0
41
1
10
287.638677503405
20
-15.4764629670545
30
0
41
1
10
287.65725
20
-15.4446939818576
30
0
0
SPLINE
5
16B
100
AcDbEntity
8
1
62
256
6
ByLayer
370
18
48
1
60
0
100
AcDbSpline
70
4
71
3
72
13
73
9
40
0
40
0
40
0
40
0
40
0.0632694644458555
40
0.27666384045861
40
0.491667190860423
40
0.676297285291794
40
0.911346290098306
40
1
40
1
40
1
40
1
41
1
10
287.555000929875
20
16.7508182535806
30
0
41
1
10
287.554969985234
20
16.7534297023435
30
0
41
1
10
287.55550091994
20
16.7641829123098
30
0
41
1
10
287.560935326727
20
16.779474812584
30
0
41
1
10
287.579425426928
20
16.7851478318844
30
0
41
1
10
287.607960906403
20
16.7759274024369
30
0
41
1
10
287.635043745723
20
16.7584802199497
30
0
41
1
10
287.652419939031
20
16.7448966802659
30
0
41
1
10
287.657250000006
20
16.7409130865523
30
0
0
SPLINE
5
16C
100
AcDbEntity
8
1
62
256
6
ByLayer
370
18
48
1
60
0
100
AcDbSpline
70
4
71
3
72
11
73
7
40
0
40
0
40
0
40
0
40
0.030236227165821
40
0.300567593954841
40
0.740596753790132
40
1
40
1
40
1
40
1
41
1
10
287.555000725937
20
-16.7508635079356
30
0
41
1
10
287.555017361135
20
-16.7491477519593
30
0
41
1
10
287.555575568673
20
-16.7318046022458
30
0
41
1
10
287.569149254963
20
-16.6789954170122
30
0
41
1
10
287.607837049872
20
-16.5985027415873
30
0
41
1
10
287.642867396602
20
-16.5396035419022
30
0
41
1
10
287.65725
20
-16.5172600263618
30
0
0
SPLINE
5
16D
100
AcDbEntity
8
1
62
256
6
ByLayer
370
18
48
1
60
0
100
AcDbSpline
70
4
71
3
72
13
73
9
40
0
40
0
40
0
40
0
40
0.0212809377381083
40
0.2385613861122
40
0.457168607694644
40
0.649648659773481
40
0.903508497126165
40
1
40
1
40
1
40
1
41
1
10
287.555000081396
20
17.602545625745
30
0
41
1
10
287.55499712244
20
17.6032852321386
30
0
41
1
10
287.555161987585
20
17.6113772392832
30
0
41
1
10
287.559253003597
20
17.6236047693758
30
0
41
1
10
287.57688156024
20
17.6269244451721
30
0
41
1
10
287.605349565434
20
17.6158580447934
30
0
41
1
10
287.633524661658
20
17.5968329280773
30
0
41
1
10
287.65205242859
20
17.5820731962956
30
0
41
1
10
287.657250000005
20
17.5777377493884
30
0
0
SPLINE
5
16E
100
AcDbEntity
8
1
62
256
6
ByLayer
370
18
48
1
60
0
100
AcDbSpline
70
4
71
3
72
11
73
7
40
0
40
0
40
0
40
0
40
0.0812329922284024
40
0.361133281662921
40
0.796537058091844
40
1
40
1
40
1
40
1
41
1
10
287.55500147232
20
-17.6022405721771
30
0
41
1
10
287.555099462372
20
-17.5984504549655
30
0
41
1
10
287.556719074078
20
-17.580709703447
30
0
41
1
10
287.574802179398
20
-17.5294836558493
30
0
41
1
10
287.613632517066
20
-17.4603267694139
30
0
41
1
10
287.646115482642
20
-17.4113458694242
30
0
41
1
10
287.65725
20
-17.3954357623967
30
0
0
SPLINE
5
16F
100
AcDbEntity
8
1
62
256
6
ByLayer
370
18
48
1
60
0
100
AcDbSpline
70
4
71
3
72
11
73
7
40
0
40
0
40
0
40
0
40
0.130632392229618
40
0.415548682631265
40
0.843413418810598
40
1
40
1
40
1
40
1
41
1
10
287.555000724703
20
-18.2919300405605
30
0
41
1
10
287.555219444984
20
-18.2869735895815
30
0
41
1
10
287.55799512545
20
-18.2695849031442
30
0
41
1
10
287.580249725645
20
-18.2201944449455
30
0
41
1
10
287.618700276632
20
-18.1601189387494
30
0
41
1
10
287.648761892694
20
-18.1187907830027
30
0
41
1
10
287.65725
20
-18.1075258373112
30
0
0
SPLINE
5
170
100
AcDbEntity
8
1
62
256
6
ByLayer
370
18
48
1
60
0
100
AcDbSpline
70
4
71
3
72
12
73
8
40
0
40
0
40
0
40
0
40
0.203982101215652
40
0.42289203830086
40
0.62122575978543
40
0.890379488772235
40
1
40
1
40
1
40
1
41
1
10
287.555000066086
20
18.292086575487
30
0
41
1
10
287.554897963952
20
18.2983003785211
30
0
41
1
10
287.558176529177
20
18.3071735753694
30
0
41
1
10
287.574243124086
20
18.3084735293176
30
0
41
1
10
287.602275393741
20
18.2955987473305
30
0
41
1
10
287.631553976018
20
18.2748245964975
30
0
41
1
10
287.651377526233
20
18.258638471764
30
0
41
1
10
287.657250000007
20
18.2536450551943
30
0
0
SPLINE
5
171
100
AcDbEntity
8
1
62
256
6
ByLayer
370
18
48
1
60
0
100
AcDbSpline
70
4
71
3
72
12
73
8
40
0
40
0
40
0
40
0
40
0.171820385506393
40
0.389124108028847
40
0.591678114719673
40
0.873622739350307
40
1
40
1
40
1
40
1
41
1
10
287.555000312325
20
18.8374254774193
30
0
41
1
10
287.554945951919
20
18.8415859421234
30
0
41
1
10
287.557566085496
20
18.8479456508417
30
0
41
1
10
287.571645644365
20
18.8471547875957
30
0
41
1
10
287.598948282838
20
18.8325246100649
30
0
41
1
10
287.629289303415
20
18.8097517340527
30
0
41
1
10
287.650490893341
20
18.7919055473377
30
0
41
1
10
287.657250000011
20
18.7860121158195
30
0
0
SPLINE
5
172
100
AcDbEntity
8
1
62
256
6
ByLayer
370
18
48
1
60
0
100
AcDbSpline
70
4
71
3
72
11
73
7
40
0
40
0
40
0
40
0
40
0.143406160135598
40
0.416179409661014
40
0.813457131820016
40
1
40
1
40
1
40
1
41
1
10
287.555000075114
20
-18.8374837408245
30
0
41
1
10
287.555218734815
20
-18.8332559112073
30
0
41
1
10
287.558158421244
20
-18.8190743086719
30
0
41
1
10
287.579864871635
20
-18.7772067985676
30
0
41
1
10
287.617427602226
20
-18.7232747229728
30
0
41
1
10
287.647143977536
20
-18.685075854437
30
0
41
1
10
287.65725
20
-18.6725412982299
30
0
0
SPLINE
5
173
100
AcDbEntity
8
1
62
256
6
ByLayer
370
18
48
1
60
0
100
AcDbSpline
70
4
71
3
72
12
73
8
40
0
40
0
40
0
40
0
40
0.0937750043520266
40
0.315079293964291
40
0.520086113400718
40
0.799364997268352
40
1
40
1
40
1
40
1
41
1
10
287.555000241862
20
19.250975551376
30
0
41
1
10
287.554980723118
20
19.252660330552
30
0
41
1
10
287.556166673441
20
19.2569820460955
30
0
41
1
10
287.56547045096
20
19.2567181522671
30
0
41
1
10
287.589775411851
20
19.2426519312952
30
0
41
1
10
287.621987058705
20
19.2176386678643
30
0
41
1
10
287.646436280983
20
19.1965225182805
30
0
41
1
10
287.65725
20
19.1867908893245
30
0
0
SPLINE
5
174
100
AcDbEntity
8
1
62
256
6
ByLayer
370
18
48
1
60
0
100
AcDbSpline
70
4
71
3
72
11
73
7
40
0
40
0
40
0
40
0
40
0.151510210552043
40
0.411847092875901
40
0.7806285912932
40
1
40
1
40
1
40
1
41
1
10
287.555000030128
20
-19.2510233429179
30
0
41
1
10
287.555213291713
20
-19.2477351167947
30
0
41
1
10
287.558226651058
20
-19.2366590343581
30
0
41
1
10
287.579017327131
20
-19.2017481251854
30
0
41
1
10
287.615762487581
20
-19.1531383553434
30
0
41
1
10
287.645364287079
20
-19.1174078722661
30
0
41
1
10
287.65725
20
-19.1035364558304
30
0
0
SPLINE
5
175
100
AcDbEntity
8
1
62
256
6
ByLayer
370
18
48
1
60
0
100
AcDbSpline
70
4
71
3
72
12
73
8
40
0
40
0
40
0
40
0
40
0.0040678379005729
40
0.193259184993738
40
0.453930994611811
40
0.816503936930041
40
1
40
1
40
1
40
1
41
1
10
287.555000003065
20
-19.5410513391963
30
0
41
1
10
287.555000102346
20
-19.540998898705
30
0
41
1
10
287.555041908085
20
-19.5384715788751
30
0
41
1
10
287.559763366212
20
-19.5278958526447
30
0
41
1
10
287.583394766297
20
-19.494953440049
30
0
41
1
10
287.61968179993
20
-19.4515850423524
30
0
41
1
10
287.64738507519
20
-19.4203496943217
30
0
41
1
10
287.657250000001
20
-19.4094413032536
30
0
0
SPLINE
5
176
100
AcDbEntity
8
1
62
256
6
ByLayer
370
18
48
1
60
0
100
AcDbSpline
70
4
71
3
72
12
73
8
40
0
40
0
40
0
40
0
40
0.0805814427705787
40
0.294856636486356
40
0.501424598235907
40
0.795507813485954
40
1
40
1
40
1
40
1
41
1
10
287.555000074588
20
19.5410298872621
30
0
41
1
10
287.554994909587
20
19.5419980562034
30
0
41
1
10
287.555997909948
20
19.5444659198811
30
0
41
1
10
287.564538790173
20
19.541741577563
30
0
41
1
10
287.588322652416
20
19.524900506125
30
0
41
1
10
287.620983720608
20
19.4972337835865
30
0
41
1
10
287.646251711464
20
19.4743399506937
30
0
41
1
10
287.65725
20
19.4641115400997
30
0
0
SPLINE
5
177
100
AcDbEntity
8
1
62
256
6
ByLayer
370
18
48
1
60
0
100
AcDbSpline
70
4
71
3
72
12
73
8
40
0
40
0
40
0
40
0
40
0.101523682145543
40
0.298670259603616
40
0.579960061486406
40
0.971009684658797
40
1
40
1
40
1
40
1
41
1
10
287.555000044759
20
-19.7130031276509
30
0
41
1
10
287.555046733676
20
-19.7123126748356
30
0
41
1
10
287.556492157933
20
-19.7090003075641
30
0
41
1
10
287.567719690897
20
-19.6941913394474
30
0
41
1
10
287.599047395785
20
-19.6582641268284
30
0
41
1
10
287.633679505405
20
-19.6209690724057
30
0
41
1
10
287.655717722444
20
-19.5977282863562
30
0
41
1
10
287.65725
20
-19.5961148774388
30
0
0
SPLINE
5
178
100
AcDbEntity
8
1
62
256
6
ByLayer
370
18
48
1
60
0
100
AcDbSpline
70
4
71
3
72
12
73
8
40
0
40
0
40
0
40
0
40
0.101897259976051
40
0.309477308976179
40
0.52097774888243
40
0.843702230846807
40
1
40
1
40
1
40
1
41
1
10
287.555000029089
20
19.7130051391009
30
0
41
1
10
287.555013028712
20
19.7136125625675
30
0
41
1
10
287.556404817249
20
19.7140568873087
30
0
41
1
10
287.566369579928
20
19.7070410064692
30
0
41
1
10
287.591854792125
20
19.6849792726466
30
0
41
1
10
287.624433074224
20
19.6546523938096
30
0
41
1
10
287.648908641859
20
19.6312544707722
30
0
41
1
10
287.657250000007
20
19.6232090000593
30
0
0
SPLINE
5
179
100
AcDbEntity
8
1
62
256
6
ByLayer
370
18
48
1
60
0
100
AcDbSpline
70
4
71
3
72
12
73
8
40
0
40
0
40
0
40
0
40
0.45964430597275
40
0.642726098164927
40
0.827224710285287
40
0.942229897394032
40
1
40
1
40
1
40
1
41
1
10
11.8943375672976
20
8.05584836782959
30
0
41
1
10
11.8706099476331
20
7.94573224796368
30
0
41
1
10
11.8113426472373
20
7.80565268512444
30
0
41
1
10
11.6954747324324
20
7.6419938903024
30
0
41
1
10
11.6035890511572
20
7.56467770031644
30
0
41
1
10
11.5186515565361
20
7.53341137556468
30
0
41
1
10
11.4759305516652
20
7.52978436585087
30
0
41
1
10
11.4613248654054
20
7.52966679426651
30
0
0
SPLINE
5
17A
100
AcDbEntity
8
1
62
256
6
ByLayer
370
18
48
1
60
0
100
AcDbSpline
70
4
71
3
72
12
73
8
40
0
40
0
40
0
40
0
40
0.111858040727051
40
0.249615564081442
40
0.46651232529518
40
0.883363308578639
40
1
40
1
40
1
40
1
41
1
10
11.4613248654054
20
23.8391299750498
30
0
41
1
10
11.4902024771471
20
23.8388589976892
30
0
41
1
10
11.5512049415473
20
23.835735226663
30
0
41
1
10
11.6532263618684
20
23.8170102166348
30
0
41
1
10
11.7782175608377
20
23.7714946431972
30
0
41
1
10
11.8507722029758
20
23.7164634042063
30
0
41
1
10
11.8873565915029
20
23.6756140303032
30
0
41
1
10
11.8943375672977
20
23.6665017920803
30
0
0
SPLINE
5
17B
100
AcDbEntity
8
1
62
256
6
ByLayer
370
18
48
1
60
0
100
AcDbSpline
70
4
71
3
72
12
73
8
40
0
40
0
40
0
40
0
40
0.459644305972746
40
0.642726098164922
40
0.827224710285279
40
0.942229897394028
40
1
40
1
40
1
40
1
41
1
10
8.10566243270276
20
23.6665017920802
30
0
41
1
10
8.12939005236719
20
23.7038077009472
30
0
41
1
10
8.18865735276298
20
23.7505385119534
30
0
41
1
10
8.30452526756795
20
23.8034353169049
30
0
41
1
10
8.3964109488431
20
23.8280652820461
30
0
41
1
10
8.48134844346423
20
23.8379462243758
30
0
41
1
10
8.52406944833518
20
23.8390940049541
30
0
41
1
10
8.53867513459492
20
23.8391299750499
30
0
0
SPLINE
5
17C
100
AcDbEntity
8
1
62
256
6
ByLayer
370
18
48
1
60
0
100
AcDbSpline
70
4
71
3
72
12
73
8
40
0
40
0
40
0
40
0
40
0.11185804072705
40
0.249615564081429
40
0.466512325295161
40
0.883363308578582
40
1
40
1
40
1
40
1
41
1
10
8.53867513459498
20
7.52966679426681
30
0
41
1
10
8.50979752285321
20
7.53055100813418
30
0
41
1
10
8.44879505845305
20
7.54041112540634
30
0
41
1
10
8.34677363813193
20
7.59950838736049
30
0
41
1
10
8.22178243916264
20
7.74142185662894
30
0
41
1
10
8.14922779702453
20
7.90844135819101
30
0
41
1
10
8.11264340849748
20
8.0290626828666
30
0
41
1
10
8.10566243270261
20
8.05584836782957
30
0
0
SPLINE
5
17D
100
AcDbEntity
8
1
62
256
6
ByLayer
370
18
48
1
60
0
100
AcDbSpline
70
4
71
3
72
12
73
8
40
0
40
0
40
0
40
0
40
0.459644305972738
40
0.642726098164922
40
0.827224710285285
40
0.942229897394027
40
1
40
1
40
1
40
1
41
1
10
11.8943375672976
20
-23.6665017920802
30
0
41
1
10
11.8706099476331
20
-23.7038077009472
30
0
41
1
10
11.8113426472374
20
-23.7505385119535
30
0
41
1
10
11.6954747324324
20
-23.8034353169049
30
0
41
1
10
11.6035890511572
20
-23.8280652820461
30
0
41
1
10
11.5186515565361
20
-23.8379462243758
30
0
41
1
10
11.4759305516652
20
-23.8390940049542
30
0
41
1
10
11.4613248654054
20
-23.8391299750499
30
0
0
SPLINE
5
17E
100
AcDbEntity
8
1
62
256
6
ByLayer
370
18
48
1
60
0
100
AcDbSpline
70
4
71
3
72
12
73
8
40
0
40
0
40
0
40
0
40
0.111858040727054
40
0.249615564081426
40
0.46651232529517
40
0.883363308578615
40
1
40
1
40
1
40
1
41
1
10
11.4613248654054
20
-7.5296667942668
30
0
41
1
10
11.4902024771471
20
-7.53055100813417
30
0
41
1
10
11.5512049415473
20
-7.54041112540634
30
0
41
1
10
11.6532263618684
20
-7.59950838736048
30
0
41
1
10
11.7782175608377
20
-7.74142185662893
30
0
41
1
10
11.8507722029758
20
-7.908441358191
30
0
41
1
10
11.8873565915029
20
-8.02906268286658
30
0
41
1
10
11.8943375672977
20
-8.05584836782954
30
0
0
SPLINE
5
17F
100
AcDbEntity
8
1
62
256
6
ByLayer
370
18
48
1
60
0
100
AcDbSpline
70
4
71
3
72
12
73
8
40
0
40
0
40
0
40
0
40
0.459644305972774
40
0.642726098164951
40
0.827224710285304
40
0.942229897394048
40
1
40
1
40
1
40
1
41
1
10
8.10566243270276
20
-8.0558483678296
30
0
41
1
10
8.1293900523672
20
-7.94573224796368
30
0
41
1
10
8.18865735276299
20
-7.80565268512443
30
0
41
1
10
8.30452526756797
20
-7.64199389030239
30
0
41
1
10
8.39641094884314
20
-7.56467770031644
30
0
41
1
10
8.48134844346424
20
-7.53341137556466
30
0
41
1
10
8.52406944833519
20
-7.52978436585086
30
0
41
1
10
8.53867513459492
20
-7.5296667942665
30
0
0
SPLINE
5
180
100
AcDbEntity
8
1
62
256
6
ByLayer
370
18
48
1
60
0
100
AcDbSpline
70
4
71
3
72
12
73
8
40
0
40
0
40
0
40
0
40
0.111858040727049
40
0.249615564081434
40
0.466512325295171
40
0.883363308578596
40
1
40
1
40
1
40
1
41
1
10
8.53867513459498
20
-23.8391299750498
30
0
41
1
10
8.50979752285321
20
-23.8388589976892
30
0
41
1
10
8.44879505845305
20
-23.8357352266631
30
0
41
1
10
8.34677363813194
20
-23.8170102166348
30
0
41
1
10
8.22178243916264
20
-23.7714946431973
30
0
41
1
10
8.14922779702455
20
-23.7164634042063
30
0
41
1
10
8.11264340849748
20
-23.6756140303032
30
0
41
1
10
8.10566243270261
20
-23.6665017920803
30
0
0
SPLINE
5
181
100
AcDbEntity
8
SK1
62
256
6
ByLayer
370
18
48
1
60
0
100
AcDbSpline
70
4
71
3
72
17
73
13
40
0
40
0
40
0
40
0
40
0.129370912098485
40
0.161372773536591
40
0.193726823314404
40
0.211711561199926
40
0.229736208410662
40
0.25301767842394
40
0.293608414881945
40
0.419265595679989
40
0.70896952881977
40
1
40
1
40
1
40
1
41
1
10
-0.194976888870235
20
5.10125345321183
30
0
41
1
10
-0.183219625921387
20
5.07120426728226
30
0
41
1
10
-0.162390524920207
20
5.04107223908918
30
0
41
1
10
-0.130111017071607
20
5.01243092310774
30
0
41
1
10
-0.113155423202429
20
5.00509307846988
30
0
41
1
10
-0.0975701196546129
20
5.00610079647786
30
0
41
1
10
-0.0846174580174477
20
5.01239379006682
30
0
41
1
10
-0.0698020180540046
20
5.02721710858665
30
0
41
1
10
-0.0458259794244714
20
5.07069389331888
30
0
41
1
10
-0.0183770255608551
20
5.18636834564508
30
0
41
1
10
-0.001441368167741
20
5.36390309922379
30
0
41
1
10
0.002293818807323
20
5.50769526894718
30
0
41
1
10
-3.35E-14
20
5.57923236301403
30
0
0
SPLINE
5
182
100
AcDbEntity
8
SK1
62
256
6
ByLayer
370
18
48
1
60
0
100
AcDbSpline
70
4
71
3
72
18
73
14
40
0
40
0
40
0
40
0
40
0.515611483670743
40
0.606510907428433
40
0.693265321606003
40
0.726532304130137
40
0.76007066800459
40
0.778839374661291
40
0.797715271312323
40
0.815112837074581
40
0.845476603007444
40
0.922248768040586
40
1
40
1
40
1
40
1
41
1
10
6E-16
20
-5.5792303660677
30
0
41
1
10
0.0069355605930151
20
-5.45145300375908
30
0
41
1
10
-0.0028336610067973
20
-5.30029554557325
30
0
41
1
10
-0.0324270977885948
20
-5.12589476460443
30
0
41
1
10
-0.0469547088853782
20
-5.07301429964301
30
0
41
1
10
-0.0638796745902831
20
-5.03696291616061
30
0
41
1
10
-0.0769595507712251
20
-5.01879344864658
30
0
41
1
10
-0.0913435766460744
20
-5.00838711478581
30
0
41
1
10
-0.103898239085698
20
-5.00506725881663
30
0
41
1
10
-0.118635156888566
20
-5.00693088781322
30
0
41
1
10
-0.14282649535544
20
-5.02036432159245
30
0
41
1
10
-0.169052332462011
20
-5.0541172677732
30
0
41
1
10
-0.187358447100428
20
-5.08431871683362
30
0
41
1
10
-0.194976888875455
20
-5.1012508689536
30
0
0
SPLINE
5
183
100
AcDbEntity
8
SK1
62
256
6
ByLayer
370
18
48
1
60
0
100
AcDbSpline
70
4
71
3
72
18
73
14
40
0
40
0
40
0
40
0
40
0.0867859088116186
40
0.174388230920701
40
0.204391489438823
40
0.234671967487125
40
0.261445125233816
40
0.297643777124913
40
0.363600770559194
40
0.47080177733429
40
0.578521326755888
40
0.789147305204597
40
1
40
1
40
1
40
1
41
1
10
-0.194976888875294
20
-5.10125086895557
30
0
41
1
10
-0.221878345272022
20
-5.16279248735198
30
0
41
1
10
-0.292002752064239
20
-5.27443945265231
30
0
41
1
10
-0.397923044699532
20
-5.39867139422102
30
0
41
1
10
-0.506734254707708
20
-5.45369824756887
30
0
41
1
10
-0.580832647301711
20
-5.46537303816403
30
0
41
1
10
-0.659464906909539
20
-5.45016266314567
30
0
41
1
10
-0.753549961975785
20
-5.39783335120496
30
0
41
1
10
-0.867975744858223
20
-5.27541375293589
30
0
41
1
10
-0.979424531976098
20
-5.08791011466067
30
0
41
1
10
-1.10321158466255
20
-4.78542505141108
30
0
41
1
10
-1.21974815506088
20
-4.39418134204452
30
0
41
1
10
-1.28840714285459
20
-4.07352225908786
30
0
41
1
10
-1.31543506509547
20
-3.91026939581314
30
0
0
SPLINE
5
184
100
AcDbEntity
8
SK1
62
256
6
ByLayer
370
18
48
1
60
0
100
AcDbSpline
70
4
71
3
72
18
73
14
40
0
40
0
40
0
40
0
40
0.290028556667407
40
0.43822854043341
40
0.585914467467179
40
0.660011386656575
40
0.711459327226601
40
0.742523658862856
40
0.76866197838311
40
0.79482551230881
40
0.830632631424506
40
0.89532463886043
40
1
40
1
40
1
40
1
41
1
10
-1.31543506509498
20
3.9102717266545
30
0
41
1
10
-1.27831462935218
20
4.13520612454474
30
0
41
1
10
-1.20043175605491
20
4.46656088286041
30
0
41
1
10
-1.06545246966135
20
4.89629725804772
30
0
41
1
10
-0.944829963032176
20
5.15538116405761
30
0
41
1
10
-0.821911731500919
20
5.32998519293711
30
0
41
1
10
-0.727830289462244
20
5.41484436947945
30
0
41
1
10
-0.645691157501362
20
5.45425148201704
30
0
41
1
10
-0.57471331323347
20
5.46468268235865
30
0
41
1
10
-0.500539379347271
20
5.45184544398556
30
0
41
1
10
-0.408083717975187
20
5.40259983893202
30
0
41
1
10
-0.297157983214797
20
5.28403205813634
30
0
41
1
10
-0.226849889315831
20
5.17627801963446
30
0
41
1
10
-0.194976888875295
20
5.10125345321177
30
0
0
SPLINE
5
185
100
AcDbEntity
8
SK1
62
256
6
ByLayer
370
18
48
1
60
0
100
AcDbSpline
70
4
71
2
72
6
73
3
40
0
40
0
40
0
40
1
40
1
40
1
41
1
10
-28.5
20
-16.8545212066649
30
0
41
1
10
-15.2499999987993
20
-17.1871851888411
30
0
41
1
10
-2
20
-17.5198482068775
30
0
0
SPLINE
5
186
100
AcDbEntity
8
SK1
62
256
6
ByLayer
370
18
48
1
60
0
100
AcDbSpline
70
4
71
2
72
6
73
3
40
0
40
0
40
0
40
1
40
1
40
1
41
1
10
-2
20
17.5198479235724
30
0
41
1
10
-15.2499999987995
20
17.1871849060498
30
0
41
1
10
-28.5
20
16.8545209244112
30
0
0
SPLINE
5
187
100
AcDbEntity
8
SK1
62
256
6
ByLayer
370
18
48
1
60
0
100
AcDbSpline
70
4
71
3
72
13
73
9
40
0
40
0
40
0
40
0
40
0.239409099367232
40
0.368297400752132
40
0.499931438691509
40
0.63157686635809
40
0.76049658355097
40
1
40
1
40
1
40
1
41
1
10
-2
20
-17.525129116923
30
0
41
1
10
-1.999091257198
20
-17.4990813944884
30
0
41
1
10
-1.99103211472606
20
-17.4617233046648
30
0
41
1
10
-1.96563495891919
20
-17.4155240253433
30
0
41
1
10
-1.93886250822575
20
-17.3842556209573
30
0
41
1
10
-1.90627575278675
20
-17.3590990612904
30
0
41
1
10
-1.85883875467889
20
-17.3360651360603
30
0
41
1
10
-1.82110932008981
20
-17.3298953840654
30
0
41
1
10
-1.7950399779393
20
-17.3302974649007
30
0
0
SPLINE
5
188
100
AcDbEntity
8
SK1
62
256
6
ByLayer
370
18
48
1
60
0
100
AcDbSpline
70
4
71
3
72
13
73
9
40
0
40
0
40
0
40
0
40
0.255664312558838
40
0.393283104703418
40
0.533811529302256
40
0.674327795722604
40
0.811913052470472
40
1
40
1
40
1
40
1
41
1
10
-1.7950399779393
20
17.3302973195575
30
0
41
1
10
-1.82110932009615
20
17.3298952387249
30
0
41
1
10
-1.85883863471188
20
17.336064693352
30
0
41
1
10
-1.90627597098526
20
17.3590994568546
30
0
41
1
10
-1.93886166140051
20
17.3842533767782
30
0
41
1
10
-1.96563809251062
20
17.4155316473379
30
0
41
1
10
-1.98780770297255
20
17.455849018032
30
0
41
1
10
-1.99605051841839
20
17.4864531869698
30
0
41
1
10
-1.99849243767098
20
17.505144640418
30
0
0
SPLINE
5
189
100
AcDbEntity
8
SK1
62
256
6
ByLayer
370
18
48
1
60
0
100
AcDbSpline
70
4
71
1
72
4
73
2
40
0
40
0
40
1
40
1
41
1
10
-1.99849243767098
20
17.505144640418
30
0
41
1
10
-2
20
17.5251289721744
30
0
0
SPLINE
5
18A
100
AcDbEntity
8
SK1
62
256
6
ByLayer
370
18
48
1
60
0
100
AcDbSpline
70
4
71
3
72
17
73
13
40
0
40
0
40
0
40
0
40
0.0991066914865291
40
0.198192594110716
40
0.299572892017751
40
0.400912257008722
40
0.500457652743417
40
0.600003201073919
40
0.703883387668574
40
0.807808442102323
40
0.903895162368109
40
1
40
1
40
1
40
1
41
1
10
-1.31543506509498
20
-3.91026939581308
30
0
41
1
10
-1.36028224669224
20
-3.66591237550813
30
0
41
1
10
-1.44441779668686
20
-3.17116817263616
30
0
41
1
10
-1.55780793439527
20
-2.40463952292464
30
0
41
1
10
-1.64885235851604
20
-1.6143353399353
30
0
41
1
10
-1.70939050306726
20
-0.807493432008588
30
0
41
1
10
-1.72959530003107
20
0.0037094397142391
30
0
41
1
10
-1.70883262403852
20
0.821723015145935
30
0
41
1
10
-1.64644433354019
20
1.64191501898717
30
0
41
1
10
-1.55345884751514
20
2.43690391310082
30
0
41
1
10
-1.44061841886797
20
3.19373322287959
30
0
41
1
10
-1.35888052438919
20
3.67332000097433
30
0
41
1
10
-1.31543506509498
20
3.91027172665448
30
0
0
SPLINE
5
18B
100
AcDbEntity
8
SK1
62
256
6
ByLayer
370
18
48
1
60
0
100
AcDbSpline
70
4
71
2
72
6
73
3
40
0
40
0
40
0
40
1
40
1
40
1
41
1
10
-1.7950399779393
20
-17.3250646819565
30
0
41
1
10
-0.99500843340304
20
-17.3451508243471
30
0
41
1
10
-0.194976888875294
20
-17.3652369633
30
0
0
SPLINE
5
18C
100
AcDbEntity
8
SK1
62
256
6
ByLayer
370
18
48
1
60
0
100
AcDbSpline
70
4
71
2
72
6
73
3
40
0
40
0
40
0
40
1
40
1
40
1
41
1
10
-0.194976888875294
20
17.3652366802367
30
0
41
1
10
-0.995008433403041
20
17.3451505413152
30
0
41
1
10
-1.7950399779393
20
17.3250643989562
30
0
0
SPLINE
5
18D
100
AcDbEntity
8
SK1
62
256
6
ByLayer
370
18
48
1
60
0
100
AcDbSpline
70
4
71
2
72
6
73
3
40
0
40
0
40
0
40
1
40
1
40
1
41
1
10
-30
20
-15.9932495545753
30
0
41
1
10
-29.2499990770552
20
-16.4260289695447
30
0
41
1
10
-28.5
20
-16.8588008432385
30
0
0
SPLINE
5
18E
100
AcDbEntity
8
SK1
62
256
6
ByLayer
370
18
48
1
60
0
100
AcDbSpline
70
4
71
1
72
4
73
2
40
0
40
0
40
1
40
1
41
1
10
-28.5
20
16.8588006436881
30
0
41
1
10
-28.5182632749506
20
16.8482621885213
30
0
0
SPLINE
5
18F
100
AcDbEntity
8
SK1
62
256
6
ByLayer
370
18
48
1
60
0
100
AcDbSpline
70
4
71
2
72
6
73
3
40
0
40
0
40
0
40
1
40
1
40
1
41
1
10
-28.5182632749506
20
16.8482621885213
30
0
41
1
10
-29.2591307368908
20
16.4207594505486
30
0
41
1
10
-30
20
15.9932493559076
30
0
0
SPLINE
5
190
100
AcDbEntity
8
SK1
62
256
6
ByLayer
370
18
48
1
60
0
100
AcDbSpline
70
4
71
3
72
17
73
13
40
0
40
0
40
0
40
0
40
0.0657405250607709
40
0.0931315984049524
40
0.105639316665645
40
0.118289849751163
40
0.132330539140411
40
0.14910211619359
40
0.195229911635232
40
0.352416534372423
40
0.681552097443097
40
1
40
1
40
1
40
1
41
1
10
-0.194976888875294
20
-17.3704796738454
30
0
41
1
10
-0.184926114337187
20
-17.3701675468223
30
0
41
1
10
-0.167892865658192
20
-17.3722898591775
30
0
41
1
10
-0.144673929027901
20
-17.3779439318182
30
0
41
1
10
-0.131737224447784
20
-17.3822681291168
30
0
41
1
10
-0.12223562231925
20
-17.3859937717034
30
0
41
1
10
-0.112945867333309
20
-17.3902057898519
30
0
41
1
10
-0.0996054288575639
20
-17.3971073459557
30
0
41
1
10
-0.0745980169557979
20
-17.4131359529554
30
0
41
1
10
-0.0465484577174361
20
-17.4393867676843
30
0
41
1
10
-0.0231681414262768
20
-17.4710118280539
30
0
41
1
10
-0.0118381604286329
20
-17.491392623169
30
0
41
1
10
-0.0091268142652203
20
-17.4998993790104
30
0
0
SPLINE
5
191
100
AcDbEntity
8
SK1
62
256
6
ByLayer
370
18
48
1
60
0
100
AcDbSpline
70
4
71
3
72
20
73
16
40
0
40
0
40
0
40
0
40
0.249814146887026
40
0.526503846245809
40
0.686697029492546
40
0.728728501849306
40
0.742686125913139
40
0.748433515901953
40
0.7536509849651
40
0.758614572191077
40
0.763605266474405
40
0.774533387170721
40
0.803360483171431
40
0.890097715918533
40
1
40
1
40
1
40
1
41
1
10
-0.0055290424768785
20
17.5155581838581
30
0
41
1
10
-0.006943483718881
20
17.5104812929902
30
0
41
1
10
-0.0130634616924939
20
17.4960371607015
30
0
41
1
10
-0.0261500861196165
20
17.4703890738096
30
0
41
1
10
-0.0441505822817421
20
17.4427102550033
30
0
41
1
10
-0.0662518526838927
20
17.4202643041788
30
0
41
1
10
-0.0776080382138329
20
17.4109258542121
30
0
41
1
10
-0.0834912354402314
20
17.4065442098928
30
0
41
1
10
-0.0877257454814874
20
17.4035721294877
30
0
41
1
10
-0.0920441584207996
20
17.4007204601046
30
0
41
1
10
-0.0980292419790858
20
17.3970060721714
30
0
41
1
10
-0.109927005295203
20
17.3903589926142
30
0
41
1
10
-0.134486640869433
20
17.3796505264795
30
0
41
1
10
-0.162355119989471
20
17.3731655742945
30
0
41
1
10
-0.184964907174978
20
17.3699554274787
30
0
41
1
10
-0.194976888875294
20
17.3704795286247
30
0
0
INSERT
5
1AC
100
AcDbEntity
8
SK2
62
256
6
ByLayer
370
25
48
1
60
0
100
AcDbBlockReference
2
DimnDraft3D22
10
0
20
0
30
0
41
1
42
1
43
1
50
0
210
0
220
0
230
1
0
INSERT
5
1C0
100
AcDbEntity
8
SK2
62
256
6
ByLayer
370
25
48
1
60
0
100
AcDbBlockReference
2
DimnDraft3D44
10
0
20
0
30
0
41
1
42
1
43
1
50
0
210
0
220
0
230
1
0
LINE
5
70
100
AcDbEntity
8
81
62
256
6
ByLayer
370
18
48
1
60
0
100
AcDbLine
10
288
20
0
30
0
11
316.8
21
0
31
0
39
0
210
0
220
0
230
1
0
LINE
5
71
100
AcDbEntity
8
4
62
256
6
ByLayer
370
18
48
0.05
60
0
100
AcDbLine
10
0
20
0
30
0
11
288
21
0
31
0
39
0
210
0
220
0
230
1
0
LINE
5
73
100
AcDbEntity
8
SK4
62
256
6
ByLayer
370
18
48
0.05
60
0
100
AcDbLine
10
-35
20
0
30
0
11
294
21
0
31
0
39
0
210
0
220
0
230
1
0
LINE
5
75
100
AcDbEntity
8
80
62
256
6
ByLayer
370
18
48
1
60
0
100
AcDbLine
10
0
20
0
30
0
11
-28.8
21
0
31
0
39
0
210
0
220
0
230
1
0
LINE
5
76
100
AcDbEntity
8
1
62
256
6
ByLayer
370
18
48
1
60
0
100
AcDbLine
10
287.325
20
-20
30
0
11
287.556678
21
-19.768322
31
0
39
0
210
0
220
0
230
1
0
LINE
5
78
100
AcDbEntity
8
1
62
256
6
ByLayer
370
18
48
1
60
0
100
AcDbLine
10
287.556678
20
19.768322
30
0
11
287.325
21
20
31
0
39
0
210
0
220
0
230
1
0
LINE
5
79
100
AcDbEntity
8
1
62
256
6
ByLayer
370
18
48
1
60
0
100
AcDbLine
10
287.325
20
20
30
0
11
286.3
21
20
31
0
39
0
210
0
220
0
230
1
0
LINE
5
7A
100
AcDbEntity
8
1
62
256
6
ByLayer
370
18
48
1
60
0
100
AcDbLine
10
286.3
20
-20
30
0
11
287.325
21
-20
31
0
39
0
210
0
220
0
230
1
0
LINE
5
7B
100
AcDbEntity
8
1
62
256
6
ByLayer
370
18
48
1
60
0
100
AcDbLine
10
287.65725
20
3.66688
30
0
11
287.65725
21
-3.66688
31
0
39
0
210
0
220
0
230
1
0
LINE
5
7C
100
AcDbEntity
8
1
62
256
6
ByLayer
370
18
48
1
60
0
100
AcDbLine
10
288.325
20
1.541407
30
0
11
288.325
21
-1.541407
31
0
39
0
210
0
220
0
230
1
0
LINE
5
7D
100
AcDbEntity
8
1
62
256
6
ByLayer
370
18
48
1
60
0
100
AcDbLine
10
287.65725
20
8.316532
30
0
11
287.65725
21
7.510882
31
0
39
0
210
0
220
0
230
1
0
LINE
5
7E
100
AcDbEntity
8
1
62
256
6
ByLayer
370
18
48
1
60
0
100
AcDbLine
10
287.65725
20
-7.510882
30
0
11
287.65725
21
-8.316532
31
0
39
0
210
0
220
0
230
1
0
LINE
5
7F
100
AcDbEntity
8
1
62
256
6
ByLayer
370
18
48
1
60
0
100
AcDbLine
10
288.325
20
7.545731
30
0
11
288.325
21
4.053252
31
0
39
0
210
0
220
0
230
1
0
LINE
5
80
100
AcDbEntity
8
1
62
256
6
ByLayer
370
18
48
1
60
0
100
AcDbLine
10
288.325
20
-4.053252
30
0
11
288.325
21
-7.545731
31
0
39
0
210
0
220
0
230
1
0
LINE
5
81
100
AcDbEntity
8
1
62
256
6
ByLayer
370
18
48
1
60
0
100
AcDbLine
10
287.65725
20
10.971937
30
0
11
287.65725
21
10.425673
31
0
39
0
210
0
220
0
230
1
0
LINE
5
82
100
AcDbEntity
8
1
62
256
6
ByLayer
370
18
48
1
60
0
100
AcDbLine
10
287.65725
20
-10.425673
30
0
11
287.65725
21
-10.971937
31
0
39
0
210
0
220
0
230
1
0
LINE
5
83
100
AcDbEntity
8
1
62
256
6
ByLayer
370
18
48
1
60
0
100
AcDbLine
10
288.325
20
10.344089
30
0
11
288.325
21
8.358632
31
0
39
0
210
0
220
0
230
1
0
LINE
5
84
100
AcDbEntity
8
1
62
256
6
ByLayer
370
18
48
1
60
0
100
AcDbLine
10
288.325
20
-8.358632
30
0
11
288.325
21
-10.344089
31
0
39
0
210
0
220
0
230
1
0
LINE
5
85
100
AcDbEntity
8
1
62
256
6
ByLayer
370
18
48
1
60
0
100
AcDbLine
10
287.65725
20
12.926797
30
0
11
287.65725
21
12.509035
31
0
39
0
210
0
220
0
230
1
0
LINE
5
86
100
AcDbEntity
8
1
62
256
6
ByLayer
370
18
48
1
60
0
100
AcDbLine
10
287.65725
20
-12.509035
30
0
11
287.65725
21
-12.926797
31
0
39
0
210
0
220
0
230
1
0
LINE
5
87
100
AcDbEntity
8
1
62
256
6
ByLayer
370
18
48
1
60
0
100
AcDbLine
10
288.325
20
12.351611
30
0
11
288.325
21
10.899753
31
0
39
0
210
0
220
0
230
1
0
LINE
5
88
100
AcDbEntity
8
1
62
256
6
ByLayer
370
18
48
1
60
0
100
AcDbLine
10
288.325
20
-10.899753
30
0
11
288.325
21
-12.351611
31
0
39
0
210
0
220
0
230
1
0
LINE
5
89
100
AcDbEntity
8
1
62
256
6
ByLayer
370
18
48
1
60
0
100
AcDbLine
10
287.65725
20
14.467923
30
0
11
287.65725
21
14.133551
31
0
39
0
210
0
220
0
230
1
0
LINE
5
8A
100
AcDbEntity
8
1
62
256
6
ByLayer
370
18
48
1
60
0
100
AcDbLine
10
287.65725
20
-14.133551
30
0
11
287.65725
21
-14.467923
31
0
39
0
210
0
220
0
230
1
0
LINE
5
8B
100
AcDbEntity
8
1
62
256
6
ByLayer
370
18
48
1
60
0
100
AcDbLine
10
288.325
20
-12.776639
30
0
11
288.325
21
-13.914899
31
0
39
0
210
0
220
0
230
1
0
LINE
5
8C
100
AcDbEntity
8
1
62
256
6
ByLayer
370
18
48
1
60
0
100
AcDbLine
10
288.325
20
13.914899
30
0
11
288.325
21
12.776639
31
0
39
0
210
0
220
0
230
1
0
LINE
5
8D
100
AcDbEntity
8
1
62
256
6
ByLayer
370
18
48
1
60
0
100
AcDbLine
10
287.65725
20
15.71749
30
0
11
287.65725
21
15.444694
31
0
39
0
210
0
220
0
230
1
0
LINE
5
8E
100
AcDbEntity
8
1
62
256
6
ByLayer
370
18
48
1
60
0
100
AcDbLine
10
287.65725
20
-15.444694
30
0
11
287.65725
21
-15.71749
31
0
39
0
210
0
220
0
230
1
0
LINE
5
8F
100
AcDbEntity
8
1
62
256
6
ByLayer
370
18
48
1
60
0
100
AcDbLine
10
288.325
20
-14.254136
30
0
11
288.325
21
-15.171899
31
0
39
0
210
0
220
0
230
1
0
LINE
5
90
100
AcDbEntity
8
1
62
256
6
ByLayer
370
18
48
1
60
0
100
AcDbLine
10
288.325
20
15.171899
30
0
11
288.325
21
14.254136
31
0
39
0
210
0
220
0
230
1
0
LINE
5
91
100
AcDbEntity
8
1
62
256
6
ByLayer
370
18
48
1
60
0
100
AcDbLine
10
287.65725
20
16.740913
30
0
11
287.65725
21
16.51726
31
0
39
0
210
0
220
0
230
1
0
LINE
5
92
100
AcDbEntity
8
1
62
256
6
ByLayer
370
18
48
1
60
0
100
AcDbLine
10
287.65725
20
-16.51726
30
0
11
287.65725
21
-16.740913
31
0
39
0
210
0
220
0
230
1
0
LINE
5
93
100
AcDbEntity
8
1
62
256
6
ByLayer
370
18
48
1
60
0
100
AcDbLine
10
288.325
20
-15.447274
30
0
11
288.325
21
-16.194093
31
0
39
0
210
0
220
0
230
1
0
LINE
5
94
100
AcDbEntity
8
1
62
256
6
ByLayer
370
18
48
1
60
0
100
AcDbLine
10
288.325
20
16.194093
30
0
11
288.325
21
15.447274
31
0
39
0
210
0
220
0
230
1
0
LINE
5
95
100
AcDbEntity
8
1
62
256
6
ByLayer
370
18
48
1
60
0
100
AcDbLine
10
287.65725
20
17.577738
30
0
11
287.65725
21
17.395436
31
0
39
0
210
0
220
0
230
1
0
LINE
5
96
100
AcDbEntity
8
1
62
256
6
ByLayer
370
18
48
1
60
0
100
AcDbLine
10
287.65725
20
-17.395436
30
0
11
287.65725
21
-17.577738
31
0
39
0
210
0
220
0
230
1
0
LINE
5
97
100
AcDbEntity
8
1
62
256
6
ByLayer
370
18
48
1
60
0
100
AcDbLine
10
288.325
20
-16.418165
30
0
11
288.325
21
-17.023829
31
0
39
0
210
0
220
0
230
1
0
LINE
5
98
100
AcDbEntity
8
1
62
256
6
ByLayer
370
18
48
1
60
0
100
AcDbLine
10
288.325
20
17.023829
30
0
11
288.325
21
16.418165
31
0
39
0
210
0
220
0
230
1
0
LINE
5
99
100
AcDbEntity
8
1
62
256
6
ByLayer
370
18
48
1
60
0
100
AcDbLine
10
287.65725
20
-18.107526
30
0
11
287.65725
21
-18.253645
31
0
39
0
210
0
220
0
230
1
0
LINE
5
9A
100
AcDbEntity
8
1
62
256
6
ByLayer
370
18
48
1
60
0
100
AcDbLine
10
287.65725
20
18.253645
30
0
11
287.65725
21
18.107526
31
0
39
0
210
0
220
0
230
1
0
LINE
5
9B
100
AcDbEntity
8
1
62
256
6
ByLayer
370
18
48
1
60
0
100
AcDbLine
10
288.325
20
17.688213
30
0
11
288.325
21
17.204477
31
0
39
0
210
0
220
0
230
1
0
LINE
5
9C
100
AcDbEntity
8
1
62
256
6
ByLayer
370
18
48
1
60
0
100
AcDbLine
10
288.325
20
-17.204477
30
0
11
288.325
21
-17.688213
31
0
39
0
210
0
220
0
230
1
0
LINE
5
9D
100
AcDbEntity
8
1
62
256
6
ByLayer
370
18
48
1
60
0
100
AcDbLine
10
287.65725
20
18.786012
30
0
11
287.65725
21
18.672541
31
0
39
0
210
0
220
0
230
1
0
LINE
5
9E
100
AcDbEntity
8
1
62
256
6
ByLayer
370
18
48
1
60
0
100
AcDbLine
10
287.65725
20
-18.672541
30
0
11
287.65725
21
-18.786012
31
0
39
0
210
0
220
0
230
1
0
LINE
5
9F
100
AcDbEntity
8
1
62
256
6
ByLayer
370
18
48
1
60
0
100
AcDbLine
10
288.325
20
18.205356
30
0
11
288.325
21
17.830645
31
0
39
0
210
0
220
0
230
1
0
LINE
5
A0
100
AcDbEntity
8
1
62
256
6
ByLayer
370
18
48
1
60
0
100
AcDbLine
10
288.325
20
-17.830645
30
0
11
288.325
21
-18.205356
31
0
39
0
210
0
220
0
230
1
0
LINE
5
A1
100
AcDbEntity
8
1
62
256
6
ByLayer
370
18
48
1
60
0
100
AcDbLine
10
287.65725
20
19.186791
30
0
11
287.65725
21
19.103536
31
0
39
0
210
0
220
0
230
1
0
LINE
5
A2
100
AcDbEntity
8
1
62
256
6
ByLayer
370
18
48
1
60
0
100
AcDbLine
10
287.65725
20
-19.103536
30
0
11
287.65725
21
-19.186791
31
0
39
0
210
0
220
0
230
1
0
LINE
5
A3
100
AcDbEntity
8
1
62
256
6
ByLayer
370
18
48
1
60
0
100
AcDbLine
10
288.325
20
-18.313105
30
0
11
288.325
21
-18.587552
31
0
39
0
210
0
220
0
230
1
0
LINE
5
A4
100
AcDbEntity
8
1
62
256
6
ByLayer
370
18
48
1
60
0
100
AcDbLine
10
288.325
20
18.587552
30
0
11
288.325
21
18.313105
31
0
39
0
210
0
220
0
230
1
0
LINE
5
A5
100
AcDbEntity
8
1
62
256
6
ByLayer
370
18
48
1
60
0
100
AcDbLine
10
287.65725
20
-19.409441
30
0
11
287.65725
21
-19.464112
31
0
39
0
210
0
220
0
230
1
0
LINE
5
A6
100
AcDbEntity
8
1
62
256
6
ByLayer
370
18
48
1
60
0
100
AcDbLine
10
287.65725
20
19.464112
30
0
11
287.65725
21
19.409441
31
0
39
0
210
0
220
0
230
1
0
LINE
5
A7
100
AcDbEntity
8
1
62
256
6
ByLayer
370
18
48
1
60
0
100
AcDbLine
10
288.325
20
-18.663003
30
0
11
288.325
21
-18.843015
31
0
39
0
210
0
220
0
230
1
0
LINE
5
A8
100
AcDbEntity
8
1
62
256
6
ByLayer
370
18
48
1
60
0
100
AcDbLine
10
288.325
20
18.843015
30
0
11
288.325
21
18.663003
31
0
39
0
210
0
220
0
230
1
0
LINE
5
A9
100
AcDbEntity
8
1
62
256
6
ByLayer
370
18
48
1
60
0
100
AcDbLine
10
287.65725
20
-19.596115
30
0
11
287.65725
21
-19.623209
31
0
39
0
210
0
220
0
230
1
0
LINE
5
AA
100
AcDbEntity
8
1
62
256
6
ByLayer
370
18
48
1
60
0
100
AcDbLine
10
287.65725
20
19.623209
30
0
11
287.65725
21
19.596115
31
0
39
0
210
0
220
0
230
1
0
LINE
5
AB
100
AcDbEntity
8
1
62
256
6
ByLayer
370
18
48
1
60
0
100
AcDbLine
10
288.325
20
-18.887709
30
0
11
288.325
21
-18.976863
31
0
39
0
210
0
220
0
230
1
0
LINE
5
AC
100
AcDbEntity
8
1
62
256
6
ByLayer
370
18
48
1
60
0
100
AcDbLine
10
288.325
20
18.976863
30
0
11
288.325
21
18.887709
31
0
39
0
210
0
220
0
230
1
0
LINE
5
AD
100
AcDbEntity
8
1
62
256
6
ByLayer
370
18
48
1
60
0
100
AcDbLine
10
0.3
20
25
30
0
11
0
21
24.7
31
0
39
0
210
0
220
0
230
1
0
LINE
5
AE
100
AcDbEntity
8
1
62
256
6
ByLayer
370
18
48
1
60
0
100
AcDbLine
10
0
20
-24.7
30
0
11
0.3
21
-25
31
0
39
0
210
0
220
0
230
1
0
LINE
5
AF
100
AcDbEntity
8
1
62
256
6
ByLayer
370
18
48
1
60
0
100
AcDbLine
10
0.3
20
-25
30
0
11
20
21
-25
31
0
39
0
210
0
220
0
230
1
0
LINE
5
B0
100
AcDbEntity
8
1
62
256
6
ByLayer
370
18
48
1
60
0
100
AcDbLine
10
20
20
25
30
0
11
0.3
21
25
31
0
39
0
210
0
220
0
230
1
0
LINE
5
B1
100
AcDbEntity
8
1
62
256
6
ByLayer
370
18
48
1
60
0
100
AcDbLine
10
11.461325
20
7.529667
30
0
11
8.538675
21
7.529667
31
0
39
0
210
0
220
0
230
1
0
LINE
5
B2
100
AcDbEntity
8
1
62
256
6
ByLayer
370
18
48
1
60
0
100
AcDbLine
10
8.538675
20
23.83913
30
0
11
11.461325
21
23.83913
31
0
39
0
210
0
220
0
230
1
0
LINE
5
B3
100
AcDbEntity
8
1
62
256
6
ByLayer
370
18
48
1
60
0
100
AcDbLine
10
11.461325
20
-23.83913
30
0
11
8.538675
21
-23.83913
31
0
39
0
210
0
220
0
230
1
0
LINE
5
B4
100
AcDbEntity
8
1
62
256
6
ByLayer
370
18
48
1
60
0
100
AcDbLine
10
8.538675
20
-7.529667
30
0
11
11.461325
21
-7.529667
31
0
39
0
210
0
220
0
230
1
0
LINE
5
B5
100
AcDbEntity
8
1
62
256
6
ByLayer
370
18
48
1
60
0
100
AcDbLine
10
20
20
-25
30
0
11
20.545351
21
-22.964724
31
0
39
0
210
0
220
0
230
1
0
LINE
5
B6
100
AcDbEntity
8
1
62
256
6
ByLayer
370
18
48
1
60
0
100
AcDbLine
10
20.545351
20
22.964724
30
0
11
20
21
25
31
0
39
0
210
0
220
0
230
1
0
LINE
5
B7
100
AcDbEntity
8
1
62
256
6
ByLayer
370
18
48
1
60
0
100
AcDbLine
10
8.538675
20
-23.83913
30
0
11
8.538675
21
-7.529667
31
0
39
0
210
0
220
0
230
1
0
LINE
5
B8
100
AcDbEntity
8
1
62
256
6
ByLayer
370
18
48
1
60
0
100
AcDbLine
10
8.105662
20
-23.666502
30
0
11
8.105662
21
-8.055848
31
0
39
0
210
0
220
0
230
1
0
LINE
5
B9
100
AcDbEntity
8
1
62
256
6
ByLayer
370
18
48
1
60
0
100
AcDbLine
10
11.894338
20
8.055848
30
0
11
11.894338
21
23.666502
31
0
39
0
210
0
220
0
230
1
0
LINE
5
BA
100
AcDbEntity
8
1
62
256
6
ByLayer
370
18
48
1
60
0
100
AcDbLine
10
11.461325
20
7.529667
30
0
11
11.461325
21
23.83913
31
0
39
0
210
0
220
0
230
1
0
LINE
5
BB
100
AcDbEntity
8
1
62
256
6
ByLayer
370
18
48
1
60
0
100
AcDbLine
10
8.538675
20
7.529667
30
0
11
8.538675
21
23.83913
31
0
39
0
210
0
220
0
230
1
0
LINE
5
BC
100
AcDbEntity
8
1
62
256
6
ByLayer
370
18
48
1
60
0
100
AcDbLine
10
8.105662
20
8.055848
30
0
11
8.105662
21
23.666502
31
0
39
0
210
0
220
0
230
1
0
LINE
5
BD
100
AcDbEntity
8
1
62
256
6
ByLayer
370
18
48
1
60
0
100
AcDbLine
10
11.894338
20
-23.666502
30
0
11
11.894338
21
-8.055848
31
0
39
0
210
0
220
0
230
1
0
LINE
5
BE
100
AcDbEntity
8
1
62
256
6
ByLayer
370
18
48
1
60
0
100
AcDbLine
10
11.461325
20
-23.83913
30
0
11
11.461325
21
-7.529667
31
0
39
0
210
0
220
0
230
1
0
LINE
5
BF
100
AcDbEntity
8
1
62
256
6
ByLayer
370
18
48
1
60
0
100
AcDbLine
10
285.7
20
20
30
0
11
24.409054
21
20
31
0
39
0
210
0
220
0
230
1
0
LINE
5
C0
100
AcDbEntity
8
1
62
256
6
ByLayer
370
18
48
1
60
0
100
AcDbLine
10
24.409054
20
-20
30
0
11
285.7
21
-20
31
0
39
0
210
0
220
0
230
1
0
LINE
5
C1
100
AcDbEntity
8
SK1
62
256
6
ByLayer
370
18
48
1
60
0
100
AcDbLine
10
298.325
20
14.899495
30
0
11
292.325
21
14.899495
31
0
39
0
210
0
220
0
230
1
0
LINE
5
C3
100
AcDbEntity
8
SK1
62
256
6
ByLayer
370
18
48
1
60
0
100
AcDbLine
10
292.325
20
4.899495
30
0
11
298.325
21
4.899495
31
0
39
0
210
0
220
0
230
1
0
LINE
5
C4
100
AcDbEntity
8
SK1
62
256
6
ByLayer
370
18
48
1
60
0
100
AcDbLine
10
292.325
20
12.899495
30
0
11
288.325
21
12.899495
31
0
39
0
210
0
220
0
230
1
0
LINE
5
C5
100
AcDbEntity
8
SK1
62
256
6
ByLayer
370
18
48
1
60
0
100
AcDbLine
10
288.325
20
6.899495
30
0
11
292.325
21
6.899495
31
0
39
0
210
0
220
0
230
1
0
LINE
5
C6
100
AcDbEntity
8
SK1
62
256
6
ByLayer
370
18
48
1
60
0
100
AcDbLine
10
298.325
20
-4.899495
30
0
11
292.325
21
-4.899495
31
0
39
0
210
0
220
0
230
1
0
LINE
5
C7
100
AcDbEntity
8
SK1
62
256
6
ByLayer
370
18
48
1
60
0
100
AcDbLine
10
292.325
20
-14.899495
30
0
11
298.325
21
-14.899495
31
0
39
0
210
0
220
0
230
1
0
LINE
5
C8
100
AcDbEntity
8
SK1
62
256
6
ByLayer
370
18
48
1
60
0
100
AcDbLine
10
292.325
20
-6.899495
30
0
11
288.325
21
-6.899495
31
0
39
0
210
0
220
0
230
1
0
LINE
5
C9
100
AcDbEntity
8
SK1
62
256
6
ByLayer
370
18
48
1
60
0
100
AcDbLine
10
288.325
20
-12.899495
30
0
11
292.325
21
-12.899495
31
0
39
0
210
0
220
0
230
1
0
LINE
5
CA
100
AcDbEntity
8
1
62
256
6
ByLayer
370
18
48
1
60
0
100
AcDbLine
10
286.3
20
20
30
0
11
286.3
21
0
31
0
39
0
210
0
220
0
230
1
0
LINE
5
CB
100
AcDbEntity
8
1
62
256
6
ByLayer
370
18
48
1
60
0
100
AcDbLine
10
286
20
-19.7
30
0
11
286
21
0
31
0
39
0
210
0
220
0
230
1
0
LINE
5
CC
100
AcDbEntity
8
1
62
256
6
ByLayer
370
18
48
1
60
0
100
AcDbLine
10
286.3
20
0
30
0
11
286.3
21
-20
31
0
39
0
210
0
220
0
230
1
0
LINE
5
CD
100
AcDbEntity
8
1
62
256
6
ByLayer
370
18
48
1
60
0
100
AcDbLine
10
286
20
0
30
0
11
286
21
19.7
31
0
39
0
210
0
220
0
230
1
0
LINE
5
CE
100
AcDbEntity
8
1
62
256
6
ByLayer
370
18
48
1
60
0
100
AcDbLine
10
287.325
20
20
30
0
11
287.325
21
-20
31
0
39
0
210
0
220
0
230
1
0
LINE
5
CF
100
AcDbEntity
8
1
62
256
6
ByLayer
370
18
48
1
60
0
100
AcDbLine
10
288.325
20
18.991668
30
0
11
288.325
21
18.976863
31
0
39
0
210
0
220
0
230
1
0
LINE
5
D0
100
AcDbEntity
8
1
62
256
6
ByLayer
370
18
48
1
60
0
100
AcDbLine
10
288.325
20
18.887709
30
0
11
288.325
21
18.843015
31
0
39
0
210
0
220
0
230
1
0
LINE
5
D1
100
AcDbEntity
8
1
62
256
6
ByLayer
370
18
48
1
60
0
100
AcDbLine
10
288.325
20
18.663003
30
0
11
288.325
21
18.587552
31
0
39
0
210
0
220
0
230
1
0
LINE
5
D2
100
AcDbEntity
8
1
62
256
6
ByLayer
370
18
48
1
60
0
100
AcDbLine
10
288.325
20
18.313105
30
0
11
288.325
21
18.205356
31
0
39
0
210
0
220
0
230
1
0
LINE
5
D3
100
AcDbEntity
8
1
62
256
6
ByLayer
370
18
48
1
60
0
100
AcDbLine
10
288.325
20
17.830645
30
0
11
288.325
21
17.688213
31
0
39
0
210
0
220
0
230
1
0
LINE
5
D4
100
AcDbEntity
8
1
62
256
6
ByLayer
370
18
48
1
60
0
100
AcDbLine
10
288.325
20
17.204477
30
0
11
288.325
21
17.023829
31
0
39
0
210
0
220
0
230
1
0
LINE
5
D5
100
AcDbEntity
8
1
62
256
6
ByLayer
370
18
48
1
60
0
100
AcDbLine
10
288.325
20
16.418165
30
0
11
288.325
21
16.194093
31
0
39
0
210
0
220
0
230
1
0
LINE
5
D6
100
AcDbEntity
8
1
62
256
6
ByLayer
370
18
48
1
60
0
100
AcDbLine
10
288.325
20
15.447274
30
0
11
288.325
21
15.171899
31
0
39
0
210
0
220
0
230
1
0
LINE
5
D7
100
AcDbEntity
8
1
62
256
6
ByLayer
370
18
48
1
60
0
100
AcDbLine
10
288.325
20
14.254136
30
0
11
288.325
21
13.914899
31
0
39
0
210
0
220
0
230
1
0
LINE
5
D8
100
AcDbEntity
8
1
62
256
6
ByLayer
370
18
48
1
60
0
100
AcDbLine
10
288.325
20
12.776639
30
0
11
288.325
21
12.351611
31
0
39
0
210
0
220
0
230
1
0
LINE
5
D9
100
AcDbEntity
8
1
62
256
6
ByLayer
370
18
48
1
60
0
100
AcDbLine
10
288.325
20
10.899753
30
0
11
288.325
21
10.344089
31
0
39
0
210
0
220
0
230
1
0
LINE
5
DA
100
AcDbEntity
8
1
62
256
6
ByLayer
370
18
48
1
60
0
100
AcDbLine
10
288.325
20
8.358632
30
0
11
288.325
21
7.545731
31
0
39
0
210
0
220
0
230
1
0
LINE
5
DB
100
AcDbEntity
8
1
62
256
6
ByLayer
370
18
48
1
60
0
100
AcDbLine
10
288.325
20
4.053252
30
0
11
288.325
21
1.541407
31
0
39
0
210
0
220
0
230
1
0
LINE
5
DC
100
AcDbEntity
8
1
62
256
6
ByLayer
370
18
48
1
60
0
100
AcDbLine
10
288.325
20
-1.541407
30
0
11
288.325
21
-4.053252
31
0
39
0
210
0
220
0
230
1
0
LINE
5
DD
100
AcDbEntity
8
1
62
256
6
ByLayer
370
18
48
1
60
0
100
AcDbLine
10
288.325
20
-7.545731
30
0
11
288.325
21
-8.358632
31
0
39
0
210
0
220
0
230
1
0
LINE
5
DE
100
AcDbEntity
8
1
62
256
6
ByLayer
370
18
48
1
60
0
100
AcDbLine
10
288.325
20
-10.344089
30
0
11
288.325
21
-10.899753
31
0
39
0
210
0
220
0
230
1
0
LINE
5
DF
100
AcDbEntity
8
1
62
256
6
ByLayer
370
18
48
1
60
0
100
AcDbLine
10
288.325
20
-12.351611
30
0
11
288.325
21
-12.776639
31
0
39
0
210
0
220
0
230
1
0
LINE
5
E0
100
AcDbEntity
8
1
62
256
6
ByLayer
370
18
48
1
60
0
100
AcDbLine
10
288.325
20
-13.914899
30
0
11
288.325
21
-14.254136
31
0
39
0
210
0
220
0
230
1
0
LINE
5
E1
100
AcDbEntity
8
1
62
256
6
ByLayer
370
18
48
1
60
0
100
AcDbLine
10
288.325
20
-15.171899
30
0
11
288.325
21
-15.447274
31
0
39
0
210
0
220
0
230
1
0
LINE
5
E2
100
AcDbEntity
8
1
62
256
6
ByLayer
370
18
48
1
60
0
100
AcDbLine
10
288.325
20
-16.194093
30
0
11
288.325
21
-16.418165
31
0
39
0
210
0
220
0
230
1
0
LINE
5
E3
100
AcDbEntity
8
1
62
256
6
ByLayer
370
18
48
1
60
0
100
AcDbLine
10
288.325
20
-17.023829
30
0
11
288.325
21
-17.204477
31
0
39
0
210
0
220
0
230
1
0
LINE
5
E4
100
AcDbEntity
8
1
62
256
6
ByLayer
370
18
48
1
60
0
100
AcDbLine
10
288.325
20
-17.688213
30
0
11
288.325
21
-17.830645
31
0
39
0
210
0
220
0
230
1
0
LINE
5
E5
100
AcDbEntity
8
1
62
256
6
ByLayer
370
18
48
1
60
0
100
AcDbLine
10
288.325
20
-18.205356
30
0
11
288.325
21
-18.313105
31
0
39
0
210
0
220
0
230
1
0
LINE
5
E6
100
AcDbEntity
8
1
62
256
6
ByLayer
370
18
48
1
60
0
100
AcDbLine
10
288.325
20
-18.587552
30
0
11
288.325
21
-18.663003
31
0
39
0
210
0
220
0
230
1
0
LINE
5
E7
100
AcDbEntity
8
1
62
256
6
ByLayer
370
18
48
1
60
0
100
AcDbLine
10
288.325
20
-18.843015
30
0
11
288.325
21
-18.887709
31
0
39
0
210
0
220
0
230
1
0
LINE
5
E8
100
AcDbEntity
8
1
62
256
6
ByLayer
370
18
48
1
60
0
100
AcDbLine
10
288.325
20
-18.976863
30
0
11
288.325
21
-18.991668
31
0
39
0
210
0
220
0
230
1
0
LINE
5
E9
100
AcDbEntity
8
1
62
256
6
ByLayer
370
18
48
1
60
0
100
AcDbLine
10
0
20
-24.7
30
0
11
0
21
0
31
0
39
0
210
0
220
0
230
1
0
LINE
5
EA
100
AcDbEntity
8
1
62
256
6
ByLayer
370
18
48
1
60
0
100
AcDbLine
10
0.3
20
-25
30
0
11
0.3
21
0
31
0
39
0
210
0
220
0
230
1
0
LINE
5
EB
100
AcDbEntity
8
1
62
256
6
ByLayer
370
18
48
1
60
0
100
AcDbLine
10
0
20
0
30
0
11
0
21
24.7
31
0
39
0
210
0
220
0
230
1
0
LINE
5
EC
100
AcDbEntity
8
1
62
256
6
ByLayer
370
18
48
1
60
0
100
AcDbLine
10
0.3
20
0
30
0
11
0.3
21
25
31
0
39
0
210
0
220
0
230
1
0
LINE
5
ED
100
AcDbEntity
8
1
62
256
6
ByLayer
370
18
48
1
60
0
100
AcDbLine
10
20
20
-25
30
0
11
20
21
0
31
0
39
0
210
0
220
0
230
1
0
LINE
5
EE
100
AcDbEntity
8
1
62
256
6
ByLayer
370
18
48
1
60
0
100
AcDbLine
10
20
20
0
30
0
11
20
21
25
31
0
39
0
210
0
220
0
230
1
0
LINE
5
EF
100
AcDbEntity
8
1
62
256
6
ByLayer
370
18
48
1
60
0
100
AcDbLine
10
20.545351
20
-22.964724
30
0
11
20.545351
21
0
31
0
39
0
210
0
220
0
230
1
0
LINE
5
F0
100
AcDbEntity
8
1
62
256
6
ByLayer
370
18
48
1
60
0
100
AcDbLine
10
20.545351
20
0
30
0
11
20.545351
21
22.964724
31
0
39
0
210
0
220
0
230
1
0
LINE
5
F1
100
AcDbEntity
8
1
62
256
6
ByLayer
370
18
48
1
60
0
100
AcDbLine
10
24.409054
20
20
30
0
11
24.409054
21
-20
31
0
39
0
210
0
220
0
230
1
0
LINE
5
F2
100
AcDbEntity
8
1
62
256
6
ByLayer
370
18
48
1
60
0
100
AcDbLine
10
285.7
20
-20
30
0
11
285.7
21
0
31
0
39
0
210
0
220
0
230
1
0
LINE
5
F3
100
AcDbEntity
8
1
62
256
6
ByLayer
370
18
48
1
60
0
100
AcDbLine
10
286
20
19.7
30
0
11
286
21
0
31
0
39
0
210
0
220
0
230
1
0
LINE
5
F4
100
AcDbEntity
8
1
62
256
6
ByLayer
370
18
48
1
60
0
100
AcDbLine
10
286
20
0
30
0
11
286
21
-19.7
31
0
39
0
210
0
220
0
230
1
0
LINE
5
F5
100
AcDbEntity
8
1
62
256
6
ByLayer
370
18
48
1
60
0
100
AcDbLine
10
285.7
20
0
30
0
11
285.7
21
20
31
0
39
0
210
0
220
0
230
1
0
LINE
5
F6
100
AcDbEntity
8
SK1
62
256
6
ByLayer
370
18
48
1
60
0
100
AcDbLine
10
-1.315435
20
-3.910269
30
0
11
-1.315435
21
3.910272
31
0
39
0
210
0
220
0
230
1
0
LINE
5
F7
100
AcDbEntity
8
SK1
62
256
6
ByLayer
370
18
48
1
60
0
100
AcDbLine
10
298.325
20
14.899495
30
0
11
298.325
21
9.899495
31
0
39
0
210
0
220
0
230
1
0
LINE
5
F8
100
AcDbEntity
8
SK1
62
256
6
ByLayer
370
18
48
1
60
0
100
AcDbLine
10
292.325
20
14.899495
30
0
11
292.325
21
9.899495
31
0
39
0
210
0
220
0
230
1
0
LINE
5
F9
100
AcDbEntity
8
SK1
62
256
6
ByLayer
370
18
48
1
60
0
100
AcDbLine
10
292.325
20
9.899495
30
0
11
292.325
21
4.899495
31
0
39
0
210
0
220
0
230
1
0
LINE
5
FA
100
AcDbEntity
8
SK1
62
256
6
ByLayer
370
18
48
1
60
0
100
AcDbLine
10
298.325
20
9.899495
30
0
11
298.325
21
4.899495
31
0
39
0
210
0
220
0
230
1
0
LINE
5
FB
100
AcDbEntity
8
SK1
62
256
6
ByLayer
370
18
48
1
60
0
100
AcDbLine
10
298.325
20
-4.899495
30
0
11
298.325
21
-9.899495
31
0
39
0
210
0
220
0
230
1
0
LINE
5
FC
100
AcDbEntity
8
SK1
62
256
6
ByLayer
370
18
48
1
60
0
100
AcDbLine
10
292.325
20
-4.899495
30
0
11
292.325
21
-9.899495
31
0
39
0
210
0
220
0
230
1
0
LINE
5
FD
100
AcDbEntity
8
SK1
62
256
6
ByLayer
370
18
48
1
60
0
100
AcDbLine
10
292.325
20
-9.899495
30
0
11
292.325
21
-14.899495
31
0
39
0
210
0
220
0
230
1
0
LINE
5
FE
100
AcDbEntity
8
SK1
62
256
6
ByLayer
370
18
48
1
60
0
100
AcDbLine
10
298.325
20
-9.899495
30
0
11
298.325
21
-14.899495
31
0
39
0
210
0
220
0
230
1
0
LINE
5
FF
100
AcDbEntity
8
SK1
62
256
6
ByLayer
370
18
48
1
60
0
100
AcDbLine
10
-2
20
17.519847
30
0
11
-2
21
-17.519847
31
0
39
0
210
0
220
0
230
1
0
LINE
5
100
100
AcDbEntity
8
SK1
62
256
6
ByLayer
370
18
48
1
60
0
100
AcDbLine
10
-28.5
20
16.854548
30
0
11
-28.5
21
-16.854549
31
0
39
0
210
0
220
0
230
1
0
LINE
5
101
100
AcDbEntity
8
SK1
62
256
6
ByLayer
370
18
48
1
60
0
100
AcDbLine
10
-1.79504
20
17.325072
30
0
11
-1.79504
21
-17.325072
31
0
39
0
210
0
220
0
230
1
0
LINE
5
102
100
AcDbEntity
8
SK1
62
256
6
ByLayer
370
18
48
1
60
0
100
AcDbLine
10
-0.194977
20
17.365242
30
0
11
-0.194977
21
5.101253
31
0
39
0
210
0
220
0
230
1
0
LINE
5
103
100
AcDbEntity
8
SK1
62
256
6
ByLayer
370
18
48
1
60
0
100
AcDbLine
10
-0.194977
20
-5.101251
30
0
11
-0.194977
21
-17.365243
31
0
39
0
210
0
220
0
230
1
0
LINE
5
104
100
AcDbEntity
8
SK1
62
256
6
ByLayer
370
18
48
1
60
0
100
AcDbLine
10
-30
20
15.993274
30
0
11
-30
21
-15.993274
31
0
39
0
210
0
220
0
230
1
0
MTEXT
5
192
100
AcDbEntity
8
SK6
62
256
6
ByLayer
370
13
48
1
60
0
100
AcDbMText
10
-28.394226
20
63.698657
30
0
210
0
220
0
230
1
1
\W0.7233;C5-570-3C 40 288
40
3.175
41
0
44
1.084337
50
0
71
7
72
5
7
iso_b_vert
0
DIMENSION
5
1A0
100
AcDbEntity
8
2
62
256
6
ByLayer
370
13
48
1
60
0
100
AcDbDimension
2
DimnDraft3D1
10
288
20
53.658015
30
0
11
140.916908
21
53.658015
31
0
70
32
71
5
72
1
41
1
210
0
220
0
230
1
3
Standard
100
AcDbAlignedDimension
13
0
23
1.5875
33
0
14
288
24
1.5875
34
0
50
0
100
AcDbRotatedDimension
1001
ACAD
1000
DSTYLE
1002
{
1070
   279
1070
     0
1070
   173
1070
     1
1070
   340
1005
193
1070
   271
1070
     1
1070
   272
1070
     2
1070
    77
1070
     1
1070
    73
1070
     0
1070
   171
1070
     3
1070
   274
1070
     4
1070
   177
1070
     7
1070
   176
1070
     7
1070
   178
1070
     7
1070
    78
1070
     8
1070
    48
1040
-0.005
1070
    41
1041
3.175
1070
   147
1041
1.5875
1070
    42
1041
1.5875
1070
    44
1041
3.175
1070
   140
1041
3.175
1070
   343
1005
0
1070
   344
1005
0
1002
}
0
DIMENSION
5
1B6
100
AcDbEntity
8
SK2
62
256
6
ByLayer
370
13
48
1
60
0
100
AcDbDimension
2
DimnDraft3D3
10
20
20
-35.556148
30
0
11
8.103355
21
-35.556148
31
0
70
32
71
5
72
1
41
1
210
0
220
0
230
1
3
Standard
100
AcDbAlignedDimension
13
0
23
-26.2875
33
0
14
20
24
-26.5875
34
0
50
0
100
AcDbRotatedDimension
1001
ACAD
1000
DSTYLE
1002
{
1070
   279
1070
     0
1070
   173
1070
     1
1070
   340
1005
193
1070
   271
1070
     1
1070
   272
1070
     2
1070
    77
1070
     1
1070
    73
1070
     0
1070
   171
1070
     3
1070
   274
1070
     4
1070
   177
1070
     7
1070
   176
1070
     7
1070
   178
1070
     7
1070
    78
1070
     8
1070
    48
1040
-0.005
1070
    41
1041
3.175
1070
   147
1041
1.5875
1070
    42
1041
1.5875
1070
    44
1041
3.175
1070
   140
1041
3.175
1070
   343
1005
0
1070
   344
1005
0
1002
}
0
DIMENSION
5
1C8
100
AcDbEntity
8
SK2
62
256
6
ByLayer
370
13
48
1
60
0
100
AcDbDimension
2
DimnDraft3D5
10
24.409054
20
24
30
0
11
36.0007
21
35.73048
31
0
70
36
71
5
72
1
41
1
210
0
220
0
230
1
3
Standard
100
AcDbRadialDimension
15
0
25
0
35
0
40
0
1001
ACAD
1000
DSTYLE
1002
{
1070
   279
1070
     0
1070
   173
1070
     1
1070
   340
1005
193
1070
    75
1070
     1
1070
    76
1070
     1
1070
   271
1070
     1
1070
   272
1070
     2
1070
    77
1070
     1
1070
    73
1070
     0
1070
   171
1070
     3
1070
   274
1070
     4
1070
   177
1070
     7
1070
   176
1070
     7
1070
   178
1070
     7
1070
    78
1070
     8
1070
    48
1040
-0.005
1070
    41
1041
3.175
1070
   147
1041
1.5875
1070
    42
1041
1.5875
1070
    44
1041
3.175
1070
   140
1041
3.175
1070
   343
1005
0
1070
   344
1005
0
1002
}
0
DIMENSION
5
1D3
100
AcDbEntity
8
SK2
62
256
6
ByLayer
370
13
48
1
60
0
100
AcDbDimension
2
DimnDraft3D6
10
314.462605
20
-20
30
0
11
314.462605
21
28.977157
31
0
70
32
71
5
72
1
41
1
210
0
220
0
230
1
3
Standard
100
AcDbAlignedDimension
13
287.2875
23
20
33
0
14
287.2875
24
-20
34
0
50
90
100
AcDbRotatedDimension
1001
ACAD
1000
DSTYLE
1002
{
1070
    74
1070
     0
1070
   279
1070
     0
1070
   173
1070
     1
1070
   340
1005
193
1070
   271
1070
     1
1070
   272
1070
     2
1070
    77
1070
     1
1070
    73
1070
     0
1070
   171
1070
     3
1070
   274
1070
     4
1070
   177
1070
     7
1070
   176
1070
     7
1070
   178
1070
     7
1070
    78
1070
     8
1070
    48
1040
-0.005
1070
    41
1041
3.175
1070
   147
1041
1.5875
1070
    42
1041
1.5875
1070
    44
1041
3.175
1070
   140
1041
3.175
1070
   343
1005
0
1070
   344
1005
0
1002
}
0
ENDSEC
0
SECTION
2
OBJECTS
0
DICTIONARY
5
23e
330
0
100
AcDbDictionary
280
0
281
1
3
ACAD_GROUP
350
23f
3
ACAD_MLINESTYLE
350
240
0
DICTIONARY
5
23f
330
0
100
AcDbDictionary
280
0
281
1
0
DICTIONARY
5
240
330
0
100
AcDbDictionary
280
0
281
1
3
Standard
350
18
0
MLINESTYLE
5
18
330
240
100
AcDbMlineStyle
2
Standard
70
0
3

62
256
51
90
52
90
71
2
49
-0.5
62
256
6
ByLayer
49
0.5
62
256
6
ByLayer
0
RASTERVARIABLES
5
22c
330

100
AcDbRasterVariables
90
0
70
1
71
1
72
1
0
ENDSEC
0
EOF
