0
SECTION
2
HEADER
9
$ACADVER
1
AC1015
9
$DWGCODEPAGE
3
ANSI_1252
9
$HANDSEED
5
22a
9
$ANGBASE
50
0
9
$ANGDIR
70
0
9
$ATTMODE
70
1
9
$AUNITS
70
0
9
$AUPREC
70
0
9
$CECOLOR
62
256
9
$CELTSCALE
40
1
9
$CELTYPE
6
ByLayer
9
$CELWEIGHT
370
18
9
$CLAYER
8
0
9
$CMLJUST
70
0
9
$CMLSCALE
40
1
9
$CMLSTYLE
2
Standard
9
$DIMSTYLE
2
Standard
9
$TEXTSIZE
40
0.2
9
$TEXTSTYLE
7
Standard
9
$LUNITS
70
2
9
$LUPREC
70
4
9
$EXTNAMES
290
1
9
$INSUNITS
70
4
9
$LTSCALE
40
1
9
$LWDISPLAY
290
1
9
$PDMODE
70
0
9
$PDSIZE
40
0
9
$PLINEGEN
70
0
0
ENDSEC
0
SECTION
2
CLASSES
0
CLASS
1
RASTERVARIABLES
2
AcDbRasterVariables
3
ISM
90
0
280
0
281
0
0
ENDSEC
0
SECTION
2
TABLES
0
TABLE
2
VPORT
5
220
100
AcDbSymbolTable
0
VPORT
5
1
100
AcDbSymbolTableRecord
100
AcDbViewportTableRecord
2
*Active
70
0
10
0
20
0
11
1
21
1
12
-1
22
1
13
0
23
0
14
0.5
24
0.5
15
10
25
10
16
0
26
0
36
1
17
0
27
0
37
0
0
ENDTAB
0
TABLE
2
LTYPE
5
221
100
AcDbSymbolTable
0
LTYPE
5
14
100
AcDbSymbolTableRecord
100
AcDbLinetypeTableRecord
70
0
2
ByBlock
3

72
65
73
0
40
0
0
LTYPE
5
15
100
AcDbSymbolTableRecord
100
AcDbLinetypeTableRecord
70
0
2
ByLayer
3

72
65
73
0
40
0
0
LTYPE
5
16
100
AcDbSymbolTableRecord
100
AcDbLinetypeTableRecord
70
0
2
CONTINUOUS
3
Solid line
72
65
73
0
40
0
0
LTYPE
5
6A
100
AcDbSymbolTableRecord
100
AcDbLinetypeTableRecord
70
0
2
CENTER
3
____ _ ____ _ ____ _ ____
72
65
73
4
40
47.5
49
22
74
0
49
-8.5
74
0
49
8.5
74
0
49
-8.5
74
0
0
LTYPE
5
6B
100
AcDbSymbolTableRecord
100
AcDbLinetypeTableRecord
70
0
2
DASHED
3
__ __ __ __ __ __ __ __ __
72
65
73
2
40
25.72
49
12.86
74
0
49
-12.86
74
0
0
ENDTAB
0
TABLE
2
LAYER
5
222
100
AcDbSymbolTable
0
LAYER
5
10
100
AcDbSymbolTableRecord
100
AcDbLayerTableRecord
2
0
70
0
62
7
6
CONTINUOUS
290
1
370
-3
390
0
0
LAYER
5
6D
100
AcDbSymbolTableRecord
100
AcDbLayerTableRecord
2
80
70
0
62
-6
6
CONTINUOUS
290
1
370
-3
390
0
0
LAYER
5
6F
100
AcDbSymbolTableRecord
100
AcDbLayerTableRecord
2
81
70
0
62
-3
6
CONTINUOUS
290
1
370
-3
390
0
0
LAYER
5
72
100
AcDbSymbolTableRecord
100
AcDbLayerTableRecord
2
4
70
0
62
-2
6
CENTER
290
1
370
-3
390
0
0
LAYER
5
7C
100
AcDbSymbolTableRecord
100
AcDbLayerTableRecord
2
1
70
0
62
4
6
CONTINUOUS
290
1
370
-3
390
0
0
LAYER
5
177
100
AcDbSymbolTableRecord
100
AcDbLayerTableRecord
2
2
70
0
62
7
6
CONTINUOUS
290
1
370
-3
390
0
0
LAYER
5
20c
100
AcDbSymbolTableRecord
100
AcDbLayerTableRecord
2
SK4
70
0
62
2
6
CENTER
290
1
370
-3
390
0
0
LAYER
5
20d
100
AcDbSymbolTableRecord
100
AcDbLayerTableRecord
2
SK1
70
0
62
4
6
CONTINUOUS
290
1
370
-3
390
0
0
LAYER
5
20e
100
AcDbSymbolTableRecord
100
AcDbLayerTableRecord
2
SK6
70
0
62
5
6
CONTINUOUS
290
1
370
-3
390
0
0
LAYER
5
20f
100
AcDbSymbolTableRecord
100
AcDbLayerTableRecord
2
SK2
70
0
62
7
6
CONTINUOUS
290
1
370
-3
390
0
0
ENDTAB
0
TABLE
2
STYLE
5
223
100
AcDbSymbolTable
0
STYLE
5
11
100
AcDbSymbolTableRecord
100
AcDbTextStyleTableRecord
2
Standard
3
txt
70
0
71
0
40
0
41
1
42
0
50
0
0
STYLE
5
172
100
AcDbSymbolTableRecord
100
AcDbTextStyleTableRecord
2
iso_b_vert
3
simplex.shx
70
0
71
0
40
0
41
1
42
0
50
0
0
STYLE
5
173
100
AcDbSymbolTableRecord
100
AcDbTextStyleTableRecord
2
DWGDirectTextStyle
3
simplex
70
0
71
0
40
0
41
1
42
0
50
0
0
ENDTAB
0
TABLE
2
DIMSTYLE
5
224
100
AcDbSymbolTable
100
AcDbDimStyleTable
0
DIMSTYLE
105
27
100
AcDbSymbolTableRecord
100
AcDbDimStyleTableRecord
2
Standard
70
0
3
<>
41
0.18
42
0.0625
44
0.18
140
0.18
147
0.09
73
0
74
0
77
1
271
2
275
0
278
52
280
0
340
11
0
ENDTAB
0
TABLE
2
VIEW
5
225
100
AcDbSymbolTable
0
ENDTAB
0
TABLE
2
UCS
5
226
100
AcDbSymbolTable
0
ENDTAB
0
TABLE
2
APPID
5
227
100
AcDbSymbolTable
0
APPID
5
12
100
AcDbSymbolTableRecord
100
AcDbRegAppTableRecord
2
ACAD
70
0
0
ENDTAB
0
TABLE
2
BLOCK_RECORD
5
228
100
AcDbSymbolTable
0
BLOCK_RECORD
5
1F
100
AcDbSymbolTableRecord
100
AcDbBlockTableRecord
2
*Model_Space
340
0
70
0
0
BLOCK_RECORD
5
1B
100
AcDbSymbolTableRecord
100
AcDbBlockTableRecord
2
*Paper_Space
340
0
70
0
0
BLOCK_RECORD
5
23
100
AcDbSymbolTableRecord
100
AcDbBlockTableRecord
2
*Paper_Space0
340
0
70
0
0
BLOCK_RECORD
5
175
100
AcDbSymbolTableRecord
100
AcDbBlockTableRecord
2
DimnDraft3D1
340
0
70
0
0
BLOCK_RECORD
5
180
100
AcDbSymbolTableRecord
100
AcDbBlockTableRecord
2
DimnDraft3D2
340
0
70
0
0
BLOCK_RECORD
5
18C
100
AcDbSymbolTableRecord
100
AcDbBlockTableRecord
2
DimnDraft3D3
340
0
70
0
0
BLOCK_RECORD
5
194
100
AcDbSymbolTableRecord
100
AcDbBlockTableRecord
2
DimnDraft3D4
340
0
70
0
0
BLOCK_RECORD
5
19E
100
AcDbSymbolTableRecord
100
AcDbBlockTableRecord
2
DimnDraft3D55
340
0
70
0
0
BLOCK_RECORD
5
1A8
100
AcDbSymbolTableRecord
100
AcDbBlockTableRecord
2
DimnDraft3D6
340
0
70
0
0
ENDTAB
0
ENDSEC
0
SECTION
2
BLOCKS
0
BLOCK
5
20
100
AcDbEntity
8
0
100
AcDbBlockBegin
2
*Model_Space
70
0
10
0
20
0
30
0
3
*Model_Space
0
ENDBLK
5
21
100
AcDbEntity
8
0
100
AcDbBlockEnd
0
BLOCK
5
1C
100
AcDbEntity
8
0
100
AcDbBlockBegin
2
*Paper_Space
70
0
10
0
20
0
30
0
3
*Paper_Space
0
ENDBLK
5
1D
100
AcDbEntity
8
0
100
AcDbBlockEnd
0
BLOCK
5
24
100
AcDbEntity
8
0
100
AcDbBlockBegin
2
*Paper_Space0
70
0
10
0
20
0
30
0
3
*Paper_Space0
0
ENDBLK
5
25
100
AcDbEntity
8
0
100
AcDbBlockEnd
0
BLOCK
5
17D
100
AcDbEntity
8
0
100
AcDbBlockBegin
2
DimnDraft3D1
70
0
10
0
20
0
30
0
3
DimnDraft3D1
0
MTEXT
5
176
100
AcDbEntity
8
2
62
256
6
ByLayer
370
13
48
1
60
0
100
AcDbMText
10
141.710658
20
49.51789
30
0
210
0
220
0
230
1
1
\W0.7138;288
40
3.175
41
0
44
1.084337
50
0
71
7
72
5
7
iso_b_vert
0
LINE
5
178
100
AcDbEntity
8
2
62
256
6
ByLayer
370
13
48
1
60
0
100
AcDbLine
10
0
20
1.5875
30
0
11
0
21
51.89914
31
0
39
0
210
0
220
0
230
1
0
LINE
5
179
100
AcDbEntity
8
2
62
256
6
ByLayer
370
13
48
1
60
0
100
AcDbLine
10
288
20
1.5875
30
0
11
288
21
51.89914
31
0
39
0
210
0
220
0
230
1
0
LINE
5
17A
100
AcDbEntity
8
2
62
256
6
ByLayer
370
13
48
1
60
0
100
AcDbLine
10
0
20
48.72414
30
0
11
288
21
48.72414
31
0
39
0
210
0
220
0
230
1
0
SOLID
5
17B
100
AcDbEntity
8
2
62
256
6
ByLayer
370
13
48
1
60
0
100
AcDbTrace
10
0
20
48.72414
30
0
11
3.174998
21
49.142137
31
0
12
3.175002
22
48.306144
32
0
13
0
23
48.72414
33
0
39
0
210
0
220
0
230
1
0
SOLID
5
17C
100
AcDbEntity
8
2
62
256
6
ByLayer
370
13
48
1
60
0
100
AcDbTrace
10
288
20
48.72414
30
0
11
284.825002
21
48.306144
31
0
12
284.824998
22
49.142137
32
0
13
288
23
48.72414
33
0
39
0
210
0
220
0
230
1
0
ENDBLK
5
17E
100
AcDbEntity
8
0
100
AcDbBlockEnd
0
BLOCK
5
189
100
AcDbEntity
8
0
100
AcDbBlockBegin
2
DimnDraft3D2
70
0
10
0
20
0
30
0
3
DimnDraft3D2
0
MTEXT
5
181
100
AcDbEntity
8
SK2
62
256
6
ByLayer
370
13
48
1
60
0
100
AcDbMText
10
-43.885533
20
-4.25309
30
0
210
0
220
0
230
1
1
%%c
40
3.175
41
0
44
1.084337
50
90
71
7
72
5
7
iso_b_vert
0
MTEXT
5
183
100
AcDbEntity
8
SK2
62
256
6
ByLayer
370
13
48
1
60
0
100
AcDbMText
10
-43.885533
20
3.659605
30
0
210
0
220
0
230
1
1
\W0.6740;50
40
3.175
41
0
44
1.084337
50
90
71
7
72
5
7
iso_b_vert
0
LINE
5
184
100
AcDbEntity
8
SK2
62
256
6
ByLayer
370
13
48
1
60
0
100
AcDbLine
10
-1.2875
20
25
30
0
11
-45.473033
21
25
31
0
39
0
210
0
220
0
230
1
0
LINE
5
185
100
AcDbEntity
8
SK2
62
256
6
ByLayer
370
13
48
1
60
0
100
AcDbLine
10
-1.2875
20
-25
30
0
11
-45.473033
21
-25
31
0
39
0
210
0
220
0
230
1
0
LINE
5
186
100
AcDbEntity
8
SK2
62
256
6
ByLayer
370
13
48
1
60
0
100
AcDbLine
10
-42.298033
20
25
30
0
11
-42.298033
21
-25
31
0
39
0
210
0
220
0
230
1
0
SOLID
5
187
100
AcDbEntity
8
SK2
62
256
6
ByLayer
370
13
48
1
60
0
100
AcDbTrace
10
-42.298033
20
25
30
0
11
-41.880036
21
21.825002
31
0
12
-42.71603
22
21.824998
32
0
13
-42.298033
23
25
33
0
39
0
210
0
220
0
230
1
0
SOLID
5
188
100
AcDbEntity
8
SK2
62
256
6
ByLayer
370
13
48
1
60
0
100
AcDbTrace
10
-42.298033
20
-25
30
0
11
-42.71603
21
-21.825002
31
0
12
-41.880036
22
-21.824998
32
0
13
-42.298033
23
-25
33
0
39
0
210
0
220
0
230
1
0
ENDBLK
5
18A
100
AcDbEntity
8
0
100
AcDbBlockEnd
0
BLOCK
5
191
100
AcDbEntity
8
0
100
AcDbBlockBegin
2
DimnDraft3D3
70
0
10
0
20
0
30
0
3
DimnDraft3D3
0
MTEXT
5
18D
100
AcDbEntity
8
SK2
62
256
6
ByLayer
370
13
48
1
60
0
100
AcDbMText
10
42.950893
20
38.757182
30
0
210
0
220
0
230
1
1
\W0.5404;8
40
3.175
41
0
44
1.084337
50
43.4942169294138
71
7
72
5
7
iso_b_vert
0
MTEXT
5
18E
100
AcDbEntity
8
SK2
62
256
6
ByLayer
370
13
48
1
60
0
100
AcDbMText
10
39.950562
20
35.91055
30
0
210
0
220
0
230
1
1
\W0.6380;R
40
3.175
41
0
44
1.084337
50
43.4942169294138
71
7
72
5
7
iso_b_vert
0
LINE
5
18F
100
AcDbEntity
8
SK2
62
256
6
ByLayer
370
13
48
1
60
0
100
AcDbLine
10
22.746608
20
18.493749
30
0
11
43.951812
21
38.612669
31
0
39
0
210
0
220
0
230
1
0
SOLID
5
190
100
AcDbEntity
8
SK2
62
256
6
ByLayer
370
13
48
1
60
0
100
AcDbTrace
10
22.746608
20
18.493749
30
0
11
24.762192
21
20.982275
31
0
12
25.337593
22
20.37581
32
0
13
22.746608
23
18.493749
33
0
39
0
210
0
220
0
230
1
0
ENDBLK
5
192
100
AcDbEntity
8
0
100
AcDbBlockEnd
0
BLOCK
5
19B
100
AcDbEntity
8
0
100
AcDbBlockBegin
2
DimnDraft3D4
70
0
10
0
20
0
30
0
3
DimnDraft3D4
0
MTEXT
5
195
100
AcDbEntity
8
SK2
62
256
6
ByLayer
370
13
48
1
60
0
100
AcDbMText
10
8.897105
20
-32.12675
30
0
210
0
220
0
230
1
1
\W0.6740;20
40
3.175
41
0
44
1.084337
50
0
71
7
72
5
7
iso_b_vert
0
LINE
5
196
100
AcDbEntity
8
SK2
62
256
6
ByLayer
370
13
48
1
60
0
100
AcDbLine
10
0
20
-26.2875
30
0
11
0
21
-36.0955
31
0
39
0
210
0
220
0
230
1
0
LINE
5
197
100
AcDbEntity
8
SK2
62
256
6
ByLayer
370
13
48
1
60
0
100
AcDbLine
10
20
20
-26.5875
30
0
11
20
21
-36.0955
31
0
39
0
210
0
220
0
230
1
0
LINE
5
198
100
AcDbEntity
8
SK2
62
256
6
ByLayer
370
13
48
1
60
0
100
AcDbLine
10
0
20
-32.9205
30
0
11
20
21
-32.9205
31
0
39
0
210
0
220
0
230
1
0
SOLID
5
199
100
AcDbEntity
8
SK2
62
256
6
ByLayer
370
13
48
1
60
0
100
AcDbTrace
10
0
20
-32.9205
30
0
11
3.174998
21
-32.502503
31
0
12
3.175002
22
-33.338497
32
0
13
0
23
-32.9205
33
0
39
0
210
0
220
0
230
1
0
SOLID
5
19A
100
AcDbEntity
8
SK2
62
256
6
ByLayer
370
13
48
1
60
0
100
AcDbTrace
10
20
20
-32.9205
30
0
11
16.825002
21
-33.338497
31
0
12
16.824998
22
-32.502503
32
0
13
20
23
-32.9205
33
0
39
0
210
0
220
0
230
1
0
ENDBLK
5
19C
100
AcDbEntity
8
0
100
AcDbBlockEnd
0
BLOCK
5
19F
100
AcDbEntity
8
0
100
AcDbBlockBegin
2
DimnDraft3D55
70
0
10
0
20
0
30
0
3
DimnDraft3D55
0
LINE
5
1A1
100
AcDbEntity
8
SK2
62
256
6
ByLayer
370
25
48
1
60
0
100
AcDbLine
10
288
20
-1.5875
30
0
11
288
21
-37.489803
31
0
39
0
210
0
220
0
230
1
0
LINE
5
1A2
100
AcDbEntity
8
SK2
62
256
6
ByLayer
370
25
48
1
60
0
100
AcDbLine
10
28.550159
20
-17.5875
30
0
11
28.550159
21
-37.489803
31
0
39
0
210
0
220
0
230
1
0
LINE
5
1A3
100
AcDbEntity
8
SK2
62
256
6
ByLayer
370
25
48
1
60
0
100
AcDbLine
10
288
20
-34.314803
30
0
11
28.550159
21
-34.314803
31
0
39
0
210
0
220
0
230
1
0
SOLID
5
1A4
100
AcDbEntity
8
SK2
62
256
6
ByLayer
370
25
48
1
60
0
100
AcDbTrace
10
288
20
-34.314803
30
0
11
284.825002
21
-34.7328
31
0
12
284.824998
22
-33.896807
32
0
13
288
23
-34.314803
33
0
39
0
210
0
220
0
230
1
0
SOLID
5
1A5
100
AcDbEntity
8
SK2
62
256
6
ByLayer
370
25
48
1
60
0
100
AcDbTrace
10
28.550159
20
-34.314803
30
0
11
31.725157
21
-33.896807
31
0
12
31.72516
22
-34.7328
32
0
13
28.550159
23
-34.314803
33
0
39
0
210
0
220
0
230
1
0
MTEXT
5
1A6
100
AcDbEntity
8
SK2
62
256
6
ByLayer
370
13
48
1
60
0
100
AcDbMText
10
154.072382
20
-33.521053
30
0
210
0
220
0
230
1
1
\W0.7495;259,4
40
3.175
41
0
44
1.084337
50
0
71
7
72
5
7
iso_b_vert
0
ENDBLK
5
1A0
100
AcDbEntity
8
0
100
AcDbBlockEnd
0
BLOCK
5
1B0
100
AcDbEntity
8
0
100
AcDbBlockBegin
2
DimnDraft3D6
70
0
10
0
20
0
30
0
3
DimnDraft3D6
0
MTEXT
5
1A9
100
AcDbEntity
8
SK2
62
256
6
ByLayer
370
13
48
1
60
0
100
AcDbMText
10
330.193574
20
-4.25309
30
0
210
0
220
0
230
1
1
%%c
40
3.175
41
0
44
1.084337
50
90
71
7
72
5
7
iso_b_vert
0
MTEXT
5
1AA
100
AcDbEntity
8
SK2
62
256
6
ByLayer
370
13
48
1
60
0
100
AcDbMText
10
330.193574
20
3.659605
30
0
210
0
220
0
230
1
1
\W0.6740;32
40
3.175
41
0
44
1.084337
50
90
71
7
72
5
7
iso_b_vert
0
LINE
5
1AB
100
AcDbEntity
8
SK2
62
256
6
ByLayer
370
13
48
1
60
0
100
AcDbLine
10
287.2875
20
16
30
0
11
334.956074
21
16
31
0
39
0
210
0
220
0
230
1
0
LINE
5
1AC
100
AcDbEntity
8
SK2
62
256
6
ByLayer
370
13
48
1
60
0
100
AcDbLine
10
287.2875
20
-16
30
0
11
334.956074
21
-16
31
0
39
0
210
0
220
0
230
1
0
LINE
5
1AD
100
AcDbEntity
8
SK2
62
256
6
ByLayer
370
13
48
1
60
0
100
AcDbLine
10
331.781074
20
16
30
0
11
331.781074
21
-16
31
0
39
0
210
0
220
0
230
1
0
SOLID
5
1AE
100
AcDbEntity
8
SK2
62
256
6
ByLayer
370
13
48
1
60
0
100
AcDbTrace
10
331.781074
20
16
30
0
11
332.199071
21
12.825002
31
0
12
331.363077
22
12.824998
32
0
13
331.781074
23
16
33
0
39
0
210
0
220
0
230
1
0
SOLID
5
1AF
100
AcDbEntity
8
SK2
62
256
6
ByLayer
370
13
48
1
60
0
100
AcDbTrace
10
331.781074
20
-16
30
0
11
331.363077
21
-12.825002
31
0
12
332.199071
22
-12.824998
32
0
13
331.781074
23
-16
33
0
39
0
210
0
220
0
230
1
0
ENDBLK
5
1B1
100
AcDbEntity
8
0
100
AcDbBlockEnd
0
ENDSEC
0
SECTION
2
ENTITIES
0
ARC
5
F5
100
AcDbEntity
8
1
62
256
6
ByLayer
370
18
48
1
60
0
100
AcDbCircle
39
0
10
286.3
20
-15.7
30
0
40
0.3
210
0
220
0
230
1
100
AcDbArc
50
180
51
270
0
ARC
5
F6
100
AcDbEntity
8
1
62
256
6
ByLayer
370
18
48
1
60
0
100
AcDbCircle
39
0
10
286.3
20
15.7
30
0
40
0.3
210
0
220
0
230
1
100
AcDbArc
50
90
51
180
0
ARC
5
F7
100
AcDbEntity
8
1
62
256
6
ByLayer
370
18
48
1
60
0
100
AcDbCircle
39
0
10
-28.550159
20
24
30
0
40
8
210
0
220
0
230
-1
100
AcDbArc
50
270
51
345
0
ARC
5
F8
100
AcDbEntity
8
1
62
256
6
ByLayer
370
18
48
1
60
0
100
AcDbCircle
39
0
10
-28.550159
20
-24
30
0
40
8
210
0
220
0
230
-1
100
AcDbArc
50
15
51
90
0
ARC
5
F9
100
AcDbEntity
8
SK1
62
256
6
ByLayer
370
18
48
1
60
0
100
AcDbCircle
39
0
10
0.6
20
18.75
30
0
40
1
210
0
220
0
230
-1
100
AcDbArc
50
233.130102
51
246.421822
0
ARC
5
FA
100
AcDbEntity
8
SK1
62
256
6
ByLayer
370
18
48
1
60
0
100
AcDbCircle
39
0
10
0.6
20
-18.75
30
0
40
1
210
0
220
0
230
-1
100
AcDbArc
50
113.578178
51
126.869898
0
ARC
5
FB
100
AcDbEntity
8
1
62
256
6
ByLayer
370
18
48
1
60
0
100
AcDbCircle
39
0
10
285.7
20
15.7
30
0
40
0.3
210
0
220
0
230
1
100
AcDbArc
50
0
51
90
0
ARC
5
FC
100
AcDbEntity
8
1
62
256
6
ByLayer
370
18
48
1
60
0
100
AcDbCircle
39
0
10
285.7
20
-15.7
30
0
40
0.3
210
0
220
0
230
1
100
AcDbArc
50
270
51
0
0
CIRCLE
5
F4
100
AcDbEntity
8
1
62
256
6
ByLayer
370
18
48
1
60
0
100
AcDbCircle
10
280
20
0
30
0
40
1
39
0
210
0
220
0
230
1
0
ELLIPSE
5
FD
100
AcDbEntity
8
1
62
256
6
ByLayer
370
18
48
1
60
0
100
AcDbEllipse
10
-1.056258
20
0
30
0
11
11.7092723497253
21
24.677186440935
31
0
210
0
220
0
230
1
40
0.341999
41
-1.08183270048935
42
-0.16721307190899
0
ELLIPSE
5
FE
100
AcDbEntity
8
1
62
256
6
ByLayer
370
18
48
1
60
0
100
AcDbEllipse
10
21.056258
20
0
30
0
11
-11.7092723497294
21
24.6771864409402
31
0
210
0
220
0
230
1
40
0.341999
41
0.167213071908968
42
1.08183270048919
0
ELLIPSE
5
FF
100
AcDbEntity
8
1
62
256
6
ByLayer
370
18
48
1
60
0
100
AcDbEllipse
10
-1.056258
20
0
30
0
11
-11.7092723497256
21
24.6771864409354
31
0
210
0
220
0
230
1
40
0.341999
41
-2.97437958168081
42
-2.05975995310045
0
ELLIPSE
5
100
100
AcDbEntity
8
1
62
256
6
ByLayer
370
18
48
1
60
0
100
AcDbEllipse
10
21.056258
20
0
30
0
11
11.7092723497299
21
24.6771864409408
31
0
210
0
220
0
230
1
40
0.341999
41
2.05975995310062
42
2.97437958168083
0
POINT
5
6C
100
AcDbEntity
8
80
62
256
6
ByLayer
370
18
48
1
60
0
100
AcDbPoint
10
0
20
0
30
0
39
0
210
0
220
0
230
1
50
360
0
POINT
5
6E
100
AcDbEntity
8
81
62
256
6
ByLayer
370
18
48
1
60
0
100
AcDbPoint
10
288
20
0
30
0
39
0
210
0
220
0
230
1
50
360
0
SPLINE
5
101
100
AcDbEntity
8
1
62
256
6
ByLayer
370
18
48
1
60
0
100
AcDbSpline
70
4
71
3
72
12
73
8
40
0
40
0
40
0
40
0
40
0.080870875143292
40
0.282038329412637
40
0.49519937687399
40
0.830211183043249
40
1
40
1
40
1
40
1
41
1
10
287.555
20
-15.77
30
0
41
1
10
287.555015319704
20
-15.7699843509512
30
0
41
1
10
287.556066808903
20
-15.7689195232193
30
0
41
1
10
287.56470010548
20
-15.760174527767
30
0
41
1
10
287.589244029227
20
-15.7353381492093
30
0
41
1
10
287.622493669363
20
-15.7017549802953
30
0
41
1
10
287.648172210506
20
-15.6758884391968
30
0
41
1
10
287.657250000006
20
-15.666749020611
30
0
0
SPLINE
5
102
100
AcDbEntity
8
1
62
256
6
ByLayer
370
18
48
1
60
0
100
AcDbSpline
70
4
71
3
72
11
73
7
40
0
40
0
40
0
40
0
40
0.363578969377291
40
0.63286185493971
40
0.855904512839031
40
1
40
1
40
1
40
1
41
1
10
287.65725
20
15.6667490206169
30
0
41
1
10
287.637125012204
20
15.6870195713516
30
0
41
1
10
287.606533602045
20
15.7178584549805
30
0
41
1
10
287.572592398456
20
15.7521840190522
30
0
41
1
10
287.557502883862
20
15.767464893308
30
0
41
1
10
287.555089954309
20
15.7699081702943
30
0
41
1
10
287.555
20
15.77
30
0
0
SPLINE
5
103
100
AcDbEntity
8
1
62
256
6
ByLayer
370
18
48
1
60
0
100
AcDbSpline
70
4
71
1
72
4
73
2
40
0
40
0
40
1
40
1
41
1
10
288.325
20
14.989444616685
30
0
41
1
10
287.65725
20
15.6667490206169
30
0
0
SPLINE
5
104
100
AcDbEntity
8
1
62
256
6
ByLayer
370
18
48
1
60
0
100
AcDbSpline
70
4
71
1
72
4
73
2
40
0
40
0
40
1
40
1
41
1
10
287.65725
20
15.6118010319188
30
0
41
1
10
288.325
20
14.9706824636902
30
0
0
SPLINE
5
105
100
AcDbEntity
8
1
62
256
6
ByLayer
370
18
48
1
60
0
100
AcDbSpline
70
4
71
3
72
11
73
7
40
0
40
0
40
0
40
0
40
0.350543250870227
40
0.638577219282522
40
0.868698664699097
40
1
40
1
40
1
40
1
41
1
10
287.65725
20
15.5777314872795
30
0
41
1
10
287.637922937838
20
15.5983192929337
30
0
41
1
10
287.607010737924
20
15.632133039613
30
0
41
1
10
287.572571643515
20
15.6720428421825
30
0
41
1
10
287.557359765722
20
15.69222102332
30
0
41
1
10
287.555107367993
20
15.6973193503362
30
0
41
1
10
287.555000062035
20
15.6984846452879
30
0
0
SPLINE
5
106
100
AcDbEntity
8
1
62
256
6
ByLayer
370
18
48
1
60
0
100
AcDbSpline
70
4
71
1
72
4
73
2
40
0
40
0
40
1
40
1
41
1
10
288.325
20
14.8575087549929
30
0
41
1
10
287.65725
20
15.5777314872795
30
0
0
SPLINE
5
107
100
AcDbEntity
8
1
62
256
6
ByLayer
370
18
48
1
60
0
100
AcDbSpline
70
4
71
1
72
4
73
2
40
0
40
0
40
1
40
1
41
1
10
287.65725
20
15.4113477037358
30
0
41
1
10
288.325
20
14.800649206728
30
0
0
SPLINE
5
108
100
AcDbEntity
8
1
62
256
6
ByLayer
370
18
48
1
60
0
100
AcDbSpline
70
4
71
3
72
11
73
7
40
0
40
0
40
0
40
0
40
0.335425084384229
40
0.644374219271865
40
0.881647369579601
40
1
40
1
40
1
40
1
41
1
10
287.65725
20
15.3422427208201
30
0
41
1
10
287.638788317288
20
15.3632029078342
30
0
41
1
10
287.607476410273
20
15.40044393676
30
0
41
1
10
287.572490845072
20
15.4464812272089
30
0
41
1
10
287.557178349874
20
15.4720597398652
30
0
41
1
10
287.555110551384
20
15.4798939549681
30
0
41
1
10
287.555000143883
20
15.4819714470496
30
0
0
SPLINE
5
109
100
AcDbEntity
8
1
62
256
6
ByLayer
370
18
48
1
60
0
100
AcDbSpline
70
4
71
1
72
4
73
2
40
0
40
0
40
1
40
1
41
1
10
288.325
20
14.5707818216016
30
0
41
1
10
287.65725
20
15.3422427208201
30
0
0
SPLINE
5
10A
100
AcDbEntity
8
1
62
256
6
ByLayer
370
18
48
1
60
0
100
AcDbSpline
70
4
71
1
72
4
73
2
40
0
40
0
40
1
40
1
41
1
10
287.65725
20
15.0595798291541
30
0
41
1
10
288.325
20
14.4740146625805
30
0
0
SPLINE
5
10B
100
AcDbEntity
8
1
62
256
6
ByLayer
370
18
48
1
60
0
100
AcDbSpline
70
4
71
3
72
11
73
7
40
0
40
0
40
0
40
0
40
0.436398724975362
40
0.727487434092921
40
0.955143082872768
40
1
40
1
40
1
40
1
41
1
10
287.65725
20
14.9533643411553
30
0
41
1
10
287.632672448326
20
14.9832589395575
30
0
41
1
10
287.598586137248
20
15.0285892297748
30
0
41
1
10
287.565106074362
20
15.0820186342503
30
0
41
1
10
287.555683027036
20
15.1054295238238
30
0
41
1
10
287.55501969209
20
15.1130432435525
30
0
41
1
10
287.555000339311
20
15.1142163670995
30
0
0
SPLINE
5
10C
100
AcDbEntity
8
1
62
256
6
ByLayer
370
18
48
1
60
0
100
AcDbSpline
70
4
71
1
72
4
73
2
40
0
40
0
40
1
40
1
41
1
10
288.325
20
14.1198370876133
30
0
41
1
10
287.65725
20
14.9533643411553
30
0
0
SPLINE
5
10D
100
AcDbEntity
8
1
62
256
6
ByLayer
370
18
48
1
60
0
100
AcDbSpline
70
4
71
1
72
4
73
2
40
0
40
0
40
1
40
1
41
1
10
287.65725
20
14.5455234081104
30
0
41
1
10
288.325
20
13.9798062920975
30
0
0
SPLINE
5
10E
100
AcDbEntity
8
1
62
256
6
ByLayer
370
18
48
1
60
0
100
AcDbSpline
70
4
71
3
72
11
73
7
40
0
40
0
40
0
40
0
40
0.470820745489513
40
0.762527039237629
40
0.988895960790975
40
1
40
1
40
1
40
1
41
1
10
287.65725
20
14.3986734991149
30
0
41
1
10
287.630438630342
20
14.4340000228696
30
0
41
1
10
287.595185313404
20
14.4865320199931
30
0
41
1
10
287.56248145399
20
14.5488855051814
30
0
41
1
10
287.555157949279
20
14.5748185392747
30
0
41
1
10
287.555001636105
20
14.5835254796849
30
0
41
1
10
287.555000064621
20
14.5839276968501
30
0
0
SPLINE
5
10F
100
AcDbEntity
8
1
62
256
6
ByLayer
370
18
48
1
60
0
100
AcDbSpline
70
4
71
1
72
4
73
2
40
0
40
0
40
1
40
1
41
1
10
288.325
20
13.4882139614095
30
0
41
1
10
287.65725
20
14.3986734991149
30
0
0
SPLINE
5
110
100
AcDbEntity
8
1
62
256
6
ByLayer
370
18
48
1
60
0
100
AcDbSpline
70
4
71
1
72
4
73
2
40
0
40
0
40
1
40
1
41
1
10
287.65725
20
13.8511211748764
30
0
41
1
10
288.325
20
13.2993559045747
30
0
0
SPLINE
5
111
100
AcDbEntity
8
1
62
256
6
ByLayer
370
18
48
1
60
0
100
AcDbSpline
70
4
71
3
72
10
73
6
40
0
40
0
40
0
40
0
40
0.511473752737872
40
0.797853586510518
40
1
40
1
40
1
40
1
41
1
10
287.65725
20
13.6579827188679
30
0
41
1
10
287.627783127297
20
13.700564943516
30
0
41
1
10
287.591759261431
20
13.7618065575538
30
0
41
1
10
287.560378444441
20
13.8342802198638
30
0
41
1
10
287.555585421846
20
13.861780152969
30
0
41
1
10
287.55500019818
20
13.872224880247
30
0
0
SPLINE
5
112
100
AcDbEntity
8
1
62
256
6
ByLayer
370
18
48
1
60
0
100
AcDbSpline
70
4
71
1
72
4
73
2
40
0
40
0
40
1
40
1
41
1
10
288.325
20
12.6488747466637
30
0
41
1
10
287.65725
20
13.6579827188678
30
0
0
SPLINE
5
113
100
AcDbEntity
8
1
62
256
6
ByLayer
370
18
48
1
60
0
100
AcDbSpline
70
4
71
1
72
4
73
2
40
0
40
0
40
1
40
1
41
1
10
287.65725
20
12.9473883229913
30
0
41
1
10
288.325
20
12.4020462419926
30
0
0
SPLINE
5
114
100
AcDbEntity
8
1
62
256
6
ByLayer
370
18
48
1
60
0
100
AcDbSpline
70
4
71
3
72
10
73
6
40
0
40
0
40
0
40
0
40
0.56455916545098
40
0.833679780141681
40
1
40
1
40
1
40
1
41
1
10
287.65725
20
12.6987867673913
30
0
41
1
10
287.624442247882
20
12.7516786044385
30
0
41
1
10
287.587797552176
20
12.8243683780209
30
0
41
1
10
287.559317818936
20
12.9073886960659
30
0
41
1
10
287.555496597614
20
12.9375384740065
30
0
41
1
10
287.555006815614
20
12.9484605100656
30
0
0
SPLINE
5
115
100
AcDbEntity
8
1
62
256
6
ByLayer
370
18
48
1
60
0
100
AcDbSpline
70
4
71
1
72
4
73
2
40
0
40
0
40
1
40
1
41
1
10
288.325
20
11.5566495510079
30
0
41
1
10
287.65725
20
12.6987867673913
30
0
0
SPLINE
5
116
100
AcDbEntity
8
1
62
256
6
ByLayer
370
18
48
1
60
0
100
AcDbSpline
70
4
71
1
72
4
73
2
40
0
40
0
40
1
40
1
41
1
10
287.65725
20
11.7862704436795
30
0
41
1
10
288.325
20
11.2360417630275
30
0
0
SPLINE
5
117
100
AcDbEntity
8
1
62
256
6
ByLayer
370
18
48
1
60
0
100
AcDbSpline
70
4
71
3
72
10
73
6
40
0
40
0
40
0
40
0
40
0.502468664270275
40
0.799113764679299
40
1
40
1
40
1
40
1
41
1
10
287.65725
20
11.4663803695172
30
0
41
1
10
287.628437656017
20
11.5201878917496
30
0
41
1
10
287.592278738028
20
11.6023379821241
30
0
41
1
10
287.56102030905
20
11.7031512167938
30
0
41
1
10
287.55579969744
20
11.7471707976408
30
0
41
1
10
287.555010865472
20
11.7642799984961
30
0
0
SPLINE
5
118
100
AcDbEntity
8
1
62
256
6
ByLayer
370
18
48
1
60
0
100
AcDbSpline
70
4
71
1
72
4
73
2
40
0
40
0
40
1
40
1
41
1
10
288.325
20
10.1300673903403
30
0
41
1
10
287.65725
20
11.4663803695172
30
0
0
SPLINE
5
119
100
AcDbEntity
8
1
62
256
6
ByLayer
370
18
48
1
60
0
100
AcDbSpline
70
4
71
1
72
4
73
2
40
0
40
0
40
1
40
1
41
1
10
287.65725
20
10.280927854857
30
0
41
1
10
288.325
20
9.70497388005107
30
0
0
SPLINE
5
11A
100
AcDbEntity
8
1
62
256
6
ByLayer
370
18
48
1
60
0
100
AcDbSpline
70
4
71
2
72
6
73
3
40
0
40
0
40
0
40
1
40
1
40
1
41
1
10
287.65725
20
9.85883219216296
30
0
41
1
10
287.564368541533
20
10.059692618832
30
0
41
1
10
287.555001999236
20
10.2308911596919
30
0
0
SPLINE
5
11B
100
AcDbEntity
8
1
62
256
6
ByLayer
370
18
48
1
60
0
100
AcDbSpline
70
4
71
1
72
4
73
2
40
0
40
0
40
1
40
1
41
1
10
288.325
20
8.19636393901953
30
0
41
1
10
287.65725
20
9.85883219216296
30
0
0
SPLINE
5
11C
100
AcDbEntity
8
1
62
256
6
ByLayer
370
18
48
1
60
0
100
AcDbSpline
70
4
71
1
72
4
73
2
40
0
40
0
40
1
40
1
41
1
10
287.65725
20
8.24492475053567
30
0
41
1
10
288.325
20
7.59107380575695
30
0
0
SPLINE
5
11D
100
AcDbEntity
8
1
62
256
6
ByLayer
370
18
48
1
60
0
100
AcDbSpline
70
4
71
3
72
10
73
6
40
0
40
0
40
0
40
0
40
0.691793682195286
40
0.953700703658517
40
1
40
1
40
1
40
1
41
1
10
287.65725
20
7.64298800260786
30
0
41
1
10
287.615500100971
20
7.76421834547183
30
0
41
1
10
287.576768087846
20
7.92583896396977
30
0
41
1
10
287.556099364627
20
8.09246496505712
30
0
41
1
10
287.555074987852
20
8.14117077355684
30
0
41
1
10
287.555006914843
20
8.14845219122414
30
0
0
SPLINE
5
11E
100
AcDbEntity
8
1
62
256
6
ByLayer
370
18
48
1
60
0
100
AcDbSpline
70
4
71
2
72
6
73
3
40
0
40
0
40
0
40
1
40
1
40
1
41
1
10
288.325
20
5.2194346733036
30
0
41
1
10
288.045378433028
20
6.45113981071763
30
0
41
1
10
287.65725
20
7.64298800260787
30
0
0
SPLINE
5
11F
100
AcDbEntity
8
1
62
256
6
ByLayer
370
18
48
1
60
0
100
AcDbSpline
70
4
71
1
72
4
73
2
40
0
40
0
40
1
40
1
41
1
10
287.65725
20
5.07543995405497
30
0
41
1
10
288.325
20
4.06967873872439
30
0
0
SPLINE
5
120
100
AcDbEntity
8
1
62
256
6
ByLayer
370
18
48
1
60
0
100
AcDbSpline
70
4
71
3
72
10
73
6
40
0
40
0
40
0
40
0
40
0.347465612418253
40
0.888848738615245
40
1
40
1
40
1
40
1
41
1
10
287.65725
20
3.89023894160583
30
0
41
1
10
287.63866903701
20
4.00314884738808
30
0
41
1
10
287.59817379307
20
4.29071670221283
30
0
41
1
10
287.56074653279
20
4.61534473172477
30
0
41
1
10
287.555556970587
20
4.82169983096195
30
0
41
1
10
287.555029244808
20
4.85676999500984
30
0
0
SPLINE
5
121
100
AcDbEntity
8
1
62
256
6
ByLayer
370
18
48
1
60
0
100
AcDbSpline
70
4
71
3
72
15
73
11
40
0
40
0
40
0
40
0
40
0.0839441107734307
40
0.134028681517102
40
0.184579985654943
40
0.229616264100848
40
0.286342810069789
40
0.385404388322686
40
0.686841981346497
40
1
40
1
40
1
40
1
41
1
10
287.65725
20
-5.07543995405504
30
0
41
1
10
287.651389084165
20
-5.08426950832665
30
0
41
1
10
287.641210840153
20
-5.09598908996084
30
0
41
1
10
287.625294913341
20
-5.10850764653031
30
0
41
1
10
287.611815063431
20
-5.11273937890494
30
0
41
1
10
287.598949555034
20
-5.10945568106226
30
0
41
1
10
287.585722032547
20
-5.09661106273904
30
0
41
1
10
287.566561479004
20
-5.05313557877879
30
0
41
1
10
287.557227579104
20
-4.96931836735309
30
0
41
1
10
287.553706850376
20
-4.89685076007187
30
0
41
1
10
287.555022641011
20
-4.8580744715685
30
0
0
SPLINE
5
122
100
AcDbEntity
8
1
62
256
6
ByLayer
370
18
48
1
60
0
100
AcDbSpline
70
4
71
1
72
4
73
2
40
0
40
0
40
1
40
1
41
1
10
288.325
20
-4.06967873872439
30
0
41
1
10
287.65725
20
-5.07543995405497
30
0
0
SPLINE
5
123
100
AcDbEntity
8
1
62
256
6
ByLayer
370
18
48
1
60
0
100
AcDbSpline
70
4
71
2
72
6
73
3
40
0
40
0
40
0
40
1
40
1
40
1
41
1
10
287.65725
20
-7.64298800260787
30
0
41
1
10
288.045373471136
20
-6.45114275179283
30
0
41
1
10
288.325
20
-5.2194346733036
30
0
0
SPLINE
5
124
100
AcDbEntity
8
1
62
256
6
ByLayer
370
18
48
1
60
0
100
AcDbSpline
70
4
71
3
72
14
73
10
40
0
40
0
40
0
40
0
40
0.0692363263382078
40
0.196052900841217
40
0.289107914011733
40
0.382179745470588
40
0.509733763168672
40
0.727412208466097
40
1
40
1
40
1
40
1
41
1
10
287.657250000013
20
-8.24492475052782
30
0
41
1
10
287.65290720485
20
-8.24922579968659
30
0
41
1
10
287.640491932154
20
-8.26009963142061
30
0
41
1
10
287.62088618578
20
-8.27250797402738
30
0
41
1
10
287.60057644735
20
-8.27590082765082
30
0
41
1
10
287.583601234565
20
-8.26952921924052
30
0
41
1
10
287.567228734446
20
-8.24839317962814
30
0
41
1
10
287.55673911481
20
-8.20520822662039
30
0
41
1
10
287.554008157092
20
-8.16778309708034
30
0
41
1
10
287.55503554698
20
-8.14486455910578
30
0
0
SPLINE
5
125
100
AcDbEntity
8
1
62
256
6
ByLayer
370
18
48
1
60
0
100
AcDbSpline
70
4
71
1
72
4
73
2
40
0
40
0
40
1
40
1
41
1
10
288.325
20
-7.59107380575695
30
0
41
1
10
287.65725
20
-8.24492475053567
30
0
0
SPLINE
5
126
100
AcDbEntity
8
1
62
256
6
ByLayer
370
18
48
1
60
0
100
AcDbSpline
70
4
71
1
72
4
73
2
40
0
40
0
40
1
40
1
41
1
10
287.65725
20
-9.85883219216296
30
0
41
1
10
288.325
20
-8.19636393901953
30
0
0
SPLINE
5
127
100
AcDbEntity
8
1
62
256
6
ByLayer
370
18
48
1
60
0
100
AcDbSpline
70
4
71
3
72
13
73
9
40
0
40
0
40
0
40
0
40
0.109815341689417
40
0.281661077429936
40
0.411300046918831
40
0.540716755437597
40
0.731132699874382
40
1
40
1
40
1
40
1
41
1
10
287.657250000004
20
-10.2809278548553
30
0
41
1
10
287.650824219489
20
-10.2865896349837
30
0
41
1
10
287.634520738311
20
-10.2990684517944
30
0
41
1
10
287.609880142434
20
-10.3117840267762
30
0
41
1
10
287.587566844409
20
-10.3125839409717
30
0
41
1
10
287.57012122277
20
-10.3022429628086
30
0
41
1
10
287.55752857514
20
-10.2751941317946
30
0
41
1
10
287.554212537579
20
-10.2489623938217
30
0
41
1
10
287.555002180033
20
-10.2308439578287
30
0
0
SPLINE
5
128
100
AcDbEntity
8
1
62
256
6
ByLayer
370
18
48
1
60
0
100
AcDbSpline
70
4
71
1
72
4
73
2
40
0
40
0
40
1
40
1
41
1
10
288.325
20
-9.70497388005107
30
0
41
1
10
287.65725
20
-10.280927854857
30
0
0
SPLINE
5
129
100
AcDbEntity
8
1
62
256
6
ByLayer
370
18
48
1
60
0
100
AcDbSpline
70
4
71
1
72
4
73
2
40
0
40
0
40
1
40
1
41
1
10
287.65725
20
-11.4663803695172
30
0
41
1
10
288.325
20
-10.1300673903403
30
0
0
SPLINE
5
12A
100
AcDbEntity
8
1
62
256
6
ByLayer
370
18
48
1
60
0
100
AcDbSpline
70
4
71
3
72
13
73
9
40
0
40
0
40
0
40
0
40
0.145707763476112
40
0.355689716314487
40
0.537493831700881
40
0.692805978487547
40
0.934750606327413
40
1
40
1
40
1
40
1
41
1
10
287.657250000002
20
-11.786270443679
30
0
41
1
10
287.648959540505
20
-11.793257468915
30
0
41
1
10
287.629301885864
20
-11.8076256330826
30
0
41
1
10
287.599525215823
20
-11.8220631845059
30
0
41
1
10
287.575817733141
20
-11.8206262209754
30
0
41
1
10
287.560093579864
20
-11.8055181957874
30
0
41
1
10
287.555459739101
20
-11.7846099197191
30
0
41
1
10
287.554961550913
20
-11.7688934377708
30
0
41
1
10
287.555001749852
20
-11.7654187542591
30
0
0
SPLINE
5
12B
100
AcDbEntity
8
1
62
256
6
ByLayer
370
18
48
1
60
0
100
AcDbSpline
70
4
71
1
72
4
73
2
40
0
40
0
40
1
40
1
41
1
10
288.325
20
-11.2360417630275
30
0
41
1
10
287.65725
20
-11.7862704436795
30
0
0
SPLINE
5
12C
100
AcDbEntity
8
1
62
256
6
ByLayer
370
18
48
1
60
0
100
AcDbSpline
70
4
71
1
72
4
73
2
40
0
40
0
40
1
40
1
41
1
10
287.65725
20
-12.6987867673913
30
0
41
1
10
288.325
20
-11.5566495510079
30
0
0
SPLINE
5
12D
100
AcDbEntity
8
1
62
256
6
ByLayer
370
18
48
1
60
0
100
AcDbSpline
70
4
71
3
72
12
73
8
40
0
40
0
40
0
40
0
40
0.179230167485098
40
0.381544012992584
40
0.585196504024855
40
0.760944314470113
40
1
40
1
40
1
40
1
41
1
10
287.657250000001
20
-12.947388322991
30
0
41
1
10
287.6472792261
20
-12.9556860553768
30
0
41
1
10
287.626884447
20
-12.9705680463781
30
0
41
1
10
287.596570048645
20
-12.9863706715297
30
0
41
1
10
287.572789868212
20
-12.9883600165958
30
0
41
1
10
287.558004589973
20
-12.9757743423688
30
0
41
1
10
287.554645370598
20
-12.9607910917792
30
0
41
1
10
287.555000021334
20
-12.9495643905384
30
0
0
SPLINE
5
12E
100
AcDbEntity
8
1
62
256
6
ByLayer
370
18
48
1
60
0
100
AcDbSpline
70
4
71
1
72
4
73
2
40
0
40
0
40
1
40
1
41
1
10
288.325
20
-12.4020462419926
30
0
41
1
10
287.65725
20
-12.9473883229913
30
0
0
SPLINE
5
12F
100
AcDbEntity
8
1
62
256
6
ByLayer
370
18
48
1
60
0
100
AcDbSpline
70
4
71
1
72
4
73
2
40
0
40
0
40
1
40
1
41
1
10
287.65725
20
-13.6579827188678
30
0
41
1
10
288.325
20
-12.6488747466637
30
0
0
SPLINE
5
130
100
AcDbEntity
8
1
62
256
6
ByLayer
370
18
48
1
60
0
100
AcDbSpline
70
4
71
3
72
12
73
8
40
0
40
0
40
0
40
0
40
0.209155254886072
40
0.428242584532147
40
0.64880446323441
40
0.838645103039197
40
1
40
1
40
1
40
1
41
1
10
287.65725
20
-13.8511211748763
30
0
41
1
10
287.64568421386
20
-13.8608294446369
30
0
41
1
10
287.623255582745
20
-13.8775872603551
30
0
41
1
10
287.591155768353
20
-13.895532913778
30
0
41
1
10
287.56778188102
20
-13.8989544901757
30
0
41
1
10
287.556795753814
20
-13.8889273985982
30
0
41
1
10
287.554842859109
20
-13.8780888885181
30
0
41
1
10
287.555001480327
20
-13.8719566383921
30
0
0
SPLINE
5
131
100
AcDbEntity
8
1
62
256
6
ByLayer
370
18
48
1
60
0
100
AcDbSpline
70
4
71
1
72
4
73
2
40
0
40
0
40
1
40
1
41
1
10
288.325
20
-13.2993559045747
30
0
41
1
10
287.65725
20
-13.8511211748764
30
0
0
SPLINE
5
132
100
AcDbEntity
8
1
62
256
6
ByLayer
370
18
48
1
60
0
100
AcDbSpline
70
4
71
1
72
4
73
2
40
0
40
0
40
1
40
1
41
1
10
287.65725
20
-14.3986734991149
30
0
41
1
10
288.325
20
-13.4882139614095
30
0
0
SPLINE
5
133
100
AcDbEntity
8
1
62
256
6
ByLayer
370
18
48
1
60
0
100
AcDbSpline
70
4
71
3
72
12
73
8
40
0
40
0
40
0
40
0
40
0.238446189618286
40
0.472536138168494
40
0.708281469955427
40
0.909626749361436
40
1
40
1
40
1
40
1
41
1
10
287.65725
20
-14.5455234081103
30
0
41
1
10
287.644150588114
20
-14.55675446328
30
0
41
1
10
287.61990667254
20
-14.57561407731
30
0
41
1
10
287.586416192945
20
-14.5962162430477
30
0
41
1
10
287.563755921652
20
-14.6016189057095
30
0
41
1
10
287.555903878388
20
-14.593962452966
30
0
41
1
10
287.554957167571
20
-14.5864528020332
30
0
41
1
10
287.555000735559
20
-14.5837681891278
30
0
0
SPLINE
5
134
100
AcDbEntity
8
1
62
256
6
ByLayer
370
18
48
1
60
0
100
AcDbSpline
70
4
71
1
72
4
73
2
40
0
40
0
40
1
40
1
41
1
10
288.325
20
-13.9798062920975
30
0
41
1
10
287.65725
20
-14.5455234081104
30
0
0
SPLINE
5
135
100
AcDbEntity
8
1
62
256
6
ByLayer
370
18
48
1
60
0
100
AcDbSpline
70
4
71
1
72
4
73
2
40
0
40
0
40
1
40
1
41
1
10
287.65725
20
-14.9533643411553
30
0
41
1
10
288.325
20
-14.1198370876133
30
0
0
SPLINE
5
136
100
AcDbEntity
8
1
62
256
6
ByLayer
370
18
48
1
60
0
100
AcDbSpline
70
4
71
3
72
12
73
8
40
0
40
0
40
0
40
0
40
0.266587403552758
40
0.513323082733808
40
0.72318929634895
40
0.933422438650524
40
1
40
1
40
1
40
1
41
1
10
287.65725
20
-15.0595798291541
30
0
41
1
10
287.642647485915
20
-15.0724840820605
30
0
41
1
10
287.616755469921
20
-15.0937099933848
30
0
41
1
10
287.583948386255
20
-15.1162475644618
30
0
41
1
10
287.562688709869
20
-15.1247758117844
30
0
41
1
10
287.555696215958
20
-15.1210533451289
30
0
41
1
10
287.554984290279
20
-15.1157264662601
30
0
41
1
10
287.555000180052
20
-15.1142466541857
30
0
0
SPLINE
5
137
100
AcDbEntity
8
1
62
256
6
ByLayer
370
18
48
1
60
0
100
AcDbSpline
70
4
71
1
72
4
73
2
40
0
40
0
40
1
40
1
41
1
10
288.325
20
-14.4740146625805
30
0
41
1
10
287.65725
20
-15.0595798291541
30
0
0
SPLINE
5
138
100
AcDbEntity
8
1
62
256
6
ByLayer
370
18
48
1
60
0
100
AcDbSpline
70
4
71
1
72
4
73
2
40
0
40
0
40
1
40
1
41
1
10
287.65725
20
-15.3422427208201
30
0
41
1
10
288.325
20
-14.5707818216016
30
0
0
SPLINE
5
139
100
AcDbEntity
8
1
62
256
6
ByLayer
370
18
48
1
60
0
100
AcDbSpline
70
4
71
3
72
12
73
8
40
0
40
0
40
0
40
0
40
0.294153510240142
40
0.551723063447487
40
0.768220933165739
40
0.985308388173557
40
1
40
1
40
1
40
1
41
1
10
287.65725
20
-15.4113477037358
30
0
41
1
10
287.641148488631
20
-15.4261193838951
30
0
41
1
10
287.613734030583
20
-15.4500146000013
30
0
41
1
10
287.580256317671
20
-15.4759893783787
30
0
41
1
10
287.560036946568
20
-15.4872664205176
30
0
41
1
10
287.55514009894
20
-15.4854991219621
30
0
41
1
10
287.554999537867
20
-15.4822291856871
30
0
41
1
10
287.555000002708
20
-15.4820121509128
30
0
0
SPLINE
5
13A
100
AcDbEntity
8
1
62
256
6
ByLayer
370
18
48
1
60
0
100
AcDbSpline
70
4
71
1
72
4
73
2
40
0
40
0
40
1
40
1
41
1
10
288.325
20
-14.800649206728
30
0
41
1
10
287.65725
20
-15.4113477037358
30
0
0
SPLINE
5
13B
100
AcDbEntity
8
1
62
256
6
ByLayer
370
18
48
1
60
0
100
AcDbSpline
70
4
71
1
72
4
73
2
40
0
40
0
40
1
40
1
41
1
10
287.65725
20
-15.5777314872795
30
0
41
1
10
288.325
20
-14.8575087549929
30
0
0
SPLINE
5
13C
100
AcDbEntity
8
1
62
256
6
ByLayer
370
18
48
1
60
0
100
AcDbSpline
70
4
71
3
72
11
73
7
40
0
40
0
40
0
40
0
40
0.374905131140465
40
0.627189141385308
40
0.881388716262838
40
1
40
1
40
1
40
1
41
1
10
287.65725
20
-15.6118010319188
30
0
41
1
10
287.636376066302
20
-15.6318234862362
30
0
41
1
10
287.606047720447
20
-15.6600155147313
30
0
41
1
10
287.571058634398
20
-15.6904233624892
30
0
41
1
10
287.556933215959
20
-15.7002067055556
30
0
41
1
10
287.555023131956
20
-15.6993651118391
30
0
41
1
10
287.555000073645
20
-15.6984832702223
30
0
0
SPLINE
5
13D
100
AcDbEntity
8
1
62
256
6
ByLayer
370
18
48
1
60
0
100
AcDbSpline
70
4
71
1
72
4
73
2
40
0
40
0
40
1
40
1
41
1
10
288.325
20
-14.9706824636902
30
0
41
1
10
287.65725
20
-15.6118010319188
30
0
0
SPLINE
5
13E
100
AcDbEntity
8
1
62
256
6
ByLayer
370
18
48
1
60
0
100
AcDbSpline
70
4
71
1
72
4
73
2
40
0
40
0
40
1
40
1
41
1
10
287.65725
20
-15.6667490206169
30
0
41
1
10
288.325
20
-14.989444616685
30
0
0
SPLINE
5
13F
100
AcDbEntity
8
1
62
256
6
ByLayer
370
18
48
1
60
0
100
AcDbSpline
70
4
71
3
72
11
73
7
40
0
40
0
40
0
40
0
40
0.244811255350474
40
0.491567663268503
40
0.744677633371495
40
1
40
1
40
1
40
1
41
1
10
287.65725
20
-3.89023894160583
30
0
41
1
10
287.758164284421
20
-3.26074630092458
30
0
41
1
10
287.911206130757
20
-1.99213894738969
30
0
41
1
10
287.99492140588
20
-0.0495686524285581
30
0
41
1
10
287.918694319849
20
1.9211550236208
30
0
41
1
10
287.762555078912
20
3.2335608753998
30
0
41
1
10
287.65725
20
3.89023894160583
30
0
0
SPLINE
5
140
100
AcDbEntity
8
1
62
256
6
ByLayer
370
18
48
1
60
0
100
AcDbSpline
70
4
71
3
72
16
73
12
40
0
40
0
40
0
40
0
40
0.318440268048301
40
0.622120945561579
40
0.703447924890894
40
0.762063789612634
40
0.805979694407067
40
0.850040121473142
40
0.903849105004392
40
0.994262706517727
40
1
40
1
40
1
40
1
41
1
10
287.555029244808
20
4.85676999500984
30
0
41
1
10
287.553605856968
20
4.89639109781707
30
0
41
1
10
287.557259603187
20
4.96985565960345
30
0
41
1
10
287.566566840041
20
5.05306125713376
30
0
41
1
10
287.58521031514
20
5.09506547324571
30
0
41
1
10
287.596691276593
20
5.10790783022574
30
0
41
1
10
287.608629960391
20
5.11248516138866
30
0
41
1
10
287.621647450909
20
5.11030774566826
30
0
41
1
10
287.638453205518
20
5.09922350344064
30
0
41
1
10
287.650039815067
20
5.08543240623499
30
0
41
1
10
287.656846326545
20
5.07600708967396
30
0
41
1
10
287.65725
20
5.07543995405505
30
0
0
SPLINE
5
141
100
AcDbEntity
8
1
62
256
6
ByLayer
370
18
48
1
60
0
100
AcDbSpline
70
4
71
3
72
10
73
6
40
0
40
0
40
0
40
0
40
0.114852010976742
40
0.351349684798297
40
1
40
1
40
1
40
1
41
1
10
287.555022641011
20
-4.8580744715685
30
0
41
1
10
287.554966155735
20
-4.82193994132285
30
0
41
1
10
287.556672457452
20
-4.71092849545198
30
0
41
1
10
287.586149172536
20
-4.3883526929144
30
0
41
1
10
287.621362632105
20
-4.10204805744242
30
0
41
1
10
287.65725
20
-3.89023894160583
30
0
0
SPLINE
5
142
100
AcDbEntity
8
1
62
256
6
ByLayer
370
18
48
1
60
0
100
AcDbSpline
70
4
71
3
72
14
73
10
40
0
40
0
40
0
40
0
40
0.31703058351195
40
0.459136916041506
40
0.602313064805118
40
0.699753417129947
40
0.797511721729083
40
0.913486262661492
40
1
40
1
40
1
40
1
41
1
10
287.555006914843
20
8.14845219122414
30
0
41
1
10
287.553894824123
20
8.17481689364489
30
0
41
1
10
287.557076340046
20
8.20907085131894
30
0
41
1
10
287.56848436881
20
8.24887033824508
30
0
41
1
10
287.581713093676
20
8.26824408046302
30
0
41
1
10
287.599348861511
20
8.27588055432025
30
0
41
1
10
287.619170446955
20
8.27306319173058
30
0
41
1
10
287.639198533621
20
8.26110025032816
30
0
41
1
10
287.651886024152
20
8.25026694304999
30
0
41
1
10
287.65725
20
8.24492475053573
30
0
0
SPLINE
5
143
100
AcDbEntity
8
1
62
256
6
ByLayer
370
18
48
1
60
0
100
AcDbSpline
70
4
71
2
72
6
73
3
40
0
40
0
40
0
40
1
40
1
40
1
41
1
10
287.55503554698
20
-8.14486455910578
30
0
41
1
10
287.563187014575
20
-7.90717817951065
30
0
41
1
10
287.65725
20
-7.64298800260787
30
0
0
SPLINE
5
144
100
AcDbEntity
8
1
62
256
6
ByLayer
370
18
48
1
60
0
100
AcDbSpline
70
4
71
3
72
14
73
10
40
0
40
0
40
0
40
0
40
0.0570207991383785
40
0.26396161417634
40
0.472632180511996
40
0.607861287156102
40
0.743539272551497
40
0.873270914085323
40
1
40
1
40
1
40
1
41
1
10
287.555001999236
20
10.2308911596919
30
0
41
1
10
287.554974013075
20
10.2345182945579
30
0
41
1
10
287.555272493571
20
10.2509749422988
30
0
41
1
10
287.558547088363
20
10.2786107088628
30
0
41
1
10
287.570764727009
20
10.3035385854928
30
0
41
1
10
287.590225156297
20
10.3133120870529
30
0
41
1
10
287.611732326913
20
10.3106834540282
30
0
41
1
10
287.634918282148
20
10.2986604797642
30
0
41
1
10
287.649818903659
20
10.28748026499
30
0
41
1
10
287.65725
20
10.280927854857
30
0
0
SPLINE
5
145
100
AcDbEntity
8
1
62
256
6
ByLayer
370
18
48
1
60
0
100
AcDbSpline
70
4
71
3
72
10
73
6
40
0
40
0
40
0
40
0
40
0.0313950439724189
40
0.409106482677409
40
1
40
1
40
1
40
1
41
1
10
287.555002180033
20
-10.2308439578287
30
0
41
1
10
287.555032140104
20
-10.2274083003614
30
0
41
1
10
287.555905591468
20
-10.1823992524632
30
0
41
1
10
287.580632605378
20
-10.0582360897642
30
0
41
1
10
287.621968748872
20
-9.93670107993416
30
0
41
1
10
287.65725
20
-9.85883219216295
30
0
0
SPLINE
5
146
100
AcDbEntity
8
1
62
256
6
ByLayer
370
18
48
1
60
0
100
AcDbSpline
70
4
71
3
72
13
73
9
40
0
40
0
40
0
40
0
40
0.153003490220143
40
0.341855264139478
40
0.532340067717447
40
0.700757193680096
40
0.855961860769129
40
1
40
1
40
1
40
1
41
1
10
287.555010865472
20
11.7642799984961
30
0
41
1
10
287.554763911783
20
11.7726893366041
30
0
41
1
10
287.556118217465
20
11.7896327586414
30
0
41
1
10
287.563770759756
20
11.8114801755506
30
0
41
1
10
287.581465762499
20
11.8227346802581
30
0
41
1
10
287.606304011127
20
11.8191251315851
30
0
41
1
10
287.632285612308
20
11.805427642142
30
0
41
1
10
287.64901984543
20
11.7931828654578
30
0
41
1
10
287.65725
20
11.7862704436795
30
0
0
SPLINE
5
147
100
AcDbEntity
8
1
62
256
6
ByLayer
370
18
48
1
60
0
100
AcDbSpline
70
4
71
3
72
10
73
6
40
0
40
0
40
0
40
0
40
0.217572190450041
40
0.691645712711609
40
1
40
1
40
1
40
1
41
1
10
287.555001749852
20
-11.7654187542591
30
0
41
1
10
287.555949698682
20
-11.7466991141743
30
0
41
1
10
287.563356602447
20
-11.6852146180713
30
0
41
1
10
287.601571567374
20
-11.5802208098777
30
0
41
1
10
287.639902017015
20
-11.499090237355
30
0
41
1
10
287.65725
20
-11.4663803695172
30
0
0
SPLINE
5
148
100
AcDbEntity
8
1
62
256
6
ByLayer
370
18
48
1
60
0
100
AcDbSpline
70
4
71
3
72
13
73
9
40
0
40
0
40
0
40
0
40
0.150964821983274
40
0.345506690992493
40
0.541280972025139
40
0.716506534493552
40
0.949390305839475
40
1
40
1
40
1
40
1
41
1
10
287.555006815614
20
12.9484605100656
30
0
41
1
10
287.554793999667
20
12.9554290791048
30
0
41
1
10
287.556347989575
20
12.9692474572525
30
0
41
1
10
287.565322128444
20
12.9850263828511
30
0
41
1
10
287.584968310909
20
12.9887893588075
30
0
41
1
10
287.613840131215
20
12.978701179018
30
0
41
1
10
287.638998517422
20
12.9619426371367
30
0
41
1
10
287.654469529282
20
12.9496690752399
30
0
41
1
10
287.65725
20
12.9473883229912
30
0
0
SPLINE
5
149
100
AcDbEntity
8
1
62
256
6
ByLayer
370
18
48
1
60
0
100
AcDbSpline
70
4
71
3
72
11
73
7
40
0
40
0
40
0
40
0
40
0.0038806264270879
40
0.266110408093498
40
0.70610920931861
40
1
40
1
40
1
40
1
41
1
10
287.555000021334
20
-12.9495643905384
30
0
41
1
10
287.55500033404
20
-12.9493202838164
30
0
41
1
10
287.555068584324
20
-12.9325468832702
30
0
41
1
10
287.566164163192
20
-12.8789991823452
30
0
41
1
10
287.604464719229
20
-12.7912019513021
30
0
41
1
10
287.640824857324
20
-12.7256777804562
30
0
41
1
10
287.65725
20
-12.6987867673913
30
0
0
SPLINE
5
14A
100
AcDbEntity
8
1
62
256
6
ByLayer
370
18
48
1
60
0
100
AcDbSpline
70
4
71
3
72
13
73
9
40
0
40
0
40
0
40
0
40
0.0316467329731605
40
0.247953033205181
40
0.465658269207474
40
0.656082193056796
40
0.90528572391466
40
1
40
1
40
1
40
1
41
1
10
287.55500019818
20
13.872224880247
30
0
41
1
10
287.554993303941
20
13.8733784563274
30
0
41
1
10
287.555243334421
20
13.8821107648866
30
0
41
1
10
287.559658832774
20
13.8950908538812
30
0
41
1
10
287.577501262407
20
13.8990142072381
30
0
41
1
10
287.605978274093
20
13.8884385694065
30
0
41
1
10
287.633883819865
20
13.8698318398498
30
0
41
1
10
287.652134674244
20
13.8553729355459
30
0
41
1
10
287.657250000005
20
13.8511211748747
30
0
0
SPLINE
5
14B
100
AcDbEntity
8
1
62
256
6
ByLayer
370
18
48
1
60
0
100
AcDbSpline
70
4
71
3
72
11
73
7
40
0
40
0
40
0
40
0
40
0.0678328292522875
40
0.345194292779801
40
0.782280401492518
40
1
40
1
40
1
40
1
41
1
10
287.555001480327
20
-13.8719566383921
30
0
41
1
10
287.555073554164
20
-13.8686143955396
30
0
41
1
10
287.55640176263
20
-13.8508853215756
30
0
41
1
10
287.573326695281
20
-13.7991067656449
30
0
41
1
10
287.612161563374
20
-13.7270029364371
30
0
41
1
10
287.645308120586
20
-13.6754715408638
30
0
41
1
10
287.657249999999
20
-13.6579827188678
30
0
0
SPLINE
5
14C
100
AcDbEntity
8
1
62
256
6
ByLayer
370
18
48
1
60
0
100
AcDbSpline
70
4
71
3
72
11
73
7
40
0
40
0
40
0
40
0
40
0.129925738040857
40
0.414393514086588
40
0.842521180391813
40
1
40
1
40
1
40
1
41
1
10
287.555000735559
20
-14.5837681891278
30
0
41
1
10
287.55521837351
20
-14.5788171004692
30
0
41
1
10
287.557977846481
20
-14.5614100141145
30
0
41
1
10
287.58017688089
20
-14.511905399438
30
0
41
1
10
287.618618393237
20
-14.4515808831509
30
0
41
1
10
287.64871729109
20
-14.4100393607564
30
0
41
1
10
287.65725
20
-14.3986734991149
30
0
0
SPLINE
5
14D
100
AcDbEntity
8
1
62
256
6
ByLayer
370
18
48
1
60
0
100
AcDbSpline
70
4
71
3
72
12
73
8
40
0
40
0
40
0
40
0
40
0.203909305538624
40
0.422537575108517
40
0.620621181424504
40
0.88956364949789
40
1
40
1
40
1
40
1
41
1
10
287.555000064621
20
14.5839276968501
30
0
41
1
10
287.554897225571
20
14.5901578709605
30
0
41
1
10
287.558171190867
20
14.5990547487475
30
0
41
1
10
287.574210240404
20
14.6003820075661
30
0
41
1
10
287.602194524323
20
14.5875413988447
30
0
41
1
10
287.631480055287
20
14.5667658287614
30
0
41
1
10
287.651333150623
20
14.5505559271693
30
0
41
1
10
287.657250000007
20
14.5455234081077
30
0
0
SPLINE
5
14E
100
AcDbEntity
8
1
62
256
6
ByLayer
370
18
48
1
60
0
100
AcDbSpline
70
4
71
3
72
12
73
8
40
0
40
0
40
0
40
0
40
0.163694215286395
40
0.380159134767524
40
0.583338143107337
40
0.868065820968264
40
1
40
1
40
1
40
1
41
1
10
287.555000339311
20
15.1142163670995
30
0
41
1
10
287.55495500721
20
15.1179393145092
30
0
41
1
10
287.557413915113
20
15.1237367982327
30
0
41
1
10
287.57097196141
20
15.1224878826465
30
0
41
1
10
287.598007553038
20
15.1074346127982
30
0
41
1
10
287.628607656369
20
15.084109475487
30
0
41
1
10
287.650194818144
20
15.0657778997347
30
0
41
1
10
287.657250000013
20
15.0595798291486
30
0
0
SPLINE
5
14F
100
AcDbEntity
8
1
62
256
6
ByLayer
370
18
48
1
60
0
100
AcDbSpline
70
4
71
3
72
11
73
7
40
0
40
0
40
0
40
0
40
0.11839027129026
40
0.377029769009247
40
0.750112275091472
40
1
40
1
40
1
40
1
41
1
10
287.555000180052
20
-15.1142466541857
30
0
41
1
10
287.555138843389
20
-15.1110319892323
30
0
41
1
10
287.557375576907
20
-15.0992567118334
30
0
41
1
10
287.575569952472
20
-15.0632988083935
30
0
41
1
10
287.612547162923
20
-15.0098531241827
30
0
41
1
10
287.643629062905
20
-14.9700200127624
30
0
41
1
10
287.65725
20
-14.9533643411547
30
0
0
SPLINE
5
150
100
AcDbEntity
8
1
62
256
6
ByLayer
370
18
48
1
60
0
100
AcDbSpline
70
4
71
3
72
11
73
7
40
0
40
0
40
0
40
0
40
0.171984954810244
40
0.43226802358768
40
0.797919176781452
40
1
40
1
40
1
40
1
41
1
10
287.555000002708
20
-15.4820121509128
30
0
41
1
10
287.555269673016
20
-15.4788542463461
30
0
41
1
10
287.558796949562
20
-15.4683563881702
30
0
41
1
10
287.581173921823
20
-15.4341201383482
30
0
41
1
10
287.6176570447
20
-15.3881714625811
30
0
41
1
10
287.646345886059
20
-15.354651084431
30
0
41
1
10
287.65725
20
-15.342242720817
30
0
0
SPLINE
5
151
100
AcDbEntity
8
1
62
256
6
ByLayer
370
18
48
1
60
0
100
AcDbSpline
70
4
71
3
72
12
73
8
40
0
40
0
40
0
40
0
40
0.0861894485754638
40
0.303723852816691
40
0.509191504298531
40
0.795485245746911
40
1
40
1
40
1
40
1
41
1
10
287.555000143883
20
15.4819714470496
30
0
41
1
10
287.554988712237
20
15.4832675118198
30
0
41
1
10
287.55606642218
20
15.4866459812621
30
0
41
1
10
287.564917416711
20
15.4851765366456
30
0
41
1
10
287.588870494627
20
15.4698043665341
30
0
41
1
10
287.621317389901
20
15.4434731342726
30
0
41
1
10
287.64623875025
20
15.4214238420894
30
0
41
1
10
287.65725
20
15.4113477037358
30
0
0
SPLINE
5
152
100
AcDbEntity
8
1
62
256
6
ByLayer
370
18
48
1
60
0
100
AcDbSpline
70
4
71
3
72
12
73
8
40
0
40
0
40
0
40
0
40
0.0941508455462839
40
0.289889332262184
40
0.572509325602253
40
0.966989265767947
40
1
40
1
40
1
40
1
41
1
10
287.555000073645
20
-15.6984832702223
30
0
41
1
10
287.55504291129
20
-15.6976880198622
30
0
41
1
10
287.556360709931
20
-15.6940834986305
30
0
41
1
10
287.567102576772
20
-15.6788757361525
30
0
41
1
10
287.598163157722
20
-15.6419560755432
30
0
41
1
10
287.633088231275
20
-15.6035825332731
30
0
41
1
10
287.655504226588
20
-15.5795955704072
30
0
41
1
10
287.65725
20
-15.5777314872795
30
0
0
SPLINE
5
153
100
AcDbEntity
8
1
62
256
6
ByLayer
370
18
48
1
60
0
100
AcDbSpline
70
4
71
3
72
12
73
8
40
0
40
0
40
0
40
0
40
0.106825144771996
40
0.315725861377456
40
0.526328162313758
40
0.845761088623564
40
1
40
1
40
1
40
1
41
1
10
287.555000062035
20
15.6984846452879
30
0
41
1
10
287.555010324262
20
15.699287567001
30
0
41
1
10
287.556481680304
20
15.7001552974596
30
0
41
1
10
287.566746704078
20
15.6936093593332
30
0
41
1
10
287.592394443878
20
15.6722068580406
30
0
41
1
10
287.624797922366
20
15.6425727315407
30
0
41
1
10
287.64902047667
20
15.6196694966356
30
0
41
1
10
287.657250000008
20
15.6118010319132
30
0
0
SPLINE
5
154
100
AcDbEntity
8
1
62
256
6
ByLayer
370
18
48
1
60
0
100
AcDbSpline
70
4
71
3
72
13
73
9
40
0
40
0
40
0
40
0
40
0.0811068003230501
40
0.54205969579374
40
0.698217929308328
40
0.855466894270602
40
0.966212236972897
40
1
40
1
40
1
40
1
41
1
10
11.8943375672974
20
23.6665017920809
30
0
41
1
10
11.8894428381777
20
23.6728293617709
30
0
41
1
10
11.8534346287606
20
23.7145200781299
30
0
41
1
10
11.7877522749415
20
23.7663890526222
30
0
41
1
10
11.6656255980129
20
23.8124861135428
30
0
41
1
10
11.5793223070755
20
23.8319383085952
30
0
41
1
10
11.5056611588718
20
23.8385548003315
30
0
41
1
10
11.4698010058117
20
23.8391220894067
30
0
41
1
10
11.4613248654052
20
23.8391299750504
30
0
0
SPLINE
5
155
100
AcDbEntity
8
1
62
256
6
ByLayer
370
18
48
1
60
0
100
AcDbSpline
70
4
71
3
72
12
73
8
40
0
40
0
40
0
40
0
40
0.0777065243411475
40
0.182768991260447
40
0.355509705274232
40
0.661119206188002
40
1
40
1
40
1
40
1
41
1
10
8.53867513459481
20
23.8391299750504
30
0
41
1
10
8.51889061425139
20
23.8390510092636
30
0
41
1
10
8.47384249247805
20
23.837417080354
30
0
41
1
10
8.390979334746
20
23.8265956452496
30
0
41
1
10
8.28079022698233
20
23.7967264721263
30
0
41
1
10
8.17813160018114
20
23.7411879478121
30
0
41
1
10
8.12412228713196
20
23.6935586164053
30
0
41
1
10
8.10566243270259
20
23.6665017920809
30
0
0
SPLINE
5
156
100
AcDbEntity
8
1
62
256
6
ByLayer
370
18
48
1
60
0
100
AcDbSpline
70
4
71
3
72
13
73
9
40
0
40
0
40
0
40
0
40
0.0811068003230366
40
0.542059695793718
40
0.698217929308301
40
0.855466894270596
40
0.966212236972867
40
1
40
1
40
1
40
1
41
1
10
8.10566243270259
20
8.05584836782774
30
0
41
1
10
8.11055716182229
20
8.037251714098
30
0
41
1
10
8.14656537123944
20
7.91434257650656
30
0
41
1
10
8.21224772505842
20
7.75704006565195
30
0
41
1
10
8.33437440198708
20
7.61365769814303
30
0
41
1
10
8.42067769292451
20
7.55243803205592
30
0
41
1
10
8.49433884112822
20
7.53148602816117
30
0
41
1
10
8.53019899418831
20
7.52969262189673
30
0
41
1
10
8.53867513459481
20
7.52966679426498
30
0
0
SPLINE
5
157
100
AcDbEntity
8
1
62
256
6
ByLayer
370
18
48
1
60
0
100
AcDbSpline
70
4
71
3
72
12
73
8
40
0
40
0
40
0
40
0
40
0.0777065243411817
40
0.182768991260496
40
0.355509705274344
40
0.661119206188212
40
1
40
1
40
1
40
1
41
1
10
11.4613248654052
20
7.52966679426499
30
0
41
1
10
11.4811093857486
20
7.52992453895395
30
0
41
1
10
11.526157507522
20
7.53508753718822
30
0
41
1
10
11.609020665254
20
7.56930040674385
30
0
41
1
10
11.7192097730177
20
7.66302821977538
30
0
41
1
10
11.8218683998189
20
7.83415197314229
30
0
41
1
10
11.875877712868
20
7.97612018956257
30
0
41
1
10
11.8943375672974
20
8.05584836782772
30
0
0
SPLINE
5
158
100
AcDbEntity
8
1
62
256
6
ByLayer
370
18
48
1
60
0
100
AcDbSpline
70
4
71
3
72
13
73
9
40
0
40
0
40
0
40
0
40
0.081106800323012
40
0.542059695793596
40
0.698217929308227
40
0.855466894270571
40
0.966212236972817
40
1
40
1
40
1
40
1
41
1
10
11.8943375672974
20
-8.05584836782772
30
0
41
1
10
11.8894428381777
20
-8.03725171409799
30
0
41
1
10
11.8534346287606
20
-7.91434257650657
30
0
41
1
10
11.7877522749416
20
-7.75704006565199
30
0
41
1
10
11.665625598013
20
-7.61365769814305
30
0
41
1
10
11.5793223070755
20
-7.55243803205596
30
0
41
1
10
11.5056611588718
20
-7.53148602816111
30
0
41
1
10
11.4698010058117
20
-7.52969262189673
30
0
41
1
10
11.4613248654052
20
-7.52966679426498
30
0
0
SPLINE
5
159
100
AcDbEntity
8
1
62
256
6
ByLayer
370
18
48
1
60
0
100
AcDbSpline
70
4
71
3
72
12
73
8
40
0
40
0
40
0
40
0
40
0.0777065243411248
40
0.182768991260443
40
0.355509705274211
40
0.661119206187974
40
1
40
1
40
1
40
1
41
1
10
8.53867513459481
20
-7.529666794265
30
0
41
1
10
8.5188906142514
20
-7.52992453895396
30
0
41
1
10
8.47384249247806
20
-7.53508753718821
30
0
41
1
10
8.39097933474603
20
-7.56930040674382
30
0
41
1
10
8.28079022698235
20
-7.66302821977532
30
0
41
1
10
8.17813160018116
20
-7.8341519731422
30
0
41
1
10
8.12412228713197
20
-7.97612018956252
30
0
41
1
10
8.10566243270259
20
-8.05584836782773
30
0
0
SPLINE
5
15A
100
AcDbEntity
8
1
62
256
6
ByLayer
370
18
48
1
60
0
100
AcDbSpline
70
4
71
3
72
13
73
9
40
0
40
0
40
0
40
0
40
0.081106800323024
40
0.542059695793695
40
0.69821792930829
40
0.855466894270574
40
0.966212236972855
40
1
40
1
40
1
40
1
41
1
10
8.10566243270259
20
-23.6665017920809
30
0
41
1
10
8.11055716182229
20
-23.6728293617709
30
0
41
1
10
8.14656537123945
20
-23.7145200781299
30
0
41
1
10
8.21224772505843
20
-23.7663890526222
30
0
41
1
10
8.33437440198707
20
-23.8124861135428
30
0
41
1
10
8.4206776929245
20
-23.8319383085952
30
0
41
1
10
8.49433884112822
20
-23.8385548003315
30
0
41
1
10
8.5301989941883
20
-23.8391220894067
30
0
41
1
10
8.53867513459481
20
-23.8391299750504
30
0
0
SPLINE
5
15B
100
AcDbEntity
8
1
62
256
6
ByLayer
370
18
48
1
60
0
100
AcDbSpline
70
4
71
3
72
12
73
8
40
0
40
0
40
0
40
0
40
0.0777065243411798
40
0.182768991260499
40
0.355509705274316
40
0.66111920618818
40
1
40
1
40
1
40
1
41
1
10
11.4613248654052
20
-23.8391299750504
30
0
41
1
10
11.4811093857486
20
-23.8390510092636
30
0
41
1
10
11.526157507522
20
-23.837417080354
30
0
41
1
10
11.609020665254
20
-23.8265956452496
30
0
41
1
10
11.7192097730177
20
-23.7967264721261
30
0
41
1
10
11.8218683998189
20
-23.7411879478122
30
0
41
1
10
11.875877712868
20
-23.6935586164053
30
0
41
1
10
11.8943375672974
20
-23.6665017920809
30
0
0
SPLINE
5
15C
100
AcDbEntity
8
SK1
62
256
6
ByLayer
370
18
48
1
60
0
100
AcDbSpline
70
4
71
3
72
17
73
13
40
0
40
0
40
0
40
0
40
0.465485506351383
40
0.669701843128612
40
0.774084356421135
40
0.856371664793533
40
0.897755153898635
40
0.917428272144475
40
0.937237772131972
40
0.955191624681787
40
0.984018190502026
40
1
40
1
40
1
40
1
41
1
10
-0.200000000000038
20
-5.88142397393346
30
0
41
1
10
-0.1960647808782
20
-5.75474600051132
30
0
41
1
10
-0.206716278472284
20
-5.57221313865745
30
0
41
1
10
-0.236369718937367
20
-5.35851195688537
30
0
41
1
10
-0.265123837646852
20
-5.2522119738577
30
0
41
1
10
-0.291115782477693
20
-5.19220348818486
30
0
41
1
10
-0.318091310485836
20
-5.15994791139139
30
0
41
1
10
-0.338430402128573
20
-5.14828626530394
30
0
41
1
10
-0.354699344248621
20
-5.14548380678132
30
0
41
1
10
-0.372899440263032
20
-5.14897430103643
30
0
41
1
10
-0.387749096358135
20
-5.15784519057131
30
0
41
1
10
-0.39691878097133
20
-5.16560053879508
30
0
41
1
10
-0.400000000000051
20
-5.16866679574503
30
0
0
SPLINE
5
15D
100
AcDbEntity
8
SK1
62
256
6
ByLayer
370
18
48
1
60
0
100
AcDbSpline
70
4
71
3
72
16
73
12
40
0
40
0
40
0
40
0
40
0.0439503849784364
40
0.0882962095956771
40
0.119823748748281
40
0.151333080321581
40
0.197785752387551
40
0.285208338526594
40
0.432294100651084
40
0.58008530169941
40
1
40
1
40
1
40
1
41
1
10
-0.40000000000004
20
-5.16866679574529
30
0
41
1
10
-0.420260552159719
20
-5.18959123991625
30
0
41
1
10
-0.465532793809269
20
-5.2245968957623
30
0
41
1
10
-0.540325064014482
20
-5.25975746385926
30
0
41
1
10
-0.61556627839364
20
-5.26603853608321
30
0
41
1
10
-0.689853412389385
20
-5.24890814810322
30
0
41
1
10
-0.785804329696922
20
-5.19137211714253
30
0
41
1
10
-0.905339112737123
20
-5.05378758708942
30
0
41
1
10
-1.02152968139801
20
-4.84183055168614
30
0
41
1
10
-1.17561394769092
20
-4.42035003265136
30
0
41
1
10
-1.26556409785408
20
-4.07230605007437
30
0
41
1
10
-1.30710678118655
20
-3.80474664113272
30
0
0
SPLINE
5
15E
100
AcDbEntity
8
SK1
62
256
6
ByLayer
370
18
48
1
60
0
100
AcDbSpline
70
4
71
3
72
16
73
12
40
0
40
0
40
0
40
0
40
0.351058812479026
40
0.5494902428823
40
0.745650751445105
40
0.831752432968096
40
0.866430020907749
40
0.901364413669998
40
0.932606866569399
40
0.9831220084694
40
1
40
1
40
1
40
1
41
1
10
-1.30710678118655
20
3.80474436172741
30
0
41
1
10
-1.26978415806151
20
4.02733440489884
30
0
41
1
10
-1.18638534235563
20
4.36574772826711
30
0
41
1
10
-1.04345715092741
20
4.81143795815714
30
0
41
1
10
-0.896883993281788
20
5.07907048283341
30
0
41
1
10
-0.744504610413007
20
5.22449701225534
30
0
41
1
10
-0.644314188243217
20
5.26265754541682
30
0
41
1
10
-0.573027760448872
20
5.26521974999095
30
0
41
1
10
-0.49556838382239
20
5.24252370697401
30
0
41
1
10
-0.440485899594335
20
5.20534570545953
30
0
41
1
10
-0.407839795734877
20
5.17633421110904
30
0
41
1
10
-0.400000000000011
20
5.16866682996364
30
0
0
SPLINE
5
15F
100
AcDbEntity
8
SK1
62
256
6
ByLayer
370
18
48
1
60
0
100
AcDbSpline
70
4
71
3
72
17
73
13
40
0
40
0
40
0
40
0
40
0.030351422025331
40
0.053615508725247
40
0.0719362364152785
40
0.0902747582477841
40
0.115197940679842
40
0.159565658929424
40
0.2981382029904
40
0.587610881223527
40
0.878287013648287
40
1
40
1
40
1
40
1
41
1
10
-0.40000000000004
20
5.16866682996297
30
0
41
1
10
-0.394167575628449
20
5.16254689062886
30
0
41
1
10
-0.38267128971226
20
5.15403748188184
30
0
41
1
10
-0.364264031241587
20
5.14642716889599
30
0
41
1
10
-0.347332913984079
20
5.14606544583305
30
0
41
1
10
-0.330541138979943
20
5.15183291494149
30
0
41
1
10
-0.310401603395069
20
5.16756125175962
30
0
41
1
10
-0.276165558567053
20
5.21722886754103
30
0
41
1
10
-0.236739282710337
20
5.34658114116619
30
0
41
1
10
-0.207575999148844
20
5.54435821740557
30
0
41
1
10
-0.201433990875352
20
5.73654934889382
30
0
41
1
10
-0.199982261339106
20
5.84846084555253
30
0
41
1
10
-0.200000000000038
20
5.88142452370542
30
0
0
SPLINE
5
160
100
AcDbEntity
8
SK1
62
256
6
ByLayer
370
18
48
1
60
0
100
AcDbSpline
70
4
71
3
72
14
73
10
40
0
40
0
40
0
40
0
40
0.106385868855732
40
0.253705813711891
40
0.401007656750247
40
0.548297602518327
40
0.695579676619922
40
0.84285651901813
40
1
40
1
40
1
40
1
41
1
10
-2.19993687480718
20
-17.5201003687863
30
0
41
1
10
-2.19994421610192
20
-17.5193673450503
30
0
41
1
10
-2.19995986090332
20
-17.4927860913816
30
0
41
1
10
-2.19997656138666
20
-17.3524594073249
30
0
41
1
10
-2.1999882010107
20
-17.0884031980282
30
0
41
1
10
-2.19999491450112
20
-16.7229200646697
30
0
41
1
10
-2.19999839687952
20
-16.2635090711791
30
0
41
1
10
-2.19999979498391
20
-15.702993954098
30
0
41
1
10
-2.20000009281284
20
-15.2662928156273
30
0
41
1
10
-2.2
20
-15.024780864565
30
0
0
SPLINE
5
161
100
AcDbEntity
8
SK1
62
256
6
ByLayer
370
18
48
1
60
0
100
AcDbSpline
70
4
71
2
72
6
73
3
40
0
40
0
40
0
40
1
40
1
40
1
41
1
10
-2.19492113517946
20
17.5202263833815
30
0
41
1
10
-2.59746056758973
20
17.5101131917171
30
0
41
1
10
-3
20
17.5000000000527
30
0
0
SPLINE
5
162
100
AcDbEntity
8
SK1
62
256
6
ByLayer
370
18
48
1
60
0
100
AcDbSpline
70
4
71
2
72
6
73
3
40
0
40
0
40
0
40
1
40
1
40
1
41
1
10
-3
20
-17.5000000000204
30
0
41
1
10
-2.60962946156203
20
-17.5098074667118
30
0
41
1
10
-2.21925892312405
20
-17.5196149334032
30
0
0
SPLINE
5
163
100
AcDbEntity
8
SK1
62
256
6
ByLayer
370
18
48
1
60
0
100
AcDbSpline
70
4
71
1
72
4
73
2
40
0
40
0
40
1
40
1
41
1
10
-2.21925892312405
20
-17.5196149334032
30
0
41
1
10
-2.19492113517946
20
-17.5202263833491
30
0
0
SPLINE
5
164
100
AcDbEntity
8
SK1
62
256
6
ByLayer
370
18
48
1
60
0
100
AcDbSpline
70
4
71
3
72
15
73
11
40
0
40
0
40
0
40
0
40
0.0482444824239489
40
0.186325294515882
40
0.324838366494798
40
0.462925346447214
40
0.601017879197507
40
0.73911849271798
40
0.877230953544085
40
1
40
1
40
1
40
1
41
1
10
-2.2
20
15.0247809138972
30
0
41
1
10
-2.20000000464518
20
15.0987890669644
30
0
41
1
10
-2.19999996083217
20
15.3789129024177
30
0
41
1
10
-2.1999996140758
20
15.829707793837
30
0
41
1
10
-2.19999801160332
20
16.3302819971791
30
0
41
1
10
-2.19999447065123
20
16.752240062316
30
0
41
1
10
-2.1999879804146
20
17.0906743060054
30
0
41
1
10
-2.19997713306249
20
17.3398329959724
30
0
41
1
10
-2.19996107278978
20
17.4876542352199
30
0
41
1
10
-2.19994531729302
20
17.5191036010008
30
0
41
1
10
-2.19993687627273
20
17.5201003696443
30
0
0
SPLINE
5
165
100
AcDbEntity
8
SK1
62
256
6
ByLayer
370
18
48
1
60
0
100
AcDbSpline
70
4
71
2
72
6
73
3
40
0
40
0
40
0
40
1
40
1
40
1
41
1
10
-3
20
17.5000000000527
30
0
41
1
10
-15.7502365839532
20
17.1796696772131
30
0
41
1
10
-28.5004731679065
20
16.8593393543735
30
0
0
SPLINE
5
166
100
AcDbEntity
8
SK1
62
256
6
ByLayer
370
18
48
1
60
0
100
AcDbSpline
70
4
71
2
72
6
73
3
40
0
40
0
40
0
40
1
40
1
40
1
41
1
10
-28.5004731679065
20
-16.8593393543424
30
0
41
1
10
-15.7502365839532
20
-17.1796696771814
30
0
41
1
10
-3
20
-17.5000000000204
30
0
0
SPLINE
5
167
100
AcDbEntity
8
SK1
62
256
6
ByLayer
370
18
48
1
60
0
100
AcDbSpline
70
4
71
1
72
4
73
2
40
0
40
0
40
1
40
1
41
1
10
-2
20
17.3251500916744
30
0
41
1
10
-2
20
17.3251282954199
30
0
0
SPLINE
5
168
100
AcDbEntity
8
SK1
62
256
6
ByLayer
370
18
48
1
60
0
100
AcDbSpline
70
4
71
3
72
13
73
9
40
0
40
0
40
0
40
0
40
0.239468143101076
40
0.368375717557467
40
0.500016413682604
40
0.631654380070979
40
0.760554427529312
40
1
40
1
40
1
40
1
41
1
10
-2
20
17.3251501409626
30
0
41
1
10
-2.02607195862894
20
17.3254032171872
30
0
41
1
10
-2.06363514911804
20
17.3325204701499
30
0
41
1
10
-2.11047805080219
20
17.3567460306058
30
0
41
1
10
-2.14242236455519
20
17.382721349279
30
0
41
1
10
-2.1684004741973
20
17.414662371353
30
0
41
1
10
-2.19262861856615
20
17.4615002450208
30
0
41
1
10
-2.19974657466873
20
17.4990601036781
30
0
41
1
10
-2.2
20
17.5251299249899
30
0
0
SPLINE
5
169
100
AcDbEntity
8
SK1
62
256
6
ByLayer
370
18
48
1
60
0
100
AcDbSpline
70
4
71
3
72
13
73
9
40
0
40
0
40
0
40
0
40
0.239445575724636
40
0.368345624848073
40
0.499983592440204
40
0.631624288955064
40
0.760531862675224
40
1
40
1
40
1
40
1
41
1
10
-2.2
20
-17.5251299251292
30
0
41
1
10
-2.19974657467479
20
-17.4990601038703
30
0
41
1
10
-2.19262861856452
20
-17.4615002452731
30
0
41
1
10
-2.16840047423857
20
-17.4146623717452
30
0
41
1
10
-2.14242236464553
20
-17.38272134974
30
0
41
1
10
-2.11047805094366
20
-17.3567460311214
30
0
41
1
10
-2.06363514965123
20
-17.3325204707743
30
0
41
1
10
-2.02607195888454
20
-17.3254032177991
30
0
41
1
10
-2
20
-17.3251501414068
30
0
0
SPLINE
5
16A
100
AcDbEntity
8
SK1
62
256
6
ByLayer
370
18
48
1
60
0
100
AcDbSpline
70
4
71
3
72
16
73
12
40
0
40
0
40
0
40
0
40
0.101870722793165
40
0.203718363389488
40
0.308089951926134
40
0.41241525276698
40
0.52916162839408
40
0.64639156167225
40
0.763296187326094
40
0.881625644108369
40
1
40
1
40
1
40
1
41
1
10
-1.30710678118655
20
3.80474436172741
30
0
41
1
10
-1.35281755127321
20
3.56030061780931
30
0
41
1
10
-1.43825474283597
20
3.06526047616153
30
0
41
1
10
-1.55260961619649
20
2.29746051127423
30
0
41
1
10
-1.64288396017671
20
1.5051199607552
30
0
41
1
10
-1.70375008696193
20
0.658796178987245
30
0
41
1
10
-1.71477648367589
20
-0.231403505662118
30
0
41
1
10
-1.67300909917653
20
-1.15039276708553
30
0
41
1
10
-1.5850927092093
20
-2.05785190512705
30
0
41
1
10
-1.45861282398588
20
-2.94424663120603
30
0
41
1
10
-1.36053835676226
20
-3.52065829215743
30
0
41
1
10
-1.30710678118664
20
-3.80474664113296
30
0
0
SPLINE
5
16B
100
AcDbEntity
8
SK1
62
256
6
ByLayer
370
18
48
1
60
0
100
AcDbSpline
70
4
71
2
72
6
73
3
40
0
40
0
40
0
40
1
40
1
40
1
41
1
10
-0.400000000000017
20
17.3251501409626
30
0
41
1
10
-1.20000000000001
20
17.3251501409626
30
0
41
1
10
-2
20
17.3251501409626
30
0
0
SPLINE
5
16C
100
AcDbEntity
8
SK1
62
256
6
ByLayer
370
18
48
1
60
0
100
AcDbSpline
70
4
71
2
72
6
73
3
40
0
40
0
40
0
40
1
40
1
40
1
41
1
10
-2
20
-17.3251501414068
30
0
41
1
10
-1.20000000000001
20
-17.3251501414068
30
0
41
1
10
-0.400000000000017
20
-17.3251501414068
30
0
0
SPLINE
5
16D
100
AcDbEntity
8
SK1
62
256
6
ByLayer
370
18
48
1
60
0
100
AcDbSpline
70
4
71
2
72
6
73
3
40
0
40
0
40
0
40
1
40
1
40
1
41
1
10
-28.5003904504266
20
16.8597456617469
30
0
41
1
10
-29.2501952787077
20
16.4010253845871
30
0
41
1
10
-30
20
15.9423013487186
30
0
0
SPLINE
5
16E
100
AcDbEntity
8
SK1
62
256
6
ByLayer
370
18
48
1
60
0
100
AcDbSpline
70
4
71
2
72
6
73
3
40
0
40
0
40
0
40
1
40
1
40
1
41
1
10
-30
20
-15.9408160639395
30
0
41
1
10
-29.250201613525
20
-16.3993636736336
30
0
41
1
10
-28.5004032853135
20
-16.8579102610953
30
0
0
SPLINE
5
16F
100
AcDbEntity
8
SK1
62
256
6
ByLayer
370
18
48
1
60
0
100
AcDbSpline
70
4
71
3
72
11
73
7
40
0
40
0
40
0
40
0
40
0.245755007744109
40
0.501794198211038
40
0.756953870258406
40
1
40
1
40
1
40
1
41
1
10
-0.200000000000015
20
17.5191731511753
30
0
41
1
10
-0.199994647676402
20
17.493844966999
30
0
41
1
10
-0.209350242264538
20
17.4456228534321
30
0
41
1
10
-0.254178184246646
20
17.3766360753192
30
0
41
1
10
-0.324420736760804
20
17.33275982811
30
0
41
1
10
-0.373991067023655
20
17.3239685556465
30
0
41
1
10
-0.400000000000017
20
17.3241476526065
30
0
0
SPLINE
5
170
100
AcDbEntity
8
SK1
62
256
6
ByLayer
370
18
48
1
60
0
100
AcDbSpline
70
4
71
3
72
11
73
7
40
0
40
0
40
0
40
0
40
0.243046950854861
40
0.498204668192408
40
0.754242469704643
40
1
40
1
40
1
40
1
41
1
10
-0.400000000000017
20
-17.3241468641747
30
0
41
1
10
-0.373991174653844
20
-17.3239674893689
30
0
41
1
10
-0.324421202647711
20
-17.332758304075
30
0
41
1
10
-0.254178044541194
20
-17.376633929413
30
0
41
1
10
-0.20935004437607
20
-17.4456203921355
30
0
41
1
10
-0.199994500672228
20
-17.4938412312525
30
0
41
1
10
-0.200000000000015
20
-17.5191688355708
30
0
0
INSERT
5
1A7
100
AcDbEntity
8
SK2
62
256
6
ByLayer
370
25
48
1
60
0
100
AcDbBlockReference
2
DimnDraft3D55
10
0
20
0
30
0
41
1
42
1
43
1
50
0
210
0
220
0
230
1
0
LINE
5
70
100
AcDbEntity
8
81
62
256
6
ByLayer
370
18
48
1
60
0
100
AcDbLine
10
288
20
0
30
0
11
316.8
21
0
31
0
39
0
210
0
220
0
230
1
0
LINE
5
71
100
AcDbEntity
8
4
62
256
6
ByLayer
370
18
48
0.05
60
0
100
AcDbLine
10
0
20
0
30
0
11
288
21
0
31
0
39
0
210
0
220
0
230
1
0
LINE
5
73
100
AcDbEntity
8
SK4
62
256
6
ByLayer
370
18
48
0.05
60
0
100
AcDbLine
10
-35
20
0
30
0
11
300
21
0
31
0
39
0
210
0
220
0
230
1
0
LINE
5
75
100
AcDbEntity
8
80
62
256
6
ByLayer
370
18
48
1
60
0
100
AcDbLine
10
0
20
0
30
0
11
-28.8
21
0
31
0
39
0
210
0
220
0
230
1
0
LINE
5
76
100
AcDbEntity
8
SK1
62
256
6
ByLayer
370
18
48
1
60
0
100
AcDbLine
10
296
20
-3.528175
30
0
11
291
21
-3.528175
31
0
39
0
210
0
220
0
230
1
0
LINE
5
78
100
AcDbEntity
8
SK1
62
256
6
ByLayer
370
18
48
1
60
0
100
AcDbLine
10
291
20
-12.028175
30
0
11
296
21
-12.028175
31
0
39
0
210
0
220
0
230
1
0
LINE
5
79
100
AcDbEntity
8
SK1
62
256
6
ByLayer
370
18
48
1
60
0
100
AcDbLine
10
291
20
-5.278175
30
0
11
288.325
21
-5.278175
31
0
39
0
210
0
220
0
230
1
0
LINE
5
7A
100
AcDbEntity
8
SK1
62
256
6
ByLayer
370
18
48
1
60
0
100
AcDbLine
10
288.325
20
-10.278175
30
0
11
291
21
-10.278175
31
0
39
0
210
0
220
0
230
1
0
LINE
5
7B
100
AcDbEntity
8
1
62
256
6
ByLayer
370
18
48
1
60
0
100
AcDbLine
10
287.325
20
-16
30
0
11
287.556675
21
-15.768325
31
0
39
0
210
0
220
0
230
1
0
LINE
5
7D
100
AcDbEntity
8
1
62
256
6
ByLayer
370
18
48
1
60
0
100
AcDbLine
10
287.556675
20
15.768325
30
0
11
287.325
21
16
31
0
39
0
210
0
220
0
230
1
0
LINE
5
7E
100
AcDbEntity
8
1
62
256
6
ByLayer
370
18
48
1
60
0
100
AcDbLine
10
287.325
20
16
30
0
11
286.3
21
16
31
0
39
0
210
0
220
0
230
1
0
LINE
5
7F
100
AcDbEntity
8
1
62
256
6
ByLayer
370
18
48
1
60
0
100
AcDbLine
10
286.3
20
-16
30
0
11
287.325
21
-16
31
0
39
0
210
0
220
0
230
1
0
LINE
5
80
100
AcDbEntity
8
1
62
256
6
ByLayer
370
18
48
1
60
0
100
AcDbLine
10
287.65725
20
5.07544
30
0
11
287.65725
21
3.890239
31
0
39
0
210
0
220
0
230
1
0
LINE
5
81
100
AcDbEntity
8
1
62
256
6
ByLayer
370
18
48
1
60
0
100
AcDbLine
10
287.65725
20
-3.890239
30
0
11
287.65725
21
-5.07544
31
0
39
0
210
0
220
0
230
1
0
LINE
5
82
100
AcDbEntity
8
1
62
256
6
ByLayer
370
18
48
1
60
0
100
AcDbLine
10
288.325
20
4.069679
30
0
11
288.325
21
-4.069679
31
0
39
0
210
0
220
0
230
1
0
LINE
5
83
100
AcDbEntity
8
1
62
256
6
ByLayer
370
18
48
1
60
0
100
AcDbLine
10
287.65725
20
8.244925
30
0
11
287.65725
21
7.642988
31
0
39
0
210
0
220
0
230
1
0
LINE
5
84
100
AcDbEntity
8
1
62
256
6
ByLayer
370
18
48
1
60
0
100
AcDbLine
10
287.65725
20
-7.642988
30
0
11
287.65725
21
-8.244925
31
0
39
0
210
0
220
0
230
1
0
LINE
5
85
100
AcDbEntity
8
1
62
256
6
ByLayer
370
18
48
1
60
0
100
AcDbLine
10
288.325
20
7.591074
30
0
11
288.325
21
5.219435
31
0
39
0
210
0
220
0
230
1
0
LINE
5
86
100
AcDbEntity
8
1
62
256
6
ByLayer
370
18
48
1
60
0
100
AcDbLine
10
288.325
20
-5.219435
30
0
11
288.325
21
-7.591074
31
0
39
0
210
0
220
0
230
1
0
LINE
5
87
100
AcDbEntity
8
1
62
256
6
ByLayer
370
18
48
1
60
0
100
AcDbLine
10
287.65725
20
10.280928
30
0
11
287.65725
21
9.858832
31
0
39
0
210
0
220
0
230
1
0
LINE
5
88
100
AcDbEntity
8
1
62
256
6
ByLayer
370
18
48
1
60
0
100
AcDbLine
10
287.65725
20
-9.858832
30
0
11
287.65725
21
-10.280928
31
0
39
0
210
0
220
0
230
1
0
LINE
5
89
100
AcDbEntity
8
1
62
256
6
ByLayer
370
18
48
1
60
0
100
AcDbLine
10
288.325
20
9.704974
30
0
11
288.325
21
8.196364
31
0
39
0
210
0
220
0
230
1
0
LINE
5
8A
100
AcDbEntity
8
1
62
256
6
ByLayer
370
18
48
1
60
0
100
AcDbLine
10
288.325
20
-8.196364
30
0
11
288.325
21
-9.704974
31
0
39
0
210
0
220
0
230
1
0
LINE
5
8B
100
AcDbEntity
8
1
62
256
6
ByLayer
370
18
48
1
60
0
100
AcDbLine
10
287.65725
20
11.78627
30
0
11
287.65725
21
11.46638
31
0
39
0
210
0
220
0
230
1
0
LINE
5
8C
100
AcDbEntity
8
1
62
256
6
ByLayer
370
18
48
1
60
0
100
AcDbLine
10
287.65725
20
-11.46638
30
0
11
287.65725
21
-11.78627
31
0
39
0
210
0
220
0
230
1
0
LINE
5
8D
100
AcDbEntity
8
1
62
256
6
ByLayer
370
18
48
1
60
0
100
AcDbLine
10
288.325
20
-10.130067
30
0
11
288.325
21
-11.236042
31
0
39
0
210
0
220
0
230
1
0
LINE
5
8E
100
AcDbEntity
8
1
62
256
6
ByLayer
370
18
48
1
60
0
100
AcDbLine
10
288.325
20
11.236042
30
0
11
288.325
21
10.130067
31
0
39
0
210
0
220
0
230
1
0
LINE
5
8F
100
AcDbEntity
8
1
62
256
6
ByLayer
370
18
48
1
60
0
100
AcDbLine
10
287.65725
20
12.947388
30
0
11
287.65725
21
12.698787
31
0
39
0
210
0
220
0
230
1
0
LINE
5
90
100
AcDbEntity
8
1
62
256
6
ByLayer
370
18
48
1
60
0
100
AcDbLine
10
287.65725
20
-12.698787
30
0
11
287.65725
21
-12.947388
31
0
39
0
210
0
220
0
230
1
0
LINE
5
91
100
AcDbEntity
8
1
62
256
6
ByLayer
370
18
48
1
60
0
100
AcDbLine
10
288.325
20
12.402046
30
0
11
288.325
21
11.55665
31
0
39
0
210
0
220
0
230
1
0
LINE
5
92
100
AcDbEntity
8
1
62
256
6
ByLayer
370
18
48
1
60
0
100
AcDbLine
10
288.325
20
-11.55665
30
0
11
288.325
21
-12.402046
31
0
39
0
210
0
220
0
230
1
0
LINE
5
93
100
AcDbEntity
8
1
62
256
6
ByLayer
370
18
48
1
60
0
100
AcDbLine
10
287.65725
20
13.851121
30
0
11
287.65725
21
13.657983
31
0
39
0
210
0
220
0
230
1
0
LINE
5
94
100
AcDbEntity
8
1
62
256
6
ByLayer
370
18
48
1
60
0
100
AcDbLine
10
287.65725
20
-13.657983
30
0
11
287.65725
21
-13.851121
31
0
39
0
210
0
220
0
230
1
0
LINE
5
95
100
AcDbEntity
8
1
62
256
6
ByLayer
370
18
48
1
60
0
100
AcDbLine
10
288.325
20
-12.648875
30
0
11
288.325
21
-13.299356
31
0
39
0
210
0
220
0
230
1
0
LINE
5
96
100
AcDbEntity
8
1
62
256
6
ByLayer
370
18
48
1
60
0
100
AcDbLine
10
288.325
20
13.299356
30
0
11
288.325
21
12.648875
31
0
39
0
210
0
220
0
230
1
0
LINE
5
97
100
AcDbEntity
8
1
62
256
6
ByLayer
370
18
48
1
60
0
100
AcDbLine
10
287.65725
20
-14.398673
30
0
11
287.65725
21
-14.545523
31
0
39
0
210
0
220
0
230
1
0
LINE
5
98
100
AcDbEntity
8
1
62
256
6
ByLayer
370
18
48
1
60
0
100
AcDbLine
10
287.65725
20
14.545523
30
0
11
287.65725
21
14.398673
31
0
39
0
210
0
220
0
230
1
0
LINE
5
99
100
AcDbEntity
8
1
62
256
6
ByLayer
370
18
48
1
60
0
100
AcDbLine
10
288.325
20
-13.488214
30
0
11
288.325
21
-13.979806
31
0
39
0
210
0
220
0
230
1
0
LINE
5
9A
100
AcDbEntity
8
1
62
256
6
ByLayer
370
18
48
1
60
0
100
AcDbLine
10
288.325
20
13.979806
30
0
11
288.325
21
13.488214
31
0
39
0
210
0
220
0
230
1
0
LINE
5
9B
100
AcDbEntity
8
1
62
256
6
ByLayer
370
18
48
1
60
0
100
AcDbLine
10
287.65725
20
15.05958
30
0
11
287.65725
21
14.953364
31
0
39
0
210
0
220
0
230
1
0
LINE
5
9C
100
AcDbEntity
8
1
62
256
6
ByLayer
370
18
48
1
60
0
100
AcDbLine
10
287.65725
20
-14.953364
30
0
11
287.65725
21
-15.05958
31
0
39
0
210
0
220
0
230
1
0
LINE
5
9D
100
AcDbEntity
8
1
62
256
6
ByLayer
370
18
48
1
60
0
100
AcDbLine
10
288.325
20
-14.119837
30
0
11
288.325
21
-14.474015
31
0
39
0
210
0
220
0
230
1
0
LINE
5
9E
100
AcDbEntity
8
1
62
256
6
ByLayer
370
18
48
1
60
0
100
AcDbLine
10
288.325
20
14.474015
30
0
11
288.325
21
14.119837
31
0
39
0
210
0
220
0
230
1
0
LINE
5
9F
100
AcDbEntity
8
1
62
256
6
ByLayer
370
18
48
1
60
0
100
AcDbLine
10
287.65725
20
-15.342243
30
0
11
287.65725
21
-15.411348
31
0
39
0
210
0
220
0
230
1
0
LINE
5
A0
100
AcDbEntity
8
1
62
256
6
ByLayer
370
18
48
1
60
0
100
AcDbLine
10
287.65725
20
15.411348
30
0
11
287.65725
21
15.342243
31
0
39
0
210
0
220
0
230
1
0
LINE
5
A1
100
AcDbEntity
8
1
62
256
6
ByLayer
370
18
48
1
60
0
100
AcDbLine
10
288.325
20
14.800649
30
0
11
288.325
21
14.570782
31
0
39
0
210
0
220
0
230
1
0
LINE
5
A2
100
AcDbEntity
8
1
62
256
6
ByLayer
370
18
48
1
60
0
100
AcDbLine
10
288.325
20
-14.570782
30
0
11
288.325
21
-14.800649
31
0
39
0
210
0
220
0
230
1
0
LINE
5
A3
100
AcDbEntity
8
1
62
256
6
ByLayer
370
18
48
1
60
0
100
AcDbLine
10
287.65725
20
-15.577731
30
0
11
287.65725
21
-15.611801
31
0
39
0
210
0
220
0
230
1
0
LINE
5
A4
100
AcDbEntity
8
1
62
256
6
ByLayer
370
18
48
1
60
0
100
AcDbLine
10
287.65725
20
15.611801
30
0
11
287.65725
21
15.577731
31
0
39
0
210
0
220
0
230
1
0
LINE
5
A5
100
AcDbEntity
8
1
62
256
6
ByLayer
370
18
48
1
60
0
100
AcDbLine
10
288.325
20
14.970682
30
0
11
288.325
21
14.857509
31
0
39
0
210
0
220
0
230
1
0
LINE
5
A6
100
AcDbEntity
8
1
62
256
6
ByLayer
370
18
48
1
60
0
100
AcDbLine
10
288.325
20
-14.857509
30
0
11
288.325
21
-14.970682
31
0
39
0
210
0
220
0
230
1
0
LINE
5
A7
100
AcDbEntity
8
SK1
62
256
6
ByLayer
370
18
48
1
60
0
100
AcDbLine
10
296
20
12.028175
30
0
11
291
21
12.028175
31
0
39
0
210
0
220
0
230
1
0
LINE
5
A8
100
AcDbEntity
8
SK1
62
256
6
ByLayer
370
18
48
1
60
0
100
AcDbLine
10
291
20
3.528175
30
0
11
296
21
3.528175
31
0
39
0
210
0
220
0
230
1
0
LINE
5
A9
100
AcDbEntity
8
SK1
62
256
6
ByLayer
370
18
48
1
60
0
100
AcDbLine
10
291
20
10.278175
30
0
11
288.325
21
10.278175
31
0
39
0
210
0
220
0
230
1
0
LINE
5
AA
100
AcDbEntity
8
SK1
62
256
6
ByLayer
370
18
48
1
60
0
100
AcDbLine
10
288.325
20
5.278175
30
0
11
291
21
5.278175
31
0
39
0
210
0
220
0
230
1
0
LINE
5
AB
100
AcDbEntity
8
1
62
256
6
ByLayer
370
18
48
1
60
0
100
AcDbLine
10
20
20
-25
30
0
11
20.822752
21
-21.929448
31
0
39
0
210
0
220
0
230
1
0
LINE
5
AC
100
AcDbEntity
8
1
62
256
6
ByLayer
370
18
48
1
60
0
100
AcDbLine
10
20.822752
20
21.929448
30
0
11
20
21
25
31
0
39
0
210
0
220
0
230
1
0
LINE
5
AD
100
AcDbEntity
8
1
62
256
6
ByLayer
370
18
48
1
60
0
100
AcDbLine
10
0.3
20
25
30
0
11
0
21
24.7
31
0
39
0
210
0
220
0
230
1
0
LINE
5
AE
100
AcDbEntity
8
1
62
256
6
ByLayer
370
18
48
1
60
0
100
AcDbLine
10
0
20
-24.7
30
0
11
0.3
21
-25
31
0
39
0
210
0
220
0
230
1
0
LINE
5
AF
100
AcDbEntity
8
1
62
256
6
ByLayer
370
18
48
1
60
0
100
AcDbLine
10
20
20
25
30
0
11
0.3
21
25
31
0
39
0
210
0
220
0
230
1
0
LINE
5
B0
100
AcDbEntity
8
1
62
256
6
ByLayer
370
18
48
1
60
0
100
AcDbLine
10
0.3
20
-25
30
0
11
20
21
-25
31
0
39
0
210
0
220
0
230
1
0
LINE
5
B1
100
AcDbEntity
8
1
62
256
6
ByLayer
370
18
48
1
60
0
100
AcDbLine
10
8.538675
20
23.83913
30
0
11
11.461325
21
23.83913
31
0
39
0
210
0
220
0
230
1
0
LINE
5
B2
100
AcDbEntity
8
1
62
256
6
ByLayer
370
18
48
1
60
0
100
AcDbLine
10
11.461325
20
7.529667
30
0
11
8.538675
21
7.529667
31
0
39
0
210
0
220
0
230
1
0
LINE
5
B3
100
AcDbEntity
8
1
62
256
6
ByLayer
370
18
48
1
60
0
100
AcDbLine
10
8.538675
20
-7.529667
30
0
11
11.461325
21
-7.529667
31
0
39
0
210
0
220
0
230
1
0
LINE
5
B4
100
AcDbEntity
8
1
62
256
6
ByLayer
370
18
48
1
60
0
100
AcDbLine
10
11.461325
20
-23.83913
30
0
11
8.538675
21
-23.83913
31
0
39
0
210
0
220
0
230
1
0
LINE
5
B5
100
AcDbEntity
8
1
62
256
6
ByLayer
370
18
48
1
60
0
100
AcDbLine
10
8.105662
20
8.055848
30
0
11
8.105662
21
23.666502
31
0
39
0
210
0
220
0
230
1
0
LINE
5
B6
100
AcDbEntity
8
1
62
256
6
ByLayer
370
18
48
1
60
0
100
AcDbLine
10
8.538675
20
7.529667
30
0
11
8.538675
21
23.83913
31
0
39
0
210
0
220
0
230
1
0
LINE
5
B7
100
AcDbEntity
8
1
62
256
6
ByLayer
370
18
48
1
60
0
100
AcDbLine
10
11.461325
20
-23.83913
30
0
11
11.461325
21
-7.529667
31
0
39
0
210
0
220
0
230
1
0
LINE
5
B8
100
AcDbEntity
8
1
62
256
6
ByLayer
370
18
48
1
60
0
100
AcDbLine
10
11.894338
20
-23.666502
30
0
11
11.894338
21
-8.055848
31
0
39
0
210
0
220
0
230
1
0
LINE
5
B9
100
AcDbEntity
8
1
62
256
6
ByLayer
370
18
48
1
60
0
100
AcDbLine
10
11.461325
20
7.529667
30
0
11
11.461325
21
23.83913
31
0
39
0
210
0
220
0
230
1
0
LINE
5
BA
100
AcDbEntity
8
1
62
256
6
ByLayer
370
18
48
1
60
0
100
AcDbLine
10
11.894338
20
8.055848
30
0
11
11.894338
21
23.666502
31
0
39
0
210
0
220
0
230
1
0
LINE
5
BB
100
AcDbEntity
8
1
62
256
6
ByLayer
370
18
48
1
60
0
100
AcDbLine
10
8.105662
20
-23.666502
30
0
11
8.105662
21
-8.055848
31
0
39
0
210
0
220
0
230
1
0
LINE
5
BC
100
AcDbEntity
8
1
62
256
6
ByLayer
370
18
48
1
60
0
100
AcDbLine
10
8.538675
20
-23.83913
30
0
11
8.538675
21
-7.529667
31
0
39
0
210
0
220
0
230
1
0
LINE
5
BD
100
AcDbEntity
8
1
62
256
6
ByLayer
370
18
48
1
60
0
100
AcDbLine
10
285.7
20
16
30
0
11
28.550159
21
16
31
0
39
0
210
0
220
0
230
1
0
LINE
5
BE
100
AcDbEntity
8
1
62
256
6
ByLayer
370
18
48
1
60
0
100
AcDbLine
10
28.550159
20
-16
30
0
11
285.7
21
-16
31
0
39
0
210
0
220
0
230
1
0
LINE
5
BF
100
AcDbEntity
8
SK1
62
256
6
ByLayer
370
18
48
1
60
0
100
AcDbLine
10
296
20
-3.528175
30
0
11
296
21
-7.778175
31
0
39
0
210
0
220
0
230
1
0
LINE
5
C0
100
AcDbEntity
8
SK1
62
256
6
ByLayer
370
18
48
1
60
0
100
AcDbLine
10
291
20
-3.528175
30
0
11
291
21
-7.778175
31
0
39
0
210
0
220
0
230
1
0
LINE
5
C1
100
AcDbEntity
8
SK1
62
256
6
ByLayer
370
18
48
1
60
0
100
AcDbLine
10
291
20
-7.778175
30
0
11
291
21
-12.028175
31
0
39
0
210
0
220
0
230
1
0
LINE
5
C2
100
AcDbEntity
8
SK1
62
256
6
ByLayer
370
18
48
1
60
0
100
AcDbLine
10
296
20
-7.778175
30
0
11
296
21
-12.028175
31
0
39
0
210
0
220
0
230
1
0
LINE
5
C3
100
AcDbEntity
8
1
62
256
6
ByLayer
370
18
48
1
60
0
100
AcDbLine
10
287.325
20
16
30
0
11
287.325
21
-16
31
0
39
0
210
0
220
0
230
1
0
LINE
5
C4
100
AcDbEntity
8
1
62
256
6
ByLayer
370
18
48
1
60
0
100
AcDbLine
10
288.325
20
14.989445
30
0
11
288.325
21
14.970682
31
0
39
0
210
0
220
0
230
1
0
LINE
5
C5
100
AcDbEntity
8
1
62
256
6
ByLayer
370
18
48
1
60
0
100
AcDbLine
10
288.325
20
14.857509
30
0
11
288.325
21
14.800649
31
0
39
0
210
0
220
0
230
1
0
LINE
5
C6
100
AcDbEntity
8
1
62
256
6
ByLayer
370
18
48
1
60
0
100
AcDbLine
10
288.325
20
14.570782
30
0
11
288.325
21
14.474015
31
0
39
0
210
0
220
0
230
1
0
LINE
5
C7
100
AcDbEntity
8
1
62
256
6
ByLayer
370
18
48
1
60
0
100
AcDbLine
10
288.325
20
14.119837
30
0
11
288.325
21
13.979806
31
0
39
0
210
0
220
0
230
1
0
LINE
5
C8
100
AcDbEntity
8
1
62
256
6
ByLayer
370
18
48
1
60
0
100
AcDbLine
10
288.325
20
13.488214
30
0
11
288.325
21
13.299356
31
0
39
0
210
0
220
0
230
1
0
LINE
5
C9
100
AcDbEntity
8
1
62
256
6
ByLayer
370
18
48
1
60
0
100
AcDbLine
10
288.325
20
12.648875
30
0
11
288.325
21
12.402046
31
0
39
0
210
0
220
0
230
1
0
LINE
5
CA
100
AcDbEntity
8
1
62
256
6
ByLayer
370
18
48
1
60
0
100
AcDbLine
10
288.325
20
11.55665
30
0
11
288.325
21
11.236042
31
0
39
0
210
0
220
0
230
1
0
LINE
5
CB
100
AcDbEntity
8
1
62
256
6
ByLayer
370
18
48
1
60
0
100
AcDbLine
10
288.325
20
10.130067
30
0
11
288.325
21
9.704974
31
0
39
0
210
0
220
0
230
1
0
LINE
5
CC
100
AcDbEntity
8
1
62
256
6
ByLayer
370
18
48
1
60
0
100
AcDbLine
10
288.325
20
8.196364
30
0
11
288.325
21
7.591074
31
0
39
0
210
0
220
0
230
1
0
LINE
5
CD
100
AcDbEntity
8
1
62
256
6
ByLayer
370
18
48
1
60
0
100
AcDbLine
10
288.325
20
5.219435
30
0
11
288.325
21
4.069679
31
0
39
0
210
0
220
0
230
1
0
LINE
5
CE
100
AcDbEntity
8
1
62
256
6
ByLayer
370
18
48
1
60
0
100
AcDbLine
10
288.325
20
-4.069679
30
0
11
288.325
21
-5.219435
31
0
39
0
210
0
220
0
230
1
0
LINE
5
CF
100
AcDbEntity
8
1
62
256
6
ByLayer
370
18
48
1
60
0
100
AcDbLine
10
288.325
20
-7.591074
30
0
11
288.325
21
-8.196364
31
0
39
0
210
0
220
0
230
1
0
LINE
5
D0
100
AcDbEntity
8
1
62
256
6
ByLayer
370
18
48
1
60
0
100
AcDbLine
10
288.325
20
-9.704974
30
0
11
288.325
21
-10.130067
31
0
39
0
210
0
220
0
230
1
0
LINE
5
D1
100
AcDbEntity
8
1
62
256
6
ByLayer
370
18
48
1
60
0
100
AcDbLine
10
288.325
20
-11.236042
30
0
11
288.325
21
-11.55665
31
0
39
0
210
0
220
0
230
1
0
LINE
5
D2
100
AcDbEntity
8
1
62
256
6
ByLayer
370
18
48
1
60
0
100
AcDbLine
10
288.325
20
-12.402046
30
0
11
288.325
21
-12.648875
31
0
39
0
210
0
220
0
230
1
0
LINE
5
D3
100
AcDbEntity
8
1
62
256
6
ByLayer
370
18
48
1
60
0
100
AcDbLine
10
288.325
20
-13.299356
30
0
11
288.325
21
-13.488214
31
0
39
0
210
0
220
0
230
1
0
LINE
5
D4
100
AcDbEntity
8
1
62
256
6
ByLayer
370
18
48
1
60
0
100
AcDbLine
10
288.325
20
-13.979806
30
0
11
288.325
21
-14.119837
31
0
39
0
210
0
220
0
230
1
0
LINE
5
D5
100
AcDbEntity
8
1
62
256
6
ByLayer
370
18
48
1
60
0
100
AcDbLine
10
288.325
20
-14.474015
30
0
11
288.325
21
-14.570782
31
0
39
0
210
0
220
0
230
1
0
LINE
5
D6
100
AcDbEntity
8
1
62
256
6
ByLayer
370
18
48
1
60
0
100
AcDbLine
10
288.325
20
-14.800649
30
0
11
288.325
21
-14.857509
31
0
39
0
210
0
220
0
230
1
0
LINE
5
D7
100
AcDbEntity
8
1
62
256
6
ByLayer
370
18
48
1
60
0
100
AcDbLine
10
288.325
20
-14.970682
30
0
11
288.325
21
-14.989445
31
0
39
0
210
0
220
0
230
1
0
LINE
5
D8
100
AcDbEntity
8
1
62
256
6
ByLayer
370
18
48
1
60
0
100
AcDbLine
10
286.3
20
16
30
0
11
286.3
21
0
31
0
39
0
210
0
220
0
230
1
0
LINE
5
D9
100
AcDbEntity
8
1
62
256
6
ByLayer
370
18
48
1
60
0
100
AcDbLine
10
286
20
-15.7
30
0
11
286
21
0
31
0
39
0
210
0
220
0
230
1
0
LINE
5
DA
100
AcDbEntity
8
1
62
256
6
ByLayer
370
18
48
1
60
0
100
AcDbLine
10
286.3
20
0
30
0
11
286.3
21
-16
31
0
39
0
210
0
220
0
230
1
0
LINE
5
DB
100
AcDbEntity
8
1
62
256
6
ByLayer
370
18
48
1
60
0
100
AcDbLine
10
286
20
0
30
0
11
286
21
15.7
31
0
39
0
210
0
220
0
230
1
0
LINE
5
DC
100
AcDbEntity
8
SK1
62
256
6
ByLayer
370
18
48
1
60
0
100
AcDbLine
10
296
20
12.028175
30
0
11
296
21
7.778175
31
0
39
0
210
0
220
0
230
1
0
LINE
5
DD
100
AcDbEntity
8
SK1
62
256
6
ByLayer
370
18
48
1
60
0
100
AcDbLine
10
291
20
12.028175
30
0
11
291
21
7.778175
31
0
39
0
210
0
220
0
230
1
0
LINE
5
DE
100
AcDbEntity
8
SK1
62
256
6
ByLayer
370
18
48
1
60
0
100
AcDbLine
10
291
20
7.778175
30
0
11
291
21
3.528175
31
0
39
0
210
0
220
0
230
1
0
LINE
5
DF
100
AcDbEntity
8
SK1
62
256
6
ByLayer
370
18
48
1
60
0
100
AcDbLine
10
296
20
7.778175
30
0
11
296
21
3.528175
31
0
39
0
210
0
220
0
230
1
0
LINE
5
E0
100
AcDbEntity
8
1
62
256
6
ByLayer
370
18
48
1
60
0
100
AcDbLine
10
20.822752
20
21.929448
30
0
11
20.822752
21
-21.929448
31
0
39
0
210
0
220
0
230
1
0
LINE
5
E1
100
AcDbEntity
8
1
62
256
6
ByLayer
370
18
48
1
60
0
100
AcDbLine
10
20
20
25
30
0
11
20
21
-25
31
0
39
0
210
0
220
0
230
1
0
LINE
5
E2
100
AcDbEntity
8
1
62
256
6
ByLayer
370
18
48
1
60
0
100
AcDbLine
10
0.3
20
25
30
0
11
0.3
21
-25
31
0
39
0
210
0
220
0
230
1
0
LINE
5
E3
100
AcDbEntity
8
1
62
256
6
ByLayer
370
18
48
1
60
0
100
AcDbLine
10
0
20
-24.7
30
0
11
0
21
24.7
31
0
39
0
210
0
220
0
230
1
0
LINE
5
E4
100
AcDbEntity
8
1
62
256
6
ByLayer
370
18
48
1
60
0
100
AcDbLine
10
28.550159
20
16
30
0
11
28.550159
21
-16
31
0
39
0
210
0
220
0
230
1
0
LINE
5
E5
100
AcDbEntity
8
SK1
62
256
6
ByLayer
370
18
48
1
60
0
100
AcDbLine
10
-0.2
20
17.833485
30
0
11
-0.2
21
5.881425
31
0
39
0
210
0
220
0
230
1
0
LINE
5
E6
100
AcDbEntity
8
SK1
62
256
6
ByLayer
370
18
48
1
60
0
100
AcDbLine
10
-1.307107
20
3.804744
30
0
11
-1.307107
21
-3.804747
31
0
39
0
210
0
220
0
230
1
0
LINE
5
E7
100
AcDbEntity
8
SK1
62
256
6
ByLayer
370
18
48
1
60
0
100
AcDbLine
10
-0.2
20
-5.881424
30
0
11
-0.2
21
-17.833485
31
0
39
0
210
0
220
0
230
1
0
LINE
5
E8
100
AcDbEntity
8
1
62
256
6
ByLayer
370
18
48
1
60
0
100
AcDbLine
10
285.7
20
-16
30
0
11
285.7
21
16
31
0
39
0
210
0
220
0
230
1
0
LINE
5
E9
100
AcDbEntity
8
1
62
256
6
ByLayer
370
18
48
1
60
0
100
AcDbLine
10
286
20
15.7
30
0
11
286
21
0
31
0
39
0
210
0
220
0
230
1
0
LINE
5
EA
100
AcDbEntity
8
1
62
256
6
ByLayer
370
18
48
1
60
0
100
AcDbLine
10
286
20
0
30
0
11
286
21
-15.7
31
0
39
0
210
0
220
0
230
1
0
LINE
5
EB
100
AcDbEntity
8
SK1
62
256
6
ByLayer
370
18
48
1
60
0
100
AcDbLine
10
-3
20
-17.5
30
0
11
-3
21
17.5
31
0
39
0
210
0
220
0
230
1
0
LINE
5
EC
100
AcDbEntity
8
SK1
62
256
6
ByLayer
370
18
48
1
60
0
100
AcDbLine
10
-2.2
20
10.241692
30
0
11
-2.2
21
15.024781
31
0
39
0
210
0
220
0
230
1
0
LINE
5
ED
100
AcDbEntity
8
SK1
62
256
6
ByLayer
370
18
48
1
60
0
100
AcDbLine
10
-2.2
20
-10.241692
30
0
11
-2.2
21
10.241692
31
0
39
0
210
0
220
0
230
1
0
LINE
5
EE
100
AcDbEntity
8
SK1
62
256
6
ByLayer
370
18
48
1
60
0
100
AcDbLine
10
-2.2
20
-15.024781
30
0
11
-2.2
21
-10.241692
31
0
39
0
210
0
220
0
230
1
0
LINE
5
EF
100
AcDbEntity
8
SK1
62
256
6
ByLayer
370
18
48
1
60
0
100
AcDbLine
10
-2
20
17.325128
30
0
11
-2
21
-17.32515
31
0
39
0
210
0
220
0
230
1
0
LINE
5
F0
100
AcDbEntity
8
SK1
62
256
6
ByLayer
370
18
48
1
60
0
100
AcDbLine
10
-0.4
20
-5.168667
30
0
11
-0.4
21
-17.324079
31
0
39
0
210
0
220
0
230
1
0
LINE
5
F1
100
AcDbEntity
8
SK1
62
256
6
ByLayer
370
18
48
1
60
0
100
AcDbLine
10
-28.500473
20
16.858585
30
0
11
-28.500473
21
-16.858922
31
0
39
0
210
0
220
0
230
1
0
LINE
5
F2
100
AcDbEntity
8
SK1
62
256
6
ByLayer
370
18
48
1
60
0
100
AcDbLine
10
-30
20
-15.941004
30
0
11
-30
21
15.941952
31
0
39
0
210
0
220
0
230
1
0
LINE
5
F3
100
AcDbEntity
8
SK1
62
256
6
ByLayer
370
18
48
1
60
0
100
AcDbLine
10
-0.4
20
17.32408
30
0
11
-0.4
21
5.168667
31
0
39
0
210
0
220
0
230
1
0
MTEXT
5
171
100
AcDbEntity
8
SK6
62
256
6
ByLayer
370
13
48
1
60
0
100
AcDbMText
10
2.503027
20
60.558275
30
0
210
0
220
0
230
1
1
\W0.7164;C5-570-3C 32 288
40
3.175
41
0
44
1.084337
50
0
71
7
72
5
7
iso_b_vert
0
DIMENSION
5
17F
100
AcDbEntity
8
2
62
256
6
ByLayer
370
13
48
1
60
0
100
AcDbDimension
2
DimnDraft3D1
10
288
20
48.72414
30
0
11
140.916908
21
48.72414
31
0
70
32
71
5
72
1
41
1
210
0
220
0
230
1
3
Standard
100
AcDbAlignedDimension
13
0
23
1.5875
33
0
14
288
24
1.5875
34
0
50
0
100
AcDbRotatedDimension
1001
ACAD
1000
DSTYLE
1002
{
1070
   279
1070
     0
1070
   173
1070
     1
1070
   340
1005
172
1070
   271
1070
     1
1070
   272
1070
     2
1070
    77
1070
     1
1070
    73
1070
     0
1070
   171
1070
     3
1070
   274
1070
     4
1070
   177
1070
     7
1070
   176
1070
     7
1070
   178
1070
     7
1070
    78
1070
     8
1070
    48
1040
-0.005
1070
    41
1041
3.175
1070
   147
1041
1.5875
1070
    42
1041
1.5875
1070
    44
1041
3.175
1070
   140
1041
3.175
1070
   343
1005
0
1070
   344
1005
0
1002
}
0
DIMENSION
5
18B
100
AcDbEntity
8
SK2
62
256
6
ByLayer
370
13
48
1
60
0
100
AcDbDimension
2
DimnDraft3D2
10
-42.298033
20
-25
30
0
11
-42.298033
21
-6.659145
31
0
70
32
71
5
72
1
41
1
210
0
220
0
230
1
3
Standard
100
AcDbAlignedDimension
13
-1.2875
23
25
33
0
14
-1.2875
24
-25
34
0
50
90
100
AcDbRotatedDimension
1001
ACAD
1000
DSTYLE
1002
{
1070
    74
1070
     0
1070
   279
1070
     0
1070
   173
1070
     1
1070
   340
1005
172
1070
   271
1070
     1
1070
   272
1070
     2
1070
    77
1070
     1
1070
    73
1070
     0
1070
   171
1070
     3
1070
   274
1070
     4
1070
   177
1070
     7
1070
   176
1070
     7
1070
   178
1070
     7
1070
    78
1070
     8
1070
    48
1040
-0.005
1070
    41
1041
3.175
1070
   147
1041
1.5875
1070
    42
1041
1.5875
1070
    44
1041
3.175
1070
   140
1041
3.175
1070
   343
1005
0
1070
   344
1005
0
1002
}
0
DIMENSION
5
193
100
AcDbEntity
8
SK2
62
256
6
ByLayer
370
13
48
1
60
0
100
AcDbDimension
2
DimnDraft3D3
10
28.550159
20
24
30
0
11
41.828748
21
38.78668
31
0
70
36
71
5
72
1
41
1
210
0
220
0
230
1
3
Standard
100
AcDbRadialDimension
15
0
25
0
35
0
40
0
1001
ACAD
1000
DSTYLE
1002
{
1070
   279
1070
     0
1070
   173
1070
     1
1070
   340
1005
172
1070
    75
1070
     1
1070
    76
1070
     1
1070
   271
1070
     1
1070
   272
1070
     2
1070
    77
1070
     1
1070
    73
1070
     0
1070
   171
1070
     3
1070
   274
1070
     4
1070
   177
1070
     7
1070
   176
1070
     7
1070
   178
1070
     7
1070
    78
1070
     8
1070
    48
1040
-0.005
1070
    41
1041
3.175
1070
   147
1041
1.5875
1070
    42
1041
1.5875
1070
    44
1041
3.175
1070
   140
1041
3.175
1070
   343
1005
0
1070
   344
1005
0
1002
}
0
DIMENSION
5
19D
100
AcDbEntity
8
SK2
62
256
6
ByLayer
370
13
48
1
60
0
100
AcDbDimension
2
DimnDraft3D4
10
20
20
-32.9205
30
0
11
8.103355
21
-32.9205
31
0
70
32
71
5
72
1
41
1
210
0
220
0
230
1
3
Standard
100
AcDbAlignedDimension
13
0
23
-26.2875
33
0
14
20
24
-26.5875
34
0
50
0
100
AcDbRotatedDimension
1001
ACAD
1000
DSTYLE
1002
{
1070
   279
1070
     0
1070
   173
1070
     1
1070
   340
1005
172
1070
   271
1070
     1
1070
   272
1070
     2
1070
    77
1070
     1
1070
    73
1070
     0
1070
   171
1070
     3
1070
   274
1070
     4
1070
   177
1070
     7
1070
   176
1070
     7
1070
   178
1070
     7
1070
    78
1070
     8
1070
    48
1040
-0.005
1070
    41
1041
3.175
1070
   147
1041
1.5875
1070
    42
1041
1.5875
1070
    44
1041
3.175
1070
   140
1041
3.175
1070
   343
1005
0
1070
   344
1005
0
1002
}
0
DIMENSION
5
1B2
100
AcDbEntity
8
SK2
62
256
6
ByLayer
370
13
48
1
60
0
100
AcDbDimension
2
DimnDraft3D6
10
331.781074
20
-16
30
0
11
331.781074
21
-6.659145
31
0
70
32
71
5
72
1
41
1
210
0
220
0
230
1
3
Standard
100
AcDbAlignedDimension
13
287.2875
23
16
33
0
14
287.2875
24
-16
34
0
50
90
100
AcDbRotatedDimension
1001
ACAD
1000
DSTYLE
1002
{
1070
    74
1070
     0
1070
   279
1070
     0
1070
   173
1070
     1
1070
   340
1005
172
1070
   271
1070
     1
1070
   272
1070
     2
1070
    77
1070
     1
1070
    73
1070
     0
1070
   171
1070
     3
1070
   274
1070
     4
1070
   177
1070
     7
1070
   176
1070
     7
1070
   178
1070
     7
1070
    78
1070
     8
1070
    48
1040
-0.005
1070
    41
1041
3.175
1070
   147
1041
1.5875
1070
    42
1041
1.5875
1070
    44
1041
3.175
1070
   140
1041
3.175
1070
   343
1005
0
1070
   344
1005
0
1002
}
0
ENDSEC
0
SECTION
2
OBJECTS
0
DICTIONARY
5
21d
330
0
100
AcDbDictionary
280
0
281
1
3
ACAD_GROUP
350
21e
3
ACAD_MLINESTYLE
350
21f
0
DICTIONARY
5
21e
330
0
100
AcDbDictionary
280
0
281
1
0
DICTIONARY
5
21f
330
0
100
AcDbDictionary
280
0
281
1
3
Standard
350
18
0
MLINESTYLE
5
18
330
21f
100
AcDbMlineStyle
2
Standard
70
0
3

62
256
51
90
52
90
71
2
49
-0.5
62
256
6
ByLayer
49
0.5
62
256
6
ByLayer
0
RASTERVARIABLES
5
20b
330

100
AcDbRasterVariables
90
0
70
1
71
1
72
1
0
ENDSEC
0
EOF
