0
SECTION
2
HEADER
9
$ACADVER
1
AC1015
9
$DWGCODEPAGE
3
ANSI_1252
9
$HANDSEED
5
201
9
$ANGBASE
50
0
9
$ANGDIR
70
0
9
$ATTMODE
70
1
9
$AUNITS
70
0
9
$AUPREC
70
0
9
$CECOLOR
62
256
9
$CELTSCALE
40
1
9
$CELTYPE
6
ByLayer
9
$CELWEIGHT
370
18
9
$CLAYER
8
0
9
$CMLJUST
70
0
9
$CMLSCALE
40
1
9
$CMLSTYLE
2
Standard
9
$DIMSTYLE
2
Standard
9
$TEXTSIZE
40
0.2
9
$TEXTSTYLE
7
Standard
9
$LUNITS
70
2
9
$LUPREC
70
4
9
$EXTNAMES
290
1
9
$INSUNITS
70
4
9
$LTSCALE
40
1
9
$LWDISPLAY
290
1
9
$PDMODE
70
0
9
$PDSIZE
40
0
9
$PLINEGEN
70
0
0
ENDSEC
0
SECTION
2
CLASSES
0
CLASS
1
RASTERVARIABLES
2
AcDbRasterVariables
3
ISM
90
0
280
0
281
0
0
ENDSEC
0
SECTION
2
TABLES
0
TABLE
2
VPORT
5
1f7
100
AcDbSymbolTable
0
VPORT
5
1
100
AcDbSymbolTableRecord
100
AcDbViewportTableRecord
2
*Active
70
0
10
0
20
0
11
1
21
1
12
-1
22
1
13
0
23
0
14
0.5
24
0.5
15
10
25
10
16
0
26
0
36
1
17
0
27
0
37
0
0
ENDTAB
0
TABLE
2
LTYPE
5
1f8
100
AcDbSymbolTable
0
LTYPE
5
14
100
AcDbSymbolTableRecord
100
AcDbLinetypeTableRecord
70
0
2
ByBlock
3

72
65
73
0
40
0
0
LTYPE
5
15
100
AcDbSymbolTableRecord
100
AcDbLinetypeTableRecord
70
0
2
ByLayer
3

72
65
73
0
40
0
0
LTYPE
5
16
100
AcDbSymbolTableRecord
100
AcDbLinetypeTableRecord
70
0
2
CONTINUOUS
3
Solid line
72
65
73
0
40
0
0
LTYPE
5
6A
100
AcDbSymbolTableRecord
100
AcDbLinetypeTableRecord
70
0
2
CENTER
3
____ _ ____ _ ____ _ ____
72
65
73
4
40
47.5
49
22
74
0
49
-8.5
74
0
49
8.5
74
0
49
-8.5
74
0
0
LTYPE
5
6B
100
AcDbSymbolTableRecord
100
AcDbLinetypeTableRecord
70
0
2
DASHED
3
__ __ __ __ __ __ __ __ __
72
65
73
2
40
25.72
49
12.86
74
0
49
-12.86
74
0
0
ENDTAB
0
TABLE
2
LAYER
5
1f9
100
AcDbSymbolTable
0
LAYER
5
10
100
AcDbSymbolTableRecord
100
AcDbLayerTableRecord
2
0
70
0
62
7
6
CONTINUOUS
290
1
370
-3
390
0
0
LAYER
5
6D
100
AcDbSymbolTableRecord
100
AcDbLayerTableRecord
2
80
70
0
62
-6
6
CONTINUOUS
290
1
370
-3
390
0
0
LAYER
5
6F
100
AcDbSymbolTableRecord
100
AcDbLayerTableRecord
2
81
70
0
62
-3
6
CONTINUOUS
290
1
370
-3
390
0
0
LAYER
5
72
100
AcDbSymbolTableRecord
100
AcDbLayerTableRecord
2
4
70
0
62
-2
6
CENTER
290
1
370
-3
390
0
0
LAYER
5
7C
100
AcDbSymbolTableRecord
100
AcDbLayerTableRecord
2
1
70
0
62
4
6
CONTINUOUS
290
1
370
-3
390
0
0
LAYER
5
14E
100
AcDbSymbolTableRecord
100
AcDbLayerTableRecord
2
2
70
0
62
7
6
CONTINUOUS
290
1
370
-3
390
0
0
LAYER
5
1e3
100
AcDbSymbolTableRecord
100
AcDbLayerTableRecord
2
SK4
70
0
62
2
6
CENTER
290
1
370
-3
390
0
0
LAYER
5
1e4
100
AcDbSymbolTableRecord
100
AcDbLayerTableRecord
2
SK1
70
0
62
4
6
CONTINUOUS
290
1
370
-3
390
0
0
LAYER
5
1e5
100
AcDbSymbolTableRecord
100
AcDbLayerTableRecord
2
SK6
70
0
62
5
6
CONTINUOUS
290
1
370
-3
390
0
0
LAYER
5
1e6
100
AcDbSymbolTableRecord
100
AcDbLayerTableRecord
2
SK2
70
0
62
7
6
CONTINUOUS
290
1
370
-3
390
0
0
ENDTAB
0
TABLE
2
STYLE
5
1fa
100
AcDbSymbolTable
0
STYLE
5
11
100
AcDbSymbolTableRecord
100
AcDbTextStyleTableRecord
2
Standard
3
txt
70
0
71
0
40
0
41
1
42
0
50
0
0
STYLE
5
149
100
AcDbSymbolTableRecord
100
AcDbTextStyleTableRecord
2
iso_b_vert
3
simplex.shx
70
0
71
0
40
0
41
1
42
0
50
0
0
STYLE
5
14A
100
AcDbSymbolTableRecord
100
AcDbTextStyleTableRecord
2
DWGDirectTextStyle
3
simplex
70
0
71
0
40
0
41
1
42
0
50
0
0
ENDTAB
0
TABLE
2
DIMSTYLE
5
1fb
100
AcDbSymbolTable
100
AcDbDimStyleTable
0
DIMSTYLE
105
27
100
AcDbSymbolTableRecord
100
AcDbDimStyleTableRecord
2
Standard
70
0
3
<>
41
0.18
42
0.0625
44
0.18
140
0.18
147
0.09
73
0
74
0
77
1
271
2
275
0
278
52
280
0
340
11
0
ENDTAB
0
TABLE
2
VIEW
5
1fc
100
AcDbSymbolTable
0
ENDTAB
0
TABLE
2
UCS
5
1fd
100
AcDbSymbolTable
0
ENDTAB
0
TABLE
2
APPID
5
1fe
100
AcDbSymbolTable
0
APPID
5
12
100
AcDbSymbolTableRecord
100
AcDbRegAppTableRecord
2
ACAD
70
0
0
ENDTAB
0
TABLE
2
BLOCK_RECORD
5
1ff
100
AcDbSymbolTable
0
BLOCK_RECORD
5
1F
100
AcDbSymbolTableRecord
100
AcDbBlockTableRecord
2
*Model_Space
340
0
70
0
0
BLOCK_RECORD
5
1B
100
AcDbSymbolTableRecord
100
AcDbBlockTableRecord
2
*Paper_Space
340
0
70
0
0
BLOCK_RECORD
5
23
100
AcDbSymbolTableRecord
100
AcDbBlockTableRecord
2
*Paper_Space0
340
0
70
0
0
BLOCK_RECORD
5
14C
100
AcDbSymbolTableRecord
100
AcDbBlockTableRecord
2
DimnDraft3D1
340
0
70
0
0
BLOCK_RECORD
5
157
100
AcDbSymbolTableRecord
100
AcDbBlockTableRecord
2
DimnDraft3D2
340
0
70
0
0
BLOCK_RECORD
5
163
100
AcDbSymbolTableRecord
100
AcDbBlockTableRecord
2
DimnDraft3D3
340
0
70
0
0
BLOCK_RECORD
5
16D
100
AcDbSymbolTableRecord
100
AcDbBlockTableRecord
2
DimnDraft3D44
340
0
70
0
0
BLOCK_RECORD
5
177
100
AcDbSymbolTableRecord
100
AcDbBlockTableRecord
2
DimnDraft3D5
340
0
70
0
0
BLOCK_RECORD
5
17F
100
AcDbSymbolTableRecord
100
AcDbBlockTableRecord
2
DimnDraft3D6
340
0
70
0
0
ENDTAB
0
ENDSEC
0
SECTION
2
BLOCKS
0
BLOCK
5
20
100
AcDbEntity
8
0
100
AcDbBlockBegin
2
*Model_Space
70
0
10
0
20
0
30
0
3
*Model_Space
0
ENDBLK
5
21
100
AcDbEntity
8
0
100
AcDbBlockEnd
0
BLOCK
5
1C
100
AcDbEntity
8
0
100
AcDbBlockBegin
2
*Paper_Space
70
0
10
0
20
0
30
0
3
*Paper_Space
0
ENDBLK
5
1D
100
AcDbEntity
8
0
100
AcDbBlockEnd
0
BLOCK
5
24
100
AcDbEntity
8
0
100
AcDbBlockBegin
2
*Paper_Space0
70
0
10
0
20
0
30
0
3
*Paper_Space0
0
ENDBLK
5
25
100
AcDbEntity
8
0
100
AcDbBlockEnd
0
BLOCK
5
154
100
AcDbEntity
8
0
100
AcDbBlockBegin
2
DimnDraft3D1
70
0
10
0
20
0
30
0
3
DimnDraft3D1
0
MTEXT
5
14D
100
AcDbEntity
8
2
62
256
6
ByLayer
370
13
48
1
60
0
100
AcDbMText
10
88.107533
20
48.648172
30
0
210
0
220
0
230
1
1
\W0.6217;180
40
3.175
41
0
44
1.084337
50
0
71
7
72
5
7
iso_b_vert
0
LINE
5
14F
100
AcDbEntity
8
2
62
256
6
ByLayer
370
13
48
1
60
0
100
AcDbLine
10
0
20
1.5875
30
0
11
0
21
51.029422
31
0
39
0
210
0
220
0
230
1
0
LINE
5
150
100
AcDbEntity
8
2
62
256
6
ByLayer
370
13
48
1
60
0
100
AcDbLine
10
180
20
1.5875
30
0
11
180
21
51.029422
31
0
39
0
210
0
220
0
230
1
0
LINE
5
151
100
AcDbEntity
8
2
62
256
6
ByLayer
370
13
48
1
60
0
100
AcDbLine
10
0
20
47.854422
30
0
11
180
21
47.854422
31
0
39
0
210
0
220
0
230
1
0
SOLID
5
152
100
AcDbEntity
8
2
62
256
6
ByLayer
370
13
48
1
60
0
100
AcDbTrace
10
0
20
47.854422
30
0
11
3.174998
21
48.272419
31
0
12
3.175002
22
47.436425
32
0
13
0
23
47.854422
33
0
39
0
210
0
220
0
230
1
0
SOLID
5
153
100
AcDbEntity
8
2
62
256
6
ByLayer
370
13
48
1
60
0
100
AcDbTrace
10
180
20
47.854422
30
0
11
176.825002
21
47.436425
31
0
12
176.824998
22
48.272419
32
0
13
180
23
47.854422
33
0
39
0
210
0
220
0
230
1
0
ENDBLK
5
155
100
AcDbEntity
8
0
100
AcDbBlockEnd
0
BLOCK
5
160
100
AcDbEntity
8
0
100
AcDbBlockBegin
2
DimnDraft3D2
70
0
10
0
20
0
30
0
3
DimnDraft3D2
0
MTEXT
5
158
100
AcDbEntity
8
SK2
62
256
6
ByLayer
370
13
48
1
60
0
100
AcDbMText
10
-49.651631
20
-4.25309
30
0
210
0
220
0
230
1
1
%%c
40
3.175
41
0
44
1.084337
50
90
71
7
72
5
7
iso_b_vert
0
MTEXT
5
15A
100
AcDbEntity
8
SK2
62
256
6
ByLayer
370
13
48
1
60
0
100
AcDbMText
10
-49.651631
20
3.659605
30
0
210
0
220
0
230
1
1
\W0.6740;50
40
3.175
41
0
44
1.084337
50
90
71
7
72
5
7
iso_b_vert
0
LINE
5
15B
100
AcDbEntity
8
SK2
62
256
6
ByLayer
370
13
48
1
60
0
100
AcDbLine
10
-1.2875
20
25
30
0
11
-51.239131
21
25
31
0
39
0
210
0
220
0
230
1
0
LINE
5
15C
100
AcDbEntity
8
SK2
62
256
6
ByLayer
370
13
48
1
60
0
100
AcDbLine
10
-1.2875
20
-25
30
0
11
-51.239131
21
-25
31
0
39
0
210
0
220
0
230
1
0
LINE
5
15D
100
AcDbEntity
8
SK2
62
256
6
ByLayer
370
13
48
1
60
0
100
AcDbLine
10
-48.064131
20
25
30
0
11
-48.064131
21
-25
31
0
39
0
210
0
220
0
230
1
0
SOLID
5
15E
100
AcDbEntity
8
SK2
62
256
6
ByLayer
370
13
48
1
60
0
100
AcDbTrace
10
-48.064131
20
25
30
0
11
-47.646134
21
21.825002
31
0
12
-48.482128
22
21.824998
32
0
13
-48.064131
23
25
33
0
39
0
210
0
220
0
230
1
0
SOLID
5
15F
100
AcDbEntity
8
SK2
62
256
6
ByLayer
370
13
48
1
60
0
100
AcDbTrace
10
-48.064131
20
-25
30
0
11
-48.482128
21
-21.825002
31
0
12
-47.646134
22
-21.824998
32
0
13
-48.064131
23
-25
33
0
39
0
210
0
220
0
230
1
0
ENDBLK
5
161
100
AcDbEntity
8
0
100
AcDbBlockEnd
0
BLOCK
5
16A
100
AcDbEntity
8
0
100
AcDbBlockBegin
2
DimnDraft3D3
70
0
10
0
20
0
30
0
3
DimnDraft3D3
0
MTEXT
5
164
100
AcDbEntity
8
SK2
62
256
6
ByLayer
370
13
48
1
60
0
100
AcDbMText
10
8.897105
20
-32.927056
30
0
210
0
220
0
230
1
1
\W0.6740;20
40
3.175
41
0
44
1.084337
50
0
71
7
72
5
7
iso_b_vert
0
LINE
5
165
100
AcDbEntity
8
SK2
62
256
6
ByLayer
370
13
48
1
60
0
100
AcDbLine
10
0
20
-26.2875
30
0
11
0
21
-36.895806
31
0
39
0
210
0
220
0
230
1
0
LINE
5
166
100
AcDbEntity
8
SK2
62
256
6
ByLayer
370
13
48
1
60
0
100
AcDbLine
10
20
20
-26.5875
30
0
11
20
21
-36.895806
31
0
39
0
210
0
220
0
230
1
0
LINE
5
167
100
AcDbEntity
8
SK2
62
256
6
ByLayer
370
13
48
1
60
0
100
AcDbLine
10
0
20
-33.720806
30
0
11
20
21
-33.720806
31
0
39
0
210
0
220
0
230
1
0
SOLID
5
168
100
AcDbEntity
8
SK2
62
256
6
ByLayer
370
13
48
1
60
0
100
AcDbTrace
10
0
20
-33.720806
30
0
11
3.174998
21
-33.302809
31
0
12
3.175002
22
-34.138802
32
0
13
0
23
-33.720806
33
0
39
0
210
0
220
0
230
1
0
SOLID
5
169
100
AcDbEntity
8
SK2
62
256
6
ByLayer
370
13
48
1
60
0
100
AcDbTrace
10
20
20
-33.720806
30
0
11
16.825002
21
-34.138802
31
0
12
16.824998
22
-33.302809
32
0
13
20
23
-33.720806
33
0
39
0
210
0
220
0
230
1
0
ENDBLK
5
16B
100
AcDbEntity
8
0
100
AcDbBlockEnd
0
BLOCK
5
16E
100
AcDbEntity
8
0
100
AcDbBlockBegin
2
DimnDraft3D44
70
0
10
0
20
0
30
0
3
DimnDraft3D44
0
LINE
5
170
100
AcDbEntity
8
SK2
62
256
6
ByLayer
370
25
48
1
60
0
100
AcDbLine
10
180
20
-1.5875
30
0
11
180
21
-36.160372
31
0
39
0
210
0
220
0
230
1
0
LINE
5
171
100
AcDbEntity
8
SK2
62
256
6
ByLayer
370
25
48
1
60
0
100
AcDbLine
10
25.651346
20
-14.0875
30
0
11
25.651346
21
-36.160372
31
0
39
0
210
0
220
0
230
1
0
LINE
5
172
100
AcDbEntity
8
SK2
62
256
6
ByLayer
370
25
48
1
60
0
100
AcDbLine
10
180
20
-32.985372
30
0
11
25.651346
21
-32.985372
31
0
39
0
210
0
220
0
230
1
0
SOLID
5
173
100
AcDbEntity
8
SK2
62
256
6
ByLayer
370
25
48
1
60
0
100
AcDbTrace
10
180
20
-32.985372
30
0
11
176.825002
21
-33.403368
31
0
12
176.824998
22
-32.567375
32
0
13
180
23
-32.985372
33
0
39
0
210
0
220
0
230
1
0
SOLID
5
174
100
AcDbEntity
8
SK2
62
256
6
ByLayer
370
25
48
1
60
0
100
AcDbTrace
10
25.651346
20
-32.985372
30
0
11
28.826344
21
-32.567375
31
0
12
28.826347
22
-33.403368
32
0
13
25.651346
23
-32.985372
33
0
39
0
210
0
220
0
230
1
0
MTEXT
5
175
100
AcDbEntity
8
SK2
62
256
6
ByLayer
370
13
48
1
60
0
100
AcDbMText
10
99.019851
20
-32.191622
30
0
210
0
220
0
230
1
1
\W0.6977;154,3
40
3.175
41
0
44
1.084337
50
0
71
7
72
5
7
iso_b_vert
0
ENDBLK
5
16F
100
AcDbEntity
8
0
100
AcDbBlockEnd
0
BLOCK
5
17C
100
AcDbEntity
8
0
100
AcDbBlockBegin
2
DimnDraft3D5
70
0
10
0
20
0
30
0
3
DimnDraft3D5
0
MTEXT
5
178
100
AcDbEntity
8
SK2
62
256
6
ByLayer
370
13
48
1
60
0
100
AcDbMText
10
40.186226
20
32.467874
30
0
210
0
220
0
230
1
1
\W0.5404;3
40
3.175
41
0
44
1.084337
50
47.3802760440487
71
7
72
5
7
iso_b_vert
0
MTEXT
5
179
100
AcDbEntity
8
SK2
62
256
6
ByLayer
370
13
48
1
60
0
100
AcDbMText
10
37.385717
20
29.424447
30
0
210
0
220
0
230
1
1
\W0.6380;R
40
3.175
41
0
44
1.084337
50
47.3802760440487
71
7
72
5
7
iso_b_vert
0
LINE
5
17A
100
AcDbEntity
8
SK2
62
256
6
ByLayer
370
13
48
1
60
0
100
AcDbLine
10
23.619958
20
13.292408
30
0
11
41.194637
21
32.391528
31
0
39
0
210
0
220
0
230
1
0
SOLID
5
17B
100
AcDbEntity
8
SK2
62
256
6
ByLayer
370
13
48
1
60
0
100
AcDbTrace
10
23.619958
20
13.292408
30
0
11
25.462254
21
15.911813
31
0
12
26.077433
22
15.34574
32
0
13
23.619958
23
13.292408
33
0
39
0
210
0
220
0
230
1
0
ENDBLK
5
17D
100
AcDbEntity
8
0
100
AcDbBlockEnd
0
BLOCK
5
187
100
AcDbEntity
8
0
100
AcDbBlockBegin
2
DimnDraft3D6
70
0
10
0
20
0
30
0
3
DimnDraft3D6
0
MTEXT
5
180
100
AcDbEntity
8
SK2
62
256
6
ByLayer
370
13
48
1
60
0
100
AcDbMText
10
205.479895
20
25.449378
30
0
210
0
220
0
230
1
1
%%c
40
3.175
41
0
44
1.084337
50
90
71
7
72
5
7
iso_b_vert
0
MTEXT
5
181
100
AcDbEntity
8
SK2
62
256
6
ByLayer
370
13
48
1
60
0
100
AcDbMText
10
205.479895
20
33.362074
30
0
210
0
220
0
230
1
1
\W0.6740;25
40
3.175
41
0
44
1.084337
50
90
71
7
72
5
7
iso_b_vert
0
LINE
5
182
100
AcDbEntity
8
SK2
62
256
6
ByLayer
370
13
48
1
60
0
100
AcDbLine
10
179.2875
20
12.5
30
0
11
210.242395
21
12.5
31
0
39
0
210
0
220
0
230
1
0
LINE
5
183
100
AcDbEntity
8
SK2
62
256
6
ByLayer
370
13
48
1
60
0
100
AcDbLine
10
179.2875
20
-12.5
30
0
11
210.242395
21
-12.5
31
0
39
0
210
0
220
0
230
1
0
LINE
5
184
100
AcDbEntity
8
SK2
62
256
6
ByLayer
370
13
48
1
60
0
100
AcDbLine
10
207.067395
20
-12.5
30
0
11
207.067395
21
36.361613
31
0
39
0
210
0
220
0
230
1
0
SOLID
5
185
100
AcDbEntity
8
SK2
62
256
6
ByLayer
370
13
48
1
60
0
100
AcDbTrace
10
207.067395
20
12.5
30
0
11
207.485391
21
9.325002
31
0
12
206.649398
22
9.324998
32
0
13
207.067395
23
12.5
33
0
39
0
210
0
220
0
230
1
0
SOLID
5
186
100
AcDbEntity
8
SK2
62
256
6
ByLayer
370
13
48
1
60
0
100
AcDbTrace
10
207.067395
20
-12.5
30
0
11
206.649398
21
-9.325002
31
0
12
207.485391
22
-9.324998
32
0
13
207.067395
23
-12.5
33
0
39
0
210
0
220
0
230
1
0
ENDBLK
5
188
100
AcDbEntity
8
0
100
AcDbBlockEnd
0
ENDSEC
0
SECTION
2
ENTITIES
0
ARC
5
E1
100
AcDbEntity
8
1
62
256
6
ByLayer
370
18
48
1
60
0
100
AcDbCircle
39
0
10
-25.651346
20
15.5
30
0
40
3
210
0
220
0
230
-1
100
AcDbArc
50
270
51
345
0
ARC
5
E2
100
AcDbEntity
8
1
62
256
6
ByLayer
370
18
48
1
60
0
100
AcDbCircle
39
0
10
-25.651346
20
-15.5
30
0
40
3
210
0
220
0
230
-1
100
AcDbArc
50
15
51
90
0
ARC
5
E3
100
AcDbEntity
8
1
62
256
6
ByLayer
370
18
48
1
60
0
100
AcDbCircle
39
0
10
177.7
20
-12.2
30
0
40
0.3
210
0
220
0
230
1
100
AcDbArc
50
270
51
0
0
ARC
5
E4
100
AcDbEntity
8
1
62
256
6
ByLayer
370
18
48
1
60
0
100
AcDbCircle
39
0
10
177.7
20
12.2
30
0
40
0.3
210
0
220
0
230
1
100
AcDbArc
50
0
51
90
0
CIRCLE
5
E0
100
AcDbEntity
8
1
62
256
6
ByLayer
370
18
48
1
60
0
100
AcDbCircle
10
172
20
0
30
0
40
1
39
0
210
0
220
0
230
1
0
ELLIPSE
5
E5
100
AcDbEntity
8
1
62
256
6
ByLayer
370
18
48
1
60
0
100
AcDbEllipse
10
-1.056258
20
0
30
0
11
11.7092723497267
21
24.6771864409368
31
0
210
0
220
0
230
1
40
0.341999
41
-1.0818327004893
42
-0.167213071908985
0
ELLIPSE
5
E6
100
AcDbEntity
8
1
62
256
6
ByLayer
370
18
48
1
60
0
100
AcDbEllipse
10
21.056258
20
0
30
0
11
-11.7092723497272
21
24.6771864409373
31
0
210
0
220
0
230
1
40
0.341999
41
0.167213071908981
42
1.08183270048928
0
ELLIPSE
5
E7
100
AcDbEntity
8
1
62
256
6
ByLayer
370
18
48
1
60
0
100
AcDbEllipse
10
-1.056258
20
0
30
0
11
-11.7092723497269
21
24.6771864409371
31
0
210
0
220
0
230
1
40
0.341999
41
-2.97437958168081
42
-2.05975995310051
0
ELLIPSE
5
E8
100
AcDbEntity
8
1
62
256
6
ByLayer
370
18
48
1
60
0
100
AcDbEllipse
10
21.056258
20
0
30
0
11
11.7092723497269
21
24.6771864409369
31
0
210
0
220
0
230
1
40
0.341999
41
2.05975995310051
42
2.97437958168081
0
POINT
5
6C
100
AcDbEntity
8
80
62
256
6
ByLayer
370
18
48
1
60
0
100
AcDbPoint
10
0
20
0
30
0
39
0
210
0
220
0
230
1
50
360
0
POINT
5
6E
100
AcDbEntity
8
81
62
256
6
ByLayer
370
18
48
1
60
0
100
AcDbPoint
10
180
20
0
30
0
39
0
210
0
220
0
230
1
50
360
0
SPLINE
5
E9
100
AcDbEntity
8
1
62
256
6
ByLayer
370
18
48
1
60
0
100
AcDbSpline
70
4
71
3
72
12
73
8
40
0
40
0
40
0
40
0
40
0.459644305972759
40
0.642726098164938
40
0.827224710285296
40
0.942229897394055
40
1
40
1
40
1
40
1
41
1
10
11.8943375672974
20
8.05584836782776
30
0
41
1
10
11.870609947633
20
7.94573224796186
30
0
41
1
10
11.8113426472372
20
7.80565268512262
30
0
41
1
10
11.6954747324322
20
7.64199389030058
30
0
41
1
10
11.603589051157
20
7.56467770031465
30
0
41
1
10
11.5186515565359
20
7.53341137556286
30
0
41
1
10
11.475930551665
20
7.52978436584909
30
0
41
1
10
11.4613248654053
20
7.52966679426472
30
0
0
SPLINE
5
EA
100
AcDbEntity
8
1
62
256
6
ByLayer
370
18
48
1
60
0
100
AcDbSpline
70
4
71
3
72
12
73
8
40
0
40
0
40
0
40
0
40
0.111858040727077
40
0.249615564081471
40
0.466512325295224
40
0.883363308578644
40
1
40
1
40
1
40
1
41
1
10
11.4613248654052
20
23.8391299750503
30
0
41
1
10
11.490202477147
20
23.8388589976897
30
0
41
1
10
11.5512049415471
20
23.8357352266636
30
0
41
1
10
11.6532263618682
20
23.8170102166354
30
0
41
1
10
11.7782175608376
20
23.7714946431978
30
0
41
1
10
11.8507722029757
20
23.7164634042069
30
0
41
1
10
11.8873565915027
20
23.6756140303039
30
0
41
1
10
11.8943375672976
20
23.6665017920809
30
0
0
SPLINE
5
EB
100
AcDbEntity
8
1
62
256
6
ByLayer
370
18
48
1
60
0
100
AcDbSpline
70
4
71
3
72
12
73
8
40
0
40
0
40
0
40
0
40
0.459644305972722
40
0.642726098164916
40
0.827224710285289
40
0.942229897394049
40
1
40
1
40
1
40
1
41
1
10
8.1056624327026
20
23.6665017920809
30
0
41
1
10
8.12939005236703
20
23.7038077009478
30
0
41
1
10
8.18865735276281
20
23.750538511954
30
0
41
1
10
8.3045252675678
20
23.8034353169055
30
0
41
1
10
8.39641094884295
20
23.8280652820467
30
0
41
1
10
8.48134844346408
20
23.8379462243764
30
0
41
1
10
8.52406944833502
20
23.8390940049547
30
0
41
1
10
8.53867513459476
20
23.8391299750505
30
0
0
SPLINE
5
EC
100
AcDbEntity
8
1
62
256
6
ByLayer
370
18
48
1
60
0
100
AcDbSpline
70
4
71
3
72
12
73
8
40
0
40
0
40
0
40
0
40
0.111858040727075
40
0.249615564081473
40
0.46651232529524
40
0.883363308578703
40
1
40
1
40
1
40
1
41
1
10
8.53867513459482
20
7.52966679426506
30
0
41
1
10
8.50979752285304
20
7.53055100813242
30
0
41
1
10
8.44879505845288
20
7.54041112540459
30
0
41
1
10
8.34677363813175
20
7.59950838735874
30
0
41
1
10
8.22178243916245
20
7.74142185662718
30
0
41
1
10
8.14922779702437
20
7.90844135818924
30
0
41
1
10
8.11264340849731
20
8.02906268286479
30
0
41
1
10
8.10566243270244
20
8.05584836782774
30
0
0
SPLINE
5
ED
100
AcDbEntity
8
1
62
256
6
ByLayer
370
18
48
1
60
0
100
AcDbSpline
70
4
71
3
72
12
73
8
40
0
40
0
40
0
40
0
40
0.459644305972795
40
0.64272609816497
40
0.827224710285322
40
0.94222989739408
40
1
40
1
40
1
40
1
41
1
10
11.8943375672974
20
-23.6665017920809
30
0
41
1
10
11.870609947633
20
-23.7038077009478
30
0
41
1
10
11.8113426472372
20
-23.7505385119541
30
0
41
1
10
11.6954747324322
20
-23.8034353169055
30
0
41
1
10
11.603589051157
20
-23.8280652820467
30
0
41
1
10
11.5186515565359
20
-23.8379462243764
30
0
41
1
10
11.475930551665
20
-23.8390940049547
30
0
41
1
10
11.4613248654053
20
-23.8391299750505
30
0
0
SPLINE
5
EE
100
AcDbEntity
8
1
62
256
6
ByLayer
370
18
48
1
60
0
100
AcDbSpline
70
4
71
3
72
12
73
8
40
0
40
0
40
0
40
0
40
0.111858040727067
40
0.249615564081476
40
0.466512325295241
40
0.883363308578689
40
1
40
1
40
1
40
1
41
1
10
11.4613248654052
20
-7.52966679426502
30
0
41
1
10
11.490202477147
20
-7.53055100813238
30
0
41
1
10
11.5512049415471
20
-7.54041112540454
30
0
41
1
10
11.6532263618683
20
-7.5995083873587
30
0
41
1
10
11.7782175608376
20
-7.74142185662715
30
0
41
1
10
11.8507722029757
20
-7.9084413581892
30
0
41
1
10
11.8873565915027
20
-8.02906268286477
30
0
41
1
10
11.8943375672976
20
-8.05584836782771
30
0
0
SPLINE
5
EF
100
AcDbEntity
8
1
62
256
6
ByLayer
370
18
48
1
60
0
100
AcDbSpline
70
4
71
3
72
12
73
8
40
0
40
0
40
0
40
0
40
0.459644305972732
40
0.642726098164923
40
0.827224710285295
40
0.942229897394056
40
1
40
1
40
1
40
1
41
1
10
8.1056624327026
20
-8.05584836782778
30
0
41
1
10
8.12939005236703
20
-7.94573224796188
30
0
41
1
10
8.18865735276282
20
-7.80565268512264
30
0
41
1
10
8.3045252675678
20
-7.64199389030062
30
0
41
1
10
8.39641094884296
20
-7.56467770031466
30
0
41
1
10
8.48134844346409
20
-7.5334113755629
30
0
41
1
10
8.52406944833502
20
-7.52978436584911
30
0
41
1
10
8.53867513459475
20
-7.52966679426474
30
0
0
SPLINE
5
F0
100
AcDbEntity
8
1
62
256
6
ByLayer
370
18
48
1
60
0
100
AcDbSpline
70
4
71
3
72
12
73
8
40
0
40
0
40
0
40
0
40
0.111858040727073
40
0.249615564081475
40
0.466512325295235
40
0.883363308578672
40
1
40
1
40
1
40
1
41
1
10
8.53867513459482
20
-23.8391299750503
30
0
41
1
10
8.50979752285304
20
-23.8388589976898
30
0
41
1
10
8.44879505845288
20
-23.8357352266636
30
0
41
1
10
8.34677363813176
20
-23.8170102166354
30
0
41
1
10
8.22178243916246
20
-23.7714946431978
30
0
41
1
10
8.14922779702435
20
-23.7164634042069
30
0
41
1
10
8.1126434084973
20
-23.6756140303039
30
0
41
1
10
8.10566243270244
20
-23.6665017920809
30
0
0
SPLINE
5
F1
100
AcDbEntity
8
SK1
62
256
6
ByLayer
370
18
48
1
60
0
100
AcDbSpline
70
4
71
3
72
17
73
13
40
0
40
0
40
0
40
0
40
0.129370912103392
40
0.161372773538205
40
0.19372682331291
40
0.211711561197483
40
0.229736208407121
40
0.25301767842785
40
0.293608414908001
40
0.419265595809233
40
0.708969528885792
40
1
40
1
40
1
40
1
41
1
10
-0.194976888869529
20
5.1012534531933
30
0
41
1
10
-0.183219625916483
20
5.07120426726469
30
0
41
1
10
-0.162390524910965
20
5.04107223907578
30
0
41
1
10
-0.13011101705998
20
5.01243092309996
30
0
41
1
10
-0.113155423190481
20
5.00509307846737
30
0
41
1
10
-0.0975701196438099
20
5.00610079648087
30
0
41
1
10
-0.0846174580070913
20
5.01239379007438
30
0
41
1
10
-0.0698020180416706
20
5.02721710860271
30
0
41
1
10
-0.0458259794040509
20
5.07069389336917
30
0
41
1
10
-0.0183770255553816
20
5.18636834571089
30
0
41
1
10
-0.0014413681688235
20
5.36390309927656
30
0
41
1
10
0.0022938188039536
20
5.50769526896502
30
0
41
1
10
-3.03E-14
20
5.57923236301404
30
0
0
SPLINE
5
F2
100
AcDbEntity
8
SK1
62
256
6
ByLayer
370
18
48
1
60
0
100
AcDbSpline
70
4
71
3
72
18
73
14
40
0
40
0
40
0
40
0
40
0.51561148367077
40
0.606510907428409
40
0.693265321606047
40
0.726532304130149
40
0.760070668004555
40
0.77883937466126
40
0.797715271312285
40
0.815112837074545
40
0.845476603007412
40
0.922248768040462
40
1
40
1
40
1
40
1
41
1
10
8E-16
20
-5.57923036606767
30
0
41
1
10
0.0069355605930138
20
-5.45145300375905
30
0
41
1
10
-0.00283366100679
20
-5.30029554557322
30
0
41
1
10
-0.0324270977886013
20
-5.12589476460442
30
0
41
1
10
-0.0469547088853659
20
-5.07301429964298
30
0
41
1
10
-0.0638796745902966
20
-5.03696291616062
30
0
41
1
10
-0.0769595507712005
20
-5.01879344864655
30
0
41
1
10
-0.0913435766460493
20
-5.00838711478585
30
0
41
1
10
-0.103898239085671
20
-5.00506725881663
30
0
41
1
10
-0.118635156888551
20
-5.00693088781317
30
0
41
1
10
-0.142826495355396
20
-5.02036432159242
30
0
41
1
10
-0.169052332462003
20
-5.05411726777314
30
0
41
1
10
-0.18735844710042
20
-5.08431871683355
30
0
41
1
10
-0.194976888875456
20
-5.10125086895358
30
0
0
SPLINE
5
F3
100
AcDbEntity
8
SK1
62
256
6
ByLayer
370
18
48
1
60
0
100
AcDbSpline
70
4
71
3
72
18
73
14
40
0
40
0
40
0
40
0
40
0.0867859088116302
40
0.174388230920726
40
0.204391489438848
40
0.234671967487148
40
0.261445125233833
40
0.297643777124927
40
0.363600770559204
40
0.470801777334289
40
0.578521326755875
40
0.78914730520459
40
1
40
1
40
1
40
1
41
1
10
-0.194976888875294
20
-5.10125086895553
30
0
41
1
10
-0.221878345272021
20
-5.16279248735196
30
0
41
1
10
-0.292002752064251
20
-5.2744394526523
30
0
41
1
10
-0.397923044699514
20
-5.39867139422107
30
0
41
1
10
-0.50673425470775
20
-5.45369824756887
30
0
41
1
10
-0.580832647301746
20
-5.465373038164
30
0
41
1
10
-0.659464906909569
20
-5.45016266314567
30
0
41
1
10
-0.753549961975803
20
-5.39783335120493
30
0
41
1
10
-0.867975744858214
20
-5.27541375293587
30
0
41
1
10
-0.979424531976091
20
-5.08791011466066
30
0
41
1
10
-1.10321158466255
20
-4.78542505141109
30
0
41
1
10
-1.21974815506088
20
-4.39418134204452
30
0
41
1
10
-1.28840714285459
20
-4.07352225908784
30
0
41
1
10
-1.31543506509547
20
-3.91026939581312
30
0
0
SPLINE
5
F4
100
AcDbEntity
8
SK1
62
256
6
ByLayer
370
18
48
1
60
0
100
AcDbSpline
70
4
71
3
72
18
73
14
40
0
40
0
40
0
40
0
40
0.290028556667413
40
0.43822854043342
40
0.585914467467193
40
0.660011386656571
40
0.711459327226609
40
0.742523658862869
40
0.768661978383118
40
0.794825512308812
40
0.830632631424497
40
0.89532463886042
40
1
40
1
40
1
40
1
41
1
10
-1.31543506509497
20
3.91027172665448
30
0
41
1
10
-1.27831462935219
20
4.13520612454473
30
0
41
1
10
-1.20043175605492
20
4.4665608828604
30
0
41
1
10
-1.06545246966133
20
4.89629725804771
30
0
41
1
10
-0.944829963032174
20
5.15538116405762
30
0
41
1
10
-0.821911731500873
20
5.32998519293708
30
0
41
1
10
-0.727830289462249
20
5.41484436947945
30
0
41
1
10
-0.64569115750135
20
5.45425148201705
30
0
41
1
10
-0.574713313233457
20
5.46468268235862
30
0
41
1
10
-0.500539379347287
20
5.45184544398555
30
0
41
1
10
-0.408083717975166
20
5.40259983893205
30
0
41
1
10
-0.297157983214825
20
5.28403205813636
30
0
41
1
10
-0.226849889315836
20
5.17627801963447
30
0
41
1
10
-0.194976888875292
20
5.10125345321177
30
0
0
SPLINE
5
F5
100
AcDbEntity
8
SK1
62
256
6
ByLayer
370
18
48
1
60
0
100
AcDbSpline
70
4
71
2
72
6
73
3
40
0
40
0
40
0
40
1
40
1
40
1
41
1
10
-28.5
20
-16.8545212066649
30
0
41
1
10
-15.2499999987993
20
-17.1871851888411
30
0
41
1
10
-2
20
-17.5198482068775
30
0
0
SPLINE
5
F6
100
AcDbEntity
8
SK1
62
256
6
ByLayer
370
18
48
1
60
0
100
AcDbSpline
70
4
71
2
72
6
73
3
40
0
40
0
40
0
40
1
40
1
40
1
41
1
10
-2
20
17.5198479235724
30
0
41
1
10
-15.2499999987995
20
17.1871849060498
30
0
41
1
10
-28.5
20
16.8545209244112
30
0
0
SPLINE
5
F7
100
AcDbEntity
8
1
62
256
6
ByLayer
370
18
48
1
60
0
100
AcDbSpline
70
4
71
3
72
13
73
9
40
0
40
0
40
0
40
0
40
0.239409099367219
40
0.368297400752128
40
0.499931438691505
40
0.631576866358086
40
0.760496583550971
40
1
40
1
40
1
40
1
41
1
10
-2
20
-17.525129116923
30
0
41
1
10
-1.999091257198
20
-17.4990813944884
30
0
41
1
10
-1.99103211472606
20
-17.4617233046648
30
0
41
1
10
-1.96563495891919
20
-17.4155240253433
30
0
41
1
10
-1.93886250822575
20
-17.3842556209573
30
0
41
1
10
-1.90627575278675
20
-17.3590990612904
30
0
41
1
10
-1.85883875467889
20
-17.3360651360603
30
0
41
1
10
-1.82110932008981
20
-17.3298953840654
30
0
41
1
10
-1.7950399779393
20
-17.3302974649007
30
0
0
SPLINE
5
F8
100
AcDbEntity
8
SK1
62
256
6
ByLayer
370
18
48
1
60
0
100
AcDbSpline
70
4
71
3
72
13
73
9
40
0
40
0
40
0
40
0
40
0.255664312558838
40
0.393283104703427
40
0.533811529302258
40
0.674327795722627
40
0.811913052470495
40
1
40
1
40
1
40
1
41
1
10
-1.7950399779393
20
17.3302973195575
30
0
41
1
10
-1.82110932009615
20
17.3298952387249
30
0
41
1
10
-1.85883863471188
20
17.336064693352
30
0
41
1
10
-1.90627597098526
20
17.3590994568546
30
0
41
1
10
-1.93886166140052
20
17.3842533767782
30
0
41
1
10
-1.96563809251062
20
17.4155316473379
30
0
41
1
10
-1.98780770297255
20
17.455849018032
30
0
41
1
10
-1.99605051841839
20
17.4864531869698
30
0
41
1
10
-1.99849243767098
20
17.505144640418
30
0
0
SPLINE
5
F9
100
AcDbEntity
8
SK1
62
256
6
ByLayer
370
18
48
1
60
0
100
AcDbSpline
70
4
71
1
72
4
73
2
40
0
40
0
40
1
40
1
41
1
10
-1.99849243767098
20
17.505144640418
30
0
41
1
10
-2
20
17.5251289721744
30
0
0
SPLINE
5
FA
100
AcDbEntity
8
1
62
256
6
ByLayer
370
18
48
1
60
0
100
AcDbSpline
70
4
71
2
72
6
73
3
40
0
40
0
40
0
40
1
40
1
40
1
41
1
10
-1.7950399779393
20
-17.3250646819564
30
0
41
1
10
-0.99500843340304
20
-17.3451508243471
30
0
41
1
10
-0.194976888875294
20
-17.3652369633
30
0
0
SPLINE
5
FB
100
AcDbEntity
8
SK1
62
256
6
ByLayer
370
18
48
1
60
0
100
AcDbSpline
70
4
71
2
72
6
73
3
40
0
40
0
40
0
40
1
40
1
40
1
41
1
10
-0.194976888875294
20
17.3652366802367
30
0
41
1
10
-0.995008433403041
20
17.3451505413152
30
0
41
1
10
-1.7950399779393
20
17.3250643989562
30
0
0
SPLINE
5
FC
100
AcDbEntity
8
SK1
62
256
6
ByLayer
370
18
48
1
60
0
100
AcDbSpline
70
4
71
3
72
17
73
13
40
0
40
0
40
0
40
0
40
0.0991066914865289
40
0.198192594110715
40
0.299572892017751
40
0.400912257008722
40
0.500457652743416
40
0.600003201073917
40
0.703883387668573
40
0.807808442102323
40
0.903895162368108
40
1
40
1
40
1
40
1
41
1
10
-1.31543506509497
20
-3.91026939581307
30
0
41
1
10
-1.36028224669224
20
-3.66591237550812
30
0
41
1
10
-1.44441779668686
20
-3.17116817263615
30
0
41
1
10
-1.55780793439526
20
-2.40463952292462
30
0
41
1
10
-1.64885235851602
20
-1.61433533993529
30
0
41
1
10
-1.70939050306724
20
-0.807493432008576
30
0
41
1
10
-1.72959530003107
20
0.003709439714251
30
0
41
1
10
-1.70883262403853
20
0.821723015145947
30
0
41
1
10
-1.64644433354019
20
1.64191501898718
30
0
41
1
10
-1.55345884751513
20
2.43690391310084
30
0
41
1
10
-1.44061841886797
20
3.19373322287961
30
0
41
1
10
-1.35888052438919
20
3.67332000097435
30
0
41
1
10
-1.31543506509497
20
3.9102717266545
30
0
0
SPLINE
5
FD
100
AcDbEntity
8
SK1
62
256
6
ByLayer
370
18
48
1
60
0
100
AcDbSpline
70
4
71
2
72
6
73
3
40
0
40
0
40
0
40
1
40
1
40
1
41
1
10
-30
20
-15.9932495545753
30
0
41
1
10
-29.2499990770552
20
-16.4260289695447
30
0
41
1
10
-28.5
20
-16.8588008432385
30
0
0
SPLINE
5
FE
100
AcDbEntity
8
SK1
62
256
6
ByLayer
370
18
48
1
60
0
100
AcDbSpline
70
4
71
1
72
4
73
2
40
0
40
0
40
1
40
1
41
1
10
-28.5
20
16.8588006436881
30
0
41
1
10
-28.5182632749506
20
16.8482621885213
30
0
0
SPLINE
5
FF
100
AcDbEntity
8
SK1
62
256
6
ByLayer
370
18
48
1
60
0
100
AcDbSpline
70
4
71
2
72
6
73
3
40
0
40
0
40
0
40
1
40
1
40
1
41
1
10
-28.5182632749506
20
16.8482621885213
30
0
41
1
10
-29.2591307368908
20
16.4207594505486
30
0
41
1
10
-30
20
15.9932493559076
30
0
0
SPLINE
5
100
100
AcDbEntity
8
1
62
256
6
ByLayer
370
18
48
1
60
0
100
AcDbSpline
70
4
71
3
72
17
73
13
40
0
40
0
40
0
40
0
40
0.0657405250603847
40
0.0931315984043509
40
0.105639316664916
40
0.1182898497503
40
0.132330539139421
40
0.149102116192495
40
0.195229911633983
40
0.352416534370853
40
0.681552097441083
40
1
40
1
40
1
40
1
41
1
10
-0.194976888875294
20
-17.3704796738454
30
0
41
1
10
-0.1849261143373
20
-17.3701675468223
30
0
41
1
10
-0.167892865658458
20
-17.3722898591775
30
0
41
1
10
-0.144673929028374
20
-17.3779439318181
30
0
41
1
10
-0.131737224448352
20
-17.3822681291166
30
0
41
1
10
-0.122235622319886
20
-17.3859937717031
30
0
41
1
10
-0.112945867334012
20
-17.3902057898516
30
0
41
1
10
-0.0996054288583595
20
-17.3971073459553
30
0
41
1
10
-0.0745980169567639
20
-17.4131359529547
30
0
41
1
10
-0.0465484577184687
20
-17.4393867676832
30
0
41
1
10
-0.0231681414271443
20
-17.4710118280524
30
0
41
1
10
-0.0118381604293063
20
-17.4913926231672
30
0
41
1
10
-0.0091268142657861
20
-17.4998993790085
30
0
0
SPLINE
5
101
100
AcDbEntity
8
SK1
62
256
6
ByLayer
370
18
48
1
60
0
100
AcDbSpline
70
4
71
3
72
20
73
16
40
0
40
0
40
0
40
0
40
0.249814146887038
40
0.526503846245807
40
0.686697029492549
40
0.728728501849301
40
0.742686125913142
40
0.748433515901957
40
0.753650984965101
40
0.758614572191079
40
0.763605266474408
40
0.774533387170725
40
0.803360483171436
40
0.890097715918538
40
1
40
1
40
1
40
1
41
1
10
-0.0055290424768792
20
17.5155581838581
30
0
41
1
10
-0.0069434837188818
20
17.5104812929902
30
0
41
1
10
-0.0130634616924923
20
17.4960371607014
30
0
41
1
10
-0.0261500861196283
20
17.4703890738096
30
0
41
1
10
-0.0441505822817321
20
17.4427102550032
30
0
41
1
10
-0.0662518526839019
20
17.4202643041788
30
0
41
1
10
-0.0776080382138346
20
17.4109258542121
30
0
41
1
10
-0.0834912354402317
20
17.4065442098928
30
0
41
1
10
-0.0877257454814923
20
17.4035721294878
30
0
41
1
10
-0.0920441584208011
20
17.4007204601046
30
0
41
1
10
-0.0980292419790879
20
17.3970060721714
30
0
41
1
10
-0.109927005295205
20
17.3903589926141
30
0
41
1
10
-0.134486640869433
20
17.3796505264795
30
0
41
1
10
-0.162355119989472
20
17.3731655742944
30
0
41
1
10
-0.184964907174978
20
17.3699554274787
30
0
41
1
10
-0.194976888875294
20
17.3704795286247
30
0
0
SPLINE
5
102
100
AcDbEntity
8
1
62
256
6
ByLayer
370
18
48
1
60
0
100
AcDbSpline
70
4
71
3
72
12
73
8
40
0
40
0
40
0
40
0
40
0.161041411172444
40
0.378077417277444
40
0.594336089218298
40
0.809144954305159
40
1
40
1
40
1
40
1
41
1
10
178
20
12.2081939696255
30
0
41
1
10
178.000072883785
20
12.2254826724895
30
0
41
1
10
178.004905478706
20
12.2644874705019
30
0
41
1
10
178.030774997812
20
12.3228036501493
30
0
41
1
10
178.078157106318
20
12.3728931578656
30
0
41
1
10
178.137672606473
20
12.4032634191512
30
0
41
1
10
178.179329921607
20
12.4095223707118
30
0
41
1
10
178.2
20
12.4096736459909
30
0
0
SPLINE
5
103
100
AcDbEntity
8
1
62
256
6
ByLayer
370
18
48
1
60
0
100
AcDbSpline
70
4
71
3
72
13
73
9
40
0
40
0
40
0
40
0
40
0.139344704209809
40
0.270121078087866
40
0.484185705642442
40
0.698205281888945
40
0.913344316749209
40
1
40
1
40
1
40
1
41
1
10
178.2
20
-12.4096736459938
30
0
41
1
10
178.185148869071
20
-12.4096342929657
30
0
41
1
10
178.157118686187
20
-12.4065370094304
30
0
41
1
10
178.108605844172
20
-12.3902688738491
30
0
41
1
10
178.059254855499
20
-12.3566911572723
30
0
41
1
10
178.018459864189
20
-12.3015865017274
30
0
41
1
10
178.002098340451
20
-12.2487755492514
30
0
41
1
10
178.000008885495
20
-12.2173607818455
30
0
41
1
10
177.999999999988
20
-12.208193969627
30
0
0
SPLINE
5
104
100
AcDbEntity
8
1
62
256
6
ByLayer
370
18
48
1
60
0
100
AcDbSpline
70
4
71
1
72
4
73
2
40
0
40
0
40
1
40
1
41
1
10
179.891512701874
20
12.0363807731143
30
0
41
1
10
179.521
20
12.4096736459909
30
0
0
SPLINE
5
105
100
AcDbEntity
8
1
62
256
6
ByLayer
370
18
48
1
60
0
100
AcDbSpline
70
4
71
1
72
4
73
2
40
0
40
0
40
1
40
1
41
1
10
180.271
20
11.6235624996115
30
0
41
1
10
179.891512701874
20
12.0363807731143
30
0
0
SPLINE
5
106
100
AcDbEntity
8
1
62
256
6
ByLayer
370
18
48
1
60
0
100
AcDbSpline
70
4
71
1
72
4
73
2
40
0
40
0
40
1
40
1
41
1
10
179.73225
20
12.0635253991507
30
0
41
1
10
180.271
20
11.5731557228463
30
0
0
SPLINE
5
107
100
AcDbEntity
8
1
62
256
6
ByLayer
370
18
48
1
60
0
100
AcDbSpline
70
4
71
3
72
11
73
7
40
0
40
0
40
0
40
0
40
0.333087953316347
40
0.644813062810282
40
0.882871267765035
40
1
40
1
40
1
40
1
41
1
10
179.73225
20
11.9978393343988
30
0
41
1
10
179.715897099759
20
12.0165880876396
30
0
41
1
10
179.687920771365
20
12.0502576314821
30
0
41
1
10
179.65664016433
20
12.0921054132819
30
0
41
1
10
179.642933659516
20
12.1156284907934
30
0
41
1
10
179.641099965024
20
12.1229478471312
30
0
41
1
10
179.641000150798
20
12.1249009548997
30
0
0
SPLINE
5
108
100
AcDbEntity
8
1
62
256
6
ByLayer
370
18
48
1
60
0
100
AcDbSpline
70
4
71
1
72
4
73
2
40
0
40
0
40
1
40
1
41
1
10
180.271
20
11.3686834087366
30
0
41
1
10
179.73225
20
11.9978393343988
30
0
0
SPLINE
5
109
100
AcDbEntity
8
1
62
256
6
ByLayer
370
18
48
1
60
0
100
AcDbSpline
70
4
71
1
72
4
73
2
40
0
40
0
40
1
40
1
41
1
10
179.73225
20
11.7520750995911
30
0
41
1
10
180.271
20
11.282649339563
30
0
0
SPLINE
5
10A
100
AcDbEntity
8
1
62
256
6
ByLayer
370
18
48
1
60
0
100
AcDbSpline
70
4
71
3
72
11
73
7
40
0
40
0
40
0
40
0
40
0.442944605750165
40
0.73405779805611
40
0.961334347078451
40
1
40
1
40
1
40
1
41
1
10
179.73225
20
11.6507735624537
30
0
41
1
10
179.709952755052
20
11.6783205754549
30
0
41
1
10
179.679343684123
20
11.7199159520568
30
0
41
1
10
179.64958255934
20
11.7690068420046
30
0
41
1
10
179.641519733339
20
11.7903216832456
30
0
41
1
10
179.641013824334
20
11.7973188971531
30
0
41
1
10
179.641000283227
20
11.7982829874517
30
0
0
SPLINE
5
10B
100
AcDbEntity
8
1
62
256
6
ByLayer
370
18
48
1
60
0
100
AcDbSpline
70
4
71
1
72
4
73
2
40
0
40
0
40
1
40
1
41
1
10
180.271
20
10.9663904596632
30
0
41
1
10
179.73225
20
11.6507735624537
30
0
0
SPLINE
5
10C
100
AcDbEntity
8
1
62
256
6
ByLayer
370
18
48
1
60
0
100
AcDbSpline
70
4
71
1
72
4
73
2
40
0
40
0
40
1
40
1
41
1
10
179.73225
20
11.2946400224578
30
0
41
1
10
180.271
20
10.8412830815283
30
0
0
SPLINE
5
10D
100
AcDbEntity
8
1
62
256
6
ByLayer
370
18
48
1
60
0
100
AcDbSpline
70
4
71
3
72
11
73
7
40
0
40
0
40
0
40
0
40
0.480609355804168
40
0.770968203727955
40
0.996743393635325
40
1
40
1
40
1
40
1
41
1
10
179.73225
20
11.1538289619795
30
0
41
1
10
179.707756501219
20
11.1868640022235
30
0
41
1
10
179.676074980673
20
11.2356212246285
30
0
41
1
10
179.647127234277
20
11.2935532216922
30
0
41
1
10
179.641040607639
20
11.3172665208872
30
0
41
1
10
179.641000135914
20
11.3252530445039
30
0
41
1
10
179.641000006299
20
11.3253662263497
30
0
0
SPLINE
5
10E
100
AcDbEntity
8
1
62
256
6
ByLayer
370
18
48
1
60
0
100
AcDbSpline
70
4
71
1
72
4
73
2
40
0
40
0
40
1
40
1
41
1
10
180.271
20
10.3995902313265
30
0
41
1
10
179.73225
20
11.1538289619795
30
0
0
SPLINE
5
10F
100
AcDbEntity
8
1
62
256
6
ByLayer
370
18
48
1
60
0
100
AcDbSpline
70
4
71
1
72
4
73
2
40
0
40
0
40
1
40
1
41
1
10
179.73225
20
10.672465381878
30
0
41
1
10
180.271
20
10.2295484547522
30
0
0
SPLINE
5
110
100
AcDbEntity
8
1
62
256
6
ByLayer
370
18
48
1
60
0
100
AcDbSpline
70
4
71
3
72
10
73
6
40
0
40
0
40
0
40
0
40
0.52691746595694
40
0.808564407964001
40
1
40
1
40
1
40
1
41
1
10
179.73225
20
10.4857177352157
30
0
41
1
10
179.705076955431
20
10.5263368124714
30
0
41
1
10
179.672737278581
20
10.5839549418005
30
0
41
1
10
179.645469848686
20
10.6514284861078
30
0
41
1
10
179.641483416014
20
10.6767751808335
30
0
41
1
10
179.641000443446
20
10.6862930857991
30
0
0
SPLINE
5
111
100
AcDbEntity
8
1
62
256
6
ByLayer
370
18
48
1
60
0
100
AcDbSpline
70
4
71
1
72
4
73
2
40
0
40
0
40
1
40
1
41
1
10
180.271
20
9.63930673052837
30
0
41
1
10
179.73225
20
10.4857177352157
30
0
0
SPLINE
5
112
100
AcDbEntity
8
1
62
256
6
ByLayer
370
18
48
1
60
0
100
AcDbSpline
70
4
71
1
72
4
73
2
40
0
40
0
40
1
40
1
41
1
10
179.73225
20
9.85439706008743
30
0
41
1
10
180.271
20
9.41429255559945
30
0
0
SPLINE
5
113
100
AcDbEntity
8
1
62
256
6
ByLayer
370
18
48
1
60
0
100
AcDbSpline
70
4
71
3
72
10
73
6
40
0
40
0
40
0
40
0
40
0.545679595672333
40
0.822040952922
40
1
40
1
40
1
40
1
41
1
10
179.73225
20
9.61080914034506
30
0
41
1
10
179.704102118531
20
9.65864874010422
30
0
41
1
10
179.671578235156
20
9.72653713101796
30
0
41
1
10
179.645330471689
20
9.80611535457747
30
0
41
1
10
179.641527699899
20
9.83687106211837
30
0
41
1
10
179.641007037684
20
9.84835937641311
30
0
0
SPLINE
5
114
100
AcDbEntity
8
1
62
256
6
ByLayer
370
18
48
1
60
0
100
AcDbSpline
70
4
71
1
72
4
73
2
40
0
40
0
40
1
40
1
41
1
10
180.271
20
8.63458114276067
30
0
41
1
10
179.73225
20
9.61080914034506
30
0
0
SPLINE
5
115
100
AcDbEntity
8
1
62
256
6
ByLayer
370
18
48
1
60
0
100
AcDbSpline
70
4
71
1
72
4
73
2
40
0
40
0
40
1
40
1
41
1
10
179.73225
20
8.78588444656179
30
0
41
1
10
180.271
20
8.33601505857005
30
0
0
SPLINE
5
116
100
AcDbEntity
8
1
62
256
6
ByLayer
370
18
48
1
60
0
100
AcDbSpline
70
4
71
3
72
10
73
6
40
0
40
0
40
0
40
0
40
0.64574155255498
40
0.977472555209763
40
1
40
1
40
1
40
1
41
1
10
179.73225
20
8.46522464212637
30
0
41
1
10
179.697315858198
20
8.53382923621456
30
0
41
1
10
179.661112963557
20
8.63044234160284
30
0
41
1
10
179.641463524553
20
8.72628753385645
30
0
41
1
10
179.641011251805
20
8.75569705641509
30
0
41
1
10
179.641000449002
20
8.75755697857318
30
0
0
SPLINE
5
117
100
AcDbEntity
8
1
62
256
6
ByLayer
370
18
48
1
60
0
100
AcDbSpline
70
4
71
1
72
4
73
2
40
0
40
0
40
1
40
1
41
1
10
180.271
20
7.28496731472603
30
0
41
1
10
179.73225
20
8.46522464212637
30
0
0
SPLINE
5
118
100
AcDbEntity
8
1
62
256
6
ByLayer
370
18
48
1
60
0
100
AcDbSpline
70
4
71
1
72
4
73
2
40
0
40
0
40
1
40
1
41
1
10
179.73225
20
7.35862688270121
30
0
41
1
10
180.271
20
6.87200042134735
30
0
0
SPLINE
5
119
100
AcDbEntity
8
1
62
256
6
ByLayer
370
18
48
1
60
0
100
AcDbSpline
70
4
71
2
72
6
73
3
40
0
40
0
40
0
40
1
40
1
40
1
41
1
10
179.73225
20
6.91573598044249
30
0
41
1
10
179.647341250578
20
7.12057655727495
30
0
41
1
10
179.64100051912
20
7.29764901403886
30
0
0
SPLINE
5
11A
100
AcDbEntity
8
1
62
256
6
ByLayer
370
18
48
1
60
0
100
AcDbSpline
70
4
71
1
72
4
73
2
40
0
40
0
40
1
40
1
41
1
10
180.271
20
5.3348388956308
30
0
41
1
10
179.73225
20
6.91573598044249
30
0
0
SPLINE
5
11B
100
AcDbEntity
8
1
62
256
6
ByLayer
370
18
48
1
60
0
100
AcDbSpline
70
4
71
1
72
4
73
2
40
0
40
0
40
1
40
1
41
1
10
179.73225
20
5.28980280249555
30
0
41
1
10
180.271
20
4.67275427615122
30
0
0
SPLINE
5
11C
100
AcDbEntity
8
1
62
256
6
ByLayer
370
18
48
1
60
0
100
AcDbSpline
70
4
71
3
72
10
73
6
40
0
40
0
40
0
40
0
40
0.525934623504242
40
0.824622818104749
40
1
40
1
40
1
40
1
41
1
10
179.73225
20
4.5683454401687
30
0
41
1
10
179.706220797638
20
4.67396709893657
30
0
41
1
10
179.674366906058
20
4.83778484638592
30
0
41
1
10
179.644503167958
20
5.03646938686783
30
0
41
1
10
179.641208193085
20
5.12715336956574
30
0
41
1
10
179.641027593363
20
5.16040734629456
30
0
0
SPLINE
5
11D
100
AcDbEntity
8
1
62
256
6
ByLayer
370
18
48
1
60
0
100
AcDbSpline
70
4
71
3
72
11
73
7
40
0
40
0
40
0
40
0
40
0.248446567394347
40
0.496900742500828
40
0.748443959932928
40
1
40
1
40
1
40
1
41
1
10
180.271
20
0.851623924067277
30
0
41
1
10
180.256450868135
20
1.16422594794381
30
0
41
1
10
180.212143149793
20
1.78734756068547
30
0
41
1
10
180.098964335469
20
2.72083609264109
30
0
41
1
10
179.940282958595
20
3.64934993872742
30
0
41
1
10
179.806358705741
20
4.26319663066539
30
0
41
1
10
179.73225
20
4.5683454401687
30
0
0
SPLINE
5
11E
100
AcDbEntity
8
1
62
256
6
ByLayer
370
18
48
1
60
0
100
AcDbSpline
70
4
71
3
72
11
73
7
40
0
40
0
40
0
40
0
40
0.248526186175637
40
0.497040139624488
40
0.748524082917505
40
1
40
1
40
1
40
1
41
1
10
179.73225
20
-4.5683454401687
30
0
41
1
10
179.805459341296
20
-4.26687842228724
30
0
41
1
10
179.937939171842
20
-3.66046917564503
30
0
41
1
10
180.09675258107
20
-2.73589430605019
30
0
41
1
10
180.211230276758
20
-1.79874365424312
30
0
41
1
10
180.256267691987
20
-1.16804616795774
30
0
41
1
10
180.271
20
-0.851623924067277
30
0
0
SPLINE
5
11F
100
AcDbEntity
8
1
62
256
6
ByLayer
370
18
48
1
60
0
100
AcDbSpline
70
4
71
3
72
14
73
10
40
0
40
0
40
0
40
0
40
0.109342584805097
40
0.182599253080307
40
0.256361666700847
40
0.323283419577461
40
0.426821569309556
40
0.620067492932248
40
1
40
1
40
1
40
1
41
1
10
179.732250000024
20
-5.28980280247635
30
0
41
1
10
179.725687804626
20
-5.297560282759
30
0
41
1
10
179.714353399258
20
-5.30777349770063
30
0
41
1
10
179.696968508131
20
-5.31729474570022
30
0
41
1
10
179.682858246388
20
-5.31822483399799
30
0
41
1
10
179.669531938377
20
-5.31136225733769
30
0
41
1
10
179.655485794365
20
-5.29135768964446
30
0
41
1
10
179.642912628438
20
-5.24024681003284
30
0
41
1
10
179.638980621897
20
-5.19359825871477
30
0
41
1
10
179.641039150681
20
-5.15905671087024
30
0
0
SPLINE
5
120
100
AcDbEntity
8
1
62
256
6
ByLayer
370
18
48
1
60
0
100
AcDbSpline
70
4
71
1
72
4
73
2
40
0
40
0
40
1
40
1
41
1
10
180.271
20
-4.67275427615122
30
0
41
1
10
179.73225
20
-5.28980280249553
30
0
0
SPLINE
5
121
100
AcDbEntity
8
1
62
256
6
ByLayer
370
18
48
1
60
0
100
AcDbSpline
70
4
71
1
72
4
73
2
40
0
40
0
40
1
40
1
41
1
10
179.73225
20
-6.91573598044248
30
0
41
1
10
180.271
20
-5.3348388956308
30
0
0
SPLINE
5
122
100
AcDbEntity
8
1
62
256
6
ByLayer
370
18
48
1
60
0
100
AcDbSpline
70
4
71
3
72
14
73
10
40
0
40
0
40
0
40
0
40
0.0907799683165004
40
0.242088607027761
40
0.355695581184206
40
0.469180356968472
40
0.632539634262437
40
0.912014528228864
40
1
40
1
40
1
40
1
41
1
10
179.732250000006
20
-7.35862688269814
30
0
41
1
10
179.727395342641
20
-7.36309200926983
30
0
41
1
10
179.71446466206
20
-7.37348895244816
30
0
41
1
10
179.694483105227
20
-7.38461738912768
30
0
41
1
10
179.675240870768
20
-7.38626791884762
30
0
41
1
10
179.659631515193
20
-7.37846582208443
30
0
41
1
10
179.645717173161
20
-7.35534584137324
30
0
41
1
10
179.641483505943
20
-7.32455555062664
30
0
41
1
10
179.640930912185
20
-7.3020073690269
30
0
41
1
10
179.641004696959
20
-7.29644401145868
30
0
0
SPLINE
5
123
100
AcDbEntity
8
1
62
256
6
ByLayer
370
18
48
1
60
0
100
AcDbSpline
70
4
71
1
72
4
73
2
40
0
40
0
40
1
40
1
41
1
10
180.271
20
-6.87200042134735
30
0
41
1
10
179.73225
20
-7.35862688270122
30
0
0
SPLINE
5
124
100
AcDbEntity
8
1
62
256
6
ByLayer
370
18
48
1
60
0
100
AcDbSpline
70
4
71
1
72
4
73
2
40
0
40
0
40
1
40
1
41
1
10
179.73225
20
-8.46522464212636
30
0
41
1
10
180.271
20
-7.28496731472603
30
0
0
SPLINE
5
125
100
AcDbEntity
8
1
62
256
6
ByLayer
370
18
48
1
60
0
100
AcDbSpline
70
4
71
3
72
13
73
9
40
0
40
0
40
0
40
0
40
0.130307103749853
40
0.323908710135237
40
0.494817830063478
40
0.639384076730634
40
0.866836580659606
40
1
40
1
40
1
40
1
41
1
10
179.732250000002
20
-8.78588444656102
30
0
41
1
10
179.725538358709
20
-8.79161630959275
30
0
41
1
10
179.709210578845
20
-8.80369891602728
30
0
41
1
10
179.683879739629
20
-8.81617024418503
30
0
41
1
10
179.662748752799
20
-8.81515089058576
30
0
41
1
10
179.647921319458
20
-8.80213138192733
30
0
41
1
10
179.64190188829
20
-8.78097308248885
30
0
41
1
10
179.640842118157
20
-8.76353317479932
30
0
41
1
10
179.641005277412
20
-8.75656778647347
30
0
0
SPLINE
5
126
100
AcDbEntity
8
1
62
256
6
ByLayer
370
18
48
1
60
0
100
AcDbSpline
70
4
71
1
72
4
73
2
40
0
40
0
40
1
40
1
41
1
10
180.271
20
-8.33601505857005
30
0
41
1
10
179.73225
20
-8.78588444656179
30
0
0
SPLINE
5
127
100
AcDbEntity
8
1
62
256
6
ByLayer
370
18
48
1
60
0
100
AcDbSpline
70
4
71
1
72
4
73
2
40
0
40
0
40
1
40
1
41
1
10
179.73225
20
-9.61080914034506
30
0
41
1
10
180.271
20
-8.63458114276067
30
0
0
SPLINE
5
128
100
AcDbEntity
8
1
62
256
6
ByLayer
370
18
48
1
60
0
100
AcDbSpline
70
4
71
3
72
13
73
9
40
0
40
0
40
0
40
0
40
0.167240470114993
40
0.362015125418137
40
0.55809214219813
40
0.727011612384616
40
0.966209183304107
40
1
40
1
40
1
40
1
41
1
10
179.732250000001
20
-9.85439706008715
30
0
41
1
10
179.723889335677
20
-9.86136274545269
30
0
41
1
10
179.706408324265
20
-9.87407950636638
30
0
41
1
10
179.68002421729
20
-9.88764270671052
30
0
41
1
10
179.658795135828
20
-9.88901189296133
30
0
41
1
10
179.6446930768
20
-9.87779025991198
30
0
41
1
10
179.641211388179
20
-9.8619635946508
30
0
41
1
10
179.640991603466
20
-9.85073318741977
30
0
41
1
10
179.641000369587
20
-9.84930867733357
30
0
0
SPLINE
5
129
100
AcDbEntity
8
1
62
256
6
ByLayer
370
18
48
1
60
0
100
AcDbSpline
70
4
71
1
72
4
73
2
40
0
40
0
40
1
40
1
41
1
10
180.271
20
-9.41429255559945
30
0
41
1
10
179.73225
20
-9.85439706008743
30
0
0
SPLINE
5
12A
100
AcDbEntity
8
1
62
256
6
ByLayer
370
18
48
1
60
0
100
AcDbSpline
70
4
71
1
72
4
73
2
40
0
40
0
40
1
40
1
41
1
10
179.73225
20
-10.4857177352157
30
0
41
1
10
180.271
20
-9.63930673052837
30
0
0
SPLINE
5
12B
100
AcDbEntity
8
1
62
256
6
ByLayer
370
18
48
1
60
0
100
AcDbSpline
70
4
71
3
72
12
73
8
40
0
40
0
40
0
40
0
40
0.200181900414721
40
0.414389023711294
40
0.630028444429585
40
0.81582021335514
40
1
40
1
40
1
40
1
41
1
10
179.73225
20
-10.6724653818778
30
0
41
1
10
179.722350770154
20
-10.6807412049953
30
0
41
1
10
179.70285888451
20
-10.6951744690972
30
0
41
1
10
179.67465213726
20
-10.7105743498161
30
0
41
1
10
179.653651694288
20
-10.7131954498675
30
0
41
1
10
179.642892486012
20
-10.7035659632027
30
0
41
1
10
179.640813208929
20
-10.6928448237194
30
0
41
1
10
179.641001095817
20
-10.6861577308969
30
0
0
SPLINE
5
12C
100
AcDbEntity
8
1
62
256
6
ByLayer
370
18
48
1
60
0
100
AcDbSpline
70
4
71
1
72
4
73
2
40
0
40
0
40
1
40
1
41
1
10
180.271
20
-10.2295484547522
30
0
41
1
10
179.73225
20
-10.672465381878
30
0
0
SPLINE
5
12D
100
AcDbEntity
8
1
62
256
6
ByLayer
370
18
48
1
60
0
100
AcDbSpline
70
4
71
1
72
4
73
2
40
0
40
0
40
1
40
1
41
1
10
179.73225
20
-11.1538289619795
30
0
41
1
10
180.271
20
-10.3995902313265
30
0
0
SPLINE
5
12E
100
AcDbEntity
8
1
62
256
6
ByLayer
370
18
48
1
60
0
100
AcDbSpline
70
4
71
3
72
12
73
8
40
0
40
0
40
0
40
0
40
0.231480102558271
40
0.462123651622615
40
0.694380869318146
40
0.893083043456554
40
1
40
1
40
1
40
1
41
1
10
179.73225
20
-11.2946400224578
30
0
41
1
10
179.720885070444
20
-11.3043276532536
30
0
41
1
10
179.699624154611
20
-11.3206922624265
30
0
41
1
10
179.670008557052
20
-11.3384806826822
30
0
41
1
10
179.649612503947
20
-11.3428461089969
30
0
41
1
10
179.64197820197
20
-11.3355180180312
30
0
41
1
10
179.640943894421
20
-11.328156115494
30
0
41
1
10
179.641000908894
20
-11.3251321151027
30
0
0
SPLINE
5
12F
100
AcDbEntity
8
1
62
256
6
ByLayer
370
18
48
1
60
0
100
AcDbSpline
70
4
71
1
72
4
73
2
40
0
40
0
40
1
40
1
41
1
10
180.271
20
-10.8412830815283
30
0
41
1
10
179.73225
20
-11.2946400224579
30
0
0
SPLINE
5
130
100
AcDbEntity
8
1
62
256
6
ByLayer
370
18
48
1
60
0
100
AcDbSpline
70
4
71
1
72
4
73
2
40
0
40
0
40
1
40
1
41
1
10
179.73225
20
-11.6507735624537
30
0
41
1
10
180.271
20
-10.9663904596632
30
0
0
SPLINE
5
131
100
AcDbEntity
8
1
62
256
6
ByLayer
370
18
48
1
60
0
100
AcDbSpline
70
4
71
3
72
12
73
8
40
0
40
0
40
0
40
0
40
0.261950786946835
40
0.506820095807947
40
0.753518780296052
40
0.962397106901309
40
1
40
1
40
1
40
1
41
1
10
179.73225
20
-11.7520750995911
30
0
41
1
10
179.719457057234
20
-11.7633166138184
30
0
41
1
10
179.696605576442
20
-11.7818651776419
30
0
41
1
10
179.665919907703
20
-11.802547568362
30
0
41
1
10
179.646386257931
20
-11.8091517857849
30
0
41
1
10
179.641309208964
20
-11.8038910801296
30
0
41
1
10
179.640994952719
20
-11.7991200467866
30
0
41
1
10
179.641000064647
20
-11.7983365902929
30
0
0
SPLINE
5
132
100
AcDbEntity
8
1
62
256
6
ByLayer
370
18
48
1
60
0
100
AcDbSpline
70
4
71
1
72
4
73
2
40
0
40
0
40
1
40
1
41
1
10
180.271
20
-11.282649339563
30
0
41
1
10
179.73225
20
-11.7520750995911
30
0
0
SPLINE
5
133
100
AcDbEntity
8
1
62
256
6
ByLayer
370
18
48
1
60
0
100
AcDbSpline
70
4
71
1
72
4
73
2
40
0
40
0
40
1
40
1
41
1
10
179.73225
20
-11.9978393343988
30
0
41
1
10
180.271
20
-11.3686834087366
30
0
0
SPLINE
5
134
100
AcDbEntity
8
1
62
256
6
ByLayer
370
18
48
1
60
0
100
AcDbSpline
70
4
71
3
72
12
73
8
40
0
40
0
40
0
40
0
40
0.29098332209725
40
0.547294733627074
40
0.762967008538286
40
0.979204130115368
40
1
40
1
40
1
40
1
41
1
10
179.73225
20
-12.0635253991507
30
0
41
1
10
179.718037755791
20
-12.0765081431125
30
0
41
1
10
179.693730705964
20
-12.0975441788766
30
0
41
1
10
179.663921863982
20
-12.1203534086869
30
0
41
1
10
179.645762867167
20
-12.1301210985049
30
0
41
1
10
179.641179049469
20
-12.1283485956463
30
0
41
1
10
179.640999091513
20
-12.1252304965168
30
0
41
1
10
179.641000006457
20
-12.1249394678571
30
0
0
SPLINE
5
135
100
AcDbEntity
8
1
62
256
6
ByLayer
370
18
48
1
60
0
100
AcDbSpline
70
4
71
1
72
4
73
2
40
0
40
0
40
1
40
1
41
1
10
180.271
20
-11.5731557228463
30
0
41
1
10
179.73225
20
-12.0635253991507
30
0
0
SPLINE
5
136
100
AcDbEntity
8
1
62
256
6
ByLayer
370
18
48
1
60
0
100
AcDbSpline
70
4
71
1
72
4
73
2
40
0
40
0
40
1
40
1
41
1
10
179.891512701892
20
-12.0363807730961
30
0
41
1
10
180.271
20
-11.6235624996115
30
0
0
SPLINE
5
137
100
AcDbEntity
8
1
62
256
6
ByLayer
370
18
48
1
60
0
100
AcDbSpline
70
4
71
1
72
4
73
2
40
0
40
0
40
1
40
1
41
1
10
179.521
20
-12.4096736459909
30
0
41
1
10
179.891512701892
20
-12.0363807730961
30
0
0
SPLINE
5
138
100
AcDbEntity
8
1
62
256
6
ByLayer
370
18
48
1
60
0
100
AcDbSpline
70
4
71
3
72
14
73
10
40
0
40
0
40
0
40
0
40
0.267120466906931
40
0.575029237593574
40
0.670372036100262
40
0.743598405040171
40
0.817203495589788
40
0.884392368803691
40
1
40
1
40
1
40
1
41
1
10
179.641027593363
20
5.16040734629456
30
0
41
1
10
179.640074209011
20
5.18399829609843
30
0
41
1
10
179.64280075747
20
5.23110439232336
30
0
41
1
10
179.65139092665
20
5.28535142767695
30
0
41
1
10
179.669601020314
20
5.31133846389615
30
0
41
1
10
179.682704964574
20
5.31829009007506
30
0
41
1
10
179.696754376304
20
5.31724730425011
30
0
41
1
10
179.71401352582
20
5.30807017581153
30
0
41
1
10
179.725334917773
20
5.29799592781705
30
0
41
1
10
179.73225
20
5.28980280249555
30
0
0
SPLINE
5
139
100
AcDbEntity
8
1
62
256
6
ByLayer
370
18
48
1
60
0
100
AcDbSpline
70
4
71
3
72
10
73
6
40
0
40
0
40
0
40
0
40
0.103288009068171
40
0.550967073567645
40
1
40
1
40
1
40
1
41
1
10
179.641039150681
20
-5.15905671087024
30
0
41
1
10
179.641432470523
20
-5.13946378441799
30
0
41
1
10
179.645099443266
20
-5.03450250879099
30
0
41
1
10
179.672470237674
20
-4.83600437177487
30
0
41
1
10
179.709256831476
20
-4.6582743889595
30
0
41
1
10
179.73225
20
-4.56834544016871
30
0
0
SPLINE
5
13A
100
AcDbEntity
8
1
62
256
6
ByLayer
370
18
48
1
60
0
100
AcDbSpline
70
4
71
3
72
14
73
10
40
0
40
0
40
0
40
0
40
0.0390141540525785
40
0.337072844639779
40
0.490534566057355
40
0.618613520646317
40
0.747478255881171
40
0.861074918597941
40
1
40
1
40
1
40
1
41
1
10
179.64100051912
20
7.29764901403886
30
0
41
1
10
179.640988669223
20
7.30008174002103
30
0
41
1
10
179.641216609858
20
7.3208430539651
30
0
41
1
10
179.64426479956
20
7.3497757916545
30
0
41
1
10
179.657011557995
20
7.3753623663644
30
0
41
1
10
179.671943896654
20
7.3858780725401
30
0
41
1
10
179.690336405742
20
7.38558726106177
30
0
41
1
10
179.711284997506
20
7.37572417469761
30
0
41
1
10
179.72477625305
20
7.36558081082204
30
0
41
1
10
179.73225
20
7.35862688270121
30
0
0
SPLINE
5
13B
100
AcDbEntity
8
1
62
256
6
ByLayer
370
18
48
1
60
0
100
AcDbSpline
70
4
71
2
72
6
73
3
40
0
40
0
40
0
40
1
40
1
40
1
41
1
10
179.641004696959
20
-7.29644401145868
30
0
41
1
10
179.649760437173
20
-7.11785984629923
30
0
41
1
10
179.73225
20
-6.91573598044247
30
0
0
SPLINE
5
13C
100
AcDbEntity
8
1
62
256
6
ByLayer
370
18
48
1
60
0
100
AcDbSpline
70
4
71
3
72
13
73
9
40
0
40
0
40
0
40
0
40
0.19740823835898
40
0.433517811964348
40
0.583072919887756
40
0.732915986575679
40
0.914100266742658
40
1
40
1
40
1
40
1
41
1
10
179.641000449002
20
8.75755697857318
30
0
41
1
10
179.640670355196
20
8.76802344691722
30
0
41
1
10
179.642840548213
20
8.78800347088268
30
0
41
1
10
179.652740403298
20
8.80952052104319
30
0
41
1
10
179.671174644796
20
8.81675099498914
30
0
41
1
10
179.693111653422
20
8.81252282735975
30
0
41
1
10
179.714483797195
20
8.79994491151436
30
0
41
1
10
179.727901031238
20
8.78956030944887
30
0
41
1
10
179.732250000033
20
8.78588444655162
30
0
0
SPLINE
5
13D
100
AcDbEntity
8
1
62
256
6
ByLayer
370
18
48
1
60
0
100
AcDbSpline
70
4
71
3
72
10
73
6
40
0
40
0
40
0
40
0
40
0.158074141884703
40
0.61872332098089
40
1
40
1
40
1
40
1
41
1
10
179.641005277412
20
-8.75656778647347
30
0
41
1
10
179.641509504892
20
-8.74313839359063
30
0
41
1
10
179.646174533825
20
-8.68935801067675
30
0
41
1
10
179.677340766494
20
-8.58857099215641
30
0
41
1
10
179.712930301786
20
-8.5044024755659
30
0
41
1
10
179.73225
20
-8.46522464212637
30
0
0
SPLINE
5
13E
100
AcDbEntity
8
1
62
256
6
ByLayer
370
18
48
1
60
0
100
AcDbSpline
70
4
71
3
72
10
73
6
40
0
40
0
40
0
40
0
40
0.23148709896509
40
0.670623613354769
40
1
40
1
40
1
40
1
41
1
10
179.641000369587
20
-9.84930867733357
30
0
41
1
10
179.641884898263
20
-9.83403972200337
30
0
41
1
10
179.648550907168
20
-9.78772811218212
30
0
41
1
10
179.682448406439
20
-9.70356230246133
30
0
41
1
10
179.715730844018
20
-9.63922941005738
30
0
41
1
10
179.73225
20
-9.61080914034506
30
0
0
SPLINE
5
13F
100
AcDbEntity
8
1
62
256
6
ByLayer
370
18
48
1
60
0
100
AcDbSpline
70
4
71
3
72
13
73
9
40
0
40
0
40
0
40
0
40
0.149091420999589
40
0.342542673938134
40
0.537436452174659
40
0.709329403864467
40
0.925170870121832
40
1
40
1
40
1
40
1
41
1
10
179.641007037684
20
9.84835937641311
30
0
41
1
10
179.64081143298
20
9.85490965216278
30
0
41
1
10
179.642105620229
20
9.86817996442208
30
0
41
1
10
179.649602776803
20
9.88424598499666
30
0
41
1
10
179.666558963067
20
9.88994274271424
30
0
41
1
10
179.69148433463
20
9.88290254486097
30
0
41
1
10
179.714287821628
20
9.86854415598924
30
0
41
1
10
179.728542939606
20
9.85744887478989
30
0
41
1
10
179.732250000003
20
9.85439706008651
30
0
0
SPLINE
5
140
100
AcDbEntity
8
1
62
256
6
ByLayer
370
18
48
1
60
0
100
AcDbSpline
70
4
71
3
72
13
73
9
40
0
40
0
40
0
40
0
40
0.0474900768900252
40
0.2621763847308
40
0.478365749104902
40
0.665736863586047
40
0.90779740789576
40
1
40
1
40
1
40
1
41
1
10
179.641000443446
20
10.6862930857991
30
0
41
1
10
179.640985630284
20
10.6879440243469
30
0
41
1
10
179.641330344465
20
10.6966292438394
30
0
41
1
10
179.645715173158
20
10.7092414453006
30
0
41
1
10
179.661908261157
20
10.7135427262871
30
0
41
1
10
179.687321347321
20
10.7047460876007
30
0
41
1
10
179.711867750692
20
10.6886761888625
30
0
41
1
10
179.727786622405
20
10.6761589357035
30
0
41
1
10
179.732250000005
20
10.6724653818764
30
0
0
SPLINE
5
141
100
AcDbEntity
8
1
62
256
6
ByLayer
370
18
48
1
60
0
100
AcDbSpline
70
4
71
3
72
11
73
7
40
0
40
0
40
0
40
0
40
0.048318837738625
40
0.321676692793147
40
0.760544060736424
40
1
40
1
40
1
40
1
41
1
10
179.641001095817
20
-10.6861577308969
30
0
41
1
10
179.641036468705
20
-10.6838642190676
30
0
41
1
10
179.64185702375
20
-10.6681603154257
30
0
41
1
10
179.655423283263
20
-10.6213509600996
30
0
41
1
10
179.690032029038
20
-10.5530332434686
30
0
41
1
10
179.720478739271
20
-10.5035635793041
30
0
41
1
10
179.732249999995
20
-10.4857177352159
30
0
0
SPLINE
5
142
100
AcDbEntity
8
1
62
256
6
ByLayer
370
18
48
1
60
0
100
AcDbSpline
70
4
71
3
72
12
73
8
40
0
40
0
40
0
40
0
40
0.213484102384136
40
0.432168674349121
40
0.628620877039147
40
0.893256422038517
40
1
40
1
40
1
40
1
41
1
10
179.641000006299
20
11.3253662263497
30
0
41
1
10
179.640891758172
20
11.3315613616354
30
0
41
1
10
179.643993477246
20
11.3402431446011
30
0
41
1
10
179.658815665029
20
11.3420594990345
30
0
41
1
10
179.683909325859
20
11.3310850013292
30
0
41
1
10
179.709758570348
20
11.3130368323155
30
0
41
1
10
179.727142031516
20
11.2989573809917
30
0
41
1
10
179.732250000006
20
11.2946400224557
30
0
0
SPLINE
5
143
100
AcDbEntity
8
1
62
256
6
ByLayer
370
18
48
1
60
0
100
AcDbSpline
70
4
71
3
72
11
73
7
40
0
40
0
40
0
40
0
40
0.114908749294124
40
0.39785391283406
40
0.8284897535631
40
1
40
1
40
1
40
1
41
1
10
179.641000908894
20
-11.3251321151027
30
0
41
1
10
179.641159414802
20
-11.3209561428857
30
0
41
1
10
179.643297472435
20
-11.3052649910631
30
0
41
1
10
179.661986939533
20
-11.260521717925
30
0
41
1
10
179.696422459188
20
-11.2042674299904
30
0
41
1
10
179.723938246981
20
-11.165168813805
30
0
41
1
10
179.73225
20
-11.1538289619795
30
0
0
SPLINE
5
144
100
AcDbEntity
8
1
62
256
6
ByLayer
370
18
48
1
60
0
100
AcDbSpline
70
4
71
3
72
11
73
7
40
0
40
0
40
0
40
0
40
0.143612839063669
40
0.415788673195505
40
0.813100232698519
40
1
40
1
40
1
40
1
41
1
10
179.641000064647
20
-11.7983365902929
30
0
41
1
10
179.641196935113
20
-11.7945588509816
30
0
41
1
10
179.643826138242
20
-11.7819032940043
30
0
41
1
10
179.663209853271
20
-11.7444605532104
30
0
41
1
10
179.696704781507
20
-11.6962103252865
30
0
41
1
10
179.723221037978
20
-11.6620103753937
30
0
41
1
10
179.73225
20
-11.6507735624533
30
0
0
SPLINE
5
145
100
AcDbEntity
8
1
62
256
6
ByLayer
370
18
48
1
60
0
100
AcDbSpline
70
4
71
3
72
12
73
8
40
0
40
0
40
0
40
0
40
0.170659557561957
40
0.387451261764405
40
0.589665989295026
40
0.871605397554871
40
1
40
1
40
1
40
1
41
1
10
179.641000283227
20
11.7982829874517
30
0
41
1
10
179.640952071143
20
11.8019637786855
30
0
41
1
10
179.643266227553
20
11.8076075159008
30
0
41
1
10
179.655736710408
20
11.8068897417832
30
0
41
1
10
179.68000598631
20
11.7938342496183
30
0
41
1
10
179.707117248022
20
11.7734439340102
30
0
41
1
10
179.726121115317
20
11.7574269990051
30
0
41
1
10
179.732250000011
20
11.7520750995866
30
0
0
SPLINE
5
146
100
AcDbEntity
8
1
62
256
6
ByLayer
370
18
48
1
60
0
100
AcDbSpline
70
4
71
3
72
12
73
8
40
0
40
0
40
0
40
0
40
0.0875404208707778
40
0.306019354289504
40
0.511065355130491
40
0.794892985150603
40
1
40
1
40
1
40
1
41
1
10
179.641000150798
20
12.1249009548997
30
0
41
1
10
179.640988042081
20
12.1261473956113
30
0
41
1
10
179.641964833701
20
12.1294168157099
30
0
41
1
10
179.649924908218
20
12.1284642409282
30
0
41
1
10
179.671321865837
20
12.1151467098039
30
0
41
1
10
179.700224472356
20
12.091987134192
30
0
41
1
10
179.722390423519
20
12.0725084367706
30
0
41
1
10
179.73225
20
12.0635253991507
30
0
0
SPLINE
5
147
100
AcDbEntity
8
1
62
256
6
ByLayer
370
18
48
1
60
0
100
AcDbSpline
70
4
71
3
72
11
73
7
40
0
40
0
40
0
40
0
40
0.165252999317458
40
0.425192053112725
40
0.791705976488244
40
1
40
1
40
1
40
1
41
1
10
179.641000006457
20
-12.1249394678571
30
0
41
1
10
179.64122382811
20
-12.1220767441879
30
0
41
1
10
179.644217894085
20
-12.1125470916562
30
0
41
1
10
179.663709176019
20
-12.0817929418507
30
0
41
1
10
179.69633345439
20
-12.0399776818316
30
0
41
1
10
179.722209659759
20
-12.0093765331493
30
0
41
1
10
179.73225
20
-11.997839334396
30
0
0
INSERT
5
176
100
AcDbEntity
8
SK2
62
256
6
ByLayer
370
25
48
1
60
0
100
AcDbBlockReference
2
DimnDraft3D44
10
0
20
0
30
0
41
1
42
1
43
1
50
0
210
0
220
0
230
1
0
LINE
5
70
100
AcDbEntity
8
81
62
256
6
ByLayer
370
18
48
1
60
0
100
AcDbLine
10
180
20
0
30
0
11
198
21
0
31
0
39
0
210
0
220
0
230
1
0
LINE
5
71
100
AcDbEntity
8
4
62
256
6
ByLayer
370
18
48
0.05
60
0
100
AcDbLine
10
0
20
0
30
0
11
180
21
0
31
0
39
0
210
0
220
0
230
1
0
LINE
5
73
100
AcDbEntity
8
SK4
62
256
6
ByLayer
370
18
48
0.05
60
0
100
AcDbLine
10
-35
20
0
30
0
11
186
21
0
31
0
39
0
210
0
220
0
230
1
0
LINE
5
75
100
AcDbEntity
8
80
62
256
6
ByLayer
370
18
48
1
60
0
100
AcDbLine
10
0
20
0
30
0
11
-18
21
0
31
0
39
0
210
0
220
0
230
1
0
LINE
5
76
100
AcDbEntity
8
SK1
62
256
6
ByLayer
370
18
48
1
60
0
100
AcDbLine
10
188
20
9.156854
30
0
11
184
21
9.156854
31
0
39
0
210
0
220
0
230
1
0
LINE
5
78
100
AcDbEntity
8
SK1
62
256
6
ByLayer
370
18
48
1
60
0
100
AcDbLine
10
184
20
2.156854
30
0
11
188
21
2.156854
31
0
39
0
210
0
220
0
230
1
0
LINE
5
79
100
AcDbEntity
8
SK1
62
256
6
ByLayer
370
18
48
1
60
0
100
AcDbLine
10
184
20
7.656854
30
0
11
180.271
21
7.656854
31
0
39
0
210
0
220
0
230
1
0
LINE
5
7A
100
AcDbEntity
8
SK1
62
256
6
ByLayer
370
18
48
1
60
0
100
AcDbLine
10
180.271
20
3.656854
30
0
11
184
21
3.656854
31
0
39
0
210
0
220
0
230
1
0
LINE
5
7B
100
AcDbEntity
8
1
62
256
6
ByLayer
370
18
48
1
60
0
100
AcDbLine
10
20
20
-25
30
0
11
22.753568
21
-14.723543
31
0
39
0
210
0
220
0
230
1
0
LINE
5
7D
100
AcDbEntity
8
1
62
256
6
ByLayer
370
18
48
1
60
0
100
AcDbLine
10
22.753568
20
14.723543
30
0
11
20
21
25
31
0
39
0
210
0
220
0
230
1
0
LINE
5
7E
100
AcDbEntity
8
1
62
256
6
ByLayer
370
18
48
1
60
0
100
AcDbLine
10
0.3
20
25
30
0
11
0
21
24.7
31
0
39
0
210
0
220
0
230
1
0
LINE
5
7F
100
AcDbEntity
8
1
62
256
6
ByLayer
370
18
48
1
60
0
100
AcDbLine
10
0
20
-24.7
30
0
11
0.3
21
-25
31
0
39
0
210
0
220
0
230
1
0
LINE
5
80
100
AcDbEntity
8
1
62
256
6
ByLayer
370
18
48
1
60
0
100
AcDbLine
10
0.3
20
-25
30
0
11
20
21
-25
31
0
39
0
210
0
220
0
230
1
0
LINE
5
81
100
AcDbEntity
8
1
62
256
6
ByLayer
370
18
48
1
60
0
100
AcDbLine
10
20
20
25
30
0
11
0.3
21
25
31
0
39
0
210
0
220
0
230
1
0
LINE
5
82
100
AcDbEntity
8
1
62
256
6
ByLayer
370
18
48
1
60
0
100
AcDbLine
10
11.461325
20
7.529667
30
0
11
8.538675
21
7.529667
31
0
39
0
210
0
220
0
230
1
0
LINE
5
83
100
AcDbEntity
8
1
62
256
6
ByLayer
370
18
48
1
60
0
100
AcDbLine
10
8.538675
20
23.83913
30
0
11
11.461325
21
23.83913
31
0
39
0
210
0
220
0
230
1
0
LINE
5
84
100
AcDbEntity
8
1
62
256
6
ByLayer
370
18
48
1
60
0
100
AcDbLine
10
11.461325
20
-23.83913
30
0
11
8.538675
21
-23.83913
31
0
39
0
210
0
220
0
230
1
0
LINE
5
85
100
AcDbEntity
8
1
62
256
6
ByLayer
370
18
48
1
60
0
100
AcDbLine
10
8.538675
20
-7.529667
30
0
11
11.461325
21
-7.529667
31
0
39
0
210
0
220
0
230
1
0
LINE
5
86
100
AcDbEntity
8
1
62
256
6
ByLayer
370
18
48
1
60
0
100
AcDbLine
10
11.894338
20
8.055848
30
0
11
11.894338
21
23.666502
31
0
39
0
210
0
220
0
230
1
0
LINE
5
87
100
AcDbEntity
8
1
62
256
6
ByLayer
370
18
48
1
60
0
100
AcDbLine
10
11.461325
20
7.529667
30
0
11
11.461325
21
23.83913
31
0
39
0
210
0
220
0
230
1
0
LINE
5
88
100
AcDbEntity
8
1
62
256
6
ByLayer
370
18
48
1
60
0
100
AcDbLine
10
8.538675
20
-23.83913
30
0
11
8.538675
21
-7.529667
31
0
39
0
210
0
220
0
230
1
0
LINE
5
89
100
AcDbEntity
8
1
62
256
6
ByLayer
370
18
48
1
60
0
100
AcDbLine
10
8.105662
20
-23.666502
30
0
11
8.105662
21
-8.055848
31
0
39
0
210
0
220
0
230
1
0
LINE
5
8A
100
AcDbEntity
8
1
62
256
6
ByLayer
370
18
48
1
60
0
100
AcDbLine
10
8.538675
20
7.529667
30
0
11
8.538675
21
23.83913
31
0
39
0
210
0
220
0
230
1
0
LINE
5
8B
100
AcDbEntity
8
1
62
256
6
ByLayer
370
18
48
1
60
0
100
AcDbLine
10
8.105662
20
8.055848
30
0
11
8.105662
21
23.666502
31
0
39
0
210
0
220
0
230
1
0
LINE
5
8C
100
AcDbEntity
8
1
62
256
6
ByLayer
370
18
48
1
60
0
100
AcDbLine
10
11.894338
20
-23.666502
30
0
11
11.894338
21
-8.055848
31
0
39
0
210
0
220
0
230
1
0
LINE
5
8D
100
AcDbEntity
8
1
62
256
6
ByLayer
370
18
48
1
60
0
100
AcDbLine
10
11.461325
20
-23.83913
30
0
11
11.461325
21
-7.529667
31
0
39
0
210
0
220
0
230
1
0
LINE
5
8E
100
AcDbEntity
8
1
62
256
6
ByLayer
370
18
48
1
60
0
100
AcDbLine
10
177.7
20
12.5
30
0
11
25.651346
21
12.5
31
0
39
0
210
0
220
0
230
1
0
LINE
5
8F
100
AcDbEntity
8
1
62
256
6
ByLayer
370
18
48
1
60
0
100
AcDbLine
10
25.651346
20
-12.5
30
0
11
177.7
21
-12.5
31
0
39
0
210
0
220
0
230
1
0
LINE
5
90
100
AcDbEntity
8
SK1
62
256
6
ByLayer
370
18
48
1
60
0
100
AcDbLine
10
188
20
-2.156854
30
0
11
184
21
-2.156854
31
0
39
0
210
0
220
0
230
1
0
LINE
5
91
100
AcDbEntity
8
SK1
62
256
6
ByLayer
370
18
48
1
60
0
100
AcDbLine
10
184
20
-9.156854
30
0
11
188
21
-9.156854
31
0
39
0
210
0
220
0
230
1
0
LINE
5
92
100
AcDbEntity
8
SK1
62
256
6
ByLayer
370
18
48
1
60
0
100
AcDbLine
10
184
20
-3.656854
30
0
11
180.271
21
-3.656854
31
0
39
0
210
0
220
0
230
1
0
LINE
5
93
100
AcDbEntity
8
SK1
62
256
6
ByLayer
370
18
48
1
60
0
100
AcDbLine
10
180.271
20
-7.656854
30
0
11
184
21
-7.656854
31
0
39
0
210
0
220
0
230
1
0
LINE
5
94
100
AcDbEntity
8
1
62
256
6
ByLayer
370
18
48
1
60
0
100
AcDbLine
10
179.521
20
12.409674
30
0
11
178.2
21
12.409674
31
0
39
0
210
0
220
0
230
1
0
LINE
5
95
100
AcDbEntity
8
1
62
256
6
ByLayer
370
18
48
1
60
0
100
AcDbLine
10
178.2
20
-12.409674
30
0
11
179.521
21
-12.409674
31
0
39
0
210
0
220
0
230
1
0
LINE
5
96
100
AcDbEntity
8
1
62
256
6
ByLayer
370
18
48
1
60
0
100
AcDbLine
10
179.73225
20
5.289803
30
0
11
179.73225
21
4.568345
31
0
39
0
210
0
220
0
230
1
0
LINE
5
97
100
AcDbEntity
8
1
62
256
6
ByLayer
370
18
48
1
60
0
100
AcDbLine
10
179.73225
20
-4.568345
30
0
11
179.73225
21
-5.289803
31
0
39
0
210
0
220
0
230
1
0
LINE
5
98
100
AcDbEntity
8
1
62
256
6
ByLayer
370
18
48
1
60
0
100
AcDbLine
10
180.271
20
4.672754
30
0
11
180.271
21
0.851624
31
0
39
0
210
0
220
0
230
1
0
LINE
5
99
100
AcDbEntity
8
1
62
256
6
ByLayer
370
18
48
1
60
0
100
AcDbLine
10
180.271
20
-0.851624
30
0
11
180.271
21
-4.672754
31
0
39
0
210
0
220
0
230
1
0
LINE
5
9A
100
AcDbEntity
8
1
62
256
6
ByLayer
370
18
48
1
60
0
100
AcDbLine
10
179.73225
20
7.358627
30
0
11
179.73225
21
6.915736
31
0
39
0
210
0
220
0
230
1
0
LINE
5
9B
100
AcDbEntity
8
1
62
256
6
ByLayer
370
18
48
1
60
0
100
AcDbLine
10
179.73225
20
-6.915736
30
0
11
179.73225
21
-7.358627
31
0
39
0
210
0
220
0
230
1
0
LINE
5
9C
100
AcDbEntity
8
1
62
256
6
ByLayer
370
18
48
1
60
0
100
AcDbLine
10
180.271
20
6.872
30
0
11
180.271
21
5.334839
31
0
39
0
210
0
220
0
230
1
0
LINE
5
9D
100
AcDbEntity
8
1
62
256
6
ByLayer
370
18
48
1
60
0
100
AcDbLine
10
180.271
20
-5.334839
30
0
11
180.271
21
-6.872
31
0
39
0
210
0
220
0
230
1
0
LINE
5
9E
100
AcDbEntity
8
1
62
256
6
ByLayer
370
18
48
1
60
0
100
AcDbLine
10
179.73225
20
8.785884
30
0
11
179.73225
21
8.465225
31
0
39
0
210
0
220
0
230
1
0
LINE
5
9F
100
AcDbEntity
8
1
62
256
6
ByLayer
370
18
48
1
60
0
100
AcDbLine
10
179.73225
20
-8.465225
30
0
11
179.73225
21
-8.785884
31
0
39
0
210
0
220
0
230
1
0
LINE
5
A0
100
AcDbEntity
8
1
62
256
6
ByLayer
370
18
48
1
60
0
100
AcDbLine
10
180.271
20
8.336015
30
0
11
180.271
21
7.284967
31
0
39
0
210
0
220
0
230
1
0
LINE
5
A1
100
AcDbEntity
8
1
62
256
6
ByLayer
370
18
48
1
60
0
100
AcDbLine
10
180.271
20
-7.284967
30
0
11
180.271
21
-8.336015
31
0
39
0
210
0
220
0
230
1
0
LINE
5
A2
100
AcDbEntity
8
1
62
256
6
ByLayer
370
18
48
1
60
0
100
AcDbLine
10
179.73225
20
-9.610809
30
0
11
179.73225
21
-9.854397
31
0
39
0
210
0
220
0
230
1
0
LINE
5
A3
100
AcDbEntity
8
1
62
256
6
ByLayer
370
18
48
1
60
0
100
AcDbLine
10
179.73225
20
9.854397
30
0
11
179.73225
21
9.610809
31
0
39
0
210
0
220
0
230
1
0
LINE
5
A4
100
AcDbEntity
8
1
62
256
6
ByLayer
370
18
48
1
60
0
100
AcDbLine
10
180.271
20
9.414293
30
0
11
180.271
21
8.634581
31
0
39
0
210
0
220
0
230
1
0
LINE
5
A5
100
AcDbEntity
8
1
62
256
6
ByLayer
370
18
48
1
60
0
100
AcDbLine
10
180.271
20
-8.634581
30
0
11
180.271
21
-9.414293
31
0
39
0
210
0
220
0
230
1
0
LINE
5
A6
100
AcDbEntity
8
1
62
256
6
ByLayer
370
18
48
1
60
0
100
AcDbLine
10
179.73225
20
10.672465
30
0
11
179.73225
21
10.485718
31
0
39
0
210
0
220
0
230
1
0
LINE
5
A7
100
AcDbEntity
8
1
62
256
6
ByLayer
370
18
48
1
60
0
100
AcDbLine
10
179.73225
20
-10.485718
30
0
11
179.73225
21
-10.672465
31
0
39
0
210
0
220
0
230
1
0
LINE
5
A8
100
AcDbEntity
8
1
62
256
6
ByLayer
370
18
48
1
60
0
100
AcDbLine
10
180.271
20
-9.639307
30
0
11
180.271
21
-10.229548
31
0
39
0
210
0
220
0
230
1
0
LINE
5
A9
100
AcDbEntity
8
1
62
256
6
ByLayer
370
18
48
1
60
0
100
AcDbLine
10
180.271
20
10.229548
30
0
11
180.271
21
9.639307
31
0
39
0
210
0
220
0
230
1
0
LINE
5
AA
100
AcDbEntity
8
1
62
256
6
ByLayer
370
18
48
1
60
0
100
AcDbLine
10
179.73225
20
11.29464
30
0
11
179.73225
21
11.153829
31
0
39
0
210
0
220
0
230
1
0
LINE
5
AB
100
AcDbEntity
8
1
62
256
6
ByLayer
370
18
48
1
60
0
100
AcDbLine
10
179.73225
20
-11.153829
30
0
11
179.73225
21
-11.29464
31
0
39
0
210
0
220
0
230
1
0
LINE
5
AC
100
AcDbEntity
8
1
62
256
6
ByLayer
370
18
48
1
60
0
100
AcDbLine
10
180.271
20
10.841283
30
0
11
180.271
21
10.39959
31
0
39
0
210
0
220
0
230
1
0
LINE
5
AD
100
AcDbEntity
8
1
62
256
6
ByLayer
370
18
48
1
60
0
100
AcDbLine
10
180.271
20
-10.39959
30
0
11
180.271
21
-10.841283
31
0
39
0
210
0
220
0
230
1
0
LINE
5
AE
100
AcDbEntity
8
1
62
256
6
ByLayer
370
18
48
1
60
0
100
AcDbLine
10
179.73225
20
-11.650774
30
0
11
179.73225
21
-11.752075
31
0
39
0
210
0
220
0
230
1
0
LINE
5
AF
100
AcDbEntity
8
1
62
256
6
ByLayer
370
18
48
1
60
0
100
AcDbLine
10
179.73225
20
11.752075
30
0
11
179.73225
21
11.650774
31
0
39
0
210
0
220
0
230
1
0
LINE
5
B0
100
AcDbEntity
8
1
62
256
6
ByLayer
370
18
48
1
60
0
100
AcDbLine
10
180.271
20
11.282649
30
0
11
180.271
21
10.96639
31
0
39
0
210
0
220
0
230
1
0
LINE
5
B1
100
AcDbEntity
8
1
62
256
6
ByLayer
370
18
48
1
60
0
100
AcDbLine
10
180.271
20
-10.96639
30
0
11
180.271
21
-11.282649
31
0
39
0
210
0
220
0
230
1
0
LINE
5
B2
100
AcDbEntity
8
1
62
256
6
ByLayer
370
18
48
1
60
0
100
AcDbLine
10
179.73225
20
12.063525
30
0
11
179.73225
21
11.997839
31
0
39
0
210
0
220
0
230
1
0
LINE
5
B3
100
AcDbEntity
8
1
62
256
6
ByLayer
370
18
48
1
60
0
100
AcDbLine
10
179.73225
20
-11.997839
30
0
11
179.73225
21
-12.063525
31
0
39
0
210
0
220
0
230
1
0
LINE
5
B4
100
AcDbEntity
8
1
62
256
6
ByLayer
370
18
48
1
60
0
100
AcDbLine
10
180.271
20
11.573156
30
0
11
180.271
21
11.368683
31
0
39
0
210
0
220
0
230
1
0
LINE
5
B5
100
AcDbEntity
8
1
62
256
6
ByLayer
370
18
48
1
60
0
100
AcDbLine
10
180.271
20
-11.368683
30
0
11
180.271
21
-11.573156
31
0
39
0
210
0
220
0
230
1
0
LINE
5
B6
100
AcDbEntity
8
SK1
62
256
6
ByLayer
370
18
48
1
60
0
100
AcDbLine
10
188
20
9.156854
30
0
11
188
21
2.156854
31
0
39
0
210
0
220
0
230
1
0
LINE
5
B7
100
AcDbEntity
8
SK1
62
256
6
ByLayer
370
18
48
1
60
0
100
AcDbLine
10
184
20
9.156854
30
0
11
184
21
2.156854
31
0
39
0
210
0
220
0
230
1
0
LINE
5
B8
100
AcDbEntity
8
1
62
256
6
ByLayer
370
18
48
1
60
0
100
AcDbLine
10
20
20
-25
30
0
11
20
21
0
31
0
39
0
210
0
220
0
230
1
0
LINE
5
B9
100
AcDbEntity
8
1
62
256
6
ByLayer
370
18
48
1
60
0
100
AcDbLine
10
22.753568
20
-14.723543
30
0
11
22.753568
21
0
31
0
39
0
210
0
220
0
230
1
0
LINE
5
BA
100
AcDbEntity
8
1
62
256
6
ByLayer
370
18
48
1
60
0
100
AcDbLine
10
20
20
0
30
0
11
20
21
25
31
0
39
0
210
0
220
0
230
1
0
LINE
5
BB
100
AcDbEntity
8
1
62
256
6
ByLayer
370
18
48
1
60
0
100
AcDbLine
10
22.753568
20
0
30
0
11
22.753568
21
14.723543
31
0
39
0
210
0
220
0
230
1
0
LINE
5
BC
100
AcDbEntity
8
1
62
256
6
ByLayer
370
18
48
1
60
0
100
AcDbLine
10
0
20
-24.7
30
0
11
0
21
0
31
0
39
0
210
0
220
0
230
1
0
LINE
5
BD
100
AcDbEntity
8
1
62
256
6
ByLayer
370
18
48
1
60
0
100
AcDbLine
10
0.3
20
-25
30
0
11
0.3
21
0
31
0
39
0
210
0
220
0
230
1
0
LINE
5
BE
100
AcDbEntity
8
1
62
256
6
ByLayer
370
18
48
1
60
0
100
AcDbLine
10
0
20
0
30
0
11
0
21
24.7
31
0
39
0
210
0
220
0
230
1
0
LINE
5
BF
100
AcDbEntity
8
1
62
256
6
ByLayer
370
18
48
1
60
0
100
AcDbLine
10
0.3
20
0
30
0
11
0.3
21
25
31
0
39
0
210
0
220
0
230
1
0
LINE
5
C0
100
AcDbEntity
8
SK1
62
256
6
ByLayer
370
18
48
1
60
0
100
AcDbLine
10
-1.315435
20
-3.910269
30
0
11
-1.315435
21
3.910272
31
0
39
0
210
0
220
0
230
1
0
LINE
5
C1
100
AcDbEntity
8
1
62
256
6
ByLayer
370
18
48
1
60
0
100
AcDbLine
10
25.651346
20
12.5
30
0
11
25.651346
21
-12.5
31
0
39
0
210
0
220
0
230
1
0
LINE
5
C2
100
AcDbEntity
8
1
62
256
6
ByLayer
370
18
48
1
60
0
100
AcDbLine
10
177.7
20
-12.5
30
0
11
177.7
21
0
31
0
39
0
210
0
220
0
230
1
0
LINE
5
C3
100
AcDbEntity
8
1
62
256
6
ByLayer
370
18
48
1
60
0
100
AcDbLine
10
177.7
20
0
30
0
11
177.7
21
12.5
31
0
39
0
210
0
220
0
230
1
0
LINE
5
C4
100
AcDbEntity
8
SK1
62
256
6
ByLayer
370
18
48
1
60
0
100
AcDbLine
10
188
20
-2.156854
30
0
11
188
21
-9.156854
31
0
39
0
210
0
220
0
230
1
0
LINE
5
C5
100
AcDbEntity
8
SK1
62
256
6
ByLayer
370
18
48
1
60
0
100
AcDbLine
10
184
20
-2.156854
30
0
11
184
21
-9.156854
31
0
39
0
210
0
220
0
230
1
0
LINE
5
C6
100
AcDbEntity
8
1
62
256
6
ByLayer
370
18
48
1
60
0
100
AcDbLine
10
178
20
-12.208194
30
0
11
178
21
12.208194
31
0
39
0
210
0
220
0
230
1
0
LINE
5
C7
100
AcDbEntity
8
1
62
256
6
ByLayer
370
18
48
1
60
0
100
AcDbLine
10
178.2
20
12.409674
30
0
11
178.2
21
-12.409674
31
0
39
0
210
0
220
0
230
1
0
LINE
5
C8
100
AcDbEntity
8
1
62
256
6
ByLayer
370
18
48
1
60
0
100
AcDbLine
10
179.521
20
-12.409674
30
0
11
179.521
21
12.409674
31
0
39
0
210
0
220
0
230
1
0
LINE
5
C9
100
AcDbEntity
8
1
62
256
6
ByLayer
370
18
48
1
60
0
100
AcDbLine
10
180.271
20
11.573156
30
0
11
180.271
21
11.623562
31
0
39
0
210
0
220
0
230
1
0
LINE
5
CA
100
AcDbEntity
8
1
62
256
6
ByLayer
370
18
48
1
60
0
100
AcDbLine
10
180.271
20
11.282649
30
0
11
180.271
21
11.368683
31
0
39
0
210
0
220
0
230
1
0
LINE
5
CB
100
AcDbEntity
8
1
62
256
6
ByLayer
370
18
48
1
60
0
100
AcDbLine
10
180.271
20
10.841283
30
0
11
180.271
21
10.96639
31
0
39
0
210
0
220
0
230
1
0
LINE
5
CC
100
AcDbEntity
8
1
62
256
6
ByLayer
370
18
48
1
60
0
100
AcDbLine
10
180.271
20
10.229548
30
0
11
180.271
21
10.39959
31
0
39
0
210
0
220
0
230
1
0
LINE
5
CD
100
AcDbEntity
8
1
62
256
6
ByLayer
370
18
48
1
60
0
100
AcDbLine
10
180.271
20
9.414293
30
0
11
180.271
21
9.639307
31
0
39
0
210
0
220
0
230
1
0
LINE
5
CE
100
AcDbEntity
8
1
62
256
6
ByLayer
370
18
48
1
60
0
100
AcDbLine
10
180.271
20
8.336015
30
0
11
180.271
21
8.634581
31
0
39
0
210
0
220
0
230
1
0
LINE
5
CF
100
AcDbEntity
8
1
62
256
6
ByLayer
370
18
48
1
60
0
100
AcDbLine
10
180.271
20
6.872
30
0
11
180.271
21
7.284967
31
0
39
0
210
0
220
0
230
1
0
LINE
5
D0
100
AcDbEntity
8
1
62
256
6
ByLayer
370
18
48
1
60
0
100
AcDbLine
10
180.271
20
4.672754
30
0
11
180.271
21
5.334839
31
0
39
0
210
0
220
0
230
1
0
LINE
5
D1
100
AcDbEntity
8
1
62
256
6
ByLayer
370
18
48
1
60
0
100
AcDbLine
10
180.271
20
-0.851624
30
0
11
180.271
21
0.851624
31
0
39
0
210
0
220
0
230
1
0
LINE
5
D2
100
AcDbEntity
8
1
62
256
6
ByLayer
370
18
48
1
60
0
100
AcDbLine
10
180.271
20
-5.334839
30
0
11
180.271
21
-4.672754
31
0
39
0
210
0
220
0
230
1
0
LINE
5
D3
100
AcDbEntity
8
1
62
256
6
ByLayer
370
18
48
1
60
0
100
AcDbLine
10
180.271
20
-7.284967
30
0
11
180.271
21
-6.872
31
0
39
0
210
0
220
0
230
1
0
LINE
5
D4
100
AcDbEntity
8
1
62
256
6
ByLayer
370
18
48
1
60
0
100
AcDbLine
10
180.271
20
-8.634581
30
0
11
180.271
21
-8.336015
31
0
39
0
210
0
220
0
230
1
0
LINE
5
D5
100
AcDbEntity
8
1
62
256
6
ByLayer
370
18
48
1
60
0
100
AcDbLine
10
180.271
20
-9.639307
30
0
11
180.271
21
-9.414293
31
0
39
0
210
0
220
0
230
1
0
LINE
5
D6
100
AcDbEntity
8
1
62
256
6
ByLayer
370
18
48
1
60
0
100
AcDbLine
10
180.271
20
-10.39959
30
0
11
180.271
21
-10.229548
31
0
39
0
210
0
220
0
230
1
0
LINE
5
D7
100
AcDbEntity
8
1
62
256
6
ByLayer
370
18
48
1
60
0
100
AcDbLine
10
180.271
20
-10.96639
30
0
11
180.271
21
-10.841283
31
0
39
0
210
0
220
0
230
1
0
LINE
5
D8
100
AcDbEntity
8
1
62
256
6
ByLayer
370
18
48
1
60
0
100
AcDbLine
10
180.271
20
-11.368683
30
0
11
180.271
21
-11.282649
31
0
39
0
210
0
220
0
230
1
0
LINE
5
D9
100
AcDbEntity
8
1
62
256
6
ByLayer
370
18
48
1
60
0
100
AcDbLine
10
180.271
20
-11.623562
30
0
11
180.271
21
-11.573156
31
0
39
0
210
0
220
0
230
1
0
LINE
5
DA
100
AcDbEntity
8
SK1
62
256
6
ByLayer
370
18
48
1
60
0
100
AcDbLine
10
-2
20
17.519847
30
0
11
-2
21
-17.519847
31
0
39
0
210
0
220
0
230
1
0
LINE
5
DB
100
AcDbEntity
8
SK1
62
256
6
ByLayer
370
18
48
1
60
0
100
AcDbLine
10
-28.5
20
16.854548
30
0
11
-28.5
21
-16.854549
31
0
39
0
210
0
220
0
230
1
0
LINE
5
DC
100
AcDbEntity
8
SK1
62
256
6
ByLayer
370
18
48
1
60
0
100
AcDbLine
10
-1.79504
20
17.325072
30
0
11
-1.79504
21
-17.325072
31
0
39
0
210
0
220
0
230
1
0
LINE
5
DD
100
AcDbEntity
8
SK1
62
256
6
ByLayer
370
18
48
1
60
0
100
AcDbLine
10
-0.194977
20
17.365242
30
0
11
-0.194977
21
5.101253
31
0
39
0
210
0
220
0
230
1
0
LINE
5
DE
100
AcDbEntity
8
SK1
62
256
6
ByLayer
370
18
48
1
60
0
100
AcDbLine
10
-0.194977
20
-5.101251
30
0
11
-0.194977
21
-17.365243
31
0
39
0
210
0
220
0
230
1
0
LINE
5
DF
100
AcDbEntity
8
SK1
62
256
6
ByLayer
370
18
48
1
60
0
100
AcDbLine
10
-30
20
15.993274
30
0
11
-30
21
-15.993274
31
0
39
0
210
0
220
0
230
1
0
MTEXT
5
148
100
AcDbEntity
8
SK6
62
256
6
ByLayer
370
13
48
1
60
0
100
AcDbMText
10
-32.235297
20
56.811565
30
0
210
0
220
0
230
1
1
\W0.7006;C5-570-3C 25 180
40
3.175
41
0
44
1.084337
50
0
71
7
72
5
7
iso_b_vert
0
DIMENSION
5
156
100
AcDbEntity
8
2
62
256
6
ByLayer
370
13
48
1
60
0
100
AcDbDimension
2
DimnDraft3D1
10
180
20
47.854422
30
0
11
87.313783
21
47.854422
31
0
70
32
71
5
72
1
41
1
210
0
220
0
230
1
3
Standard
100
AcDbAlignedDimension
13
0
23
1.5875
33
0
14
180
24
1.5875
34
0
50
0
100
AcDbRotatedDimension
1001
ACAD
1000
DSTYLE
1002
{
1070
   279
1070
     0
1070
   173
1070
     1
1070
   340
1005
149
1070
   271
1070
     1
1070
   272
1070
     2
1070
    77
1070
     1
1070
    73
1070
     0
1070
   171
1070
     3
1070
   274
1070
     4
1070
   177
1070
     7
1070
   176
1070
     7
1070
   178
1070
     7
1070
    78
1070
     8
1070
    48
1040
-0.005
1070
    41
1041
3.175
1070
   147
1041
1.5875
1070
    42
1041
1.5875
1070
    44
1041
3.175
1070
   140
1041
3.175
1070
   343
1005
0
1070
   344
1005
0
1002
}
0
DIMENSION
5
162
100
AcDbEntity
8
SK2
62
256
6
ByLayer
370
13
48
1
60
0
100
AcDbDimension
2
DimnDraft3D2
10
-48.064131
20
-25
30
0
11
-48.064131
21
-6.659145
31
0
70
32
71
5
72
1
41
1
210
0
220
0
230
1
3
Standard
100
AcDbAlignedDimension
13
-1.2875
23
25
33
0
14
-1.2875
24
-25
34
0
50
90
100
AcDbRotatedDimension
1001
ACAD
1000
DSTYLE
1002
{
1070
    74
1070
     0
1070
   279
1070
     0
1070
   173
1070
     1
1070
   340
1005
149
1070
   271
1070
     1
1070
   272
1070
     2
1070
    77
1070
     1
1070
    73
1070
     0
1070
   171
1070
     3
1070
   274
1070
     4
1070
   177
1070
     7
1070
   176
1070
     7
1070
   178
1070
     7
1070
    78
1070
     8
1070
    48
1040
-0.005
1070
    41
1041
3.175
1070
   147
1041
1.5875
1070
    42
1041
1.5875
1070
    44
1041
3.175
1070
   140
1041
3.175
1070
   343
1005
0
1070
   344
1005
0
1002
}
0
DIMENSION
5
16C
100
AcDbEntity
8
SK2
62
256
6
ByLayer
370
13
48
1
60
0
100
AcDbDimension
2
DimnDraft3D3
10
20
20
-33.720806
30
0
11
8.103355
21
-33.720806
31
0
70
32
71
5
72
1
41
1
210
0
220
0
230
1
3
Standard
100
AcDbAlignedDimension
13
0
23
-26.2875
33
0
14
20
24
-26.5875
34
0
50
0
100
AcDbRotatedDimension
1001
ACAD
1000
DSTYLE
1002
{
1070
   279
1070
     0
1070
   173
1070
     1
1070
   340
1005
149
1070
   271
1070
     1
1070
   272
1070
     2
1070
    77
1070
     1
1070
    73
1070
     0
1070
   171
1070
     3
1070
   274
1070
     4
1070
   177
1070
     7
1070
   176
1070
     7
1070
   178
1070
     7
1070
    78
1070
     8
1070
    48
1040
-0.005
1070
    41
1041
3.175
1070
   147
1041
1.5875
1070
    42
1041
1.5875
1070
    44
1041
3.175
1070
   140
1041
3.175
1070
   343
1005
0
1070
   344
1005
0
1002
}
0
DIMENSION
5
17E
100
AcDbEntity
8
SK2
62
256
6
ByLayer
370
13
48
1
60
0
100
AcDbDimension
2
DimnDraft3D5
10
25.651346
20
15.5
30
0
11
39.064662
21
32.421253
31
0
70
36
71
5
72
1
41
1
210
0
220
0
230
1
3
Standard
100
AcDbRadialDimension
15
0
25
0
35
0
40
0
1001
ACAD
1000
DSTYLE
1002
{
1070
   279
1070
     0
1070
   173
1070
     1
1070
   340
1005
149
1070
    75
1070
     1
1070
    76
1070
     1
1070
   271
1070
     1
1070
   272
1070
     2
1070
    77
1070
     1
1070
    73
1070
     0
1070
   171
1070
     3
1070
   274
1070
     4
1070
   177
1070
     7
1070
   176
1070
     7
1070
   178
1070
     7
1070
    78
1070
     8
1070
    48
1040
-0.005
1070
    41
1041
3.175
1070
   147
1041
1.5875
1070
    42
1041
1.5875
1070
    44
1041
3.175
1070
   140
1041
3.175
1070
   343
1005
0
1070
   344
1005
0
1002
}
0
DIMENSION
5
189
100
AcDbEntity
8
SK2
62
256
6
ByLayer
370
13
48
1
60
0
100
AcDbDimension
2
DimnDraft3D6
10
207.067395
20
-12.5
30
0
11
207.067395
21
23.043324
31
0
70
32
71
5
72
1
41
1
210
0
220
0
230
1
3
Standard
100
AcDbAlignedDimension
13
179.2875
23
12.5
33
0
14
179.2875
24
-12.5
34
0
50
90
100
AcDbRotatedDimension
1001
ACAD
1000
DSTYLE
1002
{
1070
    74
1070
     0
1070
   279
1070
     0
1070
   173
1070
     1
1070
   340
1005
149
1070
   271
1070
     1
1070
   272
1070
     2
1070
    77
1070
     1
1070
    73
1070
     0
1070
   171
1070
     3
1070
   274
1070
     4
1070
   177
1070
     7
1070
   176
1070
     7
1070
   178
1070
     7
1070
    78
1070
     8
1070
    48
1040
-0.005
1070
    41
1041
3.175
1070
   147
1041
1.5875
1070
    42
1041
1.5875
1070
    44
1041
3.175
1070
   140
1041
3.175
1070
   343
1005
0
1070
   344
1005
0
1002
}
0
ENDSEC
0
SECTION
2
OBJECTS
0
DICTIONARY
5
1f4
330
0
100
AcDbDictionary
280
0
281
1
3
ACAD_GROUP
350
1f5
3
ACAD_MLINESTYLE
350
1f6
0
DICTIONARY
5
1f5
330
0
100
AcDbDictionary
280
0
281
1
0
DICTIONARY
5
1f6
330
0
100
AcDbDictionary
280
0
281
1
3
Standard
350
18
0
MLINESTYLE
5
18
330
1f6
100
AcDbMlineStyle
2
Standard
70
0
3

62
256
51
90
52
90
71
2
49
-0.5
62
256
6
ByLayer
49
0.5
62
256
6
ByLayer
0
RASTERVARIABLES
5
1e2
330

100
AcDbRasterVariables
90
0
70
1
71
1
72
1
0
ENDSEC
0
EOF
