0
SECTION
2
HEADER
9
$ACADVER
1
AC1015
9
$DWGCODEPAGE
3
ANSI_1252
9
$HANDSEED
5
1f7
9
$ANGBASE
50
0
9
$ANGDIR
70
0
9
$ATTMODE
70
1
9
$AUNITS
70
0
9
$AUPREC
70
0
9
$CECOLOR
62
256
9
$CELTSCALE
40
1
9
$CELTYPE
6
ByLayer
9
$CELWEIGHT
370
18
9
$CLAYER
8
0
9
$CMLJUST
70
0
9
$CMLSCALE
40
1
9
$CMLSTYLE
2
Standard
9
$DIMSTYLE
2
Standard
9
$TEXTSIZE
40
0.2
9
$TEXTSTYLE
7
Standard
9
$LUNITS
70
2
9
$LUPREC
70
4
9
$EXTNAMES
290
1
9
$INSUNITS
70
4
9
$LTSCALE
40
1
9
$LWDISPLAY
290
1
9
$PDMODE
70
0
9
$PDSIZE
40
0
9
$PLINEGEN
70
0
0
ENDSEC
0
SECTION
2
CLASSES
0
CLASS
1
RASTERVARIABLES
2
AcDbRasterVariables
3
ISM
90
0
280
0
281
0
0
ENDSEC
0
SECTION
2
TABLES
0
TABLE
2
VPORT
5
1ed
100
AcDbSymbolTable
0
VPORT
5
1
100
AcDbSymbolTableRecord
100
AcDbViewportTableRecord
2
*Active
70
0
10
0
20
0
11
1
21
1
12
-1
22
1
13
0
23
0
14
0.5
24
0.5
15
10
25
10
16
0
26
0
36
1
17
0
27
0
37
0
0
ENDTAB
0
TABLE
2
LTYPE
5
1ee
100
AcDbSymbolTable
0
LTYPE
5
14
100
AcDbSymbolTableRecord
100
AcDbLinetypeTableRecord
70
0
2
ByBlock
3

72
65
73
0
40
0
0
LTYPE
5
15
100
AcDbSymbolTableRecord
100
AcDbLinetypeTableRecord
70
0
2
ByLayer
3

72
65
73
0
40
0
0
LTYPE
5
16
100
AcDbSymbolTableRecord
100
AcDbLinetypeTableRecord
70
0
2
CONTINUOUS
3
Solid line
72
65
73
0
40
0
0
LTYPE
5
6A
100
AcDbSymbolTableRecord
100
AcDbLinetypeTableRecord
70
0
2
CENTER
3
____ _ ____ _ ____ _ ____
72
65
73
4
40
47.5
49
22
74
0
49
-8.5
74
0
49
8.5
74
0
49
-8.5
74
0
0
LTYPE
5
6B
100
AcDbSymbolTableRecord
100
AcDbLinetypeTableRecord
70
0
2
DASHED
3
__ __ __ __ __ __ __ __ __
72
65
73
2
40
25.72
49
12.86
74
0
49
-12.86
74
0
0
ENDTAB
0
TABLE
2
LAYER
5
1ef
100
AcDbSymbolTable
0
LAYER
5
10
100
AcDbSymbolTableRecord
100
AcDbLayerTableRecord
2
0
70
0
62
7
6
CONTINUOUS
290
1
370
-3
390
0
0
LAYER
5
6D
100
AcDbSymbolTableRecord
100
AcDbLayerTableRecord
2
80
70
0
62
-6
6
CONTINUOUS
290
1
370
-3
390
0
0
LAYER
5
6F
100
AcDbSymbolTableRecord
100
AcDbLayerTableRecord
2
81
70
0
62
-3
6
CONTINUOUS
290
1
370
-3
390
0
0
LAYER
5
72
100
AcDbSymbolTableRecord
100
AcDbLayerTableRecord
2
4
70
0
62
-2
6
CENTER
290
1
370
-3
390
0
0
LAYER
5
7C
100
AcDbSymbolTableRecord
100
AcDbLayerTableRecord
2
1
70
0
62
4
6
CONTINUOUS
290
1
370
-3
390
0
0
LAYER
5
144
100
AcDbSymbolTableRecord
100
AcDbLayerTableRecord
2
2
70
0
62
7
6
CONTINUOUS
290
1
370
-3
390
0
0
LAYER
5
1d9
100
AcDbSymbolTableRecord
100
AcDbLayerTableRecord
2
SK4
70
0
62
2
6
CENTER
290
1
370
-3
390
0
0
LAYER
5
1da
100
AcDbSymbolTableRecord
100
AcDbLayerTableRecord
2
SK1
70
0
62
4
6
CONTINUOUS
290
1
370
-3
390
0
0
LAYER
5
1db
100
AcDbSymbolTableRecord
100
AcDbLayerTableRecord
2
SK6
70
0
62
5
6
CONTINUOUS
290
1
370
-3
390
0
0
LAYER
5
1dc
100
AcDbSymbolTableRecord
100
AcDbLayerTableRecord
2
SK2
70
0
62
7
6
CONTINUOUS
290
1
370
-3
390
0
0
ENDTAB
0
TABLE
2
STYLE
5
1f0
100
AcDbSymbolTable
0
STYLE
5
11
100
AcDbSymbolTableRecord
100
AcDbTextStyleTableRecord
2
Standard
3
txt
70
0
71
0
40
0
41
1
42
0
50
0
0
STYLE
5
13F
100
AcDbSymbolTableRecord
100
AcDbTextStyleTableRecord
2
iso_b_vert
3
simplex.shx
70
0
71
0
40
0
41
1
42
0
50
0
0
STYLE
5
140
100
AcDbSymbolTableRecord
100
AcDbTextStyleTableRecord
2
DWGDirectTextStyle
3
simplex
70
0
71
0
40
0
41
1
42
0
50
0
0
ENDTAB
0
TABLE
2
DIMSTYLE
5
1f1
100
AcDbSymbolTable
100
AcDbDimStyleTable
0
DIMSTYLE
105
27
100
AcDbSymbolTableRecord
100
AcDbDimStyleTableRecord
2
Standard
70
0
3
<>
41
0.18
42
0.0625
44
0.18
140
0.18
147
0.09
73
0
74
0
77
1
271
2
275
0
278
52
280
0
340
11
0
ENDTAB
0
TABLE
2
VIEW
5
1f2
100
AcDbSymbolTable
0
ENDTAB
0
TABLE
2
UCS
5
1f3
100
AcDbSymbolTable
0
ENDTAB
0
TABLE
2
APPID
5
1f4
100
AcDbSymbolTable
0
APPID
5
12
100
AcDbSymbolTableRecord
100
AcDbRegAppTableRecord
2
ACAD
70
0
0
ENDTAB
0
TABLE
2
BLOCK_RECORD
5
1f5
100
AcDbSymbolTable
0
BLOCK_RECORD
5
1F
100
AcDbSymbolTableRecord
100
AcDbBlockTableRecord
2
*Model_Space
340
0
70
0
0
BLOCK_RECORD
5
1B
100
AcDbSymbolTableRecord
100
AcDbBlockTableRecord
2
*Paper_Space
340
0
70
0
0
BLOCK_RECORD
5
23
100
AcDbSymbolTableRecord
100
AcDbBlockTableRecord
2
*Paper_Space0
340
0
70
0
0
BLOCK_RECORD
5
142
100
AcDbSymbolTableRecord
100
AcDbBlockTableRecord
2
DimnDraft3D1
340
0
70
0
0
BLOCK_RECORD
5
14D
100
AcDbSymbolTableRecord
100
AcDbBlockTableRecord
2
DimnDraft3D2
340
0
70
0
0
BLOCK_RECORD
5
156
100
AcDbSymbolTableRecord
100
AcDbBlockTableRecord
2
DimnDraft3D33
340
0
70
0
0
BLOCK_RECORD
5
161
100
AcDbSymbolTableRecord
100
AcDbBlockTableRecord
2
DimnDraft3D4
340
0
70
0
0
BLOCK_RECORD
5
16C
100
AcDbSymbolTableRecord
100
AcDbBlockTableRecord
2
DimnDraft3D5
340
0
70
0
0
BLOCK_RECORD
5
176
100
AcDbSymbolTableRecord
100
AcDbBlockTableRecord
2
DimnDraft3D6
340
0
70
0
0
ENDTAB
0
ENDSEC
0
SECTION
2
BLOCKS
0
BLOCK
5
20
100
AcDbEntity
8
0
100
AcDbBlockBegin
2
*Model_Space
70
0
10
0
20
0
30
0
3
*Model_Space
0
ENDBLK
5
21
100
AcDbEntity
8
0
100
AcDbBlockEnd
0
BLOCK
5
1C
100
AcDbEntity
8
0
100
AcDbBlockBegin
2
*Paper_Space
70
0
10
0
20
0
30
0
3
*Paper_Space
0
ENDBLK
5
1D
100
AcDbEntity
8
0
100
AcDbBlockEnd
0
BLOCK
5
24
100
AcDbEntity
8
0
100
AcDbBlockBegin
2
*Paper_Space0
70
0
10
0
20
0
30
0
3
*Paper_Space0
0
ENDBLK
5
25
100
AcDbEntity
8
0
100
AcDbBlockEnd
0
BLOCK
5
14A
100
AcDbEntity
8
0
100
AcDbBlockBegin
2
DimnDraft3D1
70
0
10
0
20
0
30
0
3
DimnDraft3D1
0
MTEXT
5
143
100
AcDbEntity
8
2
62
256
6
ByLayer
370
13
48
1
60
0
100
AcDbMText
10
52.607533
20
52.470227
30
0
210
0
220
0
230
1
1
\W0.6328;109
40
3.175
41
0
44
1.084337
50
0
71
7
72
5
7
iso_b_vert
0
LINE
5
145
100
AcDbEntity
8
2
62
256
6
ByLayer
370
13
48
1
60
0
100
AcDbLine
10
0
20
1.5875
30
0
11
0
21
54.851477
31
0
39
0
210
0
220
0
230
1
0
LINE
5
146
100
AcDbEntity
8
2
62
256
6
ByLayer
370
13
48
1
60
0
100
AcDbLine
10
109
20
1.5875
30
0
11
109
21
54.851477
31
0
39
0
210
0
220
0
230
1
0
LINE
5
147
100
AcDbEntity
8
2
62
256
6
ByLayer
370
13
48
1
60
0
100
AcDbLine
10
0
20
51.676477
30
0
11
109
21
51.676477
31
0
39
0
210
0
220
0
230
1
0
SOLID
5
148
100
AcDbEntity
8
2
62
256
6
ByLayer
370
13
48
1
60
0
100
AcDbTrace
10
0
20
51.676477
30
0
11
3.174998
21
52.094473
31
0
12
3.175002
22
51.25848
32
0
13
0
23
51.676477
33
0
39
0
210
0
220
0
230
1
0
SOLID
5
149
100
AcDbEntity
8
2
62
256
6
ByLayer
370
13
48
1
60
0
100
AcDbTrace
10
109
20
51.676477
30
0
11
105.825002
21
51.25848
31
0
12
105.824998
22
52.094473
32
0
13
109
23
51.676477
33
0
39
0
210
0
220
0
230
1
0
ENDBLK
5
14B
100
AcDbEntity
8
0
100
AcDbBlockEnd
0
BLOCK
5
153
100
AcDbEntity
8
0
100
AcDbBlockBegin
2
DimnDraft3D2
70
0
10
0
20
0
30
0
3
DimnDraft3D2
0
MTEXT
5
14E
100
AcDbEntity
8
SK2
62
256
6
ByLayer
370
13
48
1
60
0
100
AcDbMText
10
40.616561
20
27.98913
30
0
210
0
220
0
230
1
1
\W0.5404;3
40
3.175
41
0
44
1.084337
50
44.1609769341907
71
7
72
5
7
iso_b_vert
0
MTEXT
5
150
100
AcDbEntity
8
SK2
62
256
6
ByLayer
370
13
48
1
60
0
100
AcDbMText
10
37.649559
20
25.107776
30
0
210
0
220
0
230
1
1
\W0.6380;R
40
3.175
41
0
44
1.084337
50
44.1609769341907
71
7
72
5
7
iso_b_vert
0
LINE
5
151
100
AcDbEntity
8
SK2
62
256
6
ByLayer
370
13
48
1
60
0
100
AcDbLine
10
24.169063
20
10.90997
30
0
11
41.619093
21
27.856274
31
0
39
0
210
0
220
0
230
1
0
SOLID
5
152
100
AcDbEntity
8
SK2
62
256
6
ByLayer
370
13
48
1
60
0
100
AcDbTrace
10
24.169063
20
10.90997
30
0
11
26.155552
21
13.421782
31
0
12
26.737971
22
12.822055
32
0
13
24.169063
23
10.90997
33
0
39
0
210
0
220
0
230
1
0
ENDBLK
5
154
100
AcDbEntity
8
0
100
AcDbBlockEnd
0
BLOCK
5
157
100
AcDbEntity
8
0
100
AcDbBlockBegin
2
DimnDraft3D33
70
0
10
0
20
0
30
0
3
DimnDraft3D33
0
LINE
5
159
100
AcDbEntity
8
SK2
62
256
6
ByLayer
370
25
48
1
60
0
100
AcDbLine
10
-1.2875
20
25
30
0
11
-46.088511
21
25
31
0
39
0
210
0
220
0
230
1
0
LINE
5
15A
100
AcDbEntity
8
SK2
62
256
6
ByLayer
370
25
48
1
60
0
100
AcDbLine
10
-1.2875
20
-25
30
0
11
-46.088511
21
-25
31
0
39
0
210
0
220
0
230
1
0
LINE
5
15B
100
AcDbEntity
8
SK2
62
256
6
ByLayer
370
25
48
1
60
0
100
AcDbLine
10
-42.913511
20
25
30
0
11
-42.913511
21
-25
31
0
39
0
210
0
220
0
230
1
0
SOLID
5
15C
100
AcDbEntity
8
SK2
62
256
6
ByLayer
370
25
48
1
60
0
100
AcDbTrace
10
-42.913511
20
25
30
0
11
-42.495514
21
21.825002
31
0
12
-43.331508
22
21.824998
32
0
13
-42.913511
23
25
33
0
39
0
210
0
220
0
230
1
0
SOLID
5
15D
100
AcDbEntity
8
SK2
62
256
6
ByLayer
370
25
48
1
60
0
100
AcDbTrace
10
-42.913511
20
-25
30
0
11
-43.331508
21
-21.825002
31
0
12
-42.495514
22
-21.824998
32
0
13
-42.913511
23
-25
33
0
39
0
210
0
220
0
230
1
0
MTEXT
5
15E
100
AcDbEntity
8
SK2
62
256
6
ByLayer
370
13
48
1
60
0
100
AcDbMText
10
-44.501011
20
-4.25309
30
0
210
0
220
0
230
1
1
%%c
40
3.175
41
0
44
1.084337
50
90
71
7
72
5
7
iso_b_vert
0
MTEXT
5
15F
100
AcDbEntity
8
SK2
62
256
6
ByLayer
370
13
48
1
60
0
100
AcDbMText
10
-44.501011
20
3.659605
30
0
210
0
220
0
230
1
1
\W0.6740;50
40
3.175
41
0
44
1.084337
50
90
71
7
72
5
7
iso_b_vert
0
ENDBLK
5
158
100
AcDbEntity
8
0
100
AcDbBlockEnd
0
BLOCK
5
169
100
AcDbEntity
8
0
100
AcDbBlockBegin
2
DimnDraft3D4
70
0
10
0
20
0
30
0
3
DimnDraft3D4
0
MTEXT
5
162
100
AcDbEntity
8
SK2
62
256
6
ByLayer
370
13
48
1
60
0
100
AcDbMText
10
126.827915
20
-4.25309
30
0
210
0
220
0
230
1
1
%%c
40
3.175
41
0
44
1.084337
50
90
71
7
72
5
7
iso_b_vert
0
MTEXT
5
163
100
AcDbEntity
8
SK2
62
256
6
ByLayer
370
13
48
1
60
0
100
AcDbMText
10
126.827915
20
3.659605
30
0
210
0
220
0
230
1
1
\W0.6740;20
40
3.175
41
0
44
1.084337
50
90
71
7
72
5
7
iso_b_vert
0
LINE
5
164
100
AcDbEntity
8
SK2
62
256
6
ByLayer
370
13
48
1
60
0
100
AcDbLine
10
108.3875
20
10
30
0
11
131.590415
21
10
31
0
39
0
210
0
220
0
230
1
0
LINE
5
165
100
AcDbEntity
8
SK2
62
256
6
ByLayer
370
13
48
1
60
0
100
AcDbLine
10
108.3875
20
-10
30
0
11
131.590415
21
-10
31
0
39
0
210
0
220
0
230
1
0
LINE
5
166
100
AcDbEntity
8
SK2
62
256
6
ByLayer
370
13
48
1
60
0
100
AcDbLine
10
128.415415
20
10
30
0
11
128.415415
21
-10
31
0
39
0
210
0
220
0
230
1
0
SOLID
5
167
100
AcDbEntity
8
SK2
62
256
6
ByLayer
370
13
48
1
60
0
100
AcDbTrace
10
128.415415
20
10
30
0
11
128.833412
21
6.825002
31
0
12
127.997419
22
6.824998
32
0
13
128.415415
23
10
33
0
39
0
210
0
220
0
230
1
0
SOLID
5
168
100
AcDbEntity
8
SK2
62
256
6
ByLayer
370
13
48
1
60
0
100
AcDbTrace
10
128.415415
20
-10
30
0
11
127.997419
21
-6.825002
31
0
12
128.833412
22
-6.824998
32
0
13
128.415415
23
-10
33
0
39
0
210
0
220
0
230
1
0
ENDBLK
5
16A
100
AcDbEntity
8
0
100
AcDbBlockEnd
0
BLOCK
5
173
100
AcDbEntity
8
0
100
AcDbBlockBegin
2
DimnDraft3D5
70
0
10
0
20
0
30
0
3
DimnDraft3D5
0
MTEXT
5
16D
100
AcDbEntity
8
SK2
62
256
6
ByLayer
370
13
48
1
60
0
100
AcDbMText
10
64.811465
20
-33.046869
30
0
210
0
220
0
230
1
1
\W0.7150;82,7
40
3.175
41
0
44
1.084337
50
0
71
7
72
5
7
iso_b_vert
0
LINE
5
16E
100
AcDbEntity
8
SK2
62
256
6
ByLayer
370
13
48
1
60
0
100
AcDbLine
10
26.321219
20
-11.5875
30
0
11
26.321219
21
-37.015619
31
0
39
0
210
0
220
0
230
1
0
LINE
5
16F
100
AcDbEntity
8
SK2
62
256
6
ByLayer
370
13
48
1
60
0
100
AcDbLine
10
109
20
-1.5875
30
0
11
109
21
-37.015619
31
0
39
0
210
0
220
0
230
1
0
LINE
5
170
100
AcDbEntity
8
SK2
62
256
6
ByLayer
370
13
48
1
60
0
100
AcDbLine
10
26.321219
20
-33.840619
30
0
11
109
21
-33.840619
31
0
39
0
210
0
220
0
230
1
0
SOLID
5
171
100
AcDbEntity
8
SK2
62
256
6
ByLayer
370
13
48
1
60
0
100
AcDbTrace
10
26.321219
20
-33.840619
30
0
11
29.496217
21
-33.422623
31
0
12
29.49622
22
-34.258616
32
0
13
26.321219
23
-33.840619
33
0
39
0
210
0
220
0
230
1
0
SOLID
5
172
100
AcDbEntity
8
SK2
62
256
6
ByLayer
370
13
48
1
60
0
100
AcDbTrace
10
109
20
-33.840619
30
0
11
105.825002
21
-34.258616
31
0
12
105.824998
22
-33.422623
32
0
13
109
23
-33.840619
33
0
39
0
210
0
220
0
230
1
0
ENDBLK
5
174
100
AcDbEntity
8
0
100
AcDbBlockEnd
0
BLOCK
5
17D
100
AcDbEntity
8
0
100
AcDbBlockBegin
2
DimnDraft3D6
70
0
10
0
20
0
30
0
3
DimnDraft3D6
0
MTEXT
5
177
100
AcDbEntity
8
SK2
62
256
6
ByLayer
370
13
48
1
60
0
100
AcDbMText
10
8.897105
20
-32.862483
30
0
210
0
220
0
230
1
1
\W0.6740;20
40
3.175
41
0
44
1.084337
50
0
71
7
72
5
7
iso_b_vert
0
LINE
5
178
100
AcDbEntity
8
SK2
62
256
6
ByLayer
370
13
48
1
60
0
100
AcDbLine
10
0
20
-26.2875
30
0
11
0
21
-36.831233
31
0
39
0
210
0
220
0
230
1
0
LINE
5
179
100
AcDbEntity
8
SK2
62
256
6
ByLayer
370
13
48
1
60
0
100
AcDbLine
10
20
20
-26.5875
30
0
11
20
21
-36.831233
31
0
39
0
210
0
220
0
230
1
0
LINE
5
17A
100
AcDbEntity
8
SK2
62
256
6
ByLayer
370
13
48
1
60
0
100
AcDbLine
10
0
20
-33.656233
30
0
11
20
21
-33.656233
31
0
39
0
210
0
220
0
230
1
0
SOLID
5
17B
100
AcDbEntity
8
SK2
62
256
6
ByLayer
370
13
48
1
60
0
100
AcDbTrace
10
0
20
-33.656233
30
0
11
3.174998
21
-33.238237
31
0
12
3.175002
22
-34.07423
32
0
13
0
23
-33.656233
33
0
39
0
210
0
220
0
230
1
0
SOLID
5
17C
100
AcDbEntity
8
SK2
62
256
6
ByLayer
370
13
48
1
60
0
100
AcDbTrace
10
20
20
-33.656233
30
0
11
16.825002
21
-34.07423
31
0
12
16.824998
22
-33.238237
32
0
13
20
23
-33.656233
33
0
39
0
210
0
220
0
230
1
0
ENDBLK
5
17E
100
AcDbEntity
8
0
100
AcDbBlockEnd
0
ENDSEC
0
SECTION
2
ENTITIES
0
ARC
5
DE
100
AcDbEntity
8
SK1
62
256
6
ByLayer
370
18
48
1
60
0
100
AcDbCircle
39
0
10
0.6
20
18.75
30
0
40
1
210
0
220
0
230
-1
100
AcDbArc
50
233.130102
51
246.421822
0
ARC
5
DF
100
AcDbEntity
8
SK1
62
256
6
ByLayer
370
18
48
1
60
0
100
AcDbCircle
39
0
10
0.6
20
-18.75
30
0
40
1
210
0
220
0
230
-1
100
AcDbArc
50
113.578178
51
126.869898
0
ARC
5
E0
100
AcDbEntity
8
1
62
256
6
ByLayer
370
18
48
1
60
0
100
AcDbCircle
39
0
10
-26.321219
20
13
30
0
40
3
210
0
220
0
230
-1
100
AcDbArc
50
270
51
345
0
ARC
5
E1
100
AcDbEntity
8
1
62
256
6
ByLayer
370
18
48
1
60
0
100
AcDbCircle
39
0
10
-26.321219
20
-13
30
0
40
3
210
0
220
0
230
-1
100
AcDbArc
50
15
51
90
0
ARC
5
E2
100
AcDbEntity
8
1
62
256
6
ByLayer
370
18
48
1
60
0
100
AcDbCircle
39
0
10
106.8
20
-9.8
30
0
40
0.2
210
0
220
0
230
1
100
AcDbArc
50
270
51
0
0
ARC
5
E3
100
AcDbEntity
8
1
62
256
6
ByLayer
370
18
48
1
60
0
100
AcDbCircle
39
0
10
106.8
20
9.8
30
0
40
0.2
210
0
220
0
230
1
100
AcDbArc
50
0
51
90
0
CIRCLE
5
E4
100
AcDbEntity
8
1
62
256
6
ByLayer
370
18
48
1
60
0
100
AcDbCircle
10
102
20
0
30
0
40
1
39
0
210
0
220
0
230
1
0
ELLIPSE
5
E5
100
AcDbEntity
8
1
62
256
6
ByLayer
370
18
48
1
60
0
100
AcDbEllipse
10
-1.056258
20
0
30
0
11
11.7092723497253
21
24.677186440935
31
0
210
0
220
0
230
1
40
0.341999
41
-1.08183270048935
42
-0.16721307190899
0
ELLIPSE
5
E6
100
AcDbEntity
8
1
62
256
6
ByLayer
370
18
48
1
60
0
100
AcDbEllipse
10
21.056258
20
0
30
0
11
-11.7092723497294
21
24.6771864409402
31
0
210
0
220
0
230
1
40
0.341999
41
0.167213071908968
42
1.08183270048919
0
ELLIPSE
5
E7
100
AcDbEntity
8
1
62
256
6
ByLayer
370
18
48
1
60
0
100
AcDbEllipse
10
-1.056258
20
0
30
0
11
-11.7092723497256
21
24.6771864409354
31
0
210
0
220
0
230
1
40
0.341999
41
-2.97437958168081
42
-2.05975995310045
0
ELLIPSE
5
E8
100
AcDbEntity
8
1
62
256
6
ByLayer
370
18
48
1
60
0
100
AcDbEllipse
10
21.056258
20
0
30
0
11
11.7092723497299
21
24.6771864409408
31
0
210
0
220
0
230
1
40
0.341999
41
2.05975995310062
42
2.97437958168083
0
POINT
5
6C
100
AcDbEntity
8
80
62
256
6
ByLayer
370
18
48
1
60
0
100
AcDbPoint
10
0
20
0
30
0
39
0
210
0
220
0
230
1
50
360
0
POINT
5
6E
100
AcDbEntity
8
81
62
256
6
ByLayer
370
18
48
1
60
0
100
AcDbPoint
10
109
20
0
30
0
39
0
210
0
220
0
230
1
50
360
0
SPLINE
5
E9
100
AcDbEntity
8
1
62
256
6
ByLayer
370
18
48
1
60
0
100
AcDbSpline
70
4
71
3
72
13
73
9
40
0
40
0
40
0
40
0
40
0.0811068003230501
40
0.54205969579374
40
0.698217929308328
40
0.855466894270602
40
0.966212236972897
40
1
40
1
40
1
40
1
41
1
10
11.8943375672974
20
23.6665017920809
30
0
41
1
10
11.8894428381777
20
23.6728293617709
30
0
41
1
10
11.8534346287606
20
23.7145200781299
30
0
41
1
10
11.7877522749415
20
23.7663890526222
30
0
41
1
10
11.6656255980129
20
23.8124861135428
30
0
41
1
10
11.5793223070755
20
23.8319383085952
30
0
41
1
10
11.5056611588718
20
23.8385548003315
30
0
41
1
10
11.4698010058117
20
23.8391220894067
30
0
41
1
10
11.4613248654052
20
23.8391299750504
30
0
0
SPLINE
5
EA
100
AcDbEntity
8
1
62
256
6
ByLayer
370
18
48
1
60
0
100
AcDbSpline
70
4
71
3
72
12
73
8
40
0
40
0
40
0
40
0
40
0.0777065243411475
40
0.182768991260447
40
0.355509705274232
40
0.661119206188002
40
1
40
1
40
1
40
1
41
1
10
8.53867513459481
20
23.8391299750504
30
0
41
1
10
8.51889061425139
20
23.8390510092636
30
0
41
1
10
8.47384249247805
20
23.837417080354
30
0
41
1
10
8.390979334746
20
23.8265956452496
30
0
41
1
10
8.28079022698233
20
23.7967264721263
30
0
41
1
10
8.17813160018114
20
23.7411879478121
30
0
41
1
10
8.12412228713196
20
23.6935586164053
30
0
41
1
10
8.10566243270259
20
23.6665017920809
30
0
0
SPLINE
5
EB
100
AcDbEntity
8
1
62
256
6
ByLayer
370
18
48
1
60
0
100
AcDbSpline
70
4
71
3
72
13
73
9
40
0
40
0
40
0
40
0
40
0.0811068003230366
40
0.542059695793718
40
0.698217929308301
40
0.855466894270596
40
0.966212236972867
40
1
40
1
40
1
40
1
41
1
10
8.10566243270259
20
8.05584836782774
30
0
41
1
10
8.11055716182229
20
8.037251714098
30
0
41
1
10
8.14656537123944
20
7.91434257650656
30
0
41
1
10
8.21224772505842
20
7.75704006565195
30
0
41
1
10
8.33437440198708
20
7.61365769814303
30
0
41
1
10
8.42067769292451
20
7.55243803205592
30
0
41
1
10
8.49433884112822
20
7.53148602816117
30
0
41
1
10
8.53019899418831
20
7.52969262189673
30
0
41
1
10
8.53867513459481
20
7.52966679426498
30
0
0
SPLINE
5
EC
100
AcDbEntity
8
1
62
256
6
ByLayer
370
18
48
1
60
0
100
AcDbSpline
70
4
71
3
72
12
73
8
40
0
40
0
40
0
40
0
40
0.0777065243411817
40
0.182768991260496
40
0.355509705274344
40
0.661119206188212
40
1
40
1
40
1
40
1
41
1
10
11.4613248654052
20
7.52966679426499
30
0
41
1
10
11.4811093857486
20
7.52992453895395
30
0
41
1
10
11.526157507522
20
7.53508753718822
30
0
41
1
10
11.609020665254
20
7.56930040674385
30
0
41
1
10
11.7192097730177
20
7.66302821977538
30
0
41
1
10
11.8218683998189
20
7.83415197314229
30
0
41
1
10
11.875877712868
20
7.97612018956257
30
0
41
1
10
11.8943375672974
20
8.05584836782772
30
0
0
SPLINE
5
ED
100
AcDbEntity
8
1
62
256
6
ByLayer
370
18
48
1
60
0
100
AcDbSpline
70
4
71
3
72
13
73
9
40
0
40
0
40
0
40
0
40
0.081106800323012
40
0.542059695793596
40
0.698217929308227
40
0.855466894270571
40
0.966212236972817
40
1
40
1
40
1
40
1
41
1
10
11.8943375672974
20
-8.05584836782772
30
0
41
1
10
11.8894428381777
20
-8.03725171409799
30
0
41
1
10
11.8534346287606
20
-7.91434257650657
30
0
41
1
10
11.7877522749416
20
-7.75704006565199
30
0
41
1
10
11.665625598013
20
-7.61365769814305
30
0
41
1
10
11.5793223070755
20
-7.55243803205596
30
0
41
1
10
11.5056611588718
20
-7.53148602816111
30
0
41
1
10
11.4698010058117
20
-7.52969262189673
30
0
41
1
10
11.4613248654052
20
-7.52966679426498
30
0
0
SPLINE
5
EE
100
AcDbEntity
8
1
62
256
6
ByLayer
370
18
48
1
60
0
100
AcDbSpline
70
4
71
3
72
12
73
8
40
0
40
0
40
0
40
0
40
0.0777065243411248
40
0.182768991260443
40
0.355509705274211
40
0.661119206187974
40
1
40
1
40
1
40
1
41
1
10
8.53867513459481
20
-7.529666794265
30
0
41
1
10
8.5188906142514
20
-7.52992453895396
30
0
41
1
10
8.47384249247806
20
-7.53508753718821
30
0
41
1
10
8.39097933474603
20
-7.56930040674382
30
0
41
1
10
8.28079022698235
20
-7.66302821977532
30
0
41
1
10
8.17813160018116
20
-7.8341519731422
30
0
41
1
10
8.12412228713197
20
-7.97612018956252
30
0
41
1
10
8.10566243270259
20
-8.05584836782773
30
0
0
SPLINE
5
EF
100
AcDbEntity
8
1
62
256
6
ByLayer
370
18
48
1
60
0
100
AcDbSpline
70
4
71
3
72
13
73
9
40
0
40
0
40
0
40
0
40
0.081106800323024
40
0.542059695793695
40
0.69821792930829
40
0.855466894270574
40
0.966212236972855
40
1
40
1
40
1
40
1
41
1
10
8.10566243270259
20
-23.6665017920809
30
0
41
1
10
8.11055716182229
20
-23.6728293617709
30
0
41
1
10
8.14656537123945
20
-23.7145200781299
30
0
41
1
10
8.21224772505843
20
-23.7663890526222
30
0
41
1
10
8.33437440198707
20
-23.8124861135428
30
0
41
1
10
8.4206776929245
20
-23.8319383085952
30
0
41
1
10
8.49433884112822
20
-23.8385548003315
30
0
41
1
10
8.5301989941883
20
-23.8391220894067
30
0
41
1
10
8.53867513459481
20
-23.8391299750504
30
0
0
SPLINE
5
F0
100
AcDbEntity
8
1
62
256
6
ByLayer
370
18
48
1
60
0
100
AcDbSpline
70
4
71
3
72
12
73
8
40
0
40
0
40
0
40
0
40
0.0777065243411798
40
0.182768991260499
40
0.355509705274316
40
0.66111920618818
40
1
40
1
40
1
40
1
41
1
10
11.4613248654052
20
-23.8391299750504
30
0
41
1
10
11.4811093857486
20
-23.8390510092636
30
0
41
1
10
11.526157507522
20
-23.837417080354
30
0
41
1
10
11.609020665254
20
-23.8265956452496
30
0
41
1
10
11.7192097730177
20
-23.7967264721261
30
0
41
1
10
11.8218683998189
20
-23.7411879478122
30
0
41
1
10
11.875877712868
20
-23.6935586164053
30
0
41
1
10
11.8943375672974
20
-23.6665017920809
30
0
0
SPLINE
5
F1
100
AcDbEntity
8
SK1
62
256
6
ByLayer
370
18
48
1
60
0
100
AcDbSpline
70
4
71
3
72
17
73
13
40
0
40
0
40
0
40
0
40
0.465485506351383
40
0.669701843128612
40
0.774084356421135
40
0.856371664793533
40
0.897755153898635
40
0.917428272144475
40
0.937237772131972
40
0.955191624681787
40
0.984018190502026
40
1
40
1
40
1
40
1
41
1
10
-0.200000000000038
20
-5.88142397393346
30
0
41
1
10
-0.1960647808782
20
-5.75474600051132
30
0
41
1
10
-0.206716278472284
20
-5.57221313865745
30
0
41
1
10
-0.236369718937367
20
-5.35851195688537
30
0
41
1
10
-0.265123837646852
20
-5.2522119738577
30
0
41
1
10
-0.291115782477693
20
-5.19220348818486
30
0
41
1
10
-0.318091310485836
20
-5.15994791139139
30
0
41
1
10
-0.338430402128573
20
-5.14828626530394
30
0
41
1
10
-0.354699344248621
20
-5.14548380678132
30
0
41
1
10
-0.372899440263032
20
-5.14897430103643
30
0
41
1
10
-0.387749096358135
20
-5.15784519057131
30
0
41
1
10
-0.39691878097133
20
-5.16560053879508
30
0
41
1
10
-0.400000000000051
20
-5.16866679574503
30
0
0
SPLINE
5
F2
100
AcDbEntity
8
SK1
62
256
6
ByLayer
370
18
48
1
60
0
100
AcDbSpline
70
4
71
3
72
16
73
12
40
0
40
0
40
0
40
0
40
0.0439503849784364
40
0.0882962095956771
40
0.119823748748281
40
0.151333080321581
40
0.197785752387551
40
0.285208338526594
40
0.432294100651084
40
0.58008530169941
40
1
40
1
40
1
40
1
41
1
10
-0.40000000000004
20
-5.16866679574529
30
0
41
1
10
-0.420260552159719
20
-5.18959123991625
30
0
41
1
10
-0.465532793809269
20
-5.2245968957623
30
0
41
1
10
-0.540325064014482
20
-5.25975746385926
30
0
41
1
10
-0.61556627839364
20
-5.26603853608321
30
0
41
1
10
-0.689853412389385
20
-5.24890814810322
30
0
41
1
10
-0.785804329696922
20
-5.19137211714253
30
0
41
1
10
-0.905339112737123
20
-5.05378758708942
30
0
41
1
10
-1.02152968139801
20
-4.84183055168614
30
0
41
1
10
-1.17561394769092
20
-4.42035003265136
30
0
41
1
10
-1.26556409785408
20
-4.07230605007437
30
0
41
1
10
-1.30710678118655
20
-3.80474664113272
30
0
0
SPLINE
5
F3
100
AcDbEntity
8
SK1
62
256
6
ByLayer
370
18
48
1
60
0
100
AcDbSpline
70
4
71
3
72
16
73
12
40
0
40
0
40
0
40
0
40
0.351058812479026
40
0.5494902428823
40
0.745650751445105
40
0.831752432968096
40
0.866430020907749
40
0.901364413669998
40
0.932606866569399
40
0.9831220084694
40
1
40
1
40
1
40
1
41
1
10
-1.30710678118655
20
3.80474436172741
30
0
41
1
10
-1.26978415806151
20
4.02733440489884
30
0
41
1
10
-1.18638534235563
20
4.36574772826711
30
0
41
1
10
-1.04345715092741
20
4.81143795815714
30
0
41
1
10
-0.896883993281788
20
5.07907048283341
30
0
41
1
10
-0.744504610413007
20
5.22449701225534
30
0
41
1
10
-0.644314188243217
20
5.26265754541682
30
0
41
1
10
-0.573027760448872
20
5.26521974999095
30
0
41
1
10
-0.49556838382239
20
5.24252370697401
30
0
41
1
10
-0.440485899594335
20
5.20534570545953
30
0
41
1
10
-0.407839795734877
20
5.17633421110904
30
0
41
1
10
-0.400000000000011
20
5.16866682996364
30
0
0
SPLINE
5
F4
100
AcDbEntity
8
SK1
62
256
6
ByLayer
370
18
48
1
60
0
100
AcDbSpline
70
4
71
3
72
17
73
13
40
0
40
0
40
0
40
0
40
0.030351422025331
40
0.053615508725247
40
0.0719362364152785
40
0.0902747582477841
40
0.115197940679842
40
0.159565658929424
40
0.2981382029904
40
0.587610881223527
40
0.878287013648287
40
1
40
1
40
1
40
1
41
1
10
-0.40000000000004
20
5.16866682996297
30
0
41
1
10
-0.394167575628449
20
5.16254689062886
30
0
41
1
10
-0.38267128971226
20
5.15403748188184
30
0
41
1
10
-0.364264031241587
20
5.14642716889599
30
0
41
1
10
-0.347332913984079
20
5.14606544583305
30
0
41
1
10
-0.330541138979943
20
5.15183291494149
30
0
41
1
10
-0.310401603395069
20
5.16756125175962
30
0
41
1
10
-0.276165558567053
20
5.21722886754103
30
0
41
1
10
-0.236739282710337
20
5.34658114116619
30
0
41
1
10
-0.207575999148844
20
5.54435821740557
30
0
41
1
10
-0.201433990875352
20
5.73654934889382
30
0
41
1
10
-0.199982261339106
20
5.84846084555253
30
0
41
1
10
-0.200000000000038
20
5.88142452370542
30
0
0
SPLINE
5
F5
100
AcDbEntity
8
SK1
62
256
6
ByLayer
370
18
48
1
60
0
100
AcDbSpline
70
4
71
2
72
6
73
3
40
0
40
0
40
0
40
1
40
1
40
1
41
1
10
-3
20
17.5000000000527
30
0
41
1
10
-15.7502365839532
20
17.1796696772131
30
0
41
1
10
-28.5004731679065
20
16.8593393543735
30
0
0
SPLINE
5
F6
100
AcDbEntity
8
SK1
62
256
6
ByLayer
370
18
48
1
60
0
100
AcDbSpline
70
4
71
2
72
6
73
3
40
0
40
0
40
0
40
1
40
1
40
1
41
1
10
-28.5004731679065
20
-16.8593393543424
30
0
41
1
10
-15.7502365839532
20
-17.1796696771814
30
0
41
1
10
-3
20
-17.5000000000204
30
0
0
SPLINE
5
F7
100
AcDbEntity
8
SK1
62
256
6
ByLayer
370
18
48
1
60
0
100
AcDbSpline
70
4
71
3
72
14
73
10
40
0
40
0
40
0
40
0
40
0.106385868855732
40
0.253705813711891
40
0.401007656750247
40
0.548297602518327
40
0.695579676619922
40
0.84285651901813
40
1
40
1
40
1
40
1
41
1
10
-2.19993687480718
20
-17.5201003687863
30
0
41
1
10
-2.19994421610192
20
-17.5193673450503
30
0
41
1
10
-2.19995986090332
20
-17.4927860913816
30
0
41
1
10
-2.19997656138666
20
-17.3524594073249
30
0
41
1
10
-2.1999882010107
20
-17.0884031980282
30
0
41
1
10
-2.19999491450112
20
-16.7229200646697
30
0
41
1
10
-2.19999839687952
20
-16.2635090711791
30
0
41
1
10
-2.19999979498391
20
-15.702993954098
30
0
41
1
10
-2.20000009281284
20
-15.2662928156273
30
0
41
1
10
-2.2
20
-15.024780864565
30
0
0
SPLINE
5
F8
100
AcDbEntity
8
SK1
62
256
6
ByLayer
370
18
48
1
60
0
100
AcDbSpline
70
4
71
1
72
4
73
2
40
0
40
0
40
1
40
1
41
1
10
-2.19492113517946
20
17.5202263833815
30
0
41
1
10
-2.21547702596455
20
17.5197099478559
30
0
0
SPLINE
5
F9
100
AcDbEntity
8
SK1
62
256
6
ByLayer
370
18
48
1
60
0
100
AcDbSpline
70
4
71
2
72
6
73
3
40
0
40
0
40
0
40
1
40
1
40
1
41
1
10
-2.21547702596455
20
17.5197099478559
30
0
41
1
10
-2.60773851298227
20
17.5098549739543
30
0
41
1
10
-3
20
17.5000000000527
30
0
0
SPLINE
5
FA
100
AcDbEntity
8
SK1
62
256
6
ByLayer
370
18
48
1
60
0
100
AcDbSpline
70
4
71
2
72
6
73
3
40
0
40
0
40
0
40
1
40
1
40
1
41
1
10
-3
20
-17.5000000000204
30
0
41
1
10
-2.60962946156203
20
-17.5098074667118
30
0
41
1
10
-2.21925892312405
20
-17.5196149334032
30
0
0
SPLINE
5
FB
100
AcDbEntity
8
SK1
62
256
6
ByLayer
370
18
48
1
60
0
100
AcDbSpline
70
4
71
1
72
4
73
2
40
0
40
0
40
1
40
1
41
1
10
-2.21925892312405
20
-17.5196149334032
30
0
41
1
10
-2.19492113517946
20
-17.5202263833491
30
0
0
SPLINE
5
FC
100
AcDbEntity
8
SK1
62
256
6
ByLayer
370
18
48
1
60
0
100
AcDbSpline
70
4
71
3
72
15
73
11
40
0
40
0
40
0
40
0
40
0.0482444824239489
40
0.186325294515882
40
0.324838366494798
40
0.462925346447214
40
0.601017879197507
40
0.73911849271798
40
0.877230953544085
40
1
40
1
40
1
40
1
41
1
10
-2.2
20
15.0247809138972
30
0
41
1
10
-2.20000000464518
20
15.0987890669644
30
0
41
1
10
-2.19999996083217
20
15.3789129024177
30
0
41
1
10
-2.1999996140758
20
15.829707793837
30
0
41
1
10
-2.19999801160332
20
16.3302819971791
30
0
41
1
10
-2.19999447065123
20
16.752240062316
30
0
41
1
10
-2.1999879804146
20
17.0906743060054
30
0
41
1
10
-2.19997713306249
20
17.3398329959724
30
0
41
1
10
-2.19996107278978
20
17.4876542352199
30
0
41
1
10
-2.19994531729302
20
17.5191036010008
30
0
41
1
10
-2.19993687627273
20
17.5201003696443
30
0
0
SPLINE
5
FD
100
AcDbEntity
8
SK1
62
256
6
ByLayer
370
18
48
1
60
0
100
AcDbSpline
70
4
71
3
72
13
73
9
40
0
40
0
40
0
40
0
40
0.239468143101076
40
0.368375717557467
40
0.500016413682604
40
0.631654380070979
40
0.760554427529312
40
1
40
1
40
1
40
1
41
1
10
-2
20
17.3251501409626
30
0
41
1
10
-2.02607195862894
20
17.3254032171872
30
0
41
1
10
-2.06363514911804
20
17.3325204701499
30
0
41
1
10
-2.11047805080219
20
17.3567460306058
30
0
41
1
10
-2.14242236455519
20
17.382721349279
30
0
41
1
10
-2.1684004741973
20
17.414662371353
30
0
41
1
10
-2.19262861856615
20
17.4615002450208
30
0
41
1
10
-2.19974657466873
20
17.4990601036781
30
0
41
1
10
-2.2
20
17.5251299249899
30
0
0
SPLINE
5
FE
100
AcDbEntity
8
SK1
62
256
6
ByLayer
370
18
48
1
60
0
100
AcDbSpline
70
4
71
3
72
13
73
9
40
0
40
0
40
0
40
0
40
0.239445575724636
40
0.368345624848073
40
0.499983592440204
40
0.631624288955064
40
0.760531862675224
40
1
40
1
40
1
40
1
41
1
10
-2.2
20
-17.5251299251292
30
0
41
1
10
-2.19974657467479
20
-17.4990601038703
30
0
41
1
10
-2.19262861856452
20
-17.4615002452731
30
0
41
1
10
-2.16840047423857
20
-17.4146623717452
30
0
41
1
10
-2.14242236464553
20
-17.38272134974
30
0
41
1
10
-2.11047805094366
20
-17.3567460311214
30
0
41
1
10
-2.06363514965123
20
-17.3325204707743
30
0
41
1
10
-2.02607195888454
20
-17.3254032177991
30
0
41
1
10
-2
20
-17.3251501414068
30
0
0
SPLINE
5
FF
100
AcDbEntity
8
SK1
62
256
6
ByLayer
370
18
48
1
60
0
100
AcDbSpline
70
4
71
2
72
6
73
3
40
0
40
0
40
0
40
1
40
1
40
1
41
1
10
-0.400000000000017
20
17.3251501409626
30
0
41
1
10
-1.20000000000001
20
17.3251501409626
30
0
41
1
10
-2
20
17.3251501409626
30
0
0
SPLINE
5
100
100
AcDbEntity
8
SK1
62
256
6
ByLayer
370
18
48
1
60
0
100
AcDbSpline
70
4
71
2
72
6
73
3
40
0
40
0
40
0
40
1
40
1
40
1
41
1
10
-2
20
-17.3251501414068
30
0
41
1
10
-1.20000000000001
20
-17.3251501414068
30
0
41
1
10
-0.400000000000017
20
-17.3251501414068
30
0
0
SPLINE
5
101
100
AcDbEntity
8
SK1
62
256
6
ByLayer
370
18
48
1
60
0
100
AcDbSpline
70
4
71
3
72
16
73
12
40
0
40
0
40
0
40
0
40
0.101870722793165
40
0.203718363389488
40
0.308089951926134
40
0.41241525276698
40
0.52916162839408
40
0.64639156167225
40
0.763296187326094
40
0.881625644108369
40
1
40
1
40
1
40
1
41
1
10
-1.30710678118655
20
3.80474436172741
30
0
41
1
10
-1.35281755127321
20
3.56030061780931
30
0
41
1
10
-1.43825474283597
20
3.06526047616153
30
0
41
1
10
-1.55260961619649
20
2.29746051127423
30
0
41
1
10
-1.64288396017671
20
1.5051199607552
30
0
41
1
10
-1.70375008696193
20
0.658796178987245
30
0
41
1
10
-1.71477648367589
20
-0.231403505662118
30
0
41
1
10
-1.67300909917653
20
-1.15039276708553
30
0
41
1
10
-1.5850927092093
20
-2.05785190512705
30
0
41
1
10
-1.45861282398588
20
-2.94424663120603
30
0
41
1
10
-1.36053835676226
20
-3.52065829215743
30
0
41
1
10
-1.30710678118664
20
-3.80474664113296
30
0
0
SPLINE
5
102
100
AcDbEntity
8
SK1
62
256
6
ByLayer
370
18
48
1
60
0
100
AcDbSpline
70
4
71
2
72
6
73
3
40
0
40
0
40
0
40
1
40
1
40
1
41
1
10
-28.5003904504266
20
16.8597456617469
30
0
41
1
10
-29.2501952787077
20
16.4010253845871
30
0
41
1
10
-30
20
15.9423013487186
30
0
0
SPLINE
5
103
100
AcDbEntity
8
SK1
62
256
6
ByLayer
370
18
48
1
60
0
100
AcDbSpline
70
4
71
2
72
6
73
3
40
0
40
0
40
0
40
1
40
1
40
1
41
1
10
-30
20
-15.9408160639395
30
0
41
1
10
-29.250201613525
20
-16.3993636736336
30
0
41
1
10
-28.5004032853135
20
-16.8579102610953
30
0
0
SPLINE
5
104
100
AcDbEntity
8
SK1
62
256
6
ByLayer
370
18
48
1
60
0
100
AcDbSpline
70
4
71
3
72
11
73
7
40
0
40
0
40
0
40
0
40
0.245755007744109
40
0.501794198211038
40
0.756953870258406
40
1
40
1
40
1
40
1
41
1
10
-0.200000000000015
20
17.5191731511753
30
0
41
1
10
-0.199994647676402
20
17.493844966999
30
0
41
1
10
-0.209350242264538
20
17.4456228534321
30
0
41
1
10
-0.254178184246646
20
17.3766360753192
30
0
41
1
10
-0.324420736760804
20
17.33275982811
30
0
41
1
10
-0.373991067023655
20
17.3239685556465
30
0
41
1
10
-0.400000000000017
20
17.3241476526065
30
0
0
SPLINE
5
105
100
AcDbEntity
8
SK1
62
256
6
ByLayer
370
18
48
1
60
0
100
AcDbSpline
70
4
71
3
72
11
73
7
40
0
40
0
40
0
40
0
40
0.243046950854861
40
0.498204668192408
40
0.754242469704643
40
1
40
1
40
1
40
1
41
1
10
-0.400000000000017
20
-17.3241468641747
30
0
41
1
10
-0.373991174653844
20
-17.3239674893689
30
0
41
1
10
-0.324421202647711
20
-17.332758304075
30
0
41
1
10
-0.254178044541194
20
-17.376633929413
30
0
41
1
10
-0.20935004437607
20
-17.4456203921355
30
0
41
1
10
-0.199994500672228
20
-17.4938412312525
30
0
41
1
10
-0.200000000000015
20
-17.5191688355708
30
0
0
SPLINE
5
106
100
AcDbEntity
8
1
62
256
6
ByLayer
370
18
48
1
60
0
100
AcDbSpline
70
4
71
1
72
4
73
2
40
0
40
0
40
1
40
1
41
1
10
108.521
20
9.92156741649222
30
0
41
1
10
108.641
20
9.80060712405104
30
0
0
SPLINE
5
107
100
AcDbEntity
8
1
62
256
6
ByLayer
370
18
48
1
60
0
100
AcDbSpline
70
4
71
3
72
11
73
7
40
0
40
0
40
0
40
0
40
0.344835256703714
40
0.63920180084783
40
0.871157698918708
40
1
40
1
40
1
40
1
41
1
10
108.73225
20
9.68695116042831
30
0
41
1
10
108.715298802875
20
9.7054452225165
30
0
41
1
10
108.687643090795
20
9.73665375011635
30
0
41
1
10
108.656770016441
20
9.77414962513337
30
0
41
1
10
108.643066727157
20
9.79387694379505
30
0
41
1
10
108.641093013827
20
9.79926685390054
30
0
41
1
10
108.641
20
9.80060712405104
30
0
0
SPLINE
5
108
100
AcDbEntity
8
1
62
256
6
ByLayer
370
18
48
1
60
0
100
AcDbSpline
70
4
71
1
72
4
73
2
40
0
40
0
40
1
40
1
41
1
10
109.271
20
9.08885059742844
30
0
41
1
10
108.73225
20
9.68695116042831
30
0
0
SPLINE
5
109
100
AcDbEntity
8
1
62
256
6
ByLayer
370
18
48
1
60
0
100
AcDbSpline
70
4
71
1
72
4
73
2
40
0
40
0
40
1
40
1
41
1
10
108.73225
20
9.50446711057244
30
0
41
1
10
109.271
20
9.02429683605595
30
0
0
SPLINE
5
10A
100
AcDbEntity
8
1
62
256
6
ByLayer
370
18
48
1
60
0
100
AcDbSpline
70
4
71
3
72
11
73
7
40
0
40
0
40
0
40
0
40
0.426943763151604
40
0.715788592080803
40
0.942980405022932
40
1
40
1
40
1
40
1
41
1
10
108.73225
20
9.42095529625561
30
0
41
1
10
108.710875114546
20
9.44643346903061
30
0
41
1
10
108.68084863108
20
9.48514856544601
30
0
41
1
10
108.650845299224
20
9.53061134565228
30
0
41
1
10
108.641791897551
20
9.55079194882438
30
0
41
1
10
108.641025852437
20
9.55721339844812
30
0
41
1
10
108.641000305115
20
9.55838507615469
30
0
0
SPLINE
5
10B
100
AcDbEntity
8
1
62
256
6
ByLayer
370
18
48
1
60
0
100
AcDbSpline
70
4
71
1
72
4
73
2
40
0
40
0
40
1
40
1
41
1
10
109.271
20
8.76053437000756
30
0
41
1
10
108.73225
20
9.42095529625561
30
0
0
SPLINE
5
10C
100
AcDbEntity
8
1
62
256
6
ByLayer
370
18
48
1
60
0
100
AcDbSpline
70
4
71
1
72
4
73
2
40
0
40
0
40
1
40
1
41
1
10
108.73225
20
9.10590572905463
30
0
41
1
10
109.271
20
8.64859388106188
30
0
0
SPLINE
5
10D
100
AcDbEntity
8
1
62
256
6
ByLayer
370
18
48
1
60
0
100
AcDbSpline
70
4
71
3
72
11
73
7
40
0
40
0
40
0
40
0
40
0.472584459329683
40
0.762401132804293
40
0.988122550848396
40
1
40
1
40
1
40
1
41
1
10
108.73225
20
8.97478549067163
30
0
41
1
10
108.708259914214
20
9.00654931173167
30
0
41
1
10
108.676850292649
20
9.05357231960652
30
0
41
1
10
108.647706922153
20
9.10932327038775
30
0
41
1
10
108.641151279322
20
9.13244909983414
30
0
41
1
10
108.641001675971
20
9.14022579497509
30
0
41
1
10
108.641000065189
20
9.14060948686557
30
0
0
SPLINE
5
10E
100
AcDbEntity
8
1
62
256
6
ByLayer
370
18
48
1
60
0
100
AcDbSpline
70
4
71
1
72
4
73
2
40
0
40
0
40
1
40
1
41
1
10
109.271
20
8.23175070770443
30
0
41
1
10
108.73225
20
8.97478549067163
30
0
0
SPLINE
5
10F
100
AcDbEntity
8
1
62
256
6
ByLayer
370
18
48
1
60
0
100
AcDbSpline
70
4
71
1
72
4
73
2
40
0
40
0
40
1
40
1
41
1
10
108.73225
20
8.50735818200377
30
0
41
1
10
109.271
20
8.06433003130653
30
0
0
SPLINE
5
110
100
AcDbEntity
8
1
62
256
6
ByLayer
370
18
48
1
60
0
100
AcDbSpline
70
4
71
3
72
10
73
6
40
0
40
0
40
0
40
0
40
0.529921945493705
40
0.808976631098403
40
1
40
1
40
1
40
1
41
1
10
108.73225
20
8.31950422279437
30
0
41
1
10
108.704940788652
20
8.36058099810438
30
0
41
1
10
108.672649607136
20
8.41852076893261
30
0
41
1
10
108.64545118197
20
8.48629734930264
30
0
41
1
10
108.641484764609
20
8.51161968523989
30
0
41
1
10
108.641000458546
20
8.52116774250908
30
0
0
SPLINE
5
111
100
AcDbEntity
8
1
62
256
6
ByLayer
370
18
48
1
60
0
100
AcDbSpline
70
4
71
1
72
4
73
2
40
0
40
0
40
1
40
1
41
1
10
109.271
20
7.45999175465368
30
0
41
1
10
108.73225
20
8.31950422279437
30
0
0
SPLINE
5
112
100
AcDbEntity
8
1
62
256
6
ByLayer
370
18
48
1
60
0
100
AcDbSpline
70
4
71
1
72
4
73
2
40
0
40
0
40
1
40
1
41
1
10
108.73225
20
7.66209940730236
30
0
41
1
10
109.271
20
7.2210568193391
30
0
0
SPLINE
5
113
100
AcDbEntity
8
1
62
256
6
ByLayer
370
18
48
1
60
0
100
AcDbSpline
70
4
71
3
72
10
73
6
40
0
40
0
40
0
40
0
40
0.524318757639846
40
0.80738054774099
40
1
40
1
40
1
40
1
41
1
10
108.73225
20
7.3997652951034
30
0
41
1
10
108.705379095855
20
7.44771303222489
30
0
41
1
10
108.67314190308
20
7.51792167864215
30
0
41
1
10
108.645917621476
20
7.6024475876778
30
0
41
1
10
108.641633490223
20
7.63713645705621
30
0
41
1
10
108.641007345444
20
7.65057415146391
30
0
0
SPLINE
5
114
100
AcDbEntity
8
1
62
256
6
ByLayer
370
18
48
1
60
0
100
AcDbSpline
70
4
71
1
72
4
73
2
40
0
40
0
40
1
40
1
41
1
10
109.271
20
6.35737636491733
30
0
41
1
10
108.73225
20
7.3997652951034
30
0
0
SPLINE
5
115
100
AcDbEntity
8
1
62
256
6
ByLayer
370
18
48
1
60
0
100
AcDbSpline
70
4
71
1
72
4
73
2
40
0
40
0
40
1
40
1
41
1
10
108.73225
20
6.47420971376892
30
0
41
1
10
109.271
20
6.01073242811683
30
0
0
SPLINE
5
116
100
AcDbEntity
8
1
62
256
6
ByLayer
370
18
48
1
60
0
100
AcDbSpline
70
4
71
2
72
6
73
3
40
0
40
0
40
0
40
1
40
1
40
1
41
1
10
108.73225
20
6.0970404568233
30
0
41
1
10
108.649318886255
20
6.27776604519894
30
0
41
1
10
108.641001054084
20
6.43079113964255
30
0
0
SPLINE
5
117
100
AcDbEntity
8
1
62
256
6
ByLayer
370
18
48
1
60
0
100
AcDbSpline
70
4
71
1
72
4
73
2
40
0
40
0
40
1
40
1
41
1
10
109.271
20
4.69638068206977
30
0
41
1
10
108.73225
20
6.0970404568233
30
0
0
SPLINE
5
118
100
AcDbEntity
8
1
62
256
6
ByLayer
370
18
48
1
60
0
100
AcDbSpline
70
4
71
1
72
4
73
2
40
0
40
0
40
1
40
1
41
1
10
108.73225
20
4.69020420753889
30
0
41
1
10
109.271
20
4.12178930280365
30
0
0
SPLINE
5
119
100
AcDbEntity
8
1
62
256
6
ByLayer
370
18
48
1
60
0
100
AcDbSpline
70
4
71
3
72
10
73
6
40
0
40
0
40
0
40
0
40
0.592242083233599
40
0.913391784935275
40
1
40
1
40
1
40
1
41
1
10
108.73225
20
4.05786621781244
30
0
41
1
10
108.701697354308
20
4.16465314015545
30
0
41
1
10
108.667147709168
20
4.32609846864008
30
0
41
1
10
108.643327382282
20
4.50175393865955
30
0
41
1
10
108.641216067913
20
4.57010981685773
30
0
41
1
10
108.641010141347
20
4.58454220303772
30
0
0
SPLINE
5
11A
100
AcDbEntity
8
1
62
256
6
ByLayer
370
18
48
1
60
0
100
AcDbSpline
70
4
71
3
72
11
73
7
40
0
40
0
40
0
40
0
40
0.247554293888427
40
0.496132932634946
40
0.747627519970021
40
1
40
1
40
1
40
1
41
1
10
109.271
20
0.75547917021359
30
0
41
1
10
109.256415087084
20
1.0333455046147
30
0
41
1
10
109.212028979812
20
1.58787897659903
30
0
41
1
10
109.098429045867
20
2.41775161145014
30
0
41
1
10
108.939572361793
20
3.24307349187342
30
0
41
1
10
108.806127618237
20
3.78726963578531
30
0
41
1
10
108.73225
20
4.05786621781244
30
0
0
SPLINE
5
11B
100
AcDbEntity
8
1
62
256
6
ByLayer
370
18
48
1
60
0
100
AcDbSpline
70
4
71
3
72
11
73
7
40
0
40
0
40
0
40
0
40
0.247775042172326
40
0.496350406992647
40
0.747652975443125
40
1
40
1
40
1
40
1
41
1
10
108.73225
20
-4.05786621781244
30
0
41
1
10
108.804769086793
20
-3.79220802950502
30
0
41
1
10
108.936469483783
20
-3.25620496715206
30
0
41
1
10
109.095327159293
20
-2.43642411303058
30
0
41
1
10
109.210765850938
20
-1.60163673985502
30
0
41
1
10
109.256124176601
20
-1.03873943111993
30
0
41
1
10
109.271
20
-0.75547917021359
30
0
0
SPLINE
5
11C
100
AcDbEntity
8
1
62
256
6
ByLayer
370
18
48
1
60
0
100
AcDbSpline
70
4
71
3
72
14
73
10
40
0
40
0
40
0
40
0
40
0.118317501006906
40
0.203529941894868
40
0.289263213988709
40
0.367860665107523
40
0.492781165562433
40
0.725682643539819
40
1
40
1
40
1
40
1
41
1
10
108.732250000017
20
-4.69020420751855
30
0
41
1
10
108.725279740288
20
-4.69777166537223
30
0
41
1
10
108.713083822021
20
-4.70798121185697
30
0
41
1
10
108.694499032572
20
-4.71722320910677
30
0
41
1
10
108.679397693241
20
-4.7174582784757
30
0
41
1
10
108.665344528169
20
-4.70924715863045
30
0
41
1
10
108.651037519982
20
-4.68616743162585
30
0
41
1
10
108.642368777184
20
-4.64104438406615
30
0
41
1
10
108.640085127665
20
-4.60257652178114
30
0
41
1
10
108.641048541312
20
-4.58009460208404
30
0
0
SPLINE
5
11D
100
AcDbEntity
8
1
62
256
6
ByLayer
370
18
48
1
60
0
100
AcDbSpline
70
4
71
1
72
4
73
2
40
0
40
0
40
1
40
1
41
1
10
109.271
20
-4.12178930280365
30
0
41
1
10
108.73225
20
-4.69020420753046
30
0
0
SPLINE
5
11E
100
AcDbEntity
8
1
62
256
6
ByLayer
370
18
48
1
60
0
100
AcDbSpline
70
4
71
1
72
4
73
2
40
0
40
0
40
1
40
1
41
1
10
108.73225
20
-6.0970404568233
30
0
41
1
10
109.271
20
-4.69638068206977
30
0
0
SPLINE
5
11F
100
AcDbEntity
8
1
62
256
6
ByLayer
370
18
48
1
60
0
100
AcDbSpline
70
4
71
3
72
13
73
9
40
0
40
0
40
0
40
0
40
0.111220406668268
40
0.28461887682864
40
0.415252406722588
40
0.545663141298056
40
0.737201890705346
40
1
40
1
40
1
40
1
41
1
10
108.732250000003
20
-6.47420971376747
30
0
41
1
10
108.726441240444
20
-6.4793107811293
30
0
41
1
10
108.711749285961
20
-6.4905169128019
30
0
41
1
10
108.689598604878
20
-6.50189437775496
30
0
41
1
10
108.669643050136
20
-6.50255316501014
30
0
41
1
10
108.654126459326
20
-6.49322955748317
30
0
41
1
10
108.643175048846
20
-6.46925553129711
30
0
41
1
10
108.640327450063
20
-6.44614600964491
30
0
41
1
10
108.641002375718
20
-6.43042644030621
30
0
0
SPLINE
5
120
100
AcDbEntity
8
1
62
256
6
ByLayer
370
18
48
1
60
0
100
AcDbSpline
70
4
71
1
72
4
73
2
40
0
40
0
40
1
40
1
41
1
10
109.271
20
-6.01073242811683
30
0
41
1
10
108.73225
20
-6.47420971376892
30
0
0
SPLINE
5
121
100
AcDbEntity
8
1
62
256
6
ByLayer
370
18
48
1
60
0
100
AcDbSpline
70
4
71
1
72
4
73
2
40
0
40
0
40
1
40
1
41
1
10
108.73225
20
-7.3997652951034
30
0
41
1
10
109.271
20
-6.35737636491733
30
0
0
SPLINE
5
122
100
AcDbEntity
8
1
62
256
6
ByLayer
370
18
48
1
60
0
100
AcDbSpline
70
4
71
3
72
13
73
9
40
0
40
0
40
0
40
0
40
0.158871926878141
40
0.383048726302143
40
0.573959859341693
40
0.737490204310072
40
0.989079711591569
40
1
40
1
40
1
40
1
41
1
10
108.732250000001
20
-7.66209940730202
30
0
41
1
10
108.724267591715
20
-7.66878031110023
30
0
41
1
10
108.705694283879
20
-7.68229529217949
30
0
41
1
10
108.678111782065
20
-7.69566941645313
30
0
41
1
10
108.657034438437
20
-7.69426805256329
30
0
41
1
10
108.643854847209
20
-7.68048966049628
30
0
41
1
10
108.641063487741
20
-7.66376860837756
30
0
41
1
10
108.640999124013
20
-7.65229636536016
30
0
41
1
10
108.641000045705
20
-7.65181577059177
30
0
0
SPLINE
5
123
100
AcDbEntity
8
1
62
256
6
ByLayer
370
18
48
1
60
0
100
AcDbSpline
70
4
71
1
72
4
73
2
40
0
40
0
40
1
40
1
41
1
10
109.271
20
-7.22105681933911
30
0
41
1
10
108.73225
20
-7.66209940730236
30
0
0
SPLINE
5
124
100
AcDbEntity
8
1
62
256
6
ByLayer
370
18
48
1
60
0
100
AcDbSpline
70
4
71
1
72
4
73
2
40
0
40
0
40
1
40
1
41
1
10
108.73225
20
-8.31950422279437
30
0
41
1
10
109.271
20
-7.45999175465369
30
0
0
SPLINE
5
125
100
AcDbEntity
8
1
62
256
6
ByLayer
370
18
48
1
60
0
100
AcDbSpline
70
4
71
3
72
12
73
8
40
0
40
0
40
0
40
0
40
0.200354770529416
40
0.414538454406788
40
0.630162450655953
40
0.815771967332556
40
1
40
1
40
1
40
1
41
1
10
108.73225
20
-8.50735818200365
30
0
41
1
10
108.722341201785
20
-8.51564390805874
30
0
41
1
10
108.702841690599
20
-8.53008720119964
30
0
41
1
10
108.674633126049
20
-8.54550462777471
30
0
41
1
10
108.653642406097
20
-8.5481334110447
30
0
41
1
10
108.642890239412
20
-8.53848693574856
30
0
41
1
10
108.640812306362
20
-8.52774307312154
30
0
41
1
10
108.641001092945
20
-8.52103643722437
30
0
0
SPLINE
5
126
100
AcDbEntity
8
1
62
256
6
ByLayer
370
18
48
1
60
0
100
AcDbSpline
70
4
71
1
72
4
73
2
40
0
40
0
40
1
40
1
41
1
10
109.271
20
-8.06433003130653
30
0
41
1
10
108.73225
20
-8.50735818200377
30
0
0
SPLINE
5
127
100
AcDbEntity
8
1
62
256
6
ByLayer
370
18
48
1
60
0
100
AcDbSpline
70
4
71
1
72
4
73
2
40
0
40
0
40
1
40
1
41
1
10
108.73225
20
-8.97478549067163
30
0
41
1
10
109.271
20
-8.23175070770443
30
0
0
SPLINE
5
128
100
AcDbEntity
8
1
62
256
6
ByLayer
370
18
48
1
60
0
100
AcDbSpline
70
4
71
3
72
12
73
8
40
0
40
0
40
0
40
0
40
0.239468250701437
40
0.473826258016647
40
0.709858566950321
40
0.911131640515886
40
1
40
1
40
1
40
1
41
1
10
108.73225
20
-9.10590572905457
30
0
41
1
10
108.720511672113
20
-9.11598501463493
30
0
41
1
10
108.698830066471
20
-9.13288909560219
30
0
41
1
10
108.668919444346
20
-9.15138384070253
30
0
41
1
10
108.648730687118
20
-9.15628061350121
30
0
41
1
10
108.641789761647
20
-9.14948184433591
30
0
41
1
10
108.640962934412
20
-9.14282346033366
30
0
41
1
10
108.641000642988
20
-9.1404733846314
30
0
0
SPLINE
5
129
100
AcDbEntity
8
1
62
256
6
ByLayer
370
18
48
1
60
0
100
AcDbSpline
70
4
71
1
72
4
73
2
40
0
40
0
40
1
40
1
41
1
10
109.271
20
-8.64859388106188
30
0
41
1
10
108.73225
20
-9.10590572905463
30
0
0
SPLINE
5
12A
100
AcDbEntity
8
1
62
256
6
ByLayer
370
18
48
1
60
0
100
AcDbSpline
70
4
71
1
72
4
73
2
40
0
40
0
40
1
40
1
41
1
10
108.73225
20
-9.42095529625561
30
0
41
1
10
109.271
20
-8.76053437000756
30
0
0
SPLINE
5
12B
100
AcDbEntity
8
1
62
256
6
ByLayer
370
18
48
1
60
0
100
AcDbSpline
70
4
71
3
72
12
73
8
40
0
40
0
40
0
40
0
40
0.276786559678052
40
0.52736624065425
40
0.739380766167614
40
0.9518469091768
40
1
40
1
40
1
40
1
41
1
10
108.73225
20
-9.50446711057241
30
0
41
1
10
108.718729506886
20
-9.51658173241974
30
0
41
1
10
108.695128611904
20
-9.53636521391851
30
0
41
1
10
108.665634880893
20
-9.55755738213724
30
0
41
1
10
108.646992932251
20
-9.56602762088854
30
0
41
1
10
108.641435273035
20
-9.56334715108427
30
0
41
1
10
108.640993474558
20
-9.55927626023122
30
0
41
1
10
108.641000070507
20
-9.55843064917509
30
0
0
SPLINE
5
12C
100
AcDbEntity
8
1
62
256
6
ByLayer
370
18
48
1
60
0
100
AcDbSpline
70
4
71
1
72
4
73
2
40
0
40
0
40
1
40
1
41
1
10
109.271
20
-9.02429683605595
30
0
41
1
10
108.73225
20
-9.50446711057244
30
0
0
SPLINE
5
12D
100
AcDbEntity
8
1
62
256
6
ByLayer
370
18
48
1
60
0
100
AcDbSpline
70
4
71
1
72
4
73
2
40
0
40
0
40
1
40
1
41
1
10
108.73225
20
-9.68695116042831
30
0
41
1
10
109.271
20
-9.08885059742844
30
0
0
SPLINE
5
12E
100
AcDbEntity
8
1
62
256
6
ByLayer
370
18
48
1
60
0
100
AcDbSpline
70
4
71
3
72
12
73
8
40
0
40
0
40
0
40
0
40
0.0831285709158165
40
0.276162736829824
40
0.560498067184024
40
0.960417503661601
40
1
40
1
40
1
40
1
41
1
10
108.641
20
-9.80060712405104
30
0
41
1
10
108.641026215563
20
-9.79978375628781
30
0
41
1
10
108.642016761998
20
-9.79617309543849
30
0
41
1
10
108.650921439731
20
-9.78199311932951
30
0
41
1
10
108.678233245335
20
-9.74750680872382
30
0
41
1
10
108.709815153354
20
-9.71157510233378
30
0
41
1
10
108.73037849399
20
-9.68899891388903
30
0
41
1
10
108.73225
20
-9.68695116042831
30
0
0
SPLINE
5
12F
100
AcDbEntity
8
1
62
256
6
ByLayer
370
18
48
1
60
0
100
AcDbSpline
70
4
71
1
72
4
73
2
40
0
40
0
40
1
40
1
41
1
10
108.641
20
-9.80060712405104
30
0
41
1
10
108.521
20
-9.92156741649221
30
0
0
SPLINE
5
130
100
AcDbEntity
8
1
62
256
6
ByLayer
370
18
48
1
60
0
100
AcDbSpline
70
4
71
3
72
12
73
8
40
0
40
0
40
0
40
0
40
0.147931800942641
40
0.360119596213467
40
0.573002749468619
40
0.787353735811213
40
1
40
1
40
1
40
1
41
1
10
107.2
20
9.92156741649305
30
0
41
1
10
107.184153615263
20
9.92150407387699
30
0
41
1
10
107.146939101723
20
9.91718110892538
30
0
41
1
10
107.090348273687
20
9.89310981359362
30
0
41
1
10
107.040067554307
20
9.84731629026463
30
0
41
1
10
107.007376980538
20
9.78684855578625
30
0
41
1
10
107.00018965583
20
9.74310668656124
30
0
41
1
10
107
20
9.71995370359345
30
0
0
SPLINE
5
131
100
AcDbEntity
8
1
62
256
6
ByLayer
370
18
48
1
60
0
100
AcDbSpline
70
4
71
3
72
13
73
9
40
0
40
0
40
0
40
0
40
0.167636786690737
40
0.384795011676308
40
0.601061225787639
40
0.737053797008594
40
0.949314578189755
40
1
40
1
40
1
40
1
41
1
10
107
20
-9.71995370359345
30
0
41
1
10
107.000083225878
20
-9.73799357301566
30
0
41
1
10
107.005214121411
20
-9.77768979278073
30
0
41
1
10
107.031932584023
20
-9.83643671713128
30
0
41
1
10
107.074268599237
20
-9.88009071091419
30
0
41
1
10
107.125708892017
20
-9.90992612212819
30
0
41
1
10
107.167216606338
20
-9.92047820143181
30
0
41
1
10
107.194664689502
20
-9.92156546558743
30
0
41
1
10
107.2
20
-9.92156741649222
30
0
0
SPLINE
5
132
100
AcDbEntity
8
1
62
256
6
ByLayer
370
18
48
1
60
0
100
AcDbSpline
70
4
71
3
72
15
73
11
40
0
40
0
40
0
40
0
40
0.24976147709232
40
0.42136132905767
40
0.594351000214962
40
0.683859550934261
40
0.774024269494313
40
0.854693307909125
40
0.975842298537888
40
1
40
1
40
1
40
1
41
1
10
108.641010141347
20
4.58454220303772
30
0
41
1
10
108.640483736767
20
4.60435875737098
30
0
41
1
10
108.642180123855
20
4.63601728273924
30
0
41
1
10
108.649196823372
20
4.6778370503681
30
0
41
1
10
108.660233715337
20
4.70383212876742
30
0
41
1
10
108.67557682942
20
4.7163352076608
30
0
41
1
10
108.690504410511
20
4.71799868443316
30
0
41
1
10
108.708798651626
20
4.71098599744199
30
0
41
1
10
108.722597343773
20
4.69985230826943
30
0
41
1
10
108.730883361715
20
4.69162188826239
30
0
41
1
10
108.732249999996
20
4.69020420753416
30
0
0
SPLINE
5
133
100
AcDbEntity
8
1
62
256
6
ByLayer
370
18
48
1
60
0
100
AcDbSpline
70
4
71
2
72
6
73
3
40
0
40
0
40
0
40
1
40
1
40
1
41
1
10
108.641048541312
20
-4.58009460208404
30
0
41
1
10
108.6506158203
20
-4.32914847806055
30
0
41
1
10
108.73225
20
-4.05786621781244
30
0
0
SPLINE
5
134
100
AcDbEntity
8
1
62
256
6
ByLayer
370
18
48
1
60
0
100
AcDbSpline
70
4
71
3
72
14
73
10
40
0
40
0
40
0
40
0
40
0.0443998806716003
40
0.261987838647765
40
0.481711827099029
40
0.616720169107883
40
0.752065877445204
40
0.913481078987541
40
1
40
1
40
1
40
1
41
1
10
108.641001054084
20
6.43079113964255
30
0
41
1
10
108.640986040376
20
6.43329249402535
30
0
41
1
10
108.641192718984
20
6.44782021314458
30
0
41
1
10
108.643991953407
20
6.47290885525526
30
0
41
1
10
108.65554354483
20
6.49559607055654
30
0
41
1
10
108.673766389425
20
6.50339573923797
30
0
41
1
10
108.694607951272
20
6.49997262254246
30
0
41
1
10
108.714986571966
20
6.4881480481025
30
0
41
1
10
108.727769862897
20
6.47811477068414
30
0
41
1
10
108.73225
20
6.47420971376892
30
0
0
SPLINE
5
135
100
AcDbEntity
8
1
62
256
6
ByLayer
370
18
48
1
60
0
100
AcDbSpline
70
4
71
3
72
10
73
6
40
0
40
0
40
0
40
0
40
0.0354895374321914
40
0.412562172270282
40
1
40
1
40
1
40
1
41
1
10
108.641002375718
20
-6.43042644030621
30
0
41
1
10
108.641036831889
20
-6.42695396448998
30
0
41
1
10
108.64192733539
20
-6.38633931743115
30
0
41
1
10
108.66444041272
20
-6.27502302577577
30
0
41
1
10
108.701127392554
20
-6.16648471719063
30
0
41
1
10
108.73225
20
-6.0970404568233
30
0
0
SPLINE
5
136
100
AcDbEntity
8
1
62
256
6
ByLayer
370
18
48
1
60
0
100
AcDbSpline
70
4
71
3
72
13
73
9
40
0
40
0
40
0
40
0
40
0.141057635230389
40
0.334281417416903
40
0.529097637092017
40
0.699946131212953
40
0.901816530463361
40
1
40
1
40
1
40
1
41
1
10
108.641007345444
20
7.65057415146391
30
0
41
1
10
108.640827368104
20
7.65705953373971
30
0
41
1
10
108.641968550513
20
7.67086748356007
30
0
41
1
10
108.6487680221
20
7.68850402160359
30
0
41
1
10
108.66504249373
20
7.69647910096811
30
0
41
1
10
108.689215020252
20
7.69128766270139
30
0
41
1
10
108.712536180304
20
7.67746816042651
30
0
41
1
10
108.727338120766
20
7.66616716099978
30
0
41
1
10
108.732250000035
20
7.66209940729228
30
0
0
SPLINE
5
137
100
AcDbEntity
8
1
62
256
6
ByLayer
370
18
48
1
60
0
100
AcDbSpline
70
4
71
3
72
10
73
6
40
0
40
0
40
0
40
0
40
0.263205080768043
40
0.743106203415711
40
1
40
1
40
1
40
1
41
1
10
108.641000045705
20
-7.65181577059177
30
0
41
1
10
108.642179070562
20
-7.63297660686307
30
0
41
1
10
108.650400295824
20
-7.57753021245427
30
0
41
1
10
108.686647893424
20
-7.48792717111226
30
0
41
1
10
108.719472648406
20
-7.42289292601847
30
0
41
1
10
108.73225
20
-7.3997652951034
30
0
0
SPLINE
5
138
100
AcDbEntity
8
1
62
256
6
ByLayer
370
18
48
1
60
0
100
AcDbSpline
70
4
71
3
72
13
73
9
40
0
40
0
40
0
40
0
40
0.0478662592780082
40
0.262023340745088
40
0.477675480701769
40
0.664760094022552
40
0.906590640918535
40
1
40
1
40
1
40
1
41
1
10
108.641000458546
20
8.52116774250908
30
0
41
1
10
108.640985313868
20
8.52283640141338
30
0
41
1
10
108.641331983116
20
8.53153719227367
30
0
41
1
10
108.645710164933
20
8.54415830313538
30
0
41
1
10
108.661847139352
20
8.54847694502515
30
0
41
1
10
108.687192389419
20
8.53972363537294
30
0
41
1
10
108.711761302511
20
8.52365190684487
30
0
41
1
10
108.727726811672
20
8.51110226172375
30
0
41
1
10
108.732250000005
20
8.50735818200202
30
0
0
SPLINE
5
139
100
AcDbEntity
8
1
62
256
6
ByLayer
370
18
48
1
60
0
100
AcDbSpline
70
4
71
3
72
11
73
7
40
0
40
0
40
0
40
0
40
0.0478192781795624
40
0.320242335730667
40
0.759128962337365
40
1
40
1
40
1
40
1
41
1
10
108.641001092945
20
-8.52103643722437
30
0
41
1
10
108.641036070544
20
-8.51875467707424
30
0
41
1
10
108.641848244914
20
-8.50304156943015
30
0
41
1
10
108.655372857718
20
-8.45608916166532
30
0
41
1
10
108.68995648005
20
-8.38738246103485
30
0
41
1
10
108.72042177681
20
-8.33755129747419
30
0
41
1
10
108.732249999995
20
-8.31950422279463
30
0
0
SPLINE
5
13A
100
AcDbEntity
8
1
62
256
6
ByLayer
370
18
48
1
60
0
100
AcDbSpline
70
4
71
3
72
12
73
8
40
0
40
0
40
0
40
0
40
0.202327225693205
40
0.420330174366695
40
0.618089281738392
40
0.887147091715873
40
1
40
1
40
1
40
1
41
1
10
108.641000065189
20
9.14060948686557
30
0
41
1
10
108.640909040833
20
9.1461120478036
30
0
41
1
10
108.643795173692
20
9.15399442516752
30
0
41
1
10
108.657978609923
20
9.15514770794264
30
0
41
1
10
108.682837617836
20
9.14368895172856
30
0
41
1
10
108.7090279433
20
9.12507380153797
30
0
41
1
10
108.726853325705
20
9.11050294307055
30
0
41
1
10
108.732250000007
20
9.1059057290518
30
0
0
SPLINE
5
13B
100
AcDbEntity
8
1
62
256
6
ByLayer
370
18
48
1
60
0
100
AcDbSpline
70
4
71
3
72
11
73
7
40
0
40
0
40
0
40
0
40
0.130427626213325
40
0.414060988980609
40
0.842328976227059
40
1
40
1
40
1
40
1
41
1
10
108.641000642988
20
-9.1404733846314
30
0
41
1
10
108.64119779382
20
-9.13603837975884
30
0
41
1
10
108.643673536542
20
-9.12049938192759
30
0
41
1
10
108.663524752033
20
-9.07619099206892
30
0
41
1
10
108.697791305209
20
-9.02219782269257
30
0
41
1
10
108.724635754611
20
-8.98497647434806
30
0
41
1
10
108.73225
20
-8.9747854906716
30
0
0
SPLINE
5
13C
100
AcDbEntity
8
1
62
256
6
ByLayer
370
18
48
1
60
0
100
AcDbSpline
70
4
71
3
72
11
73
7
40
0
40
0
40
0
40
0
40
0.136297694521935
40
0.394909042408296
40
0.765285420055036
40
1
40
1
40
1
40
1
41
1
10
108.641000070507
20
-9.55843064917509
30
0
41
1
10
108.641159152171
20
-9.55549726658038
30
0
41
1
10
108.643522224771
20
-9.54533210452276
30
0
41
1
10
108.660983411298
20
-9.51371622801763
30
0
41
1
10
108.693845147255
20
-9.46825480677562
30
0
41
1
10
108.720881450894
20
-9.43456966081857
30
0
41
1
10
108.73225
20
-9.42095529625381
30
0
0
SPLINE
5
13D
100
AcDbEntity
8
1
62
256
6
ByLayer
370
18
48
1
60
0
100
AcDbSpline
70
4
71
3
72
12
73
8
40
0
40
0
40
0
40
0
40
0.149123106799834
40
0.363866632805388
40
0.567893375916321
40
0.857309475229618
40
1
40
1
40
1
40
1
41
1
10
108.641000305115
20
9.55838507615468
30
0
41
1
10
108.640972307302
20
9.56106539480851
30
0
41
1
10
108.642915759747
20
9.56538794423822
30
0
41
1
10
108.654180664624
20
9.563584799056
30
0
41
1
10
108.677836648078
20
9.54947030692495
30
0
41
1
10
108.70554431058
20
9.52772274694681
30
0
41
1
10
108.725441297359
20
9.51053611223751
30
0
41
1
10
108.732250000015
20
9.50446711056512
30
0
0
INSERT
5
160
100
AcDbEntity
8
SK2
62
256
6
ByLayer
370
25
48
1
60
0
100
AcDbBlockReference
2
DimnDraft3D33
10
0
20
0
30
0
41
1
42
1
43
1
50
0
210
0
220
0
230
1
0
LINE
5
70
100
AcDbEntity
8
81
62
256
6
ByLayer
370
18
48
1
60
0
100
AcDbLine
10
109
20
0
30
0
11
119.9
21
0
31
0
39
0
210
0
220
0
230
1
0
LINE
5
71
100
AcDbEntity
8
4
62
256
6
ByLayer
370
18
48
0.05
60
0
100
AcDbLine
10
0
20
0
30
0
11
109
21
0
31
0
39
0
210
0
220
0
230
1
0
LINE
5
73
100
AcDbEntity
8
SK4
62
256
6
ByLayer
370
18
48
0.05
60
0
100
AcDbLine
10
-35
20
0
30
0
11
120
21
0
31
0
39
0
210
0
220
0
230
1
0
LINE
5
75
100
AcDbEntity
8
80
62
256
6
ByLayer
370
18
48
1
60
0
100
AcDbLine
10
0
20
0
30
0
11
-10.9
21
0
31
0
39
0
210
0
220
0
230
1
0
LINE
5
76
100
AcDbEntity
8
SK1
62
256
6
ByLayer
370
18
48
1
60
0
100
AcDbLine
10
115.225
20
7.446194
30
0
11
111.725
21
7.446194
31
0
39
0
210
0
220
0
230
1
0
LINE
5
78
100
AcDbEntity
8
SK1
62
256
6
ByLayer
370
18
48
1
60
0
100
AcDbLine
10
111.725
20
1.746194
30
0
11
115.225
21
1.746194
31
0
39
0
210
0
220
0
230
1
0
LINE
5
79
100
AcDbEntity
8
SK1
62
256
6
ByLayer
370
18
48
1
60
0
100
AcDbLine
10
111.725
20
6.348694
30
0
11
109.271
21
6.348694
31
0
39
0
210
0
220
0
230
1
0
LINE
5
7A
100
AcDbEntity
8
SK1
62
256
6
ByLayer
370
18
48
1
60
0
100
AcDbLine
10
109.271
20
2.843694
30
0
11
111.725
21
2.843694
31
0
39
0
210
0
220
0
230
1
0
LINE
5
7B
100
AcDbEntity
8
1
62
256
6
ByLayer
370
18
48
1
60
0
100
AcDbLine
10
20
20
25
30
0
11
0.3
21
25
31
0
39
0
210
0
220
0
230
1
0
LINE
5
7D
100
AcDbEntity
8
1
62
256
6
ByLayer
370
18
48
1
60
0
100
AcDbLine
10
0.3
20
-25
30
0
11
20
21
-25
31
0
39
0
210
0
220
0
230
1
0
LINE
5
7E
100
AcDbEntity
8
1
62
256
6
ByLayer
370
18
48
1
60
0
100
AcDbLine
10
8.538675
20
23.83913
30
0
11
11.461325
21
23.83913
31
0
39
0
210
0
220
0
230
1
0
LINE
5
7F
100
AcDbEntity
8
1
62
256
6
ByLayer
370
18
48
1
60
0
100
AcDbLine
10
11.461325
20
7.529667
30
0
11
8.538675
21
7.529667
31
0
39
0
210
0
220
0
230
1
0
LINE
5
80
100
AcDbEntity
8
1
62
256
6
ByLayer
370
18
48
1
60
0
100
AcDbLine
10
8.538675
20
-7.529667
30
0
11
11.461325
21
-7.529667
31
0
39
0
210
0
220
0
230
1
0
LINE
5
81
100
AcDbEntity
8
1
62
256
6
ByLayer
370
18
48
1
60
0
100
AcDbLine
10
11.461325
20
-23.83913
30
0
11
8.538675
21
-23.83913
31
0
39
0
210
0
220
0
230
1
0
LINE
5
82
100
AcDbEntity
8
1
62
256
6
ByLayer
370
18
48
1
60
0
100
AcDbLine
10
20
20
-25
30
0
11
23.423441
21
-12.223543
31
0
39
0
210
0
220
0
230
1
0
LINE
5
83
100
AcDbEntity
8
1
62
256
6
ByLayer
370
18
48
1
60
0
100
AcDbLine
10
23.423441
20
12.223543
30
0
11
20
21
25
31
0
39
0
210
0
220
0
230
1
0
LINE
5
84
100
AcDbEntity
8
1
62
256
6
ByLayer
370
18
48
1
60
0
100
AcDbLine
10
0.3
20
25
30
0
11
0
21
24.7
31
0
39
0
210
0
220
0
230
1
0
LINE
5
85
100
AcDbEntity
8
1
62
256
6
ByLayer
370
18
48
1
60
0
100
AcDbLine
10
0
20
-24.7
30
0
11
0.3
21
-25
31
0
39
0
210
0
220
0
230
1
0
LINE
5
86
100
AcDbEntity
8
1
62
256
6
ByLayer
370
18
48
1
60
0
100
AcDbLine
10
8.105662
20
8.055848
30
0
11
8.105662
21
23.666502
31
0
39
0
210
0
220
0
230
1
0
LINE
5
87
100
AcDbEntity
8
1
62
256
6
ByLayer
370
18
48
1
60
0
100
AcDbLine
10
8.538675
20
7.529667
30
0
11
8.538675
21
23.83913
31
0
39
0
210
0
220
0
230
1
0
LINE
5
88
100
AcDbEntity
8
1
62
256
6
ByLayer
370
18
48
1
60
0
100
AcDbLine
10
11.461325
20
-23.83913
30
0
11
11.461325
21
-7.529667
31
0
39
0
210
0
220
0
230
1
0
LINE
5
89
100
AcDbEntity
8
1
62
256
6
ByLayer
370
18
48
1
60
0
100
AcDbLine
10
11.894338
20
-23.666502
30
0
11
11.894338
21
-8.055848
31
0
39
0
210
0
220
0
230
1
0
LINE
5
8A
100
AcDbEntity
8
1
62
256
6
ByLayer
370
18
48
1
60
0
100
AcDbLine
10
11.461325
20
7.529667
30
0
11
11.461325
21
23.83913
31
0
39
0
210
0
220
0
230
1
0
LINE
5
8B
100
AcDbEntity
8
1
62
256
6
ByLayer
370
18
48
1
60
0
100
AcDbLine
10
11.894338
20
8.055848
30
0
11
11.894338
21
23.666502
31
0
39
0
210
0
220
0
230
1
0
LINE
5
8C
100
AcDbEntity
8
1
62
256
6
ByLayer
370
18
48
1
60
0
100
AcDbLine
10
8.105662
20
-23.666502
30
0
11
8.105662
21
-8.055848
31
0
39
0
210
0
220
0
230
1
0
LINE
5
8D
100
AcDbEntity
8
1
62
256
6
ByLayer
370
18
48
1
60
0
100
AcDbLine
10
8.538675
20
-23.83913
30
0
11
8.538675
21
-7.529667
31
0
39
0
210
0
220
0
230
1
0
LINE
5
8E
100
AcDbEntity
8
1
62
256
6
ByLayer
370
18
48
1
60
0
100
AcDbLine
10
106.8
20
10
30
0
11
26.321219
21
10
31
0
39
0
210
0
220
0
230
1
0
LINE
5
8F
100
AcDbEntity
8
1
62
256
6
ByLayer
370
18
48
1
60
0
100
AcDbLine
10
26.321219
20
-10
30
0
11
106.8
21
-10
31
0
39
0
210
0
220
0
230
1
0
LINE
5
90
100
AcDbEntity
8
SK1
62
256
6
ByLayer
370
18
48
1
60
0
100
AcDbLine
10
115.225
20
-1.746194
30
0
11
111.725
21
-1.746194
31
0
39
0
210
0
220
0
230
1
0
LINE
5
91
100
AcDbEntity
8
SK1
62
256
6
ByLayer
370
18
48
1
60
0
100
AcDbLine
10
111.725
20
-7.446194
30
0
11
115.225
21
-7.446194
31
0
39
0
210
0
220
0
230
1
0
LINE
5
92
100
AcDbEntity
8
SK1
62
256
6
ByLayer
370
18
48
1
60
0
100
AcDbLine
10
111.725
20
-2.843694
30
0
11
109.271
21
-2.843694
31
0
39
0
210
0
220
0
230
1
0
LINE
5
93
100
AcDbEntity
8
SK1
62
256
6
ByLayer
370
18
48
1
60
0
100
AcDbLine
10
109.271
20
-6.348694
30
0
11
111.725
21
-6.348694
31
0
39
0
210
0
220
0
230
1
0
LINE
5
94
100
AcDbEntity
8
1
62
256
6
ByLayer
370
18
48
1
60
0
100
AcDbLine
10
107.2
20
9.921567
30
0
11
108.521
21
9.921567
31
0
39
0
210
0
220
0
230
1
0
LINE
5
95
100
AcDbEntity
8
1
62
256
6
ByLayer
370
18
48
1
60
0
100
AcDbLine
10
108.521
20
-9.921567
30
0
11
107.2
21
-9.921567
31
0
39
0
210
0
220
0
230
1
0
LINE
5
96
100
AcDbEntity
8
1
62
256
6
ByLayer
370
18
48
1
60
0
100
AcDbLine
10
108.73225
20
4.690204
30
0
11
108.73225
21
4.057866
31
0
39
0
210
0
220
0
230
1
0
LINE
5
97
100
AcDbEntity
8
1
62
256
6
ByLayer
370
18
48
1
60
0
100
AcDbLine
10
108.73225
20
-4.057866
30
0
11
108.73225
21
-4.690204
31
0
39
0
210
0
220
0
230
1
0
LINE
5
98
100
AcDbEntity
8
1
62
256
6
ByLayer
370
18
48
1
60
0
100
AcDbLine
10
109.271
20
4.121789
30
0
11
109.271
21
0.755479
31
0
39
0
210
0
220
0
230
1
0
LINE
5
99
100
AcDbEntity
8
1
62
256
6
ByLayer
370
18
48
1
60
0
100
AcDbLine
10
109.271
20
-0.755479
30
0
11
109.271
21
-4.121789
31
0
39
0
210
0
220
0
230
1
0
LINE
5
9A
100
AcDbEntity
8
1
62
256
6
ByLayer
370
18
48
1
60
0
100
AcDbLine
10
108.73225
20
6.47421
30
0
11
108.73225
21
6.09704
31
0
39
0
210
0
220
0
230
1
0
LINE
5
9B
100
AcDbEntity
8
1
62
256
6
ByLayer
370
18
48
1
60
0
100
AcDbLine
10
108.73225
20
-6.09704
30
0
11
108.73225
21
-6.47421
31
0
39
0
210
0
220
0
230
1
0
LINE
5
9C
100
AcDbEntity
8
1
62
256
6
ByLayer
370
18
48
1
60
0
100
AcDbLine
10
109.271
20
6.010732
30
0
11
109.271
21
4.696381
31
0
39
0
210
0
220
0
230
1
0
LINE
5
9D
100
AcDbEntity
8
1
62
256
6
ByLayer
370
18
48
1
60
0
100
AcDbLine
10
109.271
20
-4.696381
30
0
11
109.271
21
-6.010732
31
0
39
0
210
0
220
0
230
1
0
LINE
5
9E
100
AcDbEntity
8
1
62
256
6
ByLayer
370
18
48
1
60
0
100
AcDbLine
10
108.73225
20
7.662099
30
0
11
108.73225
21
7.399765
31
0
39
0
210
0
220
0
230
1
0
LINE
5
9F
100
AcDbEntity
8
1
62
256
6
ByLayer
370
18
48
1
60
0
100
AcDbLine
10
108.73225
20
-7.399765
30
0
11
108.73225
21
-7.662099
31
0
39
0
210
0
220
0
230
1
0
LINE
5
A0
100
AcDbEntity
8
1
62
256
6
ByLayer
370
18
48
1
60
0
100
AcDbLine
10
109.271
20
7.221057
30
0
11
109.271
21
6.449965
31
0
39
0
210
0
220
0
230
1
0
LINE
5
A1
100
AcDbEntity
8
1
62
256
6
ByLayer
370
18
48
1
60
0
100
AcDbLine
10
109.271
20
-6.449965
30
0
11
109.271
21
-7.221057
31
0
39
0
210
0
220
0
230
1
0
LINE
5
A2
100
AcDbEntity
8
1
62
256
6
ByLayer
370
18
48
1
60
0
100
AcDbLine
10
108.73225
20
8.507358
30
0
11
108.73225
21
8.319504
31
0
39
0
210
0
220
0
230
1
0
LINE
5
A3
100
AcDbEntity
8
1
62
256
6
ByLayer
370
18
48
1
60
0
100
AcDbLine
10
108.73225
20
-8.319504
30
0
11
108.73225
21
-8.507358
31
0
39
0
210
0
220
0
230
1
0
LINE
5
A4
100
AcDbEntity
8
1
62
256
6
ByLayer
370
18
48
1
60
0
100
AcDbLine
10
109.271
20
8.06433
30
0
11
109.271
21
7.459992
31
0
39
0
210
0
220
0
230
1
0
LINE
5
A5
100
AcDbEntity
8
1
62
256
6
ByLayer
370
18
48
1
60
0
100
AcDbLine
10
109.271
20
-7.459992
30
0
11
109.271
21
-8.06433
31
0
39
0
210
0
220
0
230
1
0
LINE
5
A6
100
AcDbEntity
8
1
62
256
6
ByLayer
370
18
48
1
60
0
100
AcDbLine
10
108.73225
20
9.105906
30
0
11
108.73225
21
8.974785
31
0
39
0
210
0
220
0
230
1
0
LINE
5
A7
100
AcDbEntity
8
1
62
256
6
ByLayer
370
18
48
1
60
0
100
AcDbLine
10
108.73225
20
-8.974785
30
0
11
108.73225
21
-9.105906
31
0
39
0
210
0
220
0
230
1
0
LINE
5
A8
100
AcDbEntity
8
1
62
256
6
ByLayer
370
18
48
1
60
0
100
AcDbLine
10
109.271
20
8.648594
30
0
11
109.271
21
8.231751
31
0
39
0
210
0
220
0
230
1
0
LINE
5
A9
100
AcDbEntity
8
1
62
256
6
ByLayer
370
18
48
1
60
0
100
AcDbLine
10
109.271
20
6.449965
30
0
11
109.271
21
6.359716
31
0
39
0
210
0
220
0
230
1
0
LINE
5
AA
100
AcDbEntity
8
1
62
256
6
ByLayer
370
18
48
1
60
0
100
AcDbLine
10
109.271
20
-6.359716
30
0
11
109.271
21
-6.449965
31
0
39
0
210
0
220
0
230
1
0
LINE
5
AB
100
AcDbEntity
8
1
62
256
6
ByLayer
370
18
48
1
60
0
100
AcDbLine
10
109.271
20
-8.231751
30
0
11
109.271
21
-8.648594
31
0
39
0
210
0
220
0
230
1
0
LINE
5
AC
100
AcDbEntity
8
1
62
256
6
ByLayer
370
18
48
1
60
0
100
AcDbLine
10
108.73225
20
-9.420955
30
0
11
108.73225
21
-9.504467
31
0
39
0
210
0
220
0
230
1
0
LINE
5
AD
100
AcDbEntity
8
1
62
256
6
ByLayer
370
18
48
1
60
0
100
AcDbLine
10
108.73225
20
9.504467
30
0
11
108.73225
21
9.420955
31
0
39
0
210
0
220
0
230
1
0
LINE
5
AE
100
AcDbEntity
8
1
62
256
6
ByLayer
370
18
48
1
60
0
100
AcDbLine
10
109.271
20
9.024297
30
0
11
109.271
21
8.760534
31
0
39
0
210
0
220
0
230
1
0
LINE
5
AF
100
AcDbEntity
8
1
62
256
6
ByLayer
370
18
48
1
60
0
100
AcDbLine
10
109.271
20
-8.760534
30
0
11
109.271
21
-9.024297
31
0
39
0
210
0
220
0
230
1
0
LINE
5
B0
100
AcDbEntity
8
SK1
62
256
6
ByLayer
370
18
48
1
60
0
100
AcDbLine
10
111.725
20
7.446194
30
0
11
111.725
21
1.746194
31
0
39
0
210
0
220
0
230
1
0
LINE
5
B1
100
AcDbEntity
8
SK1
62
256
6
ByLayer
370
18
48
1
60
0
100
AcDbLine
10
115.225
20
7.446194
30
0
11
115.225
21
1.746194
31
0
39
0
210
0
220
0
230
1
0
LINE
5
B2
100
AcDbEntity
8
1
62
256
6
ByLayer
370
18
48
1
60
0
100
AcDbLine
10
20
20
25
30
0
11
20
21
-25
31
0
39
0
210
0
220
0
230
1
0
LINE
5
B3
100
AcDbEntity
8
1
62
256
6
ByLayer
370
18
48
1
60
0
100
AcDbLine
10
0.3
20
25
30
0
11
0.3
21
-25
31
0
39
0
210
0
220
0
230
1
0
LINE
5
B4
100
AcDbEntity
8
1
62
256
6
ByLayer
370
18
48
1
60
0
100
AcDbLine
10
23.423441
20
12.223543
30
0
11
23.423441
21
-12.223543
31
0
39
0
210
0
220
0
230
1
0
LINE
5
B5
100
AcDbEntity
8
1
62
256
6
ByLayer
370
18
48
1
60
0
100
AcDbLine
10
0
20
-24.7
30
0
11
0
21
24.7
31
0
39
0
210
0
220
0
230
1
0
LINE
5
B6
100
AcDbEntity
8
SK1
62
256
6
ByLayer
370
18
48
1
60
0
100
AcDbLine
10
-0.2
20
17.833485
30
0
11
-0.2
21
5.881425
31
0
39
0
210
0
220
0
230
1
0
LINE
5
B7
100
AcDbEntity
8
SK1
62
256
6
ByLayer
370
18
48
1
60
0
100
AcDbLine
10
-1.307107
20
3.804744
30
0
11
-1.307107
21
-3.804747
31
0
39
0
210
0
220
0
230
1
0
LINE
5
B8
100
AcDbEntity
8
SK1
62
256
6
ByLayer
370
18
48
1
60
0
100
AcDbLine
10
-0.2
20
-5.881424
30
0
11
-0.2
21
-17.833485
31
0
39
0
210
0
220
0
230
1
0
LINE
5
B9
100
AcDbEntity
8
1
62
256
6
ByLayer
370
18
48
1
60
0
100
AcDbLine
10
26.321219
20
10
30
0
11
26.321219
21
-10
31
0
39
0
210
0
220
0
230
1
0
LINE
5
BA
100
AcDbEntity
8
1
62
256
6
ByLayer
370
18
48
1
60
0
100
AcDbLine
10
106.8
20
-10
30
0
11
106.8
21
0
31
0
39
0
210
0
220
0
230
1
0
LINE
5
BB
100
AcDbEntity
8
1
62
256
6
ByLayer
370
18
48
1
60
0
100
AcDbLine
10
106.8
20
0
30
0
11
106.8
21
10
31
0
39
0
210
0
220
0
230
1
0
LINE
5
BC
100
AcDbEntity
8
1
62
256
6
ByLayer
370
18
48
1
60
0
100
AcDbLine
10
107
20
9.8
30
0
11
107
21
9.744994
31
0
39
0
210
0
220
0
230
1
0
LINE
5
BD
100
AcDbEntity
8
1
62
256
6
ByLayer
370
18
48
1
60
0
100
AcDbLine
10
107
20
9.744994
30
0
11
107
21
9.719954
31
0
39
0
210
0
220
0
230
1
0
LINE
5
BE
100
AcDbEntity
8
1
62
256
6
ByLayer
370
18
48
1
60
0
100
AcDbLine
10
107
20
9.719954
30
0
11
107
21
0
31
0
39
0
210
0
220
0
230
1
0
LINE
5
BF
100
AcDbEntity
8
1
62
256
6
ByLayer
370
18
48
1
60
0
100
AcDbLine
10
107
20
0
30
0
11
107
21
-9.719954
31
0
39
0
210
0
220
0
230
1
0
LINE
5
C0
100
AcDbEntity
8
1
62
256
6
ByLayer
370
18
48
1
60
0
100
AcDbLine
10
107
20
-9.719954
30
0
11
107
21
-9.723867
31
0
39
0
210
0
220
0
230
1
0
LINE
5
C1
100
AcDbEntity
8
1
62
256
6
ByLayer
370
18
48
1
60
0
100
AcDbLine
10
107
20
-9.723867
30
0
11
107
21
-9.8
31
0
39
0
210
0
220
0
230
1
0
LINE
5
C2
100
AcDbEntity
8
SK1
62
256
6
ByLayer
370
18
48
1
60
0
100
AcDbLine
10
111.725
20
-1.746194
30
0
11
111.725
21
-7.446194
31
0
39
0
210
0
220
0
230
1
0
LINE
5
C3
100
AcDbEntity
8
SK1
62
256
6
ByLayer
370
18
48
1
60
0
100
AcDbLine
10
115.225
20
-1.746194
30
0
11
115.225
21
-7.446194
31
0
39
0
210
0
220
0
230
1
0
LINE
5
C4
100
AcDbEntity
8
1
62
256
6
ByLayer
370
18
48
1
60
0
100
AcDbLine
10
108.521
20
-9.921567
30
0
11
108.521
21
9.921567
31
0
39
0
210
0
220
0
230
1
0
LINE
5
C5
100
AcDbEntity
8
1
62
256
6
ByLayer
370
18
48
1
60
0
100
AcDbLine
10
109.271
20
9.024297
30
0
11
109.271
21
9.088851
31
0
39
0
210
0
220
0
230
1
0
LINE
5
C6
100
AcDbEntity
8
1
62
256
6
ByLayer
370
18
48
1
60
0
100
AcDbLine
10
109.271
20
8.648594
30
0
11
109.271
21
8.760534
31
0
39
0
210
0
220
0
230
1
0
LINE
5
C7
100
AcDbEntity
8
1
62
256
6
ByLayer
370
18
48
1
60
0
100
AcDbLine
10
109.271
20
8.06433
30
0
11
109.271
21
8.231751
31
0
39
0
210
0
220
0
230
1
0
LINE
5
C8
100
AcDbEntity
8
1
62
256
6
ByLayer
370
18
48
1
60
0
100
AcDbLine
10
109.271
20
7.221057
30
0
11
109.271
21
7.459992
31
0
39
0
210
0
220
0
230
1
0
LINE
5
C9
100
AcDbEntity
8
1
62
256
6
ByLayer
370
18
48
1
60
0
100
AcDbLine
10
109.271
20
6.010732
30
0
11
109.271
21
6.357376
31
0
39
0
210
0
220
0
230
1
0
LINE
5
CA
100
AcDbEntity
8
1
62
256
6
ByLayer
370
18
48
1
60
0
100
AcDbLine
10
109.271
20
4.121789
30
0
11
109.271
21
4.696381
31
0
39
0
210
0
220
0
230
1
0
LINE
5
CB
100
AcDbEntity
8
1
62
256
6
ByLayer
370
18
48
1
60
0
100
AcDbLine
10
109.271
20
-0.755479
30
0
11
109.271
21
0.755479
31
0
39
0
210
0
220
0
230
1
0
LINE
5
CC
100
AcDbEntity
8
1
62
256
6
ByLayer
370
18
48
1
60
0
100
AcDbLine
10
109.271
20
-4.696381
30
0
11
109.271
21
-4.121789
31
0
39
0
210
0
220
0
230
1
0
LINE
5
CD
100
AcDbEntity
8
1
62
256
6
ByLayer
370
18
48
1
60
0
100
AcDbLine
10
109.271
20
-6.357376
30
0
11
109.271
21
-6.010732
31
0
39
0
210
0
220
0
230
1
0
LINE
5
CE
100
AcDbEntity
8
1
62
256
6
ByLayer
370
18
48
1
60
0
100
AcDbLine
10
109.271
20
-7.459992
30
0
11
109.271
21
-7.221057
31
0
39
0
210
0
220
0
230
1
0
LINE
5
CF
100
AcDbEntity
8
1
62
256
6
ByLayer
370
18
48
1
60
0
100
AcDbLine
10
109.271
20
-8.231751
30
0
11
109.271
21
-8.06433
31
0
39
0
210
0
220
0
230
1
0
LINE
5
D0
100
AcDbEntity
8
1
62
256
6
ByLayer
370
18
48
1
60
0
100
AcDbLine
10
109.271
20
-8.760534
30
0
11
109.271
21
-8.648594
31
0
39
0
210
0
220
0
230
1
0
LINE
5
D1
100
AcDbEntity
8
1
62
256
6
ByLayer
370
18
48
1
60
0
100
AcDbLine
10
109.271
20
-9.088851
30
0
11
109.271
21
-9.024297
31
0
39
0
210
0
220
0
230
1
0
LINE
5
D2
100
AcDbEntity
8
1
62
256
6
ByLayer
370
18
48
1
60
0
100
AcDbLine
10
107.2
20
9.921567
30
0
11
107.2
21
-9.921567
31
0
39
0
210
0
220
0
230
1
0
LINE
5
D3
100
AcDbEntity
8
1
62
256
6
ByLayer
370
18
48
1
60
0
100
AcDbLine
10
107
20
-9.719954
30
0
11
107
21
0
31
0
39
0
210
0
220
0
230
1
0
LINE
5
D4
100
AcDbEntity
8
1
62
256
6
ByLayer
370
18
48
1
60
0
100
AcDbLine
10
107
20
0
30
0
11
107
21
9.719954
31
0
39
0
210
0
220
0
230
1
0
LINE
5
D5
100
AcDbEntity
8
SK1
62
256
6
ByLayer
370
18
48
1
60
0
100
AcDbLine
10
-3
20
-17.5
30
0
11
-3
21
17.5
31
0
39
0
210
0
220
0
230
1
0
LINE
5
D6
100
AcDbEntity
8
SK1
62
256
6
ByLayer
370
18
48
1
60
0
100
AcDbLine
10
-2.2
20
10.241692
30
0
11
-2.2
21
15.024781
31
0
39
0
210
0
220
0
230
1
0
LINE
5
D7
100
AcDbEntity
8
SK1
62
256
6
ByLayer
370
18
48
1
60
0
100
AcDbLine
10
-2.2
20
-10.241692
30
0
11
-2.2
21
10.241692
31
0
39
0
210
0
220
0
230
1
0
LINE
5
D8
100
AcDbEntity
8
SK1
62
256
6
ByLayer
370
18
48
1
60
0
100
AcDbLine
10
-2.2
20
-15.024781
30
0
11
-2.2
21
-10.241692
31
0
39
0
210
0
220
0
230
1
0
LINE
5
D9
100
AcDbEntity
8
SK1
62
256
6
ByLayer
370
18
48
1
60
0
100
AcDbLine
10
-2
20
17.32515
30
0
11
-2
21
-17.32515
31
0
39
0
210
0
220
0
230
1
0
LINE
5
DA
100
AcDbEntity
8
SK1
62
256
6
ByLayer
370
18
48
1
60
0
100
AcDbLine
10
-0.4
20
-5.168667
30
0
11
-0.4
21
-17.324079
31
0
39
0
210
0
220
0
230
1
0
LINE
5
DB
100
AcDbEntity
8
SK1
62
256
6
ByLayer
370
18
48
1
60
0
100
AcDbLine
10
-28.500473
20
16.858585
30
0
11
-28.500473
21
-16.858922
31
0
39
0
210
0
220
0
230
1
0
LINE
5
DC
100
AcDbEntity
8
SK1
62
256
6
ByLayer
370
18
48
1
60
0
100
AcDbLine
10
-30
20
-15.941004
30
0
11
-30
21
15.941952
31
0
39
0
210
0
220
0
230
1
0
LINE
5
DD
100
AcDbEntity
8
SK1
62
256
6
ByLayer
370
18
48
1
60
0
100
AcDbLine
10
-0.4
20
17.32408
30
0
11
-0.4
21
5.168667
31
0
39
0
210
0
220
0
230
1
0
MTEXT
5
13E
100
AcDbEntity
8
SK6
62
256
6
ByLayer
370
13
48
1
60
0
100
AcDbMText
10
1.990301
20
65.568508
30
0
210
0
220
0
230
1
1
\W0.7027;C5-570-3C 20 109
40
3.175
41
0
44
1.084337
50
0
71
7
72
5
7
iso_b_vert
0
DIMENSION
5
14C
100
AcDbEntity
8
2
62
256
6
ByLayer
370
13
48
1
60
0
100
AcDbDimension
2
DimnDraft3D1
10
109
20
51.676477
30
0
11
51.813783
21
51.676477
31
0
70
32
71
5
72
1
41
1
210
0
220
0
230
1
3
Standard
100
AcDbAlignedDimension
13
0
23
1.5875
33
0
14
109
24
1.5875
34
0
50
0
100
AcDbRotatedDimension
1001
ACAD
1000
DSTYLE
1002
{
1070
   279
1070
     0
1070
   173
1070
     1
1070
   340
1005
13F
1070
   271
1070
     1
1070
   272
1070
     2
1070
    77
1070
     1
1070
    73
1070
     0
1070
   171
1070
     3
1070
   274
1070
     4
1070
   177
1070
     7
1070
   176
1070
     7
1070
   178
1070
     7
1070
    78
1070
     8
1070
    48
1040
-0.005
1070
    41
1041
3.175
1070
   147
1041
1.5875
1070
    42
1041
1.5875
1070
    44
1041
3.175
1070
   140
1041
3.175
1070
   343
1005
0
1070
   344
1005
0
1002
}
0
DIMENSION
5
155
100
AcDbEntity
8
SK2
62
256
6
ByLayer
370
13
48
1
60
0
100
AcDbDimension
2
DimnDraft3D2
10
26.321219
20
13
30
0
11
39.494149
21
28.005568
31
0
70
36
71
5
72
1
41
1
210
0
220
0
230
1
3
Standard
100
AcDbRadialDimension
15
0
25
0
35
0
40
0
1001
ACAD
1000
DSTYLE
1002
{
1070
   279
1070
     0
1070
   173
1070
     1
1070
   340
1005
13F
1070
    75
1070
     1
1070
    76
1070
     1
1070
   271
1070
     1
1070
   272
1070
     2
1070
    77
1070
     1
1070
    73
1070
     0
1070
   171
1070
     3
1070
   274
1070
     4
1070
   177
1070
     7
1070
   176
1070
     7
1070
   178
1070
     7
1070
    78
1070
     8
1070
    48
1040
-0.005
1070
    41
1041
3.175
1070
   147
1041
1.5875
1070
    42
1041
1.5875
1070
    44
1041
3.175
1070
   140
1041
3.175
1070
   343
1005
0
1070
   344
1005
0
1002
}
0
DIMENSION
5
16B
100
AcDbEntity
8
SK2
62
256
6
ByLayer
370
13
48
1
60
0
100
AcDbDimension
2
DimnDraft3D4
10
128.415415
20
-10
30
0
11
128.415415
21
-6.659145
31
0
70
32
71
5
72
1
41
1
210
0
220
0
230
1
3
Standard
100
AcDbAlignedDimension
13
108.3875
23
10
33
0
14
108.3875
24
-10
34
0
50
90
100
AcDbRotatedDimension
1001
ACAD
1000
DSTYLE
1002
{
1070
    74
1070
     0
1070
   279
1070
     0
1070
   173
1070
     1
1070
   340
1005
13F
1070
   271
1070
     1
1070
   272
1070
     2
1070
    77
1070
     1
1070
    73
1070
     0
1070
   171
1070
     3
1070
   274
1070
     4
1070
   177
1070
     7
1070
   176
1070
     7
1070
   178
1070
     7
1070
    78
1070
     8
1070
    48
1040
-0.005
1070
    41
1041
3.175
1070
   147
1041
1.5875
1070
    42
1041
1.5875
1070
    44
1041
3.175
1070
   140
1041
3.175
1070
   343
1005
0
1070
   344
1005
0
1002
}
0
DIMENSION
5
175
100
AcDbEntity
8
SK2
62
256
6
ByLayer
370
13
48
1
60
0
100
AcDbDimension
2
DimnDraft3D5
10
109
20
-33.840619
30
0
11
64.017715
21
-33.840619
31
0
70
32
71
5
72
1
41
1
210
0
220
0
230
1
3
Standard
100
AcDbAlignedDimension
13
26.321219
23
-11.5875
33
0
14
109
24
-1.5875
34
0
50
0
100
AcDbRotatedDimension
1001
ACAD
1000
DSTYLE
1002
{
1070
   279
1070
     0
1070
   173
1070
     1
1070
   340
1005
13F
1070
   271
1070
     1
1070
   272
1070
     2
1070
    77
1070
     1
1070
    73
1070
     0
1070
   171
1070
     3
1070
   274
1070
     4
1070
   177
1070
     7
1070
   176
1070
     7
1070
   178
1070
     7
1070
    78
1070
     8
1070
    48
1040
-0.005
1070
    41
1041
3.175
1070
   147
1041
1.5875
1070
    42
1041
1.5875
1070
    44
1041
3.175
1070
   140
1041
3.175
1070
   343
1005
0
1070
   344
1005
0
1002
}
0
DIMENSION
5
17F
100
AcDbEntity
8
SK2
62
256
6
ByLayer
370
13
48
1
60
0
100
AcDbDimension
2
DimnDraft3D6
10
20
20
-33.656233
30
0
11
8.103355
21
-33.656233
31
0
70
32
71
5
72
1
41
1
210
0
220
0
230
1
3
Standard
100
AcDbAlignedDimension
13
0
23
-26.2875
33
0
14
20
24
-26.5875
34
0
50
0
100
AcDbRotatedDimension
1001
ACAD
1000
DSTYLE
1002
{
1070
   279
1070
     0
1070
   173
1070
     1
1070
   340
1005
13F
1070
   271
1070
     1
1070
   272
1070
     2
1070
    77
1070
     1
1070
    73
1070
     0
1070
   171
1070
     3
1070
   274
1070
     4
1070
   177
1070
     7
1070
   176
1070
     7
1070
   178
1070
     7
1070
    78
1070
     8
1070
    48
1040
-0.005
1070
    41
1041
3.175
1070
   147
1041
1.5875
1070
    42
1041
1.5875
1070
    44
1041
3.175
1070
   140
1041
3.175
1070
   343
1005
0
1070
   344
1005
0
1002
}
0
ENDSEC
0
SECTION
2
OBJECTS
0
DICTIONARY
5
1ea
330
0
100
AcDbDictionary
280
0
281
1
3
ACAD_GROUP
350
1eb
3
ACAD_MLINESTYLE
350
1ec
0
DICTIONARY
5
1eb
330
0
100
AcDbDictionary
280
0
281
1
0
DICTIONARY
5
1ec
330
0
100
AcDbDictionary
280
0
281
1
3
Standard
350
18
0
MLINESTYLE
5
18
330
1ec
100
AcDbMlineStyle
2
Standard
70
0
3

62
256
51
90
52
90
71
2
49
-0.5
62
256
6
ByLayer
49
0.5
62
256
6
ByLayer
0
RASTERVARIABLES
5
1d8
330

100
AcDbRasterVariables
90
0
70
1
71
1
72
1
0
ENDSEC
0
EOF
