0
SECTION
2
HEADER
9
$ACADVER
1
AC1015
9
$DWGCODEPAGE
3
ANSI_1252
9
$HANDSEED
5
261
9
$ANGBASE
50
0
9
$ANGDIR
70
0
9
$ATTMODE
70
1
9
$AUNITS
70
0
9
$AUPREC
70
0
9
$CECOLOR
62
256
9
$CELTSCALE
40
1
9
$CELTYPE
6
ByLayer
9
$CELWEIGHT
370
18
9
$CLAYER
8
0
9
$CMLJUST
70
0
9
$CMLSCALE
40
1
9
$CMLSTYLE
2
Standard
9
$DIMSTYLE
2
Standard
9
$TEXTSIZE
40
0.2
9
$TEXTSTYLE
7
Standard
9
$LUNITS
70
2
9
$LUPREC
70
4
9
$EXTNAMES
290
1
9
$INSUNITS
70
4
9
$LTSCALE
40
1
9
$LWDISPLAY
290
1
9
$PDMODE
70
0
9
$PDSIZE
40
0
9
$PLINEGEN
70
0
0
ENDSEC
0
SECTION
2
CLASSES
0
CLASS
1
RASTERVARIABLES
2
AcDbRasterVariables
3
ISM
90
0
280
0
281
0
0
ENDSEC
0
SECTION
2
TABLES
0
TABLE
2
VPORT
5
257
100
AcDbSymbolTable
0
VPORT
5
1
100
AcDbSymbolTableRecord
100
AcDbViewportTableRecord
2
*Active
70
0
10
0
20
0
11
1
21
1
12
-1
22
1
13
0
23
0
14
0.5
24
0.5
15
10
25
10
16
0
26
0
36
1
17
0
27
0
37
0
0
ENDTAB
0
TABLE
2
LTYPE
5
258
100
AcDbSymbolTable
0
LTYPE
5
14
100
AcDbSymbolTableRecord
100
AcDbLinetypeTableRecord
70
0
2
ByBlock
3

72
65
73
0
40
0
0
LTYPE
5
15
100
AcDbSymbolTableRecord
100
AcDbLinetypeTableRecord
70
0
2
ByLayer
3

72
65
73
0
40
0
0
LTYPE
5
16
100
AcDbSymbolTableRecord
100
AcDbLinetypeTableRecord
70
0
2
CONTINUOUS
3
Solid line
72
65
73
0
40
0
0
LTYPE
5
6A
100
AcDbSymbolTableRecord
100
AcDbLinetypeTableRecord
70
0
2
CENTER
3
____ _ ____ _ ____ _ ____
72
65
73
4
40
47.5
49
22
74
0
49
-8.5
74
0
49
8.5
74
0
49
-8.5
74
0
0
LTYPE
5
6B
100
AcDbSymbolTableRecord
100
AcDbLinetypeTableRecord
70
0
2
DASHED
3
__ __ __ __ __ __ __ __ __
72
65
73
2
40
25.72
49
12.86
74
0
49
-12.86
74
0
0
ENDTAB
0
TABLE
2
LAYER
5
259
100
AcDbSymbolTable
0
LAYER
5
10
100
AcDbSymbolTableRecord
100
AcDbLayerTableRecord
2
0
70
0
62
7
6
CONTINUOUS
290
1
370
-3
390
0
0
LAYER
5
6D
100
AcDbSymbolTableRecord
100
AcDbLayerTableRecord
2
80
70
0
62
-6
6
CONTINUOUS
290
1
370
-3
390
0
0
LAYER
5
6F
100
AcDbSymbolTableRecord
100
AcDbLayerTableRecord
2
81
70
0
62
-3
6
CONTINUOUS
290
1
370
-3
390
0
0
LAYER
5
76
100
AcDbSymbolTableRecord
100
AcDbLayerTableRecord
2
1
70
0
62
4
6
CONTINUOUS
290
1
370
-3
390
0
0
LAYER
5
95
100
AcDbSymbolTableRecord
100
AcDbLayerTableRecord
2
4
70
0
62
-2
6
CENTER
290
1
370
-3
390
0
0
LAYER
5
1CB
100
AcDbSymbolTableRecord
100
AcDbLayerTableRecord
2
2
70
0
62
7
6
CONTINUOUS
290
1
370
-3
390
0
0
LAYER
5
243
100
AcDbSymbolTableRecord
100
AcDbLayerTableRecord
2
SK2
70
0
62
7
6
CONTINUOUS
290
1
370
-3
390
0
0
LAYER
5
244
100
AcDbSymbolTableRecord
100
AcDbLayerTableRecord
2
SK1
70
0
62
4
6
CONTINUOUS
290
1
370
-3
390
0
0
LAYER
5
245
100
AcDbSymbolTableRecord
100
AcDbLayerTableRecord
2
SK4
70
0
62
2
6
CENTER
290
1
370
-3
390
0
0
LAYER
5
246
100
AcDbSymbolTableRecord
100
AcDbLayerTableRecord
2
SK6
70
0
62
5
6
CONTINUOUS
290
1
370
-3
390
0
0
ENDTAB
0
TABLE
2
STYLE
5
25a
100
AcDbSymbolTable
0
STYLE
5
11
100
AcDbSymbolTableRecord
100
AcDbTextStyleTableRecord
2
Standard
3
txt
70
0
71
0
40
0
41
1
42
0
50
0
0
STYLE
5
1B2
100
AcDbSymbolTableRecord
100
AcDbTextStyleTableRecord
2
iso_b_vert
3
simplex.shx
70
0
71
0
40
0
41
1
42
0
50
0
0
STYLE
5
1B3
100
AcDbSymbolTableRecord
100
AcDbTextStyleTableRecord
2
DWGDirectTextStyle
3
simplex
70
0
71
0
40
0
41
1
42
0
50
0
0
ENDTAB
0
TABLE
2
DIMSTYLE
5
25b
100
AcDbSymbolTable
100
AcDbDimStyleTable
0
DIMSTYLE
105
27
100
AcDbSymbolTableRecord
100
AcDbDimStyleTableRecord
2
Standard
70
0
3
<>
41
0.18
42
0.0625
44
0.18
140
0.18
147
0.09
73
0
74
0
77
1
271
2
275
0
278
52
280
0
340
11
0
ENDTAB
0
TABLE
2
VIEW
5
25c
100
AcDbSymbolTable
0
ENDTAB
0
TABLE
2
UCS
5
25d
100
AcDbSymbolTable
0
ENDTAB
0
TABLE
2
APPID
5
25e
100
AcDbSymbolTable
0
APPID
5
12
100
AcDbSymbolTableRecord
100
AcDbRegAppTableRecord
2
ACAD
70
0
0
ENDTAB
0
TABLE
2
BLOCK_RECORD
5
25f
100
AcDbSymbolTable
0
BLOCK_RECORD
5
1F
100
AcDbSymbolTableRecord
100
AcDbBlockTableRecord
2
*Model_Space
340
0
70
0
0
BLOCK_RECORD
5
1B
100
AcDbSymbolTableRecord
100
AcDbBlockTableRecord
2
*Paper_Space
340
0
70
0
0
BLOCK_RECORD
5
23
100
AcDbSymbolTableRecord
100
AcDbBlockTableRecord
2
*Paper_Space0
340
0
70
0
0
BLOCK_RECORD
5
1B5
100
AcDbSymbolTableRecord
100
AcDbBlockTableRecord
2
DimnDraft3D1
340
0
70
0
0
BLOCK_RECORD
5
1BF
100
AcDbSymbolTableRecord
100
AcDbBlockTableRecord
2
DimnDraft3D2
340
0
70
0
0
BLOCK_RECORD
5
1C9
100
AcDbSymbolTableRecord
100
AcDbBlockTableRecord
2
DimnDraft3D3
340
0
70
0
0
BLOCK_RECORD
5
1D4
100
AcDbSymbolTableRecord
100
AcDbBlockTableRecord
2
DimnDraft3D4
340
0
70
0
0
BLOCK_RECORD
5
1DF
100
AcDbSymbolTableRecord
100
AcDbBlockTableRecord
2
DimnDraft3D5
340
0
70
0
0
ENDTAB
0
ENDSEC
0
SECTION
2
BLOCKS
0
BLOCK
5
20
100
AcDbEntity
8
0
100
AcDbBlockBegin
2
*Model_Space
70
0
10
0
20
0
30
0
3
*Model_Space
0
ENDBLK
5
21
100
AcDbEntity
8
0
100
AcDbBlockEnd
0
BLOCK
5
1C
100
AcDbEntity
8
0
100
AcDbBlockBegin
2
*Paper_Space
70
0
10
0
20
0
30
0
3
*Paper_Space
0
ENDBLK
5
1D
100
AcDbEntity
8
0
100
AcDbBlockEnd
0
BLOCK
5
24
100
AcDbEntity
8
0
100
AcDbBlockBegin
2
*Paper_Space0
70
0
10
0
20
0
30
0
3
*Paper_Space0
0
ENDBLK
5
25
100
AcDbEntity
8
0
100
AcDbBlockEnd
0
BLOCK
5
1BC
100
AcDbEntity
8
0
100
AcDbBlockBegin
2
DimnDraft3D1
70
0
10
0
20
0
30
0
3
DimnDraft3D1
0
MTEXT
5
1B6
100
AcDbEntity
8
SK2
62
256
6
ByLayer
370
18
48
1
60
0
100
AcDbMText
10
31.455234
20
-34.224866
30
0
210
0
220
0
230
1
1
\W0.6563;15.5
40
3.5
41
0
44
1.084337
50
0
71
7
72
5
7
iso_b_vert
0
LINE
5
1B7
100
AcDbEntity
8
SK2
62
256
6
ByLayer
370
13
48
1
60
0
100
AcDbLine
10
26.5
20
-8.5875
30
0
11
26.5
21
-37.1
31
0
39
0
210
0
220
0
230
1
0
LINE
5
1B8
100
AcDbEntity
8
SK2
62
256
6
ByLayer
370
13
48
1
60
0
100
AcDbLine
10
42
20
-8.5875
30
0
11
42
21
-37.1
31
0
39
0
210
0
220
0
230
1
0
LINE
5
1B9
100
AcDbEntity
8
SK2
62
256
6
ByLayer
370
13
48
1
60
0
100
AcDbLine
10
17.75
20
-35.1
30
0
11
50.75
21
-35.1
31
0
39
0
210
0
220
0
230
1
0
SOLID
5
1BA
100
AcDbEntity
8
SK2
62
256
6
ByLayer
370
13
48
1
60
0
100
AcDbTrace
10
26.5
20
-35.1
30
0
11
23.000002
21
-35.560784
31
0
12
22.999998
22
-34.639216
32
0
13
26.5
23
-35.1
33
0
39
0
210
0
220
0
230
1
0
SOLID
5
1BB
100
AcDbEntity
8
SK2
62
256
6
ByLayer
370
13
48
1
60
0
100
AcDbTrace
10
42
20
-35.1
30
0
11
45.499998
21
-34.639216
31
0
12
45.500002
22
-35.560784
32
0
13
42
23
-35.1
33
0
39
0
210
0
220
0
230
1
0
ENDBLK
5
1BD
100
AcDbEntity
8
0
100
AcDbBlockEnd
0
BLOCK
5
1C6
100
AcDbEntity
8
0
100
AcDbBlockBegin
2
DimnDraft3D2
70
0
10
0
20
0
30
0
3
DimnDraft3D2
0
MTEXT
5
1C0
100
AcDbEntity
8
SK2
62
256
6
ByLayer
370
18
48
1
60
0
100
AcDbMText
10
61.020186
20
2.575534
30
0
210
0
220
0
230
1
1
\W0.7121;9.0
40
3.5
41
0
44
1.084337
50
90
71
7
72
5
7
iso_b_vert
0
LINE
5
1C1
100
AcDbEntity
8
SK2
62
256
6
ByLayer
370
13
48
1
60
0
100
AcDbLine
10
43.5875
20
9
30
0
11
63.895319
21
9
31
0
39
0
210
0
220
0
230
1
0
LINE
5
1C2
100
AcDbEntity
8
SK2
62
256
6
ByLayer
370
13
48
1
60
0
100
AcDbLine
10
43.5875
20
0
30
0
11
63.895319
21
0
31
0
39
0
210
0
220
0
230
1
0
LINE
5
1C3
100
AcDbEntity
8
SK2
62
256
6
ByLayer
370
13
48
1
60
0
100
AcDbLine
10
61.895319
20
17.75
30
0
11
61.895319
21
-8.75
31
0
39
0
210
0
220
0
230
1
0
SOLID
5
1C4
100
AcDbEntity
8
SK2
62
256
6
ByLayer
370
13
48
1
60
0
100
AcDbTrace
10
61.895319
20
9
30
0
11
61.434536
21
12.499998
31
0
12
62.356103
22
12.500002
32
0
13
61.895319
23
9
33
0
39
0
210
0
220
0
230
1
0
SOLID
5
1C5
100
AcDbEntity
8
SK2
62
256
6
ByLayer
370
13
48
1
60
0
100
AcDbTrace
10
61.895319
20
0
30
0
11
62.356103
21
-3.499998
31
0
12
61.434536
22
-3.500002
32
0
13
61.895319
23
0
33
0
39
0
210
0
220
0
230
1
0
ENDBLK
5
1C7
100
AcDbEntity
8
0
100
AcDbBlockEnd
0
BLOCK
5
1D1
100
AcDbEntity
8
0
100
AcDbBlockBegin
2
DimnDraft3D3
70
0
10
0
20
0
30
0
3
DimnDraft3D3
0
MTEXT
5
1CA
100
AcDbEntity
8
2
62
256
6
ByLayer
370
18
48
1
60
0
100
AcDbMText
10
17.583534
20
-44.224866
30
0
210
0
220
0
230
1
1
\W0.7640;42.0
40
3.5
41
0
44
1.084337
50
0
71
7
72
5
7
iso_b_vert
0
LINE
5
1CC
100
AcDbEntity
8
2
62
256
6
ByLayer
370
13
48
1
60
0
100
AcDbLine
10
0
20
-26.5875
30
0
11
0
21
-47.1
31
0
39
0
210
0
220
0
230
1
0
LINE
5
1CD
100
AcDbEntity
8
2
62
256
6
ByLayer
370
13
48
1
60
0
100
AcDbLine
10
42
20
-8.5875
30
0
11
42
21
-47.1
31
0
39
0
210
0
220
0
230
1
0
LINE
5
1CE
100
AcDbEntity
8
2
62
256
6
ByLayer
370
13
48
1
60
0
100
AcDbLine
10
0
20
-45.1
30
0
11
42
21
-45.1
31
0
39
0
210
0
220
0
230
1
0
SOLID
5
1CF
100
AcDbEntity
8
2
62
256
6
ByLayer
370
13
48
1
60
0
100
AcDbTrace
10
0
20
-45.1
30
0
11
3.499998
21
-44.639216
31
0
12
3.500002
22
-45.560784
32
0
13
0
23
-45.1
33
0
39
0
210
0
220
0
230
1
0
SOLID
5
1D0
100
AcDbEntity
8
2
62
256
6
ByLayer
370
13
48
1
60
0
100
AcDbTrace
10
42
20
-45.1
30
0
11
38.500002
21
-45.560784
31
0
12
38.499998
22
-44.639216
32
0
13
42
23
-45.1
33
0
39
0
210
0
220
0
230
1
0
ENDBLK
5
1D2
100
AcDbEntity
8
0
100
AcDbBlockEnd
0
BLOCK
5
1DC
100
AcDbEntity
8
0
100
AcDbBlockBegin
2
DimnDraft3D4
70
0
10
0
20
0
30
0
3
DimnDraft3D4
0
MTEXT
5
1D5
100
AcDbEntity
8
SK2
62
256
6
ByLayer
370
18
48
1
60
0
100
AcDbMText
10
-53.350134
20
3.159534
30
0
210
0
220
0
230
1
1
\W0.6740;50
40
3.5
41
0
44
1.084337
50
90
71
7
72
5
7
iso_b_vert
0
MTEXT
5
1D6
100
AcDbEntity
8
SK2
62
256
6
ByLayer
370
18
48
1
60
0
100
AcDbMText
10
-53.350134
20
-3.813122
30
0
210
0
220
0
230
1
1
%%c
40
3.5
41
0
44
1.084337
50
90
71
7
72
5
7
iso_b_vert
0
LINE
5
1D7
100
AcDbEntity
8
SK2
62
256
6
ByLayer
370
13
48
1
60
0
100
AcDbLine
10
-1.5875
20
25
30
0
11
-53.6
21
25
31
0
39
0
210
0
220
0
230
1
0
LINE
5
1D8
100
AcDbEntity
8
SK2
62
256
6
ByLayer
370
13
48
1
60
0
100
AcDbLine
10
-1.5875
20
-25
30
0
11
-53.6
21
-25
31
0
39
0
210
0
220
0
230
1
0
LINE
5
1D9
100
AcDbEntity
8
SK2
62
256
6
ByLayer
370
13
48
1
60
0
100
AcDbLine
10
-51.6
20
25
30
0
11
-51.6
21
-25
31
0
39
0
210
0
220
0
230
1
0
SOLID
5
1DA
100
AcDbEntity
8
SK2
62
256
6
ByLayer
370
13
48
1
60
0
100
AcDbTrace
10
-51.6
20
25
30
0
11
-51.139216
21
21.500002
31
0
12
-52.060784
22
21.499998
32
0
13
-51.6
23
25
33
0
39
0
210
0
220
0
230
1
0
SOLID
5
1DB
100
AcDbEntity
8
SK2
62
256
6
ByLayer
370
13
48
1
60
0
100
AcDbTrace
10
-51.6
20
-25
30
0
11
-52.060784
21
-21.500002
31
0
12
-51.139216
22
-21.499998
32
0
13
-51.6
23
-25
33
0
39
0
210
0
220
0
230
1
0
ENDBLK
5
1DD
100
AcDbEntity
8
0
100
AcDbBlockEnd
0
BLOCK
5
1E7
100
AcDbEntity
8
0
100
AcDbBlockBegin
2
DimnDraft3D5
70
0
10
0
20
0
30
0
3
DimnDraft3D5
0
MTEXT
5
1E0
100
AcDbEntity
8
SK2
62
256
6
ByLayer
370
18
48
1
60
0
100
AcDbMText
10
70.145186
20
12.159534
30
0
210
0
220
0
230
1
1
\W0.6740;32
40
3.5
41
0
44
1.084337
50
90
71
7
72
5
7
iso_b_vert
0
MTEXT
5
1E1
100
AcDbEntity
8
SK2
62
256
6
ByLayer
370
18
48
1
60
0
100
AcDbMText
10
70.145186
20
5.186878
30
0
210
0
220
0
230
1
1
%%c
40
3.5
41
0
44
1.084337
50
90
71
7
72
5
7
iso_b_vert
0
LINE
5
1E2
100
AcDbEntity
8
SK2
62
256
6
ByLayer
370
13
48
1
60
0
100
AcDbLine
10
43.5875
20
25
30
0
11
73.895319
21
25
31
0
39
0
210
0
220
0
230
1
0
LINE
5
1E3
100
AcDbEntity
8
SK2
62
256
6
ByLayer
370
13
48
1
60
0
100
AcDbLine
10
43.5875
20
-7
30
0
11
73.895319
21
-7
31
0
39
0
210
0
220
0
230
1
0
LINE
5
1E4
100
AcDbEntity
8
SK2
62
256
6
ByLayer
370
13
48
1
60
0
100
AcDbLine
10
71.895319
20
25
30
0
11
71.895319
21
-7
31
0
39
0
210
0
220
0
230
1
0
SOLID
5
1E5
100
AcDbEntity
8
SK2
62
256
6
ByLayer
370
13
48
1
60
0
100
AcDbTrace
10
71.895319
20
25
30
0
11
72.356103
21
21.500002
31
0
12
71.434536
22
21.499998
32
0
13
71.895319
23
25
33
0
39
0
210
0
220
0
230
1
0
SOLID
5
1E6
100
AcDbEntity
8
SK2
62
256
6
ByLayer
370
13
48
1
60
0
100
AcDbTrace
10
71.895319
20
-7
30
0
11
71.434536
21
-3.500002
31
0
12
72.356103
22
-3.499998
32
0
13
71.895319
23
-7
33
0
39
0
210
0
220
0
230
1
0
ENDBLK
5
1E8
100
AcDbEntity
8
0
100
AcDbBlockEnd
0
ENDSEC
0
SECTION
2
ENTITIES
0
ARC
5
10C
100
AcDbEntity
8
1
62
256
6
ByLayer
370
18
48
1
60
0
100
AcDbCircle
39
0
10
51.0855
20
4.971825
30
0
40
0.5
210
0
220
0
230
1
100
AcDbArc
50
0
51
90
0
ARC
5
10D
100
AcDbEntity
8
1
62
256
6
ByLayer
370
18
48
1
60
0
100
AcDbCircle
39
0
10
51.0855
20
20.528175
30
0
40
0.5
210
0
220
0
230
1
100
AcDbArc
50
0
51
90
0
ARC
5
10E
100
AcDbEntity
8
1
62
256
6
ByLayer
370
18
48
1
60
0
100
AcDbCircle
39
0
10
51.0855
20
13.028175
30
0
40
0.5
210
0
220
0
230
1
100
AcDbArc
50
270
51
0
0
ARC
5
10F
100
AcDbEntity
8
1
62
256
6
ByLayer
370
18
48
1
60
0
100
AcDbCircle
39
0
10
51.0855
20
-2.528175
30
0
40
0.5
210
0
220
0
230
1
100
AcDbArc
50
270
51
0
0
ARC
5
110
100
AcDbEntity
8
1
62
256
6
ByLayer
370
18
48
1
60
0
100
AcDbCircle
39
0
10
-46.4755
20
3.921825
30
0
40
0.2
210
0
220
0
230
-1
100
AcDbArc
50
180
51
270
0
ARC
5
111
100
AcDbEntity
8
1
62
256
6
ByLayer
370
18
48
1
60
0
100
AcDbCircle
39
0
10
-46.4755
20
-1.478175
30
0
40
0.2
210
0
220
0
230
-1
100
AcDbArc
50
90
51
180
0
ARC
5
112
100
AcDbEntity
8
1
62
256
6
ByLayer
370
18
48
1
60
0
100
AcDbCircle
39
0
10
51.0855
20
20.528175
30
0
40
0.5
210
0
220
0
230
1
100
AcDbArc
50
0
51
90
0
ARC
5
113
100
AcDbEntity
8
1
62
256
6
ByLayer
370
18
48
1
60
0
100
AcDbCircle
39
0
10
-26.5
20
-11
30
0
40
4
210
0
220
0
230
-1
100
AcDbArc
50
9.885408
51
90
0
ARC
5
114
100
AcDbEntity
8
1
62
256
6
ByLayer
370
18
48
1
60
0
100
AcDbCircle
39
0
10
-46.4755
20
14.078175
30
0
40
0.2
210
0
220
0
230
-1
100
AcDbArc
50
90
51
180
0
ARC
5
115
100
AcDbEntity
8
1
62
256
6
ByLayer
370
18
48
1
60
0
100
AcDbCircle
39
0
10
51.0855
20
13.028175
30
0
40
0.5
210
0
220
0
230
1
100
AcDbArc
50
270
51
0
0
ARC
5
116
100
AcDbEntity
8
1
62
256
6
ByLayer
370
18
48
1
60
0
100
AcDbCircle
39
0
10
-46.4755
20
19.478175
30
0
40
0.2
210
0
220
0
230
-1
100
AcDbArc
50
180
51
270
0
ARC
5
117
100
AcDbEntity
8
1
62
256
6
ByLayer
370
18
48
1
60
0
100
AcDbCircle
39
0
10
-46.4755
20
19.478175
30
0
40
0.2
210
0
220
0
230
-1
100
AcDbArc
50
180
51
270
0
ARC
5
118
100
AcDbEntity
8
1
62
256
6
ByLayer
370
18
48
1
60
0
100
AcDbCircle
39
0
10
-46.4755
20
14.078175
30
0
40
0.2
210
0
220
0
230
-1
100
AcDbArc
50
90
51
180
0
ELLIPSE
5
119
100
AcDbEntity
8
1
62
256
6
ByLayer
370
18
48
1
60
0
100
AcDbEllipse
10
-1.056258
20
0
30
0
11
11.7092723497252
21
-24.6771864409349
31
0
210
0
220
0
230
-1
40
0.341999
41
-1.08183270048936
42
-0.16721307190899
0
ELLIPSE
5
11A
100
AcDbEntity
8
1
62
256
6
ByLayer
370
18
48
1
60
0
100
AcDbEllipse
10
21.056258
20
0
30
0
11
11.7092723497278
21
-24.6771864409379
31
0
210
0
220
0
230
-1
40
0.341999
41
2.05975995310053
42
2.97437958168082
0
ELLIPSE
5
11B
100
AcDbEntity
8
1
62
256
6
ByLayer
370
18
48
1
60
0
100
AcDbEllipse
10
-1.056258
20
0
30
0
11
11.7092723497282
21
24.6771864409387
31
0
210
0
220
0
230
-1
40
0.341999
41
0.167213071908973
42
1.08183270048924
0
ELLIPSE
5
11C
100
AcDbEntity
8
1
62
256
6
ByLayer
370
18
48
1
60
0
100
AcDbEllipse
10
21.056258
20
0
30
0
11
11.7092723497277
21
24.6771864409379
31
0
210
0
220
0
230
-1
40
0.341999
41
-2.97437958168082
42
-2.05975995310054
0
POINT
5
6C
100
AcDbEntity
8
80
62
256
6
ByLayer
370
18
48
1
60
0
100
AcDbPoint
10
0
20
0
30
0
39
0
210
0
220
0
230
1
50
360
0
POINT
5
6E
100
AcDbEntity
8
81
62
256
6
ByLayer
370
18
48
1
60
0
100
AcDbPoint
10
42
20
9
30
0
39
0
210
0
220
0
230
1
50
360
0
POINT
5
70
100
AcDbEntity
8
SK2
62
256
6
ByLayer
370
18
48
1
60
1
100
AcDbPoint
10
0
20
25
30
0
39
0
210
0
220
0
230
1
50
360
0
POINT
5
72
100
AcDbEntity
8
SK2
62
256
6
ByLayer
370
18
48
1
60
1
100
AcDbPoint
10
0
20
-25
30
0
39
0
210
0
220
0
230
1
50
360
0
POINT
5
73
100
AcDbEntity
8
SK2
62
256
6
ByLayer
370
18
48
1
60
1
100
AcDbPoint
10
42
20
25
30
0
39
0
210
0
220
0
230
1
50
360
0
POINT
5
74
100
AcDbEntity
8
SK2
62
256
6
ByLayer
370
18
48
1
60
1
100
AcDbPoint
10
42
20
-7
30
0
39
0
210
0
220
0
230
1
50
360
0
SPLINE
5
11D
100
AcDbEntity
8
SK1
62
256
6
ByLayer
370
18
48
1
60
0
100
AcDbSpline
70
4
71
2
72
6
73
3
40
0
40
0
40
0
40
1
40
1
40
1
41
1
10
-28.5
20
-16.8545316091351
30
0
41
1
10
-15.3499999982428
20
-17.1846808487114
30
0
41
1
10
-2.2
20
-17.5148290000611
30
0
0
SPLINE
5
11E
100
AcDbEntity
8
SK1
62
256
6
ByLayer
370
18
48
1
60
0
100
AcDbSpline
70
4
71
3
72
13
73
9
40
0
40
0
40
0
40
0
40
0.239406556343043
40
0.368294011542703
40
0.499927738071867
40
0.63157346105366
40
0.760494011740437
40
1
40
1
40
1
40
1
41
1
10
-2.2
20
-17.5200962264206
30
0
41
1
10
-2.19909121920765
20
-17.494049013599
30
0
41
1
10
-2.19103207709686
20
-17.4566916816953
30
0
41
1
10
-2.1656349077566
20
-17.4104934409328
30
0
41
1
10
-2.13886243910254
20
-17.379225724067
30
0
41
1
10
-2.10627567684699
20
-17.3540697297103
30
0
41
1
10
-2.05883863807622
20
-17.3310363194719
30
0
41
1
10
-2.0211092598112
20
-17.3248666993254
30
0
41
1
10
-1.9950399779393
20
-17.3252688086104
30
0
0
SPLINE
5
11F
100
AcDbEntity
8
SK1
62
256
6
ByLayer
370
18
48
1
60
0
100
AcDbSpline
70
4
71
2
72
6
73
3
40
0
40
0
40
0
40
1
40
1
40
1
41
1
10
-0.394913799811292
20
17.3602209523781
30
0
41
1
10
-1.19497688886898
20
17.3401342706943
30
0
41
1
10
-1.9950399779393
20
17.3200475850767
30
0
0
SPLINE
5
120
100
AcDbEntity
8
SK1
62
256
6
ByLayer
370
18
48
1
60
0
100
AcDbSpline
70
4
71
2
72
6
73
3
40
0
40
0
40
0
40
1
40
1
40
1
41
1
10
-1.9950399779393
20
-17.3200478774323
30
0
41
1
10
-1.19497688886898
20
-17.340134563042
30
0
41
1
10
-0.394913799811292
20
-17.3602212447177
30
0
0
SPLINE
5
121
100
AcDbEntity
8
SK1
62
256
6
ByLayer
370
18
48
1
60
0
100
AcDbSpline
70
4
71
2
72
6
73
3
40
0
40
0
40
0
40
1
40
1
40
1
41
1
10
-28.5
20
16.8588088260863
30
0
41
1
10
-29.2499999297871
20
16.4259984461422
30
0
41
1
10
-30
20
15.9931873508859
30
0
0
SPLINE
5
122
100
AcDbEntity
8
SK1
62
256
6
ByLayer
370
18
48
1
60
0
100
AcDbSpline
70
4
71
3
72
11
73
7
40
0
40
0
40
0
40
0
40
0.242589954178661
40
0.502544718947568
40
0.761087572808626
40
1
40
1
40
1
40
1
41
1
10
-0.199999999999989
20
17.5545583467653
30
0
41
1
10
-0.200957889270356
20
17.528914023106
30
0
41
1
10
-0.211248315226271
20
17.4799022728817
30
0
41
1
10
-0.255179720944184
20
17.413949611085
30
0
41
1
10
-0.321113897423814
20
17.3707504109673
30
0
41
1
10
-0.369683795840203
20
17.3607068368228
30
0
41
1
10
-0.394913799811292
20
17.359780267379
30
0
0
SPLINE
5
123
100
AcDbEntity
8
SK1
62
256
6
ByLayer
370
18
48
1
60
0
100
AcDbSpline
70
4
71
2
72
6
73
3
40
0
40
0
40
0
40
1
40
1
40
1
41
1
10
-2.2
20
17.5148287077807
30
0
41
1
10
-15.3499999982431
20
17.1846805562453
30
0
41
1
10
-28.5
20
16.8545313165689
30
0
0
SPLINE
5
124
100
AcDbEntity
8
SK1
62
256
6
ByLayer
370
18
48
1
60
0
100
AcDbSpline
70
4
71
3
72
13
73
9
40
0
40
0
40
0
40
0
40
0.239505987673052
40
0.368426538155646
40
0.500072261058253
40
0.631705987654754
40
0.760593443052828
40
1
40
1
40
1
40
1
41
1
10
-1.9950399779393
20
17.3252686883829
30
0
41
1
10
-2.02110925982339
20
17.3248665791032
30
0
41
1
10
-2.05883863809936
20
17.3310361992814
30
0
41
1
10
-2.10627567686483
20
17.3540696096461
30
0
41
1
10
-2.13886243911924
20
17.3792256041407
30
0
41
1
10
-2.16563490776915
20
17.4104933211739
30
0
41
1
10
-2.19103207710596
20
17.4566915621889
30
0
41
1
10
-2.19909121921685
20
17.4940488942773
30
0
41
1
10
-2.2
20
17.5200961072231
30
0
0
SPLINE
5
125
100
AcDbEntity
8
SK1
62
256
6
ByLayer
370
18
48
1
60
0
100
AcDbSpline
70
4
71
2
72
6
73
3
40
0
40
0
40
0
40
1
40
1
40
1
41
1
10
-30
20
-15.9931874249212
30
0
41
1
10
-29.2499999297894
20
-16.425998517687
30
0
41
1
10
-28.5
20
-16.8588088951667
30
0
0
SPLINE
5
126
100
AcDbEntity
8
SK1
62
256
6
ByLayer
370
18
48
1
60
0
100
AcDbSpline
70
4
71
3
72
11
73
7
40
0
40
0
40
0
40
0
40
0.238912427113139
40
0.497455280942497
40
0.757410045745043
40
1
40
1
40
1
40
1
41
1
10
-0.394913799811292
20
-17.3597801301672
30
0
41
1
10
-0.369683795838398
20
-17.3607066995757
30
0
41
1
10
-0.321113897416467
20
-17.3707502735068
30
0
41
1
10
-0.255179720936397
20
-17.4139494728385
30
0
41
1
10
-0.211248315224623
20
-17.4799021334557
30
0
41
1
10
-0.200957889268736
20
-17.5289138828002
30
0
41
1
10
-0.199999999999989
20
-17.5545582060013
30
0
0
SPLINE
5
127
100
AcDbEntity
8
SK1
62
256
6
ByLayer
370
18
48
1
60
0
100
AcDbSpline
70
4
71
3
72
10
73
6
40
0
40
0
40
0
40
0
40
0.5
40
0.5
40
1
40
1
40
1
40
1
41
1
10
-0.199999999999989
20
6.1285406827036
30
0
41
1
10
-0.156757675992992
20
6.04257107114418
30
0
41
1
10
-0.120484961900104
20
5.95425401706129
30
0
41
1
10
-0.0551840630306941
20
5.77467228126494
30
0
41
1
10
-0.0263362878809374
20
5.68335897850545
30
0
41
1
10
1.705E-13
20
5.59084400956894
30
0
0
SPLINE
5
128
100
AcDbEntity
8
SK1
62
256
6
ByLayer
370
18
48
1
60
0
100
AcDbSpline
70
4
71
3
72
30
73
26
40
0
40
0
40
0
40
0
40
0.125
40
0.125
40
0.25
40
0.25
40
0.375
40
0.375
40
0.40625
40
0.40625
40
0.4375
40
0.4375
40
0.5
40
0.5
40
0.5625
40
0.5625
40
0.625
40
0.625
40
0.75
40
0.75
40
0.8125
40
0.8125
40
0.875
40
0.875
40
1
40
1
40
1
40
1
41
1
10
-1.30710678118655
20
-3.91808269248787
30
0
41
1
10
-1.36342296385064
20
-3.60715642249769
30
0
41
1
10
-1.41678689271535
20
-3.29287187674925
30
0
41
1
10
-1.51435013598103
20
-2.65639932915289
30
0
41
1
10
-1.55846884179033
20
-2.33418302861875
30
0
41
1
10
-1.63296978491243
20
-1.68004719877021
30
0
41
1
10
-1.66337509736468
20
-1.34813830750835
30
0
41
1
10
-1.68970631303115
20
-0.925864288812136
30
0
41
1
10
-1.69439129498726
20
-0.840882546248196
30
0
41
1
10
-1.70245250680873
20
-0.670897601193559
30
0
41
1
10
-1.7058243793803
20
-0.586052568901863
30
0
41
1
10
-1.71388361409092
20
-0.331968562037957
30
0
41
1
10
-1.71646782396985
20
-0.163187101305852
30
0
41
1
10
-1.71636335941631
20
0.173213348331927
30
0
41
1
10
-1.71367008139578
20
0.340831662555388
30
0
41
1
10
-1.7029362602337
20
0.674902568806175
30
0
41
1
10
-1.69494665814693
20
0.841362289300577
30
0
41
1
10
-1.66399327242202
20
1.33914312869118
30
0
41
1
10
-1.63408221528162
20
1.66887252592329
30
0
41
1
10
-1.57830442880824
20
2.16069253761429
30
0
41
1
10
-1.55787000582583
20
2.32431800389296
30
0
41
1
10
-1.51394731043966
20
2.65007047288918
30
0
41
1
10
-1.49055743488206
20
2.81150726182861
30
0
41
1
10
-1.41696122519083
20
3.29195215520878
30
0
41
1
10
-1.3634250101253
20
3.60714571014046
30
0
41
1
10
-1.30710678118655
20
3.91808311129771
30
0
0
SPLINE
5
129
100
AcDbEntity
8
SK1
62
256
6
ByLayer
370
13
48
1
60
0
100
AcDbSpline
70
4
71
3
72
45
73
41
40
0
40
0
40
0
40
0
40
0.0143964910904981
40
0.0429613827313662
40
0.0715262743722343
40
0.100091166013102
40
0.157220949294839
40
0.214350732576575
40
0.242915624217443
40
0.271480515858311
40
0.300045407499179
40
0.328610299140047
40
0.357175190780915
40
0.385740082421783
40
0.414304974062651
40
0.428587419883086
40
0.44286986570352
40
0.471434757344388
40
0.485717203164822
40
0.492858426075039
40
0.499999648985256
40
0.507140871895473
40
0.51428209480569
40
0.528564540626124
40
0.557129432266992
40
0.571411878087426
40
0.58569432390786
40
0.614259215548728
40
0.642824107189596
40
0.671388998830465
40
0.699953890471333
40
0.728518782112201
40
0.757083673753069
40
0.785648565393937
40
0.842778348675673
40
0.899908131957409
40
0.928473023598278
40
0.957037915239146
40
0.985602806880014
40
1
40
1
40
1
40
1
41
1
10
-1.99503997793931
20
17.3207234241631
30
0
41
1
10
-1.9950399779393
20
17.3142492882706
30
0
41
1
10
-1.9950399779393
20
17.2745092218817
30
0
41
1
10
-1.9950399779393
20
17.1138751154123
30
0
41
1
10
-1.9950399779393
20
16.7867763596001
30
0
41
1
10
-1.9950399779393
20
16.1866009265939
30
0
41
1
10
-1.9950399779393
20
15.1524691326423
30
0
41
1
10
-1.9950399779393
20
13.7813331880937
30
0
41
1
10
-1.9950399779393
20
12.4962106263157
30
0
41
1
10
-1.9950399779393
20
11.4421779521075
30
0
41
1
10
-1.9950399779393
20
10.2994799380558
30
0
41
1
10
-1.9950399779393
20
9.07001746022104
30
0
41
1
10
-1.9950399779393
20
7.75535376586828
30
0
41
1
10
-1.9950399779393
20
6.35676341745574
30
0
41
1
10
-1.9950399779393
20
5.12318926412425
30
0
41
1
10
-1.9950399779393
20
4.09531236648536
30
0
41
1
10
-1.9950399779393
20
3.04236295320666
30
0
41
1
10
-1.9950399779393
20
1.95640625727882
30
0
41
1
10
-1.9950399779393
20
0.981337226851394
30
0
41
1
10
-1.9950399779393
20
0.420771319084707
30
0
41
1
10
-1.9950399779393
20
6.88173714E-08
30
0
41
1
10
-1.9950399779393
20
-0.420771221994357
30
0
41
1
10
-1.9950399779393
20
-0.981337209960486
30
0
41
1
10
-1.9950399779393
20
-1.95640624898675
30
0
41
1
10
-1.9950399779393
20
-3.04236280324244
30
0
41
1
10
-1.9950399779393
20
-4.0953123914187
30
0
41
1
10
-1.9950399779393
20
-5.12318891405303
30
0
41
1
10
-1.9950399779393
20
-6.35676356337379
30
0
41
1
10
-1.9950399779393
20
-7.75535358782813
30
0
41
1
10
-1.9950399779393
20
-9.07001720037854
30
0
41
1
10
-1.9950399779393
20
-10.2994801886281
30
0
41
1
10
-1.9950399779393
20
-11.4421777785236
30
0
41
1
10
-1.9950399779393
20
-12.4962104807244
30
0
41
1
10
-1.9950399779393
20
-13.7813335607202
30
0
41
1
10
-1.9950399779393
20
-15.152468715744
30
0
41
1
10
-1.9950399779393
20
-16.1866016937524
30
0
41
1
10
-1.9950399779393
20
-16.786776230537
30
0
41
1
10
-1.9950399779393
20
-17.1138754381146
30
0
41
1
10
-1.9950399779393
20
-17.2745113554581
30
0
41
1
10
-1.99503997793928
20
-17.3142508656134
30
0
41
1
10
-1.99503997793928
20
-17.3207245757294
30
0
0
SPLINE
5
12A
100
AcDbEntity
8
SK1
62
256
6
ByLayer
370
18
48
1
60
0
100
AcDbSpline
70
4
71
3
72
45
73
41
40
0
40
0
40
0
40
0
40
0.0161744568669314
40
0.0446347882023009
40
0.0730951195376705
40
0.10155545087304
40
0.158476113543779
40
0.215396776214518
40
0.243857107549888
40
0.272317438885258
40
0.300777770220627
40
0.329238101555997
40
0.357698432891366
40
0.386158764226736
40
0.414619095562105
40
0.42884926122979
40
0.443079426897475
40
0.471539758232845
40
0.485769923900529
40
0.492885006734372
40
0.500000089568214
40
0.507115172402057
40
0.514230255235899
40
0.528460420903584
40
0.556920752238953
40
0.571150917906638
40
0.585381083574323
40
0.613841414909692
40
0.642301746245062
40
0.670762077580432
40
0.699222408915801
40
0.727682740251171
40
0.75614307158654
40
0.78460340292191
40
0.841524065592649
40
0.898444728263388
40
0.926905059598758
40
0.955365390934127
40
0.983825722269497
40
1
40
1
40
1
40
1
41
1
10
-28.5
20
16.8572679975842
30
0
41
1
10
-28.5
20
16.8520505579299
30
0
41
1
10
-28.5
20
16.8140882583114
30
0
41
1
10
-28.5
20
16.6531187925377
30
0
41
1
10
-28.5
20
16.3328856609547
30
0
41
1
10
-28.5
20
15.7436769514769
30
0
41
1
10
-28.5
20
14.7294543359372
30
0
41
1
10
-28.5
20
13.3839106046769
30
0
41
1
10
-28.5
20
12.1202723366856
30
0
41
1
10
-28.5
20
11.0855105352455
30
0
41
1
10
-28.5
20
9.96451720849825
30
0
41
1
10
-28.5
20
8.75967545377557
30
0
41
1
10
-28.5
20
7.47337327542297
30
0
41
1
10
-28.5
20
6.10815549439155
30
0
41
1
10
-28.5
20
4.9096720321497
30
0
41
1
10
-28.5
20
3.9114668992739
30
0
41
1
10
-28.5
20
2.89299469927084
30
0
41
1
10
-28.5
20
1.85830102725041
30
0
41
1
10
-28.5
20
0.929573956929886
30
0
41
1
10
-28.5
20
0.39746341502854
30
0
41
1
10
-28.5
20
1.847321585E-07
30
0
41
1
10
-28.5
20
-0.397463221290906
30
0
41
1
10
-28.5
20
-0.929574056191939
30
0
41
1
10
-28.5
20
-1.85830097558352
30
0
41
1
10
-28.5
20
-2.89299452712916
30
0
41
1
10
-28.5
20
-3.91146685141305
30
0
41
1
10
-28.5
20
-4.90967166078667
30
0
41
1
10
-28.5
20
-6.10815570815367
30
0
41
1
10
-28.5
20
-7.47337302390389
30
0
41
1
10
-28.5
20
-8.75967525472745
30
0
41
1
10
-28.5
20
-9.96451747418803
30
0
41
1
10
-28.5
20
-11.0855103162798
30
0
41
1
10
-28.5
20
-12.1202722318355
30
0
41
1
10
-28.5
20
-13.3839109677473
30
0
41
1
10
-28.5
20
-14.7294539424714
30
0
41
1
10
-28.5
20
-15.7436777114931
30
0
41
1
10
-28.5
20
-16.3328855300396
30
0
41
1
10
-28.5
20
-16.653119129773
30
0
41
1
10
-28.5
20
-16.814088418693
30
0
41
1
10
-28.5
20
-16.852050506233
30
0
41
1
10
-28.5
20
-16.8572680025755
30
0
0
SPLINE
5
12B
100
AcDbEntity
8
SK1
62
256
6
ByLayer
370
13
48
1
60
0
100
AcDbSpline
70
4
71
3
72
20
73
16
40
0
40
0
40
0
40
0
40
0.0337680661908706
40
0.10447792306824
40
0.175187779945609
40
0.245897636822979
40
0.387317350577718
40
0.528737064332457
40
0.599446921209826
40
0.670156778087195
40
0.740866634964565
40
0.811576491841934
40
0.882286348719304
40
0.952996205596673
40
1
40
1
40
1
40
1
41
1
10
-0.394913799811292
20
17.3598229030312
30
0
41
1
10
-0.394913799811292
20
17.3529963885252
30
0
41
1
10
-0.394913799811292
20
17.3128915920061
30
0
41
1
10
-0.394913799811292
20
17.1536376810083
30
0
41
1
10
-0.394913799811292
20
16.8259464323311
30
0
41
1
10
-0.394913799811292
20
16.2248245878661
30
0
41
1
10
-0.394913799811292
20
15.1889746622834
30
0
41
1
10
-0.394913799811292
20
13.8156301488903
30
0
41
1
10
-0.394913799811292
20
12.5286535254346
30
0
41
1
10
-0.394913799811292
20
11.4729578043957
30
0
41
1
10
-0.394913799811292
20
10.3283867090429
30
0
41
1
10
-0.394913799811292
20
9.09679950047925
30
0
41
1
10
-0.394913799811292
20
7.77968825069564
30
0
41
1
10
-0.394913799811292
20
6.53483606378663
30
0
41
1
10
-0.394913799811292
20
5.71905630138781
30
0
41
1
10
-0.394913799811292
20
5.38724490303466
30
0
0
SPLINE
5
12C
100
AcDbEntity
8
SK1
62
256
6
ByLayer
370
18
48
1
60
0
100
AcDbSpline
70
4
71
3
72
8
73
4
40
0
40
0
40
0
40
0
40
1
40
1
40
1
40
1
41
0.980125716641432
10
-0.199999999999999
20
6.07843244581182
30
0
41
0.980125716641432
10
-0.19999999999997
20
6.084630023521
30
0
41
0.980125716641432
10
-0.19999999999997
20
6.09082535712448
30
0
41
0.980125716641432
10
-0.19999999999997
20
6.09701844581183
30
0
0
SPLINE
5
12D
100
AcDbEntity
8
SK1
62
256
6
ByLayer
370
18
48
1
60
0
100
AcDbSpline
70
4
71
3
72
28
73
24
40
0
40
0
40
0
40
0
40
0.250000000000002
40
0.250000000000002
40
0.500000000000004
40
0.500000000000004
40
0.625000000000005
40
0.625000000000005
40
0.750000000000006
40
0.750000000000006
40
0.812500000000007
40
0.812500000000007
40
0.843750000000006
40
0.843750000000006
40
0.875000000000005
40
0.875000000000005
40
0.906250000000004
40
0.906250000000004
40
0.937500000000002
40
0.937500000000002
40
0.968750000000001
40
0.968750000000001
40
1
40
1
40
1
40
1
41
1
10
-0.199999999999989
20
-6.07843116862736
30
0
41
1
10
-0.200329859654715
20
-6.01357702681139
30
0
41
1
10
-0.201930655445096
20
-5.94848814748181
30
0
41
1
10
-0.208773542204625
20
-5.81776970228739
30
0
41
1
10
-0.21393305804412
20
-5.752093010587
30
0
41
1
10
-0.226581907125805
20
-5.65322539656958
30
0
41
1
10
-0.231616433421522
20
-5.62029294902297
30
0
41
1
10
-0.244374377579447
20
-5.5545642032601
30
0
41
1
10
-0.252035382751387
20
-5.52169220269815
30
0
41
1
10
-0.267422418729055
20
-5.47365965349908
30
0
41
1
10
-0.273206407019231
20
-5.4578359637467
30
0
41
1
10
-0.283724888362045
20
-5.43464123738511
30
0
41
1
10
-0.287542348293485
20
-5.4270010731544
30
0
41
1
10
-0.296164698039092
20
-5.41201401791528
30
0
41
1
10
-0.301003751719023
20
-5.40461199814774
30
0
41
1
10
-0.312019326339552
20
-5.39094692539044
30
0
41
1
10
-0.31824990755598
20
-5.38460165612517
30
0
41
1
10
-0.332559804953704
20
-5.37459778054642
30
0
41
1
10
-0.340894665894993
20
-5.37098941600732
30
0
41
1
10
-0.357931156529901
20
-5.36907270427508
30
0
41
1
10
-0.36642785688889
20
-5.37072488685553
30
0
41
1
10
-0.381681431788636
20
-5.3771694591704
30
0
41
1
10
-0.388608058083719
20
-5.3818813750388
30
0
41
1
10
-0.394913799811292
20
-5.38724256160009
30
0
0
SPLINE
5
12E
100
AcDbEntity
8
SK1
62
256
6
ByLayer
370
18
48
1
60
0
100
AcDbSpline
70
4
71
3
72
20
73
16
40
0
40
0
40
0
40
0
40
0.0169947585570111
40
0.0894449528884348
40
0.161895147219859
40
0.234345341551282
40
0.306795535882706
40
0.379245730214129
40
0.451695924545553
40
0.5965963132084
40
0.741496701871248
40
0.813946896202671
40
0.886397090534095
40
0.958847284865519
40
1
40
1
40
1
40
1
41
1
10
-0.199999999999989
20
-6.12853949501147
30
0
41
1
10
-0.199999999999989
20
-6.24422036059772
30
0
41
1
10
-0.199999999999989
20
-6.84892323096861
30
0
41
1
10
-0.199999999999989
20
-7.9037553959202
30
0
41
1
10
-0.199999999999989
20
-9.23334514476059
30
0
41
1
10
-0.199999999999989
20
-10.4757656452374
30
0
41
1
10
-0.199999999999989
20
-11.6298860926996
30
0
41
1
10
-0.199999999999989
20
-12.6940606980929
30
0
41
1
10
-0.199999999999989
20
-13.9904906407439
30
0
41
1
10
-0.199999999999989
20
-15.3750945461546
30
0
41
1
10
-0.199999999999989
20
-16.4197054187038
30
0
41
1
10
-0.199999999999989
20
-17.0256515618456
30
0
41
1
10
-0.199999999999989
20
-17.3563640277398
30
0
41
1
10
-0.199999999999989
20
-17.5231003722362
30
0
41
1
10
-0.199999999999989
20
-17.5625118656998
30
0
41
1
10
-0.199999999999989
20
-17.5678956551957
30
0
0
SPLINE
5
12F
100
AcDbEntity
8
SK1
62
256
6
ByLayer
370
13
48
1
60
0
100
AcDbSpline
70
4
71
3
72
20
73
16
40
0
40
0
40
0
40
0
40
0.0470038574049594
40
0.117713655500905
40
0.188423453596851
40
0.259133251692796
40
0.329843049788742
40
0.400552847884688
40
0.471262645980634
40
0.612682242172525
40
0.754101838364416
40
0.824811636460362
40
0.895521434556308
40
0.966231232652253
40
1
40
1
40
1
40
1
41
1
10
-0.394913799811292
20
-5.38724256160779
30
0
41
1
10
-0.394913799811292
20
-5.71905475014267
30
0
41
1
10
-0.394913799811292
20
-6.5348354946259
30
0
41
1
10
-0.394913799811292
20
-7.7796880789966
30
0
41
1
10
-0.394913799811292
20
-9.09679923539031
30
0
41
1
10
-0.394913799811292
20
-10.3283869583107
30
0
41
1
10
-0.394913799811292
20
-11.4729576347282
30
0
41
1
10
-0.394913799811292
20
-12.5286533763275
30
0
41
1
10
-0.394913799811292
20
-13.8156305223415
30
0
41
1
10
-0.394913799811292
20
-15.1889742433629
30
0
41
1
10
-0.394913799811292
20
-16.224825355641
30
0
41
1
10
-0.394913799811292
20
-16.8259463034278
30
0
41
1
10
-0.394913799811292
20
-17.1536380024563
30
0
41
1
10
-0.394913799811292
20
-17.3128928100195
30
0
41
1
10
-0.394913799811306
20
-17.3529972367543
30
0
41
1
10
-0.394913799811278
20
-17.3598235615887
30
0
0
SPLINE
5
130
100
AcDbEntity
8
SK1
62
256
6
ByLayer
370
18
48
1
60
0
100
AcDbSpline
70
4
71
3
72
8
73
4
40
0
40
0
40
0
40
0
40
1
40
1
40
1
40
1
41
0.980125716641433
10
-0.199999999999998
20
-6.09733116861274
30
0
41
0.980125716641433
10
-0.199999999999998
20
-6.09103348979058
30
0
41
0.980125716641433
10
-0.199999999999998
20
-6.08473348951122
30
0
41
0.980125716641433
10
-0.200000000000013
20
-6.07843116862764
30
0
0
SPLINE
5
131
100
AcDbEntity
8
SK1
62
256
6
ByLayer
370
18
48
1
60
0
100
AcDbSpline
70
4
71
3
72
10
73
6
40
0
40
0
40
0
40
0
40
0.5
40
0.5
40
1
40
1
40
1
40
1
41
1
10
0
20
-5.59084178336477
30
0
41
1
10
-0.0263362950988721
20
-5.68335691914493
30
0
41
1
10
-0.0551840705731479
20
-5.77467039414984
30
0
41
1
10
-0.120484964942349
20
-5.95425247849945
30
0
41
1
10
-0.156757673658618
20
-6.04256970895179
30
0
41
1
10
-0.199999999996322
20
-6.12853949501223
30
0
0
SPLINE
5
132
100
AcDbEntity
8
SK1
62
256
6
ByLayer
370
18
48
1
60
0
100
AcDbSpline
70
4
71
3
72
32
73
28
40
0
40
0
40
0
40
0
40
0.0312500000000007
40
0.0312500000000007
40
0.0625000000000015
40
0.0625000000000015
40
0.0937500000000022
40
0.0937500000000022
40
0.125000000000003
40
0.125000000000003
40
0.156250000000004
40
0.156250000000004
40
0.187500000000004
40
0.187500000000004
40
0.250000000000004
40
0.250000000000004
40
0.312500000000003
40
0.312500000000003
40
0.375000000000003
40
0.375000000000003
40
0.500000000000002
40
0.500000000000002
40
0.625000000000002
40
0.625000000000002
40
0.750000000000002
40
0.750000000000002
40
1
40
1
40
1
40
1
41
1
10
-0.394913799811292
20
-5.38724256160779
30
0
41
1
10
-0.411056331481689
20
-5.40096705709067
30
0
41
1
10
-0.428167571421085
20
-5.41359596702642
30
0
41
1
10
-0.465243842399843
20
-5.43564998709783
30
0
41
1
10
-0.485181785775112
20
-5.44498472977622
30
0
41
1
10
-0.527084358655031
20
-5.45802310642131
30
0
41
1
10
-0.549712129856729
20
-5.4617788894565
30
0
41
1
10
-0.594583752204926
20
-5.46190211761592
30
0
41
1
10
-0.617332847382031
20
-5.45828493727089
30
0
41
1
10
-0.659998030986756
20
-5.44522245408467
30
0
41
1
10
-0.680380496424036
20
-5.43574711585009
30
0
41
1
10
-0.717826906306101
20
-5.41366379171245
30
0
41
1
10
-0.735187935399338
20
-5.40097830060949
30
0
41
1
10
-0.784458452137216
20
-5.35950654192541
30
0
41
1
10
-0.812482621038868
20
-5.32846061496332
30
0
41
1
10
-0.863582196387256
20
-5.26323158283495
30
0
41
1
10
-0.886670718365778
20
-5.228730346937
30
0
41
1
10
-0.929029640850715
20
-5.15857889561173
30
0
41
1
10
-0.948347177186221
20
-5.12284414993093
30
0
41
1
10
-1.00255771394656
20
-5.01423503792975
30
0
41
1
10
-1.03377854809035
20
-4.93997760418029
30
0
41
1
10
-1.09059413059555
20
-4.78904752584492
30
0
41
1
10
-1.11609621830424
20
-4.71234577760794
30
0
41
1
10
-1.16310814037332
20
-4.55700258195824
30
0
41
1
10
-1.1845725282583
20
-4.47841070784148
30
0
41
1
10
-1.24415567180661
20
-4.24116014101816
30
0
41
1
10
-1.2776606709638
20
-4.08065708556941
30
0
41
1
10
-1.30710678118655
20
-3.91808269248793
30
0
0
SPLINE
5
133
100
AcDbEntity
8
SK1
62
256
6
ByLayer
370
18
48
1
60
0
100
AcDbSpline
70
4
71
3
72
45
73
41
40
0
40
0
40
0
40
0
40
0.0183638491593694
40
0.0466953536043109
40
0.0750268580492525
40
0.103358362494194
40
0.160021371384077
40
0.21668438027396
40
0.245015884718902
40
0.273347389163843
40
0.301678893608785
40
0.330010398053726
40
0.358341902498668
40
0.386673406943609
40
0.415004911388551
40
0.429170663611022
40
0.443336415833492
40
0.471667920278434
40
0.485833672500904
40
0.49291654861214
40
0.499999424723375
40
0.507082300834611
40
0.514165176945846
40
0.528330929168317
40
0.556662433613259
40
0.570828185835729
40
0.5849939380582
40
0.613325442503141
40
0.641656946948083
40
0.669988451393025
40
0.698319955837966
40
0.726651460282907
40
0.754982964727849
40
0.783314469172791
40
0.839977478062674
40
0.896640486952557
40
0.924971991397498
40
0.95330349584244
40
0.981635000287381
40
1
40
1
40
1
40
1
41
1
10
-30
20
-15.9933157830342
30
0
41
1
10
-30
20
-15.9901937812792
30
0
41
1
10
-30
20
-15.9552410516038
30
0
41
1
10
-30
20
-15.7965331178349
30
0
41
1
10
-30
20
-15.4890632796306
30
0
41
1
10
-30
20
-14.9202435431779
30
0
41
1
10
-30
20
-13.9430327235572
30
0
41
1
10
-30
20
-12.6450678356931
30
0
41
1
10
-30
20
-11.42137036219
30
0
41
1
10
-30
20
-10.4224345134304
30
0
41
1
10
-30
20
-9.34179268341313
30
0
41
1
10
-30
20
-8.18272261240932
30
0
41
1
10
-30
20
-6.94914665451279
30
0
41
1
10
-30
20
-5.64597210397028
30
0
41
1
10
-30
20
-4.51272453462846
30
0
41
1
10
-30
20
-3.56968201835699
30
0
41
1
10
-30
20
-2.61530592334967
30
0
41
1
10
-30
20
-1.67591474804155
30
0
41
1
10
-30
20
-0.833341855678981
30
0
41
1
10
-30
20
-0.354131622770439
30
0
41
1
10
-30
20
4.002277763E-07
30
0
41
1
10
-30
20
0.354131996183753
30
0
41
1
10
-30
20
0.8333415404785
30
0
41
1
10
-30
20
1.675914880346
30
0
41
1
10
-30
20
2.61530613672116
30
0
41
1
10
-30
20
3.56968220154852
30
0
41
1
10
-30
20
4.51272494557483
30
0
41
1
10
-30
20
5.64597176408017
30
0
41
1
10
-30
20
6.94914704263562
30
0
41
1
10
-30
20
8.18272269843544
30
0
41
1
10
-30
20
9.34179238961875
30
0
41
1
10
-30
20
10.4224348167646
30
0
41
1
10
-30
20
11.421370391299
30
0
41
1
10
-30
20
12.6450674903884
30
0
41
1
10
-30
20
13.9430330734596
30
0
41
1
10
-30
20
14.9202427964398
30
0
41
1
10
-30
20
15.4890634139888
30
0
41
1
10
-30
20
15.7965327535813
30
0
41
1
10
-30
20
15.9552429401369
30
0
41
1
10
-30
20
15.9901952829526
30
0
41
1
10
-30
20
15.9933162168889
30
0
0
SPLINE
5
134
100
AcDbEntity
8
SK1
62
256
6
ByLayer
370
18
48
1
60
0
100
AcDbSpline
70
4
71
3
72
26
73
22
40
0
40
0
40
0
40
0
40
0.0312500000000006
40
0.0312500000000006
40
0.0625000000000013
40
0.0625000000000013
40
0.0937500000000019
40
0.0937500000000019
40
0.125000000000003
40
0.125000000000003
40
0.187500000000004
40
0.187500000000004
40
0.250000000000005
40
0.250000000000005
40
0.375000000000005
40
0.375000000000005
40
0.500000000000005
40
0.500000000000005
40
0.750000000000003
40
0.750000000000003
40
1
40
1
40
1
40
1
41
1
10
-0.394913799809018
20
5.38724490303449
30
0
41
1
10
-0.38864986609228
20
5.38191926831766
30
0
41
1
10
-0.381798613968243
20
5.37724701067796
30
0
41
1
10
-0.366631900936199
20
5.3707883060363
30
0
41
1
10
-0.358239511687117
20
5.36911498831589
30
0
41
1
10
-0.341344926978451
20
5.37086979141665
30
0
41
1
10
-0.33303320258689
20
5.37434773304318
30
0
41
1
10
-0.318577749101024
20
5.3843005255016
30
0
41
1
10
-0.312400979319335
20
5.39054104494986
30
0
41
1
10
-0.295831486624891
20
5.41090649401656
30
0
41
1
10
-0.287591117888581
20
5.42618911912828
30
0
41
1
10
-0.273296210572383
20
5.45757128507927
30
0
41
1
10
-0.267463037666673
20
5.47353830586644
30
0
41
1
10
-0.25198474853444
20
5.52184612225361
30
0
41
1
10
-0.244365057600263
20
5.55459465359002
30
0
41
1
10
-0.231573562776148
20
5.62053570750979
30
0
41
1
10
-0.226533735280412
20
5.65356559342305
30
0
41
1
10
-0.213920028330648
20
5.75227393156379
30
0
41
1
10
-0.208771139684558
20
5.81781617641036
30
0
41
1
10
-0.201932717755398
20
5.94845143863449
30
0
41
1
10
-0.200330038101569
20
6.01354333629587
30
0
41
1
10
-0.199999999999989
20
6.07843244581153
30
0
0
SPLINE
5
135
100
AcDbEntity
8
SK1
62
256
6
ByLayer
370
18
48
1
60
0
100
AcDbSpline
70
4
71
3
72
20
73
16
40
0
40
0
40
0
40
0
40
0.0411527557889179
40
0.113602951177308
40
0.186053146565698
40
0.258503341954088
40
0.403403732730867
40
0.548304123507647
40
0.620754318896037
40
0.693204514284427
40
0.765654709672817
40
0.838104905061207
40
0.910555100449597
40
0.983005295837987
40
1
40
1
40
1
40
1
41
1
10
-0.199999999999989
20
17.5678954941522
30
0
41
1
10
-0.199999999999989
20
17.5625116388382
30
0
41
1
10
-0.199999999999989
20
17.5230998409311
30
0
41
1
10
-0.199999999999989
20
17.3563637126861
30
0
41
1
10
-0.199999999999989
20
17.025651689934
30
0
41
1
10
-0.199999999999989
20
16.4197046477864
30
0
41
1
10
-0.199999999999989
20
15.3750949753852
30
0
41
1
10
-0.199999999999989
20
13.9904902630881
30
0
41
1
10
-0.199999999999989
20
12.6940608651256
30
0
41
1
10
-0.199999999999989
20
11.6298862423998
30
0
41
1
10
-0.199999999999989
20
10.4757654026211
30
0
41
1
10
-0.199999999999989
20
9.23334543659817
30
0
41
1
10
-0.199999999999989
20
7.90375553528958
30
0
41
1
10
-0.199999999999989
20
6.84892354046241
30
0
41
1
10
-0.199999999999989
20
6.24422115048941
30
0
41
1
10
-0.199999999999989
20
6.1285406827036
30
0
0
SPLINE
5
136
100
AcDbEntity
8
SK1
62
256
6
ByLayer
370
18
48
1
60
0
100
AcDbSpline
70
4
71
3
72
8
73
4
40
0
40
0
40
0
40
0
40
1
40
1
40
1
40
1
41
1
10
-0.0921467517110699
20
17.5703207785712
30
0
41
1
10
-0.123678356297077
20
17.5703192270606
30
0
41
1
10
-0.158652135289074
20
17.569476547771
30
0
41
1
10
-0.199999999996365
20
17.5678954941522
30
0
0
SPLINE
5
137
100
AcDbEntity
8
SK1
62
256
6
ByLayer
370
18
48
1
60
0
100
AcDbSpline
70
4
71
3
72
32
73
28
40
0
40
0
40
0
40
0
40
0.250000000000001
40
0.250000000000001
40
0.375000000000001
40
0.375000000000001
40
0.500000000000001
40
0.500000000000001
40
0.625000000000001
40
0.625000000000001
40
0.687500000000001
40
0.687500000000001
40
0.750000000000002
40
0.750000000000002
40
0.812500000000002
40
0.812500000000002
40
0.843750000000001
40
0.843750000000001
40
0.875000000000001
40
0.875000000000001
40
0.890625000000001
40
0.890625000000001
40
0.906250000000001
40
0.906250000000001
40
0.937500000000001
40
0.937500000000001
40
1
40
1
40
1
40
1
41
1
10
-1.30710678118655
20
3.91808311129771
30
0
41
1
10
-1.27767538362407
20
4.08057618757061
30
0
41
1
10
-1.24419096070099
20
4.24098765739083
30
0
41
1
10
-1.1846596238007
20
4.47808143591155
30
0
41
1
10
-1.16322641885067
20
4.55658654617795
30
0
41
1
10
-1.11622081339419
20
4.71196262616706
30
0
41
1
10
-1.09072783956026
20
4.78866062339333
30
0
41
1
10
-1.03396027230426
20
4.93953094779155
30
0
41
1
10
-1.00277623392931
20
5.0137326356876
30
0
41
1
10
-0.948685190430169
20
5.12220258195103
30
0
41
1
10
-0.929418355060776
20
5.15788155457912
30
0
41
1
10
-0.887207638429786
20
5.22789848621531
30
0
41
1
10
-0.864122395128192
20
5.26246883011194
30
0
41
1
10
-0.813063784085614
20
5.32779515181377
30
0
41
1
10
-0.785188235534932
20
5.3587316022263
30
0
41
1
10
-0.736341322352786
20
5.40008757388659
30
0
41
1
10
-0.718704728836073
20
5.41307616108111
30
0
41
1
10
-0.681090425049916
20
5.43539999222023
30
0
41
1
10
-0.660679139805211
20
5.44494090294319
30
0
41
1
10
-0.628779113833545
20
5.45481846069171
30
0
41
1
10
-0.617932285474666
20
5.45738916348012
30
0
41
1
10
-0.59575579145131
20
5.46089922248225
30
0
41
1
10
-0.58429086688237
20
5.46183060563851
30
0
41
1
10
-0.550367797417621
20
5.46186904162545
30
0
41
1
10
-0.528055384783414
20
5.45826434527515
30
0
41
1
10
-0.464148785591647
20
5.43856597575308
30
0
41
1
10
-0.427340171474157
20
5.41481400234122
30
0
41
1
10
-0.394913799811292
20
5.38724490303795
30
0
0
SPLINE
5
138
100
AcDbEntity
8
SK1
62
256
6
ByLayer
370
18
48
1
60
0
100
AcDbSpline
70
4
71
3
72
8
73
4
40
0
40
0
40
0
40
0
40
1
40
1
40
1
40
1
41
1
10
-0.19999999999969
20
-17.567895655195
30
0
41
1
10
-0.158647770559412
20
-17.5694768599042
30
0
41
1
10
-0.123670968141411
20
-17.5703195350957
30
0
41
1
10
-0.0921367507578879
20
-17.5703208979864
30
0
0
SPLINE
5
139
100
AcDbEntity
8
SK1
62
256
6
ByLayer
370
18
48
1
60
0
100
AcDbSpline
70
4
71
3
72
45
73
41
40
0
40
0
40
0
40
0
40
0.0138691984753046
40
0.0424651339086718
40
0.071061069342039
40
0.0996570047754062
40
0.156848875642141
40
0.214040746508875
40
0.242636681942242
40
0.271232617375609
40
0.299828552808977
40
0.328424488242344
40
0.357020423675711
40
0.385616359109078
40
0.414212294542445
40
0.428510262259129
40
0.442808229975812
40
0.47140416540918
40
0.485702133125863
40
0.492851116984205
40
0.500000100842547
40
0.507149084700889
40
0.514298068559231
40
0.528596036275914
40
0.557191971709281
40
0.571489939425965
40
0.585787907142649
40
0.614383842576016
40
0.642979778009383
40
0.67157571344275
40
0.700171648876117
40
0.728767584309484
40
0.757363519742852
40
0.785959455176219
40
0.843151326042953
40
0.900343196909688
40
0.928939132343055
40
0.957535067776422
40
0.986131003209789
40
1
40
1
40
1
40
1
41
1
10
-2.2
20
17.5147525414731
30
0
41
1
10
-2.2
20
17.5079648950388
30
0
41
1
10
-2.2
20
17.4676153190077
30
0
41
1
10
-2.2
20
17.3066644250431
30
0
41
1
10
-2.2
20
16.9766929599708
30
0
41
1
10
-2.2
20
16.3719288388599
30
0
41
1
10
-2.2
20
15.3294666616432
30
0
41
1
10
-2.2
20
13.9476224427057
30
0
41
1
10
-2.2
20
12.6535104390874
30
0
41
1
10
-2.2
20
11.5914144609754
30
0
41
1
10
-2.2
20
10.4396347881955
30
0
41
1
10
-2.2
20
9.19987052615133
30
0
41
1
10
-2.2
20
7.87333982787851
30
0
41
1
10
-2.2
20
6.4607857552443
30
0
41
1
10
-2.2
20
5.21252898167785
30
0
41
1
10
-2.2
20
4.17223684682958
30
0
41
1
10
-2.2
20
3.10486150423552
30
0
41
1
10
-2.2
20
1.99745537289451
30
0
41
1
10
-2.2
20
1.00299597482069
30
0
41
1
10
-2.2
20
0.430523794544825
30
0
41
1
10
-2.2
20
2.03164063E-08
30
0
41
1
10
-2.2
20
-0.430523737893537
30
0
41
1
10
-2.2
20
-1.00299590932914
30
0
41
1
10
-2.2
20
-1.99745538275133
30
0
41
1
10
-2.2
20
-3.10486136355075
30
0
41
1
10
-2.2
20
-4.17223690222141
30
0
41
1
10
-2.2
20
-5.21252864051553
30
0
41
1
10
-2.2
20
-6.46078587277512
30
0
41
1
10
-2.2
20
-7.87333968058334
30
0
41
1
10
-2.2
20
-9.19987024087132
30
0
41
1
10
-2.2
20
-10.4396350324424
30
0
41
1
10
-2.2
20
-11.5914143063802
30
0
41
1
10
-2.2
20
-12.6535102764493
30
0
41
1
10
-2.2
20
-13.9476228193307
30
0
41
1
10
-2.2
20
-15.3294662349403
30
0
41
1
10
-2.2
20
-16.3719296090069
30
0
41
1
10
-2.2
20
-16.9766928316826
30
0
41
1
10
-2.2
20
-17.3066647416644
30
0
41
1
10
-2.20000000000002
20
-17.4676154204534
30
0
41
1
10
-2.2
20
-17.5079647980204
30
0
41
1
10
-2.2
20
-17.5147524582475
30
0
0
SPLINE
5
13A
100
AcDbEntity
8
1
62
256
6
ByLayer
370
18
48
1
60
0
100
AcDbSpline
70
4
71
3
72
14
73
10
40
0
40
0
40
0
40
0
40
0.25
40
0.25
40
0.5
40
0.5
40
0.75
40
0.75
40
1
40
1
40
1
40
1
41
1
10
42.3245
20
-2.3117925379056
30
0
41
1
10
42.3245
20
-2.30227371017838
30
0
41
1
10
42.3233318074937
20
-2.29364447274674
30
0
41
1
10
42.3174234147179
20
-2.27988270030346
30
0
41
1
10
42.3124953438839
20
-2.27479769047369
30
0
41
1
10
42.2985522443744
20
-2.27135066210801
30
0
41
1
10
42.2894699974785
20
-2.2730825694772
30
0
41
1
10
42.2701153004325
20
-2.28205915124712
30
0
41
1
10
42.2596744834381
20
-2.28922456188258
30
0
41
1
10
42.2495
20
-2.29761126958661
30
0
0
SPLINE
5
13B
100
AcDbEntity
8
1
62
256
6
ByLayer
370
18
48
1
60
0
100
AcDbSpline
70
4
71
3
72
18
73
14
40
0
40
0
40
0
40
0
40
0.125
40
0.125
40
0.1875
40
0.1875
40
0.25
40
0.25
40
0.5
40
0.5
40
0.75
40
0.75
40
1
40
1
40
1
40
1
41
1
10
41.6055
20
13.2010185003994
30
0
41
1
10
41.6653563685371
20
12.8524503125812
30
0
41
1
10
41.7181483814523
20
12.5024865451347
30
0
41
1
10
41.7863367406578
20
11.9753678859131
30
0
41
1
10
41.8072166984995
20
11.7994006939628
30
0
41
1
10
41.8451469744491
20
11.4478425459007
30
0
41
1
10
41.8622142434029
20
11.272124230271
30
0
41
1
10
41.9380409431601
20
10.393837094011
30
0
41
1
10
41.9682355588567
20
9.69218274771086
30
0
41
1
10
41.9677439738684
20
8.29082309428955
30
0
41
1
10
41.9370590393873
20
7.59111774663216
30
0
41
1
10
41.8157677485281
20
6.19362537642988
30
0
41
1
10
41.7251647191855
20
5.49583824737329
30
0
41
1
10
41.6055
20
4.79898149960059
30
0
0
SPLINE
5
13C
100
AcDbEntity
8
1
62
256
6
ByLayer
370
18
48
1
60
0
100
AcDbSpline
70
4
71
3
72
14
73
10
40
0
40
0
40
0
40
0
40
0.25
40
0.25
40
0.5
40
0.5
40
0.75
40
0.75
40
1
40
1
40
1
40
1
41
1
10
42.2495
20
-2.68946288803036
30
0
41
1
10
42.259777257634
20
-2.67137723178169
30
0
41
1
10
42.2692719561185
20
-2.65333008747521
30
0
41
1
10
42.286638475468
20
-2.61730882020171
30
0
41
1
10
42.2944660562457
20
-2.59941264486051
30
0
41
1
10
42.3078858654049
20
-2.56452225913188
30
0
41
1
10
42.3135404938684
20
-2.54743488165457
30
0
41
1
10
42.3218832081918
20
-2.51427109291532
30
0
41
1
10
42.3245
20
-2.49857732867912
30
0
41
1
10
42.3245
20
-2.48468214712193
30
0
0
SPLINE
5
13D
100
AcDbEntity
8
1
62
256
6
ByLayer
370
18
48
1
60
0
100
AcDbSpline
70
4
71
3
72
12
73
8
40
0
40
0
40
0
40
0
40
0.366886833249143
40
0.366886833249143
40
0.733773666498286
40
0.733773666498286
40
1
40
1
40
1
40
1
41
1
10
42.3245
20
19.3458881962641
30
0
41
1
10
42.3245
20
19.3319941671099
30
0
41
1
10
42.3216805955784
20
19.3159343004304
30
0
41
1
10
42.3129783121616
20
19.2817669754765
30
0
41
1
10
42.3071643812386
20
19.2640535429227
30
0
41
1
10
42.2954564553721
20
19.2327380737764
30
0
41
1
10
42.2899854732106
20
19.2192856913074
30
0
41
1
10
42.2840895989394
20
19.2057177051715
30
0
0
SPLINE
5
13E
100
AcDbEntity
8
1
62
256
6
ByLayer
370
18
48
1
60
0
100
AcDbSpline
70
4
71
3
72
22
73
18
40
0
40
0
40
0
40
0
40
0.249999999999979
40
0.249999999999979
40
0.374999999999984
40
0.374999999999984
40
0.49999999999999
40
0.49999999999999
40
0.562499999999991
40
0.562499999999991
40
0.624999999999992
40
0.624999999999992
40
0.749999999999995
40
0.749999999999995
40
0.874999999999997
40
0.874999999999997
40
1
40
1
40
1
40
1
41
1
10
41.6055
20
24.4579633817609
30
0
41
1
10
41.582263425977
20
24.4791164845974
30
0
41
1
10
41.5600571063052
20
24.4979861196756
30
0
41
1
10
41.5356004480986
20
24.5150130275158
30
0
41
1
10
41.5291039397896
20
24.5186278790933
30
0
41
1
10
41.5212166421467
20
24.5203646678102
30
0
41
1
10
41.519795744961
20
24.5184659182163
30
0
41
1
10
41.5213682137262
20
24.5120748358367
30
0
41
1
10
41.5225019096432
20
24.5093305442332
30
0
41
1
10
41.5257546539313
20
24.5029841856744
30
0
41
1
10
41.5278673078738
20
24.4993780947692
30
0
41
1
10
41.5354600365086
20
24.4874432758273
30
0
41
1
10
41.5421827237264
20
24.4780317693818
30
0
41
1
10
41.5575174190538
20
24.4578726848728
30
0
41
1
10
41.5663064945326
20
24.4468918586348
30
0
41
1
10
41.5850325642714
20
24.4243125329395
30
0
41
1
10
41.5950016733861
20
24.4126662639081
30
0
41
1
10
41.6055
20
24.4007123240498
30
0
0
SPLINE
5
13F
100
AcDbEntity
8
1
62
256
6
ByLayer
370
18
48
1
60
0
100
AcDbSpline
70
4
71
3
72
22
73
18
40
0
40
0
40
0
40
0
40
0.249999999999996
40
0.249999999999996
40
0.499999999999992
40
0.499999999999992
40
0.562499999999991
40
0.562499999999991
40
0.62499999999999
40
0.62499999999999
40
0.74999999999999
40
0.74999999999999
40
0.812500000000001
40
0.812500000000001
40
0.875000000000012
40
0.875000000000012
40
1
40
1
40
1
40
1
41
1
10
41.6055
20
-5.467155704432
30
0
41
1
10
41.58527553925
20
-5.49409168084674
30
0
41
1
10
41.5670591396717
20
-5.52061255503327
30
0
41
1
10
41.5375270047238
20
-5.56992495357065
30
0
41
1
10
41.5258167416482
20
-5.59335323432677
30
0
41
1
10
41.5208683205301
20
-5.61474335199659
30
0
41
1
10
41.5203921018051
20
-5.61855263270832
30
0
41
1
10
41.5206486777981
20
-5.62506952897752
30
0
41
1
10
41.521404966572
20
-5.62778851395598
30
0
41
1
10
41.5257227142369
20
-5.63362789422871
30
0
41
1
10
41.5315311175299
20
-5.63444669883313
30
0
41
1
10
41.5436546036878
20
-5.6308210893545
30
0
41
1
10
41.5483422571655
20
-5.62880018954834
30
0
41
1
10
41.5584108665371
20
-5.6234853969643
30
0
41
1
10
41.5637907399353
20
-5.62020972163805
30
0
41
1
10
41.5808170244288
20
-5.60880235706
30
0
41
1
10
41.5930505226165
20
-5.59929242410235
30
0
41
1
10
41.6055
20
-5.5887620387654
30
0
0
SPLINE
5
140
100
AcDbEntity
8
1
62
256
6
ByLayer
370
18
48
1
60
0
100
AcDbSpline
70
4
71
3
72
8
73
4
40
0
40
0
40
0
40
0
40
1
40
1
40
1
40
1
41
1
10
41.6055
20
16.8000147048982
30
0
41
1
10
41.8503984452163
20
16.0590969347419
30
0
41
1
10
42.0666055459679
20
15.3072650716885
30
0
41
1
10
42.2495000000001
20
14.5427611875875
30
0
0
SPLINE
5
141
100
AcDbEntity
8
1
62
256
6
ByLayer
370
18
48
1
60
0
100
AcDbSpline
70
4
71
3
72
28
73
24
40
0
40
0
40
0
40
0
40
0.0312499999999944
40
0.0312499999999944
40
0.046874999999993
40
0.046874999999993
40
0.0624999999999915
40
0.0624999999999915
40
0.0937499999999883
40
0.0937499999999883
40
0.124999999999985
40
0.124999999999985
40
0.187499999999983
40
0.187499999999983
40
0.249999999999981
40
0.249999999999981
40
0.374999999999983
40
0.374999999999983
40
0.499999999999985
40
0.499999999999985
40
0.749999999999993
40
0.749999999999993
40
1
40
1
40
1
40
1
41
1
10
41.6054999999983
20
14.1460679707372
30
0
41
1
10
41.5990607196723
20
14.1550069476588
30
0
41
1
10
41.5920487227007
20
14.1632674977545
30
0
41
1
10
41.5802994716362
20
14.171974477046
30
0
41
1
10
41.5761587189381
20
14.1741975488127
30
0
41
1
10
41.5679779528108
20
14.1762599120687
30
0
41
1
10
41.5639122456636
20
14.1760525312552
30
0
41
1
10
41.5530624890175
20
14.1719132493128
30
0
41
1
10
41.5475688170393
20
14.1648283949832
30
0
41
1
10
41.5392321251935
20
14.1487187958255
30
0
41
1
10
41.5361654659971
20
14.1394050449822
30
0
41
1
10
41.5287598614788
20
14.1107236946904
30
0
41
1
10
41.5260238660047
20
14.0902008986716
30
0
41
1
10
41.5221896601435
20
14.0480795930586
30
0
41
1
10
41.5212210441726
20
14.0266097931406
30
0
41
1
10
41.5198970504747
20
13.9617492140828
30
0
41
1
10
41.5211050214013
20
13.9176999491873
30
0
41
1
10
41.525548934381
20
13.8290753045975
30
0
41
1
10
41.5288395636416
20
13.7845979271609
30
0
41
1
10
41.5407635270371
20
13.6508070852711
30
0
41
1
10
41.5514182783238
20
13.5611088677738
30
0
41
1
10
41.5760447906576
20
13.3811363675092
30
0
41
1
10
41.5900307274928
20
13.2911024198967
30
0
41
1
10
41.6055
20
13.2010185003994
30
0
0
SPLINE
5
142
100
AcDbEntity
8
1
62
256
6
ByLayer
370
18
48
1
60
0
100
AcDbSpline
70
4
71
3
72
22
73
18
40
0
40
0
40
0
40
0
40
0.249999999999997
40
0.249999999999997
40
0.374999999999998
40
0.374999999999998
40
0.5
40
0.5
40
0.625000000000001
40
0.625000000000001
40
0.750000000000002
40
0.750000000000002
40
0.812500000000002
40
0.812500000000002
40
0.875000000000001
40
0.875000000000001
40
1
40
1
40
1
40
1
41
1
10
8.10566243270262
20
23.6665017920809
30
0
41
1
10
8.12110769698504
20
23.6860254491252
30
0
41
1
10
8.13959628273545
20
23.7049589195931
30
0
41
1
10
8.17354242877875
20
23.7323123198157
30
0
41
1
10
8.1859037300309
20
23.7412544902042
30
0
41
1
10
8.21325377892239
20
23.7587312609862
30
0
41
1
10
8.22831574375681
20
23.7673055542944
30
0
41
1
10
8.26152302146915
20
23.7837256270429
30
0
41
1
10
8.27962274066834
20
23.7915679133937
30
0
41
1
10
8.31997574676953
20
23.8062861503817
30
0
41
1
10
8.34204823512977
20
23.8130866432223
30
0
41
1
10
8.37845386159617
20
23.8219342456096
30
0
41
1
10
8.39116971420626
20
23.8246655611125
30
0
41
1
10
8.41805465341358
20
23.8295906076135
30
0
41
1
10
8.43218550139827
20
23.8317679461286
30
0
41
1
10
8.47563983861085
20
23.8370993498304
30
0
41
1
10
8.50697323176121
20
23.8391299750505
30
0
41
1
10
8.53867513459477
20
23.8391299750505
30
0
0
SPLINE
5
143
100
AcDbEntity
8
1
62
256
6
ByLayer
370
18
48
1
60
0
100
AcDbSpline
70
4
71
3
72
8
73
4
40
0
40
0
40
0
40
0
40
1
40
1
40
1
40
1
41
1
10
41.6055
20
-1.32466317355872
30
0
41
1
10
41.8203794218738
20
-1.13993791458543
30
0
41
1
10
42.0350577211803
20
-0.954901580769331
30
0
41
1
10
42.2495
20
-0.769500195747014
30
0
0
SPLINE
5
144
100
AcDbEntity
8
1
62
256
6
ByLayer
370
18
48
1
60
0
100
AcDbSpline
70
4
71
3
72
8
73
4
40
0
40
0
40
0
40
0
40
1
40
1
40
1
40
1
41
1
10
42.2495
20
22.3612047752696
30
0
41
1
10
42.0348672252561
20
22.5386229220787
30
0
41
1
10
41.8201992608209
20
22.7159843184299
30
0
41
1
10
41.6055
20
22.8932951735594
30
0
0
SPLINE
5
145
100
AcDbEntity
8
1
62
256
6
ByLayer
370
18
48
1
60
0
100
AcDbSpline
70
4
71
3
72
8
73
4
40
0
40
0
40
0
40
0
40
1
40
1
40
1
40
1
41
1
10
42.2495
20
18.769500195747
30
0
41
1
10
42.0350577211803
20
18.9549015807694
30
0
41
1
10
41.8203794218738
20
19.1399379145854
30
0
41
1
10
41.6055
20
19.3246631735587
30
0
0
SPLINE
5
146
100
AcDbEntity
8
1
62
256
6
ByLayer
370
18
48
1
60
0
100
AcDbSpline
70
4
71
3
72
8
73
4
40
0
40
0
40
0
40
0
40
1
40
1
40
1
40
1
41
1
10
42.2495
20
23.5398612680685
30
0
41
1
10
42.035034489883
20
23.7283182236773
30
0
41
1
10
41.8203606627147
20
23.916458279648
30
0
41
1
10
41.6055
20
24.1043141144439
30
0
0
SPLINE
5
147
100
AcDbEntity
8
1
62
256
6
ByLayer
370
18
48
1
60
0
100
AcDbSpline
70
4
71
3
72
20
73
16
40
0
40
0
40
0
40
0
40
0.125000000000007
40
0.125000000000007
40
0.187500000000011
40
0.187500000000011
40
0.250000000000015
40
0.250000000000015
40
0.375000000000016
40
0.375000000000016
40
0.500000000000018
40
0.500000000000018
40
0.750000000000009
40
0.750000000000009
40
1
40
1
40
1
40
1
41
1
10
41.6055
20
20.8282288061873
30
0
41
1
10
41.5906092734133
20
20.8404929255934
30
0
41
1
10
41.5751942192751
20
20.8504811784598
30
0
41
1
10
41.554890008181
20
20.8568070994773
30
0
41
1
10
41.5487346821652
20
20.8574297155083
30
0
41
1
10
41.5381321528146
20
20.8554795242796
30
0
41
1
10
41.5338980630895
20
20.8529899232154
30
0
41
1
10
41.523833683656
20
20.8417594961778
30
0
41
1
10
41.5210592914158
20
20.8296427680004
30
0
41
1
10
41.5200966597094
20
20.8027113601616
30
0
41
1
10
41.5217997890807
20
20.7877083777645
30
0
41
1
10
41.530979007161
20
20.7398052885815
30
0
41
1
10
41.5423114350603
20
20.7050551734654
30
0
41
1
10
41.5701098531134
20
20.6349536893476
30
0
41
1
10
41.5866332660355
20
20.5995661446199
30
0
41
1
10
41.6055
20
20.5638910107493
30
0
0
SPLINE
5
148
100
AcDbEntity
8
1
62
256
6
ByLayer
370
18
48
1
60
0
100
AcDbSpline
70
4
71
3
72
8
73
4
40
0
40
0
40
0
40
0
40
1
40
1
40
1
40
1
41
1
10
41.6055
20
24.6324538394991
30
0
41
1
10
41.8211109108127
20
24.4025322035561
30
0
41
1
10
42.0358125818042
20
24.1714844119366
30
0
41
1
10
42.2495
20
23.9391803988928
30
0
0
SPLINE
5
149
100
AcDbEntity
8
1
62
256
6
ByLayer
370
18
48
1
60
0
100
AcDbSpline
70
4
71
3
72
14
73
10
40
0
40
0
40
0
40
0
40
0.25
40
0.25
40
0.5
40
0.5
40
0.75
40
0.75
40
1
40
1
40
1
40
1
41
1
10
42.2495
20
23.0433144011905
30
0
41
1
10
42.2592456998771
20
23.0350487746408
30
0
41
1
10
42.2687829184351
20
23.0275202919845
30
0
41
1
10
42.286929658101
20
23.0147646743886
30
0
41
1
10
42.2953844168923
20
23.0096743912255
30
0
41
1
10
42.3095811801607
20
23.0034508710612
30
0
41
1
10
42.3153166990107
20
23.0023753157994
30
0
41
1
10
42.3227268267543
20
23.0046993069554
30
0
41
1
10
42.3245
20
23.0080984772935
30
0
41
1
10
42.3245
20
23.0130715796893
30
0
0
SPLINE
5
14A
100
AcDbEntity
8
1
62
256
6
ByLayer
370
18
48
1
60
0
100
AcDbSpline
70
4
71
3
72
12
73
8
40
0
40
0
40
0
40
0
40
0.251702339980989
40
0.251702339980989
40
0.625851169990494
40
0.625851169990494
40
1
40
1
40
1
40
1
41
1
10
42.2852461383008
20
-1.20831681714935
30
0
41
1
10
42.290614640921
20
-1.22079667212975
30
0
41
1
10
42.2956227002503
20
-1.23320418256773
30
0
41
1
10
42.3071017294411
20
-1.26385488217807
30
0
41
1
10
42.3129474804953
20
-1.28167967274857
30
0
41
1
10
42.3216283001467
20
-1.31569554756075
30
0
41
1
10
42.3245
20
-1.33198336046559
30
0
41
1
10
42.3245
20
-1.34588819626413
30
0
0
SPLINE
5
14B
100
AcDbEntity
8
1
62
256
6
ByLayer
370
18
48
1
60
0
100
AcDbSpline
70
4
71
3
72
12
73
8
40
0
40
0
40
0
40
0
40
0.25
40
0.25
40
0.5
40
0.5
40
1
40
1
40
1
40
1
41
1
10
42.3245
20
22.4458757333183
30
0
41
1
10
42.3245
20
22.4539674030527
30
0
41
1
10
42.3219072687659
20
22.4641512284948
30
0
41
1
10
42.3134446310761
20
22.4868515226099
30
0
41
1
10
42.3076685378331
20
22.4991027991583
30
0
41
1
10
42.2869552366996
20
22.5378326083613
30
0
41
1
10
42.2694958530294
20
22.5648495574429
30
0
41
1
10
42.2495
20
22.5925630387594
30
0
0
SPLINE
5
14C
100
AcDbEntity
8
1
62
256
6
ByLayer
370
18
48
1
60
0
100
AcDbSpline
70
4
71
3
72
8
73
4
40
0
40
0
40
0
40
0
40
1
40
1
40
1
40
1
41
1
10
41.6055
20
-6.66068194415331
30
0
41
1
10
41.8206432773138
20
-6.45546707403966
30
0
41
1
10
42.0353272741426
20
-6.2496136869222
30
0
41
1
10
42.2495
20
-6.04304950276608
30
0
0
SPLINE
5
14D
100
AcDbEntity
8
1
62
256
6
ByLayer
370
18
48
1
60
0
100
AcDbSpline
70
4
71
3
72
12
73
8
40
0
40
0
40
0
40
0
40
0.25
40
0.25
40
0.5
40
0.5
40
1
40
1
40
1
40
1
41
1
10
42.3245
20
19.0349937176221
30
0
41
1
10
42.3245
20
19.0535898597097
30
0
41
1
10
42.3218666312093
20
19.0735403657602
30
0
41
1
10
42.3136339039102
20
19.1149405184586
30
0
41
1
10
42.3079221542004
20
19.1364731820904
30
0
41
1
10
42.2878278136398
20
19.2007660179829
30
0
41
1
10
42.2704480558524
20
19.2440330851539
30
0
41
1
10
42.2495
20
19.2876833609241
30
0
0
SPLINE
5
14E
100
AcDbEntity
8
1
62
256
6
ByLayer
370
18
48
1
60
0
100
AcDbSpline
70
4
71
3
72
22
73
18
40
0
40
0
40
0
40
0
40
0.249999999999997
40
0.249999999999997
40
0.374999999999995
40
0.374999999999995
40
0.499999999999994
40
0.499999999999994
40
0.624999999999992
40
0.624999999999992
40
0.687499999999991
40
0.687499999999991
40
0.74999999999999
40
0.74999999999999
40
0.874999999999995
40
0.874999999999995
40
1
40
1
40
1
40
1
41
1
10
41.6055
20
-6.01633334513488
30
0
41
1
10
41.5848938388945
20
-6.04158559136374
30
0
41
1
10
41.5660838750011
20
-6.06636009904571
30
0
41
1
10
41.5435446720046
20
-6.09976985017369
30
0
41
1
10
41.5368716828094
20
-6.11045960470562
30
0
41
1
10
41.5265286918552
20
-6.12942677014911
30
0
41
1
10
41.5227928890807
20
-6.13781722769949
30
0
41
1
10
41.5197317567559
20
-6.15061823171575
30
0
41
1
10
41.5205068030496
20
-6.15493348151415
30
0
41
1
10
41.5257130495559
20
-6.15697306994662
30
0
41
1
10
41.5281477755722
20
-6.15693156044858
30
0
41
1
10
41.5341877247795
20
-6.15539485584074
30
0
41
1
10
41.5377691855334
20
-6.15392529619552
30
0
41
1
10
41.550079815763
20
-6.1475663696834
30
0
41
1
10
41.560038950917
20
-6.14090110368318
30
0
41
1
10
41.5819530186579
20
-6.12435578765675
30
0
41
1
10
41.5935288070878
20
-6.11478070432418
30
0
41
1
10
41.6055
20
-6.10431411444395
30
0
0
SPLINE
5
14F
100
AcDbEntity
8
1
62
256
6
ByLayer
370
18
48
1
60
0
100
AcDbSpline
70
4
71
3
72
18
73
14
40
0
40
0
40
0
40
0
40
0.250000000000008
40
0.250000000000008
40
0.500000000000017
40
0.500000000000017
40
0.625000000000013
40
0.625000000000013
40
0.750000000000008
40
0.750000000000008
40
0.875000000000004
40
0.875000000000004
40
1
40
1
40
1
40
1
41
1
10
42.3245
20
1.26370239481233
30
0
41
1
10
42.3245
20
1.27815707071011
30
0
41
1
10
42.3237870724261
20
1.29221733229417
30
0
41
1
10
42.3198500409476
20
1.31892409484396
30
0
41
1
10
42.3167405816158
20
1.331487650425
30
0
41
1
10
42.3081058304445
20
1.34649418975326
30
0
41
1
10
42.3046260591322
20
1.3506684595929
30
0
41
1
10
42.2957683537229
20
1.35627002700696
30
0
41
1
10
42.2904867554596
20
1.35745986641766
30
0
41
1
10
42.2790222022847
20
1.35596264323897
30
0
41
1
10
42.2728515927768
20
1.35329015558966
30
0
41
1
10
42.2609747993835
20
1.34566217737526
30
0
41
1
10
42.2550919606136
20
1.34065934210045
30
0
41
1
10
42.2494999999995
20
1.33512898016653
30
0
0
SPLINE
5
150
100
AcDbEntity
8
1
62
256
6
ByLayer
370
18
48
1
60
0
100
AcDbSpline
70
4
71
3
72
8
73
4
40
0
40
0
40
0
40
0
40
1
40
1
40
1
40
1
41
1
10
41.6055
20
22.7334235069173
30
0
41
1
10
41.8235756476837
20
22.4137098690188
30
0
41
1
10
42.0383838344783
20
22.0910984549316
30
0
41
1
10
42.2495
20
21.7652127395764
30
0
0
SPLINE
5
151
100
AcDbEntity
8
1
62
256
6
ByLayer
370
18
48
1
60
0
100
AcDbSpline
70
4
71
3
72
14
73
10
40
0
40
0
40
0
40
0
40
0.25
40
0.25
40
0.5
40
0.5
40
0.75
40
0.75
40
1
40
1
40
1
40
1
41
1
10
42.2495
20
-6.06606201589076
30
0
41
1
10
42.2592166204734
20
-6.05614636568649
30
0
41
1
10
42.2684720146339
20
-6.04664895180608
30
0
41
1
10
42.2858690552033
20
-6.02865463310678
30
0
41
1
10
42.2940267270367
20
-6.02013874069345
30
0
41
1
10
42.3079660685478
20
-6.00536138308181
30
0
41
1
10
42.3139294881319
20
-5.99890512917878
30
0
41
1
10
42.3221800478486
20
-5.9895483664142
30
0
41
1
10
42.3245
20
-5.9866030081846
30
0
41
1
10
42.3245
20
-5.98595591434415
30
0
0
SPLINE
5
152
100
AcDbEntity
8
1
62
256
6
ByLayer
370
18
48
1
60
0
100
AcDbSpline
70
4
71
3
72
18
73
14
40
0
40
0
40
0
40
0
40
0.243605503041774
40
0.243605503041774
40
0.487211006083549
40
0.487211006083549
40
0.730816509125323
40
0.730816509125323
40
0.852619260646199
40
0.852619260646199
40
0.974422012167076
40
0.974422012167076
40
1
40
1
40
1
40
1
41
1
10
41.6055
20
-6.63245383949908
30
0
41
1
10
41.5946982947576
20
-6.64397248542912
30
0
41
1
10
41.5844118441375
20
-6.65510232161083
30
0
41
1
10
41.5652650923032
20
-6.67619507011267
30
0
41
1
10
41.5562610520449
20
-6.68631913843728
30
0
41
1
10
41.5405980113183
20
-6.70448239115746
30
0
41
1
10
41.5339244419284
20
-6.71253312872511
30
0
41
1
10
41.5265411751117
20
-6.72217146276577
30
0
41
1
10
41.5245651189417
20
-6.72491753049883
30
0
41
1
10
41.5216978030223
20
-6.729365066138
30
0
41
1
10
41.5208174105651
20
-6.73106037726581
30
0
41
1
10
41.5205212560847
20
-6.73232660797379
30
0
41
1
10
41.5204985135443
20
-6.73251785676877
30
0
41
1
10
41.5205040357484
20
-6.73268078603462
30
0
0
SPLINE
5
153
100
AcDbEntity
8
1
62
256
6
ByLayer
370
18
48
1
60
0
100
AcDbSpline
70
4
71
3
72
14
73
10
40
0
40
0
40
0
40
0
40
0.12805460421535
40
0.12805460421535
40
0.4187030694769
40
0.4187030694769
40
0.70935153473845
40
0.70935153473845
40
1
40
1
40
1
40
1
41
1
10
41.5221323466591
20
-6.73321999457383
30
0
41
1
10
41.5231514302688
20
-6.73288973690279
30
0
41
1
10
41.5246384297919
20
-6.73207505994608
30
0
41
1
10
41.5309361387282
20
-6.72787243775593
30
0
41
1
10
41.5376527692821
20
-6.7224962412466
30
0
41
1
10
41.5537652778246
20
-6.7086701136376
30
0
41
1
10
41.5633339952465
20
-6.7000809858593
30
0
41
1
10
41.5835331513508
20
-6.68148733860528
30
0
41
1
10
41.5942615311644
20
-6.67140178142259
30
0
41
1
10
41.6055
20
-6.66068194415334
30
0
0
SPLINE
5
154
100
AcDbEntity
8
1
62
256
6
ByLayer
370
18
48
1
60
0
100
AcDbSpline
70
4
71
3
72
18
73
14
40
0
40
0
40
0
40
0
40
0.124999999999988
40
0.124999999999988
40
0.249999999999975
40
0.249999999999975
40
0.374999999999963
40
0.374999999999963
40
0.499999999999951
40
0.499999999999951
40
0.749999999999975
40
0.749999999999975
40
1
40
1
40
1
40
1
41
1
10
42.2494999999997
20
16.6648710198338
30
0
41
1
10
42.2550825771808
20
16.659349937969
30
0
41
1
10
42.2608400805829
20
16.654431232147
30
0
41
1
10
42.2728878009919
20
16.6466797602872
30
0
41
1
10
42.2790379838132
20
16.6440353149478
30
0
41
1
10
42.290470788568
20
16.6425421996036
30
0
41
1
10
42.2957720298857
20
16.6437445464006
30
0
41
1
10
42.3045418797552
20
16.6492661691449
30
0
41
1
10
42.3080928103557
20
16.6535024287982
30
0
41
1
10
42.3166378240431
20
16.668295703956
30
0
41
1
10
42.3198494486439
20
16.6810738181015
30
0
41
1
10
42.3237864855462
20
16.7077767562245
30
0
41
1
10
42.3245
20
16.7218387045307
30
0
41
1
10
42.3245
20
16.7362976051877
30
0
0
SPLINE
5
155
100
AcDbEntity
8
1
62
256
6
ByLayer
370
18
48
1
60
0
100
AcDbSpline
70
4
71
3
72
36
73
32
40
0
40
0
40
0
40
0
40
0.125
40
0.125
40
0.249999999999999
40
0.249999999999999
40
0.374999999999999
40
0.374999999999999
40
0.406249999999999
40
0.406249999999999
40
0.437499999999998
40
0.437499999999998
40
0.499999999999998
40
0.499999999999998
40
0.624999999999999
40
0.624999999999999
40
0.749999999999999
40
0.749999999999999
40
0.781249999999999
40
0.781249999999999
40
0.812499999999999
40
0.812499999999999
40
0.874999999999999
40
0.9375
40
0.9375
40
0.96875
40
0.984375
40
0.9921875
40
0.99609375
40
0.99609375
40
1
40
1
40
1
40
1
41
1
10
22.5593876814731
20
18.4998299962141
30
0
41
1
10
22.6026961960023
20
19.0331348108972
30
0
41
1
10
22.6681911490064
20
19.5328067095771
30
0
41
1
10
22.8372471547836
20
20.4685165254159
30
0
41
1
10
22.9408555720735
20
20.9045385864208
30
0
41
1
10
23.1821363046851
20
21.7144742705648
30
0
41
1
10
23.3198340987651
20
22.088383924231
30
0
41
1
10
23.5114387294805
20
22.5168049831994
30
0
41
1
10
23.5507875452811
20
22.6006387737057
30
0
41
1
10
23.6310876373647
20
22.7637640796283
30
0
41
1
10
23.6720359541502
20
22.8430630744933
30
0
41
1
10
23.7971648530072
20
23.0742774578413
30
0
41
1
10
23.8836280381785
20
23.2195148000267
30
0
41
1
10
24.1513210715368
20
23.6292034112744
30
0
41
1
10
24.3408447383135
20
23.8676949056655
30
0
41
1
10
24.7379892222007
20
24.2774566197339
30
0
41
1
10
24.9456207546511
20
24.448723896525
30
0
41
1
10
25.2140884457519
20
24.6208091348671
30
0
41
1
10
25.2682284565861
20
24.653121356858
30
0
41
1
10
25.3773412692308
20
24.7135167979459
30
0
41
1
10
25.4322985085468
20
24.7415869258231
30
0
41
1
10
25.5977951612008
20
24.8191971310224
30
0
41
1
10
25.8204633722235
20
24.9052808480214
30
0
41
1
10
26.0460489181144
20
24.9569195738884
30
0
41
1
10
26.2159242158754
20
24.9827598087875
30
0
41
1
10
26.3010334160794
20
24.9924561360532
30
0
41
1
10
26.4005383136013
20
24.9981161990343
30
0
41
1
10
26.4503322576531
20
24.9995305487837
30
0
41
1
10
26.4716802078238
20
24.9998330285665
30
0
41
1
10
26.4859137492826
20
24.9999671616264
30
0
41
1
10
26.4929689472572
20
25
30
0
41
1
10
26.5
20
25
30
0
0
SPLINE
5
156
100
AcDbEntity
8
1
62
256
6
ByLayer
370
18
48
1
60
0
100
AcDbSpline
70
4
71
3
72
14
73
10
40
0
40
0
40
0
40
0
40
0.25
40
0.25
40
0.5
40
0.5
40
0.75
40
0.75
40
1
40
1
40
1
40
1
41
1
10
42.2495
20
22.3612047752696
30
0
41
1
10
42.2593226313071
20
22.3530852648856
30
0
41
1
10
42.2689953447247
20
22.34584945113
30
0
41
1
10
42.2874920421366
20
22.3342273151596
30
0
41
1
10
42.2961194102698
20
22.3300265400418
30
0
41
1
10
42.3102957488525
20
22.3263612230327
30
0
41
1
10
42.3158785041992
20
22.3269535463815
30
0
41
1
10
42.3229029927876
20
22.3325991686977
30
0
41
1
10
42.3245000000001
20
22.3376563934627
30
0
41
1
10
42.3245000000001
20
22.3440248877615
30
0
0
SPLINE
5
157
100
AcDbEntity
8
1
62
256
6
ByLayer
370
18
48
1
60
0
100
AcDbSpline
70
4
71
3
72
22
73
18
40
0
40
0
40
0
40
0
40
0.125000000000009
40
0.125000000000009
40
0.187500000000014
40
0.187500000000014
40
0.250000000000018
40
0.250000000000018
40
0.312500000000023
40
0.312500000000023
40
0.375000000000027
40
0.375000000000027
40
0.500000000000025
40
0.500000000000025
40
0.750000000000012
40
0.750000000000012
40
1
40
1
40
1
40
1
41
1
10
41.6055
20
21.9890462981537
30
0
41
1
10
41.5916227183265
20
22.0003795466002
30
0
41
1
10
41.5778149847255
20
22.0099058072123
30
0
41
1
10
41.5587640996215
20
22.0187678583176
30
0
41
1
10
41.5528778815586
20
22.0207157324357
30
0
41
1
10
41.5423005181068
20
22.0222994985667
30
0
41
1
10
41.5376805232072
20
22.021890488957
30
0
41
1
10
41.5302189661989
20
22.0188458080784
30
0
41
1
10
41.5272609873016
20
22.016162154544
30
0
41
1
10
41.5230323956632
20
22.0090993002861
30
0
41
1
10
41.5217153832485
20
22.0047461650243
30
0
41
1
10
41.5196904069084
20
21.9896936057726
30
0
41
1
10
41.5209009317693
20
21.9776739740765
30
0
41
1
10
41.5292113354176
20
21.9379891858555
30
0
41
1
10
41.5408135092951
20
21.9076642326321
30
0
41
1
10
41.5692151739163
20
21.8463921083411
30
0
41
1
10
41.5861723846302
20
21.8151481502975
30
0
41
1
10
41.6055
20
21.7833973678525
30
0
0
SPLINE
5
158
100
AcDbEntity
8
1
62
256
6
ByLayer
370
18
48
1
60
0
100
AcDbSpline
70
4
71
3
72
8
73
4
40
0
40
0
40
0
40
0
40
1
40
1
40
1
40
1
41
1
10
42.2495
20
-5.93918039889277
30
0
41
1
10
42.0358125818042
20
-6.17148441193655
30
0
41
1
10
41.8211109108127
20
-6.40253220355609
30
0
41
1
10
41.6055
20
-6.63245383949908
30
0
0
SPLINE
5
159
100
AcDbEntity
8
1
62
256
6
ByLayer
370
18
48
1
60
0
100
AcDbSpline
70
4
71
3
72
8
73
4
40
0
40
0
40
0
40
0
40
1
40
1
40
1
40
1
41
1
10
41.6055
20
-4.89329517355944
30
0
41
1
10
41.8201992608209
20
-4.71598431842992
30
0
41
1
10
42.0348672252561
20
-4.53862292207867
30
0
41
1
10
42.2495
20
-4.36120477526964
30
0
0
SPLINE
5
15A
100
AcDbEntity
8
1
62
256
6
ByLayer
370
18
48
1
60
0
100
AcDbSpline
70
4
71
3
72
8
73
4
40
0
40
0
40
0
40
0
40
1
40
1
40
1
40
1
41
1
10
42.2495
20
21.4631018098503
30
0
41
1
10
42.0348340263955
20
21.6384177707854
30
0
41
1
10
41.8201673316658
20
21.8137325544141
30
0
41
1
10
41.6055
20
21.9890462981537
30
0
0
SPLINE
5
15B
100
AcDbEntity
8
1
62
256
6
ByLayer
370
18
48
1
60
0
100
AcDbSpline
70
4
71
3
72
28
73
24
40
0
40
0
40
0
40
0
40
0.249999999999995
40
0.249999999999995
40
0.49999999999999
40
0.49999999999999
40
0.624999999999988
40
0.624999999999988
40
0.749999999999987
40
0.749999999999987
40
0.812499999999986
40
0.812499999999986
40
0.874999999999985
40
0.874999999999985
40
0.906249999999987
40
0.906249999999987
40
0.937499999999989
40
0.937499999999989
40
0.953124999999996
40
0.953124999999996
40
0.968750000000002
40
0.968750000000002
40
1
40
1
40
1
40
1
41
1
10
41.6055
20
4.79898149960059
30
0
41
1
10
41.5900405903694
20
4.70895501567952
30
0
41
1
10
41.5760739172364
20
4.61904213118765
30
0
41
1
10
41.5514902680674
20
4.43945145853505
30
0
41
1
10
41.5408029893666
20
4.34955397921183
30
0
41
1
10
41.5288664119751
20
4.21574393924857
30
0
41
1
10
41.5255810643421
20
4.17135298743673
30
0
41
1
10
41.5211380016732
20
4.08316714737171
30
0
41
1
10
41.5199116803131
20
4.03935641229864
30
0
41
1
10
41.5211817497251
20
3.97443734630261
30
0
41
1
10
41.5221342180721
20
3.95283496234089
30
0
41
1
10
41.5259274289865
20
3.91056496834514
30
0
41
1
10
41.5286398032354
20
3.88994652111359
30
0
41
1
10
41.5360219597604
20
3.86105230022773
30
0
41
1
10
41.5390810604021
20
3.85167301953842
30
0
41
1
10
41.5473751324916
20
3.83545003498995
30
0
41
1
10
41.5528351385155
20
3.82826228677422
30
0
41
1
10
41.563743364105
20
3.82396920005493
30
0
41
1
10
41.5678321685478
20
3.82373009138493
30
0
41
1
10
41.5760245443652
20
3.8257427688454
30
0
41
1
10
41.5802058669296
20
3.82796501139427
30
0
41
1
10
41.5920486089098
20
3.83671491479305
30
0
41
1
10
41.5991058478889
20
3.84505569911889
30
0
41
1
10
41.6055
20
3.85393202927716
30
0
0
SPLINE
5
15C
100
AcDbEntity
8
1
62
256
6
ByLayer
370
18
48
1
60
0
100
AcDbSpline
70
4
71
3
72
8
73
4
40
0
40
0
40
0
40
0
40
1
40
1
40
1
40
1
41
1
10
41.6055
20
-6.45796338176086
30
0
41
1
10
41.820484571849
20
-6.26225506640901
30
0
41
1
10
42.0351628256359
20
-6.0660998220099
30
0
41
1
10
42.2495
20
-5.86944693049057
30
0
0
SPLINE
5
15D
100
AcDbEntity
8
1
62
256
6
ByLayer
370
18
48
1
60
0
100
AcDbSpline
70
4
71
3
72
8
73
4
40
0
40
0
40
0
40
0
40
1
40
1
40
1
40
1
41
1
10
41.6055
20
24.4007123240498
30
0
41
1
10
41.8214601253758
20
24.1548089105379
30
0
41
1
10
42.0361756971328
20
23.9074656463368
30
0
41
1
10
42.2495
20
23.6585127934132
30
0
0
SPLINE
5
15E
100
AcDbEntity
8
1
62
256
6
ByLayer
370
18
48
1
60
0
100
AcDbSpline
70
4
71
3
72
24
73
20
40
0
40
0
40
0
40
0
40
0.249999999999999
40
0.249999999999999
40
0.499999999999997
40
0.499999999999997
40
0.624999999999998
40
0.624999999999998
40
0.749999999999998
40
0.749999999999998
40
0.812499999999999
40
0.812499999999999
40
0.874999999999999
40
0.874999999999999
40
0.906249999999999
40
0.906249999999999
40
0.9375
40
0.9375
40
1
40
1
40
1
40
1
41
1
10
41.6054999999999
20
1.19998529510178
30
0
41
1
10
41.5879867809472
20
1.14700065815438
30
0
41
1
10
41.5727382518921
20
1.09430783198368
30
0
41
1
10
41.5467914163629
20
0.989526494015223
30
0
41
1
10
41.5360118982865
20
0.937429402797676
30
0
41
1
10
41.5251151537234
20
0.85993777944546
30
0
41
1
10
41.5223820049022
20
0.834117316753606
30
0
41
1
10
41.5199531850072
20
0.784343319750604
30
0
41
1
10
41.5200832096761
20
0.760172576369428
30
0
41
1
10
41.5250398587167
20
0.72637424453788
30
0
41
1
10
41.5274756658929
20
0.71578164319402
30
0
41
1
10
41.535170778308
20
0.697179114524772
30
0
41
1
10
41.5405053612523
20
0.689152184791425
30
0
41
1
10
41.5518063449278
20
0.682610013306544
30
0
41
1
10
41.5560881702045
20
0.681406660868078
30
0
41
1
10
41.565449138091
20
0.681352609747336
30
0
41
1
10
41.570448088906
20
0.68249948164322
30
0
41
1
10
41.5857402502633
20
0.688885985609431
30
0
41
1
10
41.5959233873071
20
0.696757194129219
30
0
41
1
10
41.6055000000006
20
0.706005630373369
30
0
0
SPLINE
5
15F
100
AcDbEntity
8
1
62
256
6
ByLayer
370
18
48
1
60
0
100
AcDbSpline
70
4
71
3
72
8
73
4
40
0
40
0
40
0
40
0
40
1
40
1
40
1
40
1
41
1
10
42.2495
20
-4.59256303875941
30
0
41
1
10
42.0373626674526
20
-4.88657720226814
30
0
41
1
10
41.8225986716763
20
-5.17801253407893
30
0
41
1
10
41.6055
20
-5.467155704432
30
0
0
SPLINE
5
160
100
AcDbEntity
8
1
62
256
6
ByLayer
370
18
48
1
60
0
100
AcDbSpline
70
4
71
3
72
8
73
4
40
0
40
0
40
0
40
0
40
1
40
1
40
1
40
1
41
1
10
41.6055
20
18.9765676639092
30
0
41
1
10
41.8332755239774
20
18.4575675752646
30
0
41
1
10
42.0485705188501
20
17.9317779473509
30
0
41
1
10
42.2495
20
17.3981733286847
30
0
0
SPLINE
5
161
100
AcDbEntity
8
1
62
256
6
ByLayer
370
18
48
1
60
0
100
AcDbSpline
70
4
71
3
72
8
73
4
40
0
40
0
40
0
40
0
40
1
40
1
40
1
40
1
41
1
10
42.2495
20
-3.76521273957641
30
0
41
1
10
42.0383838344783
20
-4.09109845493157
30
0
41
1
10
41.8235756476837
20
-4.41370986901876
30
0
41
1
10
41.6055
20
-4.73342350691732
30
0
0
SPLINE
5
162
100
AcDbEntity
8
1
62
256
6
ByLayer
370
18
48
1
60
0
100
AcDbSpline
70
4
71
3
72
22
73
18
40
0
40
0
40
0
40
0
40
0.124999999999993
40
0.124999999999993
40
0.249999999999986
40
0.249999999999986
40
0.312499999999986
40
0.312499999999986
40
0.374999999999987
40
0.374999999999987
40
0.499999999999994
40
0.499999999999994
40
0.625
40
0.625
40
0.750000000000007
40
0.750000000000007
40
1
40
1
40
1
40
1
41
1
10
41.6055
20
23.5887620387653
30
0
41
1
10
41.5929845031714
20
23.5993482666228
30
0
41
1
10
41.5806879940926
20
23.6088941023579
30
0
41
1
10
41.5581074155187
20
23.6240121378288
30
0
41
1
10
41.5476913182949
20
23.6296362448251
30
0
41
1
10
41.5354071612165
20
23.6332761314103
30
0
41
1
10
41.5319337702328
20
23.6336780888104
30
0
41
1
10
41.5263533110019
20
23.6328644638049
30
0
41
1
10
41.5242053215012
20
23.631622156286
30
0
41
1
10
41.5199377739814
20
23.6257084033647
30
0
41
1
10
41.5199047753131
20
23.6188074918056
30
0
41
1
10
41.5238982521712
20
23.6017492602949
30
0
41
1
10
41.5279214212342
20
23.5914489173346
30
0
41
1
10
41.538474273465
20
23.5693096491524
30
0
41
1
10
41.5450386933838
20
23.5573625363887
30
0
41
1
10
41.5674538297115
20
23.5199933529968
30
0
41
1
10
41.5853599050207
20
23.4939793181766
30
0
41
1
10
41.6055
20
23.467155704432
30
0
0
SPLINE
5
163
100
AcDbEntity
8
1
62
256
6
ByLayer
370
18
48
1
60
0
100
AcDbSpline
70
4
71
3
72
8
73
4
40
0
40
0
40
0
40
0
40
1
40
1
40
1
40
1
41
1
10
42.2495
20
20.2976112695869
30
0
41
1
10
42.0348639249866
20
20.4745332759797
30
0
41
1
10
41.8201958861166
20
20.6514035876184
30
0
41
1
10
41.6055
20
20.8282288061869
30
0
0
SPLINE
5
164
100
AcDbEntity
8
1
62
256
6
ByLayer
370
18
48
1
60
0
100
AcDbSpline
70
4
71
3
72
16
73
12
40
0
40
0
40
0
40
0
40
0.250000000000035
40
0.250000000000035
40
0.500000000000071
40
0.500000000000071
40
0.625000000000055
40
0.625000000000055
40
0.75000000000004
40
0.75000000000004
40
1
40
1
40
1
40
1
41
1
10
42.3245000000002
20
-4.34402488776152
30
0
41
1
10
42.3245000000002
20
-4.3376595306224
30
0
41
1
10
42.3229146038589
20
-4.33259917956286
30
0
41
1
10
42.3158401522478
20
-4.32693207903768
30
0
41
1
10
42.3102642210667
20
-4.32636496967453
30
0
41
1
10
42.2996424940577
20
-4.32911785451674
30
0
41
1
10
42.29565583939
20
-4.33064375712485
30
0
41
1
10
42.2872881296793
20
-4.33464904506366
30
0
41
1
10
42.2828807042835
20
-4.33712631742708
30
0
41
1
10
42.2690778203387
20
-4.34579457889598
30
0
41
1
10
42.259328441041
20
-4.35308046248653
30
0
41
1
10
42.2495
20
-4.36120477526958
30
0
0
SPLINE
5
165
100
AcDbEntity
8
1
62
256
6
ByLayer
370
18
48
1
60
0
100
AcDbSpline
70
4
71
3
72
12
73
8
40
0
40
0
40
0
40
0
40
0.249999999999997
40
0.249999999999997
40
0.499999999999993
40
0.499999999999993
40
1
40
1
40
1
40
1
41
1
10
42.3245
20
17.0625227940767
30
0
41
1
10
42.3245
20
17.0887743839299
30
0
41
1
10
42.3218617594052
20
17.1162462626074
30
0
41
1
10
42.3136794429824
20
17.1721634757874
30
0
41
1
10
42.3081312899982
20
17.2002338449087
30
0
41
1
10
42.2882979872325
20
17.2846760036544
30
0
41
1
10
42.2709276994985
20
17.3412681928423
30
0
41
1
10
42.2495000000004
20
17.3981733286846
30
0
0
SPLINE
5
166
100
AcDbEntity
8
1
62
256
6
ByLayer
370
18
48
1
60
0
100
AcDbSpline
70
4
71
3
72
12
73
8
40
0
40
0
40
0
40
0
40
0.250000000000001
40
0.250000000000001
40
0.500000000000001
40
0.500000000000001
40
1
40
1
40
1
40
1
41
1
10
42.3245
20
13.980707650254
30
0
41
1
10
42.3245
20
14.0266901652297
30
0
41
1
10
42.3220433117484
20
14.07311941251
30
0
41
1
10
42.3143532365692
20
14.1664298893799
30
0
41
1
10
42.309043078487
20
14.213327052922
30
0
41
1
10
42.289529013447
20
14.3545795148646
30
0
41
1
10
42.2719698398409
20
14.4488366346302
30
0
41
1
10
42.2495000000002
20
14.5427611875874
30
0
0
SPLINE
5
167
100
AcDbEntity
8
1
62
256
6
ByLayer
370
18
48
1
60
0
100
AcDbSpline
70
4
71
3
72
39
73
35
40
0
40
0
40
0
40
0
40
0.124987635018298
40
0.124987635018298
40
0.187481452527446
40
0.187481452527446
40
0.218728361282021
40
0.218728361282021
40
0.249975270036595
40
0.249975270036595
40
0.374962905054893
40
0.374962905054893
40
0.406209813809468
40
0.406209813809468
40
0.437456722564042
40
0.437456722564042
40
0.499950540073191
40
0.499950540073191
40
0.62493817509149
40
0.62493817509149
40
0.656185083846064
40
0.656185083846064
40
0.687431992600639
40
0.687431992600639
40
0.749925810109788
40
0.812419627618936
40
0.812419627618936
40
0.843666536373511
40
0.843666536373511
40
0.874913445128085
40
0.874913445128085
40
0.999901080146383
40
0.999901080146383
40
1
40
1
40
1
40
1
41
1
10
12
20
24.7537875889731
30
0
41
1
10
12.2315315756103
20
24.7537875889731
30
0
41
1
10
12.4591365235723
20
24.757034083456
30
0
41
1
10
12.7949082800531
20
24.7662948730574
30
0
41
1
10
12.9058860138783
20
24.7701139934739
30
0
41
1
10
13.0709035384146
20
24.7768806316186
30
0
41
1
10
13.1257847402827
20
24.7793148234988
30
0
41
1
10
13.2345019946691
20
24.7844920669247
30
0
41
1
10
13.2881556301774
20
24.7872254998442
30
0
41
1
10
13.552974308431
20
24.80155192813
30
0
41
1
10
13.7538894369547
20
24.815120476473
30
0
41
1
10
13.9915389224639
20
24.8337267045492
30
0
41
1
10
14.0383879763841
20
24.8375302714711
30
0
41
1
10
14.1307039239046
20
24.8452768882804
30
0
41
1
10
14.1762932433238
20
24.8492311257034
30
0
41
1
10
14.3098035657862
20
24.8611611463195
30
0
41
1
10
14.3945408756174
20
24.8692057326567
30
0
41
1
10
14.6363442591987
20
24.8932637901465
30
0
41
1
10
14.7811218473537
20
24.9092050020326
30
0
41
1
10
14.9410430776848
20
24.9278704531447
30
0
41
1
10
14.9720283007573
20
24.9315480646342
30
0
41
1
10
15.03122341709
20
24.9386738236614
30
0
41
1
10
15.0595002552157
20
24.9421295217508
30
0
41
1
10
15.1404377210658
20
24.952143838805
30
0
41
1
10
15.2379913789873
20
24.9645551087505
30
0
41
1
10
15.3150873172536
20
24.9747614932091
30
0
41
1
10
15.3651132670575
20
24.9814674154771
30
0
41
1
10
15.3804869181782
20
24.9835445470294
30
0
41
1
10
15.4085805173338
20
24.9873613547444
30
0
41
1
10
15.4213071326888
20
24.9891019899397
30
0
41
1
10
15.477570226107
20
24.9968299381387
30
0
41
1
10
15.4998711337852
20
24.9999819587327
30
0
41
1
10
15.4999986401553
20
24.9999998096218
30
0
41
1
10
15.4999996305967
20
24.9999999482788
30
0
41
1
10
15.500000621055
20
25.0000000868154
30
0
0
SPLINE
5
168
100
AcDbEntity
8
1
62
256
6
ByLayer
370
18
48
1
60
0
100
AcDbSpline
70
4
71
3
72
39
73
35
40
0
40
0
40
0
40
0
40
6.35047468216E-05
40
6.35047468216E-05
40
0.125055566653468
40
0.125055566653468
40
0.187551597606791
40
0.187551597606791
40
0.218799613083453
40
0.218799613083453
40
0.250047628560115
40
0.250047628560115
40
0.375039690466761
40
0.375039690466761
40
0.406287705943423
40
0.406287705943423
40
0.437535721420085
40
0.437535721420085
40
0.500031752373409
40
0.500031752373409
40
0.625023814280056
40
0.625023814280056
40
0.656271829756718
40
0.656271829756718
40
0.68751984523338
40
0.68751984523338
40
0.750015876186703
40
0.812511907140026
40
0.812511907140026
40
0.843759922616688
40
0.843759922616688
40
0.87500793809335
40
0.87500793809335
40
1
40
1
40
1
40
1
41
1
10
8.50000253114525
20
24.9999996456051
30
0
41
1
10
8.50000154070895
20
24.9999997842988
30
0
41
1
10
8.50000055026844
20
24.9999999229624
30
0
41
1
10
8.49979983208311
20
25.0000280234979
30
0
41
1
10
8.52232108185189
20
24.9968462313073
30
0
41
1
10
8.58883484568247
20
24.9877082867457
30
0
41
1
10
8.61650198011509
20
24.9839342450051
30
0
41
1
10
8.66644161793684
20
24.9772364236652
30
0
41
1
10
8.68455106475193
20
24.9748239528359
30
0
41
1
10
8.72337013460867
20
24.9697003007181
30
0
41
1
10
8.7440451531433
20
24.9669936062547
30
0
41
1
10
8.8536228065534
20
24.9527981149078
30
0
41
1
10
8.96095392765477
20
24.9393247731294
30
0
41
1
10
9.11956453063826
20
24.9207928432768
30
0
41
1
10
9.15252014640211
20
24.9170019484595
30
0
41
1
10
9.22094063658741
20
24.909275692566
30
0
41
1
10
9.2564980949395
20
24.9053305211561
30
0
41
1
10
9.36590778993272
20
24.8934365733415
30
0
41
1
10
9.44269354904307
20
24.885405277508
30
0
41
1
10
9.68427711541389
20
24.861353355058
30
0
41
1
10
9.86019156056449
20
24.8453701316141
30
0
41
1
10
10.0992930567524
20
24.8266069809252
30
0
41
1
10
10.1481463438996
20
24.822911698299
30
0
41
1
10
10.246728239717
20
24.8157519548238
30
0
41
1
10
10.296581686132
20
24.8122772905022
30
0
41
1
10
10.4478033839754
20
24.8022011657433
30
0
41
1
10
10.6538552249043
20
24.7896956583303
30
0
41
1
10
10.8686708596508
20
24.7793846719702
30
0
41
1
10
11.0331337105017
20
24.7726024106509
30
0
41
1
10
11.0885141726631
20
24.7705001878453
30
0
41
1
10
11.2004175679178
20
24.766634918945
30
0
41
1
10
11.2569255430518
20
24.764873613312
30
0
41
1
10
11.5396366371113
20
24.757035795544
30
0
41
1
10
11.7684684243897
20
24.7537875889732
30
0
41
1
10
12
20
24.7537875889731
30
0
0
SPLINE
5
169
100
AcDbEntity
8
1
62
256
6
ByLayer
370
18
48
1
60
0
100
AcDbSpline
70
4
71
3
72
24
73
20
40
0
40
0
40
0
40
0
40
0.249999999999997
40
0.249999999999997
40
0.499999999999994
40
0.499999999999994
40
0.62499999999999
40
0.62499999999999
40
0.687499999999992
40
0.687499999999992
40
0.749999999999993
40
0.749999999999993
40
0.812499999999995
40
0.812499999999995
40
0.874999999999997
40
0.874999999999997
40
0.937499999999998
40
0.937499999999998
40
1
40
1
40
1
40
1
41
1
10
41.6055
20
-0.976567663909208
30
0
41
1
10
41.5871798910664
20
-1.01831112253245
30
0
41
1
10
41.5712116281801
20
-1.05982302748146
30
0
41
1
10
41.5442448678504
20
-1.14233386946941
30
0
41
1
10
41.5330974947957
20
-1.18373023504068
30
0
41
1
10
41.5231172424616
20
-1.24244487349352
30
0
41
1
10
41.520881742774
20
-1.26163309043736
30
0
41
1
10
41.5203735268098
20
-1.28881545316273
30
0
41
1
10
41.5206879385433
20
-1.29750568306534
30
0
41
1
10
41.5226554903738
20
-1.31386859890441
30
0
41
1
10
41.5243309659137
20
-1.32163463182681
30
0
41
1
10
41.5296236232373
20
-1.33508982970966
30
0
41
1
10
41.5332701674035
20
-1.34084750755699
30
0
41
1
10
41.5431970204705
20
-1.34874656146803
30
0
41
1
10
41.5495394952628
20
-1.35076413776588
30
0
41
1
10
41.5640797062506
20
-1.34988784921802
30
0
41
1
10
41.5723113146981
20
-1.3470063547565
30
0
41
1
10
41.588819538971
20
-1.3379397582797
30
0
41
1
10
41.5973025137125
20
-1.33171030149867
30
0
41
1
10
41.6055000000001
20
-1.32466317355957
30
0
0
SPLINE
5
16A
100
AcDbEntity
8
1
62
256
6
ByLayer
370
18
48
1
60
0
100
AcDbSpline
70
4
71
3
72
8
73
4
40
0
40
0
40
0
40
0
40
1
40
1
40
1
40
1
41
1
10
42.2495
20
-5.21495281872765
30
0
41
1
10
42.0366690653106
20
-5.48404661836531
30
0
41
1
10
41.8219338484439
20
-5.75110001005632
30
0
41
1
10
41.6055
20
-6.01633334513488
30
0
0
SPLINE
5
16B
100
AcDbEntity
8
1
62
256
6
ByLayer
370
18
48
1
60
0
100
AcDbSpline
70
4
71
3
72
14
73
10
40
0
40
0
40
0
40
0
40
0.25
40
0.25
40
0.5
40
0.5
40
0.75
40
0.75
40
1
40
1
40
1
40
1
41
1
10
42.2494999999999
20
18.7695001957468
30
0
41
1
10
42.2600887480643
20
18.7603454312685
30
0
41
1
10
42.2711394646123
20
18.7528186795056
30
0
41
1
10
42.2920202054396
20
18.745612391574
30
0
41
1
10
42.301227709581
20
18.7465213660266
30
0
41
1
10
42.3144353219523
20
18.7561914077461
30
0
41
1
10
42.3186242563821
20
18.7646034757175
30
0
41
1
10
42.3235888009734
20
18.7836999877534
30
0
41
1
10
42.3245
20
18.7944105249509
30
0
41
1
10
42.3245
20
18.8057878586234
30
0
0
SPLINE
5
16C
100
AcDbEntity
8
1
62
256
6
ByLayer
370
18
48
1
60
0
100
AcDbSpline
70
4
71
3
72
14
73
10
40
0
40
0
40
0
40
0
40
0.25
40
0.25
40
0.5
40
0.5
40
0.75
40
0.75
40
1
40
1
40
1
40
1
41
1
10
42.3245
20
23.5494063264194
30
0
41
1
10
42.3245
20
23.5533590303348
30
0
41
1
10
42.3220088954186
20
23.5596527303941
30
0
41
1
10
42.3135855874194
20
23.575066302088
30
0
41
1
10
42.3076971778658
20
23.5841317246029
30
0
41
1
10
42.2938373153333
20
23.60368376278
30
0
41
1
10
42.2857800589614
20
23.6142824011503
30
0
41
1
10
42.2685646263829
20
23.6359067623047
30
0
41
1
10
42.259315111979
20
23.6470584016908
30
0
41
1
10
42.2495
20
23.6585127934132
30
0
0
SPLINE
5
16D
100
AcDbEntity
8
1
62
256
6
ByLayer
370
18
48
1
60
0
100
AcDbSpline
70
4
71
3
72
8
73
4
40
0
40
0
40
0
40
0
40
1
40
1
40
1
40
1
41
1
10
41.6055
20
-3.98904629815368
30
0
41
1
10
41.8201673316658
20
-3.81373255441415
30
0
41
1
10
42.0348340263955
20
-3.6384177707854
30
0
41
1
10
42.2495
20
-3.46310180985026
30
0
0
SPLINE
5
16E
100
AcDbEntity
8
1
62
256
6
ByLayer
370
18
48
1
60
0
100
AcDbSpline
70
4
71
3
72
12
73
8
40
0
40
0
40
0
40
0
40
0.500000000000026
40
0.500000000000026
40
0.750000000000013
40
0.750000000000013
40
1
40
1
40
1
40
1
41
1
10
42.2495
20
-4.59256303875941
30
0
41
1
10
42.2695150228623
20
-4.56482298879368
30
0
41
1
10
42.2869943096373
20
-4.53777106238618
30
0
41
1
10
42.3077086767589
20
-4.49902196596469
30
0
41
1
10
42.3134656791867
20
-4.48679570850931
30
0
41
1
10
42.3218886844303
20
-4.46420043356196
30
0
41
1
10
42.3245000000037
20
-4.45388688178716
30
0
41
1
10
42.324500000004
20
-4.44587573331492
30
0
0
SPLINE
5
16F
100
AcDbEntity
8
1
62
256
6
ByLayer
370
18
48
1
60
0
100
AcDbSpline
70
4
71
3
72
24
73
20
40
0
40
0
40
0
40
0
40
0.12500000000001
40
0.12500000000001
40
0.25000000000002
40
0.25000000000002
40
0.312500000000014
40
0.312500000000014
40
0.375000000000007
40
0.375000000000007
40
0.500000000000006
40
0.500000000000006
40
0.625000000000004
40
0.625000000000004
40
0.750000000000003
40
0.750000000000003
40
0.875000000000001
40
0.875000000000001
40
1
40
1
40
1
40
1
41
1
10
41.6055
20
24.104314114444
30
0
41
1
10
41.5934632937874
20
24.1148379835655
30
0
41
1
10
41.5816731389021
20
24.1245746550669
30
0
41
1
10
41.5600245480421
20
24.1409043189285
30
0
41
1
10
41.5499145553487
20
24.1476664271501
30
0
41
1
10
41.537673048248
20
24.153967446024
30
0
41
1
10
41.5340195691033
20
24.1554547605258
30
0
41
1
10
41.5280334555837
20
24.1569426994494
30
0
41
1
10
41.5256596730595
20
24.1569732503846
30
0
41
1
10
41.5204429724319
20
24.1548652458193
30
0
41
1
10
41.5197313235777
20
24.150516213461
30
0
41
1
10
41.5228604713893
20
24.1376407193304
30
0
41
1
10
41.5266068542954
20
24.1292581336757
30
0
41
1
10
41.5370511584458
20
24.1101564134492
30
0
41
1
10
41.5436321073829
20
24.0996272579293
30
0
41
1
10
41.5588539646259
20
24.0770902678142
30
0
41
1
10
41.5673625711935
20
24.0652921980547
30
0
41
1
10
41.5855242840147
20
24.0412423492768
30
0
41
1
10
41.5952281516894
20
24.0289211940523
30
0
41
1
10
41.6055
20
24.0163333451349
30
0
0
SPLINE
5
170
100
AcDbEntity
8
1
62
256
6
ByLayer
370
18
48
1
60
0
100
AcDbSpline
70
4
71
3
72
20
73
16
40
0
40
0
40
0
40
0
40
0.0625000000000038
40
0.0625000000000038
40
0.125000000000008
40
0.125000000000008
40
0.250000000000007
40
0.250000000000007
40
0.375000000000007
40
0.375000000000007
40
0.500000000000007
40
0.500000000000007
40
0.750000000000003
40
0.750000000000003
40
1
40
1
40
1
40
1
41
1
10
8.53867513459485
20
7.52966679426501
30
0
41
1
10
8.52279868798013
20
7.52966679426501
30
0
41
1
10
8.50721568825679
20
7.53122440152947
30
0
41
1
10
8.47658412125807
20
7.53717584664554
30
0
41
1
10
8.46140599697401
20
7.54162522662259
30
0
41
1
10
8.41759599948895
20
7.55857361750103
30
0
41
1
10
8.39103491659969
20
7.57431556968106
30
0
41
1
10
8.34170754400517
20
7.61190750686259
30
0
41
1
10
8.31983115452974
20
7.633073252412
30
0
41
1
10
8.27975402284389
20
7.67851551807124
30
0
41
1
10
8.26148999258896
20
7.70297658390786
30
0
41
1
10
8.2117396173519
20
7.77866338250453
30
0
41
1
10
8.18512193927677
20
7.83191947486046
30
0
41
1
10
8.13975567725331
20
7.94172327888185
30
0
41
1
10
8.1211137629262
20
7.99846916820704
30
0
41
1
10
8.10566243270247
20
8.05584836782771
30
0
0
SPLINE
5
171
100
AcDbEntity
8
1
62
256
6
ByLayer
370
18
48
1
60
0
100
AcDbSpline
70
4
71
3
72
12
73
8
40
0
40
0
40
0
40
0
40
0.250000000000002
40
0.250000000000002
40
0.500000000000005
40
0.500000000000005
40
1
40
1
40
1
40
1
41
1
10
42.3245000000049
20
20.4846821471183
30
0
41
1
10
42.3245000000046
20
20.4986186392601
30
0
41
1
10
42.3218168192749
20
20.5145820361711
30
0
41
1
10
42.3134994891632
20
20.5475502348942
30
0
41
1
10
42.3077914383874
20
20.5648102449531
30
0
41
1
10
42.2874223644384
20
20.6176390305913
30
0
41
1
10
42.2700255746268
20
20.6533425045365
30
0
41
1
10
42.2495
20
20.6894628880304
30
0
0
SPLINE
5
172
100
AcDbEntity
8
1
62
256
6
ByLayer
370
18
48
1
60
0
100
AcDbSpline
70
4
71
3
72
8
73
4
40
0
40
0
40
0
40
0
40
1
40
1
40
1
40
1
41
1
10
41.6055
20
20.5638910107493
30
0
41
1
10
41.8277685085049
20
20.1436031744424
30
0
41
1
10
42.0427804369158
20
19.7184329254336
30
0
41
1
10
42.2495
20
19.2876833609241
30
0
0
SPLINE
5
173
100
AcDbEntity
8
1
62
256
6
ByLayer
370
18
48
1
60
0
100
AcDbSpline
70
4
71
3
72
14
73
10
40
0
40
0
40
0
40
0
40
0.25
40
0.25
40
0.5
40
0.5
40
0.75
40
0.75
40
1
40
1
40
1
40
1
41
1
10
42.3245
20
23.8452702757127
30
0
41
1
10
42.3245
20
23.8474896268639
30
0
41
1
10
42.3220763784452
20
23.8520902777799
30
0
41
1
10
42.3137640620137
20
23.8643294617756
30
0
41
1
10
42.3078186277286
20
23.8720753006388
30
0
41
1
10
42.2939475664615
20
23.8890954270051
30
0
41
1
10
42.2858524647832
20
23.8985829276961
30
0
41
1
10
42.2685183220492
20
23.9183056164328
30
0
41
1
10
42.2592599624489
20
23.9285701418024
30
0
41
1
10
42.2495
20
23.9391803988928
30
0
0
SPLINE
5
174
100
AcDbEntity
8
1
62
256
6
ByLayer
370
18
48
1
60
0
100
AcDbSpline
70
4
71
3
72
24
73
20
40
0
40
0
40
0
40
0
40
0.249999999999999
40
0.249999999999999
40
0.499999999999997
40
0.499999999999997
40
0.624999999999991
40
0.624999999999991
40
0.687499999999993
40
0.687499999999993
40
0.749999999999994
40
0.749999999999994
40
0.812499999999996
40
0.812499999999996
40
0.874999999999997
40
0.874999999999997
40
0.937499999999999
40
0.937499999999999
40
1
40
1
40
1
40
1
41
1
10
42.3245000000001
20
4.6356987107053
30
0
41
1
10
42.3245000000001
20
4.6592489951278
30
0
41
1
10
42.3240058753211
20
4.68267433760897
30
0
41
1
10
42.321458489008
20
4.72882195606357
30
0
41
1
10
42.3194828325134
20
4.75160563302424
30
0
41
1
10
42.3139936623765
20
4.78468942624002
30
0
41
1
10
42.3117179633607
20
4.79563276329861
30
0
41
1
10
42.3070529089918
20
4.81093810428303
30
0
41
1
10
42.305288063206
20
4.8158583011618
30
0
41
1
10
42.3010352228235
20
4.82506934091833
30
0
41
1
10
42.298523775894
20
4.82940868060561
30
0
41
1
10
42.2923932276941
20
4.83626500766164
30
0
41
1
10
42.28861086133
20
4.83881375827485
30
0
41
1
10
42.2801378671503
20
4.83985475648723
30
0
41
1
10
42.2755740167096
20
4.83828612476063
30
0
41
1
10
42.2671124917708
20
4.83254949815444
30
0
41
1
10
42.2631632743611
20
4.82850628789058
30
0
41
1
10
42.255928809143
20
4.81966719978018
30
0
41
1
10
42.2526285978214
20
4.81486282578973
30
0
41
1
10
42.2495
20
4.80984947445683
30
0
0
SPLINE
5
175
100
AcDbEntity
8
1
62
256
6
ByLayer
370
18
48
1
60
0
100
AcDbSpline
70
4
71
3
72
14
73
10
40
0
40
0
40
0
40
0
40
0.25
40
0.25
40
0.5
40
0.5
40
0.75
40
0.75
40
1
40
1
40
1
40
1
41
1
10
42.2495
20
23.8694469304906
30
0
41
1
10
42.2592164064059
20
23.8605321940685
30
0
41
1
10
42.2686910938154
20
23.8520819869761
30
0
41
1
10
42.2862297992528
20
23.8370475450745
30
0
41
1
10
42.2944777938064
20
23.83030705375
30
0
41
1
10
42.3085971952312
20
23.8196865659095
30
0
41
1
10
42.3144901225729
20
23.8158058873362
30
0
41
1
10
42.3224223598941
20
23.8121474390756
30
0
41
1
10
42.3245
20
23.8123719240181
30
0
41
1
10
42.3245
20
23.8146051206936
30
0
0
SPLINE
5
176
100
AcDbEntity
8
1
62
256
6
ByLayer
370
18
48
1
60
0
100
AcDbSpline
70
4
71
3
72
87
73
83
40
0
40
0
40
0
40
0
40
0.031139420307688
40
0.031139420307688
40
0.0623929873945367
40
0.0936465544813852
40
0.0936465544813852
40
0.10927333802481
40
0.10927333802481
40
0.117086729796522
40
0.117086729796522
40
0.124900121568234
40
0.124900121568234
40
0.156153688655083
40
0.156153688655083
40
0.187407255741932
40
0.21866082282878
40
0.21866082282878
40
0.249914389915629
40
0.249914389915629
40
0.257727781687341
40
0.257727781687341
40
0.265541173459054
40
0.265541173459054
40
0.281167957002478
40
0.281167957002478
40
0.312421524089327
40
0.312421524089327
40
0.374928658263026
40
0.374928658263026
40
0.39055544180645
40
0.39055544180645
40
0.398368833578163
40
0.398368833578163
40
0.406182225349875
40
0.406182225349875
40
0.437435792436724
40
0.437435792436724
40
0.499942926610423
40
0.499942926610423
40
0.531196493697272
40
0.531196493697272
40
0.539009885468984
40
0.539009885468984
40
0.546823277240696
40
0.546823277240696
40
0.562450060784121
40
0.562450060784121
40
0.624957194957818
40
0.624957194957818
40
0.656210762044667
40
0.656210762044667
40
0.671837545588091
40
0.671837545588091
40
0.679650937359804
40
0.679650937359804
40
0.687464329131516
40
0.687464329131516
40
0.718717896218364
40
0.718717896218364
40
0.749971463305213
40
0.781225030392062
40
0.781225030392062
40
0.81247859747891
40
0.81247859747891
40
0.820291989250623
40
0.820291989250623
40
0.828105381022335
40
0.828105381022335
40
0.843732164565759
40
0.843732164565759
40
0.874985731652607
40
0.874985731652607
40
0.937492865826304
40
0.937492865826304
40
0.953119649369728
40
0.953119649369728
40
0.96093304114144
40
0.96093304114144
40
0.968746432913152
40
0.968746432913152
40
1
40
1
40
1
40
1
41
1
10
20.0000000100267
20
-24.9999997823856
30
0
41
1
10
20.0000038219482
20
-24.9999171004772
30
0
41
1
10
20.0010923075697
20
-24.9763143493592
30
0
41
1
10
20.0054056388289
20
-24.8828599331243
30
0
41
1
10
20.0118711633694
20
-24.7428143282362
30
0
41
1
10
20.0226301046551
20
-24.5102782729149
30
0
41
1
10
20.0323438998239
20
-24.3007342861779
30
0
41
1
10
20.0358562735951
20
-24.2250231388134
30
0
41
1
10
20.0415440698286
20
-24.1025465569219
30
0
41
1
10
20.0435098979398
20
-24.0602356376541
30
0
41
1
10
20.0475828995798
20
-23.9726186838647
30
0
41
1
10
20.0496917928294
20
-23.9272756977705
30
0
41
1
10
20.0605741301849
20
-23.6934304614516
30
0
41
1
10
20.0703082321554
20
-23.4846698000453
30
0
41
1
10
20.0918050038172
20
-23.0250318775337
30
0
41
1
10
20.1153305444817
20
-22.5232727420533
30
0
41
1
10
20.1429401288381
20
-21.93827720105
30
0
41
1
10
20.1726456306973
20
-21.3114626351832
30
0
41
1
10
20.1885461818206
20
-20.9771474232471
30
0
41
1
10
20.2097924841492
20
-20.5325419608475
30
0
41
1
10
20.2141103890272
20
-20.4422834514668
30
0
41
1
10
20.2228854803744
20
-20.2590696084207
30
0
41
1
10
20.2273470997637
20
-20.1660219733416
30
0
41
1
10
20.2409105636993
20
-19.8834959117176
30
0
41
1
10
20.2501765597749
20
-19.690934280656
30
0
41
1
10
20.2786453565903
20
-19.1008265632117
30
0
41
1
10
20.2985179066085
20
-18.6908753788829
30
0
41
1
10
20.3608526325102
20
-17.4123866548669
30
0
41
1
10
20.4060136615662
20
-16.495482647069
30
0
41
1
10
20.467355944188
20
-15.2678255929607
30
0
41
1
10
20.4798703942355
20
-15.0181964064844
30
0
41
1
10
20.4990228775029
20
-14.6375247840664
30
0
41
1
10
20.5054705276584
20
-14.5095959794969
30
0
41
1
10
20.5184950399519
20
-14.2516447201812
30
0
41
1
10
20.5250789658092
20
-14.1214830091877
30
0
41
1
10
20.5582293266524
20
-13.4673306787685
30
0
41
1
10
20.585456033799
20
-12.9339245101413
30
0
41
1
10
20.6693095535733
20
-11.3043174915274
30
0
41
1
10
20.7280967663317
20
-10.1788871392945
30
0
41
1
10
20.8210455424207
20
-8.43259973232952
30
0
41
1
10
20.8528262397103
20
-7.84077355843334
30
0
41
1
10
20.8936219886786
20
-7.08855767114631
30
0
41
1
10
20.9018347121647
20
-6.9374919778115
30
0
41
1
10
20.9183694565479
20
-6.63410528135435
30
0
41
1
10
20.9267004878557
20
-6.48162005620608
30
0
41
1
10
20.9517789782513
20
-6.0237590290314
30
0
41
1
10
20.9686126303198
20
-5.71795882400031
30
0
41
1
10
21.0533693159488
20
-4.18620730918423
30
0
41
1
10
21.1230506204056
20
-2.95205106555446
30
0
41
1
10
21.2307578451832
20
-1.08800626869495
30
0
41
1
10
21.2671924972636
20
-0.46451378565493
30
0
41
1
10
21.3227034270573
20
0.473983129149673
30
0
41
1
10
21.3413503376837
20
0.787359037612021
30
0
41
1
10
21.3695442471169
20
1.25824891371076
30
0
41
1
10
21.3789794820962
20
1.41534991324778
30
0
41
1
10
21.3979260224635
20
1.72982957375822
30
0
41
1
10
21.4074475003349
20
1.88737559888821
30
0
41
1
10
21.4550870165912
20
2.67313727061722
30
0
41
1
10
21.4933277304402
20
3.29590747716932
30
0
41
1
10
21.5701087806984
20
4.5300928496695
30
0
41
1
10
21.6471894098094
20
5.75292198659028
30
0
41
1
10
21.7249355811605
20
6.95328614248487
30
0
41
1
10
21.803038969651
20
8.1423532447314
30
0
41
1
10
21.842269348587
20
8.73123871899401
30
0
41
1
10
21.891539524665
20
9.46012397745949
30
0
41
1
10
21.9014051413469
20
9.60553945353411
30
0
41
1
10
21.9211596369069
20
9.89564117661109
30
0
41
1
10
21.9310590432734
20
10.04048042807
30
0
41
1
10
21.9606915811559
20
10.4724296205257
30
0
41
1
10
21.9803660740741
20
10.7570800726729
30
0
41
1
10
22.0391482328702
20
11.6012448406152
30
0
41
1
10
22.0780156324717
20
12.1509864389507
30
0
41
1
10
22.1936204706633
20
13.7618617089387
30
0
41
1
10
22.2693808941695
20
14.7848577441794
30
0
41
1
10
22.3620521690174
20
15.9992132132787
30
0
41
1
10
22.3804833570067
20
16.2388479420165
30
0
41
1
10
22.4079629496539
20
16.5933794326905
30
0
41
1
10
22.4170949242472
20
16.7107362661217
30
0
41
1
10
22.4353006825384
20
16.9437954143541
30
0
41
1
10
22.4443804757364
20
17.0595738430177
30
0
41
1
10
22.4895348410355
20
17.6331168922673
30
0
41
1
10
22.5248858668826
20
18.0749716505421
30
0
41
1
10
22.5593876814725
20
18.4998299962072
30
0
0
SPLINE
5
177
100
AcDbEntity
8
1
62
256
6
ByLayer
370
18
48
1
60
0
100
AcDbSpline
70
4
71
3
72
14
73
10
40
0
40
0
40
0
40
0
40
0.25
40
0.25
40
0.5
40
0.5
40
0.75
40
0.75
40
1
40
1
40
1
40
1
41
1
10
42.3245
20
-5.0130715796893
30
0
41
1
10
42.3245
20
-5.00806513832964
30
0
41
1
10
42.3227445414936
20
-5.00468722756057
30
0
41
1
10
42.315227641366
20
-5.00236518881545
30
0
41
1
10
42.3095865919249
20
-5.00344307976294
30
0
41
1
10
42.2952947677502
20
-5.00971914221569
30
0
41
1
10
42.286925940559
20
-5.01476618234898
30
0
41
1
10
42.2687507800733
20
-5.02754398986346
30
0
41
1
10
42.2592436112319
20
-5.03505054608485
30
0
41
1
10
42.2495
20
-5.04331440119046
30
0
0
SPLINE
5
178
100
AcDbEntity
8
1
62
256
6
ByLayer
370
18
48
1
60
0
100
AcDbSpline
70
4
71
3
72
14
73
10
40
0
40
0
40
0
40
0
40
0.25
40
0.25
40
0.5
40
0.5
40
0.75
40
0.75
40
1
40
1
40
1
40
1
41
1
10
42.3245
20
-5.49721869841898
30
0
41
1
10
42.3245
20
-5.49356195154775
30
0
41
1
10
42.3225747580154
20
-5.49179769191002
30
0
41
1
10
42.314756697559
20
-5.49258541593935
30
0
41
1
10
42.3090311541528
20
-5.49509207134881
30
0
41
1
10
42.2947617336723
20
-5.50365349396466
30
0
41
1
10
42.2864996816712
20
-5.50952713025066
30
0
41
1
10
42.2685874880138
20
-5.52347468476316
30
0
41
1
10
42.2592035623053
20
-5.53133447133735
30
0
41
1
10
42.2495
20
-5.53986126806853
30
0
0
SPLINE
5
179
100
AcDbEntity
8
1
62
256
6
ByLayer
370
18
48
1
60
0
100
AcDbSpline
70
4
71
3
72
14
73
10
40
0
40
0
40
0
40
0
40
0.25
40
0.25
40
0.5
40
0.5
40
0.75
40
0.75
40
1
40
1
40
1
40
1
41
1
10
42.2495
20
-3.76521273957641
30
0
41
1
10
42.2596268005951
20
-3.7495806838879
30
0
41
1
10
42.2690240669662
20
-3.73407607666232
30
0
41
1
10
42.2862804481997
20
-3.70332835583611
30
0
41
1
10
42.2941997373812
20
-3.68795847179376
30
0
41
1
10
42.307792910941
20
-3.65826468551896
30
0
41
1
10
42.3134921289402
20
-3.64394798603314
30
0
41
1
10
42.3218710690002
20
-3.61677530538222
30
0
41
1
10
42.3245000000129
20
-3.60404161888087
30
0
41
1
10
42.3245000000139
20
-3.59344071840013
30
0
0
SPLINE
5
17A
100
AcDbEntity
8
1
62
256
6
ByLayer
370
18
48
1
60
0
100
AcDbSpline
70
4
71
3
72
22
73
18
40
0
40
0
40
0
40
0
40
0.250000000000004
40
0.250000000000004
40
0.375000000000004
40
0.375000000000004
40
0.500000000000001
40
0.500000000000001
40
0.624999999999998
40
0.624999999999998
40
0.749999999999995
40
0.749999999999995
40
0.812499999999995
40
0.812499999999995
40
0.874999999999995
40
0.874999999999995
40
1
40
1
40
1
40
1
41
1
10
11.8943375672973
20
8.05584836782774
30
0
41
1
10
11.8788923030149
20
7.99849169434913
30
0
41
1
10
11.8604037172645
20
7.94218253951257
30
0
41
1
10
11.8264575712212
20
7.85991012495421
30
0
41
1
10
11.814096269969
20
7.83285506058493
30
0
41
1
10
11.7867462210776
20
7.77968328642044
30
0
41
1
10
11.7716842562431
20
7.75344388356999
30
0
41
1
10
11.7384769785308
20
7.70292805784931
30
0
41
1
10
11.7203772593316
20
7.67866353751185
30
0
41
1
10
11.6800242532304
20
7.63291014136064
30
0
41
1
10
11.6579517648702
20
7.611654331621
30
0
41
1
10
11.6215461384038
20
7.58390025536198
30
0
41
1
10
11.6088302857937
20
7.57531366225021
30
0
41
1
10
11.5819453465864
20
7.55980672066914
30
0
41
1
10
11.5678144986017
20
7.55293791940406
30
0
41
1
10
11.5243601613891
20
7.53610198950847
30
0
41
1
10
11.4930267682388
20
7.52966679426481
30
0
41
1
10
11.4613248654052
20
7.52966679426481
30
0
0
SPLINE
5
17B
100
AcDbEntity
8
1
62
256
6
ByLayer
370
18
48
1
60
0
100
AcDbSpline
70
4
71
3
72
20
73
16
40
0
40
0
40
0
40
0
40
0.0624999999999947
40
0.0624999999999947
40
0.124999999999989
40
0.124999999999989
40
0.249999999999988
40
0.249999999999988
40
0.374999999999987
40
0.374999999999987
40
0.499999999999985
40
0.499999999999985
40
0.749999999999993
40
0.749999999999993
40
1
40
1
40
1
40
1
41
1
10
11.4613248654051
20
23.8391299750503
30
0
41
1
10
11.4772013120198
20
23.8391299750503
30
0
41
1
10
11.4927843117432
20
23.8386381480423
30
0
41
1
10
11.5234158787419
20
23.8367571199657
30
0
41
1
10
11.538594003026
20
23.8353503028192
30
0
41
1
10
11.582404000511
20
23.8299833264009
30
0
41
1
10
11.6089650834002
20
23.8249896713849
30
0
41
1
10
11.6582924559948
20
23.813005969379
30
0
41
1
10
11.6801688454702
20
23.8062336877526
30
0
41
1
10
11.7202459771561
20
23.7916155212569
30
0
41
1
10
11.738510007411
20
23.7837098766636
30
0
41
1
10
11.788260382648
20
23.7591079584197
30
0
41
1
10
11.8148780607232
20
23.7416171457992
30
0
41
1
10
11.8602443227466
20
23.7051129235882
30
0
41
1
10
11.8788862370737
20
23.6860331168061
30
0
41
1
10
11.8943375672974
20
23.6665017920809
30
0
0
SPLINE
5
17C
100
AcDbEntity
8
1
62
256
6
ByLayer
370
18
48
1
60
0
100
AcDbSpline
70
4
71
3
72
22
73
18
40
0
40
0
40
0
40
0
40
0.249999999999999
40
0.249999999999999
40
0.374999999999997
40
0.374999999999997
40
0.499999999999994
40
0.499999999999994
40
0.624999999999992
40
0.624999999999992
40
0.74999999999999
40
0.74999999999999
40
0.812499999999992
40
0.812499999999992
40
0.874999999999995
40
0.874999999999995
40
1
40
1
40
1
40
1
41
1
10
8.10566243270262
20
-8.05584836782774
30
0
41
1
10
8.12110769698504
20
-7.9984916943491
30
0
41
1
10
8.13959628273543
20
-7.94218253951254
30
0
41
1
10
8.17354242877875
20
-7.85991012495418
30
0
41
1
10
8.1859037300309
20
-7.83285506058491
30
0
41
1
10
8.21325377892236
20
-7.77968328642041
30
0
41
1
10
8.22831574375681
20
-7.75344388356993
30
0
41
1
10
8.26152302146915
20
-7.70292805784925
30
0
41
1
10
8.27962274066834
20
-7.6786635375118
30
0
41
1
10
8.31997574676953
20
-7.63291014136058
30
0
41
1
10
8.34204823512977
20
-7.61165433162091
30
0
41
1
10
8.37845386159617
20
-7.58390025536193
30
0
41
1
10
8.39116971420623
20
-7.57531366225012
30
0
41
1
10
8.41805465341355
20
-7.55980672066906
30
0
41
1
10
8.43218550139824
20
-7.55293791940397
30
0
41
1
10
8.47563983861085
20
-7.53610198950838
30
0
41
1
10
8.50697323176121
20
-7.52966679426473
30
0
41
1
10
8.53867513459477
20
-7.52966679426473
30
0
0
SPLINE
5
17D
100
AcDbEntity
8
1
62
256
6
ByLayer
370
18
48
1
60
0
100
AcDbSpline
70
4
71
3
72
16
73
12
40
0
40
0
40
0
40
0
40
0.250000000000024
40
0.250000000000024
40
0.500000000000048
40
0.500000000000048
40
0.625000000000061
40
0.625000000000061
40
0.750000000000073
40
0.750000000000073
40
1
40
1
40
1
40
1
41
1
10
42.3245000000016
20
-0.805787858622182
30
0
41
1
10
42.3245000000016
20
-0.794323394391313
30
0
41
1
10
42.3235753271722
20
-0.783540007997914
30
0
41
1
10
42.3185303945735
20
-0.764352915458488
30
0
41
1
10
42.314382390026
20
-0.756108947812805
30
0
41
1
10
42.3044326430874
20
-0.748890141927319
30
0
41
1
10
42.300470474293
20
-0.747385387403511
30
0
41
1
10
42.2915612701954
20
-0.746674702853966
30
0
41
1
10
42.2865760468594
20
-0.747470256508137
30
0
41
1
10
42.2710425830605
20
-0.75289524861256
30
0
41
1
10
42.2600338082371
20
-0.760392930856796
30
0
41
1
10
42.2494999999999
20
-0.769500195746389
30
0
0
SPLINE
5
17E
100
AcDbEntity
8
1
62
256
6
ByLayer
370
18
48
1
60
0
100
AcDbSpline
70
4
71
3
72
8
73
4
40
0
40
0
40
0
40
0
40
1
40
1
40
1
40
1
41
1
10
42.2495
20
13.1901505255432
30
0
41
1
10
42.0449699968898
20
13.5178950367451
30
0
41
1
10
41.8291937177712
20
13.8355374642902
30
0
41
1
10
41.6054999999937
20
14.1460679707316
30
0
0
SPLINE
5
17F
100
AcDbEntity
8
1
62
256
6
ByLayer
370
18
48
1
60
0
100
AcDbSpline
70
4
71
3
72
8
73
4
40
0
40
0
40
0
40
0
40
1
40
1
40
1
40
1
41
1
10
42.2495
20
16.664871019835
30
0
41
1
10
42.0359354469354
20
16.8760830358334
30
0
41
1
10
41.8211953437772
20
17.0856905884359
30
0
41
1
10
41.6055
20
17.2939943696249
30
0
0
SPLINE
5
180
100
AcDbEntity
8
1
62
256
6
ByLayer
370
18
48
1
60
0
100
AcDbSpline
70
4
71
3
72
8
73
4
40
0
40
0
40
0
40
0
40
1
40
1
40
1
40
1
41
1
10
41.6055
20
24.718310532624
30
0
41
1
10
41.8208468077431
20
24.5017897467223
30
0
41
1
10
42.0355383552333
20
24.284406329373
30
0
41
1
10
42.2495
20
24.0660620158908
30
0
0
SPLINE
5
181
100
AcDbEntity
8
1
62
256
6
ByLayer
370
18
48
1
60
0
100
AcDbSpline
70
4
71
3
72
14
73
10
40
0
40
0
40
0
40
0
40
0.25
40
0.25
40
0.5
40
0.5
40
0.75
40
0.75
40
1
40
1
40
1
40
1
41
1
10
42.2495
20
-5.21495281872762
30
0
41
1
10
42.2594421157663
20
-5.20238245760086
30
0
41
1
10
42.2688604466112
20
-5.18992631875039
30
0
41
1
10
42.2860733291945
20
-5.16588229628678
30
0
41
1
10
42.2939309911731
20
-5.15422313655662
30
0
41
1
10
42.3077421095189
20
-5.13181988551932
30
0
41
1
10
42.3135644103324
20
-5.1212774923284
30
0
41
1
10
42.3219461335355
20
-5.10259862018097
30
0
41
1
10
42.3245000000009
20
-5.09440547665724
30
0
41
1
10
42.3245000000009
20
-5.08859110569688
30
0
0
SPLINE
5
182
100
AcDbEntity
8
1
62
256
6
ByLayer
370
18
48
1
60
0
100
AcDbSpline
70
4
71
3
72
14
73
10
40
0
40
0
40
0
40
0
40
0.25
40
0.25
40
0.5
40
0.5
40
0.75
40
0.75
40
1
40
1
40
1
40
1
41
1
10
42.3245
20
23.0885911056977
30
0
41
1
10
42.3245
20
23.0944762792782
30
0
41
1
10
42.3219646694255
20
23.1025730885475
30
0
41
1
10
42.3134657695619
20
23.1214813899949
30
0
41
1
10
42.3076576638288
20
23.1319667983823
30
0
41
1
10
42.2938287565169
20
23.154378905963
30
0
41
1
10
42.2858501552656
20
23.1662050363976
30
0
41
1
10
42.2686706661525
20
23.1901801511552
30
0
41
1
10
42.2593959172503
20
23.2024408689132
30
0
41
1
10
42.2495
20
23.2149528187276
30
0
0
SPLINE
5
183
100
AcDbEntity
8
1
62
256
6
ByLayer
370
18
48
1
60
0
100
AcDbSpline
70
4
71
3
72
26
73
22
40
0
40
0
40
0
40
0
40
0.125
40
0.125
40
0.250000000000001
40
0.250000000000001
40
0.375000000000002
40
0.375000000000002
40
0.500000000000002
40
0.500000000000002
40
0.625000000000003
40
0.625000000000003
40
0.687499999999999
40
0.687499999999999
40
0.749999999999996
40
0.749999999999996
40
0.812499999999992
40
0.812499999999992
40
0.874999999999988
40
0.874999999999988
40
1
40
1
40
1
40
1
41
1
10
41.6055
20
-2.5638910107493
30
0
41
1
10
41.5960493295775
20
-2.58176129678415
30
0
41
1
10
41.5871814269742
20
-2.5996025503992
30
0
41
1
10
41.5706253943952
20
-2.63522201440381
30
0
41
1
10
41.5629184114111
20
-2.65305461841828
30
0
41
1
10
41.5490591808351
20
-2.68807426221738
30
0
41
1
10
41.542872420517
20
-2.70532037646967
30
0
41
1
10
41.5323054810601
20
-2.73917273895313
30
0
41
1
10
41.5278851986168
20
-2.75591243254957
30
0
41
1
10
41.5217790680737
20
-2.78785520589631
30
0
41
1
10
41.520061806801
20
-2.80293936691933
30
0
41
1
10
41.520856800308
20
-2.82335132556889
30
0
41
1
10
41.5217056690621
20
-2.82968452112357
30
0
41
1
10
41.5249196991536
20
-2.84082800790458
30
0
41
1
10
41.5273336886007
20
-2.84573403172996
30
0
41
1
10
41.5340693015642
20
-2.85310864340136
30
0
41
1
10
41.5384805347243
20
-2.85560830943956
30
0
41
1
10
41.5490084006567
20
-2.85741140464523
30
0
41
1
10
41.5552471053831
20
-2.85673544252038
30
0
41
1
10
41.5754564096506
20
-2.85031734681164
30
0
41
1
10
41.5906709186585
20
-2.8404421540852
30
0
41
1
10
41.6055
20
-2.82822880618733
30
0
0
SPLINE
5
184
100
AcDbEntity
8
1
62
256
6
ByLayer
370
18
48
1
60
0
100
AcDbSpline
70
4
71
3
72
18
73
14
40
0
40
0
40
0
40
0
40
0.249739344011091
40
0.249739344011091
40
0.499478688022183
40
0.499478688022183
40
0.749218032033274
40
0.749218032033274
40
0.874087704038822
40
0.874087704038822
40
0.998957376044369
40
0.998957376044369
40
1
40
1
40
1
40
1
41
1
10
41.6055
20
-6.71831053262403
30
0
41
1
10
41.5944754996679
20
-6.7293951337895
30
0
41
1
10
41.5838078688338
20
-6.74013266221047
30
0
41
1
10
41.5640893453649
20
-6.75999771260493
30
0
41
1
10
41.5550223235927
20
-6.76914130379765
30
0
41
1
10
41.5390096076375
20
-6.78529991282943
30
0
41
1
10
41.5323333626195
20
-6.79204301175659
30
0
41
1
10
41.5253372180741
20
-6.7991113050268
30
0
41
1
10
41.523538259436
20
-6.80092929851654
30
0
41
1
10
41.5211013483995
20
-6.80339214826083
30
0
41
1
10
41.5204830275985
20
-6.80401715496936
30
0
41
1
10
41.5205000179884
20
-6.80399998181808
30
0
41
1
10
41.5205007213679
20
-6.80399927086294
30
0
41
1
10
41.5205014247286
20
-6.80399855988916
30
0
0
SPLINE
5
185
100
AcDbEntity
8
1
62
256
6
ByLayer
370
18
48
1
60
0
100
AcDbSpline
70
4
71
3
72
14
73
10
40
0
40
0
40
0
40
0
40
0.25
40
0.25
40
0.5
40
0.5
40
0.75
40
0.75
40
1
40
1
40
1
40
1
41
1
10
42.2495
20
20.2976112695867
30
0
41
1
10
42.2596835276341
20
20.2892171068577
30
0
41
1
10
42.2700881623099
20
20.2820602997862
30
0
41
1
10
42.2896412795497
20
20.2730146525224
30
0
41
1
10
42.2987161672675
20
20.2713427533697
30
0
41
1
10
42.3126080537397
20
20.2748749611696
30
0
41
1
10
42.3174509941179
20
20.2799276064817
30
0
41
1
10
42.3233327606758
20
20.2936661183256
30
0
41
1
10
42.3245000000031
20
20.3023536797774
30
0
41
1
10
42.324500000003
20
20.3117925379033
30
0
0
SPLINE
5
186
100
AcDbEntity
8
1
62
256
6
ByLayer
370
18
48
1
60
0
100
AcDbSpline
70
4
71
3
72
22
73
18
40
0
40
0
40
0
40
0
40
0.249999999999971
40
0.249999999999971
40
0.374999999999967
40
0.374999999999967
40
0.499999999999962
40
0.499999999999962
40
0.562499999999961
40
0.562499999999961
40
0.62499999999996
40
0.62499999999996
40
0.749999999999973
40
0.749999999999973
40
0.874999999999987
40
0.874999999999987
40
1
40
1
40
1
40
1
41
1
10
41.6055
20
-6.40071232404981
30
0
41
1
10
41.5844487710631
20
-6.42468234650275
30
0
41
1
10
41.5651564635438
20
-6.44782714891525
30
0
41
1
10
41.5421483682988
20
-6.47807853891661
30
0
41
1
10
41.5354160580683
20
-6.48750884488072
30
0
41
1
10
41.5253331633762
20
-6.50336502893583
30
0
41
1
10
41.5218740451311
20
-6.50998070420886
30
0
41
1
10
41.5203167438937
20
-6.51636774121866
30
0
41
1
10
41.5203991340239
20
-6.51793690185266
30
0
41
1
10
41.5218505392975
20
-6.51970649788979
30
0
41
1
10
41.5232033922375
20
-6.51993493135407
30
0
41
1
10
41.529205069968
20
-6.51858985840198
30
0
41
1
10
41.5356873972149
20
-6.51496082195874
30
0
41
1
10
41.5520532093454
20
-6.50355004261846
30
0
41
1
10
41.5617198351167
20
-6.49594850935861
30
0
41
1
10
41.5827867426636
20
-6.47831095416586
30
0
41
1
10
41.5939163852577
20
-6.46850836974497
30
0
41
1
10
41.6055
20
-6.45796338176089
30
0
0
SPLINE
5
187
100
AcDbEntity
8
1
62
256
6
ByLayer
370
18
48
1
60
0
100
AcDbSpline
70
4
71
3
72
8
73
4
40
0
40
0
40
0
40
0
40
1
40
1
40
1
40
1
41
1
10
41.6055
20
0.706005630375103
30
0
41
1
10
41.8211953437772
20
0.914309411564119
30
0
41
1
10
42.0359354469355
20
1.12391696416665
30
0
41
1
10
42.2495
20
1.33512898016508
30
0
0
SPLINE
5
188
100
AcDbEntity
8
1
62
256
6
ByLayer
370
18
48
1
60
0
100
AcDbSpline
70
4
71
3
72
8
73
4
40
0
40
0
40
0
40
0
40
1
40
1
40
1
40
1
41
1
10
42.2495000000001
20
3.45723881241255
30
0
41
1
10
42.0666055459679
20
2.69273492831147
30
0
41
1
10
41.8503984452163
20
1.94090306525808
30
0
41
1
10
41.6055
20
1.19998529510178
30
0
0
SPLINE
5
189
100
AcDbEntity
8
1
62
256
6
ByLayer
370
18
48
1
60
0
100
AcDbSpline
70
4
71
3
72
8
73
4
40
0
40
0
40
0
40
0
40
1
40
1
40
1
40
1
41
1
10
41.6055
20
-5.58876203876531
30
0
41
1
10
41.8202658629212
20
-5.40710242172972
30
0
41
1
10
42.0349363755451
20
-5.22529238258102
30
0
41
1
10
42.2495
20
-5.04331440119049
30
0
0
SPLINE
5
18A
100
AcDbEntity
8
1
62
256
6
ByLayer
370
18
48
1
60
0
100
AcDbSpline
70
4
71
3
72
8
73
4
40
0
40
0
40
0
40
0
40
1
40
1
40
1
40
1
41
1
10
41.6055
20
3.85393202927716
30
0
41
1
10
41.8291937177752
20
4.16446253571584
30
0
41
1
10
42.0449699968917
20
4.482104963258
30
0
41
1
10
42.2495
20
4.80984947445683
30
0
0
SPLINE
5
18B
100
AcDbEntity
8
1
62
256
6
ByLayer
370
18
48
1
60
0
100
AcDbSpline
70
4
71
3
72
22
73
18
40
0
40
0
40
0
40
0
40
0.124999999999997
40
0.124999999999997
40
0.249999999999994
40
0.249999999999994
40
0.374999999999992
40
0.374999999999992
40
0.43749999999999
40
0.43749999999999
40
0.499999999999989
40
0.499999999999989
40
0.624999999999991
40
0.624999999999991
40
0.749999999999993
40
0.749999999999993
40
1
40
1
40
1
40
1
41
1
10
41.6055
20
22.8932951735594
30
0
41
1
10
41.5923897919611
20
22.9041223286666
30
0
41
1
10
41.5794532267683
20
22.9135790463365
30
0
41
1
10
41.5556664555314
20
22.9272949607354
30
0
41
1
10
41.5448178774582
20
22.9313954766623
30
0
41
1
10
41.5289697179716
20
22.931536873672
30
0
41
1
10
41.5239391821993
20
22.9276146247032
30
0
41
1
10
41.5207436371656
20
22.917486852346
30
0
41
1
10
41.5203576388296
20
22.9133751226588
30
0
41
1
10
41.5207360312479
20
22.9042499861399
30
0
41
1
10
41.5214840531057
20
22.8992382854602
30
0
41
1
10
41.5250781219021
20
22.8831153921803
30
0
41
1
10
41.5292894226803
20
22.8709116750718
30
0
41
1
10
41.5399279896784
20
22.8454337851257
30
0
41
1
10
41.5464701116893
20
22.8318876105376
30
0
41
1
10
41.5683265272113
20
22.7906651930248
30
0
41
1
10
41.5857588597082
20
22.7623653527675
30
0
41
1
10
41.6055
20
22.7334235069173
30
0
0
SPLINE
5
18C
100
AcDbEntity
8
1
62
256
6
ByLayer
370
18
48
1
60
0
100
AcDbSpline
70
4
71
3
72
8
73
4
40
0
40
0
40
0
40
0
40
1
40
1
40
1
40
1
41
1
10
41.6055
20
-6.10431411444392
30
0
41
1
10
41.8203606627147
20
-5.916458279648
30
0
41
1
10
42.035034489883
20
-5.72831822367732
30
0
41
1
10
42.2495
20
-5.53986126806853
30
0
0
SPLINE
5
18D
100
AcDbEntity
8
1
62
256
6
ByLayer
370
18
48
1
60
0
100
AcDbSpline
70
4
71
3
72
14
73
10
40
0
40
0
40
0
40
0
40
0.25
40
0.25
40
0.5
40
0.5
40
0.75
40
0.75
40
1
40
1
40
1
40
1
41
1
10
42.2495
20
-5.93918039889277
30
0
41
1
10
42.2592688422694
20
-5.92856048836575
30
0
41
1
10
42.268549517462
20
-5.91827146151891
30
0
41
1
10
42.285948126181
20
-5.89847273585772
30
0
41
1
10
42.2939811056153
20
-5.88905520878612
30
0
41
1
10
42.3078292065754
20
-5.87206138202552
30
0
41
1
10
42.3137760629921
20
-5.86431418153106
30
0
41
1
10
42.322094334401
20
-5.85206144034987
30
0
41
1
10
42.3245
20
-5.84748294902249
30
0
41
1
10
42.3245
20
-5.84527027571269
30
0
0
SPLINE
5
18E
100
AcDbEntity
8
1
62
256
6
ByLayer
370
18
48
1
60
0
100
AcDbSpline
70
4
71
3
72
14
73
10
40
0
40
0
40
0
40
0
40
0.25
40
0.25
40
0.5
40
0.5
40
0.75
40
0.75
40
1
40
1
40
1
40
1
41
1
10
42.2495
20
24.0430495027661
30
0
41
1
10
42.2592482878273
20
24.0336475253952
30
0
41
1
10
42.2685465544727
20
24.0247712727701
30
0
41
1
10
42.285982030222
20
24.0083488319076
30
0
41
1
10
42.2942152401408
20
24.0007164845316
30
0
41
1
10
42.3082186343777
20
23.988059206774
30
0
41
1
10
42.3141667305962
20
23.9828763154634
30
0
41
1
10
42.3222899299582
20
23.9763620848711
30
0
41
1
10
42.3245
20
23.9750110107122
30
0
41
1
10
42.3245
20
23.9758371977788
30
0
0
SPLINE
5
18F
100
AcDbEntity
8
1
62
256
6
ByLayer
370
18
48
1
60
0
100
AcDbSpline
70
4
71
3
72
14
73
10
40
0
40
0
40
0
40
0
40
0.25
40
0.25
40
0.5
40
0.5
40
0.75
40
0.75
40
1
40
1
40
1
40
1
41
1
10
42.3245
20
23.9859559143441
30
0
41
1
10
42.3245
20
23.9866037881909
30
0
41
1
10
42.3221714238466
20
23.9895583980661
30
0
41
1
10
42.3139277494105
20
23.9989068493278
30
0
41
1
10
42.3079656550488
20
24.0053619807908
30
0
41
1
10
42.2940017220874
20
24.0201650892682
30
0
41
1
10
42.2858258606707
20
24.0286994782738
30
0
41
1
10
42.2684583541967
20
24.0466629130138
30
0
41
1
10
42.2592129025008
20
24.056150159816
30
0
41
1
10
42.2495
20
24.0660620158908
30
0
0
SPLINE
5
190
100
AcDbEntity
8
1
62
256
6
ByLayer
370
18
48
1
60
0
100
AcDbSpline
70
4
71
3
72
8
73
4
40
0
40
0
40
0
40
0
40
1
40
1
40
1
40
1
41
1
10
42.2495
20
0.601826671315365
30
0
41
1
10
42.0485705188501
20
0.0682220526490767
30
0
41
1
10
41.8332755239774
20
-0.457567575264591
30
0
41
1
10
41.6055
20
-0.976567663909208
30
0
0
SPLINE
5
191
100
AcDbEntity
8
1
62
256
6
ByLayer
370
18
48
1
60
0
100
AcDbSpline
70
4
71
3
72
14
73
10
40
0
40
0
40
0
40
0
40
0.25
40
0.25
40
0.5
40
0.5
40
0.75
40
0.75
40
1
40
1
40
1
40
1
41
1
10
42.3245
20
-5.81460512069361
30
0
41
1
10
42.3245
20
-5.81233940909306
30
0
41
1
10
42.3224398714727
20
-5.81213426858454
30
0
41
1
10
42.3144191214464
20
-5.81584376200527
30
0
41
1
10
42.3085353513391
20
-5.81972965485167
30
0
41
1
10
42.2944025477758
20
-5.83036711607616
30
0
41
1
10
42.2861624186444
20
-5.83710201106408
30
0
41
1
10
42.2684926224885
20
-5.85225546322016
30
0
41
1
10
42.2591815631082
20
-5.86056416255585
30
0
41
1
10
42.2495
20
-5.86944693049057
30
0
0
SPLINE
5
192
100
AcDbEntity
8
1
62
256
6
ByLayer
370
18
48
1
60
0
100
AcDbSpline
70
4
71
3
72
8
73
4
40
0
40
0
40
0
40
0
40
1
40
1
40
1
40
1
41
1
10
41.6055
20
21.7833973678525
30
0
41
1
10
41.8251085260618
20
21.4226315723511
30
0
41
1
10
42.0399891728598
20
21.0581547059221
30
0
41
1
10
42.2495
20
20.6894628880304
30
0
0
SPLINE
5
193
100
AcDbEntity
8
1
62
256
6
ByLayer
370
18
48
1
60
0
100
AcDbSpline
70
4
71
3
72
14
73
10
40
0
40
0
40
0
40
0
40
0.249787814295695
40
0.249787814295695
40
0.499858542863796
40
0.499858542863796
40
0.749929271431898
40
0.749929271431898
40
1
40
1
40
1
40
1
41
1
10
41.5205004918155
20
24.8039995028924
30
0
41
1
10
41.5205409759935
20
24.8039585822016
30
0
41
1
10
41.5231637641321
20
24.8013071253125
30
0
41
1
10
41.5325154208193
20
24.7918591255599
30
0
41
1
10
41.5392913352133
20
24.7850155171327
30
0
41
1
10
41.5551564238929
20
24.7690060856687
30
0
41
1
10
41.5644404254051
20
24.7596438308681
30
0
41
1
10
41.5840946369669
20
24.7398439623325
30
0
41
1
10
41.5945399473858
20
24.7293303347303
30
0
41
1
10
41.6055
20
24.718310532624
30
0
0
SPLINE
5
194
100
AcDbEntity
8
1
62
256
6
ByLayer
370
18
48
1
60
0
100
AcDbSpline
70
4
71
3
72
14
73
10
40
0
40
0
40
0
40
0
40
0.25
40
0.25
40
0.5
40
0.5
40
0.75
40
0.75
40
1
40
1
40
1
40
1
41
1
10
42.3245
20
-5.97583719777876
30
0
41
1
10
42.3245
20
-5.97501015180703
30
0
41
1
10
42.322284241245
20
-5.97636562136424
30
0
41
1
10
42.3141413209643
20
-5.98289772156673
30
0
41
1
10
42.3081754435487
20
-5.98809696900844
30
0
41
1
10
42.294114874461
20
-6.00080849213572
30
0
41
1
10
42.2858499281061
20
-6.00847212014793
30
0
41
1
10
42.2684278986169
20
-6.02488418949133
30
0
41
1
10
42.2591822534426
20
-6.03371121389128
30
0
41
1
10
42.2495
20
-6.04304950276608
30
0
0
SPLINE
5
195
100
AcDbEntity
8
1
62
256
6
ByLayer
370
18
48
1
60
0
100
AcDbSpline
70
4
71
3
72
26
73
22
40
0
40
0
40
0
40
0
40
0.125
40
0.125
40
0.250000000000001
40
0.250000000000001
40
0.375000000000001
40
0.375000000000001
40
0.500000000000001
40
0.500000000000001
40
0.5625
40
0.5625
40
0.624999999999999
40
0.624999999999999
40
0.749999999999997
40
0.749999999999997
40
0.812499999999996
40
0.812499999999996
40
0.874999999999994
40
0.874999999999994
40
1
40
1
40
1
40
1
41
1
10
41.6055
20
-3.78339736785253
30
0
41
1
10
41.5958196882104
20
-3.79929987148529
30
0
41
1
10
41.5867119718737
20
-3.81514109658073
30
0
41
1
10
41.569686947017
20
-3.84669130369247
30
0
41
1
10
41.5617646247039
20
-3.86242254007709
30
0
41
1
10
41.5475953059454
20
-3.89307860119757
30
0
41
1
10
41.5412978426813
20
-3.9080832569108
30
0
41
1
10
41.5306869842944
20
-3.93727754821782
30
0
41
1
10
41.5263523278394
20
-3.95157072338267
30
0
41
1
10
41.5222623307521
20
-3.97120931955197
30
0
41
1
10
41.521291475984
20
-3.97748308827883
30
0
41
1
10
41.5203456260816
20
-3.98934185714287
30
0
41
1
10
41.5203814606916
20
-3.99494066266922
30
0
41
1
10
41.5224213013725
20
-4.00976804768817
30
0
41
1
10
41.5264612862223
20
-4.01736143517346
30
0
41
1
10
41.5378369413517
20
-4.02192937784105
30
0
41
1
10
41.5424508085518
20
-4.0222907317337
30
0
41
1
10
41.5529361720567
20
-4.02069299185541
30
0
41
1
10
41.558945980364
20
-4.01869172504362
30
0
41
1
10
41.5777643120644
20
-4.00991221840258
30
0
41
1
10
41.5917029983009
20
-4.0003139838399
30
0
41
1
10
41.6055
20
-3.98904629815391
30
0
0
SPLINE
5
196
100
AcDbEntity
8
1
62
256
6
ByLayer
370
18
48
1
60
0
100
AcDbSpline
70
4
71
3
72
12
73
8
40
0
40
0
40
0
40
0
40
0.499999999999981
40
0.499999999999981
40
0.74999999999999
40
0.74999999999999
40
1
40
1
40
1
40
1
41
1
10
42.2495
20
-5.65851279341317
30
0
41
1
10
42.2691752580471
20
-5.63555145447057
30
0
41
1
10
42.2870773639101
20
-5.61323231465133
30
0
41
1
10
42.3077389094137
20
-5.58406663606613
30
0
41
1
10
42.3136601331486
20
-5.57494185952197
30
0
41
1
10
42.3220227856857
20
-5.55961521943325
30
0
41
1
10
42.3245000000001
20
-5.55331807648875
30
0
41
1
10
42.3245000000001
20
-5.54940632641922
30
0
0
SPLINE
5
197
100
AcDbEntity
8
1
62
256
6
ByLayer
370
18
48
1
60
0
100
AcDbSpline
70
4
71
3
72
8
73
4
40
0
40
0
40
0
40
0
40
1
40
1
40
1
40
1
41
1
10
42.2495
20
23.8694469304906
30
0
41
1
10
42.0351628256359
20
24.0660998220099
30
0
41
1
10
41.820484571849
20
24.262255066409
30
0
41
1
10
41.6055
20
24.4579633817609
30
0
0
SPLINE
5
198
100
AcDbEntity
8
1
62
256
6
ByLayer
370
18
48
1
60
0
100
AcDbSpline
70
4
71
3
72
8
73
4
40
0
40
0
40
0
40
0
40
1
40
1
40
1
40
1
41
1
10
41.6055
20
-2.8282288061869
30
0
41
1
10
41.8201958861166
20
-2.65140358761843
30
0
41
1
10
42.0348639249866
20
-2.47453327597975
30
0
41
1
10
42.2495
20
-2.29761126958689
30
0
0
SPLINE
5
199
100
AcDbEntity
8
1
62
256
6
ByLayer
370
18
48
1
60
0
100
AcDbSpline
70
4
71
3
72
20
73
16
40
0
40
0
40
0
40
0
40
0.0625000000000038
40
0.0625000000000038
40
0.125000000000008
40
0.125000000000008
40
0.250000000000007
40
0.250000000000007
40
0.375000000000007
40
0.375000000000007
40
0.500000000000007
40
0.500000000000007
40
0.750000000000003
40
0.750000000000003
40
1
40
1
40
1
40
1
41
1
10
8.53867513459485
20
-23.8391299750503
30
0
41
1
10
8.52279868798013
20
-23.8391299750503
30
0
41
1
10
8.50721568825676
20
-23.8386381480423
30
0
41
1
10
8.47658412125807
20
-23.8367571199657
30
0
41
1
10
8.46140599697398
20
-23.8353503028192
30
0
41
1
10
8.41759599948895
20
-23.8299833264009
30
0
41
1
10
8.39103491659969
20
-23.824989671385
30
0
41
1
10
8.34170754400517
20
-23.813005969379
30
0
41
1
10
8.31983115452971
20
-23.8062336877526
30
0
41
1
10
8.27975402284389
20
-23.7916155212569
30
0
41
1
10
8.26148999258896
20
-23.7837098766636
30
0
41
1
10
8.2117396173519
20
-23.7591079584198
30
0
41
1
10
8.18512193927677
20
-23.7416171457992
30
0
41
1
10
8.13975567725328
20
-23.7051129235882
30
0
41
1
10
8.1211137629262
20
-23.6860331168061
30
0
41
1
10
8.10566243270247
20
-23.6665017920809
30
0
0
SPLINE
5
19A
100
AcDbEntity
8
1
62
256
6
ByLayer
370
18
48
1
60
0
100
AcDbSpline
70
4
71
3
72
8
73
4
40
0
40
0
40
0
40
0
40
1
40
1
40
1
40
1
41
1
10
42.2495
20
23.0433144011905
30
0
41
1
10
42.0349363755451
20
23.225292382581
30
0
41
1
10
41.8202658629212
20
23.4071024217298
30
0
41
1
10
41.6055
20
23.5887620387653
30
0
0
SPLINE
5
19B
100
AcDbEntity
8
1
62
256
6
ByLayer
370
18
48
1
60
0
100
AcDbSpline
70
4
71
3
72
20
73
16
40
0
40
0
40
0
40
0
40
0.0624999999999987
40
0.0624999999999987
40
0.124999999999997
40
0.124999999999997
40
0.249999999999997
40
0.249999999999997
40
0.374999999999998
40
0.374999999999998
40
0.499999999999998
40
0.499999999999998
40
0.749999999999999
40
0.749999999999999
40
1
40
1
40
1
40
1
41
1
10
11.4613248654051
20
-7.5296667942651
30
0
41
1
10
11.4772013120198
20
-7.5296667942651
30
0
41
1
10
11.4927843117432
20
-7.53122440152956
30
0
41
1
10
11.5234158787419
20
-7.53717584664562
30
0
41
1
10
11.538594003026
20
-7.54162522662267
30
0
41
1
10
11.582404000511
20
-7.55857361750111
30
0
41
1
10
11.6089650834002
20
-7.57431556968115
30
0
41
1
10
11.6582924559948
20
-7.61190750686265
30
0
41
1
10
11.6801688454702
20
-7.63307325241206
30
0
41
1
10
11.720245977156
20
-7.67851551807127
30
0
41
1
10
11.7385100074109
20
-7.70297658390788
30
0
41
1
10
11.788260382648
20
-7.77866338250453
30
0
41
1
10
11.8148780607231
20
-7.83191947486046
30
0
41
1
10
11.8602443227466
20
-7.94172327888185
30
0
41
1
10
11.8788862370737
20
-7.99846916820707
30
0
41
1
10
11.8943375672975
20
-8.05584836782771
30
0
0
SPLINE
5
19C
100
AcDbEntity
8
1
62
256
6
ByLayer
370
18
48
1
60
0
100
AcDbSpline
70
4
71
3
72
26
73
22
40
0
40
0
40
0
40
0
40
0.0624999999999941
40
0.0624999999999941
40
0.0937499999999911
40
0.0937499999999911
40
0.124999999999988
40
0.124999999999988
40
0.187499999999992
40
0.187499999999992
40
0.249999999999997
40
0.249999999999997
40
0.374999999999998
40
0.374999999999998
40
0.499999999999999
40
0.499999999999999
40
0.625000000000001
40
0.625000000000001
40
0.750000000000002
40
0.750000000000002
40
1
40
1
40
1
40
1
41
1
10
41.605500000001
20
17.2939943696278
30
0
41
1
10
41.5959989241314
20
17.3031698575841
30
0
41
1
10
41.5858638857553
20
17.3110165174941
30
0
41
1
10
41.5706712189837
20
17.3174296237414
30
0
41
1
10
41.5657085906512
20
17.3186005709783
30
0
41
1
10
41.5564049528667
20
17.3186405785529
30
0
41
1
10
41.5521202378956
20
17.3174983325516
30
0
41
1
10
41.5408437021558
20
17.3111813524807
30
0
41
1
10
41.5354920144169
20
17.3033645676869
30
0
41
1
10
41.5276841395793
20
17.2849398516989
30
0
41
1
10
41.5251886418262
20
17.2743067698908
30
0
41
1
10
41.5201666391899
20
17.2410263819816
30
0
41
1
10
41.5199416735382
20
17.2168228449684
30
0
41
1
10
41.5222886504303
20
17.1669053891716
30
0
41
1
10
41.5249603294812
20
17.1413827507739
30
0
41
1
10
41.5321803867062
20
17.0896091365419
30
0
41
1
10
41.5367529648605
20
17.0633942630892
30
0
41
1
10
41.5472331069995
20
17.0110248256917
30
0
41
1
10
41.5531603578125
20
16.9847768918095
30
0
41
1
10
41.5726834417356
20
16.9058677423795
30
0
41
1
10
41.5879719682517
20
16.8530441562968
30
0
41
1
10
41.6055
20
16.8000147048982
30
0
0
SPLINE
5
19D
100
AcDbEntity
8
1
62
256
6
ByLayer
370
18
48
1
60
0
100
AcDbSpline
70
4
71
3
72
14
73
10
40
0
40
0
40
0
40
0
40
0.25
40
0.25
40
0.5
40
0.5
40
0.75
40
0.75
40
1
40
1
40
1
40
1
41
1
10
42.2495
20
21.4631018098503
30
0
41
1
10
42.2595285451955
20
21.454911578263
30
0
41
1
10
42.2693787576544
20
21.4478868517298
30
0
41
1
10
42.2883493100186
20
21.4374400764857
30
0
41
1
10
42.297175431408
20
21.4343141674245
30
0
41
1
10
42.3112592682041
20
21.4337380572478
30
0
41
1
10
42.3165617376619
20
21.4363049691996
30
0
41
1
10
42.3231105804424
20
21.445697632288
30
0
41
1
10
42.3245000000006
20
21.4525000394182
30
0
41
1
10
42.3245000000006
20
21.4603300643642
30
0
0
SPLINE
5
19E
100
AcDbEntity
8
1
62
256
6
ByLayer
370
18
48
1
60
0
100
AcDbSpline
70
4
71
3
72
8
73
4
40
0
40
0
40
0
40
0
40
1
40
1
40
1
40
1
41
1
10
42.2495
20
-2.68946288803036
30
0
41
1
10
42.0399891728598
20
-3.05815470592208
30
0
41
1
10
41.8251085260618
20
-3.42263157235109
30
0
41
1
10
41.6055
20
-3.78339736785253
30
0
0
SPLINE
5
19F
100
AcDbEntity
8
1
62
256
6
ByLayer
370
18
48
1
60
0
100
AcDbSpline
70
4
71
3
72
8
73
4
40
0
40
0
40
0
40
0
40
1
40
1
40
1
40
1
41
1
10
42.2495
20
-1.28768336092409
30
0
41
1
10
42.0427804369158
20
-1.71843292543352
30
0
41
1
10
41.8277685085049
20
-2.14360317444235
30
0
41
1
10
41.6055
20
-2.5638910107493
30
0
0
SPLINE
5
1A0
100
AcDbEntity
8
1
62
256
6
ByLayer
370
18
48
1
60
0
100
AcDbSpline
70
4
71
3
72
14
73
10
40
0
40
0
40
0
40
0
40
0.25
40
0.25
40
0.5
40
0.5
40
0.75
40
0.75
40
1
40
1
40
1
40
1
41
1
10
42.2495
20
23.5398612680685
30
0
41
1
10
42.2592240950433
20
23.5313164286353
30
0
41
1
10
42.2687784808572
20
23.5233216168232
30
0
41
1
10
42.2865180846811
20
23.5095172010961
30
0
41
1
10
42.294846895995
20
23.5035991411728
30
0
41
1
10
42.309021750586
20
23.4951009875526
30
0
41
1
10
42.3148564932133
20
23.4925606678928
30
0
41
1
10
42.3225654882072
20
23.491813492071
30
0
41
1
10
42.3245
20
23.4936117517551
30
0
41
1
10
42.3245
20
23.497218698419
30
0
0
SPLINE
5
1A1
100
AcDbEntity
8
1
62
256
6
ByLayer
370
18
48
1
60
0
100
AcDbSpline
70
4
71
3
72
14
73
10
40
0
40
0
40
0
40
0
40
0.25
40
0.25
40
0.5
40
0.5
40
0.75
40
0.75
40
1
40
1
40
1
40
1
41
1
10
42.3245
20
-3.46033006436468
30
0
41
1
10
42.3245
20
-3.45244731960406
30
0
41
1
10
42.323147231239
20
-3.44575450150475
30
0
41
1
10
42.3165338839139
20
-3.43626072284928
30
0
41
1
10
42.3111988494931
20
-3.43372758028084
30
0
41
1
10
42.2971316331625
20
-3.43432900380859
30
0
41
1
10
42.2882919242977
20
-3.43747571142248
30
0
41
1
10
42.26950631544
20
-3.44781258921248
30
0
41
1
10
42.2594638972546
20
-3.45496437571225
30
0
41
1
10
42.2495
20
-3.46310180985012
30
0
0
SPLINE
5
1A2
100
AcDbEntity
8
1
62
256
6
ByLayer
370
18
48
1
60
0
100
AcDbSpline
70
4
71
3
72
8
73
4
40
0
40
0
40
0
40
0
40
1
40
1
40
1
40
1
41
1
10
42.2495
20
-5.65851279341317
30
0
41
1
10
42.0361756971328
20
-5.90746564633682
30
0
41
1
10
41.8214601253758
20
-6.15480891053787
30
0
41
1
10
41.6055
20
-6.40071232404981
30
0
0
SPLINE
5
1A3
100
AcDbEntity
8
1
62
256
6
ByLayer
370
18
48
1
60
0
100
AcDbSpline
70
4
71
3
72
12
73
8
40
0
40
0
40
0
40
0
40
0.500000000000001
40
0.500000000000001
40
0.75
40
0.75
40
1
40
1
40
1
40
1
41
1
10
42.2495000000005
20
3.45723881241258
30
0
41
1
10
42.2719654923217
20
3.55114519261824
30
0
41
1
10
42.2894866931704
20
3.64517383440517
30
0
41
1
10
42.3090138371483
20
3.78643155703486
30
0
41
1
10
42.3143440367861
20
3.83347144017154
30
0
41
1
10
42.3220441941806
20
3.92687835016349
30
0
41
1
10
42.3245
20
3.97333064498758
30
0
41
1
10
42.3245
20
4.01929234974602
30
0
0
SPLINE
5
1A4
100
AcDbEntity
8
1
62
256
6
ByLayer
370
18
48
1
60
0
100
AcDbSpline
70
4
71
3
72
8
73
4
40
0
40
0
40
0
40
0
40
1
40
1
40
1
40
1
41
1
10
41.6055
20
24.0163333451349
30
0
41
1
10
41.8219338484439
20
23.7511000100563
30
0
41
1
10
42.0366690653106
20
23.4840466183653
30
0
41
1
10
42.2495
20
23.2149528187276
30
0
0
SPLINE
5
1A5
100
AcDbEntity
8
1
62
256
6
ByLayer
370
18
48
1
60
0
100
AcDbSpline
70
4
71
3
72
12
73
8
40
0
40
0
40
0
40
0
40
0.573509267114387
40
0.573509267114387
40
0.860263900671608
40
0.860263900671608
40
1
40
1
40
1
40
1
41
1
10
41.6055
20
24.6606819441533
30
0
41
1
10
41.5828740164312
20
24.6822637864365
30
0
41
1
10
41.5615785724027
20
24.7019823017567
30
0
41
1
10
41.5373661681723
20
24.7227335759311
30
0
41
1
10
41.5307180345657
20
24.7280413748142
30
0
41
1
10
41.5242744109115
20
24.7323058529331
30
0
41
1
10
41.5227154147647
20
24.7331150508787
30
0
41
1
10
41.5217348857163
20
24.73333019656
30
0
0
SPLINE
5
1A6
100
AcDbEntity
8
1
62
256
6
ByLayer
370
18
48
1
60
0
100
AcDbSpline
70
4
71
3
72
16
73
12
40
0
40
0
40
0
40
0
40
0.0248222772223066
40
0.0248222772223066
40
0.26861670791673
40
0.26861670791673
40
0.512411138611153
40
0.512411138611153
40
0.756205569305577
40
0.756205569305577
40
1
40
1
40
1
40
1
41
1
10
41.5205041303887
20
24.7326037808375
30
0
41
1
10
41.5205069809812
20
24.7324385260962
30
0
41
1
10
41.5205360516328
20
24.7322471157295
30
0
41
1
10
41.5211369779532
20
24.7298921088132
30
0
41
1
10
41.5242117394882
20
24.7252031637545
30
0
41
1
10
41.5340008699192
20
24.7124427688096
30
0
41
1
10
41.5407720094601
20
24.7042767702902
30
0
41
1
10
41.5563778393302
20
24.6861876297347
30
0
41
1
10
41.5654067401733
20
24.6760368388836
30
0
41
1
10
41.5845812524088
20
24.6549179180248
30
0
41
1
10
41.5947798678576
20
24.6438854980846
30
0
41
1
10
41.6055
20
24.6324538394991
30
0
0
SPLINE
5
1A7
100
AcDbEntity
8
1
62
256
6
ByLayer
370
18
48
1
60
0
100
AcDbSpline
70
4
71
3
72
24
73
20
40
0
40
0
40
0
40
0
40
0.249999999999995
40
0.249999999999995
40
0.375000000000002
40
0.375000000000002
40
0.500000000000009
40
0.500000000000009
40
0.625000000000016
40
0.625000000000016
40
0.68750000000002
40
0.68750000000002
40
0.750000000000025
40
0.750000000000025
40
0.875000000000013
40
0.875000000000013
40
0.937500000000007
40
0.937500000000007
40
1
40
1
40
1
40
1
41
1
10
41.6055
20
-4.73342350691732
30
0
41
1
10
41.5857014326439
20
-4.76244954472494
30
0
41
1
10
41.5679133955476
20
-4.79138149358744
30
0
41
1
10
41.5462427725416
20
-4.83234878130847
30
0
41
1
10
41.5398178337016
20
-4.84566344300083
30
0
41
1
10
41.5291417249985
20
-4.87130037393183
30
0
41
1
10
41.5250354428614
20
-4.88325239616171
30
0
41
1
10
41.5202702011357
20
-4.90473871527576
30
0
41
1
10
41.5196714735777
20
-4.91417693916941
30
0
41
1
10
41.5229148663141
20
-4.92432337894559
30
0
41
1
10
41.5247026602585
20
-4.92701928111191
30
0
41
1
10
41.5297563239098
20
-4.93060995006635
30
0
41
1
10
41.5331005307614
20
-4.93152674100017
30
0
41
1
10
41.5449992604031
20
-4.93133862196296
30
0
41
1
10
41.555764081996
20
-4.92724508174078
30
0
41
1
10
41.573543440271
20
-4.91698351362263
30
0
41
1
10
41.5798369618822
20
-4.91284280444543
30
0
41
1
10
41.592539514375
20
-4.90369646535032
30
0
41
1
10
41.5989822218976
20
-4.89867792524885
30
0
41
1
10
41.6055
20
-4.89329517355955
30
0
0
SPLINE
5
1A8
100
AcDbEntity
8
1
62
256
6
ByLayer
370
18
48
1
60
0
100
AcDbSpline
70
4
71
3
72
22
73
18
40
0
40
0
40
0
40
0
40
0.250000000000002
40
0.250000000000002
40
0.375000000000002
40
0.375000000000002
40
0.500000000000002
40
0.500000000000002
40
0.625000000000002
40
0.625000000000002
40
0.750000000000001
40
0.750000000000001
40
0.812500000000001
40
0.812500000000001
40
0.875000000000001
40
0.875000000000001
40
1
40
1
40
1
40
1
41
1
10
11.8943375672973
20
-23.6665017920809
30
0
41
1
10
11.8788923030149
20
-23.6860254491252
30
0
41
1
10
11.8604037172645
20
-23.7049589195931
30
0
41
1
10
11.8264575712212
20
-23.7323123198157
30
0
41
1
10
11.814096269969
20
-23.7412544902042
30
0
41
1
10
11.7867462210776
20
-23.7587312609862
30
0
41
1
10
11.7716842562431
20
-23.7673055542944
30
0
41
1
10
11.7384769785308
20
-23.7837256270429
30
0
41
1
10
11.7203772593316
20
-23.7915679133937
30
0
41
1
10
11.6800242532304
20
-23.8062861503817
30
0
41
1
10
11.6579517648702
20
-23.8130866432223
30
0
41
1
10
11.6215461384038
20
-23.8219342456095
30
0
41
1
10
11.6088302857937
20
-23.8246655611125
30
0
41
1
10
11.5819453465864
20
-23.8295906076134
30
0
41
1
10
11.5678144986017
20
-23.8317679461286
30
0
41
1
10
11.5243601613891
20
-23.8370993498304
30
0
41
1
10
11.4930267682388
20
-23.8391299750505
30
0
41
1
10
11.4613248654052
20
-23.8391299750505
30
0
0
SPLINE
5
1A9
100
AcDbEntity
8
1
62
256
6
ByLayer
370
18
48
1
60
0
100
AcDbSpline
70
4
71
3
72
24
73
20
40
0
40
0
40
0
40
0
40
0.0625000000000011
40
0.0625000000000011
40
0.125000000000002
40
0.125000000000002
40
0.187500000000003
40
0.187500000000003
40
0.250000000000005
40
0.250000000000005
40
0.312500000000006
40
0.312500000000006
40
0.375000000000007
40
0.375000000000007
40
0.500000000000015
40
0.500000000000015
40
0.750000000000007
40
0.750000000000007
40
1
40
1
40
1
40
1
41
1
10
42.2494999999986
20
13.1901505255417
30
0
41
1
10
42.252650479603
20
13.1851021102367
30
0
41
1
10
42.2559980984989
20
13.1802410670877
30
0
41
1
10
42.2631903026624
20
13.17146785933
30
0
41
1
10
42.2671256027574
20
13.1674435368216
30
0
41
1
10
42.2755433272005
20
13.161732761914
30
0
41
1
10
42.2801295898292
20
13.1601421840464
30
0
41
1
10
42.288632245568
20
13.1611909146677
30
0
41
1
10
42.2923300996017
20
13.1636820839836
30
0
41
1
10
42.2984842085366
20
13.1705296674184
30
0
41
1
10
42.3009877466847
20
13.174848519663
30
0
41
1
10
42.3052204195655
20
13.1839750608242
30
0
41
1
10
42.3069865523199
20
13.188869225078
30
0
41
1
10
42.3116624731073
20
13.2041365933286
30
0
41
1
10
42.3139401583552
20
13.2150307631558
30
0
41
1
10
42.3194736840518
20
13.2482552317102
30
0
41
1
10
42.3214624331313
20
13.2712197145938
30
0
41
1
10
42.3240095526549
20
13.3174221487529
30
0
41
1
10
42.3245
20
13.3407838644586
30
0
41
1
10
42.3245
20
13.3643012892947
30
0
0
SPLINE
5
1AA
100
AcDbEntity
8
1
62
256
6
ByLayer
370
18
48
1
60
0
100
AcDbSpline
70
4
71
3
72
12
73
8
40
0
40
0
40
0
40
0
40
0.249999999999992
40
0.249999999999992
40
0.499999999999983
40
0.499999999999983
40
1
40
1
40
1
40
1
41
1
10
42.3245000000063
20
21.5934407184059
30
0
41
1
10
42.3245000000059
20
21.6040609437137
30
0
41
1
10
42.3218483991439
20
21.6168702933521
30
0
41
1
10
42.3134516370154
20
21.6440576677465
30
0
41
1
10
42.3076715399339
20
21.6585620464153
30
0
41
1
10
42.2871295287574
20
21.7033373881304
30
0
41
1
10
42.2697437386086
20
21.733963852398
30
0
41
1
10
42.2495
20
21.7652127395764
30
0
0
SPLINE
5
1AB
100
AcDbEntity
8
1
62
256
6
ByLayer
370
18
48
1
60
0
100
AcDbSpline
70
4
71
3
72
8
73
4
40
0
40
0
40
0
40
0
40
1
40
1
40
1
40
1
41
1
10
42.2495
20
-6.06606201589076
30
0
41
1
10
42.0355383552333
20
-6.28440632937293
30
0
41
1
10
41.8208468077431
20
-6.50178974672227
30
0
41
1
10
41.6055
20
-6.71831053262403
30
0
0
SPLINE
5
1AC
100
AcDbEntity
8
1
62
256
6
ByLayer
370
18
48
1
60
0
100
AcDbSpline
70
4
71
3
72
8
73
4
40
0
40
0
40
0
40
0
40
1
40
1
40
1
40
1
41
1
10
42.2495
20
24.0430495027661
30
0
41
1
10
42.0353272741426
20
24.2496136869222
30
0
41
1
10
41.8206432773138
20
24.4554670740397
30
0
41
1
10
41.6055
20
24.6606819441533
30
0
0
SPLINE
5
1AD
100
AcDbEntity
8
1
62
256
6
ByLayer
370
18
48
1
60
0
100
AcDbSpline
70
4
71
3
72
12
73
8
40
0
40
0
40
0
40
0
40
0.5
40
0.5
40
0.75
40
0.75
40
1
40
1
40
1
40
1
41
1
10
42.2495000000003
20
0.601826671315365
30
0
41
1
10
42.2709168268861
20
0.658702932967458
30
0
41
1
10
42.2883123214796
20
0.71534961061073
30
0
41
1
10
42.3081813848248
20
0.79999722274701
30
0
41
1
10
42.313761770269
20
0.828311785079393
30
0
41
1
10
42.3218859548331
20
0.884007593836515
30
0
41
1
10
42.3245
20
0.911279290129045
30
0
41
1
10
42.3245
20
0.937477205923301
30
0
0
SPLINE
5
1AE
100
AcDbEntity
8
1
62
256
6
ByLayer
370
18
48
1
60
0
100
AcDbSpline
70
4
71
3
72
12
73
8
40
0
40
0
40
0
40
0
40
0.499999999999987
40
0.499999999999987
40
0.749999999999993
40
0.749999999999993
40
1
40
1
40
1
40
1
41
1
10
42.2495
20
-1.28768336092409
30
0
41
1
10
42.2704036408553
20
-1.24412563440441
30
0
41
1
10
42.2880478435166
20
-1.20014829709967
30
0
41
1
10
42.3080124871787
20
-1.13614036771782
30
0
41
1
10
42.3135979453878
20
-1.11508203102866
30
0
41
1
10
42.3218355217092
20
-1.07373580092275
30
0
41
1
10
42.3245
20
-1.05350861868359
30
0
41
1
10
42.3245
20
-1.03499371762203
30
0
0
SPLINE
5
1AF
100
AcDbEntity
8
1
62
256
6
ByLayer
370
18
48
1
60
0
100
AcDbSpline
70
4
71
3
72
8
73
4
40
0
40
0
40
0
40
0
40
1
40
1
40
1
40
1
41
1
10
41.6055
20
23.467155704432
30
0
41
1
10
41.8225986716763
20
23.1780125340789
30
0
41
1
10
42.0373626674526
20
22.8865772022682
30
0
41
1
10
42.2495
20
22.5925630387594
30
0
0
SPLINE
5
1B0
100
AcDbEntity
8
1
62
256
6
ByLayer
370
18
48
1
60
0
100
AcDbSpline
70
4
71
3
72
24
73
20
40
0
40
0
40
0
40
0
40
0.0624999999999953
40
0.0624999999999953
40
0.124999999999991
40
0.124999999999991
40
0.187499999999986
40
0.187499999999986
40
0.249999999999981
40
0.249999999999981
40
0.374999999999983
40
0.374999999999983
40
0.499999999999984
40
0.499999999999984
40
0.624999999999985
40
0.624999999999985
40
0.749999999999987
40
0.749999999999987
40
1
40
1
40
1
40
1
41
1
10
41.6055000000002
20
19.3246631735603
30
0
41
1
10
41.5972908220626
20
19.331720352453
30
0
41
1
10
41.5888294563666
20
19.3379434777723
30
0
41
1
10
41.572156336855
20
19.3470822248402
30
0
41
1
10
41.56390538009
20
19.3499327609477
30
0
41
1
10
41.5493813671578
20
19.3507384660684
30
0
41
1
10
41.543058016479
20
19.3486864523546
30
0
41
1
10
41.5331440046893
20
19.3406952501179
30
0
41
1
10
41.5295379464697
20
19.3349316455587
30
0
41
1
10
41.5216517000027
20
19.3147017041259
30
0
41
1
10
41.520176950368
20
19.2973338809399
30
0
41
1
10
41.5209299083085
20
19.2611121046283
30
0
41
1
10
41.5231701003545
20
19.2420124699813
30
0
41
1
10
41.5299124700065
20
19.2025930021119
30
0
41
1
10
41.5344683999726
20
19.1822442124496
30
0
41
1
10
41.5450646287767
20
19.1416343023832
30
0
41
1
10
41.5511391063278
20
19.1212168100558
30
0
41
1
10
41.5712718337635
20
19.0596846218915
30
0
41
1
10
41.5871862607217
20
19.0182966088937
30
0
41
1
10
41.6055
20
18.9765676639092
30
0
0
LINE
5
75
100
AcDbEntity
8
1
62
256
6
ByLayer
370
18
48
1
60
0
100
AcDbLine
10
26.5
20
-7
30
0
11
41.3245
21
-7
31
0
39
0
210
0
220
0
230
1
0
LINE
5
77
100
AcDbEntity
8
1
62
256
6
ByLayer
370
18
48
1
60
0
100
AcDbLine
10
42.309989
20
-1.278175
30
0
11
46.4755
21
-1.278175
31
0
39
0
210
0
220
0
230
1
0
LINE
5
78
100
AcDbEntity
8
1
62
256
6
ByLayer
370
18
48
1
60
0
100
AcDbLine
10
0.3
20
-25
30
0
11
20.000038
21
-25
31
0
39
0
210
0
220
0
230
1
0
LINE
5
79
100
AcDbEntity
8
1
62
256
6
ByLayer
370
18
48
1
60
0
100
AcDbLine
10
46.6755
20
-3.028175
30
0
11
51.0855
21
-3.028175
31
0
39
0
210
0
220
0
230
1
0
LINE
5
7A
100
AcDbEntity
8
1
62
256
6
ByLayer
370
18
48
1
60
0
100
AcDbLine
10
51.0855
20
5.471825
30
0
11
46.6755
21
5.471825
31
0
39
0
210
0
220
0
230
1
0
LINE
5
7B
100
AcDbEntity
8
1
62
256
6
ByLayer
370
18
48
1
60
0
100
AcDbLine
10
46.4755
20
3.721825
30
0
11
42.32436
21
3.721825
31
0
39
0
210
0
220
0
230
1
0
LINE
5
7C
100
AcDbEntity
8
1
62
256
6
ByLayer
370
18
48
1
60
0
100
AcDbLine
10
8.501303
20
25
30
0
11
0.3
21
25
31
0
39
0
210
0
220
0
230
1
0
LINE
5
7D
100
AcDbEntity
8
1
62
256
6
ByLayer
370
18
48
1
60
0
100
AcDbLine
10
41.521894
20
24.802606
30
0
11
41.3245
21
25
31
0
39
0
210
0
220
0
230
1
0
LINE
5
7E
100
AcDbEntity
8
1
62
256
6
ByLayer
370
18
48
1
60
0
100
AcDbLine
10
41.3245
20
-7
30
0
11
41.521894
21
-6.802606
31
0
39
0
210
0
220
0
230
1
0
LINE
5
7F
100
AcDbEntity
8
SK1
62
256
6
ByLayer
370
18
48
1
60
0
100
AcDbLine
10
0
20
17.570321
30
0
11
-0.092785
21
17.570321
31
0
39
0
210
0
220
0
230
1
0
LINE
5
81
100
AcDbEntity
8
SK1
62
256
6
ByLayer
370
18
48
1
60
0
100
AcDbLine
10
-0.092684
20
-17.570321
30
0
11
0
21
-17.570321
31
0
39
0
210
0
220
0
230
1
0
LINE
5
82
100
AcDbEntity
8
1
62
256
6
ByLayer
370
18
48
1
60
0
100
AcDbLine
10
0
20
-24.7
30
0
11
0.3
21
-25
31
0
39
0
210
0
220
0
230
1
0
LINE
5
83
100
AcDbEntity
8
1
62
256
6
ByLayer
370
18
48
1
60
0
100
AcDbLine
10
0.3
20
25
30
0
11
0
21
24.7
31
0
39
0
210
0
220
0
230
1
0
LINE
5
84
100
AcDbEntity
8
1
62
256
6
ByLayer
370
18
48
1
60
0
100
AcDbLine
10
20
20
-25
30
0
11
22.559388
21
-10.313287
31
0
39
0
210
0
220
0
230
1
0
LINE
5
85
100
AcDbEntity
8
1
62
256
6
ByLayer
370
18
48
1
60
0
100
AcDbLine
10
26.5
20
25
30
0
11
15.48842
21
25
31
0
39
0
210
0
220
0
230
1
0
LINE
5
86
100
AcDbEntity
8
1
62
256
6
ByLayer
370
18
48
1
60
0
100
AcDbLine
10
41.3245
20
25
30
0
11
26.5
21
25
31
0
39
0
210
0
220
0
230
1
0
LINE
5
87
100
AcDbEntity
8
1
62
256
6
ByLayer
370
18
48
1
60
0
100
AcDbLine
10
51.0855
20
21.028175
30
0
11
46.6755
21
21.028175
31
0
39
0
210
0
220
0
230
1
0
LINE
5
88
100
AcDbEntity
8
1
62
256
6
ByLayer
370
18
48
1
60
0
100
AcDbLine
10
46.6755
20
12.528175
30
0
11
51.0855
21
12.528175
31
0
39
0
210
0
220
0
230
1
0
LINE
5
89
100
AcDbEntity
8
1
62
256
6
ByLayer
370
18
48
1
60
0
100
AcDbLine
10
51.0855
20
21.028175
30
0
11
46.6755
21
21.028175
31
0
39
0
210
0
220
0
230
1
0
LINE
5
8A
100
AcDbEntity
8
1
62
256
6
ByLayer
370
18
48
1
60
0
100
AcDbLine
10
46.6755
20
12.528175
30
0
11
51.0855
21
12.528175
31
0
39
0
210
0
220
0
230
1
0
LINE
5
8B
100
AcDbEntity
8
1
62
256
6
ByLayer
370
18
48
1
60
0
100
AcDbLine
10
46.4755
20
19.278175
30
0
11
42.309634
21
19.278175
31
0
39
0
210
0
220
0
230
1
0
LINE
5
8C
100
AcDbEntity
8
1
62
256
6
ByLayer
370
18
48
1
60
0
100
AcDbLine
10
42.32436
20
14.278175
30
0
11
46.4755
21
14.278175
31
0
39
0
210
0
220
0
230
1
0
LINE
5
8D
100
AcDbEntity
8
1
62
256
6
ByLayer
370
18
48
1
60
0
100
AcDbLine
10
46.4755
20
19.278175
30
0
11
42.309634
21
19.278175
31
0
39
0
210
0
220
0
230
1
0
LINE
5
8E
100
AcDbEntity
8
1
62
256
6
ByLayer
370
18
48
1
60
0
100
AcDbLine
10
42.32436
20
14.278175
30
0
11
46.4755
21
14.278175
31
0
39
0
210
0
220
0
230
1
0
LINE
5
8F
100
AcDbEntity
8
1
62
256
6
ByLayer
370
13
48
1
60
0
100
AcDbLine
10
42.324481
20
18.833175
30
0
11
46.4755
21
18.833175
31
0
39
0
210
0
220
0
230
1
0
LINE
5
90
100
AcDbEntity
8
1
62
256
6
ByLayer
370
13
48
1
60
0
100
AcDbLine
10
42.324481
20
14.723175
30
0
11
46.4755
21
14.723175
31
0
39
0
210
0
220
0
230
1
0
LINE
5
91
100
AcDbEntity
8
1
62
256
6
ByLayer
370
18
48
1
60
0
100
AcDbLine
10
46.4755
20
15.35255
30
0
11
46.4755
21
14.278175
31
0
39
0
210
0
220
0
230
1
0
LINE
5
92
100
AcDbEntity
8
80
62
256
6
ByLayer
370
18
48
1
60
0
100
AcDbLine
10
0
20
0
30
0
11
-5
21
0
31
0
39
0
210
0
220
0
230
1
0
LINE
5
93
100
AcDbEntity
8
81
62
256
6
ByLayer
370
18
48
1
60
0
100
AcDbLine
10
42
20
9
30
0
11
47
21
9
31
0
39
0
210
0
220
0
230
1
0
LINE
5
94
100
AcDbEntity
8
4
62
256
6
ByLayer
370
18
48
0.05
60
0
100
AcDbLine
10
0
20
0
30
0
11
42
21
0
31
0
39
0
210
0
220
0
230
1
0
LINE
5
96
100
AcDbEntity
8
SK4
62
256
6
ByLayer
370
18
48
0.05
60
0
100
AcDbLine
10
-35
20
0
30
0
11
47
21
0
31
0
39
0
210
0
220
0
230
1
0
LINE
5
98
100
AcDbEntity
8
SK1
62
256
6
ByLayer
370
13
48
1
60
0
100
AcDbLine
10
-1.307107
20
3.918083
30
0
11
-1.307107
21
-3.918083
31
0
39
0
210
0
220
0
230
1
0
LINE
5
99
100
AcDbEntity
8
SK1
62
256
6
ByLayer
370
18
48
1
60
0
100
AcDbLine
10
-1.99504
20
17.325244
30
0
11
-1.99504
21
17.320724
31
0
39
0
210
0
220
0
230
1
0
LINE
5
9A
100
AcDbEntity
8
SK1
62
256
6
ByLayer
370
18
48
1
60
0
100
AcDbLine
10
-1.99504
20
-17.320724
30
0
11
-1.99504
21
-17.325244
31
0
39
0
210
0
220
0
230
1
0
LINE
5
9B
100
AcDbEntity
8
SK1
62
256
6
ByLayer
370
18
48
1
60
0
100
AcDbLine
10
-0.394914
20
17.360257
30
0
11
-0.394914
21
17.359823
31
0
39
0
210
0
220
0
230
1
0
LINE
5
9C
100
AcDbEntity
8
SK1
62
256
6
ByLayer
370
18
48
1
60
0
100
AcDbLine
10
-0.2
20
-6.078431
30
0
11
-0.2
21
-6.128539
31
0
39
0
210
0
220
0
230
1
0
LINE
5
9D
100
AcDbEntity
8
SK1
62
256
6
ByLayer
370
18
48
1
60
0
100
AcDbLine
10
-0.394914
20
-17.359823
30
0
11
-0.394914
21
-17.360257
31
0
39
0
210
0
220
0
230
1
0
LINE
5
9E
100
AcDbEntity
8
SK1
62
256
6
ByLayer
370
18
48
1
60
0
100
AcDbLine
10
-0.2
20
6.128541
30
0
11
-0.2
21
6.078432
31
0
39
0
210
0
220
0
230
1
0
LINE
5
9F
100
AcDbEntity
8
1
62
256
6
ByLayer
370
13
48
1
60
0
100
AcDbLine
10
41.6055
20
-4.733396
30
0
11
41.6055
21
-4.893295
31
0
39
0
210
0
220
0
230
1
0
LINE
5
A0
100
AcDbEntity
8
1
62
256
6
ByLayer
370
18
48
1
60
0
100
AcDbLine
10
42.3245
20
-5.814605
30
0
11
42.3245
21
-5.84527
31
0
39
0
210
0
220
0
230
1
0
LINE
5
A1
100
AcDbEntity
8
1
62
256
6
ByLayer
370
18
48
1
60
0
100
AcDbLine
10
42.3245
20
4.635699
30
0
11
42.3245
21
4.019292
31
0
39
0
210
0
220
0
230
1
0
LINE
5
A2
100
AcDbEntity
8
1
62
256
6
ByLayer
370
13
48
1
60
0
100
AcDbLine
10
8.105662
20
23.666502
30
0
11
8.105662
21
8.055848
31
0
39
0
210
0
220
0
230
1
0
LINE
5
A3
100
AcDbEntity
8
1
62
256
6
ByLayer
370
13
48
1
60
0
100
AcDbLine
10
26.5
20
25
30
0
11
26.5
21
-7
31
0
39
0
210
0
220
0
230
1
0
LINE
5
A4
100
AcDbEntity
8
1
62
256
6
ByLayer
370
18
48
1
60
0
100
AcDbLine
10
41.3245
20
25
30
0
11
41.3245
21
-7
31
0
39
0
210
0
220
0
230
1
0
LINE
5
A5
100
AcDbEntity
8
1
62
256
6
ByLayer
370
13
48
1
60
0
100
AcDbLine
10
41.6055
20
14.146068
30
0
11
41.6055
21
13.20096
31
0
39
0
210
0
220
0
230
1
0
LINE
5
A6
100
AcDbEntity
8
1
62
256
6
ByLayer
370
13
48
1
60
0
100
AcDbLine
10
41.6055
20
4.79904
30
0
11
41.6055
21
3.853932
31
0
39
0
210
0
220
0
230
1
0
LINE
5
A7
100
AcDbEntity
8
1
62
256
6
ByLayer
370
18
48
1
60
0
100
AcDbLine
10
42.3245
20
21.593441
30
0
11
42.3245
21
21.46033
31
0
39
0
210
0
220
0
230
1
0
LINE
5
A8
100
AcDbEntity
8
1
62
256
6
ByLayer
370
13
48
1
60
0
100
AcDbLine
10
8.538675
20
23.83913
30
0
11
8.538675
21
7.529667
31
0
39
0
210
0
220
0
230
1
0
LINE
5
A9
100
AcDbEntity
8
1
62
256
6
ByLayer
370
13
48
1
60
0
100
AcDbLine
10
41.6055
20
-3.78336
30
0
11
41.6055
21
-3.989046
31
0
39
0
210
0
220
0
230
1
0
LINE
5
AA
100
AcDbEntity
8
1
62
256
6
ByLayer
370
18
48
1
60
0
100
AcDbLine
10
42.3245
20
23.013072
30
0
11
42.3245
21
22.445834
31
0
39
0
210
0
220
0
230
1
0
LINE
5
AB
100
AcDbEntity
8
1
62
256
6
ByLayer
370
18
48
1
60
0
100
AcDbLine
10
42.3245
20
19.3459
30
0
11
42.3245
21
19.278229
31
0
39
0
210
0
220
0
230
1
0
LINE
5
AC
100
AcDbEntity
8
1
62
256
6
ByLayer
370
18
48
1
60
0
100
AcDbLine
10
42.3245
20
22.344025
30
0
11
42.3245
21
21.593438
31
0
39
0
210
0
220
0
230
1
0
LINE
5
AD
100
AcDbEntity
8
1
62
256
6
ByLayer
370
18
48
1
60
0
100
AcDbLine
10
42.3245
20
-5.013072
30
0
11
42.3245
21
-5.088591
31
0
39
0
210
0
220
0
230
1
0
LINE
5
AE
100
AcDbEntity
8
1
62
256
6
ByLayer
370
18
48
1
60
0
100
AcDbLine
10
42.3245
20
23.814605
30
0
11
42.3245
21
23.549342
31
0
39
0
210
0
220
0
230
1
0
LINE
5
AF
100
AcDbEntity
8
1
62
256
6
ByLayer
370
18
48
1
60
0
100
AcDbLine
10
42.3245
20
-2.484691
30
0
11
42.3245
21
-3.46033
31
0
39
0
210
0
220
0
230
1
0
LINE
5
B0
100
AcDbEntity
8
1
62
256
6
ByLayer
370
13
48
1
60
0
100
AcDbLine
10
42.2495
20
-3.463102
30
0
11
42.2495
21
-2.689484
31
0
39
0
210
0
220
0
230
1
0
LINE
5
B1
100
AcDbEntity
8
1
62
256
6
ByLayer
370
18
48
1
60
0
100
AcDbLine
10
42.3245
20
22.445876
30
0
11
42.3245
21
22.344025
31
0
39
0
210
0
220
0
230
1
0
LINE
5
B2
100
AcDbEntity
8
1
62
256
6
ByLayer
370
18
48
1
60
0
100
AcDbLine
10
42.3245
20
23.84527
30
0
11
42.3245
21
23.814605
31
0
39
0
210
0
220
0
230
1
0
LINE
5
B3
100
AcDbEntity
8
1
62
256
6
ByLayer
370
18
48
1
60
0
100
AcDbLine
10
42.3245
20
-3.46033
30
0
11
42.3245
21
-3.593441
31
0
39
0
210
0
220
0
230
1
0
LINE
5
B4
100
AcDbEntity
8
1
62
256
6
ByLayer
370
13
48
1
60
0
100
AcDbLine
10
42.2495
20
23.214869
30
0
11
42.2495
21
23.539861
31
0
39
0
210
0
220
0
230
1
0
LINE
5
B5
100
AcDbEntity
8
1
62
256
6
ByLayer
370
18
48
1
60
0
100
AcDbLine
10
42.3245
20
-1.278229
30
0
11
42.3245
21
-1.3459
31
0
39
0
210
0
220
0
230
1
0
LINE
5
B6
100
AcDbEntity
8
1
62
256
6
ByLayer
370
18
48
1
60
0
100
AcDbLine
10
42.3245
20
-4.445834
30
0
11
42.3245
21
-5.013072
31
0
39
0
210
0
220
0
230
1
0
LINE
5
B7
100
AcDbEntity
8
1
62
256
6
ByLayer
370
13
48
1
60
0
100
AcDbLine
10
41.6055
20
-6.400639
30
0
11
41.6055
21
-6.457963
31
0
39
0
210
0
220
0
230
1
0
LINE
5
B8
100
AcDbEntity
8
1
62
256
6
ByLayer
370
18
48
1
60
0
100
AcDbLine
10
42.3245
20
23.985956
30
0
11
42.3245
21
23.975837
31
0
39
0
210
0
220
0
230
1
0
LINE
5
B9
100
AcDbEntity
8
1
62
256
6
ByLayer
370
18
48
1
60
0
100
AcDbLine
10
8.538675
20
-7.529667
30
0
11
11.461325
21
-7.529667
31
0
39
0
210
0
220
0
230
1
0
LINE
5
BA
100
AcDbEntity
8
1
62
256
6
ByLayer
370
18
48
1
60
0
100
AcDbLine
10
42.3245
20
23.975837
30
0
11
42.3245
21
23.845261
31
0
39
0
210
0
220
0
230
1
0
LINE
5
BB
100
AcDbEntity
8
1
62
256
6
ByLayer
370
18
48
1
60
0
100
AcDbLine
10
42.3245
20
16.736298
30
0
11
42.3245
21
13.980483
31
0
39
0
210
0
220
0
230
1
0
LINE
5
BC
100
AcDbEntity
8
1
62
256
6
ByLayer
370
18
48
1
60
0
100
AcDbLine
10
42.3245
20
4.019517
30
0
11
42.3245
21
1.263702
31
0
39
0
210
0
220
0
230
1
0
LINE
5
BD
100
AcDbEntity
8
1
62
256
6
ByLayer
370
18
48
1
60
0
100
AcDbLine
10
0.3
20
-25
30
0
11
0.3
21
25
31
0
39
0
210
0
220
0
230
1
0
LINE
5
BE
100
AcDbEntity
8
1
62
256
6
ByLayer
370
13
48
1
60
0
100
AcDbLine
10
42.2495
20
23.939166
30
0
11
42.2495
21
24.04305
31
0
39
0
210
0
220
0
230
1
0
LINE
5
BF
100
AcDbEntity
8
1
62
256
6
ByLayer
370
13
48
1
60
0
100
AcDbLine
10
11.894338
20
-8.055848
30
0
11
11.894338
21
-23.666502
31
0
39
0
210
0
220
0
230
1
0
LINE
5
C0
100
AcDbEntity
8
1
62
256
6
ByLayer
370
18
48
1
60
0
100
AcDbLine
10
42.3245
20
-5.975837
30
0
11
42.3245
21
-5.985956
31
0
39
0
210
0
220
0
230
1
0
LINE
5
C1
100
AcDbEntity
8
1
62
256
6
ByLayer
370
13
48
1
60
0
100
AcDbLine
10
41.6055
20
22.893295
30
0
11
41.6055
21
22.733396
31
0
39
0
210
0
220
0
230
1
0
LINE
5
C2
100
AcDbEntity
8
1
62
256
6
ByLayer
370
18
48
1
60
0
100
AcDbLine
10
42.3245
20
1.263702
30
0
11
42.3245
21
0.937477
31
0
39
0
210
0
220
0
230
1
0
LINE
5
C3
100
AcDbEntity
8
1
62
256
6
ByLayer
370
13
48
1
60
0
100
AcDbLine
10
42.2495
20
-5.043314
30
0
11
42.2495
21
-4.592505
31
0
39
0
210
0
220
0
230
1
0
LINE
5
C4
100
AcDbEntity
8
1
62
256
6
ByLayer
370
18
48
1
60
0
100
AcDbLine
10
42.3245
20
-4.344025
30
0
11
42.3245
21
-4.445876
31
0
39
0
210
0
220
0
230
1
0
LINE
5
C5
100
AcDbEntity
8
1
62
256
6
ByLayer
370
18
48
1
60
0
100
AcDbLine
10
42.3245
20
-1.345888
30
0
11
42.3245
21
-2.311793
31
0
39
0
210
0
220
0
230
1
0
LINE
5
C6
100
AcDbEntity
8
1
62
256
6
ByLayer
370
18
48
1
60
0
100
AcDbLine
10
11.461325
20
7.529667
30
0
11
8.538675
21
7.529667
31
0
39
0
210
0
220
0
230
1
0
LINE
5
C7
100
AcDbEntity
8
1
62
256
6
ByLayer
370
13
48
1
60
0
100
AcDbLine
10
42.2495
20
-6.04305
30
0
11
42.2495
21
-5.939166
31
0
39
0
210
0
220
0
230
1
0
LINE
5
C8
100
AcDbEntity
8
1
62
256
6
ByLayer
370
13
48
1
60
0
100
AcDbLine
10
42.2495
20
22.592505
30
0
11
42.2495
21
23.043314
31
0
39
0
210
0
220
0
230
1
0
LINE
5
C9
100
AcDbEntity
8
1
62
256
6
ByLayer
370
13
48
1
60
0
100
AcDbLine
10
11.461325
20
23.83913
30
0
11
11.461325
21
7.529667
31
0
39
0
210
0
220
0
230
1
0
LINE
5
CA
100
AcDbEntity
8
1
62
256
6
ByLayer
370
13
48
1
60
0
100
AcDbLine
10
42.2495
20
-4.361205
30
0
11
42.2495
21
-3.765188
31
0
39
0
210
0
220
0
230
1
0
LINE
5
CB
100
AcDbEntity
8
1
62
256
6
ByLayer
370
13
48
1
60
0
100
AcDbLine
10
42.2495
20
-5.869447
30
0
11
42.2495
21
-5.658425
31
0
39
0
210
0
220
0
230
1
0
LINE
5
CC
100
AcDbEntity
8
1
62
256
6
ByLayer
370
18
48
1
60
0
100
AcDbLine
10
42.3245
20
20.484682
30
0
11
42.3245
21
20.311793
31
0
39
0
210
0
220
0
230
1
0
LINE
5
CD
100
AcDbEntity
8
1
62
256
6
ByLayer
370
18
48
1
60
0
100
AcDbLine
10
42.3245
20
-5.845261
30
0
11
42.3245
21
-5.975837
31
0
39
0
210
0
220
0
230
1
0
LINE
5
CE
100
AcDbEntity
8
1
62
256
6
ByLayer
370
18
48
1
60
0
100
AcDbLine
10
42.3245
20
17.062523
30
0
11
42.3245
21
16.736298
31
0
39
0
210
0
220
0
230
1
0
LINE
5
CF
100
AcDbEntity
8
1
62
256
6
ByLayer
370
13
48
1
60
0
100
AcDbLine
10
42.2495
20
1.335129
30
0
11
42.2495
21
3.45734
31
0
39
0
210
0
220
0
230
1
0
LINE
5
D0
100
AcDbEntity
8
1
62
256
6
ByLayer
370
13
48
1
60
0
100
AcDbLine
10
42.2495
20
14.54266
30
0
11
42.2495
21
16.664871
31
0
39
0
210
0
220
0
230
1
0
LINE
5
D1
100
AcDbEntity
8
1
62
256
6
ByLayer
370
13
48
1
60
0
100
AcDbLine
10
22.559388
20
-10.313287
30
0
11
22.559388
21
18.49983
31
0
39
0
210
0
220
0
230
1
0
LINE
5
D2
100
AcDbEntity
8
1
62
256
6
ByLayer
370
13
48
1
60
0
100
AcDbLine
10
41.6055
20
17.293994
30
0
11
41.6055
21
16.799983
31
0
39
0
210
0
220
0
230
1
0
LINE
5
D3
100
AcDbEntity
8
1
62
256
6
ByLayer
370
13
48
1
60
0
100
AcDbLine
10
41.6055
20
1.200017
30
0
11
41.6055
21
0.706006
31
0
39
0
210
0
220
0
230
1
0
LINE
5
D4
100
AcDbEntity
8
1
62
256
6
ByLayer
370
13
48
1
60
0
100
AcDbLine
10
41.6055
20
-2.563846
30
0
11
41.6055
21
-2.828229
31
0
39
0
210
0
220
0
230
1
0
LINE
5
D5
100
AcDbEntity
8
1
62
256
6
ByLayer
370
13
48
1
60
0
100
AcDbLine
10
41.6055
20
24.104314
30
0
11
41.6055
21
24.016235
31
0
39
0
210
0
220
0
230
1
0
LINE
5
D6
100
AcDbEntity
8
1
62
256
6
ByLayer
370
18
48
1
60
0
100
AcDbLine
10
42.3245
20
19.034994
30
0
11
42.3245
21
18.805788
31
0
39
0
210
0
220
0
230
1
0
LINE
5
D7
100
AcDbEntity
8
1
62
256
6
ByLayer
370
13
48
1
60
0
100
AcDbLine
10
41.6055
20
24.660682
30
0
11
41.6055
21
24.632398
31
0
39
0
210
0
220
0
230
1
0
LINE
5
D8
100
AcDbEntity
8
1
62
256
6
ByLayer
370
13
48
1
60
0
100
AcDbLine
10
42.2495
20
20.689484
30
0
11
42.2495
21
21.463102
31
0
39
0
210
0
220
0
230
1
0
LINE
5
D9
100
AcDbEntity
8
1
62
256
6
ByLayer
370
13
48
1
60
0
100
AcDbLine
10
42.2495
20
21.765188
30
0
11
42.2495
21
22.361205
31
0
39
0
210
0
220
0
230
1
0
LINE
5
DA
100
AcDbEntity
8
1
62
256
6
ByLayer
370
18
48
1
60
0
100
AcDbLine
10
42.3245
20
23.549406
30
0
11
42.3245
21
23.497219
31
0
39
0
210
0
220
0
230
1
0
LINE
5
DB
100
AcDbEntity
8
1
62
256
6
ByLayer
370
13
48
1
60
0
100
AcDbLine
10
41.6055
20
21.989046
30
0
11
41.6055
21
21.78336
31
0
39
0
210
0
220
0
230
1
0
LINE
5
DC
100
AcDbEntity
8
1
62
256
6
ByLayer
370
13
48
1
60
0
100
AcDbLine
10
41.6055
20
-5.467117
30
0
11
41.6055
21
-5.588762
31
0
39
0
210
0
220
0
230
1
0
LINE
5
DD
100
AcDbEntity
8
1
62
256
6
ByLayer
370
13
48
1
60
0
100
AcDbLine
10
42.2495
20
-2.297611
30
0
11
42.2495
21
-1.287691
31
0
39
0
210
0
220
0
230
1
0
LINE
5
DE
100
AcDbEntity
8
1
62
256
6
ByLayer
370
18
48
1
60
0
100
AcDbLine
10
42.3245
20
21.46033
30
0
11
42.3245
21
20.484691
31
0
39
0
210
0
220
0
230
1
0
LINE
5
DF
100
AcDbEntity
8
1
62
256
6
ByLayer
370
18
48
1
60
0
100
AcDbLine
10
0
20
-24.7
30
0
11
0
21
24.7
31
0
39
0
210
0
220
0
230
1
0
LINE
5
E0
100
AcDbEntity
8
1
62
256
6
ByLayer
370
18
48
1
60
0
100
AcDbLine
10
42.3245
20
-5.549342
30
0
11
42.3245
21
-5.814605
31
0
39
0
210
0
220
0
230
1
0
LINE
5
E1
100
AcDbEntity
8
1
62
256
6
ByLayer
370
13
48
1
60
0
100
AcDbLine
10
41.6055
20
-6.016235
30
0
11
41.6055
21
-6.104314
31
0
39
0
210
0
220
0
230
1
0
LINE
5
E2
100
AcDbEntity
8
1
62
256
6
ByLayer
370
18
48
1
60
0
100
AcDbLine
10
42.3245
20
-5.088558
30
0
11
42.3245
21
-5.497219
31
0
39
0
210
0
220
0
230
1
0
LINE
5
E3
100
AcDbEntity
8
1
62
256
6
ByLayer
370
18
48
1
60
0
100
AcDbLine
10
42.3245
20
-3.593438
30
0
11
42.3245
21
-4.344025
31
0
39
0
210
0
220
0
230
1
0
LINE
5
E4
100
AcDbEntity
8
1
62
256
6
ByLayer
370
18
48
1
60
0
100
AcDbLine
10
8.538675
20
23.83913
30
0
11
11.461325
21
23.83913
31
0
39
0
210
0
220
0
230
1
0
LINE
5
E5
100
AcDbEntity
8
1
62
256
6
ByLayer
370
13
48
1
60
0
100
AcDbLine
10
42.2495
20
4.809849
30
0
11
42.2495
21
13.190151
31
0
39
0
210
0
220
0
230
1
0
LINE
5
E6
100
AcDbEntity
8
1
62
256
6
ByLayer
370
18
48
1
60
0
100
AcDbLine
10
42.3245
20
18.805788
30
0
11
42.3245
21
17.062503
31
0
39
0
210
0
220
0
230
1
0
LINE
5
E7
100
AcDbEntity
8
1
62
256
6
ByLayer
370
18
48
1
60
0
100
AcDbLine
10
42.3245
20
0.937497
30
0
11
42.3245
21
-0.805788
31
0
39
0
210
0
220
0
230
1
0
LINE
5
E8
100
AcDbEntity
8
1
62
256
6
ByLayer
370
13
48
1
60
0
100
AcDbLine
10
11.894338
20
23.666502
30
0
11
11.894338
21
8.055848
31
0
39
0
210
0
220
0
230
1
0
LINE
5
E9
100
AcDbEntity
8
1
62
256
6
ByLayer
370
13
48
1
60
0
100
AcDbLine
10
8.105662
20
-8.055848
30
0
11
8.105662
21
-23.666502
31
0
39
0
210
0
220
0
230
1
0
LINE
5
EA
100
AcDbEntity
8
1
62
256
6
ByLayer
370
18
48
1
60
0
100
AcDbLine
10
42.3245
20
-5.497219
30
0
11
42.3245
21
-5.549406
31
0
39
0
210
0
220
0
230
1
0
LINE
5
EB
100
AcDbEntity
8
1
62
256
6
ByLayer
370
18
48
1
60
0
100
AcDbLine
10
42.3245
20
13.980708
30
0
11
42.3245
21
13.364301
31
0
39
0
210
0
220
0
230
1
0
LINE
5
EC
100
AcDbEntity
8
1
62
256
6
ByLayer
370
18
48
1
60
0
100
AcDbLine
10
42.3245
20
23.088591
30
0
11
42.3245
21
23.013072
31
0
39
0
210
0
220
0
230
1
0
LINE
5
ED
100
AcDbEntity
8
1
62
256
6
ByLayer
370
18
48
1
60
0
100
AcDbLine
10
42.3245
20
13.364301
30
0
11
42.3245
21
4.635699
31
0
39
0
210
0
220
0
230
1
0
LINE
5
EE
100
AcDbEntity
8
1
62
256
6
ByLayer
370
13
48
1
60
0
100
AcDbLine
10
41.6055
20
20.828229
30
0
11
41.6055
21
20.563846
31
0
39
0
210
0
220
0
230
1
0
LINE
5
EF
100
AcDbEntity
8
1
62
256
6
ByLayer
370
18
48
1
60
0
100
AcDbLine
10
42.3245
20
-0.805788
30
0
11
42.3245
21
-1.034994
31
0
39
0
210
0
220
0
230
1
0
LINE
5
F0
100
AcDbEntity
8
1
62
256
6
ByLayer
370
13
48
1
60
0
100
AcDbLine
10
8.538675
20
-7.529667
30
0
11
8.538675
21
-23.83913
31
0
39
0
210
0
220
0
230
1
0
LINE
5
F1
100
AcDbEntity
8
1
62
256
6
ByLayer
370
13
48
1
60
0
100
AcDbLine
10
42.2495
20
-5.539861
30
0
11
42.2495
21
-5.214869
31
0
39
0
210
0
220
0
230
1
0
LINE
5
F2
100
AcDbEntity
8
1
62
256
6
ByLayer
370
13
48
1
60
0
100
AcDbLine
10
42.2495
20
-0.7695
30
0
11
42.2495
21
0.601893
31
0
39
0
210
0
220
0
230
1
0
LINE
5
F3
100
AcDbEntity
8
1
62
256
6
ByLayer
370
13
48
1
60
0
100
AcDbLine
10
42.2495
20
17.398107
30
0
11
42.2495
21
18.7695
31
0
39
0
210
0
220
0
230
1
0
LINE
5
F4
100
AcDbEntity
8
1
62
256
6
ByLayer
370
18
48
1
60
0
100
AcDbLine
10
11.461325
20
-23.83913
30
0
11
8.538675
21
-23.83913
31
0
39
0
210
0
220
0
230
1
0
LINE
5
F5
100
AcDbEntity
8
1
62
256
6
ByLayer
370
13
48
1
60
0
100
AcDbLine
10
41.6055
20
24.457963
30
0
11
41.6055
21
24.400639
31
0
39
0
210
0
220
0
230
1
0
LINE
5
F6
100
AcDbEntity
8
1
62
256
6
ByLayer
370
18
48
1
60
0
100
AcDbLine
10
42.3245
20
-2.311793
30
0
11
42.3245
21
-2.484682
31
0
39
0
210
0
220
0
230
1
0
LINE
5
F7
100
AcDbEntity
8
1
62
256
6
ByLayer
370
13
48
1
60
0
100
AcDbLine
10
11.461325
20
-7.529667
30
0
11
11.461325
21
-23.83913
31
0
39
0
210
0
220
0
230
1
0
LINE
5
F8
100
AcDbEntity
8
1
62
256
6
ByLayer
370
18
48
1
60
0
100
AcDbLine
10
42.3245
20
20.311793
30
0
11
42.3245
21
19.345888
31
0
39
0
210
0
220
0
230
1
0
LINE
5
F9
100
AcDbEntity
8
1
62
256
6
ByLayer
370
13
48
1
60
0
100
AcDbLine
10
41.6055
20
23.588762
30
0
11
41.6055
21
23.467117
31
0
39
0
210
0
220
0
230
1
0
LINE
5
FA
100
AcDbEntity
8
1
62
256
6
ByLayer
370
18
48
1
60
0
100
AcDbLine
10
42.3245
20
23.497219
30
0
11
42.3245
21
23.088558
31
0
39
0
210
0
220
0
230
1
0
LINE
5
FB
100
AcDbEntity
8
1
62
256
6
ByLayer
370
13
48
1
60
0
100
AcDbLine
10
42.2495
20
19.287691
30
0
11
42.2495
21
20.297611
31
0
39
0
210
0
220
0
230
1
0
LINE
5
FC
100
AcDbEntity
8
1
62
256
6
ByLayer
370
13
48
1
60
0
100
AcDbLine
10
42.2495
20
23.658425
30
0
11
42.2495
21
23.869447
31
0
39
0
210
0
220
0
230
1
0
LINE
5
FD
100
AcDbEntity
8
1
62
256
6
ByLayer
370
13
48
1
60
0
100
AcDbLine
10
41.6055
20
19.324663
30
0
11
41.6055
21
18.976528
31
0
39
0
210
0
220
0
230
1
0
LINE
5
FE
100
AcDbEntity
8
1
62
256
6
ByLayer
370
13
48
1
60
0
100
AcDbLine
10
41.6055
20
-0.976528
30
0
11
41.6055
21
-1.324663
31
0
39
0
210
0
220
0
230
1
0
LINE
5
FF
100
AcDbEntity
8
1
62
256
6
ByLayer
370
13
48
1
60
0
100
AcDbLine
10
41.6055
20
-6.632398
30
0
11
41.6055
21
-6.660682
31
0
39
0
210
0
220
0
230
1
0
LINE
5
100
100
AcDbEntity
8
1
62
256
6
ByLayer
370
13
48
1
60
0
100
AcDbLine
10
51.0855
20
5.471825
30
0
11
51.0855
21
-3.028175
31
0
39
0
210
0
220
0
230
1
0
LINE
5
101
100
AcDbEntity
8
1
62
256
6
ByLayer
370
18
48
1
60
0
100
AcDbLine
10
51.5855
20
-2.528175
30
0
11
51.5855
21
4.971825
31
0
39
0
210
0
220
0
230
1
0
LINE
5
102
100
AcDbEntity
8
1
62
256
6
ByLayer
370
13
48
1
60
0
100
AcDbLine
10
46.4755
20
3.721825
30
0
11
46.4755
21
-1.278175
31
0
39
0
210
0
220
0
230
1
0
LINE
5
103
100
AcDbEntity
8
1
62
256
6
ByLayer
370
18
48
1
60
0
100
AcDbLine
10
46.6755
20
-3.028175
30
0
11
46.6755
21
5.471825
31
0
39
0
210
0
220
0
230
1
0
LINE
5
104
100
AcDbEntity
8
1
62
256
6
ByLayer
370
18
48
1
60
0
100
AcDbLine
10
46.6755
20
21.028175
30
0
11
46.6755
21
12.528175
31
0
39
0
210
0
220
0
230
1
0
LINE
5
105
100
AcDbEntity
8
1
62
256
6
ByLayer
370
13
48
1
60
0
100
AcDbLine
10
51.0855
20
21.028175
30
0
11
51.0855
21
12.528175
31
0
39
0
210
0
220
0
230
1
0
LINE
5
106
100
AcDbEntity
8
1
62
256
6
ByLayer
370
18
48
1
60
0
100
AcDbLine
10
46.6755
20
21.028175
30
0
11
46.6755
21
12.528175
31
0
39
0
210
0
220
0
230
1
0
LINE
5
107
100
AcDbEntity
8
1
62
256
6
ByLayer
370
13
48
1
60
0
100
AcDbLine
10
46.4755
20
19.278175
30
0
11
46.4755
21
14.278175
31
0
39
0
210
0
220
0
230
1
0
LINE
5
108
100
AcDbEntity
8
1
62
256
6
ByLayer
370
18
48
1
60
0
100
AcDbLine
10
51.5855
20
20.528175
30
0
11
51.5855
21
13.028175
31
0
39
0
210
0
220
0
230
1
0
LINE
5
109
100
AcDbEntity
8
1
62
256
6
ByLayer
370
13
48
1
60
0
100
AcDbLine
10
51.0855
20
21.028175
30
0
11
51.0855
21
12.528175
31
0
39
0
210
0
220
0
230
1
0
LINE
5
10A
100
AcDbEntity
8
1
62
256
6
ByLayer
370
13
48
1
60
0
100
AcDbLine
10
46.4755
20
19.278175
30
0
11
46.4755
21
14.278175
31
0
39
0
210
0
220
0
230
1
0
LINE
5
10B
100
AcDbEntity
8
1
62
256
6
ByLayer
370
18
48
1
60
0
100
AcDbLine
10
51.5855
20
20.528175
30
0
11
51.5855
21
13.028175
31
0
39
0
210
0
220
0
230
1
0
MTEXT
5
1B1
100
AcDbEntity
8
SK6
62
256
6
ByLayer
370
18
48
1
60
0
100
AcDbMText
10
0.875
20
34.125134
30
0
210
0
220
0
230
1
1
\W0.7224;C5-570-32-RG
40
3.5
41
0
44
1.084337
50
0
71
7
72
5
7
iso_b_vert
0
DIMENSION
5
1BE
100
AcDbEntity
8
SK2
62
256
6
ByLayer
370
13
48
1
60
0
100
AcDbDimension
2
DimnDraft3D1
10
42
20
-35.1
30
0
11
30.580234
21
-35.1
31
0
70
32
71
5
72
1
41
1
210
0
220
0
230
1
3
Standard
100
AcDbAlignedDimension
13
26.5
23
-8.5875
33
0
14
42
24
-8.5875
34
0
50
0
100
AcDbRotatedDimension
1001
ACAD
1000
DSTYLE
1002
{
1070
   279
1070
     0
1070
   172
1070
     1
1070
   173
1070
     1
1070
   340
1005
1B2
1070
   271
1070
     2
1070
   272
1070
     2
1070
    77
1070
     1
1070
    73
1070
     0
1070
   171
1070
     3
1070
   274
1070
     4
1070
   177
1070
     2
1070
   176
1070
     2
1070
   178
1070
     2
1070
    78
1070
     8
1070
    48
1040
-0.005
1070
    41
1041
3.5
1070
   147
1041
1.75
1070
    42
1041
1.5875
1070
    44
1041
2.0
1070
   140
1041
3.5
1070
   343
1005
0
1070
   344
1005
0
1002
}
0
DIMENSION
5
1C8
100
AcDbEntity
8
SK2
62
256
6
ByLayer
370
13
48
1
60
0
100
AcDbDimension
2
DimnDraft3D2
10
61.895319
20
0
30
0
11
61.895319
21
1.700534
31
0
70
32
71
5
72
1
41
1
210
0
220
0
230
1
3
Standard
100
AcDbAlignedDimension
13
43.5875
23
9
33
0
14
43.5875
24
0
34
0
50
90
100
AcDbRotatedDimension
1001
ACAD
1000
DSTYLE
1002
{
1070
    74
1070
     0
1070
   279
1070
     0
1070
   172
1070
     1
1070
   173
1070
     1
1070
   340
1005
1B2
1070
   271
1070
     2
1070
   272
1070
     2
1070
    77
1070
     1
1070
    73
1070
     0
1070
   171
1070
     3
1070
   274
1070
     4
1070
   177
1070
     2
1070
   176
1070
     2
1070
   178
1070
     2
1070
    78
1070
     8
1070
    48
1040
-0.005
1070
    41
1041
3.5
1070
   147
1041
1.75
1070
    42
1041
1.5875
1070
    44
1041
2.0
1070
   140
1041
3.5
1070
   343
1005
0
1070
   344
1005
0
1002
}
0
DIMENSION
5
1D3
100
AcDbEntity
8
2
62
256
6
ByLayer
370
13
48
1
60
0
100
AcDbDimension
2
DimnDraft3D3
10
42
20
-45.1
30
0
11
16.708534
21
-45.1
31
0
70
32
71
5
72
1
41
1
210
0
220
0
230
1
3
Standard
100
AcDbAlignedDimension
13
0
23
-26.5875
33
0
14
42
24
-8.5875
34
0
50
0
100
AcDbRotatedDimension
1001
ACAD
1000
DSTYLE
1002
{
1070
   279
1070
     0
1070
   172
1070
     1
1070
   173
1070
     1
1070
   340
1005
1B2
1070
   271
1070
     2
1070
   272
1070
     2
1070
    77
1070
     1
1070
    73
1070
     0
1070
   171
1070
     3
1070
   274
1070
     4
1070
   177
1070
     2
1070
   176
1070
     2
1070
   178
1070
     2
1070
    78
1070
     8
1070
    48
1040
-0.005
1070
    41
1041
3.5
1070
   147
1041
1.75
1070
    42
1041
1.5875
1070
    44
1041
2.0
1070
   140
1041
3.5
1070
   343
1005
0
1070
   344
1005
0
1002
}
0
DIMENSION
5
1DE
100
AcDbEntity
8
SK2
62
256
6
ByLayer
370
13
48
1
60
0
100
AcDbDimension
2
DimnDraft3D4
10
-53.6
20
-25
30
0
11
-54.225
21
2.284534
31
0
70
33
71
5
72
1
41
1
210
0
220
0
230
1
3
Standard
100
AcDbAlignedDimension
13
-1.5875
23
25
33
0
14
-1.5875
24
-25
34
0
1001
ACAD
1000
DSTYLE
1002
{
1070
   279
1070
     0
1070
    74
1070
     0
1070
   173
1070
     1
1070
   340
1005
1B2
1070
   271
1070
     2
1070
   272
1070
     2
1070
    77
1070
     1
1070
    73
1070
     0
1070
   171
1070
     3
1070
   274
1070
     4
1070
   177
1070
     2
1070
   176
1070
     2
1070
   178
1070
     2
1070
    78
1070
     8
1070
    48
1040
-0.005
1070
    41
1041
3.5
1070
   147
1041
1.75
1070
    42
1041
1.5875
1070
    44
1041
2.0
1070
   140
1041
3.5
1070
   343
1005
0
1070
   344
1005
0
1002
}
0
DIMENSION
5
1E9
100
AcDbEntity
8
SK2
62
256
6
ByLayer
370
13
48
1
60
0
100
AcDbDimension
2
DimnDraft3D5
10
73.895319
20
-7
30
0
11
69.270319
21
11.284534
31
0
70
33
71
5
72
1
41
1
210
0
220
0
230
1
3
Standard
100
AcDbAlignedDimension
13
43.5875
23
25
33
0
14
43.5875
24
-7
34
0
1001
ACAD
1000
DSTYLE
1002
{
1070
   279
1070
     0
1070
    74
1070
     0
1070
   173
1070
     1
1070
   340
1005
1B2
1070
   271
1070
     2
1070
   272
1070
     2
1070
    77
1070
     1
1070
    73
1070
     0
1070
   171
1070
     3
1070
   274
1070
     4
1070
   177
1070
     2
1070
   176
1070
     2
1070
   178
1070
     2
1070
    78
1070
     8
1070
    48
1040
-0.005
1070
    41
1041
3.5
1070
   147
1041
1.75
1070
    42
1041
1.5875
1070
    44
1041
2.0
1070
   140
1041
3.5
1070
   343
1005
0
1070
   344
1005
0
1002
}
0
ENDSEC
0
SECTION
2
OBJECTS
0
DICTIONARY
5
254
330
0
100
AcDbDictionary
280
0
281
1
3
ACAD_GROUP
350
255
3
ACAD_MLINESTYLE
350
256
0
DICTIONARY
5
255
330
0
100
AcDbDictionary
280
0
281
1
0
DICTIONARY
5
256
330
0
100
AcDbDictionary
280
0
281
1
3
Standard
350
18
0
MLINESTYLE
5
18
330
256
100
AcDbMlineStyle
2
Standard
70
0
3

62
256
51
90
52
90
71
2
49
-0.5
62
256
6
ByLayer
49
0.5
62
256
6
ByLayer
0
RASTERVARIABLES
5
242
330

100
AcDbRasterVariables
90
0
70
1
71
1
72
1
0
ENDSEC
0
EOF
