0
SECTION
2
HEADER
9
$ACADVER
1
AC1015
9
$DWGCODEPAGE
3
ANSI_1252
9
$HANDSEED
5
181
9
$ANGBASE
50
0
9
$ANGDIR
70
0
9
$ATTMODE
70
1
9
$AUNITS
70
0
9
$AUPREC
70
0
9
$CECOLOR
62
256
9
$CELTSCALE
40
1
9
$CELTYPE
6
ByLayer
9
$CELWEIGHT
370
18
9
$CLAYER
8
0
9
$CMLJUST
70
0
9
$CMLSCALE
40
1
9
$CMLSTYLE
2
Standard
9
$DIMSTYLE
2
Standard
9
$TEXTSIZE
40
0.2
9
$TEXTSTYLE
7
Standard
9
$LUNITS
70
2
9
$LUPREC
70
4
9
$EXTNAMES
290
1
9
$INSUNITS
70
4
9
$LTSCALE
40
1
9
$LWDISPLAY
290
1
9
$PDMODE
70
0
9
$PDSIZE
40
0
9
$PLINEGEN
70
0
0
ENDSEC
0
SECTION
2
CLASSES
0
CLASS
1
RASTERVARIABLES
2
AcDbRasterVariables
3
ISM
90
0
280
0
281
0
0
ENDSEC
0
SECTION
2
TABLES
0
TABLE
2
VPORT
5
177
100
AcDbSymbolTable
0
VPORT
5
1
100
AcDbSymbolTableRecord
100
AcDbViewportTableRecord
2
*Active
70
0
10
0
20
0
11
1
21
1
12
-1
22
1
13
0
23
0
14
0.5
24
0.5
15
10
25
10
16
0
26
0
36
1
17
0
27
0
37
0
0
ENDTAB
0
TABLE
2
LTYPE
5
178
100
AcDbSymbolTable
0
LTYPE
5
14
100
AcDbSymbolTableRecord
100
AcDbLinetypeTableRecord
70
0
2
ByBlock
3

72
65
73
0
40
0
0
LTYPE
5
15
100
AcDbSymbolTableRecord
100
AcDbLinetypeTableRecord
70
0
2
ByLayer
3

72
65
73
0
40
0
0
LTYPE
5
16
100
AcDbSymbolTableRecord
100
AcDbLinetypeTableRecord
70
0
2
CONTINUOUS
3
Solid line
72
65
73
0
40
0
0
LTYPE
5
6A
100
AcDbSymbolTableRecord
100
AcDbLinetypeTableRecord
70
0
2
CENTER
3
____ _ ____ _ ____ _ ____
72
65
73
4
40
47.5
49
22
74
0
49
-8.5
74
0
49
8.5
74
0
49
-8.5
74
0
0
LTYPE
5
6B
100
AcDbSymbolTableRecord
100
AcDbLinetypeTableRecord
70
0
2
DASHED
3
__ __ __ __ __ __ __ __ __
72
65
73
2
40
25.72
49
12.86
74
0
49
-12.86
74
0
0
ENDTAB
0
TABLE
2
LAYER
5
179
100
AcDbSymbolTable
0
LAYER
5
10
100
AcDbSymbolTableRecord
100
AcDbLayerTableRecord
2
0
70
0
62
7
6
CONTINUOUS
290
1
370
-3
390
0
0
LAYER
5
6D
100
AcDbSymbolTableRecord
100
AcDbLayerTableRecord
2
80
70
0
62
-6
6
CONTINUOUS
290
1
370
-3
390
0
0
LAYER
5
6F
100
AcDbSymbolTableRecord
100
AcDbLayerTableRecord
2
81
70
0
62
-3
6
CONTINUOUS
290
1
370
-3
390
0
0
LAYER
5
74
100
AcDbSymbolTableRecord
100
AcDbLayerTableRecord
2
1
70
0
62
4
6
CONTINUOUS
290
1
370
-3
390
0
0
LAYER
5
A9
100
AcDbSymbolTableRecord
100
AcDbLayerTableRecord
2
4
70
0
62
-2
6
CENTER
290
1
370
-3
390
0
0
LAYER
5
F6
100
AcDbSymbolTableRecord
100
AcDbLayerTableRecord
2
2
70
0
62
7
6
CONTINUOUS
290
1
370
-3
390
0
0
LAYER
5
163
100
AcDbSymbolTableRecord
100
AcDbLayerTableRecord
2
SK1
70
0
62
4
6
CONTINUOUS
290
1
370
-3
390
0
0
LAYER
5
164
100
AcDbSymbolTableRecord
100
AcDbLayerTableRecord
2
SK4
70
0
62
2
6
CENTER
290
1
370
-3
390
0
0
LAYER
5
165
100
AcDbSymbolTableRecord
100
AcDbLayerTableRecord
2
SK6
70
0
62
5
6
CONTINUOUS
290
1
370
-3
390
0
0
LAYER
5
166
100
AcDbSymbolTableRecord
100
AcDbLayerTableRecord
2
SK2
70
0
62
7
6
CONTINUOUS
290
1
370
-3
390
0
0
ENDTAB
0
TABLE
2
STYLE
5
17a
100
AcDbSymbolTable
0
STYLE
5
11
100
AcDbSymbolTableRecord
100
AcDbTextStyleTableRecord
2
Standard
3
txt
70
0
71
0
40
0
41
1
42
0
50
0
0
STYLE
5
DB
100
AcDbSymbolTableRecord
100
AcDbTextStyleTableRecord
2
iso_b_vert
3
simplex.shx
70
0
71
0
40
0
41
1
42
0
50
0
0
STYLE
5
DC
100
AcDbSymbolTableRecord
100
AcDbTextStyleTableRecord
2
DWGDirectTextStyle
3
simplex
70
0
71
0
40
0
41
1
42
0
50
0
0
ENDTAB
0
TABLE
2
DIMSTYLE
5
17b
100
AcDbSymbolTable
100
AcDbDimStyleTable
0
DIMSTYLE
105
27
100
AcDbSymbolTableRecord
100
AcDbDimStyleTableRecord
2
Standard
70
0
3
<>
41
0.18
42
0.0625
44
0.18
140
0.18
147
0.09
73
0
74
0
77
1
271
2
275
0
278
52
280
0
340
11
0
ENDTAB
0
TABLE
2
VIEW
5
17c
100
AcDbSymbolTable
0
ENDTAB
0
TABLE
2
UCS
5
17d
100
AcDbSymbolTable
0
ENDTAB
0
TABLE
2
APPID
5
17e
100
AcDbSymbolTable
0
APPID
5
12
100
AcDbSymbolTableRecord
100
AcDbRegAppTableRecord
2
ACAD
70
0
0
ENDTAB
0
TABLE
2
BLOCK_RECORD
5
17f
100
AcDbSymbolTable
0
BLOCK_RECORD
5
1F
100
AcDbSymbolTableRecord
100
AcDbBlockTableRecord
2
*Model_Space
340
0
70
0
0
BLOCK_RECORD
5
1B
100
AcDbSymbolTableRecord
100
AcDbBlockTableRecord
2
*Paper_Space
340
0
70
0
0
BLOCK_RECORD
5
23
100
AcDbSymbolTableRecord
100
AcDbBlockTableRecord
2
*Paper_Space0
340
0
70
0
0
BLOCK_RECORD
5
DE
100
AcDbSymbolTableRecord
100
AcDbBlockTableRecord
2
DimnDraft3D1
340
0
70
0
0
BLOCK_RECORD
5
EA
100
AcDbSymbolTableRecord
100
AcDbBlockTableRecord
2
DimnDraft3D2
340
0
70
0
0
BLOCK_RECORD
5
F4
100
AcDbSymbolTableRecord
100
AcDbBlockTableRecord
2
DimnDraft3D3
340
0
70
0
0
BLOCK_RECORD
5
FF
100
AcDbSymbolTableRecord
100
AcDbBlockTableRecord
2
DimnDraft3D4
340
0
70
0
0
ENDTAB
0
ENDSEC
0
SECTION
2
BLOCKS
0
BLOCK
5
20
100
AcDbEntity
8
0
100
AcDbBlockBegin
2
*Model_Space
70
0
10
0
20
0
30
0
3
*Model_Space
0
ENDBLK
5
21
100
AcDbEntity
8
0
100
AcDbBlockEnd
0
BLOCK
5
1C
100
AcDbEntity
8
0
100
AcDbBlockBegin
2
*Paper_Space
70
0
10
0
20
0
30
0
3
*Paper_Space
0
ENDBLK
5
1D
100
AcDbEntity
8
0
100
AcDbBlockEnd
0
BLOCK
5
24
100
AcDbEntity
8
0
100
AcDbBlockBegin
2
*Paper_Space0
70
0
10
0
20
0
30
0
3
*Paper_Space0
0
ENDBLK
5
25
100
AcDbEntity
8
0
100
AcDbBlockEnd
0
BLOCK
5
E7
100
AcDbEntity
8
0
100
AcDbBlockBegin
2
DimnDraft3D1
70
0
10
0
20
0
30
0
3
DimnDraft3D1
0
MTEXT
5
DF
100
AcDbEntity
8
SK2
62
256
6
ByLayer
370
18
48
1
60
0
100
AcDbMText
10
-45
20
2.897368
30
0
210
0
220
0
230
1
1
\W0.6563;50
40
3
41
0
44
1.084337
50
90
71
7
72
5
7
iso_b_vert
0
MTEXT
5
E1
100
AcDbEntity
8
SK2
62
256
6
ByLayer
370
18
48
1
60
0
100
AcDbMText
10
-45
20
-3.379194
30
0
210
0
220
0
230
1
1
%%c
40
3
41
0
44
1.084337
50
90
71
7
72
5
7
iso_b_vert
0
LINE
5
E2
100
AcDbEntity
8
SK2
62
256
6
ByLayer
370
13
48
1
60
0
100
AcDbLine
10
-1.7
20
-25
30
0
11
-45.5
21
-25
31
0
39
0
210
0
220
0
230
1
0
LINE
5
E3
100
AcDbEntity
8
SK2
62
256
6
ByLayer
370
13
48
1
60
0
100
AcDbLine
10
-1.7
20
25
30
0
11
-45.5
21
25
31
0
39
0
210
0
220
0
230
1
0
LINE
5
E4
100
AcDbEntity
8
SK2
62
256
6
ByLayer
370
13
48
1
60
0
100
AcDbLine
10
-43.5
20
-25
30
0
11
-43.5
21
25
31
0
39
0
210
0
220
0
230
1
0
SOLID
5
E5
100
AcDbEntity
8
SK2
62
256
6
ByLayer
370
13
48
1
60
0
100
AcDbTrace
10
-43.5
20
-25
30
0
11
-43.833706
21
-21.825001
31
0
12
-43.166294
22
-21.824999
32
0
13
-43.5
23
-25
33
0
39
0
210
0
220
0
230
1
0
SOLID
5
E6
100
AcDbEntity
8
SK2
62
256
6
ByLayer
370
13
48
1
60
0
100
AcDbTrace
10
-43.5
20
25
30
0
11
-43.166294
21
21.825001
31
0
12
-43.833706
22
21.824999
32
0
13
-43.5
23
25
33
0
39
0
210
0
220
0
230
1
0
ENDBLK
5
E8
100
AcDbEntity
8
0
100
AcDbBlockEnd
0
BLOCK
5
F1
100
AcDbEntity
8
0
100
AcDbBlockBegin
2
DimnDraft3D2
70
0
10
0
20
0
30
0
3
DimnDraft3D2
0
MTEXT
5
EB
100
AcDbEntity
8
SK2
62
256
6
ByLayer
370
18
48
1
60
0
100
AcDbMText
10
70.75
20
9.872368
30
0
210
0
220
0
230
1
1
\W0.6139;21
40
3
41
0
44
1.084337
50
90
71
7
72
5
7
iso_b_vert
0
LINE
5
EC
100
AcDbEntity
8
SK2
62
256
6
ByLayer
370
13
48
1
60
0
100
AcDbLine
10
60.3
20
0
30
0
11
73.5
21
0
31
0
39
0
210
0
220
0
230
1
0
LINE
5
ED
100
AcDbEntity
8
SK2
62
256
6
ByLayer
370
13
48
1
60
0
100
AcDbLine
10
44
20
21
30
0
11
73.5
21
21
31
0
39
0
210
0
220
0
230
1
0
LINE
5
EE
100
AcDbEntity
8
SK2
62
256
6
ByLayer
370
13
48
1
60
0
100
AcDbLine
10
71.5
20
0
30
0
11
71.5
21
21
31
0
39
0
210
0
220
0
230
1
0
SOLID
5
EF
100
AcDbEntity
8
SK2
62
256
6
ByLayer
370
13
48
1
60
0
100
AcDbTrace
10
71.5
20
0
30
0
11
71.166294
21
3.174999
31
0
12
71.833706
22
3.175001
32
0
13
71.5
23
0
33
0
39
0
210
0
220
0
230
1
0
SOLID
5
F0
100
AcDbEntity
8
SK2
62
256
6
ByLayer
370
13
48
1
60
0
100
AcDbTrace
10
71.5
20
21
30
0
11
71.833706
21
17.825001
31
0
12
71.166294
22
17.824999
32
0
13
71.5
23
21
33
0
39
0
210
0
220
0
230
1
0
ENDBLK
5
F2
100
AcDbEntity
8
0
100
AcDbBlockEnd
0
BLOCK
5
FC
100
AcDbEntity
8
0
100
AcDbBlockBegin
2
DimnDraft3D3
70
0
10
0
20
0
30
0
3
DimnDraft3D3
0
MTEXT
5
F5
100
AcDbEntity
8
2
62
256
6
ByLayer
370
18
48
1
60
0
100
AcDbMText
10
19.8
20
53.260884
30
0
210
0
220
0
230
1
1
\W0.7361;42
40
3
41
0
44
1.084337
50
0
71
7
72
5
7
iso_b_vert
0
LINE
5
F7
100
AcDbEntity
8
2
62
256
6
ByLayer
370
13
48
1
60
0
100
AcDbLine
10
0
20
26.7
30
0
11
0
21
54.510884
31
0
39
0
210
0
220
0
230
1
0
LINE
5
F8
100
AcDbEntity
8
2
62
256
6
ByLayer
370
13
48
1
60
0
100
AcDbLine
10
42
20
23
30
0
11
42
21
54.510884
31
0
39
0
210
0
220
0
230
1
0
LINE
5
F9
100
AcDbEntity
8
2
62
256
6
ByLayer
370
13
48
1
60
0
100
AcDbLine
10
0
20
52.510884
30
0
11
42
21
52.510884
31
0
39
0
210
0
220
0
230
1
0
SOLID
5
FA
100
AcDbEntity
8
2
62
256
6
ByLayer
370
13
48
1
60
0
100
AcDbTrace
10
0
20
52.510884
30
0
11
3.174999
21
52.84459
31
0
12
3.175001
22
52.177178
32
0
13
0
23
52.510884
33
0
39
0
210
0
220
0
230
1
0
SOLID
5
FB
100
AcDbEntity
8
2
62
256
6
ByLayer
370
13
48
1
60
0
100
AcDbTrace
10
42
20
52.510884
30
0
11
38.825001
21
52.177178
31
0
12
38.824999
22
52.84459
32
0
13
42
23
52.510884
33
0
39
0
210
0
220
0
230
1
0
ENDBLK
5
FD
100
AcDbEntity
8
0
100
AcDbBlockEnd
0
BLOCK
5
107
100
AcDbEntity
8
0
100
AcDbBlockBegin
2
DimnDraft3D4
70
0
10
0
20
0
30
0
3
DimnDraft3D4
0
MTEXT
5
100
100
AcDbEntity
8
SK2
62
256
6
ByLayer
370
18
48
1
60
0
100
AcDbMText
10
45.357895
20
43.27594
30
0
210
0
220
0
230
1
1
\W0.6740;32
40
3
41
0
44
1.084337
50
0
71
7
72
5
7
iso_b_vert
0
MTEXT
5
101
100
AcDbEntity
8
SK2
62
256
6
ByLayer
370
18
48
1
60
0
100
AcDbMText
10
39.081332
20
43.27594
30
0
210
0
220
0
230
1
1
%%c
40
3
41
0
44
1.084337
50
0
71
7
72
5
7
iso_b_vert
0
LINE
5
102
100
AcDbEntity
8
SK2
62
256
6
ByLayer
370
13
48
1
60
0
100
AcDbLine
10
27
20
22.324519
30
0
11
27
21
43.77594
31
0
39
0
210
0
220
0
230
1
0
LINE
5
103
100
AcDbEntity
8
SK2
62
256
6
ByLayer
370
13
48
1
60
0
100
AcDbLine
10
58
20
22.324519
30
0
11
58
21
43.77594
31
0
39
0
210
0
220
0
230
1
0
LINE
5
104
100
AcDbEntity
8
SK2
62
256
6
ByLayer
370
13
48
1
60
0
100
AcDbLine
10
27
20
41.77594
30
0
11
58
21
41.77594
31
0
39
0
210
0
220
0
230
1
0
SOLID
5
105
100
AcDbEntity
8
SK2
62
256
6
ByLayer
370
13
48
1
60
0
100
AcDbTrace
10
27
20
41.77594
30
0
11
30.174999
21
42.109646
31
0
12
30.175001
22
41.442234
32
0
13
27
23
41.77594
33
0
39
0
210
0
220
0
230
1
0
SOLID
5
106
100
AcDbEntity
8
SK2
62
256
6
ByLayer
370
13
48
1
60
0
100
AcDbTrace
10
58
20
41.77594
30
0
11
54.825001
21
41.442234
31
0
12
54.824999
22
42.109646
32
0
13
58
23
41.77594
33
0
39
0
210
0
220
0
230
1
0
ENDBLK
5
108
100
AcDbEntity
8
0
100
AcDbBlockEnd
0
ENDSEC
0
SECTION
2
ENTITIES
0
ARC
5
AE
100
AcDbEntity
8
1
62
256
6
ByLayer
370
18
48
1
60
0
100
AcDbCircle
39
0
10
-31.521825
20
25.8
30
0
40
0.200000000000019
210
0
220
0
230
-1
100
AcDbArc
50
90
51
180
0
ARC
5
AF
100
AcDbEntity
8
1
62
256
6
ByLayer
370
18
48
1
60
0
100
AcDbCircle
39
0
10
-30.471825
20
30.5
30
0
40
0.499999999999966
210
0
220
0
230
-1
100
AcDbArc
50
0
51
90
0
ARC
5
B0
100
AcDbEntity
8
1
62
256
6
ByLayer
370
18
48
1
60
0
100
AcDbCircle
39
0
10
-36.921825
20
25.8
30
0
40
0.19999999999993
210
0
220
0
230
-1
100
AcDbArc
50
0
51
90
0
ARC
5
B1
100
AcDbEntity
8
1
62
256
6
ByLayer
370
18
48
1
60
0
100
AcDbCircle
39
0
10
-37.971825
20
30.5
30
0
40
0.500000000000019
210
0
220
0
230
-1
100
AcDbArc
50
90
51
180
0
ARC
5
B2
100
AcDbEntity
8
1
62
256
6
ByLayer
370
18
48
1
60
0
100
AcDbCircle
39
0
10
-46.028175
20
30.5
30
0
40
0.500000000000019
210
0
220
0
230
-1
100
AcDbArc
50
0
51
90
0
ARC
5
B3
100
AcDbEntity
8
1
62
256
6
ByLayer
370
18
48
1
60
0
100
AcDbCircle
39
0
10
-47.078175
20
25.8
30
0
40
0.19999999999993
210
0
220
0
230
-1
100
AcDbArc
50
90
51
180
0
ARC
5
B4
100
AcDbEntity
8
1
62
256
6
ByLayer
370
18
48
1
60
0
100
AcDbCircle
39
0
10
-52.478175
20
25.8
30
0
40
0.19999999999993
210
0
220
0
230
-1
100
AcDbArc
50
0
51
90
0
ARC
5
B5
100
AcDbEntity
8
1
62
256
6
ByLayer
370
18
48
1
60
0
100
AcDbCircle
39
0
10
-53.528175
20
30.5
30
0
40
0.500000000000019
210
0
220
0
230
-1
100
AcDbArc
50
90
51
180
0
ARC
5
B6
100
AcDbEntity
8
1
62
256
6
ByLayer
370
18
48
1
60
0
100
AcDbCircle
39
0
10
-45.645664
20
6.370568
30
0
40
12.0000000012042
210
0
220
0
230
-1
100
AcDbArc
50
251.024496
51
260
0
CIRCLE
5
B7
100
AcDbEntity
8
1
62
256
6
ByLayer
370
18
48
1
60
0
100
AcDbCircle
10
-42
20
5
30
0
40
4.14143307609568
39
0
210
0
220
0
230
-1
0
CIRCLE
5
B8
100
AcDbEntity
8
1
62
256
6
ByLayer
370
18
48
1
60
0
100
AcDbCircle
10
-42
20
5
30
0
40
3.17170746233157
39
0
210
0
220
0
230
-1
0
ELLIPSE
5
B9
100
AcDbEntity
8
1
62
256
6
ByLayer
370
18
48
1
60
0
100
AcDbEllipse
10
21.056258
20
0
30
0
11
-11.7092723497275
21
24.6771864409377
31
0
210
0
220
0
230
-1
40
0.341999
41
-1.08183270048927
42
-0.167213071908978
0
ELLIPSE
5
BA
100
AcDbEntity
8
1
62
256
6
ByLayer
370
18
48
1
60
0
100
AcDbEllipse
10
-1.056258
20
0
30
0
11
-11.7092723497273
21
-24.6771864409374
31
0
210
0
220
0
230
-1
40
0.341999
41
-2.97437958168082
42
-2.05975995310051
0
ELLIPSE
5
BB
100
AcDbEntity
8
1
62
256
6
ByLayer
370
18
48
1
60
0
100
AcDbEllipse
10
21.056258
20
0
30
0
11
-11.7092723497275
21
-24.6771864409377
31
0
210
0
220
0
230
-1
40
0.341999
41
0.167213071908974
42
1.08183270048927
0
ELLIPSE
5
BC
100
AcDbEntity
8
1
62
256
6
ByLayer
370
18
48
1
60
0
100
AcDbEllipse
10
-1.056258
20
0
30
0
11
-11.7092723497275
21
24.6771864409376
31
0
210
0
220
0
230
-1
40
0.341999
41
2.05975995310052
42
2.97437958168082
0
ELLIPSE
5
BD
100
AcDbEntity
8
1
62
256
6
ByLayer
370
18
48
1
60
0
100
AcDbEllipse
10
29.837244
20
-21.847287
30
0
11
2.59778237158131E-15
21
-14.1421356257207
31
0
210
0
220
0
230
-1
40
0.707107
41
2.90568618448063
42
3.01755035832936
0
ELLIPSE
5
BE
100
AcDbEntity
8
1
62
256
6
ByLayer
370
18
48
1
60
0
100
AcDbEllipse
10
40.3
20
-22.050778
30
0
11
-13.2750648746034
21
-14.4969376059935
31
0
210
0
220
0
230
-1
40
0.838534
41
2.75033514075
42
2.85178474071752
0
POINT
5
6C
100
AcDbEntity
8
80
62
256
6
ByLayer
370
18
48
1
60
0
100
AcDbPoint
10
0
20
0
30
0
39
0
210
0
220
0
230
1
50
360
0
POINT
5
6E
100
AcDbEntity
8
81
62
256
6
ByLayer
370
18
48
1
60
0
100
AcDbPoint
10
42
20
21
30
0
39
0
210
0
220
0
230
1
50
360
0
SPLINE
5
BF
100
AcDbEntity
8
1
62
256
6
ByLayer
370
18
48
1
60
0
100
AcDbSpline
70
4
71
3
72
13
73
9
40
0
40
0
40
0
40
0
40
0.0811068003230921
40
0.542059695793804
40
0.69821792930835
40
0.855466894270646
40
0.966212236972871
40
1
40
1
40
1
40
1
41
1
10
8.1056624327026
20
8.0558483678277
30
0
41
1
10
8.11055716182229
20
8.03725171409795
30
0
41
1
10
8.1465653712394
20
7.91434257650646
30
0
41
1
10
8.21224772505844
20
7.75704006565188
30
0
41
1
10
8.33437440198708
20
7.61365769814291
30
0
41
1
10
8.42067769292453
20
7.5524380320559
30
0
41
1
10
8.49433884112822
20
7.53148602816102
30
0
41
1
10
8.5301989941883
20
7.5296926218967
30
0
41
1
10
8.5386751345948
20
7.52966679426495
30
0
0
SPLINE
5
C0
100
AcDbEntity
8
1
62
256
6
ByLayer
370
18
48
1
60
0
100
AcDbSpline
70
4
71
3
72
12
73
8
40
0
40
0
40
0
40
0
40
0.0777065243410563
40
0.182768991260373
40
0.355509705274209
40
0.661119206188037
40
1
40
1
40
1
40
1
41
1
10
8.53867513459472
20
23.8391299750504
30
0
41
1
10
8.51889061425134
20
23.8390510092636
30
0
41
1
10
8.47384249247801
20
23.837417080354
30
0
41
1
10
8.39097933474599
20
23.8265956452496
30
0
41
1
10
8.28079022698234
20
23.7967264721262
30
0
41
1
10
8.17813160018114
20
23.7411879478122
30
0
41
1
10
8.12412228713197
20
23.6935586164054
30
0
41
1
10
8.1056624327026
20
23.6665017920809
30
0
0
SPLINE
5
C1
100
AcDbEntity
8
1
62
256
6
ByLayer
370
18
48
1
60
0
100
AcDbSpline
70
4
71
3
72
13
73
9
40
0
40
0
40
0
40
0
40
0.0811068003230409
40
0.54205969579374
40
0.698217929308338
40
0.855466894270605
40
0.966212236972869
40
1
40
1
40
1
40
1
41
1
10
8.1056624327026
20
-23.6665017920809
30
0
41
1
10
8.11055716182229
20
-23.6728293617709
30
0
41
1
10
8.14656537123942
20
-23.7145200781298
30
0
41
1
10
8.21224772505843
20
-23.7663890526221
30
0
41
1
10
8.33437440198706
20
-23.8124861135429
30
0
41
1
10
8.42067769292453
20
-23.8319383085952
30
0
41
1
10
8.4943388411282
20
-23.8385548003315
30
0
41
1
10
8.53019899418831
20
-23.8391220894067
30
0
41
1
10
8.5386751345948
20
-23.8391299750504
30
0
0
SPLINE
5
C2
100
AcDbEntity
8
1
62
256
6
ByLayer
370
18
48
1
60
0
100
AcDbSpline
70
4
71
3
72
12
73
8
40
0
40
0
40
0
40
0
40
0.0777065243410571
40
0.182768991260338
40
0.355509705274147
40
0.661119206188049
40
1
40
1
40
1
40
1
41
1
10
8.53867513459472
20
-7.52966679426499
30
0
41
1
10
8.51889061425134
20
-7.52992453895396
30
0
41
1
10
8.47384249247803
20
-7.53508753718823
30
0
41
1
10
8.39097933474597
20
-7.56930040674375
30
0
41
1
10
8.28079022698232
20
-7.66302821977529
30
0
41
1
10
8.17813160018113
20
-7.83415197314219
30
0
41
1
10
8.12412228713196
20
-7.97612018956252
30
0
41
1
10
8.1056624327026
20
-8.0558483678277
30
0
0
SPLINE
5
C3
100
AcDbEntity
8
SK1
62
256
6
ByLayer
370
18
48
1
60
0
100
AcDbSpline
70
4
71
3
72
51
73
47
40
0
40
0
40
0
40
0
40
0.0036315390846953
40
0.0329680707935682
40
0.0476268778337137
40
0.0769822681863697
40
0.0916834150918136
40
0.106381936352327
40
0.121081153135496
40
0.135779600369772
40
0.150472080753082
40
0.16516703964907
40
0.194502179950167
40
0.223816017811569
40
0.253117963859835
40
0.282413072167371
40
0.311703983366178
40
0.340992164944299
40
0.370278517830426
40
0.399563609501556
40
0.424645158846139
40
0.449727097962857
40
0.475037940687289
40
0.500348906673884
40
0.508502770437475
40
0.541132244989681
40
0.573762096624217
40
0.606392713727905
40
0.639024559099689
40
0.671658308505482
40
0.704294973220082
40
0.736936150929159
40
0.769584768883152
40
0.802246523686954
40
0.8186012335353
40
0.834952834961262
40
0.850647244919667
40
0.866338455245805
40
0.881982887139944
40
0.897626612790829
40
0.913312174018698
40
0.929001055402156
40
0.94466581190359
40
0.96033255233635
40
0.991630405487347
40
1
40
1
40
1
40
1
41
1
10
-2.19993724359906
20
-17.5200917093891
30
0
41
1
10
-2.19993604433898
20
-17.5201514735331
30
0
41
1
10
-2.199924914432
20
-17.5179609957904
30
0
41
1
10
-2.19990555340838
20
-17.4784600409091
30
0
41
1
10
-2.1998676848346
20
-17.3314756597327
30
0
41
1
10
-2.1998304637977
20
-17.1387722954106
30
0
41
1
10
-2.19978934694386
20
-16.8558326805191
30
0
41
1
10
-2.19975997019632
20
-16.5942893666525
30
0
41
1
10
-2.19973698962961
20
-16.279271733294
30
0
41
1
10
-2.19972478696585
20
-15.9114745163921
30
0
41
1
10
-2.19972577539222
20
-15.4924769628818
30
0
41
1
10
-2.19973936703657
20
-14.8759077155024
30
0
41
1
10
-2.19976939101314
20
-14.011241561438
30
0
41
1
10
-2.19980597714911
20
-12.8700339888312
30
0
41
1
10
-2.19983801428773
20
-11.6524615096257
30
0
41
1
10
-2.19986440455429
20
-10.3772131802349
30
0
41
1
10
-2.19988553200477
20
-9.05726035813504
30
0
41
1
10
-2.19990207011721
20
-7.70237936863798
30
0
41
1
10
-2.19991473757352
20
-6.32026766633039
30
0
41
1
10
-2.19992368154807
20
-4.98435366846976
30
0
41
1
10
-2.19992984586262
20
-3.70265924245478
30
0
41
1
10
-2.19993384443014
20
-2.47673377998618
30
0
41
1
10
-2.1999362673117
20
-1.24161702027654
30
0
41
1
10
-2.19993702930823
20
-0.280504392377926
30
0
41
1
10
-2.19993659149723
20
0.800103573143037
30
0
41
1
10
-2.199935135902
20
2.00000607458031
30
0
41
1
10
-2.19993048560071
20
3.59243710137062
30
0
41
1
10
-2.19992277390628
20
5.1713988795658
30
0
41
1
10
-2.19991151442832
20
6.73003916184019
30
0
41
1
10
-2.19989599420886
20
8.26060631290796
30
0
41
1
10
-2.19987530265094
20
9.75374221945113
30
0
41
1
10
-2.19984846350703
20
11.1976989465212
30
0
41
1
10
-2.19981467979809
20
12.5764614885994
30
0
41
1
10
-2.19978115920966
20
13.6527164239419
30
0
41
1
10
-2.19975401226336
20
14.4510196196826
30
0
41
1
10
-2.19973653398573
20
15.0046244004244
30
0
41
1
10
-2.19972538965576
20
15.5062276880709
30
0
41
1
10
-2.19972511297338
20
15.9500614596671
30
0
41
1
10
-2.19973956857106
20
16.3351343800809
30
0
41
1
10
-2.19976628059682
20
16.6591952972896
30
0
41
1
10
-2.19979826831051
20
16.9240433274655
30
0
41
1
10
-2.19983101427928
20
17.134240013337
30
0
41
1
10
-2.1998606691344
20
17.2946228950584
30
0
41
1
10
-2.1998957727752
20
17.4481787618077
30
0
41
1
10
-2.19991987888634
20
17.51171821305
30
0
41
1
10
-2.19993375640108
20
17.5199671645523
30
0
41
1
10
-2.19993654272997
20
17.5201004076592
30
0
0
SPLINE
5
C4
100
AcDbEntity
8
SK1
62
256
6
ByLayer
370
18
48
1
60
0
100
AcDbSpline
70
4
71
2
72
6
73
3
40
0
40
0
40
0
40
1
40
1
40
1
41
1
10
-30
20
-15.9423013487186
30
0
41
1
10
-29.2501952787077
20
-16.4010253845872
30
0
41
1
10
-28.5003904504266
20
-16.8597456617469
30
0
0
SPLINE
5
C5
100
AcDbEntity
8
SK1
62
256
6
ByLayer
370
18
48
1
60
0
100
AcDbSpline
70
4
71
2
72
6
73
3
40
0
40
0
40
0
40
1
40
1
40
1
41
1
10
-28.5004032853135
20
16.8579102610954
30
0
41
1
10
-29.250201613525
20
16.3993636736336
30
0
41
1
10
-30
20
15.9408160639395
30
0
0
SPLINE
5
C6
100
AcDbEntity
8
1
62
256
6
ByLayer
370
18
48
1
60
0
100
AcDbSpline
70
4
71
3
72
13
73
9
40
0
40
0
40
0
40
0
40
0.0811068003230015
40
0.542059695793623
40
0.698217929308269
40
0.855466894270565
40
0.966212236972885
40
1
40
1
40
1
40
1
41
1
10
11.8943375672974
20
23.6665017920809
30
0
41
1
10
11.8894428381777
20
23.6728293617709
30
0
41
1
10
11.8534346287606
20
23.7145200781298
30
0
41
1
10
11.7877522749416
20
23.7663890526223
30
0
41
1
10
11.6656255980129
20
23.8124861135428
30
0
41
1
10
11.5793223070755
20
23.8319383085952
30
0
41
1
10
11.5056611588718
20
23.8385548003314
30
0
41
1
10
11.4698010058117
20
23.8391220894066
30
0
41
1
10
11.4613248654052
20
23.8391299750503
30
0
0
SPLINE
5
C7
100
AcDbEntity
8
1
62
256
6
ByLayer
370
18
48
1
60
0
100
AcDbSpline
70
4
71
3
72
12
73
8
40
0
40
0
40
0
40
0
40
0.0777065243411647
40
0.182768991260498
40
0.355509705274349
40
0.661119206188292
40
1
40
1
40
1
40
1
41
1
10
11.4613248654052
20
7.52966679426495
30
0
41
1
10
11.4811093857486
20
7.52992453895391
30
0
41
1
10
11.526157507522
20
7.53508753718817
30
0
41
1
10
11.6090206652541
20
7.56930040674377
30
0
41
1
10
11.7192097730177
20
7.66302821977536
30
0
41
1
10
11.8218683998189
20
7.83415197314223
30
0
41
1
10
11.875877712868
20
7.97612018956253
30
0
41
1
10
11.8943375672974
20
8.05584836782765
30
0
0
SPLINE
5
C8
100
AcDbEntity
8
1
62
256
6
ByLayer
370
18
48
1
60
0
100
AcDbSpline
70
4
71
3
72
12
73
8
40
0
40
0
40
0
40
0
40
0.0777065243411662
40
0.182768991260526
40
0.35550970527434
40
0.661119206188183
40
1
40
1
40
1
40
1
41
1
10
11.4613248654052
20
-7.52966679426499
30
0
41
1
10
11.4811093857486
20
-7.52992453895395
30
0
41
1
10
11.526157507522
20
-7.53508753718821
30
0
41
1
10
11.609020665254
20
-7.56930040674389
30
0
41
1
10
11.7192097730178
20
-7.66302821977535
30
0
41
1
10
11.8218683998188
20
-7.8341519731423
30
0
41
1
10
11.875877712868
20
-7.97612018956256
30
0
41
1
10
11.8943375672974
20
-8.0558483678277
30
0
0
SPLINE
5
C9
100
AcDbEntity
8
1
62
256
6
ByLayer
370
18
48
1
60
0
100
AcDbSpline
70
4
71
3
72
13
73
9
40
0
40
0
40
0
40
0
40
0.0811068003230045
40
0.542059695793685
40
0.698217929308303
40
0.855466894270565
40
0.966212236972822
40
1
40
1
40
1
40
1
41
1
10
11.8943375672974
20
-23.6665017920809
30
0
41
1
10
11.8894428381777
20
-23.6728293617709
30
0
41
1
10
11.8534346287606
20
-23.7145200781299
30
0
41
1
10
11.7877522749416
20
-23.7663890526222
30
0
41
1
10
11.6656255980129
20
-23.8124861135429
30
0
41
1
10
11.5793223070755
20
-23.8319383085952
30
0
41
1
10
11.5056611588718
20
-23.8385548003314
30
0
41
1
10
11.4698010058117
20
-23.8391220894067
30
0
41
1
10
11.4613248654052
20
-23.8391299750504
30
0
0
SPLINE
5
CA
100
AcDbEntity
8
SK1
62
256
6
ByLayer
370
18
48
1
60
0
100
AcDbSpline
70
4
71
2
72
6
73
3
40
0
40
0
40
0
40
1
40
1
40
1
41
1
10
-28.5004731679065
20
-16.8593393543735
30
0
41
1
10
-15.3502049979055
20
-17.1897198630478
30
0
41
1
10
-2.19993682790444
20
-17.520100371722
30
0
0
SPLINE
5
CB
100
AcDbEntity
8
SK1
62
256
6
ByLayer
370
18
48
1
60
0
100
AcDbSpline
70
4
71
2
72
6
73
3
40
0
40
0
40
0
40
1
40
1
40
1
41
1
10
-2.19993654212713
20
17.5201003788694
30
0
41
1
10
-15.3502048550168
20
17.189719866606
30
0
41
1
10
-28.5004731679065
20
16.8593393543424
30
0
0
SPLINE
5
CC
100
AcDbEntity
8
1
62
256
6
ByLayer
370
18
48
1
60
0
100
AcDbSpline
70
4
71
3
72
12
73
8
40
0
40
0
40
0
40
0
40
0.221740539813628
40
0.447817706358853
40
0.719748346230178
40
0.85987365326628
40
1
40
1
40
1
40
1
41
1
10
19.6727907307216
20
19.68384612818
30
0
41
1
10
19.947675938642
20
19.6226781553643
30
0
41
1
10
20.5167932923394
20
19.5306413267997
30
0
41
1
10
21.4870171790772
20
19.4786698908452
30
0
41
1
10
22.3720730446951
20
19.545649213319
30
0
41
1
10
23.1366690149313
20
19.6882073524118
30
0
41
1
10
23.5203036689065
20
19.7897645890965
30
0
41
1
10
23.7113483370683
20
19.8478443861941
30
0
0
SPLINE
5
CD
100
AcDbEntity
8
1
62
256
6
ByLayer
370
18
48
1
60
0
100
AcDbSpline
70
4
71
1
72
4
73
2
40
0
40
0
40
1
40
1
41
1
10
23.7113483370683
20
19.8478443861941
30
0
41
1
10
24.161882181415
20
20
30
0
0
SPLINE
5
CE
100
AcDbEntity
8
1
62
256
6
ByLayer
370
18
48
1
60
0
100
AcDbSpline
70
4
71
3
72
16
73
12
40
0
40
0
40
0
40
0
40
0.127323128344614
40
0.25587424846339
40
0.362779848763818
40
0.469673636799317
40
0.580860351914257
40
0.692061597687879
40
0.844735939771641
40
0.922368523024371
40
1
40
1
40
1
40
1
41
1
10
19.6727907307216
20
10.5899043242784
30
0
41
1
10
19.7111947695394
20
10.9545632670273
30
0
41
1
10
19.8169333964561
20
11.6665529537877
30
0
41
1
10
20.0380907530007
20
12.6230038048137
30
0
41
1
10
20.3349785575992
20
13.4629855682592
30
0
41
1
10
20.6998292175674
20
14.2052693375343
30
0
41
1
10
21.1654344821215
20
14.8975624874175
30
0
41
1
10
21.8013824163228
20
15.6299712499675
30
0
41
1
10
22.4884269470482
20
16.2538502049225
30
0
41
1
10
23.1700683730241
20
16.8092899834992
30
0
41
1
10
23.5281498590932
20
17.0938358089274
30
0
41
1
10
23.7113483370683
20
17.2366546111544
30
0
0
SPLINE
5
CF
100
AcDbEntity
8
1
62
256
6
ByLayer
370
18
48
1
60
0
100
AcDbSpline
70
4
71
3
72
10
73
6
40
0
40
0
40
0
40
0
40
0.26344578455437
40
0.630566071650004
40
1
40
1
40
1
40
1
41
1
10
19.6727907307216
20
10.5899043242784
30
0
41
1
10
19.6352978765842
20
10.1923085699661
30
0
41
1
10
19.5598691105561
20
9.23015665885772
30
0
41
1
10
19.509434481808
20
7.65838114715518
30
0
41
1
10
19.4970637762747
20
6.47541246083058
30
0
41
1
10
19.5
20
5.8745212570898
30
0
0
SPLINE
5
D0
100
AcDbEntity
8
1
62
256
6
ByLayer
370
18
48
1
60
0
100
AcDbSpline
70
4
71
2
72
6
73
3
40
0
40
0
40
0
40
1
40
1
40
1
41
1
10
31.7214115195808
20
20
30
0
41
1
10
29.6096416431496
20
19.5196877297211
30
0
41
1
10
27.5
20
19.0300871562271
30
0
0
SPLINE
5
D1
100
AcDbEntity
8
1
62
256
6
ByLayer
370
18
48
1
60
0
100
AcDbSpline
70
4
71
3
72
13
73
9
40
0
40
0
40
0
40
0
40
0.141503709277933
40
0.283022587223891
40
0.429343131621493
40
0.575680878759291
40
0.78645206676966
40
1
40
1
40
1
40
1
41
1
10
27.5
20
19.0300871562271
30
0
41
1
10
27.2991022309291
20
18.9833161609024
30
0
41
1
10
26.9020423521643
20
18.8782053332763
30
0
41
1
10
26.312000892909
20
18.6828032919037
30
0
41
1
10
25.7345598708813
20
18.4508917234812
30
0
41
1
10
25.0916510848998
20
18.1443796609873
30
0
41
1
10
24.404500465437
20
17.7472748932117
30
0
41
1
10
23.9365138808297
20
17.414299948737
30
0
41
1
10
23.7113483370683
20
17.2366546111545
30
0
0
SPLINE
5
D2
100
AcDbEntity
8
1
62
256
6
ByLayer
370
18
48
1
60
0
100
AcDbSpline
70
4
71
1
72
4
73
2
40
0
40
0
40
1
40
1
41
1
10
19.6727907307212
20
-13.892120173125
30
0
41
1
10
20.2074578519508
20
-13.0910267738117
30
0
0
SPLINE
5
D3
100
AcDbEntity
8
1
62
256
6
ByLayer
370
18
48
1
60
0
100
AcDbSpline
70
4
71
3
72
12
73
8
40
0
40
0
40
0
40
0
40
0.198189646573229
40
0.396359636178786
40
0.598706084321631
40
0.801028810020651
40
1
40
1
40
1
40
1
41
1
10
18.4
20
-17.3
30
0
41
1
10
18.4377190393779
20
-17.0828704137529
30
0
41
1
10
18.5306854850873
20
-16.6442220337826
30
0
41
1
10
18.7219121419265
20
-15.9660823818739
30
0
41
1
10
18.972747044331
20
-15.2742456743092
30
0
41
1
10
19.2856847787972
20
-14.577624791119
30
0
41
1
10
19.5374543220221
20
-14.1189969033521
30
0
41
1
10
19.6727907307212
20
-13.892120173125
30
0
0
SPLINE
5
D4
100
AcDbEntity
8
1
62
256
6
ByLayer
370
18
48
1
60
0
100
AcDbSpline
70
4
71
1
72
4
73
2
40
0
40
0
40
1
40
1
41
1
10
20.2074578519484
20
-13.0910267738149
30
0
41
1
10
20.4212048610151
20
-12.8123300897656
30
0
0
SPLINE
5
D5
100
AcDbEntity
8
1
62
256
6
ByLayer
370
18
48
1
60
0
100
AcDbSpline
70
4
71
3
72
16
73
12
40
0
40
0
40
0
40
0
40
0.0374932205725147
40
0.167620960834567
40
0.297864050901295
40
0.447974658986728
40
0.598132161976235
40
0.72014033975667
40
0.842514243847377
40
0.964503035201766
40
1
40
1
40
1
40
1
41
1
10
20.4212048610151
20
-12.8123300897656
30
0
41
1
10
20.4568382927248
20
-12.7672279722215
30
0
41
1
10
20.6241733636287
20
-12.5609924875437
30
0
41
1
10
20.9882259298699
20
-12.1454495594004
30
0
41
1
10
21.6184248457157
20
-11.5291801988123
30
0
41
1
10
22.4188170720736
20
-10.8874101348153
30
0
41
1
10
23.3281823537489
20
-10.3077299824846
30
0
41
1
10
24.2718785320101
20
-9.8444739906635
30
0
41
1
10
25.2131356055608
20
-9.49129518996275
30
0
41
1
10
25.9734616146292
20
-9.29004639539182
30
0
41
1
10
26.4120893107309
20
-9.20596884333802
30
0
41
1
10
26.5115957534528
20
-9.18840424654722
30
0
0
SPLINE
5
D6
100
AcDbEntity
8
1
62
256
6
ByLayer
370
18
48
1
60
0
100
AcDbSpline
70
4
71
3
72
17
73
13
40
0
40
0
40
0
40
0
40
0.0979756745868595
40
0.196255556831366
40
0.294839495913148
40
0.393144969781686
40
0.49497870330523
40
0.597110794959264
40
0.698976688017484
40
0.799271720672872
40
0.899808420191604
40
1
40
1
40
1
40
1
41
1
10
27.5
20
-8.0968475450931
30
0
41
1
10
27.1907226235826
20
-8.20112638169053
30
0
41
1
10
26.5789645743433
20
-8.41848711126139
30
0
41
1
10
25.6774397319786
20
-8.76987976874397
30
0
41
1
10
24.8099973153046
20
-9.14863449203409
30
0
41
1
10
23.9770688939508
20
-9.56017848501915
30
0
41
1
10
23.193432108515
20
-10.0073671669509
30
0
41
1
10
22.4685885143546
20
-10.4915970000037
30
0
41
1
10
21.8222656484183
20
-11.0081659228231
30
0
41
1
10
21.2624067949981
20
-11.5565716759111
30
0
41
1
10
20.7890067384862
20
-12.1463311628206
30
0
41
1
10
20.533879457314
20
-12.5840246531731
30
0
41
1
10
20.4212048610151
20
-12.8123300897656
30
0
0
SPLINE
5
D7
100
AcDbEntity
8
1
62
256
6
ByLayer
370
18
48
1
60
0
100
AcDbSpline
70
4
71
3
72
10
73
6
40
0
40
0
40
0
40
0
40
0.263445784554369
40
0.630566071650004
40
1
40
1
40
1
40
1
41
1
10
19.6727907307216
20
-10.5899043242784
30
0
41
1
10
19.6352978765842
20
-10.1923085699661
30
0
41
1
10
19.5598691105561
20
-9.23015665885775
30
0
41
1
10
19.509434481808
20
-7.65838114715521
30
0
41
1
10
19.4970637762747
20
-6.47541246083061
30
0
41
1
10
19.5
20
-5.87452125708983
30
0
0
SPLINE
5
D8
100
AcDbEntity
8
1
62
256
6
ByLayer
370
18
48
1
60
0
100
AcDbSpline
70
4
71
3
72
22
73
18
40
0
40
0
40
0
40
0
40
0.0110941210055459
40
0.0477884603376019
40
0.0846369843830466
40
0.121448889892425
40
0.203638960062281
40
0.286141239984783
40
0.368809323293236
40
0.451226262782212
40
0.538367317844436
40
0.625770749308716
40
0.713104820129012
40
0.80015099369936
40
0.866750139632284
40
0.933435505907137
40
1
40
1
40
1
40
1
41
1
10
57.6
20
5.3246985992001
30
0
41
1
10
57.5945976958094
20
5.26329562915466
30
0
41
1
10
57.5696620847837
20
5.00090480180624
30
0
41
1
10
57.5117285507388
20
4.55172594014088
30
0
41
1
10
57.4134982485548
20
3.99966659988609
30
0
41
1
10
57.2466545796301
20
3.2617498416144
30
0
41
1
10
56.9789387747659
20
2.36592354819195
30
0
41
1
10
56.568407830491
20
1.35011165662755
30
0
41
1
10
56.0778694658147
20
0.403910018380867
30
0
41
1
10
55.4975363480912
20
-0.50863648043672
30
0
41
1
10
54.8190370318146
20
-1.39432395978731
30
0
41
1
10
54.03430301524
20
-2.23709976247628
30
0
41
1
10
53.1541240924238
20
-3.01562996408296
30
0
41
1
10
52.2534591957615
20
-3.66576817825514
30
0
41
1
10
51.3559548349277
20
-4.19793090195436
30
0
41
1
10
50.4842058784853
20
-4.62558882511974
30
0
41
1
10
49.865880167318
20
-4.86703307005933
30
0
41
1
10
49.5476301357993
20
-4.9773246855978
30
0
0
SPLINE
5
D9
100
AcDbEntity
8
1
62
256
6
ByLayer
370
18
48
1
60
0
100
AcDbSpline
70
2053
71
3
72
38
73
34
40
0
40
0
40
0
40
0
40
0.0189339152170432
40
0.037874242985259
40
0.0583657825319633
40
0.0789340826954081
40
0.0994540520944753
40
0.128436550043788
40
0.157531319357524
40
0.186570263762825
40
0.221504039144616
40
0.256556286199625
40
0.291655127916601
40
0.326652641179818
40
0.369929200431043
40
0.413317492877615
40
0.456718256570622
40
0.500011865066435
40
0.552963296961558
40
0.606119854427075
40
0.659236972270593
40
0.712134407019741
40
0.748750534815833
40
0.785416734609405
40
0.821985400867352
40
0.849550039414641
40
0.877166505566041
40
0.904681880958402
40
0.924325268341522
40
0.944012795414896
40
0.963631874881719
40
0.981818655662884
40
1
40
1
40
1
40
1
41
1
10
19.6727907307216
20
19.68384612818
30
0
41
1
10
19.4499849612732
20
19.7332851907203
30
0
41
1
10
19.0178234565263
20
19.84651490153
30
0
41
1
10
18.3901575343518
20
20.0690566515954
30
0
41
1
10
17.7967750997165
20
20.336860192126
30
0
41
1
10
17.2443618925021
20
20.6419177504121
30
0
41
1
10
16.6807001421099
20
21.0117040197451
30
0
41
1
10
16.1349702527904
20
21.4424968907568
30
0
41
1
10
15.6311026102122
20
21.9211606216778
30
0
41
1
10
15.1881551042664
20
22.4186388326206
30
0
41
1
10
14.8112630379208
20
22.9144604284495
30
0
41
1
10
14.5026246464062
20
23.3931554970303
30
0
41
1
10
14.2694262684084
20
23.8182531182168
30
0
41
1
10
14.0822528991177
20
24.2114807584047
30
0
41
1
10
13.9379250166403
20
24.5479069774587
30
0
41
1
10
13.8397284856778
20
24.8071356397112
30
0
41
1
10
13.7880588034135
20
24.9643318043494
30
0
41
1
10
13.7731794192495
20
25.0219281214329
30
0
41
1
10
13.7913949866901
20
24.9458828724237
30
0
41
1
10
13.8683634066601
20
24.7096265980223
30
0
41
1
10
14.0249513090716
20
24.3233488201143
30
0
41
1
10
14.2550131730898
20
23.8451095616449
30
0
41
1
10
14.5444672139178
20
23.3255342881045
30
0
41
1
10
14.8812751300115
20
22.8145117261679
30
0
41
1
10
15.2859726277896
20
22.3004083889018
30
0
41
1
10
15.7469162136917
20
21.8050821290783
30
0
41
1
10
16.2453891073121
20
21.3496681954379
30
0
41
1
10
16.7801785440239
20
20.9416697081109
30
0
41
1
10
17.3290266607429
20
20.5921594756712
30
0
41
1
10
17.8654293004007
20
20.3036141748933
30
0
41
1
10
18.4389620226816
20
20.050350177553
30
0
41
1
10
19.0434490399543
20
19.8393785823218
30
0
41
1
10
19.4589034158332
20
19.7312371370414
30
0
41
1
10
19.6727907307216
20
19.68384612818
30
0
0
LINE
5
70
100
AcDbEntity
8
SK1
62
256
6
ByLayer
370
18
48
1
60
0
100
AcDbLine
10
-28.500473
20
-16.859339
30
0
11
-28.500473
21
16.859339
31
0
39
0
210
0
220
0
230
1
0
LINE
5
72
100
AcDbEntity
8
SK1
62
256
6
ByLayer
370
18
48
1
60
0
100
AcDbLine
10
-30
20
15.941311
30
0
11
-30
21
-15.942398
31
0
39
0
210
0
220
0
230
1
0
LINE
5
73
100
AcDbEntity
8
1
62
256
6
ByLayer
370
18
48
1
60
0
100
AcDbLine
10
8.538675
20
-23.83913
30
0
11
8.538675
21
-7.529667
31
0
39
0
210
0
220
0
230
1
0
LINE
5
75
100
AcDbEntity
8
1
62
256
6
ByLayer
370
18
48
1
60
0
100
AcDbLine
10
8.538675
20
23.83913
30
0
11
8.538675
21
7.529667
31
0
39
0
210
0
220
0
230
1
0
LINE
5
76
100
AcDbEntity
8
1
62
256
6
ByLayer
370
18
48
1
60
0
100
AcDbLine
10
0
20
24.7
30
0
11
0
21
-24.7
31
0
39
0
210
0
220
0
230
1
0
LINE
5
77
100
AcDbEntity
8
1
62
256
6
ByLayer
370
18
48
1
60
0
100
AcDbLine
10
0
20
24.7
30
0
11
0.3
21
25
31
0
39
0
210
0
220
0
230
1
0
LINE
5
78
100
AcDbEntity
8
1
62
256
6
ByLayer
370
18
48
1
60
0
100
AcDbLine
10
0.3
20
-25
30
0
11
0
21
-24.7
31
0
39
0
210
0
220
0
230
1
0
LINE
5
79
100
AcDbEntity
8
1
62
256
6
ByLayer
370
18
48
1
60
0
100
AcDbLine
10
11.461325
20
23.83913
30
0
11
11.461325
21
7.529667
31
0
39
0
210
0
220
0
230
1
0
LINE
5
7A
100
AcDbEntity
8
1
62
256
6
ByLayer
370
18
48
1
60
0
100
AcDbLine
10
11.461325
20
-23.83913
30
0
11
11.461325
21
-7.529667
31
0
39
0
210
0
220
0
230
1
0
LINE
5
7B
100
AcDbEntity
8
1
62
256
6
ByLayer
370
18
48
1
60
0
100
AcDbLine
10
11.461325
20
7.529667
30
0
11
8.538675
21
7.529667
31
0
39
0
210
0
220
0
230
1
0
LINE
5
7C
100
AcDbEntity
8
1
62
256
6
ByLayer
370
18
48
1
60
0
100
AcDbLine
10
8.538675
20
23.83913
30
0
11
11.461325
21
23.83913
31
0
39
0
210
0
220
0
230
1
0
LINE
5
7D
100
AcDbEntity
8
1
62
256
6
ByLayer
370
18
48
1
60
0
100
AcDbLine
10
11.461325
20
-7.529667
30
0
11
8.538675
21
-7.529667
31
0
39
0
210
0
220
0
230
1
0
LINE
5
7E
100
AcDbEntity
8
1
62
256
6
ByLayer
370
18
48
1
60
0
100
AcDbLine
10
8.538675
20
-23.83913
30
0
11
11.461325
21
-23.83913
31
0
39
0
210
0
220
0
230
1
0
LINE
5
7F
100
AcDbEntity
8
SK1
62
256
6
ByLayer
370
18
48
1
60
0
100
AcDbLine
10
0
20
-17.3
30
0
11
-2.19993
21
-17.3
31
0
39
0
210
0
220
0
230
1
0
LINE
5
80
100
AcDbEntity
8
SK1
62
256
6
ByLayer
370
18
48
1
60
0
100
AcDbLine
10
0
20
17.3
30
0
11
-2.19993
21
17.3
31
0
39
0
210
0
220
0
230
1
0
LINE
5
81
100
AcDbEntity
8
1
62
256
6
ByLayer
370
18
48
1
60
0
100
AcDbLine
10
27
20
20
30
0
11
27
21
20.324519
31
0
39
0
210
0
220
0
230
1
0
LINE
5
82
100
AcDbEntity
8
1
62
256
6
ByLayer
370
18
48
1
60
0
100
AcDbLine
10
29.971825
20
26
30
0
11
29.971825
21
30.5
31
0
39
0
210
0
220
0
230
1
0
LINE
5
83
100
AcDbEntity
8
1
62
256
6
ByLayer
370
18
48
1
60
0
100
AcDbLine
10
38.471825
20
30.5
30
0
11
38.471825
21
26
31
0
39
0
210
0
220
0
230
1
0
LINE
5
84
100
AcDbEntity
8
1
62
256
6
ByLayer
370
18
48
1
60
0
100
AcDbLine
10
37.971825
20
31
30
0
11
30.471825
21
31
31
0
39
0
210
0
220
0
230
1
0
LINE
5
85
100
AcDbEntity
8
1
62
256
6
ByLayer
370
18
48
1
60
0
100
AcDbLine
10
38.471825
20
26
30
0
11
29.971825
21
26
31
0
39
0
210
0
220
0
230
1
0
LINE
5
86
100
AcDbEntity
8
1
62
256
6
ByLayer
370
18
48
1
60
0
100
AcDbLine
10
36.721825
20
25.8
30
0
11
36.721825
21
21.324519
31
0
39
0
210
0
220
0
230
1
0
LINE
5
87
100
AcDbEntity
8
1
62
256
6
ByLayer
370
18
48
1
60
0
100
AcDbLine
10
31.721825
20
21.324519
30
0
11
31.721825
21
25.8
31
0
39
0
210
0
220
0
230
1
0
LINE
5
88
100
AcDbEntity
8
1
62
256
6
ByLayer
370
18
48
1
60
0
100
AcDbLine
10
28.6
20
-8.820162
30
0
11
26.511596
21
-9.188404
31
0
39
0
210
0
220
0
230
1
0
LINE
5
89
100
AcDbEntity
8
1
62
256
6
ByLayer
370
18
48
1
60
0
100
AcDbLine
10
17.042282
20
-25
30
0
11
18.4
21
-17.3
31
0
39
0
210
0
220
0
230
1
0
LINE
5
8A
100
AcDbEntity
8
1
62
256
6
ByLayer
370
18
48
1
60
0
100
AcDbLine
10
19.672791
20
-10.589904
30
0
11
19.672791
21
-13.89212
31
0
39
0
210
0
220
0
230
1
0
LINE
5
8B
100
AcDbEntity
8
1
62
256
6
ByLayer
370
18
48
1
60
0
100
AcDbLine
10
45.528175
20
26
30
0
11
45.528175
21
30.5
31
0
39
0
210
0
220
0
230
1
0
LINE
5
8C
100
AcDbEntity
8
1
62
256
6
ByLayer
370
18
48
1
60
0
100
AcDbLine
10
54.028175
20
30.5
30
0
11
54.028175
21
26
31
0
39
0
210
0
220
0
230
1
0
LINE
5
8D
100
AcDbEntity
8
1
62
256
6
ByLayer
370
18
48
1
60
0
100
AcDbLine
10
58
20
20.324519
30
0
11
58
21
20
31
0
39
0
210
0
220
0
230
1
0
LINE
5
8E
100
AcDbEntity
8
1
62
256
6
ByLayer
370
18
48
1
60
0
100
AcDbLine
10
57.6
20
5.324699
30
0
11
58.056484
21
10.542335
31
0
39
0
210
0
220
0
230
1
0
LINE
5
8F
100
AcDbEntity
8
1
62
256
6
ByLayer
370
18
48
1
60
0
100
AcDbLine
10
53.528175
20
31
30
0
11
46.028175
21
31
31
0
39
0
210
0
220
0
230
1
0
LINE
5
90
100
AcDbEntity
8
1
62
256
6
ByLayer
370
18
48
1
60
0
100
AcDbLine
10
54.028175
20
26
30
0
11
45.528175
21
26
31
0
39
0
210
0
220
0
230
1
0
LINE
5
91
100
AcDbEntity
8
1
62
256
6
ByLayer
370
18
48
1
60
0
100
AcDbLine
10
52.278175
20
25.8
30
0
11
52.278175
21
21.324519
31
0
39
0
210
0
220
0
230
1
0
LINE
5
92
100
AcDbEntity
8
1
62
256
6
ByLayer
370
18
48
1
60
0
100
AcDbLine
10
47.278175
20
21.324519
30
0
11
47.278175
21
25.8
31
0
39
0
210
0
220
0
230
1
0
LINE
5
93
100
AcDbEntity
8
1
62
256
6
ByLayer
370
18
48
1
60
0
100
AcDbLine
10
58.3
20
20
30
0
11
58.3
21
13.325735
31
0
39
0
210
0
220
0
230
1
0
LINE
5
94
100
AcDbEntity
8
1
62
256
6
ByLayer
370
18
48
1
60
0
100
AcDbLine
10
28.6
20
-8.820162
30
0
11
47.729442
21
-5.447126
31
0
39
0
210
0
220
0
230
1
0
LINE
5
95
100
AcDbEntity
8
1
62
256
6
ByLayer
370
18
48
1
60
0
100
AcDbLine
10
19.5
20
-5.874521
30
0
11
19.5
21
5.874521
31
0
39
0
210
0
220
0
230
1
0
LINE
5
96
100
AcDbEntity
8
1
62
256
6
ByLayer
370
18
48
1
60
0
100
AcDbLine
10
27.5
20
19.030087
30
0
11
27.5
21
-8.096848
31
0
39
0
210
0
220
0
230
1
0
LINE
5
97
100
AcDbEntity
8
1
62
256
6
ByLayer
370
18
48
1
60
0
100
AcDbLine
10
28.6
20
-7.813811
30
0
11
47.936098
21
-4.404323
31
0
39
0
210
0
220
0
230
1
0
LINE
5
98
100
AcDbEntity
8
1
62
256
6
ByLayer
370
18
48
1
60
0
100
AcDbLine
10
47.936098
20
-4.404323
30
0
11
47.936098
21
20
31
0
39
0
210
0
220
0
230
1
0
LINE
5
99
100
AcDbEntity
8
1
62
256
6
ByLayer
370
18
48
1
60
0
100
AcDbLine
10
19.672791
20
19.683846
30
0
11
19.672791
21
10.589904
31
0
39
0
210
0
220
0
230
1
0
LINE
5
9A
100
AcDbEntity
8
1
62
256
6
ByLayer
370
18
48
1
60
0
100
AcDbLine
10
23.711348
20
17.236655
30
0
11
23.711348
21
19.847844
31
0
39
0
210
0
220
0
230
1
0
LINE
5
9B
100
AcDbEntity
8
1
62
256
6
ByLayer
370
18
48
1
60
0
100
AcDbLine
10
58.3
20
13.325735
30
0
11
57.6
21
5.324699
31
0
39
0
210
0
220
0
230
1
0
LINE
5
9C
100
AcDbEntity
8
1
62
256
6
ByLayer
370
18
48
1
60
0
100
AcDbLine
10
58
20
20.324519
30
0
11
57
21
21.324519
31
0
39
0
210
0
220
0
230
1
0
LINE
5
9D
100
AcDbEntity
8
1
62
256
6
ByLayer
370
18
48
1
60
0
100
AcDbLine
10
27
20
20.324519
30
0
11
28
21
21.324519
31
0
39
0
210
0
220
0
230
1
0
LINE
5
9E
100
AcDbEntity
8
1
62
256
6
ByLayer
370
18
48
1
60
0
100
AcDbLine
10
57
20
21.324519
30
0
11
28
21
21.324519
31
0
39
0
210
0
220
0
230
1
0
LINE
5
9F
100
AcDbEntity
8
1
62
256
6
ByLayer
370
18
48
1
60
0
100
AcDbLine
10
58.3
20
20
30
0
11
24.161882
21
20
31
0
39
0
210
0
220
0
230
1
0
LINE
5
A0
100
AcDbEntity
8
1
62
256
6
ByLayer
370
18
48
1
60
0
100
AcDbLine
10
43.154701
20
7
30
0
11
44.309401
21
5
31
0
39
0
210
0
220
0
230
1
0
LINE
5
A1
100
AcDbEntity
8
1
62
256
6
ByLayer
370
18
48
1
60
0
100
AcDbLine
10
44.309401
20
5
30
0
11
43.154701
21
3
31
0
39
0
210
0
220
0
230
1
0
LINE
5
A2
100
AcDbEntity
8
1
62
256
6
ByLayer
370
18
48
1
60
0
100
AcDbLine
10
40.845299
20
7
30
0
11
39.690599
21
5
31
0
39
0
210
0
220
0
230
1
0
LINE
5
A3
100
AcDbEntity
8
1
62
256
6
ByLayer
370
18
48
1
60
0
100
AcDbLine
10
43.154701
20
3
30
0
11
40.845299
21
3
31
0
39
0
210
0
220
0
230
1
0
LINE
5
A4
100
AcDbEntity
8
1
62
256
6
ByLayer
370
18
48
1
60
0
100
AcDbLine
10
40.845299
20
3
30
0
11
39.690599
21
5
31
0
39
0
210
0
220
0
230
1
0
LINE
5
A5
100
AcDbEntity
8
1
62
256
6
ByLayer
370
18
48
1
60
0
100
AcDbLine
10
40.845299
20
7
30
0
11
43.154701
21
7
31
0
39
0
210
0
220
0
230
1
0
LINE
5
A6
100
AcDbEntity
8
1
62
256
6
ByLayer
370
18
48
1
60
0
100
AcDbLine
10
0.3
20
25
30
0
11
13.778658
21
25
31
0
39
0
210
0
220
0
230
1
0
LINE
5
A7
100
AcDbEntity
8
1
62
256
6
ByLayer
370
18
48
1
60
0
100
AcDbLine
10
17.042282
20
-25
30
0
11
0.3
21
-25
31
0
39
0
210
0
220
0
230
1
0
LINE
5
A8
100
AcDbEntity
8
4
62
256
6
ByLayer
370
13
48
0.05
60
0
100
AcDbLine
10
0
20
0
30
0
11
58.3
21
0
31
0
39
0
210
0
220
0
230
1
0
LINE
5
AA
100
AcDbEntity
8
SK4
62
256
6
ByLayer
370
13
48
0.05
60
0
100
AcDbLine
10
60.419631
20
0
30
0
11
-33
21
0
31
0
39
0
210
0
220
0
230
1
0
LINE
5
AC
100
AcDbEntity
8
80
62
256
6
ByLayer
370
13
48
1
60
0
100
AcDbLine
10
0
20
0
30
0
11
-8
21
0
31
0
39
0
210
0
220
0
230
1
0
LINE
5
AD
100
AcDbEntity
8
81
62
256
6
ByLayer
370
13
48
1
60
0
100
AcDbLine
10
42
20
21
30
0
11
42
21
27
31
0
39
0
210
0
220
0
230
1
0
MTEXT
5
DA
100
AcDbEntity
8
SK6
62
256
6
ByLayer
370
18
48
1
60
0
100
AcDbMText
10
-0.5254
20
-34.498809
30
0
210
0
220
0
230
1
1
\W0.7035;C5-570-32-RF
40
3.5
41
0
44
1.084337
50
0
71
7
72
5
7
iso_b_vert
0
DIMENSION
5
E9
100
AcDbEntity
8
SK2
62
256
6
ByLayer
370
13
48
1
60
0
100
AcDbDimension
2
DimnDraft3D1
10
-45.5
20
25
30
0
11
-45.75
21
2.147368
31
0
70
33
71
5
72
1
41
1
210
0
220
0
230
1
3
Standard
100
AcDbAlignedDimension
13
-1.7
23
-25
33
0
14
-1.7
24
25
34
0
1001
ACAD
1000
DSTYLE
1002
{
1070
   279
1070
     0
1070
    74
1070
     0
1070
   173
1070
     1
1070
   340
1005
DB
1070
   271
1070
     3
1070
   272
1070
     3
1070
    77
1070
     1
1070
    73
1070
     0
1070
   171
1070
     3
1070
   274
1070
     3
1070
   177
1070
   254
1070
   176
1070
   254
1070
   178
1070
   254
1070
    78
1070
     8
1070
    41
1041
3.175
1070
   147
1041
1.5
1070
    42
1041
2.0
1070
    44
1041
2.0
1070
   140
1041
3.0
1070
   343
1005
0
1070
   344
1005
0
1002
}
0
DIMENSION
5
F3
100
AcDbEntity
8
SK2
62
256
6
ByLayer
370
13
48
1
60
0
100
AcDbDimension
2
DimnDraft3D2
10
21
20
-71.5
30
0
11
11.877632
21
-71.5
31
0
70
32
71
5
72
1
41
1
210
0
220
0
230
1
3
Standard
100
AcDbAlignedDimension
13
0
23
-60.3
33
0
14
21
24
-44
34
0
50
0
100
AcDbRotatedDimension
1001
ACAD
1000
DSTYLE
1002
{
1070
   279
1070
     0
1070
   172
1070
     1
1070
   173
1070
     1
1070
   340
1005
DB
1070
   271
1070
     3
1070
   272
1070
     3
1070
    77
1070
     1
1070
    73
1070
     0
1070
   171
1070
     3
1070
   274
1070
     3
1070
   177
1070
   254
1070
   176
1070
   254
1070
   178
1070
   254
1070
    78
1070
     8
1070
    41
1041
3.175
1070
   147
1041
1.5
1070
    42
1041
2.0
1070
    44
1041
2.0
1070
   140
1041
3.0
1070
   343
1005
0
1070
   344
1005
0
1002
}
0
DIMENSION
5
FE
100
AcDbEntity
8
2
62
256
6
ByLayer
370
13
48
1
60
0
100
AcDbDimension
2
DimnDraft3D3
10
42
20
52.510884
30
0
11
19.05
21
52.510884
31
0
70
32
71
5
72
1
41
1
210
0
220
0
230
1
3
Standard
100
AcDbAlignedDimension
13
0
23
26.7
33
0
14
42
24
23
34
0
50
0
100
AcDbRotatedDimension
1001
ACAD
1000
DSTYLE
1002
{
1070
   279
1070
     0
1070
   172
1070
     1
1070
   173
1070
     1
1070
   340
1005
DB
1070
   271
1070
     3
1070
   272
1070
     3
1070
    77
1070
     1
1070
    73
1070
     0
1070
   171
1070
     3
1070
   274
1070
     3
1070
   177
1070
   254
1070
   176
1070
   254
1070
   178
1070
   254
1070
    78
1070
     8
1070
    41
1041
3.175
1070
   147
1041
1.5
1070
    42
1041
2.0
1070
    44
1041
2.0
1070
   140
1041
3.0
1070
   343
1005
0
1070
   344
1005
0
1002
}
0
DIMENSION
5
109
100
AcDbEntity
8
SK2
62
256
6
ByLayer
370
13
48
1
60
0
100
AcDbDimension
2
DimnDraft3D4
10
58
20
43.77594
30
0
11
44.607895
21
44.02594
31
0
70
33
71
5
72
1
41
1
210
0
220
0
230
1
3
Standard
100
AcDbAlignedDimension
13
27
23
22.324519
33
0
14
58
24
22.324519
34
0
1001
ACAD
1000
DSTYLE
1002
{
1070
   279
1070
     0
1070
    74
1070
     0
1070
   173
1070
     1
1070
   340
1005
DB
1070
   271
1070
     3
1070
   272
1070
     3
1070
    77
1070
     1
1070
    73
1070
     0
1070
   171
1070
     3
1070
   274
1070
     3
1070
   177
1070
   254
1070
   176
1070
   254
1070
   178
1070
   254
1070
    78
1070
     8
1070
    41
1041
3.175
1070
   147
1041
1.5
1070
    42
1041
2.0
1070
    44
1041
2.0
1070
   140
1041
3.0
1070
   343
1005
0
1070
   344
1005
0
1002
}
0
ENDSEC
0
SECTION
2
OBJECTS
0
DICTIONARY
5
174
330
0
100
AcDbDictionary
280
0
281
1
3
ACAD_GROUP
350
175
3
ACAD_MLINESTYLE
350
176
0
DICTIONARY
5
175
330
0
100
AcDbDictionary
280
0
281
1
0
DICTIONARY
5
176
330
0
100
AcDbDictionary
280
0
281
1
3
Standard
350
18
0
MLINESTYLE
5
18
330
176
100
AcDbMlineStyle
2
Standard
70
0
3

62
256
51
90
52
90
71
2
49
-0.5
62
256
6
ByLayer
49
0.5
62
256
6
ByLayer
0
RASTERVARIABLES
5
162
330

100
AcDbRasterVariables
90
0
70
1
71
1
72
1
0
ENDSEC
0
EOF
