0
SECTION
2
HEADER
9
$ACADVER
1
AC1015
9
$DWGCODEPAGE
3
ANSI_1252
9
$HANDSEED
5
28e
9
$ANGBASE
50
0
9
$ANGDIR
70
0
9
$ATTMODE
70
1
9
$AUNITS
70
0
9
$AUPREC
70
0
9
$CECOLOR
62
256
9
$CELTSCALE
40
1
9
$CELTYPE
6
ByLayer
9
$CELWEIGHT
370
18
9
$CLAYER
8
0
9
$CMLJUST
70
0
9
$CMLSCALE
40
1
9
$CMLSTYLE
2
Standard
9
$DIMSTYLE
2
Standard
9
$TEXTSIZE
40
0.2
9
$TEXTSTYLE
7
Standard
9
$LUNITS
70
2
9
$LUPREC
70
4
9
$EXTNAMES
290
1
9
$INSUNITS
70
4
9
$LTSCALE
40
1
9
$LWDISPLAY
290
1
9
$PDMODE
70
0
9
$PDSIZE
40
0
9
$PLINEGEN
70
0
0
ENDSEC
0
SECTION
2
CLASSES
0
CLASS
1
RASTERVARIABLES
2
AcDbRasterVariables
3
ISM
90
0
280
0
281
0
0
ENDSEC
0
SECTION
2
TABLES
0
TABLE
2
VPORT
5
284
100
AcDbSymbolTable
0
VPORT
5
1
100
AcDbSymbolTableRecord
100
AcDbViewportTableRecord
2
*Active
70
0
10
0
20
0
11
1
21
1
12
-1
22
1
13
0
23
0
14
0.5
24
0.5
15
10
25
10
16
0
26
0
36
1
17
0
27
0
37
0
0
ENDTAB
0
TABLE
2
LTYPE
5
285
100
AcDbSymbolTable
0
LTYPE
5
14
100
AcDbSymbolTableRecord
100
AcDbLinetypeTableRecord
70
0
2
ByBlock
3

72
65
73
0
40
0
0
LTYPE
5
15
100
AcDbSymbolTableRecord
100
AcDbLinetypeTableRecord
70
0
2
ByLayer
3

72
65
73
0
40
0
0
LTYPE
5
16
100
AcDbSymbolTableRecord
100
AcDbLinetypeTableRecord
70
0
2
CONTINUOUS
3
Solid line
72
65
73
0
40
0
0
LTYPE
5
6A
100
AcDbSymbolTableRecord
100
AcDbLinetypeTableRecord
70
0
2
CENTER
3
____ _ ____ _ ____ _ ____
72
65
73
4
40
47.5
49
22
74
0
49
-8.5
74
0
49
8.5
74
0
49
-8.5
74
0
0
LTYPE
5
6B
100
AcDbSymbolTableRecord
100
AcDbLinetypeTableRecord
70
0
2
DASHED
3
__ __ __ __ __ __ __ __ __
72
65
73
2
40
25.72
49
12.86
74
0
49
-12.86
74
0
0
ENDTAB
0
TABLE
2
LAYER
5
286
100
AcDbSymbolTable
0
LAYER
5
10
100
AcDbSymbolTableRecord
100
AcDbLayerTableRecord
2
0
70
0
62
7
6
CONTINUOUS
290
1
370
-3
390
0
0
LAYER
5
6D
100
AcDbSymbolTableRecord
100
AcDbLayerTableRecord
2
80
70
0
62
-6
6
CONTINUOUS
290
1
370
-3
390
0
0
LAYER
5
6F
100
AcDbSymbolTableRecord
100
AcDbLayerTableRecord
2
1
70
0
62
4
6
CONTINUOUS
290
1
370
-3
390
0
0
LAYER
5
71
100
AcDbSymbolTableRecord
100
AcDbLayerTableRecord
2
81
70
0
62
-3
6
CONTINUOUS
290
1
370
-3
390
0
0
LAYER
5
73
100
AcDbSymbolTableRecord
100
AcDbLayerTableRecord
2
4
70
0
62
-2
6
CENTER
290
1
370
-3
390
0
0
LAYER
5
F8
100
AcDbSymbolTableRecord
100
AcDbLayerTableRecord
2
2
70
0
62
7
6
CONTINUOUS
290
1
370
-3
390
0
0
LAYER
5
271
100
AcDbSymbolTableRecord
100
AcDbLayerTableRecord
2
SK1
70
0
62
4
6
CONTINUOUS
290
1
370
-3
390
0
0
LAYER
5
272
100
AcDbSymbolTableRecord
100
AcDbLayerTableRecord
2
SK6
70
0
62
5
6
CONTINUOUS
290
1
370
-3
390
0
0
LAYER
5
273
100
AcDbSymbolTableRecord
100
AcDbLayerTableRecord
2
SK2
70
0
62
7
6
CONTINUOUS
290
1
370
-3
390
0
0
ENDTAB
0
TABLE
2
STYLE
5
287
100
AcDbSymbolTable
0
STYLE
5
11
100
AcDbSymbolTableRecord
100
AcDbTextStyleTableRecord
2
Standard
3
txt
70
0
71
0
40
0
41
1
42
0
50
0
0
STYLE
5
1D4
100
AcDbSymbolTableRecord
100
AcDbTextStyleTableRecord
2
iso_b_vert
3
simplex.shx
70
0
71
0
40
0
41
1
42
0
50
0
0
STYLE
5
1D5
100
AcDbSymbolTableRecord
100
AcDbTextStyleTableRecord
2
DWGDirectTextStyle
3
simplex
70
0
71
0
40
0
41
1
42
0
50
0
0
ENDTAB
0
TABLE
2
DIMSTYLE
5
288
100
AcDbSymbolTable
100
AcDbDimStyleTable
0
DIMSTYLE
105
27
100
AcDbSymbolTableRecord
100
AcDbDimStyleTableRecord
2
Standard
70
0
3
<>
41
0.18
42
0.0625
44
0.18
140
0.18
147
0.09
73
0
74
0
77
1
271
2
275
0
278
52
280
0
340
11
0
ENDTAB
0
TABLE
2
VIEW
5
289
100
AcDbSymbolTable
0
ENDTAB
0
TABLE
2
UCS
5
28a
100
AcDbSymbolTable
0
ENDTAB
0
TABLE
2
APPID
5
28b
100
AcDbSymbolTable
0
APPID
5
12
100
AcDbSymbolTableRecord
100
AcDbRegAppTableRecord
2
ACAD
70
0
0
ENDTAB
0
TABLE
2
BLOCK_RECORD
5
28c
100
AcDbSymbolTable
0
BLOCK_RECORD
5
1F
100
AcDbSymbolTableRecord
100
AcDbBlockTableRecord
2
*Model_Space
340
0
70
0
0
BLOCK_RECORD
5
1B
100
AcDbSymbolTableRecord
100
AcDbBlockTableRecord
2
*Paper_Space
340
0
70
0
0
BLOCK_RECORD
5
23
100
AcDbSymbolTableRecord
100
AcDbBlockTableRecord
2
*Paper_Space0
340
0
70
0
0
BLOCK_RECORD
5
1D8
100
AcDbSymbolTableRecord
100
AcDbBlockTableRecord
2
DimnDraft3D1
340
0
70
0
0
BLOCK_RECORD
5
1E6
100
AcDbSymbolTableRecord
100
AcDbBlockTableRecord
2
_CLOSED
340
0
70
0
0
BLOCK_RECORD
5
1ED
100
AcDbSymbolTableRecord
100
AcDbBlockTableRecord
2
DimnDraft3D2
340
0
70
0
0
BLOCK_RECORD
5
1FC
100
AcDbSymbolTableRecord
100
AcDbBlockTableRecord
2
DimnDraft3D3
340
0
70
0
0
BLOCK_RECORD
5
20A
100
AcDbSymbolTableRecord
100
AcDbBlockTableRecord
2
DimnDraft3D4
340
0
70
0
0
ENDTAB
0
ENDSEC
0
SECTION
2
BLOCKS
0
BLOCK
5
20
100
AcDbEntity
8
0
100
AcDbBlockBegin
2
*Model_Space
70
0
10
0
20
0
30
0
3
*Model_Space
0
ENDBLK
5
21
100
AcDbEntity
8
0
100
AcDbBlockEnd
0
BLOCK
5
1C
100
AcDbEntity
8
0
100
AcDbBlockBegin
2
*Paper_Space
70
0
10
0
20
0
30
0
3
*Paper_Space
0
ENDBLK
5
1D
100
AcDbEntity
8
0
100
AcDbBlockEnd
0
BLOCK
5
24
100
AcDbEntity
8
0
100
AcDbBlockBegin
2
*Paper_Space0
70
0
10
0
20
0
30
0
3
*Paper_Space0
0
ENDBLK
5
25
100
AcDbEntity
8
0
100
AcDbBlockEnd
0
BLOCK
5
1E3
100
AcDbEntity
8
0
100
AcDbBlockBegin
2
DimnDraft3D1
70
0
10
0
20
0
30
0
3
DimnDraft3D1
0
MTEXT
5
1D9
100
AcDbEntity
8
2
62
256
6
ByLayer
370
13
48
1
60
0
100
AcDbMText
10
44.875907
20
-43.285525
30
0
210
0
220
0
230
1
1
\W0.8531;95%%d
40
4.5
41
0
44
1.084337
50
308.710593267763
71
7
72
5
7
iso_b_vert
0
LINE
5
1DA
100
AcDbEntity
8
2
62
256
6
ByLayer
370
13
48
1
60
0
100
AcDbLine
10
53.434651
20
-34.46023
30
0
11
38.788354
21
-33.256085
31
0
39
0
210
0
220
0
230
1
0
LINE
5
1DB
100
AcDbEntity
8
2
62
256
6
ByLayer
370
13
48
1
60
0
100
AcDbLine
10
60
20
-1.5875
30
0
11
60
21
-56.283213
31
0
39
0
210
0
220
0
230
1
0
ARC
5
1DC
100
AcDbEntity
8
2
62
256
6
ByLayer
370
13
48
1
60
0
100
AcDbCircle
39
0
10
60
20
-35
30
0
40
18.1082127867948
210
0
220
0
230
1
100
AcDbArc
50
175.3
51
270
0
LINE
5
1DD
100
AcDbEntity
8
2
62
256
6
ByLayer
370
13
48
1
60
0
100
AcDbLine
10
41.952678
20
-33.51624
30
0
11
42.681193
21
-36.72149
31
0
39
0
210
0
220
0
230
1
0
LINE
5
1DE
100
AcDbEntity
8
2
62
256
6
ByLayer
370
13
48
1
60
0
100
AcDbLine
10
41.952678
20
-33.51624
30
0
11
40.980964
21
-36.656331
31
0
39
0
210
0
220
0
230
1
0
LINE
5
1DF
100
AcDbEntity
8
2
62
256
6
ByLayer
370
13
48
1
60
0
100
AcDbLine
10
42.681193
20
-36.72149
30
0
11
40.980964
21
-36.656331
31
0
39
0
210
0
220
0
230
1
0
LINE
5
1E0
100
AcDbEntity
8
2
62
256
6
ByLayer
370
13
48
1
60
0
100
AcDbLine
10
60
20
-53.108213
30
0
11
56.790853
21
-53.819366
31
0
39
0
210
0
220
0
230
1
0
LINE
5
1E1
100
AcDbEntity
8
2
62
256
6
ByLayer
370
13
48
1
60
0
100
AcDbLine
10
60
20
-53.108213
30
0
11
56.865215
21
-52.119514
31
0
39
0
210
0
220
0
230
1
0
LINE
5
1E2
100
AcDbEntity
8
2
62
256
6
ByLayer
370
13
48
1
60
0
100
AcDbLine
10
56.790853
20
-53.819366
30
0
11
56.865215
21
-52.119514
31
0
39
0
210
0
220
0
230
1
0
ENDBLK
5
1E4
100
AcDbEntity
8
0
100
AcDbBlockEnd
0
BLOCK
5
1E7
100
AcDbEntity
8
0
100
AcDbBlockBegin
2
_CLOSED
70
0
10
0
20
0
30
0
3
_CLOSED
0
LINE
5
1E9
100
AcDbEntity
8
0
62
256
6
ByLayer
370
-2
48
1
60
0
100
AcDbLine
10
-1
20
0.166667
30
0
11
0
21
0
31
0
39
0
210
0
220
0
230
1
0
LINE
5
1EA
100
AcDbEntity
8
0
62
256
6
ByLayer
370
-2
48
1
60
0
100
AcDbLine
10
0
20
0
30
0
11
-1
21
-0.166667
31
0
39
0
210
0
220
0
230
1
0
LINE
5
1EB
100
AcDbEntity
8
0
62
256
6
ByLayer
370
-2
48
1
60
0
100
AcDbLine
10
-1
20
0.166667
30
0
11
-1
21
-0.166667
31
0
39
0
210
0
220
0
230
1
0
LINE
5
1EC
100
AcDbEntity
8
0
62
256
6
ByLayer
370
-2
48
1
60
0
100
AcDbLine
10
0
20
0
30
0
11
-1
21
0
31
0
39
0
210
0
220
0
230
1
0
ENDBLK
5
1E8
100
AcDbEntity
8
0
100
AcDbBlockEnd
0
BLOCK
5
1F9
100
AcDbEntity
8
0
100
AcDbBlockBegin
2
DimnDraft3D2
70
0
10
0
20
0
30
0
3
DimnDraft3D2
0
MTEXT
5
1EE
100
AcDbEntity
8
SK2
62
256
6
ByLayer
370
13
48
1
60
0
100
AcDbMText
10
19.210618
20
44.578878
30
0
210
0
220
0
230
1
1
\W0.6740;90
40
4.5
41
0
44
1.084337
50
0
71
7
72
5
7
iso_b_vert
0
LINE
5
1F0
100
AcDbEntity
8
SK2
62
256
6
ByLayer
370
13
48
1
60
0
100
AcDbLine
10
-30
20
1.5875
30
0
11
-30
21
46.628878
31
0
39
0
210
0
220
0
230
1
0
LINE
5
1F1
100
AcDbEntity
8
SK2
62
256
6
ByLayer
370
13
48
1
60
0
100
AcDbLine
10
60
20
1.5875
30
0
11
60
21
46.628878
31
0
39
0
210
0
220
0
230
1
0
LINE
5
1F2
100
AcDbEntity
8
SK2
62
256
6
ByLayer
370
13
48
1
60
0
100
AcDbLine
10
-30
20
43.453878
30
0
11
60
21
43.453878
31
0
39
0
210
0
220
0
230
1
0
LINE
5
1F3
100
AcDbEntity
8
SK2
62
256
6
ByLayer
370
13
48
1
60
0
100
AcDbLine
10
-30
20
43.453878
30
0
11
-26.825003
21
44.304616
31
0
39
0
210
0
220
0
230
1
0
LINE
5
1F4
100
AcDbEntity
8
SK2
62
256
6
ByLayer
370
13
48
1
60
0
100
AcDbLine
10
-30
20
43.453878
30
0
11
-26.824997
21
42.603139
31
0
39
0
210
0
220
0
230
1
0
LINE
5
1F5
100
AcDbEntity
8
SK2
62
256
6
ByLayer
370
13
48
1
60
0
100
AcDbLine
10
-26.825003
20
44.304616
30
0
11
-26.824997
21
42.603139
31
0
39
0
210
0
220
0
230
1
0
LINE
5
1F6
100
AcDbEntity
8
SK2
62
256
6
ByLayer
370
13
48
1
60
0
100
AcDbLine
10
60
20
43.453878
30
0
11
56.825003
21
42.603139
31
0
39
0
210
0
220
0
230
1
0
LINE
5
1F7
100
AcDbEntity
8
SK2
62
256
6
ByLayer
370
13
48
1
60
0
100
AcDbLine
10
60
20
43.453878
30
0
11
56.824997
21
44.304616
31
0
39
0
210
0
220
0
230
1
0
LINE
5
1F8
100
AcDbEntity
8
SK2
62
256
6
ByLayer
370
13
48
1
60
0
100
AcDbLine
10
56.825003
20
42.603139
30
0
11
56.824997
21
44.304616
31
0
39
0
210
0
220
0
230
1
0
ENDBLK
5
1FA
100
AcDbEntity
8
0
100
AcDbBlockEnd
0
BLOCK
5
207
100
AcDbEntity
8
0
100
AcDbBlockBegin
2
DimnDraft3D3
70
0
10
0
20
0
30
0
3
DimnDraft3D3
0
MTEXT
5
1FD
100
AcDbEntity
8
2
62
256
6
ByLayer
370
13
48
1
60
0
100
AcDbMText
10
90.993938
20
-25.296965
30
0
210
0
220
0
230
1
1
\W0.6740;35
40
4.5
41
0
44
1.084337
50
90
71
7
72
5
7
iso_b_vert
0
LINE
5
1FE
100
AcDbEntity
8
2
62
256
6
ByLayer
370
13
48
1
60
0
100
AcDbLine
10
61.5875
20
0
30
0
11
95.293938
21
0
31
0
39
0
210
0
220
0
230
1
0
LINE
5
1FF
100
AcDbEntity
8
2
62
256
6
ByLayer
370
13
48
1
60
0
100
AcDbLine
10
71.5875
20
-35
30
0
11
95.293938
21
-35
31
0
39
0
210
0
220
0
230
1
0
LINE
5
200
100
AcDbEntity
8
2
62
256
6
ByLayer
370
13
48
1
60
0
100
AcDbLine
10
92.118938
20
0
30
0
11
92.118938
21
-35
31
0
39
0
210
0
220
0
230
1
0
LINE
5
201
100
AcDbEntity
8
2
62
256
6
ByLayer
370
13
48
1
60
0
100
AcDbLine
10
92.118938
20
0
30
0
11
92.969677
21
-3.174997
31
0
39
0
210
0
220
0
230
1
0
LINE
5
202
100
AcDbEntity
8
2
62
256
6
ByLayer
370
13
48
1
60
0
100
AcDbLine
10
92.118938
20
0
30
0
11
91.268199
21
-3.175003
31
0
39
0
210
0
220
0
230
1
0
LINE
5
203
100
AcDbEntity
8
2
62
256
6
ByLayer
370
13
48
1
60
0
100
AcDbLine
10
92.969677
20
-3.174997
30
0
11
91.268199
21
-3.175003
31
0
39
0
210
0
220
0
230
1
0
LINE
5
204
100
AcDbEntity
8
2
62
256
6
ByLayer
370
13
48
1
60
0
100
AcDbLine
10
92.118938
20
-35
30
0
11
91.268199
21
-31.825003
31
0
39
0
210
0
220
0
230
1
0
LINE
5
205
100
AcDbEntity
8
2
62
256
6
ByLayer
370
13
48
1
60
0
100
AcDbLine
10
92.118938
20
-35
30
0
11
92.969677
21
-31.824997
31
0
39
0
210
0
220
0
230
1
0
LINE
5
206
100
AcDbEntity
8
2
62
256
6
ByLayer
370
13
48
1
60
0
100
AcDbLine
10
91.268199
20
-31.825003
30
0
11
92.969677
21
-31.824997
31
0
39
0
210
0
220
0
230
1
0
ENDBLK
5
208
100
AcDbEntity
8
0
100
AcDbBlockEnd
0
BLOCK
5
215
100
AcDbEntity
8
0
100
AcDbBlockBegin
2
DimnDraft3D4
70
0
10
0
20
0
30
0
3
DimnDraft3D4
0
MTEXT
5
20B
100
AcDbEntity
8
SK2
62
256
6
ByLayer
370
13
48
1
60
0
100
AcDbMText
10
-42.210109
20
-1.093817
30
0
210
0
220
0
230
1
1
\W0.6740;50
40
4.5
41
0
44
1.084337
50
90
71
7
72
5
7
iso_b_vert
0
LINE
5
20C
100
AcDbEntity
8
SK2
62
256
6
ByLayer
370
13
48
1
60
0
100
AcDbLine
10
-1.5875
20
25
30
0
11
-44.260109
21
25
31
0
39
0
210
0
220
0
230
1
0
LINE
5
20D
100
AcDbEntity
8
SK2
62
256
6
ByLayer
370
13
48
1
60
0
100
AcDbLine
10
-1.5875
20
-25
30
0
11
-44.260109
21
-25
31
0
39
0
210
0
220
0
230
1
0
LINE
5
20E
100
AcDbEntity
8
SK2
62
256
6
ByLayer
370
13
48
1
60
0
100
AcDbLine
10
-41.085109
20
25
30
0
11
-41.085109
21
-25
31
0
39
0
210
0
220
0
230
1
0
LINE
5
20F
100
AcDbEntity
8
SK2
62
256
6
ByLayer
370
13
48
1
60
0
100
AcDbLine
10
-41.085109
20
25
30
0
11
-40.23437
21
21.825003
31
0
39
0
210
0
220
0
230
1
0
LINE
5
210
100
AcDbEntity
8
SK2
62
256
6
ByLayer
370
13
48
1
60
0
100
AcDbLine
10
-41.085109
20
25
30
0
11
-41.935848
21
21.824997
31
0
39
0
210
0
220
0
230
1
0
LINE
5
211
100
AcDbEntity
8
SK2
62
256
6
ByLayer
370
13
48
1
60
0
100
AcDbLine
10
-40.23437
20
21.825003
30
0
11
-41.935848
21
21.824997
31
0
39
0
210
0
220
0
230
1
0
LINE
5
212
100
AcDbEntity
8
SK2
62
256
6
ByLayer
370
13
48
1
60
0
100
AcDbLine
10
-41.085109
20
-25
30
0
11
-41.935848
21
-21.825003
31
0
39
0
210
0
220
0
230
1
0
LINE
5
213
100
AcDbEntity
8
SK2
62
256
6
ByLayer
370
13
48
1
60
0
100
AcDbLine
10
-41.085109
20
-25
30
0
11
-40.23437
21
-21.824997
31
0
39
0
210
0
220
0
230
1
0
LINE
5
214
100
AcDbEntity
8
SK2
62
256
6
ByLayer
370
13
48
1
60
0
100
AcDbLine
10
-41.935848
20
-21.825003
30
0
11
-40.23437
21
-21.824997
31
0
39
0
210
0
220
0
230
1
0
ENDBLK
5
216
100
AcDbEntity
8
0
100
AcDbBlockEnd
0
ENDSEC
0
SECTION
2
ENTITIES
0
ARC
5
101
100
AcDbEntity
8
1
62
256
6
ByLayer
370
13
48
1
60
0
100
AcDbCircle
39
0
10
-20.279208
20
-26.2
30
0
40
1.2
210
0
220
0
230
-1
100
AcDbArc
50
90
51
113.556464
0
ARC
5
102
100
AcDbEntity
8
1
62
256
6
ByLayer
370
13
48
1
60
0
100
AcDbCircle
39
0
10
-26.069651
20
-35.1
30
0
40
10
210
0
220
0
230
-1
100
AcDbArc
50
90
51
132.913115
0
ARC
5
103
100
AcDbEntity
8
1
62
256
6
ByLayer
370
13
48
1
60
0
100
AcDbCircle
39
0
10
50.82791
20
-17.15541
30
0
40
20
210
0
220
0
230
1
100
AcDbArc
50
227.086885
51
232.831361
0
ELLIPSE
5
104
100
AcDbEntity
8
1
62
256
6
ByLayer
370
13
48
1
60
0
100
AcDbEllipse
10
46.752823
20
60.533567
30
0
11
-2.30057797041675
21
99.5729740546986
31
0
210
0
220
0
230
-1
40
0.020765
41
2.72699784326242
42
2.77354145144661
0
ELLIPSE
5
105
100
AcDbEntity
8
1
62
256
6
ByLayer
370
13
48
1
60
0
100
AcDbEllipse
10
50.360282
20
-28.410221
30
0
11
-0.36906983735481
21
-2.6678630640455
31
0
210
0
220
0
230
-1
40
0.245166
41
0.585118225828357
42
0.881733831564555
0
ELLIPSE
5
106
100
AcDbEntity
8
1
62
256
6
ByLayer
370
13
48
1
60
0
100
AcDbEllipse
10
-71.622894
20
-82.437273
30
0
11
-14.9960909262107
21
145.74510422857
31
0
210
0
220
0
230
-1
40
0.929414
41
1.07688663569503
42
1.09913626406221
0
ELLIPSE
5
107
100
AcDbEntity
8
1
62
256
6
ByLayer
370
13
48
1
60
0
100
AcDbEllipse
10
58.790254
20
-17.224903
30
0
11
-0.195421008351551
21
3.03822076064619
31
0
210
0
220
0
230
-1
40
0.006276
41
-0.0947400712552696
42
1.3033440017036
0
ELLIPSE
5
108
100
AcDbEntity
8
1
62
256
6
ByLayer
370
13
48
1
60
0
100
AcDbEllipse
10
43.24118
20
-21.299751
30
0
11
-2.43029470239596
21
-3.74699663070203
31
0
210
0
220
0
230
1
40
0.991822
41
0.791794332522862
42
1.28408940872237
0
ELLIPSE
5
109
100
AcDbEntity
8
1
62
256
6
ByLayer
370
13
48
1
60
0
100
AcDbEllipse
10
50.941862
20
-16.003428
30
0
11
-1.44467896108145
21
-0.687679212575616
31
0
210
0
220
0
230
1
40
0.108973
41
-1.50391350904108
42
-0.0203836448458966
0
ELLIPSE
5
10A
100
AcDbEntity
8
1
62
256
6
ByLayer
370
13
48
1
60
0
100
AcDbEllipse
10
50.84931
20
-27.859732
30
0
11
-1.32658274714311
21
-2.1955460701964
31
0
210
0
220
0
230
-1
40
0.99144
41
0.255175718448924
42
0.948069014521211
0
ELLIPSE
5
10B
100
AcDbEntity
8
1
62
256
6
ByLayer
370
13
48
1
60
0
100
AcDbEllipse
10
19.403314
20
6.633028
30
0
11
-22.5642600004011
21
-34.7892813626403
31
0
210
0
220
0
230
1
40
0.991822
41
1.28408940872236
42
1.41768941403742
0
ELLIPSE
5
10C
100
AcDbEntity
8
1
62
256
6
ByLayer
370
13
48
1
60
0
100
AcDbEllipse
10
33.561802
20
-123.66099
30
0
11
53.618311397456
21
82.6680122176666
31
0
210
0
220
0
230
1
40
0.991822
41
0.508353768620359
42
0.606606675764181
0
ELLIPSE
5
10D
100
AcDbEntity
8
1
62
256
6
ByLayer
370
13
48
1
60
0
100
AcDbEllipse
10
42.9928
20
-25.849304
30
0
11
0.139840402439733
21
1.59387724177413
31
0
210
0
220
0
230
1
40
0.11294
41
0.0274050348108116
42
0.77922159516994
0
ELLIPSE
5
10E
100
AcDbEntity
8
1
62
256
6
ByLayer
370
13
48
1
60
0
100
AcDbEllipse
10
410.940203
20
0
30
0
11
-392.503622755915
21
-8.61579509738341
31
0
210
0
220
0
230
-1
40
0.060063
41
-0.196223225057691
42
-0.107521944362878
0
ELLIPSE
5
10F
100
AcDbEntity
8
1
62
256
6
ByLayer
370
13
48
1
60
0
100
AcDbEllipse
10
48.4412
20
-32.585457
30
0
11
-0.458829440901074
21
-0.759380583349997
31
0
210
0
220
0
230
-1
40
0.99144
41
-2.14108878501555
42
-1.7574014946352
0
ELLIPSE
5
110
100
AcDbEntity
8
1
62
256
6
ByLayer
370
13
48
1
60
0
100
AcDbEllipse
10
-85.212017
20
-81.842867
30
0
11
-82.4219946701461
21
-127.077154890024
31
0
210
0
220
0
230
1
40
0.991822
41
2.59411254755867
42
2.78102518129073
0
ELLIPSE
5
111
100
AcDbEntity
8
1
62
256
6
ByLayer
370
13
48
1
60
0
100
AcDbEllipse
10
58.779168
20
-16.956867
30
0
11
-0.13028067218248
21
2.02548050629714
31
0
210
0
220
0
230
-1
40
0.006276
41
1.30334400155688
42
1.87748198360388
0
ELLIPSE
5
112
100
AcDbEntity
8
1
62
256
6
ByLayer
370
13
48
1
60
0
100
AcDbEllipse
10
42.191633
20
-26.714678
30
0
11
1.1971546933949
21
1.84575747054768
31
0
210
0
220
0
230
1
40
0.991822
41
-0.999150016744404
42
-0.0121988462364911
0
ELLIPSE
5
113
100
AcDbEntity
8
1
62
256
6
ByLayer
370
13
48
1
60
0
100
AcDbEllipse
10
42.191633
20
-26.714678
30
0
11
1.1971546933949
21
1.84575747054768
31
0
210
0
220
0
230
1
40
0.991822
41
-3.11236175087524
42
-0.999150016744415
0
ELLIPSE
5
114
100
AcDbEntity
8
1
62
256
6
ByLayer
370
13
48
1
60
0
100
AcDbEllipse
10
-85.055625
20
-81.944302
30
0
11
81.5546498277055
21
125.739893940117
31
0
210
0
220
0
230
1
40
0.991822
41
-0.547480106031121
42
-0.326090424691874
0
ELLIPSE
5
115
100
AcDbEntity
8
1
62
256
6
ByLayer
370
13
48
1
60
0
100
AcDbEllipse
10
-1.056258
20
0
30
0
11
-11.7092723497272
21
24.6771864409374
31
0
210
0
220
0
230
-1
40
0.341999
41
2.05975995310053
42
2.9743795816808
0
ELLIPSE
5
116
100
AcDbEntity
8
1
62
256
6
ByLayer
370
13
48
1
60
0
100
AcDbEllipse
10
54.681941
20
-21.827314
30
0
11
-3.02395815231731
21
1.82152212259599
31
0
210
0
220
0
230
-1
40
0.84059
41
-1.29611922108354
42
-0.852971452168
0
ELLIPSE
5
117
100
AcDbEntity
8
1
62
256
6
ByLayer
370
13
48
1
60
0
100
AcDbEllipse
10
55.467712
20
-22.230165
30
0
11
-1.29143527807279
21
-2.13737564093961
31
0
210
0
220
0
230
-1
40
0.99144
41
-0.458064379399573
42
0.525478170363221
0
ELLIPSE
5
118
100
AcDbEntity
8
1
62
256
6
ByLayer
370
13
48
1
60
0
100
AcDbEllipse
10
33.718194
20
-123.762425
30
0
11
-54.4856562398965
21
-84.0052731675741
31
0
210
0
220
0
230
1
40
0.991822
41
-2.65710774896784
42
-2.5146277767278
0
ELLIPSE
5
119
100
AcDbEntity
8
1
62
256
6
ByLayer
370
13
48
1
60
0
100
AcDbEllipse
10
50.580758
20
-24.707235
30
0
11
-1.31039940235642
21
-2.16876200460757
31
0
210
0
220
0
230
-1
40
0.99144
41
0.948069014481087
42
2.51072566377225
0
ELLIPSE
5
11A
100
AcDbEntity
8
1
62
256
6
ByLayer
370
13
48
1
60
0
100
AcDbEllipse
10
21.195339
20
4.421139
30
0
11
-33.7322360590151
21
-19.0771301434914
31
0
210
0
220
0
230
-1
40
0.959386
41
-1.78530625809438
42
-1.76699242212401
0
ELLIPSE
5
11B
100
AcDbEntity
8
1
62
256
6
ByLayer
370
13
48
1
60
0
100
AcDbEllipse
10
59.276124
20
-25.548467
30
0
11
-0.031435544589636
21
0.544658898721668
31
0
210
0
220
0
230
-1
40
0.016469
41
-0.80583576985511
42
-0.270309115544554
0
ELLIPSE
5
11C
100
AcDbEntity
8
1
62
256
6
ByLayer
370
13
48
1
60
0
100
AcDbEllipse
10
46.289881
20
-24.782531
30
0
11
-1.0440499923955
21
1.21241891002201
31
0
210
0
220
0
230
1
40
0.036092
41
0.620574084704954
42
1.44799013489949
0
ELLIPSE
5
11D
100
AcDbEntity
8
1
62
256
6
ByLayer
370
13
48
1
60
0
100
AcDbEllipse
10
52.652603
20
-23.342505
30
0
11
-2.1905328473917
21
0.203877032786969
31
0
210
0
220
0
230
1
40
0.094636
41
-1.16941203388117
42
-0.106865600745944
0
ELLIPSE
5
11E
100
AcDbEntity
8
1
62
256
6
ByLayer
370
13
48
1
60
0
100
AcDbEllipse
10
50.234518
20
-20.901721
30
0
11
-1.19519481887443
21
1.06372428050493
31
0
210
0
220
0
230
1
40
0.019464
41
0.708678061272196
42
1.44430068840392
0
ELLIPSE
5
11F
100
AcDbEntity
8
1
62
256
6
ByLayer
370
13
48
1
60
0
100
AcDbEllipse
10
56.175253
20
-23.163375
30
0
11
-0.439952922374061
21
3.08384281802431
31
0
210
0
220
0
230
-1
40
0.962276
41
1.6533602213362
42
1.83845716253821
0
ELLIPSE
5
120
100
AcDbEntity
8
1
62
256
6
ByLayer
370
13
48
1
60
0
100
AcDbEllipse
10
52.624927
20
-23.639874
30
0
11
-2.1905328473917
21
0.203877032786969
31
0
210
0
220
0
230
1
40
0.094636
41
-1.28879281587186
42
-0.208550834003402
0
ELLIPSE
5
121
100
AcDbEntity
8
1
62
256
6
ByLayer
370
13
48
1
60
0
100
AcDbEllipse
10
49.235244
20
-23.069353
30
0
11
-2.21756931169386
21
1.33578288990696
31
0
210
0
220
0
230
-1
40
0.84059
41
2.22084833564181
42
2.28862120141995
0
ELLIPSE
5
122
100
AcDbEntity
8
1
62
256
6
ByLayer
370
13
48
1
60
0
100
AcDbEllipse
10
58.789494
20
-17.668213
30
0
11
-0.195421008354345
21
3.03822076069154
31
0
210
0
220
0
230
-1
40
0.006276
41
-1.66553639804738
42
-0.0947400712549721
0
ELLIPSE
5
123
100
AcDbEntity
8
1
62
256
6
ByLayer
370
13
48
1
60
0
100
AcDbEllipse
10
49.303899
20
-23.136561
30
0
11
-2.50437400111324
21
-0.592144887533214
31
0
210
0
220
0
230
-1
40
0.240275
41
2.03877397757833
42
2.26575730782201
0
ELLIPSE
5
124
100
AcDbEntity
8
1
62
256
6
ByLayer
370
13
48
1
60
0
100
AcDbEllipse
10
51.07608
20
-24.660938
30
0
11
-1.30994953718857
21
-2.16801746024406
31
0
210
0
220
0
230
-1
40
0.99144
41
2.51072566377132
42
-2.61611448322818
0
ELLIPSE
5
125
100
AcDbEntity
8
1
62
256
6
ByLayer
370
13
48
1
60
0
100
AcDbEllipse
10
34.228318
20
-74.0345
30
0
11
-15.7181533882042
21
-43.8944012814372
31
0
210
0
220
0
230
-1
40
0.036583
41
-2.79949696499252
42
-2.74686078664803
0
ELLIPSE
5
126
100
AcDbEntity
8
1
62
256
6
ByLayer
370
13
48
1
60
0
100
AcDbEllipse
10
46.917349
20
-17.938361
30
0
11
1.56294985995549
21
2.40973568079451
31
0
210
0
220
0
230
1
40
0.991822
41
-0.747619015749901
42
-0.547480106031115
0
ELLIPSE
5
127
100
AcDbEntity
8
1
62
256
6
ByLayer
370
13
48
1
60
0
100
AcDbEllipse
10
410.940188
20
0
30
0
11
-390.939848136121
21
-8.58146887028268
31
0
210
0
220
0
230
-1
40
0.060063
41
-0.036477868483007
42
0.0013184342722867
0
ELLIPSE
5
128
100
AcDbEntity
8
1
62
256
6
ByLayer
370
13
48
1
60
0
100
AcDbEllipse
10
41.442093
20
-26.228528
30
0
11
0.897866020046172
21
1.38431810291076
31
0
210
0
220
0
230
1
40
0.991822
41
-0.999150016744396
42
-0.254199886323742
0
ELLIPSE
5
129
100
AcDbEntity
8
1
62
256
6
ByLayer
370
13
48
1
60
0
100
AcDbEllipse
10
41.442093
20
-26.228528
30
0
11
0.897866020046172
21
1.38431810291076
31
0
210
0
220
0
230
1
40
0.991822
41
-2.8874433506646
42
-0.999150016744412
0
ELLIPSE
5
12A
100
AcDbEntity
8
1
62
256
6
ByLayer
370
13
48
1
60
0
100
AcDbEllipse
10
32.003373
20
-119.96124
30
0
11
-86.4202706612455
21
-48.8744291095547
31
0
210
0
220
0
230
-1
40
0.959387
41
2.09218598588889
42
2.1921086980934
0
ELLIPSE
5
12B
100
AcDbEntity
8
1
62
256
6
ByLayer
370
13
48
1
60
0
100
AcDbEllipse
10
48.36586
20
-30.288171
30
0
11
-0.470673712489421
21
-0.778983310276239
31
0
210
0
220
0
230
-1
40
0.99144
41
-2.88641693517323
42
-2.14108878702975
0
ELLIPSE
5
12C
100
AcDbEntity
8
1
62
256
6
ByLayer
370
13
48
1
60
0
100
AcDbEllipse
10
43.397571
20
-21.401186
30
0
11
1.56294985995549
21
2.40973568079451
31
0
210
0
220
0
230
1
40
0.991822
41
-2.65710774896782
42
-2.39397534403318
0
ELLIPSE
5
12D
100
AcDbEntity
8
1
62
256
6
ByLayer
370
13
48
1
60
0
100
AcDbEllipse
10
42.29871
20
-26.784128
30
0
11
1.1971546933949
21
1.84575747054768
31
0
210
0
220
0
230
1
40
0.991822
41
1.551765910343
42
-0.454792035546685
0
ELLIPSE
5
12E
100
AcDbEntity
8
1
62
256
6
ByLayer
370
13
48
1
60
0
100
AcDbEllipse
10
44.43233
20
-22.127531
30
0
11
-1.77411822466981
21
-1.00334116845526
31
0
210
0
220
0
230
-1
40
0.959387
41
-1.76699423901378
42
-0.949483955791617
0
ELLIPSE
5
12F
100
AcDbEntity
8
1
62
256
6
ByLayer
370
13
48
1
60
0
100
AcDbEllipse
10
49.823404
20
-23.170614
30
0
11
-1.27680210833161
21
-0.0901326060579996
31
0
210
0
220
0
230
-1
40
0.369996
41
1.10363606262738
42
2.02208313378626
0
ELLIPSE
5
130
100
AcDbEntity
8
1
62
256
6
ByLayer
370
13
48
1
60
0
100
AcDbEllipse
10
21.056258
20
0
30
0
11
-11.7092723497282
21
-24.6771864409386
31
0
210
0
220
0
230
-1
40
0.341999
41
0.167213071908983
42
1.08183270048923
0
ELLIPSE
5
131
100
AcDbEntity
8
1
62
256
6
ByLayer
370
13
48
1
60
0
100
AcDbEllipse
10
17.500109
20
622.604056
30
0
11
-42.4990500031782
21
659.186101987429
31
0
210
0
220
0
230
-1
40
0.000406
41
2.90861162578379
42
2.93724406441141
0
ELLIPSE
5
132
100
AcDbEntity
8
1
62
256
6
ByLayer
370
13
48
1
60
0
100
AcDbEllipse
10
21.056258
20
0
30
0
11
-11.7092723497285
21
24.6771864409391
31
0
210
0
220
0
230
-1
40
0.341999
41
-1.08183270048921
42
-0.16721307190899
0
ELLIPSE
5
133
100
AcDbEntity
8
1
62
256
6
ByLayer
370
13
48
1
60
0
100
AcDbEllipse
10
49.116778
20
-25.842077
30
0
11
-0.273653448424513
21
-2.75260318798215
31
0
210
0
220
0
230
-1
40
0.246006
41
0.675933994922644
42
1.53261753379653
0
ELLIPSE
5
134
100
AcDbEntity
8
1
62
256
6
ByLayer
370
13
48
1
60
0
100
AcDbEllipse
10
-1.056258
20
0
30
0
11
-11.7092723497272
21
-24.6771864409373
31
0
210
0
220
0
230
-1
40
0.341999
41
-2.9743795816808
42
-2.05975995310053
0
ELLIPSE
5
135
100
AcDbEntity
8
1
62
256
6
ByLayer
370
13
48
1
60
0
100
AcDbEllipse
10
42.13274
20
-26.676481
30
0
11
0.897866020046173
21
1.38431810291076
31
0
210
0
220
0
230
1
40
0.991822
41
0
42
6.28318530717959
0
ELLIPSE
5
136
100
AcDbEntity
8
1
62
256
6
ByLayer
370
13
48
1
60
0
100
AcDbEllipse
10
56.325544
20
-25.240667
30
0
11
-0.804729116801454
21
-0.204760331082669
31
0
210
0
220
0
230
-1
40
0.245253
41
2.52203066468463
42
3.05755731899974
0
ELLIPSE
5
137
100
AcDbEntity
8
1
62
256
6
ByLayer
370
13
48
1
60
0
100
AcDbEllipse
10
46.760957
20
-17.836926
30
0
11
-2.43029470239596
21
-3.74699663070203
31
0
210
0
220
0
230
1
40
0.991822
41
1.41768941403743
42
2.59411254755868
0
ELLIPSE
5
138
100
AcDbEntity
8
1
62
256
6
ByLayer
370
13
48
1
60
0
100
AcDbEllipse
10
59.676678
20
-44.374611
30
0
11
-5.69161656607508
21
14.3558624600783
31
0
210
0
220
0
230
-1
40
0.73479
41
-0.161845757024113
42
-0.0249930529381875
0
ELLIPSE
5
139
100
AcDbEntity
8
1
62
256
6
ByLayer
370
13
48
1
60
0
100
AcDbEllipse
10
53.711059
20
-24.701931
30
0
11
2.72608623207489
21
-0.253721998635456
31
0
210
0
220
0
230
1
40
0.094636
41
1.83979532329476
42
2.06598998245228
0
ELLIPSE
5
13A
100
AcDbEntity
8
1
62
256
6
ByLayer
370
13
48
1
60
0
100
AcDbEllipse
10
39.660011
20
-17.65458
30
0
11
-10.3589668955179
21
12.6561533729459
31
0
210
0
220
0
230
-1
40
0.046498
41
-3.03074726613106
42
-2.91601761748304
0
ELLIPSE
5
13B
100
AcDbEntity
8
1
62
256
6
ByLayer
370
13
48
1
60
0
100
AcDbEllipse
10
54.055306
20
-17.660124
30
0
11
-10.201821686465
21
-8.91692772603635
31
0
210
0
220
0
230
-1
40
0.81568
41
-1.17465702560134
42
-1.03780432138598
0
ELLIPSE
5
13C
100
AcDbEntity
8
1
62
256
6
ByLayer
370
18
48
1
60
0
100
AcDbEllipse
10
47.283427
20
-23.524474
30
0
11
-1.99139349762882
21
0.185342757079063
31
0
210
0
220
0
230
1
40
0.094636
41
2.81862428736648
42
-2.80133590405527
0
ELLIPSE
5
13D
100
AcDbEntity
8
1
62
256
6
ByLayer
370
18
48
1
60
0
100
AcDbEllipse
10
49.342811
20
-25.115217
30
0
11
-0.275163235934701
21
-0.744529553536959
31
0
210
0
220
0
230
1
40
0.938438
41
-2.86409315812737
42
-1.11876390613304
0
ELLIPSE
5
13E
100
AcDbEntity
8
1
62
256
6
ByLayer
370
18
48
1
60
0
100
AcDbEllipse
10
49.633778
20
-32.499845
30
0
11
0.0245815525890122
21
0.298991216045411
31
0
210
0
220
0
230
1
40
0.112614
41
-3.14158182314022
42
-1.49164959339926
0
ELLIPSE
5
13F
100
AcDbEntity
8
1
62
256
6
ByLayer
370
18
48
1
60
0
100
AcDbEllipse
10
47.287991
20
-33.921733
30
0
11
1.99139349762882
21
-0.185342757079063
31
0
210
0
220
0
230
1
40
0.094636
41
0.113363946775284
42
0.222038618699371
0
ELLIPSE
5
140
100
AcDbEntity
8
1
62
256
6
ByLayer
370
13
48
1
60
0
100
AcDbEllipse
10
55.08197
20
-28.761722
30
0
11
0.213226534690156
21
-0.771060597426705
31
0
210
0
220
0
230
1
40
0.197315
41
-1.54598273020944
42
-0.742867437359352
0
ELLIPSE
5
141
100
AcDbEntity
8
1
62
256
6
ByLayer
370
13
48
1
60
0
100
AcDbEllipse
10
61.697401
20
-19.783269
30
0
11
-8.87475544862651
21
-7.75700218122719
31
0
210
0
220
0
230
-1
40
0.81568
41
-0.74700365697741
42
-0.305441472061775
0
ELLIPSE
5
142
100
AcDbEntity
8
1
62
256
6
ByLayer
370
18
48
1
60
0
100
AcDbEllipse
10
55.827437
20
-84.030469
30
0
11
-4.80363468096134
21
-65.8462718346613
31
0
210
0
220
0
230
-1
40
0.173071
41
2.42695239549256
42
2.48166693567716
0
ELLIPSE
5
143
100
AcDbEntity
8
1
62
256
6
ByLayer
370
18
48
1
60
0
100
AcDbEllipse
10
52.85897
20
-26.228965
30
0
11
1.99139349762882
21
-0.185342757079063
31
0
210
0
220
0
230
1
40
0.094636
41
1.24782796057158
42
1.91105307632942
0
ELLIPSE
5
144
100
AcDbEntity
8
1
62
256
6
ByLayer
370
18
48
1
60
0
100
AcDbEllipse
10
56.259998
20
-34.951917
30
0
11
1.99139349762882
21
-0.185342757079063
31
0
210
0
220
0
230
1
40
0.094636
41
1.68416027357016
42
1.72647772290172
0
ELLIPSE
5
145
100
AcDbEntity
8
1
62
256
6
ByLayer
370
13
48
1
60
0
100
AcDbEllipse
10
54.24984
20
-29.600878
30
0
11
0.788002768293782
21
-0.13802766810077
31
0
210
0
220
0
230
1
40
0.103523
41
-1.67764683359543
42
-1.01138522935721
0
ELLIPSE
5
146
100
AcDbEntity
8
1
62
256
6
ByLayer
370
18
48
1
60
0
100
AcDbEllipse
10
56.259998
20
-34.951917
30
0
11
1.99139349762882
21
-0.185342757079063
31
0
210
0
220
0
230
1
40
0.094636
41
1.72647772290172
42
2.34738538932802
0
ELLIPSE
5
147
100
AcDbEntity
8
1
62
256
6
ByLayer
370
13
48
1
60
0
100
AcDbEllipse
10
54.234949
20
-29.689033
30
0
11
0.789669666626931
21
-0.128147639889749
31
0
210
0
220
0
230
1
40
0.051128
41
-1.66363114510427
42
-0.997369540866071
0
ELLIPSE
5
148
100
AcDbEntity
8
1
62
256
6
ByLayer
370
18
48
1
60
0
100
AcDbEllipse
10
49.665568
20
-33.622114
30
0
11
0.0650386912250947
21
0.791080925786817
31
0
210
0
220
0
230
1
40
0.112614
41
3.04620646178586
42
-1.49164959339925
0
ELLIPSE
5
149
100
AcDbEntity
8
1
62
256
6
ByLayer
370
13
48
1
60
0
100
AcDbEllipse
10
53.52177
20
-30.590412
30
0
11
0.319961464140763
21
-0.733228928415198
31
0
210
0
220
0
230
1
40
0.511668
41
1.21145077635435
42
2.01456606920446
0
ELLIPSE
5
14A
100
AcDbEntity
8
1
62
256
6
ByLayer
370
13
48
1
60
0
100
AcDbEllipse
10
59.475222
20
-44.837277
30
0
11
-4.5498871923496
21
14.507371558278
31
0
210
0
220
0
230
-1
40
0.704986
41
-0.238714916858693
42
-0.0939955852450049
0
ELLIPSE
5
14B
100
AcDbEntity
8
1
62
256
6
ByLayer
370
18
48
1
60
0
100
AcDbEllipse
10
50.379075
20
-26.179689
30
0
11
-0.103998703345399
21
-0.281396996612394
31
0
210
0
220
0
230
1
40
0.938438
41
-2.8640931581274
42
-1.118763906133
0
ELLIPSE
5
14C
100
AcDbEntity
8
1
62
256
6
ByLayer
370
18
48
1
60
0
100
AcDbEllipse
10
59.210548
20
-34.210563
30
0
11
-0.56176769790402
21
-0.560763868389911
31
0
210
0
220
0
230
1
40
0.989122
41
0.991789345946136
42
2.15127958480508
0
ELLIPSE
5
14D
100
AcDbEntity
8
1
62
256
6
ByLayer
370
18
48
1
60
0
100
AcDbEllipse
10
53.058079
20
-27.196655
30
0
11
11.4505126113657
21
-1.06572085320461
31
0
210
0
220
0
230
1
40
0.094636
41
1.39317876028755
42
1.81130894479898
0
ELLIPSE
5
14E
100
AcDbEntity
8
1
62
256
6
ByLayer
370
18
48
1
60
0
100
AcDbEllipse
10
53.758306
20
-24.194291
30
0
11
-3.23601443364683
21
0.301181980253477
31
0
210
0
220
0
230
1
40
0.094636
41
0
42
1.36080062670603
0
ELLIPSE
5
14F
100
AcDbEntity
8
1
62
256
6
ByLayer
370
18
48
1
60
0
100
AcDbEllipse
10
53.758306
20
-24.194291
30
0
11
-3.23601443364683
21
0.301181980253477
31
0
210
0
220
0
230
1
40
0.094636
41
-1.1278316272177
42
0
0
ELLIPSE
5
150
100
AcDbEntity
8
1
62
256
6
ByLayer
370
18
48
1
60
0
100
AcDbEllipse
10
53.47019
20
-22.768943
30
0
11
-4.90332076028679
21
65.3047577178133
31
0
210
0
220
0
230
-1
40
0.055184
41
-1.63758603142517
42
-1.61951902434899
0
ELLIPSE
5
151
100
AcDbEntity
8
1
62
256
6
ByLayer
370
18
48
1
60
0
100
AcDbEllipse
10
54.320151
20
-22.678769
30
0
11
-11.4505126113657
21
1.06572085320461
31
0
210
0
220
0
230
1
40
0.094636
41
1.30562211285112
42
1.39114035580863
0
ELLIPSE
5
152
100
AcDbEntity
8
1
62
256
6
ByLayer
370
18
48
1
60
0
100
AcDbEllipse
10
49.874463
20
-31.223853
30
0
11
-0.0819385086300396
21
-0.996637386818037
31
0
210
0
220
0
230
1
40
0.112614
41
-3.14158478311444
42
-1.49164959339926
0
ELLIPSE
5
153
100
AcDbEntity
8
1
62
256
6
ByLayer
370
18
48
1
60
0
100
AcDbEllipse
10
60.279927
20
-36.191219
30
0
11
11.4505126113657
21
-1.06572085320461
31
0
210
0
220
0
230
1
40
0.094636
41
2.20203458961203
42
2.28959123704846
0
ELLIPSE
5
154
100
AcDbEntity
8
1
62
256
6
ByLayer
370
18
48
1
60
0
100
AcDbEllipse
10
37.914648
20
-36.407025
30
0
11
-4.80364599473531
21
-65.8463830940255
31
0
210
0
220
0
230
-1
40
0.173071
41
-1.66122554443501
42
-1.64315851905314
0
ELLIPSE
5
155
100
AcDbEntity
8
1
62
256
6
ByLayer
370
18
48
1
60
0
100
AcDbEllipse
10
59.210548
20
-34.210563
30
0
11
-0.56176769790402
21
-0.560763868389911
31
0
210
0
220
0
230
1
40
0.989122
41
0.698869839378442
42
0.991789345946136
0
ELLIPSE
5
156
100
AcDbEntity
8
1
62
256
6
ByLayer
370
18
48
1
60
0
100
AcDbEllipse
10
59.210548
20
-34.210563
30
0
11
-0.56176769790402
21
-0.560763868389911
31
0
210
0
220
0
230
1
40
0.989122
41
2.15127958480508
42
2.44419909137277
0
ELLIPSE
5
157
100
AcDbEntity
8
1
62
256
6
ByLayer
370
18
48
1
60
0
100
AcDbEllipse
10
37.337434
20
-22.626148
30
0
11
-11.4505126113657
21
1.06572085320461
31
0
210
0
220
0
230
1
40
0.094636
41
2.89154254899232
42
2.96397508708244
0
ELLIPSE
5
158
100
AcDbEntity
8
1
62
256
6
ByLayer
370
13
48
1
60
0
100
AcDbEllipse
10
51.724848
20
-41.521395
30
0
11
-6.30996846815871
21
12.1910348344148
31
0
210
0
220
0
230
-1
40
0.760982
41
0.404775992180362
42
0.815303539138863
0
ELLIPSE
5
159
100
AcDbEntity
8
1
62
256
6
ByLayer
370
18
48
1
60
0
100
AcDbEllipse
10
49.23946
20
-27.507404
30
0
11
0.346662344484662
21
0.937989988707981
31
0
210
0
220
0
230
1
40
0.938438
41
-2.86409315812737
42
-1.11876390613303
0
ELLIPSE
5
15A
100
AcDbEntity
8
1
62
256
6
ByLayer
370
13
48
1
60
0
100
AcDbEllipse
10
40.291723
20
-17.167157
30
0
11
-9.55888970172224
21
12.5892102875774
31
0
210
0
220
0
230
-1
40
0.049557
41
-3.08131494777467
42
-2.93022486534392
0
ELLIPSE
5
15B
100
AcDbEntity
8
1
62
256
6
ByLayer
370
18
48
1
60
0
100
AcDbEllipse
10
60.41831
20
-34.704377
30
0
11
-11.4505126113657
21
1.06572085320461
31
0
210
0
220
0
230
1
40
0.094636
41
-1.35768824848918
42
-0.939558063977749
0
ELLIPSE
5
15C
100
AcDbEntity
8
1
62
256
6
ByLayer
370
13
48
1
60
0
100
AcDbEllipse
10
54.001167
20
-17.063755
30
0
11
-8.32451433750492
21
-10.2993973160604
31
0
210
0
220
0
230
-1
40
0.80331
41
-1.01284822002887
42
-0.868128888441033
0
ELLIPSE
5
15D
100
AcDbEntity
8
1
62
256
6
ByLayer
370
18
48
1
60
0
100
AcDbEllipse
10
57.648951
20
22.129437
30
0
11
-9.9181233845413
21
-63.2516234235566
31
0
210
0
220
0
230
-1
40
0.168655
41
-0.73251129366109
42
-0.677796753651434
0
ELLIPSE
5
15E
100
AcDbEntity
8
1
62
256
6
ByLayer
370
18
48
1
60
0
100
AcDbEllipse
10
53.196462
20
-25.709813
30
0
11
-11.4505126113657
21
1.06572085320461
31
0
210
0
220
0
230
1
40
0.094636
41
-1.83597054073867
42
-1.74841389330225
0
ELLIPSE
5
15F
100
AcDbEntity
8
1
62
256
6
ByLayer
370
13
48
1
60
0
100
AcDbEllipse
10
61.751541
20
-20.379638
30
0
11
-10.5794159990858
21
-6.18041617679743
31
0
210
0
220
0
230
-1
40
0.805524
41
-0.889585750252278
42
-0.479058203293386
0
ELLIPSE
5
160
100
AcDbEntity
8
1
62
256
6
ByLayer
370
18
48
1
60
0
100
AcDbEllipse
10
52.997353
20
-24.742123
30
0
11
-1.99139349762882
21
0.185342757079063
31
0
210
0
220
0
230
1
40
0.094636
41
-1.89376469301821
42
-1.23053957726037
0
ELLIPSE
5
161
100
AcDbEntity
8
1
62
256
6
ByLayer
370
18
48
1
60
0
100
AcDbEllipse
10
59.286346
20
-25.912151
30
0
11
-0.0470525403363313
21
-0.79235416383578
31
0
210
0
220
0
230
1
40
0.332231
41
1.2957592846866
42
3.04108853668089
0
ELLIPSE
5
162
100
AcDbEntity
8
1
62
256
6
ByLayer
370
18
48
1
60
0
100
AcDbEllipse
10
60.006207
20
-39.132031
30
0
11
-5.39394065009109
21
65.5946196833191
31
0
210
0
220
0
230
-1
40
0.016609
41
-1.47722237531108
42
-1.45915527049503
0
ELLIPSE
5
163
100
AcDbEntity
8
1
62
256
6
ByLayer
370
13
48
1
60
0
100
AcDbEllipse
10
51.523392
20
-41.984061
30
0
11
-4.95124367329319
21
12.4884331861736
31
0
210
0
220
0
230
-1
40
0.73479
41
0.265807610422597
42
0.707369795340123
0
POINT
5
6C
100
AcDbEntity
8
80
62
256
6
ByLayer
370
18
48
1
60
0
100
AcDbPoint
10
0
20
0
30
0
39
0
210
0
220
0
230
1
50
360
0
POINT
5
6E
100
AcDbEntity
8
1
62
256
6
ByLayer
370
18
48
1
60
0
100
AcDbPoint
10
0
20
0
30
0
39
0
210
0
220
0
230
1
50
360
0
POINT
5
70
100
AcDbEntity
8
81
62
256
6
ByLayer
370
18
48
1
60
0
100
AcDbPoint
10
60
20
-35
30
0
39
0
210
0
220
0
230
1
50
360
0
SPLINE
5
164
100
AcDbEntity
8
SK1
62
256
6
ByLayer
370
13
48
1
60
0
100
AcDbSpline
70
4
71
2
72
6
73
3
40
0
40
0
40
0
40
1
40
1
40
1
41
1
10
-28.5
20
-16.8596376260733
30
0
41
1
10
-15.2499999948295
20
-17.192383260017
30
0
41
1
10
-2
20
-17.5251291135894
30
0
0
SPLINE
5
165
100
AcDbEntity
8
SK1
62
256
6
ByLayer
370
13
48
1
60
0
100
AcDbSpline
70
4
71
3
72
19
73
15
40
0
40
0
40
0
40
0
40
0.0655587644237789
40
0.0928741064145151
40
0.105347243101103
40
0.117962799755391
40
0.13196466918317
40
0.148689875865455
40
0.194690136312764
40
0.262341095401004
40
0.351651547559429
40
0.587099992185775
40
0.882872412175762
40
1
40
1
40
1
40
1
41
1
10
-0.194976888875288
20
-17.3704796738454
30
0
41
1
10
-0.184926114337173
20
-17.3701675468223
30
0
41
1
10
-0.167892823792698
20
-17.3722898769597
30
0
41
1
10
-0.144673974222684
20
-17.3779439126218
30
0
41
1
10
-0.131737152374569
20
-17.3822681597297
30
0
41
1
10
-0.12223591509246
20
-17.3859936473488
30
0
41
1
10
-0.112944536165145
20
-17.3902063552619
30
0
41
1
10
-0.0996160036949902
20
-17.3971028543232
30
0
41
1
10
-0.0846047095440952
20
-17.4066906534369
30
0
41
1
10
-0.0694929428063915
20
-17.4183784319662
30
0
41
1
10
-0.0484384299165583
20
-17.437895794997
30
0
41
1
10
-0.0284792371908225
20
-17.4630430386597
30
0
41
1
10
-0.0151210213163893
20
-17.4855287664069
30
0
41
1
10
-0.0108944658031476
20
-17.4964128869339
30
0
41
1
10
-0.0100208218485704
20
-17.499276315355
30
0
0
SPLINE
5
166
100
AcDbEntity
8
SK1
62
256
6
ByLayer
370
13
48
1
60
0
100
AcDbSpline
70
4
71
3
72
23
73
19
40
0
40
0
40
0
40
0
40
0.0367675698035397
40
0.266634876537754
40
0.415005008234464
40
0.53708068377286
40
0.629277999382068
40
0.693824201115831
40
0.734899520658034
40
0.748539629755472
40
0.754156275261499
40
0.759255054746333
40
0.764105727824163
40
0.768982891314537
40
0.779662413692124
40
0.807833736591588
40
0.892597827676732
40
1
40
1
40
1
40
1
41
1
10
-0.0052339985457195
20
17.5166490961312
30
0
41
1
10
-0.0054208359389918
20
17.5160047856232
30
0
41
1
10
-0.0069605974590274
20
17.5110461325468
30
0
41
1
10
-0.011929340138721
20
17.4988426598277
30
0
41
1
10
-0.0205234423640093
20
17.481096991471
30
0
41
1
10
-0.0298837056786851
20
17.4647352102044
30
0
41
1
10
-0.0409376920515285
20
17.4484194714323
30
0
41
1
10
-0.053652446636562
20
17.4330141405525
30
0
41
1
10
-0.0662599380375184
20
17.4202591221547
30
0
41
1
10
-0.0776076133706738
20
17.4109261265005
30
0
41
1
10
-0.0834912990427483
20
17.4065441691291
30
0
41
1
10
-0.0877257300599865
20
17.4035721393717
30
0
41
1
10
-0.092044162381768
20
17.400720457566
30
0
41
1
10
-0.098029239490586
20
17.3970060737663
30
0
41
1
10
-0.109927007711264
20
17.3903589910657
30
0
41
1
10
-0.134486638024867
20
17.3796505283027
30
0
41
1
10
-0.162355121443397
20
17.3731655733626
30
0
41
1
10
-0.184964907174987
20
17.3699554274787
30
0
41
1
10
-0.194976888875288
20
17.3704795286248
30
0
0
SPLINE
5
167
100
AcDbEntity
8
SK1
62
256
6
ByLayer
370
13
48
1
60
0
100
AcDbSpline
70
4
71
2
72
6
73
3
40
0
40
0
40
0
40
1
40
1
40
1
41
1
10
-0.194976888875288
20
17.3704795255361
30
0
41
1
10
-0.995008433388904
20
17.3503884206545
30
0
41
1
10
-1.79503997793927
20
17.3302973165502
30
0
0
SPLINE
5
168
100
AcDbEntity
8
SK1
62
256
6
ByLayer
370
13
48
1
60
0
100
AcDbSpline
70
4
71
2
72
6
73
3
40
0
40
0
40
0
40
1
40
1
40
1
41
1
10
-2
20
17.5251289687903
30
0
41
1
10
-15.2499999948295
20
17.1923831142155
30
0
41
1
10
-28.5
20
16.8596374792573
30
0
0
SPLINE
5
169
100
AcDbEntity
8
SK1
62
256
6
ByLayer
370
13
48
1
60
0
100
AcDbSpline
70
4
71
3
72
13
73
9
40
0
40
0
40
0
40
0
40
0.239409099367185
40
0.368297400752095
40
0.49993143869146
40
0.631576866358051
40
0.760496583550942
40
1
40
1
40
1
40
1
41
1
10
-2
20
-17.525129116923
30
0
41
1
10
-1.99909125719799
20
-17.4990813944884
30
0
41
1
10
-1.99103211472604
20
-17.4617233046648
30
0
41
1
10
-1.96563495891917
20
-17.4155240253433
30
0
41
1
10
-1.93886250822572
20
-17.3842556209573
30
0
41
1
10
-1.90627575278674
20
-17.3590990612904
30
0
41
1
10
-1.85883875467886
20
-17.3360651360603
30
0
41
1
10
-1.82110932008976
20
-17.3298953840654
30
0
41
1
10
-1.79503997793924
20
-17.3302974649007
30
0
0
SPLINE
5
16A
100
AcDbEntity
8
SK1
62
256
6
ByLayer
370
13
48
1
60
0
100
AcDbSpline
70
4
71
2
72
6
73
3
40
0
40
0
40
0
40
1
40
1
40
1
41
1
10
-1.79503997793924
20
-17.3302974619407
30
0
41
1
10
-0.995008433388904
20
-17.3503885659841
30
0
41
1
10
-0.194976888875288
20
-17.3704796708046
30
0
0
SPLINE
5
16B
100
AcDbEntity
8
SK1
62
256
6
ByLayer
370
13
48
1
60
0
100
AcDbSpline
70
4
71
3
72
13
73
9
40
0
40
0
40
0
40
0
40
0.239503416121639
40
0.368423133196252
40
0.500068560814827
40
0.631702598790245
40
0.760590900287175
40
1
40
1
40
1
40
1
41
1
10
-1.79503997793927
20
17.3302973195575
30
0
41
1
10
-1.82110932009613
20
17.3298952387249
30
0
41
1
10
-1.85883875469074
20
17.3360649907381
30
0
41
1
10
-1.90627575279683
20
17.3590989160413
30
0
41
1
10
-1.93886250823533
20
17.3842554757878
30
0
41
1
10
-1.96563495892644
20
17.4155238802705
30
0
41
1
10
-1.99103211473135
20
17.461723159738
30
0
41
1
10
-1.99909125720336
20
17.4990812496682
30
0
41
1
10
-2
20
17.5251289721745
30
0
0
SPLINE
5
16C
100
AcDbEntity
8
SK1
62
256
6
ByLayer
370
13
48
1
60
0
100
AcDbSpline
70
4
71
2
72
6
73
3
40
0
40
0
40
0
40
1
40
1
40
1
41
1
10
-30
20
-15.9939124895064
30
0
41
1
10
-29.2499998529432
20
-16.4267409033857
30
0
41
1
10
-28.5
20
-16.8595690307064
30
0
0
SPLINE
5
16D
100
AcDbEntity
8
SK1
62
256
6
ByLayer
370
13
48
1
60
0
100
AcDbSpline
70
4
71
2
72
6
73
3
40
0
40
0
40
0
40
1
40
1
40
1
41
1
10
-28.5
20
16.8595688840822
30
0
41
1
10
-29.2499998529458
20
16.426740755441
30
0
41
1
10
-30
20
15.9939123402478
30
0
0
SPLINE
5
16E
100
AcDbEntity
8
1
62
256
6
ByLayer
370
13
48
1
60
0
100
AcDbSpline
70
4
71
3
72
20
73
16
40
0
40
0
40
0
40
0
40
0.0625000000000026
40
0.0625000000000026
40
0.125000000000005
40
0.125000000000005
40
0.250000000000004
40
0.250000000000004
40
0.375000000000002
40
0.375000000000002
40
0.500000000000001
40
0.500000000000001
40
0.75
40
0.75
40
1
40
1
40
1
40
1
41
1
10
8.53867513459471
20
7.52966679426567
30
0
41
1
10
8.52279868797999
20
7.52966679426567
30
0
41
1
10
8.50721568825662
20
7.5312244015301
30
0
41
1
10
8.4765841212579
20
7.53717584664619
30
0
41
1
10
8.46140599697384
20
7.54162522662324
30
0
41
1
10
8.41759599948881
20
7.55857361750168
30
0
41
1
10
8.39103491659958
20
7.57431556968171
30
0
41
1
10
8.34170754400503
20
7.61190750686325
30
0
41
1
10
8.3198311545296
20
7.63307325241263
30
0
41
1
10
8.27975402284378
20
7.67851551807186
30
0
41
1
10
8.26148999258885
20
7.70297658390848
30
0
41
1
10
8.21173961735178
20
7.77866338250513
30
0
41
1
10
8.18512193927666
20
7.83191947486105
30
0
41
1
10
8.13975567725316
20
7.94172327888245
30
0
41
1
10
8.12111376292609
20
7.99846916820758
30
0
41
1
10
8.10566243270236
20
8.05584836782822
30
0
0
SPLINE
5
16F
100
AcDbEntity
8
1
62
256
6
ByLayer
370
13
48
1
60
0
100
AcDbSpline
70
4
71
3
72
10
73
6
40
0
40
0
40
0
40
0
40
0.409169261797775
40
0.409169261797775
40
1
40
1
40
1
40
1
41
1
10
59.1754229937698
20
-23.0663526204673
30
0
41
1
10
59.1754731960924
20
-23.0381299878023
30
0
41
1
10
59.1751288823038
20
-23.0100084573518
30
0
41
1
10
59.1733959484497
20
-22.9420562294485
30
0
41
1
10
59.1716028873495
20
-22.9021710690099
30
0
41
1
10
59.1691615581318
20
-22.8631139840033
30
0
0
SPLINE
5
170
100
AcDbEntity
8
1
62
256
6
ByLayer
370
13
48
1
60
0
100
AcDbSpline
70
4
71
3
72
8
73
4
40
0
40
0
40
0
40
0
40
1
40
1
40
1
40
1
41
1
10
49.6188049471685
20
-30.0065956768288
30
0
41
1
10
49.6195080698747
20
-30.0166636355157
30
0
41
1
10
49.6201711463465
20
-30.0267465556439
30
0
41
1
10
49.6207838656323
20
-30.0366467094403
30
0
0
SPLINE
5
171
100
AcDbEntity
8
1
62
256
6
ByLayer
370
13
48
1
60
0
100
AcDbSpline
70
4
71
3
72
22
73
18
40
0
40
0
40
0
40
0
40
0.249999999999994
40
0.249999999999994
40
0.374999999999996
40
0.374999999999996
40
0.499999999999998
40
0.499999999999998
40
0.624999999999999
40
0.624999999999999
40
0.750000000000001
40
0.750000000000001
40
0.812500000000001
40
0.812500000000001
40
0.875000000000001
40
0.875000000000001
40
1
40
1
40
1
40
1
41
1
10
11.8943375672973
20
8.05584836782842
30
0
41
1
10
11.8788923030149
20
7.99849169434981
30
0
41
1
10
11.8604037172645
20
7.94218253951317
30
0
41
1
10
11.8264575712212
20
7.85991012495478
30
0
41
1
10
11.814096269969
20
7.83285506058553
30
0
41
1
10
11.7867462210775
20
7.77968328642103
30
0
41
1
10
11.7716842562431
20
7.75344388357055
30
0
41
1
10
11.7384769785307
20
7.7029280578499
30
0
41
1
10
11.7203772593315
20
7.67866353751245
30
0
41
1
10
11.6800242532304
20
7.63291014136124
30
0
41
1
10
11.6579517648702
20
7.61165433162156
30
0
41
1
10
11.6215461384038
20
7.58390025536258
30
0
41
1
10
11.6088302857937
20
7.57531366225078
30
0
41
1
10
11.5819453465864
20
7.55980672066971
30
0
41
1
10
11.5678144986017
20
7.55293791940463
30
0
41
1
10
11.5243601613891
20
7.53610198950904
30
0
41
1
10
11.4930267682388
20
7.52966679426535
30
0
41
1
10
11.4613248654052
20
7.52966679426532
30
0
0
SPLINE
5
172
100
AcDbEntity
8
1
62
256
6
ByLayer
370
13
48
1
60
0
100
AcDbSpline
70
4
71
3
72
20
73
16
40
0
40
0
40
0
40
0
40
0.177960496200471
40
0.177960496200471
40
0.266940744300706
40
0.266940744300706
40
0.355920992400941
40
0.355920992400941
40
0.444901240501175
40
0.444901240501175
40
0.53388148860141
40
0.53388148860141
40
0.71184198480188
40
0.71184198480188
40
1
40
1
40
1
40
1
41
1
10
50.473948463387
20
-23.163387313765
30
0
41
1
10
50.477614542435
20
-23.1239975577639
30
0
41
1
10
50.4862000191343
20
-23.0864932409589
30
0
41
1
10
50.5059536106537
20
-23.0328556418373
30
0
41
1
10
50.5137315663964
20
-23.0154073381409
30
0
41
1
10
50.5310366704984
20
-22.9824473315164
30
0
41
1
10
50.5406129063814
20
-22.9667831342336
30
0
41
1
10
50.561498810486
20
-22.9369692190051
30
0
41
1
10
50.572889074415
20
-22.9227371017286
30
0
41
1
10
50.5969306516151
20
-22.8961929856968
30
0
41
1
10
50.6095464280988
20
-22.8838921661127
30
0
41
1
10
50.6490169304066
20
-22.849588155602
30
0
41
1
10
50.6776343264607
20
-22.8300798578844
30
0
41
1
10
50.7568862443593
20
-22.7873632121674
30
0
41
1
10
50.8086130779691
20
-22.7698330636904
30
0
41
1
10
50.8625890476546
20
-22.7593290000385
30
0
0
SPLINE
5
173
100
AcDbEntity
8
1
62
256
6
ByLayer
370
13
48
1
60
0
100
AcDbSpline
70
4
71
3
72
16
73
12
40
0
40
0
40
0
40
0
40
0.242160633869312
40
0.242160633869312
40
0.368467194891092
40
0.368467194891092
40
0.494773755912873
40
0.494773755912873
40
0.747386877956437
40
0.747386877956437
40
1
40
1
40
1
40
1
41
1
10
38.7413064409623
20
-33.0900895141198
30
0
41
1
10
38.8044430484542
20
-33.1380210275416
30
0
41
1
10
38.8813076392558
20
-33.1869983849314
30
0
41
1
10
39.0202425832994
20
-33.2631958853158
30
0
41
1
10
39.0716053994463
20
-33.2895076458182
30
0
41
1
10
39.1821251421658
20
-33.3426150258451
30
0
41
1
10
39.2412570502744
20
-33.3693968116249
30
0
41
1
10
39.4305934038181
20
-33.4504455731794
30
0
41
1
10
39.5727012598441
20
-33.5054137606771
30
0
41
1
10
39.8912274646901
20
-33.6173713143573
30
0
41
1
10
40.0676311505432
20
-33.674359816767
30
0
41
1
10
40.2631329919436
20
-33.7324733623274
30
0
0
SPLINE
5
174
100
AcDbEntity
8
1
62
256
6
ByLayer
370
13
48
1
60
0
100
AcDbSpline
70
4
71
3
72
14
73
10
40
0
40
0
40
0
40
0
40
0.25
40
0.25
40
0.5
40
0.5
40
0.75
40
0.75
40
1
40
1
40
1
40
1
41
1
10
49.4190282008729
20
-29.4189755826714
30
0
41
1
10
49.4028865112261
20
-29.3960640656093
30
0
41
1
10
49.3856227649422
20
-29.3719468465466
30
0
41
1
10
49.3498519441254
20
-29.3228305524982
30
0
41
1
10
49.3312019503582
20
-29.2976261729646
30
0
41
1
10
49.2921900195226
20
-29.2457704645191
30
0
41
1
10
49.2723582276691
20
-29.2198273552925
30
0
41
1
10
49.2325564160541
20
-29.1685113569605
30
0
41
1
10
49.2123445081932
20
-29.1428299727181
30
0
41
1
10
49.1924085997087
20
-29.1178221731513
30
0
0
SPLINE
5
175
100
AcDbEntity
8
1
62
256
6
ByLayer
370
13
48
1
60
0
100
AcDbSpline
70
4
71
3
72
8
73
4
40
0
40
0
40
0
40
0
40
1
40
1
40
1
40
1
41
1
10
58.4879027716395
20
-12.2289288032678
30
0
41
1
10
58.4860232323594
20
-12.200042734939
30
0
41
1
10
58.4838872940051
20
-12.1713311040981
30
0
41
1
10
58.4814931117138
20
-12.1427902092327
30
0
0
SPLINE
5
176
100
AcDbEntity
8
1
62
256
6
ByLayer
370
13
48
1
60
0
100
AcDbSpline
70
4
71
3
72
32
73
28
40
0
40
0
40
0
40
0
40
0.0625000000000045
40
0.0625000000000045
40
0.125000000000009
40
0.125000000000009
40
0.250000000000015
40
0.250000000000015
40
0.312500000000019
40
0.312500000000019
40
0.375000000000022
40
0.375000000000022
40
0.500000000000023
40
0.500000000000023
40
0.562500000000021
40
0.562500000000021
40
0.625000000000019
40
0.625000000000019
40
0.750000000000015
40
0.750000000000015
40
0.781250000000012
40
0.781250000000012
40
0.812500000000009
40
0.812500000000009
40
0.875000000000004
40
0.875000000000004
40
1
40
1
40
1
40
1
41
1
10
40.4911591494073
20
-25.5618555078677
30
0
41
1
10
40.5242267459484
20
-25.5129207560395
30
0
41
1
10
40.5597783045272
20
-25.4651184891626
30
0
41
1
10
40.6347779490563
20
-25.3731753131656
30
0
41
1
10
40.6739392870627
20
-25.3293402913283
30
0
41
1
10
40.7961543716604
20
-25.2037434662233
30
0
41
1
10
40.8839018143996
20
-25.1278455819427
30
0
41
1
10
41.024690868098
20
-25.0247780519705
30
0
41
1
10
41.0731656045893
20
-24.9922583891766
30
0
41
1
10
41.1714870322776
20
-24.9317758282365
30
0
41
1
10
41.2215436373542
20
-24.9036518165991
30
0
41
1
10
41.3744291224062
20
-24.8252503628905
30
0
41
1
10
41.4799411021713
20
-24.7808918466918
30
0
41
1
10
41.6442403173559
20
-24.7257141135599
30
0
41
1
10
41.7002214994375
20
-24.7091783662233
30
0
41
1
10
41.8134535073818
20
-24.6802466417432
30
0
41
1
10
41.8704603000404
20
-24.6678961231274
30
0
41
1
10
42.0427397692766
20
-24.6370796062376
30
0
41
1
10
42.1592622974111
20
-24.6247814298124
30
0
41
1
10
42.30743688991
20
-24.6202888329186
30
0
41
1
10
42.3372992537885
20
-24.6199418341089
30
0
41
1
10
42.3966584932723
20
-24.620373304942
30
0
41
1
10
42.4261676063418
20
-24.6211467322914
30
0
41
1
10
42.5141862064458
20
-24.625105328143
30
0
41
1
10
42.5721862797797
20
-24.6299254221246
30
0
41
1
10
42.7441962203496
20
-24.6507769875271
30
0
41
1
10
42.85621003764
20
-24.6731464348933
30
0
41
1
10
42.9657924180665
20
-24.7042241542242
30
0
0
SPLINE
5
177
100
AcDbEntity
8
1
62
256
6
ByLayer
370
13
48
1
60
0
100
AcDbSpline
70
4
71
3
72
28
73
24
40
0
40
0
40
0
40
0
40
0.124999999999997
40
0.124999999999997
40
0.249999999999995
40
0.249999999999995
40
0.312499999999996
40
0.312499999999996
40
0.374999999999998
40
0.374999999999998
40
0.500000000000001
40
0.500000000000001
40
0.562500000000001
40
0.562500000000001
40
0.625
40
0.625
40
0.749999999999999
40
0.749999999999999
40
0.812499999999998
40
0.812499999999998
40
0.874999999999998
40
0.874999999999998
40
1
40
1
40
1
40
1
41
1
10
49.7822415771036
20
-17.766836090981
30
0
41
1
10
49.8242660923666
20
-17.854941048206
30
0
41
1
10
49.8592673906066
20
-17.9452101530111
30
0
41
1
10
49.9157807797018
20
-18.1298643176332
30
0
41
1
10
49.9372914542338
20
-18.2242499640063
30
0
41
1
10
49.9591820342023
20
-18.368962805948
30
0
41
1
10
49.9647481010602
20
-18.4179115184345
30
0
41
1
10
49.9721988484419
20
-18.5154194603664
30
0
41
1
10
49.9741145036209
20
-18.5640889346231
30
0
41
1
10
49.9745480077064
20
-18.7098453006503
30
0
41
1
10
49.9677803694911
20
-18.8066813641378
30
0
41
1
10
49.9469829953166
20
-18.9514164637546
30
0
41
1
10
49.9382692605258
20
-18.9995746956108
30
0
41
1
10
49.9171803873269
20
-19.0957108276731
30
0
41
1
10
49.9048727246096
20
-19.1433378355448
30
0
41
1
10
49.8630564333998
20
-19.2838405625211
30
0
41
1
10
49.8285807542451
20
-19.3748128673916
30
0
41
1
10
49.7670964673901
20
-19.5072765791348
30
0
41
1
10
49.7449667361075
20
-19.5507627193243
30
0
41
1
10
49.6973788424517
20
-19.6363741094805
30
0
41
1
10
49.6718330113754
20
-19.6786275594397
30
0
41
1
10
49.5907726525494
20
-19.8021769559193
30
0
41
1
10
49.5309675969533
20
-19.8802186165467
30
0
41
1
10
49.4653702236118
20
-19.9539146545054
30
0
0
SPLINE
5
178
100
AcDbEntity
8
1
62
256
6
ByLayer
370
13
48
1
60
0
100
AcDbSpline
70
4
71
3
72
22
73
18
40
0
40
0
40
0
40
0
40
0.250000000000006
40
0.250000000000006
40
0.375000000000004
40
0.375000000000004
40
0.500000000000005
40
0.500000000000005
40
0.625000000000005
40
0.625000000000005
40
0.750000000000006
40
0.750000000000006
40
0.812500000000007
40
0.812500000000007
40
0.875000000000007
40
0.875000000000007
40
1
40
1
40
1
40
1
41
1
10
8.10566243270256
20
23.6665017920809
30
0
41
1
10
8.12110769698498
20
23.6860254491252
30
0
41
1
10
8.1395962827354
20
23.7049589195931
30
0
41
1
10
8.17354242877869
20
23.7323123198157
30
0
41
1
10
8.18590373003087
20
23.7412544902042
30
0
41
1
10
8.21325377892234
20
23.7587312609862
30
0
41
1
10
8.22831574375681
20
23.7673055542944
30
0
41
1
10
8.26152302146912
20
23.7837256270429
30
0
41
1
10
8.27962274066832
20
23.7915679133937
30
0
41
1
10
8.3199757467695
20
23.8062861503817
30
0
41
1
10
8.34204823512971
20
23.8130866432223
30
0
41
1
10
8.37845386159611
20
23.8219342456096
30
0
41
1
10
8.3911697142062
20
23.8246655611125
30
0
41
1
10
8.41805465341352
20
23.8295906076135
30
0
41
1
10
8.43218550139821
20
23.8317679461286
30
0
41
1
10
8.47563983861079
20
23.8370993498304
30
0
41
1
10
8.50697323176115
20
23.8391299750505
30
0
41
1
10
8.53867513459471
20
23.8391299750505
30
0
0
SPLINE
5
179
100
AcDbEntity
8
1
62
256
6
ByLayer
370
13
48
1
60
0
100
AcDbSpline
70
4
71
3
72
8
73
4
40
0
40
0
40
0
40
0
40
1
40
1
40
1
40
1
41
1
10
49.3552676363358
20
-33.7367211963443
30
0
41
1
10
49.2941015215256
20
-33.8989483429583
30
0
41
1
10
49.2329352973562
20
-34.0611754594103
30
0
41
1
10
49.1717689594003
20
-34.2234025444675
30
0
0
SPLINE
5
17A
100
AcDbEntity
8
1
62
256
6
ByLayer
370
13
48
1
60
0
100
AcDbSpline
70
4
71
3
72
30
73
26
40
0
40
0
40
0
40
0
40
0.125000000000007
40
0.125000000000007
40
0.18750000000001
40
0.18750000000001
40
0.250000000000014
40
0.250000000000014
40
0.375000000000014
40
0.375000000000014
40
0.437500000000015
40
0.437500000000015
40
0.500000000000016
40
0.500000000000016
40
0.625000000000011
40
0.625000000000011
40
0.687500000000008
40
0.687500000000008
40
0.750000000000006
40
0.750000000000006
40
0.875000000000002
40
0.875000000000002
40
0.937500000000001
40
0.937500000000001
40
1
40
1
40
1
40
1
41
1
10
50.7983080223587
20
-22.2951956143382
30
0
41
1
10
50.901961583468
20
-22.2916204878812
30
0
41
1
10
51.0039014443212
20
-22.2961454052791
30
0
41
1
10
51.1538187158052
20
-22.3146682236168
30
0
41
1
10
51.2032895424726
20
-22.3228058769569
30
0
41
1
10
51.3011139193131
20
-22.3430243027406
30
0
41
1
10
51.3493841502912
20
-22.3551095041669
30
0
41
1
10
51.4899106656221
20
-22.3965121004424
30
0
41
1
10
51.5787434990905
20
-22.431116549912
30
0
41
1
10
51.7040557854321
20
-22.4925622921316
30
0
41
1
10
51.7444968726994
20
-22.5146385748814
30
0
41
1
10
51.8225131573261
20
-22.5618542760803
30
0
41
1
10
51.8599016555175
20
-22.5868994428941
30
0
41
1
10
51.9657552208304
20
-22.6650203921945
30
0
41
1
10
52.0284868919222
20
-22.7214159097365
30
0
41
1
10
52.1099138937427
20
-22.8103828845601
30
0
41
1
10
52.1350484002488
20
-22.8409266269951
30
0
41
1
10
52.1802032542364
20
-22.9021893597305
30
0
41
1
10
52.2002037113509
20
-22.9328353140873
30
0
41
1
10
52.2526794940572
20
-23.0240515118965
30
0
41
1
10
52.277624477367
20
-23.0838921461067
30
0
41
1
10
52.3007133711331
20
-23.169238754081
30
0
41
1
10
52.3060316411529
20
-23.1970536609207
30
0
41
1
10
52.3119955133699
20
-23.2503101645168
30
0
41
1
10
52.3126364327095
20
-23.275509502958
30
0
41
1
10
52.3112496216913
20
-23.2992371188519
30
0
0
SPLINE
5
17B
100
AcDbEntity
8
1
62
256
6
ByLayer
370
13
48
1
60
0
100
AcDbSpline
70
4
71
3
72
50
73
46
40
0
40
0
40
0
40
0
40
0.0312499999999997
40
0.0312499999999997
40
0.0624999999999996
40
0.0624999999999996
40
0.124999999999999
40
0.124999999999999
40
0.156249999999999
40
0.156249999999999
40
0.187499999999999
40
0.187499999999999
40
0.249999999999998
40
0.312499999999998
40
0.312499999999998
40
0.343749999999998
40
0.343749999999998
40
0.374999999999998
40
0.374999999999998
40
0.437499999999998
40
0.437499999999998
40
0.468749999999998
40
0.468749999999998
40
0.499999999999998
40
0.499999999999998
40
0.562499999999998
40
0.562499999999998
40
0.593749999999999
40
0.593749999999999
40
0.624999999999999
40
0.624999999999999
40
0.687499999999999
40
0.687499999999999
40
0.71875
40
0.71875
40
0.734375
40
0.734375
40
0.75
40
0.75
40
0.8125
40
0.8125
40
0.875
40
0.9375
40
0.9375
40
1
40
1
40
1
40
1
41
1
10
19.9999999999998
20
8.55050358314142
30
0
41
1
10
19.9999999999998
20
8.84985856843397
30
0
41
1
10
19.9999999999999
20
9.14730401537005
30
0
41
1
10
19.9999999999999
20
9.73835416640068
30
0
41
1
10
19.9999999999999
20
10.0320423161257
30
0
41
1
10
19.9999999999999
20
10.9036228727371
30
0
41
1
10
19.9999999999999
20
11.4732830126709
30
0
41
1
10
19.9999999999999
20
12.3107664353283
30
0
41
1
10
19.9999999999999
20
12.5870899999784
30
0
41
1
10
19.9999999999999
20
13.1340384831894
30
0
41
1
10
19.9999999999999
20
13.4049360358146
30
0
41
1
10
19.9999999999999
20
14.2068174477767
30
0
41
1
10
19.9999999999999
20
15.2462890956975
30
0
41
1
10
19.9999999999999
20
16.2268239181632
30
0
41
1
10
19.9999999999999
20
16.9399100912391
30
0
41
1
10
19.9999999999999
20
17.1733419913997
30
0
41
1
10
19.9999999999999
20
17.6310919130663
30
0
41
1
10
19.9999999999999
20
17.8555145866553
30
0
41
1
10
19.9999999999999
20
18.5154696674596
30
0
41
1
10
19.9999999999999
20
18.9377086753487
30
0
41
1
10
19.9999999999999
20
19.5442951461081
30
0
41
1
10
19.9999999999999
20
19.7421104545684
30
0
41
1
10
19.9999999999999
20
20.1271457238353
30
0
41
1
10
19.9999999999999
20
20.314570801915
30
0
41
1
10
19.9999999999999
20
20.8616417829891
30
0
41
1
10
19.9999999999999
20
21.2061056037913
30
0
41
1
10
19.9999999999999
20
21.692318583284
30
0
41
1
10
19.9999999999999
20
21.8494477037535
30
0
41
1
10
19.9999999999999
20
22.1527188136537
30
0
41
1
10
19.9999999999999
20
22.2987565831618
30
0
41
1
10
19.9999999999999
20
22.7201827596588
30
0
41
1
10
19.9999999999999
20
22.9789082593113
30
0
41
1
10
19.9999999999999
20
23.3336421214145
30
0
41
1
10
19.9999999999999
20
23.4463216244886
30
0
41
1
10
19.9999999999999
20
23.6069358799036
30
0
41
1
10
19.9999999999999
20
23.6590403665092
30
0
41
1
10
19.9999999999999
20
23.760128721562
30
0
41
1
10
19.9999999999999
20
23.8091525312793
30
0
41
1
10
19.9999999999999
20
24.0467328431255
30
0
41
1
10
19.9999999999999
20
24.212707133523
30
0
41
1
10
19.9999999999999
20
24.4975323169514
30
0
41
1
10
19.9999999999999
20
24.7352304092947
30
0
41
1
10
19.9999999999999
20
24.8791258258488
30
0
41
1
10
19.9999999999999
20
24.9755354050608
30
0
41
1
10
20
20
25.0000110011001
30
0
41
1
10
20
20
24.9999952495251
30
0
0
SPLINE
5
17C
100
AcDbEntity
8
1
62
256
6
ByLayer
370
13
48
1
60
0
100
AcDbSpline
70
4
71
3
72
20
73
16
40
0
40
0
40
0
40
0
40
0.0624999999999992
40
0.0624999999999992
40
0.124999999999998
40
0.124999999999998
40
0.249999999999998
40
0.249999999999998
40
0.374999999999998
40
0.374999999999998
40
0.499999999999998
40
0.499999999999998
40
0.749999999999999
40
0.749999999999999
40
1
40
1
40
1
40
1
41
1
10
11.4613248654051
20
-7.5296667942653
30
0
41
1
10
11.4772013120198
20
-7.5296667942653
30
0
41
1
10
11.4927843117432
20
-7.53122440152973
30
0
41
1
10
11.5234158787419
20
-7.53717584664582
30
0
41
1
10
11.5385940030259
20
-7.54162522662287
30
0
41
1
10
11.5824040005109
20
-7.55857361750134
30
0
41
1
10
11.6089650834002
20
-7.57431556968135
30
0
41
1
10
11.6582924559947
20
-7.61190750686288
30
0
41
1
10
11.6801688454702
20
-7.63307325241226
30
0
41
1
10
11.720245977156
20
-7.67851551807149
30
0
41
1
10
11.7385100074109
20
-7.70297658390811
30
0
41
1
10
11.788260382648
20
-7.77866338250476
30
0
41
1
10
11.8148780607231
20
-7.83191947486068
30
0
41
1
10
11.8602443227465
20
-7.94172327888208
30
0
41
1
10
11.8788862370737
20
-7.99846916820735
30
0
41
1
10
11.8943375672974
20
-8.05584836782799
30
0
0
SPLINE
5
17D
100
AcDbEntity
8
1
62
256
6
ByLayer
370
13
48
1
60
0
100
AcDbSpline
70
4
71
3
72
20
73
16
40
0
40
0
40
0
40
0
40
0.25
40
0.25
40
0.499999999999999
40
0.499999999999999
40
0.749999999999999
40
0.749999999999999
40
0.874999999999999
40
0.874999999999999
40
0.9375
40
0.9375
40
0.96875
40
0.96875
40
1
40
1
40
1
40
1
41
1
10
20.758790766757
20
-11.0959822637496
30
0
41
1
10
20.726059578801
20
-10.9552496400403
30
0
41
1
10
20.6925885883301
20
-10.8146881293587
30
0
41
1
10
20.6238281468335
20
-10.533985709825
30
0
41
1
10
20.5885757692213
20
-10.3938415630323
30
0
41
1
10
20.5151171494337
20
-10.1142933687349
30
0
41
1
10
20.477154683502
20
-9.97480421816678
30
0
41
1
10
20.4143070132908
20
-9.76724725629131
30
0
41
1
10
20.3924109622245
20
-9.69830908308904
30
0
41
1
10
20.3556714477196
20
-9.59620088858165
30
0
41
1
10
20.3427705284631
20
-9.56236596120561
30
0
41
1
10
20.32133798197
20
-9.51244135646851
30
0
41
1
10
20.3138347107604
20
-9.49592652247955
30
0
41
1
10
20.2976578000951
20
-9.46345670430603
30
0
41
1
10
20.2889910546266
20
-9.4474412880015
30
0
41
1
10
20.279207614429
20
-9.43210811387823
30
0
0
SPLINE
5
17E
100
AcDbEntity
8
1
62
256
6
ByLayer
370
13
48
1
60
0
100
AcDbSpline
70
4
71
3
72
12
73
8
40
0
40
0
40
0
40
0
40
0.250000000000001
40
0.250000000000001
40
0.500000000000002
40
0.500000000000002
40
1
40
1
40
1
40
1
41
1
10
40.2631329919306
20
-33.7324733623182
30
0
41
1
10
39.9909071859251
20
-33.5545811720493
30
0
41
1
10
39.7223970612707
20
-33.3696214986983
30
0
41
1
10
39.192915967996
20
-32.9853621554541
30
0
41
1
10
38.9316182290862
20
-32.7857595246303
30
0
41
1
10
38.1657805478818
20
-32.1704453358995
30
0
41
1
10
37.6771686035991
20
-31.7368593387735
30
0
41
1
10
37.2101391815124
20
-31.2802845086613
30
0
0
SPLINE
5
17F
100
AcDbEntity
8
1
62
256
6
ByLayer
370
13
48
1
60
0
100
AcDbSpline
70
4
71
3
72
23
73
19
40
0
40
0
40
0
40
0
40
0.0078124999999999
40
0.0078124999999999
40
0.0156249999999999
40
0.0312499999999999
40
0.0624999999999999
40
0.125
40
0.125
40
0.25
40
0.25
40
0.5
40
0.5
40
0.625
40
0.625
40
0.75
40
0.75
40
1
40
1
40
1
40
1
41
1
10
19.9999999999999
20
8.53E-14
30
0
41
1
10
19.9999999999922
20
0.0224924027771465
30
0
41
1
10
19.9999999999969
20
0.0450427495308361
30
0
41
1
10
19.9999999999984
20
0.0906693275110513
30
0
41
1
10
19.9999999999982
20
0.159098022631696
30
0
41
1
10
19.9999999999991
20
0.318686848902075
30
0
41
1
10
19.9999999999996
20
0.637552552672503
30
0
41
1
10
19.9999999999997
20
0.910333104755779
30
0
41
1
10
19.9999999999998
20
1.45518767329864
30
0
41
1
10
19.9999999999997
20
1.81748234182089
30
0
41
1
10
19.9999999999998
20
2.90156083517124
30
0
41
1
10
19.9999999999998
20
3.62054443670942
30
0
41
1
10
19.9999999999998
20
4.69339906538139
30
0
41
1
10
19.9999999999998
20
5.05007916147582
30
0
41
1
10
19.9999999999998
20
5.76154397506036
30
0
41
1
10
19.9999999999999
20
6.11653079940083
30
0
41
1
10
19.9999999999999
20
7.1724915047908
30
0
41
1
10
19.9999999999998
20
7.86647497671322
30
0
41
1
10
19.9999999999998
20
8.55050358314142
30
0
0
SPLINE
5
180
100
AcDbEntity
8
1
62
256
6
ByLayer
370
13
48
1
60
0
100
AcDbSpline
70
4
71
3
72
27
73
23
40
0
40
0
40
0
40
0
40
0.0312500000000011
40
0.0312500000000011
40
0.0625000000000022
40
0.0937500000000033
40
0.0937500000000033
40
0.125000000000005
40
0.125000000000005
40
0.187500000000007
40
0.187500000000007
40
0.250000000000008
40
0.250000000000008
40
0.375000000000007
40
0.375000000000007
40
0.500000000000006
40
0.500000000000006
40
0.625000000000004
40
0.625000000000004
40
0.750000000000003
40
0.750000000000003
40
1
40
1
40
1
40
1
41
1
10
55.1742304959912
20
-24.8132395448791
30
0
41
1
10
55.1430711282305
20
-24.8106777785256
30
0
41
1
10
55.1113692080572
20
-24.8078808069473
30
0
41
1
10
55.048053163227
20
-24.801917550734
30
0
41
1
10
54.9854060898146
20
-24.795644928654
30
0
41
1
10
54.9239641541276
20
-24.7888149905709
30
0
41
1
10
54.8630669301416
20
-24.7817331505337
30
0
41
1
10
54.8327752842676
20
-24.7780515351926
30
0
41
1
10
54.7434802830554
20
-24.7667710145958
30
0
41
1
10
54.6865379395556
20
-24.7590088859131
30
0
41
1
10
54.5763813542159
20
-24.7431362878111
30
0
41
1
10
54.5229942804482
20
-24.7349951676751
30
0
41
1
10
54.3683543100299
20
-24.7103749171353
30
0
41
1
10
54.2738628394211
20
-24.6939473496162
30
0
41
1
10
54.0943154515288
20
-24.6610767839975
30
0
41
1
10
54.0094153931991
20
-24.6446335310114
30
0
41
1
10
53.8458734162953
20
-24.6117367906921
30
0
41
1
10
53.7672758759316
20
-24.5952832307842
30
0
41
1
10
53.6145332529408
20
-24.5623688295715
30
0
41
1
10
53.5407553878905
20
-24.5459838078864
30
0
41
1
10
53.325525430599
20
-24.4970943786098
30
0
41
1
10
53.1897923558048
20
-24.4647933162832
30
0
41
1
10
53.0586215277705
20
-24.4326640042256
30
0
0
SPLINE
5
181
100
AcDbEntity
8
1
62
256
6
ByLayer
370
13
48
1
60
0
100
AcDbSpline
70
4
71
3
72
8
73
4
40
0
40
0
40
0
40
0
40
1
40
1
40
1
40
1
41
1
10
32.8785365647536
20
-27.0023763862686
30
0
41
1
10
34.3140858274484
20
-28.4368106421882
30
0
41
1
10
35.75904281624
20
-29.8616713654242
30
0
41
1
10
37.2101391815124
20
-31.2802845086613
30
0
0
SPLINE
5
182
100
AcDbEntity
8
1
62
256
6
ByLayer
370
13
48
1
60
0
100
AcDbSpline
70
4
71
3
72
8
73
4
40
0
40
0
40
0
40
0
40
1
40
1
40
1
40
1
41
1
10
58.8692204964296
20
-18.0883549154197
30
0
41
1
10
58.8839578304435
20
-18.3149138003364
30
0
41
1
10
58.8984406965619
20
-18.5416227814868
30
0
41
1
10
58.9126772335584
20
-18.7684798423852
30
0
0
SPLINE
5
183
100
AcDbEntity
8
1
62
256
6
ByLayer
370
13
48
1
60
0
100
AcDbSpline
70
4
71
3
72
14
73
10
40
0
40
0
40
0
40
0
40
0.25
40
0.25
40
0.5
40
0.5
40
0.75
40
0.75
40
1
40
1
40
1
40
1
41
1
10
49.6188049471685
20
-30.0065956768288
30
0
41
1
10
49.6149758083175
20
-29.951766539014
30
0
41
1
10
49.6076321014015
20
-29.8971347983318
30
0
41
1
10
49.5864396639601
20
-29.7914112425115
30
0
41
1
10
49.5726003308841
20
-29.7400351869201
30
0
41
1
10
49.5385841962414
20
-29.6404583978106
30
0
41
1
10
49.5182241129644
20
-29.5919649949421
30
0
41
1
10
49.4723853050725
20
-29.5011048436384
30
0
41
1
10
49.4468689761692
20
-29.4584927839174
30
0
41
1
10
49.419028200873
20
-29.4189755826715
30
0
0
SPLINE
5
184
100
AcDbEntity
8
1
62
256
6
ByLayer
370
13
48
1
60
0
100
AcDbSpline
70
4
71
3
72
20
73
16
40
0
40
0
40
0
40
0
40
0.0624999999999986
40
0.0624999999999986
40
0.124999999999997
40
0.124999999999997
40
0.249999999999995
40
0.249999999999995
40
0.374999999999992
40
0.374999999999992
40
0.49999999999999
40
0.49999999999999
40
0.749999999999995
40
0.749999999999995
40
1
40
1
40
1
40
1
41
1
10
11.4613248654052
20
23.8391299750503
30
0
41
1
10
11.4772013120199
20
23.8391299750503
30
0
41
1
10
11.4927843117433
20
23.8386381480423
30
0
41
1
10
11.523415878742
20
23.8367571199657
30
0
41
1
10
11.538594003026
20
23.8353503028191
30
0
41
1
10
11.582404000511
20
23.8299833264009
30
0
41
1
10
11.6089650834003
20
23.8249896713849
30
0
41
1
10
11.6582924559948
20
23.813005969379
30
0
41
1
10
11.6801688454703
20
23.8062336877526
30
0
41
1
10
11.7202459771561
20
23.7916155212569
30
0
41
1
10
11.738510007411
20
23.7837098766636
30
0
41
1
10
11.7882603826481
20
23.7591079584197
30
0
41
1
10
11.8148780607232
20
23.7416171457992
30
0
41
1
10
11.8602443227467
20
23.7051129235882
30
0
41
1
10
11.8788862370738
20
23.686033116806
30
0
41
1
10
11.8943375672975
20
23.6665017920808
30
0
0
SPLINE
5
185
100
AcDbEntity
8
1
62
256
6
ByLayer
370
13
48
1
60
0
100
AcDbSpline
70
4
71
3
72
32
73
28
40
0
40
0
40
0
40
0
40
0.25
40
0.25
40
0.375
40
0.375
40
0.5
40
0.5
40
0.625
40
0.625
40
0.6875
40
0.6875
40
0.75
40
0.75
40
0.78125
40
0.78125
40
0.8125
40
0.8125
40
0.875
40
0.875
40
0.90625
40
0.90625
40
0.9375
40
0.9375
40
0.96875
40
0.96875
40
1
40
1
40
1
40
1
41
1
10
32.8785365647536
20
-21.1193856523057
30
0
41
1
10
32.4588064195529
20
-20.3391972366446
30
0
41
1
10
32.0108629177998
20
-19.5769408307442
30
0
41
1
10
31.2991363846678
20
-18.4588597078235
30
0
41
1
10
31.0552008090675
20
-18.0904202290649
30
0
41
1
10
30.5531516190026
20
-17.3625526322068
30
0
41
1
10
30.2950762813626
20
-17.0031001858999
30
0
41
1
10
29.76235128508
20
-16.2947296969273
30
0
41
1
10
29.4878067179949
20
-15.9457448595565
30
0
41
1
10
29.0591003243664
20
-15.4330023577781
30
0
41
1
10
28.9133491713668
20
-15.2638989884098
30
0
41
1
10
28.6146173206864
20
-14.9302872458606
30
0
41
1
10
28.4616588590627
20
-14.7657647397568
30
0
41
1
10
28.2248940201374
20
-14.5236380111152
30
0
41
1
10
28.1447414043584
20
-14.4437115095121
30
0
41
1
10
27.9814767473565
20
-14.2857394751954
30
0
41
1
10
27.8982414332504
20
-14.2075830625002
30
0
41
1
10
27.6444803751984
20
-13.9778327258684
30
0
41
1
10
27.4698368294328
20
-13.830601996431
30
0
41
1
10
27.1951294414118
20
-13.6235851162551
30
0
41
1
10
27.1012044585703
20
-13.5567792694622
30
0
41
1
10
26.908739856705
20
-13.4298521803725
30
0
41
1
10
26.8105379049969
20
-13.369934638619
30
0
41
1
10
26.6091450713256
20
-13.2590812288332
30
0
41
1
10
26.505959666254
20
-13.2081355006404
30
0
41
1
10
26.2931465295802
20
-13.1178422971757
30
0
41
1
10
26.1835276378014
20
-13.0784789073883
30
0
41
1
10
26.0696512678052
20
-13.0467803431782
30
0
0
SPLINE
5
186
100
AcDbEntity
8
1
62
256
6
ByLayer
370
13
48
1
60
0
100
AcDbSpline
70
4
71
3
72
17
73
13
40
0
40
0
40
0
40
0
40
0.125000000000005
40
0.125000000000005
40
0.25000000000001
40
0.25000000000001
40
0.500000000000007
40
0.625000000000005
40
0.625000000000005
40
0.750000000000004
40
0.750000000000004
40
1
40
1
40
1
40
1
41
1
10
48.8437833715957
20
-28.6529815193066
30
0
41
1
10
48.8559460715627
20
-28.6703773139485
30
0
41
1
10
48.8685086726052
20
-28.6881945285281
30
0
41
1
10
48.8945481772701
20
-28.7247924593133
30
0
41
1
10
48.9080948746789
20
-28.7436682701506
30
0
41
1
10
48.9493969695492
20
-28.8007002650962
30
0
41
1
10
48.9922966139651
20
-28.8589347980626
30
0
41
1
10
49.0377857902764
20
-28.9191185729597
30
0
41
1
10
49.0687084603609
20
-28.9596901379877
30
0
41
1
10
49.0843321610526
20
-28.9800201986525
30
0
41
1
10
49.1308313862192
20
-29.0400604832404
30
0
41
1
10
49.1616820283292
20
-29.0792784599799
30
0
41
1
10
49.1924085997087
20
-29.1178221731513
30
0
0
SPLINE
5
187
100
AcDbEntity
8
1
62
256
6
ByLayer
370
13
48
1
60
0
100
AcDbSpline
70
4
71
3
72
10
73
6
40
0
40
0
40
0
40
0
40
0.5
40
0.5
40
1
40
1
40
1
40
1
41
1
10
36.3768257851548
20
8.22170446982526
30
0
41
1
10
40.0618704731336
20
5.0175012793155
30
0
41
1
10
43.7335232808784
20
1.79765081583446
30
0
41
1
10
51.0514732078298
20
-4.6704132244202
30
0
41
1
10
54.6978420159628
20
-7.9187013072152
30
0
41
1
10
58.3323192345905
20
-11.1804373636867
30
0
0
SPLINE
5
188
100
AcDbEntity
8
1
62
256
6
ByLayer
370
13
48
1
60
0
100
AcDbSpline
70
4
71
3
72
22
73
18
40
0
40
0
40
0
40
0
40
0.250000000000006
40
0.250000000000006
40
0.375000000000006
40
0.375000000000006
40
0.500000000000004
40
0.500000000000004
40
0.625000000000002
40
0.625000000000002
40
0.75
40
0.75
40
0.8125
40
0.8125
40
0.875
40
0.875
40
1
40
1
40
1
40
1
41
1
10
11.8943375672972
20
-23.6665017920806
30
0
41
1
10
11.8788923030148
20
-23.6860254491249
30
0
41
1
10
11.8604037172644
20
-23.7049589195929
30
0
41
1
10
11.8264575712211
20
-23.7323123198155
30
0
41
1
10
11.814096269969
20
-23.741254490204
30
0
41
1
10
11.7867462210775
20
-23.758731260986
30
0
41
1
10
11.7716842562431
20
-23.7673055542942
30
0
41
1
10
11.7384769785307
20
-23.7837256270427
30
0
41
1
10
11.7203772593315
20
-23.7915679133935
30
0
41
1
10
11.6800242532304
20
-23.8062861503815
30
0
41
1
10
11.6579517648701
20
-23.8130866432221
30
0
41
1
10
11.6215461384037
20
-23.8219342456093
30
0
41
1
10
11.6088302857937
20
-23.8246655611123
30
0
41
1
10
11.5819453465863
20
-23.8295906076132
30
0
41
1
10
11.5678144986016
20
-23.8317679461283
30
0
41
1
10
11.5243601613891
20
-23.8370993498302
30
0
41
1
10
11.4930267682387
20
-23.8391299750503
30
0
41
1
10
11.4613248654051
20
-23.8391299750503
30
0
0
SPLINE
5
189
100
AcDbEntity
8
1
62
256
6
ByLayer
370
13
48
1
60
0
100
AcDbSpline
70
4
71
3
72
8
73
4
40
0
40
0
40
0
40
0
40
1
40
1
40
1
40
1
41
1
10
49.2186172974774
20
-22.7894119362201
30
0
41
1
10
49.202659667563
20
-22.7935713250356
30
0
41
1
10
49.1866925389989
20
-22.7973358238143
30
0
41
1
10
49.17069979794
20
-22.8006130610984
30
0
0
SPLINE
5
18A
100
AcDbEntity
8
1
62
256
6
ByLayer
370
13
48
1
60
0
100
AcDbSpline
70
4
71
3
72
19
73
15
40
0
40
0
40
0
40
0
40
0.125
40
0.125
40
0.25
40
0.375
40
0.375
40
0.499999999999999
40
0.499999999999999
40
0.75
40
0.75
40
0.875
40
0.875
40
1
40
1
40
1
40
1
41
1
10
49.6432526124062
20
-32.3538458217244
30
0
41
1
10
49.6425326569314
20
-32.3772935832513
30
0
41
1
10
49.6415162753155
20
-32.401015236359
30
0
41
1
10
49.6388913743516
20
-32.4481992159932
30
0
41
1
10
49.6356685536892
20
-32.495347847492
30
0
41
1
10
49.6312019451503
20
-32.5424231908725
30
0
41
1
10
49.6260862805703
20
-32.5894602812497
30
0
41
1
10
49.6232335393943
20
-32.6126457419674
30
0
41
1
10
49.6140571204897
20
-32.6798016137876
30
0
41
1
10
49.6070482797128
20
-32.7220623833019
30
0
41
1
10
49.5954299271432
20
-32.7825915619857
30
0
41
1
10
49.5913611406237
20
-32.8023255513073
30
0
41
1
10
49.583023399572
20
-32.8403270700263
30
0
41
1
10
49.5787382153687
20
-32.85868536762
30
0
41
1
10
49.5743470947679
20
-32.8765140329145
30
0
0
SPLINE
5
18B
100
AcDbEntity
8
1
62
256
6
ByLayer
370
13
48
1
60
0
100
AcDbSpline
70
4
71
3
72
15
73
11
40
0
40
0
40
0
40
0
40
0.25
40
0.5
40
0.5
40
0.625
40
0.625
40
0.75
40
0.75
40
1
40
1
40
1
40
1
41
1
10
20.0000000000024
20
-8.55050358314318
30
0
41
1
10
20.0000000000016
20
-7.86538577219392
30
0
41
1
10
20.0000000000014
20
-6.47870357311245
30
0
41
1
10
20.0000000000009
20
-5.05951561295382
30
0
41
1
10
20.0000000000008
20
-3.98279983212774
30
0
41
1
10
20.0000000000008
20
-3.62283788684977
30
0
41
1
10
20.0000000000007
20
-2.90191566748714
30
0
41
1
10
20.0000000000006
20
-2.54077867480888
30
0
41
1
10
20.0000000000005
20
-1.45534635029898
30
0
41
1
10
20.0000000000005
20
-0.729033562536273
30
0
41
1
10
20.0000000000004
20
2.84E-14
30
0
0
SPLINE
5
18C
100
AcDbEntity
8
1
62
256
6
ByLayer
370
13
48
1
60
0
100
AcDbSpline
70
4
71
3
72
10
73
6
40
0
40
0
40
0
40
0
40
0.5
40
0.5
40
1
40
1
40
1
40
1
41
1
10
58.3322012938746
20
-10.7013460575126
30
0
41
1
10
58.3266656144911
20
-10.6961903085949
30
0
41
1
10
58.3239545834137
20
-10.7342555717786
30
0
41
1
10
58.3240203903262
20
-10.8943580584282
30
0
41
1
10
58.3267976145527
20
-11.0164011918432
30
0
41
1
10
58.3323192345975
20
-11.1804373636929
30
0
0
SPLINE
5
18D
100
AcDbEntity
8
1
62
256
6
ByLayer
370
13
48
1
60
0
100
AcDbSpline
70
4
71
3
72
14
73
10
40
0
40
0
40
0
40
0
40
0.499999999999996
40
0.499999999999996
40
0.749999999999995
40
0.749999999999995
40
0.874999999999997
40
0.874999999999997
40
1
40
1
40
1
40
1
41
1
10
30.8717091862119
20
-25.4250994360009
30
0
41
1
10
31.234978174186
20
-25.6457415798339
30
0
41
1
10
31.5838653367363
20
-25.8877497541626
30
0
41
1
10
32.0859646415365
20
-26.2823040181708
30
0
41
1
10
32.2497814676501
20
-26.4190955014525
30
0
41
1
10
32.4901255668769
20
-26.6322770940406
30
0
41
1
10
32.5694301660228
20
-26.7047541014926
30
0
41
1
10
32.7258008486999
20
-26.8519983512418
30
0
41
1
10
32.8027701666896
20
-26.9266688367927
30
0
41
1
10
32.8785365647536
20
-27.0023763862686
30
0
0
SPLINE
5
18E
100
AcDbEntity
8
1
62
256
6
ByLayer
370
13
48
1
60
0
100
AcDbSpline
70
4
71
3
72
16
73
12
40
0
40
0
40
0
40
0
40
0.125
40
0.125
40
0.25
40
0.25
40
0.5
40
0.5
40
0.75
40
0.75
40
1
40
1
40
1
40
1
41
1
10
28.9593536368706
20
-24.02920141739
30
0
41
1
10
29.157281618838
20
-24.0154059187119
30
0
41
1
10
29.348718213665
20
-24.0023833176945
30
0
41
1
10
29.7214783341849
20
-23.9775631095642
30
0
41
1
10
29.9027779652196
20
-23.9657678412874
30
0
41
1
10
30.4339580727517
20
-23.9319102314411
30
0
41
1
10
30.7712850889675
20
-23.9113626609895
30
0
41
1
10
31.4186938152298
20
-23.8732537574621
30
0
41
1
10
31.7286557560146
20
-23.8557037250654
30
0
41
1
10
32.3229595531656
20
-23.8229055856474
30
0
41
1
10
32.6072585440806
20
-23.8076614603778
30
0
41
1
10
32.8785365647536
20
-23.7932898547224
30
0
0
SPLINE
5
18F
100
AcDbEntity
8
1
62
256
6
ByLayer
370
13
48
1
60
0
100
AcDbSpline
70
4
71
3
72
48
73
44
40
0
40
0
40
0
40
0
40
0.250000000000004
40
0.250000000000004
40
0.375000000000005
40
0.375000000000005
40
0.500000000000005
40
0.500000000000005
40
0.625000000000006
40
0.625000000000006
40
0.687500000000005
40
0.687500000000005
40
0.718750000000006
40
0.718750000000006
40
0.750000000000007
40
0.750000000000007
40
0.781250000000008
40
0.781250000000008
40
0.812500000000008
40
0.812500000000008
40
0.843750000000009
40
0.843750000000009
40
0.859375000000009
40
0.859375000000009
40
0.875000000000008
40
0.875000000000008
40
0.890625000000008
40
0.890625000000008
40
0.906250000000007
40
0.906250000000007
40
0.914062500000006
40
0.914062500000006
40
0.921875000000005
40
0.921875000000005
40
0.937500000000004
40
0.937500000000004
40
0.953125000000003
40
0.953125000000003
40
0.968750000000002
40
0.968750000000002
40
0.984375000000001
40
0.984375000000001
40
1
40
1
40
1
40
1
41
1
10
36.3768257851548
20
8.22170446982526
30
0
41
1
10
35.9709042991548
20
8.57465946241479
30
0
41
1
10
35.5643394376226
20
8.92317757333595
30
0
41
1
10
34.9530309073167
20
9.43776272497615
30
0
41
1
10
34.749014677207
20
9.60791030507562
30
0
41
1
10
34.3403249012544
20
9.94480791117951
30
0
41
1
10
34.1355903548212
20
10.111626953328
30
0
41
1
10
33.7254439701778
20
10.4404331815532
30
0
41
1
10
33.5205513316437
20
10.6020693223567
30
0
41
1
10
33.2135869411279
20
10.8378511899586
30
0
41
1
10
33.111328678964
20
10.9153181013251
30
0
41
1
10
32.9580698797662
20
11.0291201063622
30
0
41
1
10
32.9070052504334
20
11.066650530072
30
0
41
1
10
32.8049293149853
20
11.1407040583914
30
0
41
1
10
32.7538927915163
20
11.1772451097477
30
0
41
1
10
32.652454646345
20
11.2486240514811
30
0
41
1
10
32.6019922112827
20
11.2835103584722
30
0
41
1
10
32.501763015936
20
11.3511063280722
30
0
41
1
10
32.4519920000185
20
11.3838291660475
30
0
41
1
10
32.3534716941482
20
11.4460823921013
30
0
41
1
10
32.3047071672506
20
11.4756599041958
30
0
41
1
10
32.232864177287
20
11.5159627365992
30
0
41
1
10
32.209090268112
20
11.5287256263639
30
0
41
1
10
32.1629988592326
20
11.5518588389031
30
0
41
1
10
32.1405910055809
20
11.5622910824298
30
0
41
1
10
32.0976676664253
20
11.5797943712084
30
0
41
1
10
32.0773489305819
20
11.5867769681195
30
0
41
1
10
32.0409132292907
20
11.5951999130512
30
0
41
1
10
32.0245008043414
20
11.596619243733
30
0
41
1
10
32.0058340653451
20
11.5924907802543
30
0
41
1
10
32.0005633877747
20
11.5900950466265
30
0
41
1
10
31.9922015751924
20
11.5829696348941
30
0
41
1
10
31.9892202105437
20
11.5783086690078
30
0
41
1
10
31.9838720854717
20
11.5613477662775
30
0
41
1
10
31.9851943302726
20
11.5456726761475
30
0
41
1
10
31.9952715090257
20
11.5098392514826
30
0
41
1
10
32.0039895099877
20
11.4893384020321
30
0
41
1
10
32.0256866949602
20
11.4464240452964
30
0
41
1
10
32.0386143837803
20
11.4240166807579
30
0
41
1
10
32.0672027138187
20
11.3779561838172
30
0
41
1
10
32.0829319821737
20
11.3542246188036
30
0
41
1
10
32.1160965441076
20
11.3062745149204
30
0
41
1
10
32.1335384985485
20
11.2820430227529
30
0
41
1
10
32.1516155047298
20
11.2576229064847
30
0
0
SPLINE
5
190
100
AcDbEntity
8
1
62
256
6
ByLayer
370
13
48
1
60
0
100
AcDbSpline
70
4
71
3
72
14
73
10
40
0
40
0
40
0
40
0
40
0.25
40
0.25
40
0.5
40
0.5
40
0.75
40
0.75
40
1
40
1
40
1
40
1
41
1
10
49.7822415771036
20
-17.7668360909811
30
0
41
1
10
49.216403901277
20
-16.5805498503668
30
0
41
1
10
48.6339573955242
20
-15.3985254882777
30
0
41
1
10
47.4361595309523
20
-13.043668242668
30
0
41
1
10
46.8207472648359
20
-11.8707220603383
30
0
41
1
10
45.5574685117775
20
-9.53493796422961
30
0
41
1
10
44.9116477203906
20
-8.37587059025992
30
0
41
1
10
43.5921337231885
20
-6.07500631122176
30
0
41
1
10
42.9184394602331
20
-4.93321008845757
30
0
41
1
10
42.2310447523258
20
-3.79988720390131
30
0
0
SPLINE
5
191
100
AcDbEntity
8
1
62
256
6
ByLayer
370
13
48
1
60
0
100
AcDbSpline
70
4
71
3
72
10
73
6
40
0
40
0
40
0
40
0
40
0.5
40
0.5
40
1
40
1
40
1
40
1
41
1
10
48.3219308968312
20
-24.4642390577946
30
0
41
1
10
48.3220120896498
20
-24.5065167707162
30
0
41
1
10
48.3229723303854
20
-24.5501865279167
30
0
41
1
10
48.3267453043785
20
-24.6379610926067
30
0
41
1
10
48.3295406466093
20
-24.6820372551752
30
0
41
1
10
48.3332407879737
20
-24.7263014550194
30
0
0
SPLINE
5
192
100
AcDbEntity
8
1
62
256
6
ByLayer
370
13
48
1
60
0
100
AcDbSpline
70
4
71
3
72
38
73
34
40
0
40
0
40
0
40
0
40
0.125000000000001
40
0.125000000000001
40
0.250000000000002
40
0.250000000000002
40
0.375000000000003
40
0.375000000000003
40
0.500000000000004
40
0.500000000000004
40
0.562500000000003
40
0.562500000000003
40
0.625000000000003
40
0.625000000000003
40
0.687500000000002
40
0.687500000000002
40
0.750000000000001
40
0.750000000000001
40
0.781250000000001
40
0.781250000000001
40
0.812500000000001
40
0.812500000000001
40
0.843750000000001
40
0.843750000000001
40
0.875000000000001
40
0.875000000000001
40
0.890625
40
0.890625
40
0.90625
40
0.90625
40
0.9375
40
0.9375
40
1
40
1
40
1
40
1
41
1
10
30.8717091862124
20
-25.4250994360012
30
0
41
1
10
30.7478873157068
20
-25.3498925676305
30
0
41
1
10
30.6247318007853
20
-25.2769639274676
30
0
41
1
10
30.3797583944808
20
-25.1351047260028
30
0
41
1
10
30.2579372792284
20
-25.0661780701786
30
0
41
1
10
30.016005078248
20
-24.9317203026114
30
0
41
1
10
29.8958814068414
20
-24.8661969695013
30
0
41
1
10
29.6582925941858
20
-24.737733332114
30
0
41
1
10
29.5407837187787
20
-24.6748160046711
30
0
41
1
10
29.3681976125104
20
-24.5813121012634
30
0
41
1
10
29.3115172012221
20
-24.5504004305917
30
0
41
1
10
29.2014167990032
20
-24.4893144749749
30
0
41
1
10
29.1478596225371
20
-24.4590752855892
30
0
41
1
10
29.0450221262011
20
-24.3988878007269
30
0
41
1
10
28.9956404267515
20
-24.3689035527984
30
0
41
1
10
28.9038794267156
20
-24.3088816953644
30
0
41
1
10
28.8621612562372
20
-24.2793145152899
30
0
41
1
10
28.809818352651
20
-24.235435016067
30
0
41
1
10
28.7942128646049
20
-24.2209486664798
30
0
41
1
10
28.7682535143062
20
-24.1929014005439
30
0
41
1
10
28.7577931776502
20
-24.1792564687565
30
0
41
1
10
28.743058771377
20
-24.1528358822816
30
0
41
1
10
28.7388250357137
20
-24.1399184671406
30
0
41
1
10
28.7379659790664
20
-24.1162129716065
30
0
41
1
10
28.7412148839661
20
-24.1053364414902
30
0
41
1
10
28.7515820086237
20
-24.090501407923
30
0
41
1
10
28.7559795356498
20
-24.0857897598817
30
0
41
1
10
28.766354548228
20
-24.0770368081549
30
0
41
1
10
28.7723409749099
20
-24.0729709803486
30
0
41
1
10
28.7924760661843
20
-24.0616349633035
30
0
41
1
10
28.8088712248394
20
-24.0552012143765
30
0
41
1
10
28.8647935152319
20
-24.0390609690526
30
0
41
1
10
28.9097900556201
20
-24.0326559785527
30
0
41
1
10
28.9593536368701
20
-24.0292014173895
30
0
0
SPLINE
5
193
100
AcDbEntity
8
1
62
256
6
ByLayer
370
13
48
1
60
0
100
AcDbSpline
70
4
71
3
72
8
73
4
40
0
40
0
40
0
40
0
40
1
40
1
40
1
40
1
41
1
10
34.3889021663437
20
-23.7236321318501
30
0
41
1
10
33.8599997646013
20
-22.8707128074826
30
0
41
1
10
33.3543978279136
20
-22.0039097905511
30
0
41
1
10
32.8785365647536
20
-21.1193856523057
30
0
0
SPLINE
5
194
100
AcDbEntity
8
1
62
256
6
ByLayer
370
13
48
1
60
0
100
AcDbSpline
70
4
71
3
72
10
73
6
40
0
40
0
40
0
40
0
40
0.5
40
0.5
40
1
40
1
40
1
40
1
41
1
10
46.258735075626
20
-23.1384657491343
30
0
41
1
10
46.8207450516399
20
-22.644800979125
30
0
41
1
10
47.369334846997
20
-22.132902269877
30
0
41
1
10
48.4385906429697
20
-21.0717549955339
30
0
41
1
10
48.9592601407212
20
-20.5225091877929
30
0
41
1
10
49.4653702236119
20
-19.9539146545054
30
0
0
SPLINE
5
195
100
AcDbEntity
8
1
62
256
6
ByLayer
370
13
48
1
60
0
100
AcDbSpline
70
4
71
3
72
14
73
10
40
0
40
0
40
0
40
0
40
0.25
40
0.25
40
0.5
40
0.5
40
0.75
40
0.75
40
1
40
1
40
1
40
1
41
1
10
48.4796480705074
20
-27.9473282957823
30
0
41
1
10
48.4951811914817
20
-28.0245292011285
30
0
41
1
10
48.5157477882094
20
-28.0987701436169
30
0
41
1
10
48.5647791762107
20
-28.2373615954965
30
0
41
1
10
48.5932312440395
20
-28.3019180179621
30
0
41
1
10
48.6564719671672
20
-28.42105499187
30
0
41
1
10
48.6912674563493
20
-28.4756344776686
30
0
41
1
10
48.7656725498926
20
-28.5739597532637
30
0
41
1
10
48.8045257606104
20
-28.6166877444797
30
0
41
1
10
48.8437833715958
20
-28.6529815193067
30
0
0
SPLINE
5
196
100
AcDbEntity
8
1
62
256
6
ByLayer
370
13
48
1
60
0
100
AcDbSpline
70
4
71
3
72
8
73
4
40
0
40
0
40
0
40
0
40
1
40
1
40
1
40
1
41
1
10
32.8785365647536
20
-23.7932898547224
30
0
41
1
10
33.3553106726402
20
-23.7680315995632
30
0
41
1
10
33.860568462299
20
-23.7444746930135
30
0
41
1
10
34.3889021663437
20
-23.7236321318501
30
0
0
SPLINE
5
197
100
AcDbEntity
8
1
62
256
6
ByLayer
370
13
48
1
60
0
100
AcDbSpline
70
4
71
3
72
22
73
18
40
0
40
0
40
0
40
0
40
0.125000000000004
40
0.125000000000004
40
0.250000000000008
40
0.250000000000008
40
0.375000000000011
40
0.375000000000011
40
0.500000000000015
40
0.500000000000015
40
0.750000000000012
40
0.750000000000012
40
0.875000000000008
40
0.875000000000008
40
0.937500000000004
40
0.937500000000004
40
1
40
1
40
1
40
1
41
1
10
42.9657924180665
20
-24.7042241542242
30
0
41
1
10
43.0319623527761
20
-24.7229900420527
30
0
41
1
10
43.0949144558046
20
-24.7441908975256
30
0
41
1
10
43.2160840672161
20
-24.7912845122183
30
0
41
1
10
43.2742997079236
20
-24.8171832177518
30
0
41
1
10
43.3872162380375
20
-24.873895288148
30
0
41
1
10
43.4419136071759
20
-24.904710245335
30
0
41
1
10
43.5486204818475
20
-24.9717480581423
30
0
41
1
10
43.6008002283922
20
-25.0081053778569
30
0
41
1
10
43.7529354105332
20
-25.1255158621582
30
0
41
1
10
43.84708780678
20
-25.2135543975653
30
0
41
1
10
43.9790986191801
20
-25.363016609201
30
0
41
1
10
44.0215360335817
20
-25.4157565041726
30
0
41
1
10
44.0828269112095
20
-25.499855798308
30
0
41
1
10
44.1029056162329
20
-25.5288018586182
30
0
41
1
10
44.1415963374549
20
-25.5874572778363
30
0
41
1
10
44.1602893027432
20
-25.6172707049308
30
0
41
1
10
44.1783420969955
20
-25.6475679633568
30
0
0
SPLINE
5
198
100
AcDbEntity
8
1
62
256
6
ByLayer
370
13
48
1
60
0
100
AcDbSpline
70
4
71
3
72
20
73
16
40
0
40
0
40
0
40
0
40
0.0624999999999967
40
0.0624999999999967
40
0.124999999999993
40
0.124999999999993
40
0.249999999999994
40
0.249999999999994
40
0.374999999999994
40
0.374999999999994
40
0.499999999999994
40
0.499999999999994
40
0.749999999999997
40
0.749999999999997
40
1
40
1
40
1
40
1
41
1
10
8.53867513459466
20
-23.8391299750501
30
0
41
1
10
8.52279868797993
20
-23.8391299750501
30
0
41
1
10
8.50721568825657
20
-23.8386381480421
30
0
41
1
10
8.47658412125784
20
-23.8367571199655
30
0
41
1
10
8.46140599697378
20
-23.835350302819
30
0
41
1
10
8.41759599948875
20
-23.8299833264007
30
0
41
1
10
8.39103491659949
20
-23.8249896713847
30
0
41
1
10
8.34170754400498
20
-23.8130059693788
30
0
41
1
10
8.31983115452954
20
-23.8062336877524
30
0
41
1
10
8.27975402284372
20
-23.7916155212567
30
0
41
1
10
8.26148999258879
20
-23.7837098766634
30
0
41
1
10
8.2117396173517
20
-23.7591079584195
30
0
41
1
10
8.1851219392766
20
-23.741617145799
30
0
41
1
10
8.13975567725311
20
-23.7051129235881
30
0
41
1
10
8.12111376292603
20
-23.6860331168059
30
0
41
1
10
8.1056624327023
20
-23.6665017920807
30
0
0
SPLINE
5
199
100
AcDbEntity
8
1
62
256
6
ByLayer
370
13
48
1
60
0
100
AcDbSpline
70
4
71
3
72
18
73
14
40
0
40
0
40
0
40
0
40
0.125
40
0.125
40
0.25
40
0.25
40
0.5
40
0.5
40
0.75
40
0.75
40
0.875
40
0.875
40
1
40
1
40
1
40
1
41
1
10
32.1516155047292
20
11.2576229064855
30
0
41
1
10
32.5099719965221
20
10.7735213297497
30
0
41
1
10
32.8681701409543
20
10.2851036990619
30
0
41
1
10
33.5831474957761
20
9.30041918367388
30
0
41
1
10
33.9399326873413
20
8.80414734518962
30
0
41
1
10
35.0070544040404
20
7.30426533886899
30
0
41
1
10
35.7140979205325
20
6.28964323881982
30
0
41
1
10
37.1157803162638
20
4.23280225008656
30
0
41
1
10
37.8104591121585
20
3.19055225546256
30
0
41
1
10
38.8416608435239
20
1.60666164602281
30
0
41
1
10
39.183691137944
20
1.07512562980904
30
0
41
1
10
39.8633232538697
20
0.0061852972955023
30
0
41
1
10
40.2009667684369
20
-0.53127909284558
30
0
41
1
10
40.5363710121504
20
-1.07176631022597
30
0
0
SPLINE
5
19A
100
AcDbEntity
8
1
62
256
6
ByLayer
370
13
48
1
60
0
100
AcDbSpline
70
4
71
3
72
12
73
8
40
0
40
0
40
0
40
0
40
0.249999999999997
40
0.249999999999997
40
0.499999999999995
40
0.499999999999995
40
1
40
1
40
1
40
1
41
1
10
52.3665596463834
20
-23.5192838791976
30
0
41
1
10
52.4089163200628
20
-23.6059257617889
30
0
41
1
10
52.4558895254591
20
-23.6907970435486
30
0
41
1
10
52.5571189701202
20
-23.8544365573461
30
0
41
1
10
52.6114384759289
20
-23.9333919846236
30
0
41
1
10
52.7849877255374
20
-24.1618498217626
30
0
41
1
10
52.914702817537
20
-24.3030149459861
30
0
41
1
10
53.0586215277705
20
-24.4326640042256
30
0
0
SPLINE
5
19B
100
AcDbEntity
8
1
62
256
6
ByLayer
370
13
48
1
60
0
100
AcDbSpline
70
4
71
3
72
16
73
12
40
0
40
0
40
0
40
0
40
0.124999999999993
40
0.124999999999993
40
0.249999999999987
40
0.249999999999987
40
0.499999999999991
40
0.499999999999991
40
0.749999999999996
40
0.749999999999996
40
1
40
1
40
1
40
1
41
1
10
52.3665596463834
20
-23.5192838791976
30
0
41
1
10
52.3603212507533
20
-23.5065230484998
30
0
41
1
10
52.3545139452438
20
-23.49379852172
30
0
41
1
10
52.3442956065465
20
-23.4696549751633
30
0
41
1
10
52.3398063917898
20
-23.4580871782869
30
0
41
1
10
52.3279671923692
20
-23.424665302401
30
0
41
1
10
52.3225743390538
20
-23.4051072632431
30
0
41
1
10
52.314952566878
20
-23.3694961091397
30
0
41
1
10
52.3127758723652
20
-23.3535992772467
30
0
41
1
10
52.3105688817506
20
-23.3246379462211
30
0
41
1
10
52.310536130063
20
-23.3114445898593
30
0
41
1
10
52.3112496216912
20
-23.2992371188519
30
0
0
SPLINE
5
19C
100
AcDbEntity
8
1
62
256
6
ByLayer
370
13
48
1
60
0
100
AcDbSpline
70
4
71
3
72
32
73
28
40
0
40
0
40
0
40
0
40
0.0624999999999981
40
0.0624999999999981
40
0.124999999999996
40
0.124999999999996
40
0.249999999999996
40
0.249999999999996
40
0.312499999999995
40
0.312499999999995
40
0.343749999999997
40
0.343749999999997
40
0.374999999999998
40
0.374999999999998
40
0.500000000000001
40
0.500000000000001
40
0.562500000000003
40
0.562500000000003
40
0.625000000000006
40
0.625000000000006
40
0.750000000000004
40
0.750000000000004
40
0.812500000000002
40
0.812500000000002
40
0.875000000000001
40
0.875000000000001
40
1
40
1
40
1
40
1
41
1
10
48.3219308968312
20
-24.4642390577946
30
0
41
1
10
48.321809418354
20
-24.4009842986145
30
0
41
1
10
48.3247334398635
20
-24.3374347985877
30
0
41
1
10
48.3368168185487
20
-24.2097689285059
30
0
41
1
10
48.3460548204071
20
-24.1453253005055
30
0
41
1
10
48.3828342022894
20
-23.9546085808741
30
0
41
1
10
48.4192724724117
20
-23.830413855347
30
0
41
1
10
48.4915668770228
20
-23.6486767143322
30
0
41
1
10
48.5186228939283
20
-23.5888614419638
30
0
41
1
10
48.563785116627
20
-23.5003463262047
30
0
41
1
10
48.5796308517713
20
-23.471002972168
30
0
41
1
10
48.612526272782
20
-23.4133405456831
30
0
41
1
10
48.6296107027865
20
-23.3849480991738
30
0
41
1
10
48.7181648770465
20
-23.2451530750976
30
0
41
1
10
48.7989540392785
20
-23.1401980317008
30
0
41
1
10
48.9350181769881
20
-22.9932394925362
30
0
41
1
10
48.9830046811156
20
-22.9458875271427
30
0
41
1
10
49.0835561859325
20
-22.8553869728165
30
0
41
1
10
49.135582968106
20
-22.8126992881747
30
0
41
1
10
49.2967320502188
20
-22.6920941081107
30
0
41
1
10
49.4108853648845
20
-22.6215773167599
30
0
41
1
10
49.592201269774
20
-22.5308161992949
30
0
41
1
10
49.6546641498495
20
-22.502957122964
30
0
41
1
10
49.7812228437654
20
-22.4531855682094
30
0
41
1
10
49.8452305455852
20
-22.4312648328509
30
0
41
1
10
50.0393642693297
20
-22.3741379013101
30
0
41
1
10
50.1715870049191
20
-22.3475077089097
30
0
41
1
10
50.3065973835964
20
-22.3324144107146
30
0
0
SPLINE
5
19D
100
AcDbEntity
8
1
62
256
6
ByLayer
370
13
48
1
60
0
100
AcDbSpline
70
4
71
3
72
15
73
11
40
0
40
0
40
0
40
0
40
0.25
40
0.25
40
0.375
40
0.375
40
0.5
40
0.5
40
0.75
40
1
40
1
40
1
40
1
41
1
10
58.4814931117138
20
-12.1427902092328
30
0
41
1
10
58.4618652235305
20
-11.9088074021986
30
0
41
1
10
58.4440142666827
20
-11.7031402366678
30
0
41
1
10
58.4198831857043
20
-11.4367935673353
30
0
41
1
10
58.4122809315586
20
-11.3550457426663
30
0
41
1
10
58.3979625132005
20
-11.2056700564313
30
0
41
1
10
58.3912421776423
20
-11.1380067850364
30
0
41
1
10
58.372495858756
20
-10.957065404985
30
0
41
1
10
58.3512130085281
20
-10.7739227968696
30
0
41
1
10
58.3372962567392
20
-10.7060913457791
30
0
41
1
10
58.3322012938746
20
-10.7013460575126
30
0
0
SPLINE
5
19E
100
AcDbEntity
8
1
62
256
6
ByLayer
370
13
48
1
60
0
100
AcDbSpline
70
4
71
3
72
61
73
57
40
0
40
0
40
0
40
0
40
0.125000000000001
40
0.125000000000001
40
0.250000000000001
40
0.250000000000001
40
0.375000000000001
40
0.375000000000001
40
0.500000000000002
40
0.500000000000002
40
0.562500000000002
40
0.562500000000002
40
0.593750000000002
40
0.593750000000002
40
0.625000000000002
40
0.625000000000002
40
0.687500000000002
40
0.687500000000002
40
0.750000000000002
40
0.750000000000002
40
0.781250000000002
40
0.781250000000002
40
0.796875000000002
40
0.796875000000002
40
0.812500000000002
40
0.812500000000002
40
0.843750000000002
40
0.843750000000002
40
0.859375000000002
40
0.859375000000002
40
0.875000000000002
40
0.875000000000002
40
0.882812500000002
40
0.882812500000002
40
0.890625000000002
40
0.890625000000002
40
0.906250000000002
40
0.906250000000002
40
0.921875000000002
40
0.921875000000002
40
0.929687500000002
40
0.929687500000002
40
0.937500000000002
40
0.937500000000002
40
0.945312500000002
40
0.945312500000002
40
0.953125000000001
40
0.960937500000001
40
0.960937500000001
40
0.968750000000001
40
0.968750000000001
40
0.976562500000001
40
0.976562500000001
40
0.984375000000001
40
0.984375000000001
40
1
40
1
40
1
40
1
41
1
10
40.5363710121581
20
-1.07176631022492
30
0
41
1
10
39.6950042846251
20
-0.453245622111524
30
0
41
1
10
38.850386877203
20
0.160442864389864
30
0
41
1
10
37.1547235206163
20
1.37472067204018
30
0
41
1
10
36.30353036037
20
1.97544892414592
30
0
41
1
10
34.5925318955516
20
3.16048128608864
30
0
41
1
10
33.7327509335711
20
3.74483181946096
30
0
41
1
10
32.0016151407316
20
4.8914604659266
30
0
41
1
10
31.1303229262093
20
5.45385799406716
30
0
41
1
10
29.810783926099
20
6.27342364702093
30
0
41
1
10
29.3688158316628
20
6.54256580673604
30
0
41
1
10
28.7018325063543
20
6.93859121255394
30
0
41
1
10
28.4788296655076
20
7.06931226940756
30
0
41
1
10
28.0312802989561
20
7.32781043573436
30
0
41
1
10
27.8066490941333
20
7.45563556276196
30
0
41
1
10
27.130930427514
20
7.8335218200281
30
0
41
1
10
26.6779763241449
20
8.07814866764477
30
0
41
1
10
25.7651604238424
20
8.5470355611256
30
0
41
1
10
25.3053497082464
20
8.77144621637342
30
0
41
1
10
24.6077590504271
20
9.08484459435581
30
0
41
1
10
24.3739006199459
20
9.1853945920347
30
0
41
1
10
24.0204945796426
20
9.32849945406051
30
0
41
1
10
23.9021527549847
20
9.37494336491596
30
0
41
1
10
23.6651181189496
20
9.46454975260679
30
0
41
1
10
23.546402296338
20
9.50772576745686
30
0
41
1
10
23.1895572909969
20
9.6315359676199
30
0
41
1
10
22.9507479472686
20
9.70659474700369
30
0
41
1
10
22.5905289448355
20
9.80274766686463
30
0
41
1
10
22.4701183842733
20
9.83203160022845
30
0
41
1
10
22.2284448508802
20
9.88361208539973
30
0
41
1
10
22.1071837228948
20
9.90592375974944
30
0
41
1
10
21.9244523398456
20
9.93250816773545
30
0
41
1
10
21.86326129317
20
9.94022773111121
30
0
41
1
10
21.7413937710441
20
9.95287900185818
30
0
41
1
10
21.6807196506851
20
9.95781776177313
30
0
41
1
10
21.49958581606
20
9.96788796160286
30
0
41
1
10
21.3800007983511
20
9.96834719423094
30
0
41
1
10
21.1440116449974
20
9.95227492111712
30
0
41
1
10
21.0275902946792
20
9.93583536786082
30
0
41
1
10
20.8564337510938
20
9.89261168936295
30
0
41
1
10
20.7997712523353
20
9.87494700085267
30
0
41
1
10
20.6909018063724
20
9.83305892340039
30
0
41
1
10
20.6383581808375
20
9.80877664043902
30
0
41
1
10
20.5375541901285
20
9.75265108434445
30
0
41
1
10
20.4891619491111
20
9.72070566401388
30
0
41
1
10
20.3978311993975
20
9.64859595224485
30
0
41
1
10
20.31372106918
20
9.56970601251805
30
0
41
1
10
20.2438892857261
20
9.47740857417293
30
0
41
1
10
20.1811189561715
20
9.37848036582582
30
0
41
1
10
20.1531971048009
20
9.3254017967964
30
0
41
1
10
20.1055538218589
20
9.21604802569601
30
0
41
1
10
20.0855794025379
20
9.15946252493978
30
0
41
1
10
20.0523413779873
20
9.04296227408355
30
0
41
1
10
20.0390370560867
20
8.98275980474466
30
0
41
1
10
20.0083465740961
20
8.79992961048748
30
0
41
1
10
20.000000000001
20
8.67594076898047
30
0
41
1
10
20.000000000001
20
8.55050358314128
30
0
0
SPLINE
5
19F
100
AcDbEntity
8
1
62
256
6
ByLayer
370
13
48
1
60
0
100
AcDbSpline
70
4
71
3
72
22
73
18
40
0
40
0
40
0
40
0
40
0.249999999999996
40
0.249999999999996
40
0.374999999999995
40
0.374999999999995
40
0.499999999999995
40
0.499999999999995
40
0.624999999999992
40
0.624999999999992
40
0.749999999999989
40
0.749999999999989
40
0.81249999999999
40
0.81249999999999
40
0.874999999999991
40
0.874999999999991
40
1
40
1
40
1
40
1
41
1
10
8.10566243270247
20
-8.05584836782791
30
0
41
1
10
8.12110769698486
20
-7.99849169434927
30
0
41
1
10
8.13959628273531
20
-7.94218253951271
30
0
41
1
10
8.1735424287786
20
-7.85991012495433
30
0
41
1
10
8.18590373003076
20
-7.83285506058508
30
0
41
1
10
8.21325377892222
20
-7.77968328642058
30
0
41
1
10
8.2283157437567
20
-7.7534438835701
30
0
41
1
10
8.26152302146903
20
-7.70292805784942
30
0
41
1
10
8.27962274066823
20
-7.67866353751199
30
0
41
1
10
8.31997574676942
20
-7.63291014136078
30
0
41
1
10
8.34204823512965
20
-7.61165433162114
30
0
41
1
10
8.37845386159603
20
-7.58390025536212
30
0
41
1
10
8.39116971420614
20
-7.57531366225038
30
0
41
1
10
8.41805465341344
20
-7.55980672066931
30
0
41
1
10
8.43218550139812
20
-7.55293791940423
30
0
41
1
10
8.4756398386107
20
-7.53610198950864
30
0
41
1
10
8.50697323176104
20
-7.52966679426498
30
0
41
1
10
8.5386751345946
20
-7.52966679426498
30
0
0
SPLINE
5
1A0
100
AcDbEntity
8
SK1
62
256
6
ByLayer
370
13
48
1
60
0
100
AcDbSpline
70
4
71
3
72
30
73
26
40
0
40
0
40
0
40
0
40
0.250000000000001
40
0.250000000000001
40
0.500000000000002
40
0.500000000000002
40
0.625000000000001
40
0.625000000000001
40
0.6875
40
0.6875
40
0.71875
40
0.71875
40
0.75
40
0.75
40
0.78125
40
0.78125
40
0.8125
40
0.8125
40
0.84375
40
0.84375
40
0.875
40
0.875
40
0.9375
40
0.9375
40
1
40
1
40
1
40
1
41
1
10
0
20
-5.57923036606743
30
0
41
1
10
0
20
-5.5176541511421
30
0
41
1
10
-0.001044759731343
20
-5.45582988149485
30
0
41
1
10
-0.0066530158590012
20
-5.33149482003705
30
0
41
1
10
-0.0109763566928223
20
-5.26900972589124
30
0
41
1
10
-0.02386127661876
20
-5.17432687139433
30
0
41
1
10
-0.0291934107951022
20
-5.1425985919299
30
0
41
1
10
-0.0410080401310893
20
-5.09566575805914
30
0
41
1
10
-0.0455624616045895
20
-5.08016788334191
30
0
41
1
10
-0.054428200043219
20
-5.05741327469391
30
0
41
1
10
-0.0577243340124198
20
-5.04993548472487
30
0
41
1
10
-0.0653805180860445
20
-5.03558463679798
30
0
41
1
10
-0.0697364298828234
20
-5.0286970919785
30
0
41
1
10
-0.0800854142077299
20
-5.01664922221079
30
0
41
1
10
-0.0862893925763899
20
-5.01140689837607
30
0
41
1
10
-0.100017109543217
20
-5.00556463270374
30
0
41
1
10
-0.107289804617608
20
-5.00514999571743
30
0
41
1
10
-0.120798260172108
20
-5.00822516618987
30
0
41
1
10
-0.12690942399874
20
-5.0114457960436
30
0
41
1
10
-0.138262224713031
20
-5.01944968026251
30
0
41
1
10
-0.143380344709016
20
-5.02416688850954
30
0
41
1
10
-0.157735414939196
20
-5.03937559852886
30
0
41
1
10
-0.166077707504797
20
-5.05101944449308
30
0
41
1
10
-0.181442829587922
20
-5.07539759008316
30
0
41
1
10
-0.188421157050186
20
-5.08815587116993
30
0
41
1
10
-0.194976888875459
20
-5.10125086895346
30
0
0
SPLINE
5
1A1
100
AcDbEntity
8
SK1
62
256
6
ByLayer
370
13
48
1
60
0
100
AcDbSpline
70
4
71
3
72
19
73
15
40
0
40
0
40
0
40
0
40
0.0506905357469607
40
0.119202304798474
40
0.187714073849988
40
0.256225842901501
40
0.393249381004528
40
0.530272919107555
40
0.598784688159068
40
0.667296457210582
40
0.804319995313609
40
0.872831764365122
40
0.941343533416636
40
1
40
1
40
1
40
1
41
1
10
-0.19497688887526
20
-17.3704794787157
30
0
41
1
10
-0.194976888875288
20
-17.3705425216202
30
0
41
1
10
-0.194976888875288
20
-17.3347659681123
30
0
41
1
10
-0.194976888875288
20
-17.1586063633231
30
0
41
1
10
-0.194976888875288
20
-16.8308406320639
30
0
41
1
10
-0.194976888875288
20
-16.2296014295451
30
0
41
1
10
-0.194976888875317
20
-15.1935356351606
30
0
41
1
10
-0.194976888875317
20
-13.8199159522375
30
0
41
1
10
-0.194976888875317
20
-12.5327088879465
30
0
41
1
10
-0.194976888875288
20
-11.1243601127487
30
0
41
1
10
-0.194976888875288
20
-9.54003737468344
30
0
41
1
10
-0.194976888875317
20
-7.78272641346857
30
0
41
1
10
-0.194976888875317
20
-6.44811450197949
30
0
41
1
10
-0.194976888875317
20
-5.53313428609076
30
0
41
1
10
-0.194976888875317
20
-5.10125086896656
30
0
0
SPLINE
5
1A2
100
AcDbEntity
8
SK1
62
256
6
ByLayer
370
13
48
1
60
0
100
AcDbSpline
70
4
71
3
72
19
73
15
40
0
40
0
40
0
40
0
40
0.0587146772581069
40
0.127294564555918
40
0.195874451853729
40
0.333034226449351
40
0.401614113747162
40
0.470194001044973
40
0.607353775640595
40
0.744513550236217
40
0.813093437534028
40
0.881673324831839
40
0.950253212129651
40
1
40
1
40
1
40
1
41
1
10
-0.194976888875317
20
5.10125345322379
30
0
41
1
10
-0.194976888875317
20
5.53313598468014
30
0
41
1
10
-0.194976888875317
20
6.44811514689007
30
0
41
1
10
-0.194976888875317
20
7.78272657852648
30
0
41
1
10
-0.194976888875317
20
9.54003756166784
30
0
41
1
10
-0.194976888875317
20
11.124360123357
30
0
41
1
10
-0.194976888875288
20
12.5327090406557
30
0
41
1
10
-0.194976888875345
20
13.8199155786832
30
0
41
1
10
-0.194976888875288
20
15.1935360543338
30
0
41
1
10
-0.194976888875288
20
16.2296006616933
30
0
41
1
10
-0.194976888875288
20
16.8308407609472
30
0
41
1
10
-0.194976888875288
20
17.1586060420318
30
0
41
1
10
-0.194976888875288
20
17.3338333619221
30
0
41
1
10
-0.194976888875288
20
17.3699408500571
30
0
41
1
10
-0.194976888875288
20
17.370465453103
30
0
0
SPLINE
5
1A3
100
AcDbEntity
8
SK1
62
256
6
ByLayer
370
13
48
1
60
0
100
AcDbSpline
70
4
71
3
72
39
73
35
40
0
40
0
40
0
40
0
40
0.0212610875489503
40
0.0494220416275424
40
0.0775829957061345
40
0.105743949784727
40
0.162065857941911
40
0.218387766099095
40
0.246548720177687
40
0.274709674256279
40
0.331031582413463
40
0.359192536492056
40
0.387353490570648
40
0.41551444464924
40
0.443675398727832
40
0.471836352806424
40
0.48591682984572
40
0.499997306885016
40
0.514077783924312
40
0.528158260963608
40
0.5563192150422
40
0.584480169120792
40
0.612641123199385
40
0.640802077277977
40
0.668963031356569
40
0.725284939513753
40
0.753445893592345
40
0.781606847670937
40
0.837928755828121
40
0.894250663985306
40
0.922411618063898
40
0.95057257214249
40
0.978733526221082
40
1
40
1
40
1
40
1
41
1
10
-1.79503997793924
20
-17.3302746209437
30
0
41
1
10
-1.79503997793924
20
-17.3309702968743
30
0
41
1
10
-1.79503997793927
20
-17.2956251755969
30
0
41
1
10
-1.79503997793927
20
-17.1188453667221
30
0
41
1
10
-1.79503997793927
20
-16.7916721035533
30
0
41
1
10
-1.79503997793924
20
-16.1913792747221
30
0
41
1
10
-1.79503997793927
20
-15.1570315468654
30
0
41
1
10
-1.79503997793927
20
-13.7856203428615
30
0
41
1
10
-1.79503997793927
20
-12.5002678139024
30
0
41
1
10
-1.79503997793927
20
-11.0940004136041
30
0
41
1
10
-1.79503997793927
20
-9.51267484843638
30
0
41
1
10
-1.7950399779393
20
-7.75839217523472
30
0
41
1
10
-1.79503997793927
20
-6.35944493307983
30
0
41
1
10
-1.7950399779393
20
-4.87813783770068
30
0
41
1
10
-1.7950399779393
20
-3.3175513527286
30
0
41
1
10
-1.7950399779393
20
-1.9574489056063
30
0
41
1
10
-1.7950399779393
20
-0.842183835089827
30
0
41
1
10
-1.79503997793927
20
5.01240436E-08
30
0
41
1
10
-1.7950399779393
20
0.842183896938622
30
0
41
1
10
-1.7950399779393
20
1.95744888431969
30
0
41
1
10
-1.7950399779393
20
3.31755142876625
30
0
41
1
10
-1.7950399779393
20
4.87813814654277
30
0
41
1
10
-1.7950399779393
20
6.3594448191848
30
0
41
1
10
-1.7950399779393
20
7.75839234481919
30
0
41
1
10
-1.7950399779393
20
9.51267503388601
30
0
41
1
10
-1.79503997793927
20
11.0940004239178
30
0
41
1
10
-1.79503997793927
20
12.500267964077
30
0
41
1
10
-1.7950399779393
20
13.785619970132
30
0
41
1
10
-1.79503997793927
20
15.1570319640165
30
0
41
1
10
-1.79503997793927
20
16.1913785074866
30
0
41
1
10
-1.79503997793927
20
16.7916722325964
30
0
41
1
10
-1.79503997793927
20
17.1188450441766
30
0
41
1
10
-1.79503997793927
20
17.2956368676146
30
0
41
1
10
-1.7950399779393
20
17.3309777827772
30
0
41
1
10
-1.7950399779393
20
17.330273949061
30
0
0
SPLINE
5
1A4
100
AcDbEntity
8
SK1
62
256
6
ByLayer
370
13
48
1
60
0
100
AcDbSpline
70
4
71
3
72
27
73
23
40
0
40
0
40
0
40
0
40
0.125
40
0.125
40
0.250000000000001
40
0.250000000000001
40
0.375000000000001
40
0.375000000000001
40
0.406250000000001
40
0.406250000000001
40
0.437500000000001
40
0.500000000000001
40
0.500000000000001
40
0.625
40
0.625
40
0.75
40
0.75
40
0.8125
40
0.8125
40
0.875
40
0.875
40
1
40
1
40
1
40
1
41
1
10
-1.31543506509499
20
-3.9102693958132
30
0
41
1
10
-1.37156273717841
20
-3.59992257581038
30
0
41
1
10
-1.42466639975928
20
-3.28621150795991
30
0
41
1
10
-1.52178795087124
20
-2.65095930694912
30
0
41
1
10
-1.56572285495398
20
-2.32938912439465
30
0
41
1
10
-1.63998404810999
20
-1.67664478205663
30
0
41
1
10
-1.67034745086553
20
-1.34548665810394
30
0
41
1
10
-1.6965574224443
20
-0.9241634247185
30
0
41
1
10
-1.70121164601363
20
-0.839383713851788
30
0
41
1
10
-1.70920795708159
20
-0.66971983538096
30
0
41
1
10
-1.71922303059347
20
-0.415670739472858
30
0
41
1
10
-1.72324532208273
20
-0.162961705339797
30
0
41
1
10
-1.72308539531915
20
0.340655535189654
30
0
41
1
10
-1.71205715086893
20
0.674003609664766
30
0
41
1
10
-1.67097798305051
20
1.33634869491101
30
0
41
1
10
-1.64110562272054
20
1.66537055994178
30
0
41
1
10
-1.58551137137383
20
2.15612452291126
30
0
41
1
10
-1.56516065696636
20
2.31934894784513
30
0
41
1
10
-1.52141129648854
20
2.64449763789912
30
0
41
1
10
-1.49812171336987
20
2.80564269184379
30
0
41
1
10
-1.42485005677105
20
3.2852340916117
30
0
41
1
10
-1.37156883436867
20
3.5998907566466
30
0
41
1
10
-1.31543506509496
20
3.91027172665403
30
0
0
SPLINE
5
1A5
100
AcDbEntity
8
SK1
62
256
6
ByLayer
370
13
48
1
60
0
100
AcDbSpline
70
4
71
3
72
39
73
35
40
0
40
0
40
0
40
0
40
0.0222485627891816
40
0.0503515851092662
40
0.0784546074293507
40
0.106557629749435
40
0.162763674389604
40
0.218969719029773
40
0.247072741349858
40
0.275175763669942
40
0.331381808310111
40
0.359484830630196
40
0.38758785295028
40
0.415690875270365
40
0.443793897590449
40
0.471896919910534
40
0.485948431070576
40
0.499999942230618
40
0.514051453390661
40
0.528102964550703
40
0.556205986870787
40
0.584309009190872
40
0.612412031510956
40
0.640515053831041
40
0.668618076151125
40
0.724824120791294
40
0.752927143111379
40
0.781030165431463
40
0.837236210071632
40
0.893442254711801
40
0.921545277031886
40
0.94964829935197
40
0.977751321672055
40
1
40
1
40
1
40
1
41
1
10
-28.5
20
-16.8594171929719
30
0
41
1
10
-28.5
20
-16.8616545732789
30
0
41
1
10
-28.5
20
-16.8280886378379
30
0
41
1
10
-28.5
20
-16.653119129773
30
0
41
1
10
-28.5
20
-16.3328855300395
30
0
41
1
10
-28.5
20
-15.7436777114931
30
0
41
1
10
-28.5
20
-14.7294539424715
30
0
41
1
10
-28.5
20
-13.3839109677472
30
0
41
1
10
-28.5
20
-12.120280876233
30
0
41
1
10
-28.5
20
-10.73839291766
30
0
41
1
10
-28.5
20
-9.1921736670821
30
0
41
1
10
-28.5
20
-7.47336176426717
30
0
41
1
10
-28.5
20
-6.10816680103002
30
0
41
1
10
-28.5
20
-4.66779609215371
30
0
41
1
10
-28.5
20
-3.15909729188604
30
0
41
1
10
-28.5
20
-1.8582520018858
30
0
41
1
10
-28.5
20
-0.795563863901037
30
0
41
1
10
-28.5
20
1.286699387E-07
30
0
41
1
10
-28.5
20
0.795563889584685
30
0
41
1
10
-28.5
20
1.8582519453214
30
0
41
1
10
-28.5
20
3.159097514856
30
0
41
1
10
-28.5
20
4.66779636016517
30
0
41
1
10
-28.5
20
6.10816664300199
30
0
41
1
10
-28.5
20
7.47336198687174
30
0
41
1
10
-28.5
20
9.19217383455464
30
0
41
1
10
-28.5
20
10.738392924524
30
0
41
1
10
-28.5
20
12.1202809967186
30
0
41
1
10
-28.5
20
13.3839106046768
30
0
41
1
10
-28.5
20
14.7294543359373
30
0
41
1
10
-28.5
20
15.7436769514769
30
0
41
1
10
-28.5
20
16.3328856609547
30
0
41
1
10
-28.5
20
16.6531187925377
30
0
41
1
10
-28.5
20
16.8280883200495
30
0
41
1
10
-28.5
20
16.8616545246356
30
0
41
1
10
-28.5
20
16.8594170265208
30
0
0
SPLINE
5
1A6
100
AcDbEntity
8
SK1
62
256
6
ByLayer
370
13
48
1
60
0
100
AcDbSpline
70
4
71
3
72
28
73
24
40
0
40
0
40
0
40
0
40
0.0624999999999981
40
0.0624999999999981
40
0.124999999999996
40
0.124999999999996
40
0.156249999999996
40
0.156249999999996
40
0.187499999999996
40
0.187499999999996
40
0.218749999999997
40
0.218749999999997
40
0.249999999999997
40
0.249999999999997
40
0.312499999999997
40
0.312499999999997
40
0.374999999999997
40
0.374999999999997
40
0.499999999999998
40
0.499999999999998
40
0.749999999999999
40
0.749999999999999
40
1
40
1
40
1
40
1
41
1
10
-0.194976888870258
20
5.10125345321268
30
0
41
1
10
-0.188389743947596
20
5.08809572508304
30
0
41
1
10
-0.181388171489345
20
5.07530542256004
30
0
41
1
10
-0.166025548820471
20
5.0509474589706
30
0
41
1
10
-0.157725295326202
20
5.03932501852415
30
0
41
1
10
-0.143081863615521
20
5.02387526779509
30
0
41
1
10
-0.137860645204341
20
5.01910965282636
30
0
41
1
10
-0.126406237005767
20
5.01115823539553
30
0
41
1
10
-0.12023603285968
20
5.00799479312107
30
0
41
1
10
-0.106692593689956
20
5.00513122932881
30
0
41
1
10
-0.0991968336089997
20
5.00573569437643
30
0
41
1
10
-0.0855293958738628
20
5.01193593591637
30
0
41
1
10
-0.0793984682801465
20
5.01728909519309
30
0
41
1
10
-0.0637942286004147
20
5.03597841068117
30
0
41
1
10
-0.0567618727260424
20
5.05119306956354
30
0
41
1
10
-0.0451125871560691
20
5.08158095874251
30
0
41
1
10
-0.0406106446525314
20
5.09708347171048
30
0
41
1
10
-0.028927511747753
20
5.14400785687408
30
0
41
1
10
-0.0236290718911221
20
5.17580568862132
30
0
41
1
10
-0.0109086302312562
20
5.26998471323728
30
0
41
1
10
-0.0066100362521979
20
5.33222692369685
30
0
41
1
10
-0.0010407959094891
20
5.45614496696007
30
0
41
1
10
-2.84E-14
20
5.51780039660943
30
0
41
1
10
-2.84E-14
20
5.57923236301593
30
0
0
SPLINE
5
1A7
100
AcDbEntity
8
SK1
62
256
6
ByLayer
370
13
48
1
60
0
100
AcDbSpline
70
4
71
3
72
39
73
35
40
0
40
0
40
0
40
0
40
0.0163291586600451
40
0.0447803841368023
40
0.0732316096135594
40
0.101682835090317
40
0.158585286043831
40
0.215487736997345
40
0.243938962474102
40
0.27239018795086
40
0.329292638904374
40
0.357743864381131
40
0.386195089857888
40
0.414646315334645
40
0.443097540811402
40
0.47154876628816
40
0.485774379026538
40
0.499999991764917
40
0.514225604503295
40
0.528451217241674
40
0.556902442718431
40
0.585353668195188
40
0.613804893671945
40
0.642256119148703
40
0.67070734462546
40
0.727609795578974
40
0.756061021055731
40
0.784512246532489
40
0.841414697486003
40
0.898317148439517
40
0.926768373916274
40
0.955219599393031
40
0.983670824869789
40
1
40
1
40
1
40
1
41
1
10
-30
20
15.9918213884035
30
0
41
1
10
-30
20
15.9869260827108
30
0
41
1
10
-30
20
15.9507922007846
30
0
41
1
10
-30
20
15.7965327535813
30
0
41
1
10
-30
20
15.4890634139888
30
0
41
1
10
-30
20
14.9202427964399
30
0
41
1
10
-30
20
13.9430330734597
30
0
41
1
10
-30
20
12.6450674903883
30
0
41
1
10
-30
20
11.4213907579162
30
0
41
1
10
-30
20
10.0843425714312
30
0
41
1
10
-30
20
8.60269267078101
30
0
41
1
10
-30
20
6.94912049428405
30
0
41
1
10
-30
20
5.64600378047237
30
0
41
1
10
-30
20
4.28092566737905
30
0
41
1
10
-30
20
2.86766148350523
30
0
41
1
10
-30
20
1.67580418173887
30
0
41
1
10
-30
20
0.709818138095216
30
0
41
1
10
-30
20
2.731356403E-07
30
0
41
1
10
-30
20
-0.709818178927975
30
0
41
1
10
-30
20
-1.67580430318807
30
0
41
1
10
-30
20
-2.86766099029049
30
0
41
1
10
-30
20
-4.28092547446505
30
0
41
1
10
-30
20
-5.64600401967201
30
0
41
1
10
-30
20
-6.94912017416232
30
0
41
1
10
-30
20
-8.60269253637264
30
0
41
1
10
-30
20
-10.0843425709124
30
0
41
1
10
-30
20
-11.4213906920358
30
0
41
1
10
-30
20
-12.6450678356931
30
0
41
1
10
-30
20
-13.9430327235572
30
0
41
1
10
-30
20
-14.9202435431779
30
0
41
1
10
-30
20
-15.4890632796306
30
0
41
1
10
-30
20
-15.796533117835
30
0
41
1
10
-30
20
-15.9507927792874
30
0
41
1
10
-30
20
-15.9869263925155
30
0
41
1
10
-30
20
-15.9918216115154
30
0
0
SPLINE
5
1A8
100
AcDbEntity
8
SK1
62
256
6
ByLayer
370
13
48
1
60
0
100
AcDbSpline
70
4
71
3
72
39
73
35
40
0
40
0
40
0
40
0
40
0.0207052614295324
40
0.048896677830649
40
0.0770880942317657
40
0.105279510632882
40
0.161662343435116
40
0.218045176237349
40
0.246236592638466
40
0.274428009039582
40
0.330810841841816
40
0.359002258242933
40
0.387193674644049
40
0.415385091045166
40
0.443576507446283
40
0.471767923847399
40
0.485863632047958
40
0.499959340248516
40
0.514055048449074
40
0.528150756649633
40
0.556342173050749
40
0.584533589451866
40
0.612725005852983
40
0.6409164222541
40
0.669107838655216
40
0.72549067145745
40
0.753682087858566
40
0.781873504259683
40
0.838256337061916
40
0.89463916986415
40
0.922830586265266
40
0.951022002666383
40
0.9792134190675
40
1
40
1
40
1
40
1
41
1
10
-1.99999999999997
20
-17.5251280631208
30
0
41
1
10
-1.99999999999997
20
-17.5249820004927
30
0
41
1
10
-1.99999999999997
20
-17.4887857183615
30
0
41
1
10
-2
20
-17.3116346702719
30
0
41
1
10
-2
20
-16.9815887046989
30
0
41
1
10
-2
20
-16.3767071899766
30
0
41
1
10
-2.00000000000003
20
-15.3340290660617
30
0
41
1
10
-2.00000000000003
20
-13.951909601472
30
0
41
1
10
-2.00000000000003
20
-12.6575649796177
30
0
41
1
10
-2.00000000000003
20
-11.2412056085041
30
0
41
1
10
-2
20
-9.64534763909768
30
0
41
1
10
-2.00000000000003
20
-7.87638169367139
30
0
41
1
10
-2.00000000000003
20
-6.46346255594887
30
0
41
1
10
-2.00000000000003
20
-4.96520967393036
30
0
41
1
10
-2.00000000000003
20
-3.38314406709787
30
0
41
1
10
-2.00000000000003
20
-1.99851187450375
30
0
41
1
10
-2.00000000000003
20
-0.861482365135799
30
0
41
1
10
-2.00000000000003
20
1.76095796E-08
30
0
41
1
10
-2.00000000000006
20
0.861482441955275
30
0
41
1
10
-2.00000000000003
20
1.99851186782058
30
0
41
1
10
-2.00000000000003
20
3.3831440823123
30
0
41
1
10
-2.00000000000003
20
4.96520999967439
30
0
41
1
10
-2.00000000000003
20
6.46346246032289
30
0
41
1
10
-2.00000000000003
20
7.87638184130796
30
0
41
1
10
-2.00000000000006
20
9.64534783198894
30
0
41
1
10
-2.00000000000003
20
11.241205620246
30
0
41
1
10
-2
20
12.6575651420821
30
0
41
1
10
-2.00000000000006
20
13.951909224744
30
0
41
1
10
-2
20
15.3340294930175
30
0
41
1
10
-2
20
16.3767064197526
30
0
41
1
10
-2
20
16.9815888329671
30
0
41
1
10
-2
20
17.3116343538074
30
0
41
1
10
-2
20
17.4889720104982
30
0
41
1
10
-2
20
17.5251019604797
30
0
41
1
10
-2
20
17.5251289365284
30
0
0
SPLINE
5
1A9
100
AcDbEntity
8
SK1
62
256
6
ByLayer
370
13
48
1
60
0
100
AcDbSpline
70
4
71
3
72
42
73
38
40
0
40
0
40
0
40
0
40
0.249999999999997
40
0.249999999999997
40
0.374999999999996
40
0.374999999999996
40
0.499999999999995
40
0.499999999999995
40
0.562499999999995
40
0.562499999999995
40
0.624999999999996
40
0.624999999999996
40
0.656249999999996
40
0.656249999999996
40
0.687499999999996
40
0.687499999999996
40
0.718749999999996
40
0.718749999999996
40
0.734374999999996
40
0.734374999999996
40
0.749999999999996
40
0.749999999999996
40
0.765624999999997
40
0.765624999999997
40
0.781249999999997
40
0.781249999999997
40
0.812499999999997
40
0.812499999999997
40
0.843749999999997
40
0.843749999999997
40
0.874999999999998
40
0.874999999999998
40
0.906249999999998
40
0.906249999999998
40
0.937499999999998
40
0.937499999999998
40
1
40
1
40
1
40
1
41
1
10
-1.31543506509499
20
3.91027172665409
30
0
41
1
10
-1.28068172917503
20
4.10243366862576
30
0
41
1
10
-1.24042006305646
20
4.29123308251584
30
0
41
1
10
-1.16633538727916
20
4.56841413612329
30
0
41
1
10
-1.13933080980485
20
4.65979804016894
30
0
41
1
10
-1.07856064150931
20
4.84008830898986
30
0
41
1
10
-1.04491780252286
20
4.92902458343821
30
0
41
1
10
-0.985719618828
20
5.0597343163424
30
0
41
1
10
-0.964510597666589
20
5.10285007814142
30
0
41
1
10
-0.917564142383355
20
5.18780309469543
30
0
41
1
10
-0.891735634262631
20
5.22983541951632
30
0
41
1
10
-0.84819726021891
20
5.28965009202787
30
0
41
1
10
-0.832851352912769
20
5.30909057358514
30
0
41
1
10
-0.799785001228315
20
5.34657861284586
30
0
41
1
10
-0.782105425658074
20
5.36457521194149
30
0
41
1
10
-0.743968050116592
20
5.39774137453273
30
0
41
1
10
-0.723289214132478
20
5.41312418985464
30
0
41
1
10
-0.689344340688507
20
5.43252866399973
30
0
41
1
10
-0.677640323606965
20
5.43832159674881
30
0
41
1
10
-0.653268953562389
20
5.44823922458056
30
0
41
1
10
-0.640463219508291
20
5.45239115443155
30
0
41
1
10
-0.614441930889967
20
5.45839555599122
30
0
41
1
10
-0.601244402268719
20
5.46026896238209
30
0
41
1
10
-0.574441131574815
20
5.46155111444577
30
0
41
1
10
-0.560849195723534
20
5.46091939640198
30
0
41
1
10
-0.52136831756502
20
5.45547291818713
30
0
41
1
10
-0.495865858316734
20
5.44696454124249
30
0
41
1
10
-0.449618673338222
20
5.42431602573294
30
0
41
1
10
-0.428179456725445
20
5.40999335674027
30
0
41
1
10
-0.389032480793844
20
5.37863193816327
30
0
41
1
10
-0.371184029473596
20
5.3615485651197
30
0
41
1
10
-0.337721902683512
20
5.32554156605042
30
0
41
1
10
-0.322078194112606
20
5.3065369564228
30
0
41
1
10
-0.292711592354465
20
5.26755572918748
30
0
41
1
10
-0.278979420143315
20
5.24757463340433
30
0
41
1
10
-0.239876505163068
20
5.18652632594285
30
0
41
1
10
-0.216563122431779
20
5.14437164718407
30
0
41
1
10
-0.194976888875317
20
5.10125345321262
30
0
0
SPLINE
5
1AA
100
AcDbEntity
8
SK1
62
256
6
ByLayer
370
13
48
1
60
0
100
AcDbSpline
70
4
71
3
72
38
73
34
40
0
40
0
40
0
40
0
40
0.062499999999999
40
0.062499999999999
40
0.124999999999998
40
0.124999999999998
40
0.156249999999998
40
0.156249999999998
40
0.187499999999997
40
0.187499999999997
40
0.218749999999997
40
0.218749999999997
40
0.249999999999996
40
0.249999999999996
40
0.265624999999996
40
0.265624999999996
40
0.281249999999995
40
0.281249999999995
40
0.312499999999995
40
0.312499999999995
40
0.343749999999995
40
0.343749999999995
40
0.374999999999995
40
0.374999999999995
40
0.437499999999995
40
0.437499999999995
40
0.499999999999996
40
0.499999999999996
40
0.624999999999996
40
0.624999999999996
40
0.749999999999997
40
0.749999999999997
40
1
40
1
40
1
40
1
41
1
10
-0.194976888875317
20
-5.10125086895542
30
0
41
1
10
-0.216411492060303
20
-5.14406623857062
30
0
41
1
10
-0.239562914931383
20
-5.18596033789061
30
0
41
1
10
-0.291353104767637
20
-5.26696290766421
30
0
41
1
10
-0.320035423357837
20
-5.30623827275738
30
0
41
1
10
-0.369356290282468
20
-5.35970512410188
30
0
41
1
10
-0.386890561509517
20
-5.37666021355238
30
0
41
1
10
-0.425330717790388
20
-5.40793179193795
30
0
41
1
10
-0.44655927692304
20
-5.42243969778809
30
0
41
1
10
-0.492508842194383
20
-5.44564540128943
30
0
41
1
10
-0.517782420093738
20
-5.45447096541929
30
0
41
1
10
-0.569811183606674
20
-5.462588651006
30
0
41
1
10
-0.597299443131334
20
-5.46180548547338
30
0
41
1
10
-0.63624003440296
20
-5.45357454129291
30
0
41
1
10
-0.649088357427189
20
-5.44966723678172
30
0
41
1
10
-0.673685520586133
20
-5.44012313926035
30
0
41
1
10
-0.685430189786359
20
-5.43451953273569
30
0
41
1
10
-0.719361236569114
20
-5.41574833767447
30
0
41
1
10
-0.740368171050221
20
-5.40051622624668
30
0
41
1
10
-0.778745334977913
20
-5.3677899948932
30
0
41
1
10
-0.796342389105291
20
-5.3501627910421
30
0
41
1
10
-0.829434953692157
20
-5.313218670434
30
0
41
1
10
-0.844969648285854
20
-5.29381034841521
30
0
41
1
10
-0.888652780102973
20
-5.23453146130649
30
0
41
1
10
-0.914144935982193
20
-5.19348095925847
30
0
41
1
10
-0.961044880283254
20
-5.10955658483371
30
0
41
1
10
-0.982383808662348
20
-5.06665555767492
30
0
41
1
10
-1.04214197809219
20
-4.93593694656107
30
0
41
1
10
-1.076454080595
20
-4.84589601595729
30
0
41
1
10
-1.13808761230393
20
-4.66389927431686
30
0
41
1
10
-1.16537938363206
20
-4.57178767715178
30
0
41
1
10
-1.24012846189751
20
-4.29271329295037
30
0
41
1
10
-1.28057274414664
20
-4.10303367843494
30
0
41
1
10
-1.31543506509547
20
-3.91026939581323
30
0
0
SPLINE
5
1AB
100
AcDbEntity
8
1
62
256
6
ByLayer
370
18
48
1
60
0
100
AcDbSpline
70
4
71
3
72
22
73
18
40
0
40
0
40
0
40
0
40
0.125
40
0.125
40
0.25
40
0.25
40
0.375
40
0.375
40
0.5
40
0.5
40
0.625
40
0.625
40
0.75
40
0.75
40
0.875
40
0.875
40
1
40
1
40
1
40
1
41
1
10
50.4285128635749
20
-25.8903632985646
30
0
41
1
10
50.4071361374365
20
-25.8888731072761
30
0
41
1
10
50.3859466021621
20
-25.8897764533434
30
0
41
1
10
50.3439262572782
20
-25.896195147184
30
0
41
1
10
50.3228768691558
20
-25.9018302166029
30
0
41
1
10
50.2829493229118
20
-25.9173780358769
30
0
41
1
10
50.263906113063
20
-25.9272641631831
30
0
41
1
10
50.2277017917142
20
-25.9513708356334
30
0
41
1
10
50.210959713251
20
-25.9653525500123
30
0
41
1
10
50.1808247218792
20
-25.9964634634453
30
0
41
1
10
50.1671726758879
20
-26.0139224073447
30
0
41
1
10
50.1440793155741
20
-26.0509707831425
30
0
41
1
10
50.1345681302984
20
-26.0705279830798
30
0
41
1
10
50.1196533828355
20
-26.111727347363
30
0
41
1
10
50.1143869142459
20
-26.13315300211
30
0
41
1
10
50.1085099943961
20
-26.1760972833466
30
0
41
1
10
50.1078301349985
20
-26.1979889963193
30
0
41
1
10
50.1095244844136
20
-26.2197700079772
30
0
0
SPLINE
5
1AC
100
AcDbEntity
8
1
62
256
6
ByLayer
370
13
48
1
60
0
100
AcDbSpline
70
4
71
1
72
4
73
2
40
0
40
0
40
1
40
1
41
1
10
59.3125416305315
20
-34.3125872674314
30
0
41
1
10
59.3674095373279
20
-34.9824975157409
30
0
0
SPLINE
5
1AD
100
AcDbEntity
8
1
62
256
6
ByLayer
370
18
48
1
60
0
100
AcDbSpline
70
4
71
3
72
12
73
8
40
0
40
0
40
0
40
0
40
0.5
40
0.5
40
0.75
40
0.75
40
1
40
1
40
1
40
1
41
1
10
49.1518531692671
20
-28.5003501726865
30
0
41
1
10
49.2241386336534
20
-28.5047437180442
30
0
41
1
10
49.2959206220153
20
-28.5004539472979
30
0
41
1
10
49.4030408529009
20
-28.4813497342334
30
0
41
1
10
49.4388048112642
20
-28.4728000032416
30
0
41
1
10
49.5092036607221
20
-28.4516641420269
30
0
41
1
10
49.5439215691026
20
-28.4390811055567
30
0
41
1
10
49.5782502572086
20
-28.4245093545275
30
0
0
SPLINE
5
1AE
100
AcDbEntity
8
1
62
256
6
ByLayer
370
13
48
1
60
0
100
AcDbSpline
70
4
71
3
72
8
73
4
40
0
40
0
40
0
40
0
40
1
40
1
40
1
40
1
41
1
10
56.1167350454799
20
-34.0498441384733
30
0
41
1
10
56.0887971321868
20
-34.0475472238886
30
0
41
1
10
56.0609212622516
20
-34.0453124623532
30
0
41
1
10
56.0331323885587
20
-34.0431418542978
30
0
0
SPLINE
5
1AF
100
AcDbEntity
8
1
62
256
6
ByLayer
370
13
48
1
60
0
100
AcDbSpline
70
4
71
3
72
22
73
18
40
0
40
0
40
0
40
0
40
0.250000000000004
40
0.250000000000004
40
0.500000000000008
40
0.500000000000008
40
0.562500000000007
40
0.562500000000007
40
0.625000000000006
40
0.625000000000006
40
0.687500000000005
40
0.687500000000005
40
0.750000000000004
40
0.750000000000004
40
0.875000000000002
40
0.875000000000002
40
1
40
1
40
1
40
1
41
1
10
55.1361090535433
20
-29.3580911393324
30
0
41
1
10
55.0777448574826
20
-29.3607532891486
30
0
41
1
10
55.020096220203
20
-29.3674026692322
30
0
41
1
10
54.9072226148942
20
-29.3942842549194
30
0
41
1
10
54.8511910202023
20
-29.4148858383035
30
0
41
1
10
54.7898574834743
20
-29.4548137854026
30
0
41
1
10
54.7779394107351
20
-29.4635903490188
30
0
41
1
10
54.7555988512964
20
-29.482400758766
30
0
41
1
10
54.745115418066
20
-29.4924643916928
30
0
41
1
10
54.7256291285075
20
-29.5140096803976
30
0
41
1
10
54.7165632351234
20
-29.5255918784915
30
0
41
1
10
54.7003854864924
20
-29.5497668330036
30
0
41
1
10
54.6932864605282
20
-29.5623028445475
30
0
41
1
10
54.6748071818098
20
-29.6011864317186
30
0
41
1
10
54.6662271261577
20
-29.6291313712796
30
0
41
1
10
54.6562732862623
20
-29.685684769236
30
0
41
1
10
54.6547529952649
20
-29.7145591903545
30
0
41
1
10
54.6559121990719
20
-29.7432690564706
30
0
0
SPLINE
5
1B0
100
AcDbEntity
8
1
62
256
6
ByLayer
370
13
48
1
60
0
100
AcDbSpline
70
4
71
3
72
8
73
4
40
0
40
0
40
0
40
0
40
1
40
1
40
1
40
1
41
1
10
54.655912199072
20
-29.7432690564706
30
0
41
1
10
54.6565706578833
20
-29.7595770294088
30
0
41
1
10
54.6572060903053
20
-29.7759776839314
30
0
41
1
10
54.6578513548568
20
-29.7924706437384
30
0
0
SPLINE
5
1B1
100
AcDbEntity
8
1
62
256
6
ByLayer
370
18
48
1
60
0
100
AcDbSpline
70
4
71
3
72
8
73
4
40
0
40
0
40
0
40
0
40
1
40
1
40
1
40
1
41
1
10
49.9803500792385
20
-30.1576012160959
30
0
41
1
10
49.9848427133369
20
-30.1934670031453
30
0
41
1
10
49.9869285568243
20
-30.2295732311121
30
0
41
1
10
49.986559923133
20
-30.2659246639348
30
0
0
SPLINE
5
1B2
100
AcDbEntity
8
1
62
256
6
ByLayer
370
18
48
1
60
0
100
AcDbSpline
70
4
71
3
72
8
73
4
40
0
40
0
40
0
40
0
40
1
40
1
40
1
40
1
41
1
10
49.9865599231329
20
-30.2659246639348
30
0
41
1
10
49.9768347901269
20
-30.2545692135482
30
0
41
1
10
49.965430143286
20
-30.2430754892354
30
0
41
1
10
49.9525123486747
20
-30.2314571878702
30
0
0
SPLINE
5
1B3
100
AcDbEntity
8
1
62
256
6
ByLayer
370
18
48
1
60
0
100
AcDbSpline
70
4
71
3
72
12
73
8
40
0
40
0
40
0
40
0
40
0.500000000000002
40
0.500000000000002
40
0.750000000000001
40
0.750000000000001
40
1
40
1
40
1
40
1
41
1
10
59.1002587774837
20
-29.742937979824
30
0
41
1
10
59.0702317341662
20
-29.6921492904005
30
0
41
1
10
59.0522240240739
20
-29.6390874923293
30
0
41
1
10
59.0401959477772
20
-29.5566611024193
30
0
41
1
10
59.0387766405421
20
-29.5286970456974
30
0
41
1
10
59.0408374301053
20
-29.47316490752
30
0
41
1
10
59.0442852468401
20
-29.44542584898
30
0
41
1
10
59.050034996946
20
-29.4177125106016
30
0
0
SPLINE
5
1B4
100
AcDbEntity
8
1
62
256
6
ByLayer
370
18
48
1
60
0
100
AcDbSpline
70
4
71
3
72
8
73
4
40
0
40
0
40
0
40
0
40
1
40
1
40
1
40
1
41
1
10
59.729713008235
20
-30.8524487045649
30
0
41
1
10
59.6201405153205
20
-30.8432709489529
30
0
41
1
10
59.5107422493159
20
-30.8342695689548
30
0
41
1
10
59.4015009519858
20
-30.8254270934928
30
0
0
SPLINE
5
1B5
100
AcDbEntity
8
1
62
256
6
ByLayer
370
18
48
1
60
0
100
AcDbSpline
70
4
71
3
72
24
73
20
40
0
40
0
40
0
40
0
40
0.124999999999997
40
0.124999999999997
40
0.187499999999997
40
0.187499999999997
40
0.249999999999997
40
0.249999999999997
40
0.374999999999997
40
0.374999999999997
40
0.499999999999998
40
0.499999999999998
40
0.624999999999998
40
0.624999999999998
40
0.749999999999999
40
0.749999999999999
40
0.875
40
0.875
40
1
40
1
40
1
40
1
41
1
10
49.8903074169135
20
-30.2863430011188
30
0
41
1
10
49.8810192418058
20
-30.3045270011649
30
0
41
1
10
49.8713951469894
20
-30.3266121541247
30
0
41
1
10
49.8565649223733
20
-30.3656880488592
30
0
41
1
10
49.8515326508868
20
-30.3797800349964
30
0
41
1
10
49.8414841831509
20
-30.4096381206407
30
0
41
1
10
49.8364728924462
20
-30.4253801140414
30
0
41
1
10
49.82150987868
20
-30.4749879029186
30
0
41
1
10
49.8116284215602
20
-30.5112203457728
30
0
41
1
10
49.7922308437871
20
-30.5900801093826
30
0
41
1
10
49.7826736718547
20
-30.6329859679579
30
0
41
1
10
49.7647607515548
20
-30.7223257234037
30
0
41
1
10
49.7563199247284
20
-30.7690619126924
30
0
41
1
10
49.7405972854587
20
-30.8666879472402
30
0
41
1
10
49.7332709904922
20
-30.9180137794012
30
0
41
1
10
49.7203658559834
20
-31.0215667679092
30
0
41
1
10
49.7147297218006
20
-31.0740573117942
30
0
41
1
10
49.7051041734302
20
-31.1804594430786
30
0
41
1
10
49.7011012442467
20
-31.2346693784758
30
0
41
1
10
49.6980123594041
20
-31.2886771729942
30
0
0
SPLINE
5
1B6
100
AcDbEntity
8
1
62
256
6
ByLayer
370
18
48
1
60
0
100
AcDbSpline
70
4
71
3
72
8
73
4
40
0
40
0
40
0
40
0
40
1
40
1
40
1
40
1
41
1
10
48.8399676473988
20
-28.4818690254142
30
0
41
1
10
48.9433963253501
20
-28.4878329312243
30
0
41
1
10
49.0473763714288
20
-28.4940000225696
30
0
41
1
10
49.1518531692671
20
-28.5003501726865
30
0
0
SPLINE
5
1B7
100
AcDbEntity
8
1
62
256
6
ByLayer
370
18
48
1
60
0
100
AcDbSpline
70
4
71
3
72
8
73
4
40
0
40
0
40
0
40
0
40
1
40
1
40
1
40
1
41
1
10
59.050034996946
20
-29.4177125106016
30
0
41
1
10
59.0485279810329
20
-29.3834085102386
30
0
41
1
10
59.0493433903037
20
-29.3488199371259
30
0
41
1
10
59.0525272397651
20
-29.3139411529261
30
0
0
SPLINE
5
1B8
100
AcDbEntity
8
1
62
256
6
ByLayer
370
18
48
1
60
0
100
AcDbSpline
70
4
71
3
72
12
73
8
40
0
40
0
40
0
40
0
40
0.499999999999993
40
0.499999999999993
40
0.749999999999996
40
0.749999999999996
40
1
40
1
40
1
40
1
41
1
10
49.7956686701993
20
-29.7620405194442
30
0
41
1
10
49.8455814030812
20
-29.8232314784428
30
0
41
1
10
49.8850345576629
20
-29.8875114590171
30
0
41
1
10
49.9311752155852
20
-29.9877822525031
30
0
41
1
10
49.9443009734937
20
-30.0218699920512
30
0
41
1
10
49.9657318644331
20
-30.0896907055163
30
0
41
1
10
49.9741396698846
20
-30.1236314789912
30
0
41
1
10
49.9803500792386
20
-30.1576012160959
30
0
0
SPLINE
5
1B9
100
AcDbEntity
8
1
62
256
6
ByLayer
370
13
48
1
60
0
100
AcDbSpline
70
4
71
3
72
22
73
18
40
0
40
0
40
0
40
0
40
0.125000000000001
40
0.125000000000001
40
0.250000000000003
40
0.250000000000003
40
0.3125
40
0.3125
40
0.374999999999997
40
0.374999999999997
40
0.499999999999999
40
0.499999999999999
40
0.625000000000001
40
0.625000000000001
40
0.750000000000003
40
0.750000000000003
40
1
40
1
40
1
40
1
41
1
10
54.6578513548568
20
-29.7924706437384
30
0
41
1
10
54.6497785136401
20
-29.8436392892661
30
0
41
1
10
54.6387737815242
20
-29.8945381407156
30
0
41
1
10
54.6110472134699
20
-29.9935190990777
30
0
41
1
10
54.5943251522303
20
-30.0417623384772
30
0
41
1
10
54.5648000925159
20
-30.1121829351797
30
0
41
1
10
54.5542169082304
20
-30.1353318784
30
0
41
1
10
54.5315265536794
20
-30.1809611793987
30
0
41
1
10
54.519355793545
20
-30.2035467304622
30
0
41
1
10
54.4809999872752
20
-30.2693922810705
30
0
41
1
10
54.4530858505086
20
-30.3106403041096
30
0
41
1
10
54.3929866576424
20
-30.3882375414204
30
0
41
1
10
54.360800193977
20
-30.4245852152679
30
0
41
1
10
54.2924415963401
20
-30.492627227055
30
0
41
1
10
54.256062873155
20
-30.5244335865791
30
0
41
1
10
54.1446223209316
20
-30.6107250666234
30
0
41
1
10
54.0664361672492
20
-30.6572092190058
30
0
41
1
10
53.9854946395249
20
-30.6950034399882
30
0
0
SPLINE
5
1BA
100
AcDbEntity
8
1
62
256
6
ByLayer
370
13
48
1
60
0
100
AcDbSpline
70
4
71
3
72
22
73
18
40
0
40
0
40
0
40
0
40
0.250000000000007
40
0.250000000000007
40
0.500000000000014
40
0.500000000000014
40
0.562500000000012
40
0.562500000000012
40
0.625000000000011
40
0.625000000000011
40
0.687500000000009
40
0.687500000000009
40
0.750000000000007
40
0.750000000000007
40
0.875000000000004
40
0.875000000000004
40
1
40
1
40
1
40
1
41
1
10
53.7232259801424
20
-30.1277457478951
30
0
41
1
10
53.7775438272344
20
-30.1229669396331
30
0
41
1
10
53.8311314945612
20
-30.1141932528189
30
0
41
1
10
53.9356083961953
20
-30.0829193238396
30
0
41
1
10
53.9872430371812
20
-30.0600176795191
30
0
41
1
10
54.0430103070738
20
-30.0171779999422
30
0
41
1
10
54.0538021255896
20
-30.0078122890396
30
0
41
1
10
54.0739238744867
20
-29.9878412122051
30
0
41
1
10
54.0833096530358
20
-29.9772033925065
30
0
41
1
10
54.1006222761701
20
-29.9545210517503
30
0
41
1
10
54.1086036556855
20
-29.9423715408869
30
0
41
1
10
54.12267831037
20
-29.9170964510186
30
0
41
1
10
54.1287621939576
20
-29.9040294151608
30
0
41
1
10
54.1442967935476
20
-29.8636054566584
30
0
41
1
10
54.1510309744238
20
-29.8346949339348
30
0
41
1
10
54.1576718132677
20
-29.7764084942387
30
0
41
1
10
54.1577040062497
20
-29.7467556441569
30
0
41
1
10
54.155221219716
20
-29.7173534075658
30
0
0
SPLINE
5
1BB
100
AcDbEntity
8
1
62
256
6
ByLayer
370
18
48
1
60
0
100
AcDbSpline
70
4
71
3
72
28
73
24
40
0
40
0
40
0
40
0
40
0.0625000000000024
40
0.0625000000000024
40
0.125000000000005
40
0.125000000000005
40
0.187500000000007
40
0.187500000000007
40
0.25000000000001
40
0.25000000000001
40
0.312500000000012
40
0.312500000000012
40
0.375000000000014
40
0.375000000000014
40
0.437500000000017
40
0.437500000000017
40
0.500000000000019
40
0.500000000000019
40
0.625000000000012
40
0.625000000000012
40
0.750000000000004
40
0.750000000000004
40
1
40
1
40
1
40
1
41
1
10
57.4087452316316
20
-26.0166019478139
30
0
41
1
10
57.4211890402885
20
-25.9815235747974
30
0
41
1
10
57.4300857021249
20
-25.9454747235004
30
0
41
1
10
57.4405555866566
20
-25.8713675370751
30
0
41
1
10
57.442041474343
20
-25.8328603689857
30
0
41
1
10
57.4373800124717
20
-25.7573700537991
30
0
41
1
10
57.4313620634769
20
-25.7200784278795
30
0
41
1
10
57.412385639044
20
-25.6463493270552
30
0
41
1
10
57.3995491983184
20
-25.6105342687322
30
0
41
1
10
57.3685412764048
20
-25.5419925488697
30
0
41
1
10
57.3501452043881
20
-25.5088118081109
30
0
41
1
10
57.3092435348287
20
-25.4460410027575
30
0
41
1
10
57.286848347106
20
-25.4165233011975
30
0
41
1
10
57.2387886806606
20
-25.3606008867091
30
0
41
1
10
57.2131192445359
20
-25.3342010339742
30
0
41
1
10
57.1588707428623
20
-25.2841461017371
30
0
41
1
10
57.1303264692353
20
-25.2605576269237
30
0
41
1
10
57.0426260941655
20
-25.1948169899435
30
0
41
1
10
56.9808232510964
20
-25.1570477966633
30
0
41
1
10
56.8518895074958
20
-25.0909100215762
30
0
41
1
10
56.7843072686614
20
-25.0624635525276
30
0
41
1
10
56.5792493332514
20
-24.9908990273854
30
0
41
1
10
56.4386039847475
20
-24.9604941918043
30
0
41
1
10
56.2947124730515
20
-24.943362919058
30
0
0
SPLINE
5
1BC
100
AcDbEntity
8
1
62
256
6
ByLayer
370
18
48
1
60
0
100
AcDbSpline
70
4
71
3
72
8
73
4
40
0
40
0
40
0
40
0
40
1
40
1
40
1
40
1
41
1
10
48.8523973222365
20
-28.5898345946285
30
0
41
1
10
48.8475039450813
20
-28.5539918656614
30
0
41
1
10
48.8433557983004
20
-28.5180042991619
30
0
41
1
10
48.8399676473988
20
-28.4818690254142
30
0
0
SPLINE
5
1BD
100
AcDbEntity
8
1
62
256
6
ByLayer
370
13
48
1
60
0
100
AcDbSpline
70
4
71
3
72
8
73
4
40
0
40
0
40
0
40
0
40
1
40
1
40
1
40
1
41
1
10
56.0331323885587
20
-34.0431418542978
30
0
41
1
10
56.0116061131321
20
-34.2744283938335
30
0
41
1
10
55.9900798377054
20
-34.5057149333692
30
0
41
1
10
55.9685535622787
20
-34.7370014729048
30
0
0
SPLINE
5
1BE
100
AcDbEntity
8
1
62
256
6
ByLayer
370
18
48
1
60
0
100
AcDbSpline
70
4
71
3
72
8
73
4
40
0
40
0
40
0
40
0
40
1
40
1
40
1
40
1
41
1
10
49.9525123486747
20
-30.2314571878702
30
0
41
1
10
49.9487640105777
20
-30.2280859218809
30
0
41
1
10
49.9449559897244
20
-30.2262504845146
30
0
41
1
10
49.9410600013819
20
-30.2259344518089
30
0
0
SPLINE
5
1BF
100
AcDbEntity
8
1
62
256
6
ByLayer
370
18
48
1
60
0
100
AcDbSpline
70
4
71
3
72
12
73
8
40
0
40
0
40
0
40
0
40
0.26759103014321
40
0.26759103014321
40
0.633795515071605
40
0.633795515071605
40
1
40
1
40
1
40
1
41
1
10
49.9349878403552
20
-30.226646360693
30
0
41
1
10
49.9315086504019
20
-30.2277259929252
30
0
41
1
10
49.9279516826393
20
-30.2299523377528
30
0
41
1
10
49.9192984120452
20
-30.2379157830648
30
0
41
1
10
49.9140640985341
20
-30.2447088895743
30
0
41
1
10
49.9028876268638
20
-30.2624371946506
30
0
41
1
10
49.8969364058955
20
-30.2733650442483
30
0
41
1
10
49.8903074169135
20
-30.2863430011188
30
0
0
SPLINE
5
1C0
100
AcDbEntity
8
1
62
256
6
ByLayer
370
18
48
1
60
0
100
AcDbSpline
70
4
71
3
72
12
73
8
40
0
40
0
40
0
40
0
40
0.500000000000008
40
0.500000000000008
40
0.750000000000004
40
0.750000000000004
40
1
40
1
40
1
40
1
41
1
10
49.1565607645784
20
-28.9785204957853
30
0
41
1
10
49.1066480316966
20
-28.9173295367868
30
0
41
1
10
49.0559550613032
20
-28.853696276334
30
0
41
1
10
48.9789429494245
20
-28.755201774452
30
0
41
1
10
48.9531052504027
20
-28.7218454586425
30
0
41
1
10
48.9023264943432
20
-28.655713372039
30
0
41
1
10
48.8772248936699
20
-28.6227331314995
30
0
41
1
10
48.8523973222364
20
-28.5898345946284
30
0
0
SPLINE
5
1C1
100
AcDbEntity
8
1
62
256
6
ByLayer
370
18
48
1
60
0
100
AcDbSpline
70
4
71
3
72
8
73
4
40
0
40
0
40
0
40
0
40
1
40
1
40
1
40
1
41
1
10
51.0909975186477
20
-23.4333712256059
30
0
41
1
10
51.1345605888714
20
-23.4360281379424
30
0
41
1
10
51.1781941962539
20
-23.4400163492925
30
0
41
1
10
51.2219002071473
20
-23.445219850072
30
0
0
SPLINE
5
1C2
100
AcDbEntity
8
1
62
256
6
ByLayer
370
18
48
1
60
0
100
AcDbSpline
70
4
71
3
72
12
73
8
40
0
40
0
40
0
40
0
40
0.5
40
0.5
40
0.75
40
0.75
40
1
40
1
40
1
40
1
41
1
10
59.484740244608
20
-30.3932620765521
30
0
41
1
10
59.5147672879255
20
-30.4440507659756
30
0
41
1
10
59.5504116103544
20
-30.4998120292135
30
0
41
1
10
59.610880682021
20
-30.5896528123839
30
0
41
1
10
59.6322465418701
20
-30.6206698944232
30
0
41
1
10
59.676236054972
20
-30.6832505057194
30
0
41
1
10
59.6989827951306
20
-30.7149989109833
30
0
41
1
10
59.722445594047
20
-30.7471835308647
30
0
0
SPLINE
5
1C3
100
AcDbEntity
8
1
62
256
6
ByLayer
370
18
48
1
60
0
100
AcDbSpline
70
4
71
3
72
8
73
4
40
0
40
0
40
0
40
0
40
1
40
1
40
1
40
1
41
1
10
59.722445594047
20
-30.7471835308648
30
0
41
1
10
59.7245814236399
20
-30.7815837776379
30
0
41
1
10
59.727002014346
20
-30.8166676538763
30
0
41
1
10
59.729713008235
20
-30.8524487045649
30
0
0
SPLINE
5
1C4
100
AcDbEntity
8
1
62
256
6
ByLayer
370
13
48
1
60
0
100
AcDbSpline
70
4
71
1
72
4
73
2
40
0
40
0
40
1
40
1
41
1
10
59.0439291799765
20
-31.0329609073756
30
0
41
1
10
59.3125416305315
20
-34.3125872674314
30
0
0
SPLINE
5
1C5
100
AcDbEntity
8
1
62
256
6
ByLayer
370
13
48
1
60
0
100
AcDbSpline
70
4
71
1
72
4
73
2
40
0
40
0
40
1
40
1
41
1
10
59.7378201267351
20
-30.9685997112191
30
0
41
1
10
59.0439291799765
20
-31.0329609073756
30
0
0
SPLINE
5
1C6
100
AcDbEntity
8
1
62
256
6
ByLayer
370
13
48
1
60
0
100
AcDbSpline
70
4
71
1
72
4
73
2
40
0
40
0
40
1
40
1
41
1
10
56.1167350454799
20
-34.0498441384733
30
0
41
1
10
59.3125416305315
20
-34.3125872674314
30
0
0
SPLINE
5
1C7
100
AcDbEntity
8
1
62
256
6
ByLayer
370
13
48
1
60
0
100
AcDbSpline
70
4
71
3
72
8
73
4
40
0
40
0
40
0
40
0
40
1
40
1
40
1
40
1
41
1
10
54.155221219716
20
-29.7173534075658
30
0
41
1
10
54.1538109304642
20
-29.700652149653
30
0
41
1
10
54.1526112685284
20
-29.6839563448171
30
0
41
1
10
54.1515942594202
20
-29.6672689242106
30
0
0
SPLINE
5
1C8
100
AcDbEntity
8
1
62
256
6
ByLayer
370
18
48
1
60
0
100
AcDbSpline
70
4
71
3
72
24
73
20
40
0
40
0
40
0
40
0
40
0.124999999999988
40
0.124999999999988
40
0.187499999999992
40
0.187499999999992
40
0.249999999999995
40
0.249999999999995
40
0.374999999999995
40
0.374999999999995
40
0.499999999999996
40
0.499999999999996
40
0.624999999999997
40
0.624999999999997
40
0.749999999999998
40
0.749999999999998
40
0.874999999999999
40
0.874999999999999
40
1
40
1
40
1
40
1
41
1
10
49.5782502572086
20
-28.4245093545275
30
0
41
1
10
49.6263497286685
20
-28.404092217683
30
0
41
1
10
49.6729083309346
20
-28.3798819152058
30
0
41
1
10
49.7403672127495
20
-28.3377778559397
30
0
41
1
10
49.7625520635479
20
-28.3226989392011
30
0
41
1
10
49.8055378040401
20
-28.2909456982092
30
0
41
1
10
49.8263256964808
20
-28.2742959456455
30
0
41
1
10
49.8866174151416
20
-28.2220800192302
30
0
41
1
10
49.9240624995238
20
-28.1842616115636
30
0
41
1
10
49.9933551902079
20
-28.1025309669689
30
0
41
1
10
50.0252948382328
20
-28.0583372583164
30
0
41
1
10
50.0811925439985
20
-27.9668119221203
30
0
41
1
10
50.1054742140191
20
-27.9191642773231
30
0
41
1
10
50.1466512877992
20
-27.8200736373709
30
0
41
1
10
50.16360448361
20
-27.7681938895062
30
0
41
1
10
50.1888113288129
20
-27.6639330812289
30
0
41
1
10
50.1972482390525
20
-27.6112813853942
30
0
41
1
10
50.2058346420032
20
-27.5049390447917
30
0
41
1
10
50.205944691473
20
-27.4509530991541
30
0
41
1
10
50.2017222044247
20
-27.397365988693
30
0
0
SPLINE
5
1C9
100
AcDbEntity
8
1
62
256
6
ByLayer
370
18
48
1
60
0
100
AcDbSpline
70
4
71
3
72
12
73
8
40
0
40
0
40
0
40
0
40
0.5
40
0.5
40
0.75
40
0.75
40
1
40
1
40
1
40
1
41
1
10
59.4015009519858
20
-30.8254270934928
30
0
41
1
10
59.325919023069
20
-30.8193091567038
30
0
41
1
10
59.2507612306982
20
-30.8218330332769
30
0
41
1
10
59.1387148509126
20
-30.8383603616597
30
0
41
1
10
59.1013386633645
20
-30.8460667302654
30
0
41
1
10
59.0280266483565
20
-30.8656787050054
30
0
41
1
10
58.9920033971078
20
-30.8775789123306
30
0
41
1
10
58.9566573690015
20
-30.8916184894616
30
0
0
SPLINE
5
1CA
100
AcDbEntity
8
1
62
256
6
ByLayer
370
18
48
1
60
0
100
AcDbSpline
70
4
71
3
72
24
73
20
40
0
40
0
40
0
40
0
40
0.124999999999995
40
0.124999999999995
40
0.187499999999998
40
0.187499999999998
40
0.250000000000001
40
0.250000000000001
40
0.375
40
0.375
40
0.5
40
0.5
40
0.625
40
0.625
40
0.75
40
0.75
40
0.875
40
0.875
40
1
40
1
40
1
40
1
41
1
10
58.9566573690015
20
-30.8916184894616
30
0
41
1
10
58.9071324566345
20
-30.9112899734822
30
0
41
1
10
58.8593389784972
20
-30.9348543083323
30
0
41
1
10
58.7902666661977
20
-30.9761143768085
30
0
41
1
10
58.767581931967
20
-30.9909318028805
30
0
41
1
10
58.7236809296186
20
-31.0222062673869
30
0
41
1
10
58.7024775703301
20
-31.038638687877
30
0
41
1
10
58.6410483842682
20
-31.090259601356
30
0
41
1
10
58.6029896017288
20
-31.1277569814993
30
0
41
1
10
58.5326843725116
20
-31.2089579638591
30
0
41
1
10
58.5003458522786
20
-31.2529430211485
30
0
41
1
10
58.4438268842055
20
-31.3441433729895
30
0
41
1
10
58.4193177324074
20
-31.3916720213212
30
0
41
1
10
58.3777975165013
20
-31.4905831624993
30
0
41
1
10
58.3607286362576
20
-31.5424023954569
30
0
41
1
10
58.3353774120693
20
-31.6465876786124
30
0
41
1
10
58.3269100874124
20
-31.6992234645655
30
0
41
1
10
58.3183353410497
20
-31.8055719027675
30
0
41
1
10
58.3182679171071
20
-31.8595801459584
30
0
41
1
10
58.3225776926598
20
-31.9132129173232
30
0
0
SPLINE
5
1CB
100
AcDbEntity
8
1
62
256
6
ByLayer
370
18
48
1
60
0
100
AcDbSpline
70
4
71
3
72
22
73
18
40
0
40
0
40
0
40
0
40
0.125
40
0.125
40
0.25
40
0.25
40
0.375
40
0.375
40
0.5
40
0.5
40
0.625
40
0.625
40
0.75
40
0.75
40
0.875
40
0.875
40
1
40
1
40
1
40
1
41
1
10
58.0951153494979
20
-33.4198642473371
30
0
41
1
10
58.1166222514443
20
-33.4214225340188
30
0
41
1
10
58.1379668843754
20
-33.4206003200455
30
0
41
1
10
58.1803416789983
20
-33.4143670400284
30
0
41
1
10
58.2015930792872
20
-33.4088376438378
30
0
41
1
10
58.2419423834981
20
-33.3935104475426
30
0
41
1
10
58.2612062888836
20
-33.3837397667971
30
0
41
1
10
58.2978564659883
20
-33.3598663229582
30
0
41
1
10
58.3148185671242
20
-33.3459997031626
30
0
41
1
10
58.3453613899119
20
-33.3151021276837
30
0
41
1
10
58.3592047658526
20
-33.2977432691098
30
0
41
1
10
58.3826202378075
20
-33.2608633909702
30
0
41
1
10
58.3922630787254
20
-33.2413750605321
30
0
41
1
10
58.4073697825914
20
-33.2002761092744
30
0
41
1
10
58.41269448837
20
-33.1788809185923
30
0
41
1
10
58.4186047167
20
-33.1359540611312
30
0
41
1
10
58.4192602469924
20
-33.1140496215237
30
0
41
1
10
58.4175005831438
20
-33.0922344436709
30
0
0
SPLINE
5
1CC
100
AcDbEntity
8
1
62
256
6
ByLayer
370
18
48
1
60
0
100
AcDbSpline
70
4
71
3
72
24
73
20
40
0
40
0
40
0
40
0
40
0.249999999999996
40
0.249999999999996
40
0.374999999999994
40
0.374999999999994
40
0.499999999999992
40
0.499999999999992
40
0.562499999999985
40
0.562499999999985
40
0.624999999999978
40
0.624999999999978
40
0.749999999999963
40
0.749999999999963
40
0.812499999999966
40
0.812499999999966
40
0.87499999999997
40
0.87499999999997
40
1
40
1
40
1
40
1
41
1
10
52.6360228061543
20
-31.4997489078122
30
0
41
1
10
52.6545559090789
20
-31.4381529469687
30
0
41
1
10
52.6674581407444
20
-31.3752882050872
30
0
41
1
10
52.6719415094376
20
-31.278581350115
30
0
41
1
10
52.6708622741536
20
-31.246569862668
30
0
41
1
10
52.6621447977723
20
-31.1831180812199
30
0
41
1
10
52.6543106791443
20
-31.1512733596389
30
0
41
1
10
52.636906195145
20
-31.1063125820176
30
0
41
1
10
52.6301774586839
20
-31.091747040207
30
0
41
1
10
52.6147681261055
20
-31.0635029771635
30
0
41
1
10
52.6060116914097
20
-31.0497272324119
30
0
41
1
10
52.5772310859214
20
-31.0106000679116
30
0
41
1
10
52.5549028122918
20
-30.9875629852869
30
0
41
1
10
52.5172234712267
20
-30.9570696524139
30
0
41
1
10
52.503975697633
20
-30.9476145198457
30
0
41
1
10
52.4769032267212
20
-30.930416111224
30
0
41
1
10
52.4629911227754
20
-30.9225987267454
30
0
41
1
10
52.4202710771997
20
-30.9011927744847
30
0
41
1
10
52.390486937009
20
-30.8896347344414
30
0
41
1
10
52.3596491406821
20
-30.8802683366494
30
0
0
SPLINE
5
1CD
100
AcDbEntity
8
1
62
256
6
ByLayer
370
18
48
1
60
0
100
AcDbSpline
70
4
71
3
72
28
73
24
40
0
40
0
40
0
40
0
40
0.0702979228873069
40
0.0702979228873069
40
0.140595845774614
40
0.140595845774614
40
0.210893768661921
40
0.210893768661921
40
0.281191691549228
40
0.281191691549228
40
0.351489614436535
40
0.351489614436535
40
0.421787537323842
40
0.421787537323842
40
0.492085460211149
40
0.492085460211149
40
0.562383383098455
40
0.562383383098455
40
0.702979228873075
40
0.702979228873075
40
0.843575074647695
40
0.843575074647695
40
1
40
1
40
1
40
1
41
1
10
59.4795809737328
20
-25.2966787189645
30
0
41
1
10
59.4866287494284
20
-25.2598865565573
30
0
41
1
10
59.4922792216834
20
-25.222803041812
30
0
41
1
10
59.5006552496593
20
-25.1480288158342
30
0
41
1
10
59.5033689461477
20
-25.1099133778887
30
0
41
1
10
59.5055651508841
20
-25.0366052266221
30
0
41
1
10
59.5051184422122
20
-25.0010852340187
30
0
41
1
10
59.5013813663701
20
-24.9321803081569
30
0
41
1
10
59.4981084562786
20
-24.8993841888959
30
0
41
1
10
59.4893425639605
20
-24.837822543457
30
0
41
1
10
59.4837847939077
20
-24.808652756992
30
0
41
1
10
59.4710077956755
20
-24.7546083896558
30
0
41
1
10
59.4638275171456
20
-24.7297843040114
30
0
41
1
10
59.4482388755972
20
-24.6838049789542
30
0
41
1
10
59.4398281239743
20
-24.6626554409867
30
0
41
1
10
59.4220105930443
20
-24.6235961441534
30
0
41
1
10
59.4126152710832
20
-24.60574533547
30
0
41
1
10
59.3838285904308
20
-24.5575155922842
30
0
41
1
10
59.3636522693695
20
-24.5319367838664
30
0
41
1
10
59.3222531068365
20
-24.4910086319808
30
0
41
1
10
59.300889048959
20
-24.4756669602251
30
0
41
1
10
59.2562206321065
20
-24.4530893000175
30
0
41
1
10
59.2328821230931
20
-24.4466871165074
30
0
41
1
10
59.2098406815443
20
-24.4450689216641
30
0
0
SPLINE
5
1CE
100
AcDbEntity
8
1
62
256
6
ByLayer
370
18
48
1
60
0
100
AcDbSpline
70
4
71
3
72
24
73
20
40
0
40
0
40
0
40
0
40
0.250000000000024
40
0.250000000000024
40
0.375000000000034
40
0.375000000000034
40
0.500000000000044
40
0.500000000000044
40
0.562500000000045
40
0.562500000000045
40
0.625000000000046
40
0.625000000000046
40
0.750000000000038
40
0.750000000000038
40
0.81250000000003
40
0.81250000000003
40
0.875000000000022
40
0.875000000000022
40
1
40
1
40
1
40
1
41
1
10
56.6126382116595
20
-28.1897456814212
30
0
41
1
10
56.5901019230351
20
-28.2492475626667
30
0
41
1
10
56.5728565059989
20
-28.3098403700048
30
0
41
1
10
56.5610337618664
20
-28.4027079735602
30
0
41
1
10
56.5595737541284
20
-28.4333911746361
30
0
41
1
10
56.5629762847555
20
-28.49406269049
30
0
41
1
10
56.567994814249
20
-28.52443456814
30
0
41
1
10
56.5811523166647
20
-28.5671737357351
30
0
41
1
10
56.5864584926947
20
-28.5809951315083
30
0
41
1
10
56.5990081799979
20
-28.6077433047086
30
0
41
1
10
56.6063167097865
20
-28.6207616456441
30
0
41
1
10
56.630817372109
20
-28.6576499578063
30
0
41
1
10
56.6503951530286
20
-28.6792482486536
30
0
41
1
10
56.6840857814716
20
-28.7076550728431
30
0
41
1
10
56.6960297555396
20
-28.7164281835939
30
0
41
1
10
56.7206032331908
20
-28.7323193606268
30
0
41
1
10
56.7333106280172
20
-28.7395065578051
30
0
41
1
10
56.7725337653857
20
-28.7590832658884
30
0
41
1
10
56.8001420277679
20
-28.7695030970979
30
0
41
1
10
56.8289294972085
20
-28.7777969621564
30
0
0
SPLINE
5
1CF
100
AcDbEntity
8
1
62
256
6
ByLayer
370
13
48
1
60
0
100
AcDbSpline
70
4
71
1
72
4
73
2
40
0
40
0
40
1
40
1
41
1
10
59.3125416305315
20
-34.3125872674314
30
0
41
1
10
59.9824455368411
20
-34.3676633941496
30
0
0
SPLINE
5
1D0
100
AcDbEntity
8
1
62
256
6
ByLayer
370
13
48
1
60
0
100
AcDbSpline
70
4
71
3
72
22
73
18
40
0
40
0
40
0
40
0
40
0.125000000000014
40
0.125000000000014
40
0.250000000000028
40
0.250000000000028
40
0.312500000000031
40
0.312500000000031
40
0.375000000000034
40
0.375000000000034
40
0.500000000000025
40
0.500000000000025
40
0.625000000000015
40
0.625000000000015
40
0.750000000000005
40
0.750000000000005
40
1
40
1
40
1
40
1
41
1
10
54.1515942594203
20
-29.6672689242106
30
0
41
1
10
54.1602315435861
20
-29.6163955406449
30
0
41
1
10
54.172305069351
20
-29.5660557786662
30
0
41
1
10
54.203209467839
20
-29.4687371538495
30
0
41
1
10
54.2220379270375
20
-29.421595778146
30
0
41
1
10
54.2555572545249
20
-29.3532645960447
30
0
41
1
10
54.2676113546682
20
-29.3308850937445
30
0
41
1
10
54.2935373490474
20
-29.2869483665754
30
0
41
1
10
54.3074823874467
20
-29.2652909463043
30
0
41
1
10
54.351551649676
20
-29.2024341232885
30
0
41
1
10
54.3837764173837
20
-29.1634410054636
30
0
41
1
10
54.4534870051086
20
-29.090871520396
30
0
41
1
10
54.4909744801519
20
-29.0572968230246
30
0
41
1
10
54.5709460915108
20
-28.9953296168873
30
0
41
1
10
54.6136762440985
20
-28.9668457109607
30
0
41
1
10
54.7451383072908
20
-28.8910275491146
30
0
41
1
10
54.8380928571629
20
-28.8522687933227
30
0
41
1
10
54.9351654686795
20
-28.8229127952946
30
0
0
SPLINE
5
1D1
100
AcDbEntity
8
1
62
256
6
ByLayer
370
18
48
1
60
0
100
AcDbSpline
70
4
71
3
72
8
73
4
40
0
40
0
40
0
40
0
40
1
40
1
40
1
40
1
41
1
10
59.0525272397651
20
-29.3139411529261
30
0
41
1
10
59.0479196883987
20
-29.3123019208681
30
0
41
1
10
59.0433362827154
20
-29.3106641195912
30
0
41
1
10
59.0387767285251
20
-29.3090277316629
30
0
0
SPLINE
5
1D2
100
AcDbEntity
8
1
62
256
6
ByLayer
370
18
48
1
60
0
100
AcDbSpline
70
4
71
3
72
34
73
30
40
0
40
0
40
0
40
0
40
0.0625000000000037
40
0.0625000000000037
40
0.0937500000000056
40
0.0937500000000056
40
0.125000000000007
40
0.125000000000007
40
0.187500000000011
40
0.187500000000011
40
0.218750000000008
40
0.218750000000008
40
0.250000000000005
40
0.250000000000005
40
0.312500000000008
40
0.312500000000008
40
0.375000000000011
40
0.375000000000011
40
0.437500000000014
40
0.437500000000014
40
0.500000000000017
40
0.500000000000017
40
0.625000000000018
40
0.625000000000018
40
0.687500000000018
40
0.687500000000018
40
0.750000000000018
40
0.750000000000018
40
1
40
1
40
1
40
1
41
1
10
51.9873817440311
20
-33.7500325686886
30
0
41
1
10
51.9772551288035
20
-33.7866633257024
30
0
41
1
10
51.9698166941933
20
-33.8236179985054
30
0
41
1
10
51.9627017286557
20
-33.8795359033392
30
0
41
1
10
51.9610068715829
20
-33.8982565673782
30
0
41
1
10
51.9590113572198
20
-33.9358655073384
30
0
41
1
10
51.9587237296982
20
-33.9547085627501
30
0
41
1
10
51.9599412029797
20
-34.0100913802012
30
0
41
1
10
51.9634809364333
20
-34.0459622779123
30
0
41
1
10
51.9726024145251
20
-34.098318205363
30
0
41
1
10
51.976303289843
20
-34.1155969651358
30
0
41
1
10
51.9848077262292
20
-34.1490996453285
30
0
41
1
10
51.9896150234835
20
-34.165378772249
30
0
41
1
10
52.0055797790188
20
-34.2129167259453
30
0
41
1
10
52.0183251579706
20
-34.2429845166901
30
0
41
1
10
52.0472920543244
20
-34.2996347011025
30
0
41
1
10
52.0632822253536
20
-34.325813895056
30
0
41
1
10
52.0978114428848
20
-34.374651926161
30
0
41
1
10
52.1163545044905
20
-34.397304619602
30
0
41
1
10
52.1557295155439
20
-34.4395491949671
30
0
41
1
10
52.1766642156449
20
-34.4592069551781
30
0
41
1
10
52.2414060766314
20
-34.5130686100154
30
0
41
1
10
52.2873871519957
20
-34.542602674867
30
0
41
1
10
52.3598516808927
20
-34.5796518079379
30
0
41
1
10
52.3845955417091
20
-34.5907735761654
30
0
41
1
10
52.4351979331671
20
-34.6107795906449
30
0
41
1
10
52.4611223845932
20
-34.6196785296974
30
0
41
1
10
52.5921008683952
20
-34.6586004555895
30
0
41
1
10
52.7018216047344
20
-34.6727641928399
30
0
41
1
10
52.8159174702431
20
-34.6739271613884
30
0
0
LINE
5
72
100
AcDbEntity
8
4
62
256
6
ByLayer
370
18
48
0.05
60
0
100
AcDbLine
10
-30
20
0
30
0
11
60
21
0
31
0
39
0
210
0
220
0
230
1
0
LINE
5
74
100
AcDbEntity
8
81
62
256
6
ByLayer
370
18
48
1
60
0
100
AcDbLine
10
60
20
-35
30
0
11
70
21
-35
31
0
39
0
210
0
220
0
230
1
0
LINE
5
75
100
AcDbEntity
8
1
62
256
6
ByLayer
370
13
48
1
60
0
100
AcDbLine
10
0.3
20
25
30
0
11
0
21
24.7
31
0
39
0
210
0
220
0
230
1
0
LINE
5
76
100
AcDbEntity
8
1
62
256
6
ByLayer
370
13
48
1
60
0
100
AcDbLine
10
0
20
-24.7
30
0
11
0.3
21
-25
31
0
39
0
210
0
220
0
230
1
0
LINE
5
77
100
AcDbEntity
8
1
62
256
6
ByLayer
370
13
48
1
60
0
100
AcDbLine
10
0.3
20
-25
30
0
11
20.279208
21
-25
31
0
39
0
210
0
220
0
230
1
0
LINE
5
78
100
AcDbEntity
8
1
62
256
6
ByLayer
370
13
48
1
60
0
100
AcDbLine
10
20
20
25
30
0
11
0.3
21
25
31
0
39
0
210
0
220
0
230
1
0
LINE
5
79
100
AcDbEntity
8
1
62
256
6
ByLayer
370
18
48
1
60
0
100
AcDbLine
10
59.259858
20
-24.456228
30
0
11
59.209732
21
-24.437702
31
0
39
0
210
0
220
0
230
1
0
LINE
5
7A
100
AcDbEntity
8
1
62
256
6
ByLayer
370
18
48
1
60
0
100
AcDbLine
10
51.090635
20
-23.433412
30
0
11
48.699279
21
-23.291406
31
0
39
0
210
0
220
0
230
1
0
LINE
5
7B
100
AcDbEntity
8
1
62
256
6
ByLayer
370
13
48
1
60
0
100
AcDbLine
10
20.758791
20
-25.1
30
0
11
26.069651
21
-25.1
31
0
39
0
210
0
220
0
230
1
0
LINE
5
7C
100
AcDbEntity
8
1
62
256
6
ByLayer
370
13
48
1
60
0
100
AcDbLine
10
49.915645
20
-18.139019
30
0
11
49.688442
21
-17.225225
31
0
39
0
210
0
220
0
230
1
0
LINE
5
7D
100
AcDbEntity
8
1
62
256
6
ByLayer
370
13
48
1
60
0
100
AcDbLine
10
43.876408
20
-24.222221
30
0
11
44.72509
21
-24.071008
31
0
39
0
210
0
220
0
230
1
0
LINE
5
7E
100
AcDbEntity
8
1
62
256
6
ByLayer
370
13
48
1
60
0
100
AcDbLine
10
32.878537
20
-27.776129
30
0
11
37.210139
21
-31.803151
31
0
39
0
210
0
220
0
230
1
0
LINE
5
7F
100
AcDbEntity
8
1
62
256
6
ByLayer
370
13
48
1
60
0
100
AcDbLine
10
59.175191
20
-23.202387
30
0
11
59.175425
21
-23.065906
31
0
39
0
210
0
220
0
230
1
0
LINE
5
80
100
AcDbEntity
8
1
62
256
6
ByLayer
370
13
48
1
60
0
100
AcDbLine
10
52.387992
20
-23.779885
30
0
11
52.965505
21
-24.345219
31
0
39
0
210
0
220
0
230
1
0
LINE
5
81
100
AcDbEntity
8
1
62
256
6
ByLayer
370
18
48
1
60
0
100
AcDbLine
10
49.592138
20
-32.797434
30
0
11
49.609196
21
-32.798837
31
0
39
0
210
0
220
0
230
1
0
LINE
5
82
100
AcDbEntity
8
1
62
256
6
ByLayer
370
13
48
1
60
0
100
AcDbLine
10
58.869282
20
-18.089308
30
0
11
58.48792
21
-12.229201
31
0
39
0
210
0
220
0
230
1
0
LINE
5
83
100
AcDbEntity
8
1
62
256
6
ByLayer
370
18
48
1
60
0
100
AcDbLine
10
49.600529
20
-34.413195
30
0
11
52.718877
21
-34.669569
31
0
39
0
210
0
220
0
230
1
0
LINE
5
84
100
AcDbEntity
8
80
62
256
6
ByLayer
370
18
48
1
60
0
100
AcDbLine
10
0
20
0
30
0
11
-6.6
21
0
31
0
39
0
210
0
220
0
230
1
0
LINE
5
85
100
AcDbEntity
8
1
62
256
6
ByLayer
370
13
48
1
60
0
100
AcDbLine
10
55.246495
20
-24.7134
30
0
11
59.232728
21
-25.041128
31
0
39
0
210
0
220
0
230
1
0
LINE
5
86
100
AcDbEntity
8
1
62
256
6
ByLayer
370
13
48
1
60
0
100
AcDbLine
10
49.322644
20
-32.558394
30
0
11
49.643253
21
-32.353846
31
0
39
0
210
0
220
0
230
1
0
LINE
5
87
100
AcDbEntity
8
1
62
256
6
ByLayer
370
13
48
1
60
0
100
AcDbLine
10
59.168934
20
-22.995786
30
0
11
58.830618
21
-17.567581
31
0
39
0
210
0
220
0
230
1
0
LINE
5
88
100
AcDbEntity
8
1
62
256
6
ByLayer
370
13
48
1
60
0
100
AcDbLine
10
48.333241
20
-24.726301
30
0
11
48.069878
21
-24.916857
31
0
39
0
210
0
220
0
230
1
0
LINE
5
89
100
AcDbEntity
8
1
62
256
6
ByLayer
370
13
48
1
60
0
100
AcDbLine
10
49.016237
20
-29.6522
30
0
11
49.192409
21
-29.117822
31
0
39
0
210
0
220
0
230
1
0
LINE
5
8A
100
AcDbEntity
8
1
62
256
6
ByLayer
370
13
48
1
60
0
100
AcDbLine
10
8.538675
20
-7.529667
30
0
11
11.461325
21
-7.529667
31
0
39
0
210
0
220
0
230
1
0
LINE
5
8B
100
AcDbEntity
8
1
62
256
6
ByLayer
370
13
48
1
60
0
100
AcDbLine
10
59.247883
20
-25.171659
30
0
11
59.247844
21
-25.19474
31
0
39
0
210
0
220
0
230
1
0
LINE
5
8C
100
AcDbEntity
8
1
62
256
6
ByLayer
370
13
48
1
60
0
100
AcDbLine
10
0
20
-24.7
30
0
11
0
21
24.7
31
0
39
0
210
0
220
0
230
1
0
LINE
5
8D
100
AcDbEntity
8
1
62
256
6
ByLayer
370
13
48
1
60
0
100
AcDbLine
10
20
20
25
30
0
11
58.332201
21
-10.701346
31
0
39
0
210
0
220
0
230
1
0
LINE
5
8E
100
AcDbEntity
8
1
62
256
6
ByLayer
370
13
48
1
60
0
100
AcDbLine
10
8.538675
20
23.83913
30
0
11
11.461325
21
23.83913
31
0
39
0
210
0
220
0
230
1
0
LINE
5
8F
100
AcDbEntity
8
1
62
256
6
ByLayer
370
13
48
1
60
0
100
AcDbLine
10
49.782242
20
-17.766836
30
0
11
49.495956
21
-16.687755
31
0
39
0
210
0
220
0
230
1
0
LINE
5
90
100
AcDbEntity
8
1
62
256
6
ByLayer
370
13
48
1
60
0
100
AcDbLine
10
58.789
20
-17.956844
30
0
11
59.243546
21
-24.958515
31
0
39
0
210
0
220
0
230
1
0
LINE
5
91
100
AcDbEntity
8
1
62
256
6
ByLayer
370
13
48
1
60
0
100
AcDbLine
10
43.127656
20
-24.255592
30
0
11
44.18231
21
-24.095553
31
0
39
0
210
0
220
0
230
1
0
LINE
5
92
100
AcDbEntity
8
1
62
256
6
ByLayer
370
13
48
1
60
0
100
AcDbLine
10
0.3
20
-25
30
0
11
0.3
21
25
31
0
39
0
210
0
220
0
230
1
0
LINE
5
93
100
AcDbEntity
8
1
62
256
6
ByLayer
370
13
48
1
60
0
100
AcDbLine
10
59.169162
20
-22.863114
30
0
11
59.168934
21
-22.995786
31
0
39
0
210
0
220
0
230
1
0
LINE
5
94
100
AcDbEntity
8
1
62
256
6
ByLayer
370
13
48
1
60
0
100
AcDbLine
10
48.691475
20
-34.425409
30
0
11
49.266134
21
-32.891578
31
0
39
0
210
0
220
0
230
1
0
LINE
5
95
100
AcDbEntity
8
1
62
256
6
ByLayer
370
13
48
1
60
0
100
AcDbLine
10
11.461325
20
-23.83913
30
0
11
8.538675
21
-23.83913
31
0
39
0
210
0
220
0
230
1
0
LINE
5
96
100
AcDbEntity
8
1
62
256
6
ByLayer
370
13
48
1
60
0
100
AcDbLine
10
49.574347
20
-32.876514
30
0
11
49.266134
21
-32.891578
31
0
39
0
210
0
220
0
230
1
0
LINE
5
97
100
AcDbEntity
8
1
62
256
6
ByLayer
370
13
48
1
60
0
100
AcDbLine
10
8.105662
20
-23.666502
30
0
11
8.105662
21
-8.055848
31
0
39
0
210
0
220
0
230
1
0
LINE
5
98
100
AcDbEntity
8
1
62
256
6
ByLayer
370
13
48
1
60
0
100
AcDbLine
10
11.461325
20
-23.83913
30
0
11
11.461325
21
-7.529667
31
0
39
0
210
0
220
0
230
1
0
LINE
5
99
100
AcDbEntity
8
1
62
256
6
ByLayer
370
13
48
1
60
0
100
AcDbLine
10
57.123218
20
-25.020064
30
0
11
59.247844
21
-25.19474
31
0
39
0
210
0
220
0
230
1
0
LINE
5
9A
100
AcDbEntity
8
1
62
256
6
ByLayer
370
13
48
1
60
0
100
AcDbLine
10
59.243434
20
-25.023723
30
0
11
59.243546
21
-24.958515
31
0
39
0
210
0
220
0
230
1
0
LINE
5
9B
100
AcDbEntity
8
1
62
256
6
ByLayer
370
13
48
1
60
0
100
AcDbLine
10
8.105662
20
8.055848
30
0
11
8.105662
21
23.666502
31
0
39
0
210
0
220
0
230
1
0
LINE
5
9C
100
AcDbEntity
8
1
62
256
6
ByLayer
370
13
48
1
60
0
100
AcDbLine
10
59.247844
20
-25.19474
30
0
11
59.232728
21
-25.041128
31
0
39
0
210
0
220
0
230
1
0
LINE
5
9D
100
AcDbEntity
8
1
62
256
6
ByLayer
370
13
48
1
60
0
100
AcDbLine
10
56.961316
20
-24.960228
30
0
11
57.123218
21
-25.020064
31
0
39
0
210
0
220
0
230
1
0
LINE
5
9E
100
AcDbEntity
8
1
62
256
6
ByLayer
370
13
48
1
60
0
100
AcDbLine
10
20.758791
20
-25.1
30
0
11
20.758791
21
-11.095982
31
0
39
0
210
0
220
0
230
1
0
LINE
5
9F
100
AcDbEntity
8
1
62
256
6
ByLayer
370
13
48
1
60
0
100
AcDbLine
10
50.452345
20
-23.395507
30
0
11
50.473948
21
-23.163387
31
0
39
0
210
0
220
0
230
1
0
LINE
5
A0
100
AcDbEntity
8
1
62
256
6
ByLayer
370
13
48
1
60
0
100
AcDbLine
10
11.894338
20
-23.666502
30
0
11
11.894338
21
-8.055848
31
0
39
0
210
0
220
0
230
1
0
LINE
5
A1
100
AcDbEntity
8
1
62
256
6
ByLayer
370
13
48
1
60
0
100
AcDbLine
10
11.461325
20
7.529667
30
0
11
8.538675
21
7.529667
31
0
39
0
210
0
220
0
230
1
0
LINE
5
A2
100
AcDbEntity
8
1
62
256
6
ByLayer
370
13
48
1
60
0
100
AcDbLine
10
50.370643
20
-22.189607
30
0
11
50.306597
21
-22.332414
31
0
39
0
210
0
220
0
230
1
0
LINE
5
A3
100
AcDbEntity
8
1
62
256
6
ByLayer
370
13
48
1
60
0
100
AcDbLine
10
50.370643
20
-22.189607
30
0
11
50.866038
21
-22.144175
31
0
39
0
210
0
220
0
230
1
0
LINE
5
A4
100
AcDbEntity
8
1
62
256
6
ByLayer
370
13
48
1
60
0
100
AcDbLine
10
51.685112
20
-22.849506
30
0
11
50.350238
21
-22.706188
31
0
39
0
210
0
220
0
230
1
0
LINE
5
A5
100
AcDbEntity
8
1
62
256
6
ByLayer
370
13
48
1
60
0
100
AcDbLine
10
50.798308
20
-22.295196
30
0
11
50.866038
21
-22.144175
31
0
39
0
210
0
220
0
230
1
0
LINE
5
A6
100
AcDbEntity
8
1
62
256
6
ByLayer
370
13
48
1
60
0
100
AcDbLine
10
20.279208
20
-25
30
0
11
20.279208
21
-9.432108
31
0
39
0
210
0
220
0
230
1
0
LINE
5
A7
100
AcDbEntity
8
1
62
256
6
ByLayer
370
13
48
1
60
0
100
AcDbLine
10
32.878537
20
-21.119386
30
0
11
32.878537
21
-23.79329
31
0
39
0
210
0
220
0
230
1
0
LINE
5
A8
100
AcDbEntity
8
1
62
256
6
ByLayer
370
13
48
1
60
0
100
AcDbLine
10
46.258735
20
-23.138466
30
0
11
20
21
-8.550504
31
0
39
0
210
0
220
0
230
1
0
LINE
5
A9
100
AcDbEntity
8
1
62
256
6
ByLayer
370
13
48
1
60
0
100
AcDbLine
10
49.322644
20
-32.558394
30
0
11
49.270058
21
-30.26041
31
0
39
0
210
0
220
0
230
1
0
LINE
5
AA
100
AcDbEntity
8
1
62
256
6
ByLayer
370
13
48
1
60
0
100
AcDbLine
10
56.95154
20
-24.959361
30
0
11
55.17423
21
-24.81324
31
0
39
0
210
0
220
0
230
1
0
LINE
5
AB
100
AcDbEntity
8
1
62
256
6
ByLayer
370
13
48
1
60
0
100
AcDbLine
10
32.878537
20
-27.776129
30
0
11
32.878537
21
-27.002376
31
0
39
0
210
0
220
0
230
1
0
LINE
5
AC
100
AcDbEntity
8
1
62
256
6
ByLayer
370
13
48
1
60
0
100
AcDbLine
10
42.231045
20
-3.799887
30
0
11
20
21
8.550504
31
0
39
0
210
0
220
0
230
1
0
LINE
5
AD
100
AcDbEntity
8
1
62
256
6
ByLayer
370
13
48
1
60
0
100
AcDbLine
10
8.538675
20
7.529667
30
0
11
8.538675
21
23.83913
31
0
39
0
210
0
220
0
230
1
0
LINE
5
AE
100
AcDbEntity
8
1
62
256
6
ByLayer
370
13
48
1
60
0
100
AcDbLine
10
49.171769
20
-34.223403
30
0
11
48.691475
21
-34.425409
31
0
39
0
210
0
220
0
230
1
0
LINE
5
AF
100
AcDbEntity
8
1
62
256
6
ByLayer
370
13
48
1
60
0
100
AcDbLine
10
58.912677
20
-18.76848
30
0
11
58.481493
21
-12.14279
31
0
39
0
210
0
220
0
230
1
0
LINE
5
B0
100
AcDbEntity
8
1
62
256
6
ByLayer
370
13
48
1
60
0
100
AcDbLine
10
58.830618
20
-17.567581
30
0
11
58.76336
21
-17.56036
31
0
39
0
210
0
220
0
230
1
0
LINE
5
B1
100
AcDbEntity
8
1
62
256
6
ByLayer
370
13
48
1
60
0
100
AcDbLine
10
40.263133
20
-33.732473
30
0
11
48.691475
21
-34.425409
31
0
39
0
210
0
220
0
230
1
0
LINE
5
B2
100
AcDbEntity
8
1
62
256
6
ByLayer
370
13
48
1
60
0
100
AcDbLine
10
49.620784
20
-30.036647
30
0
11
49.270058
21
-30.26041
31
0
39
0
210
0
220
0
230
1
0
LINE
5
B3
100
AcDbEntity
8
1
62
256
6
ByLayer
370
13
48
1
60
0
100
AcDbLine
10
48.30742
20
-28.071943
30
0
11
48.479648
21
-27.947328
31
0
39
0
210
0
220
0
230
1
0
LINE
5
B4
100
AcDbEntity
8
1
62
256
6
ByLayer
370
13
48
1
60
0
100
AcDbLine
10
58.332319
20
-11.180437
30
0
11
59.232728
21
-25.041128
31
0
39
0
210
0
220
0
230
1
0
LINE
5
B5
100
AcDbEntity
8
1
62
256
6
ByLayer
370
13
48
1
60
0
100
AcDbLine
10
49.223744
20
-22.75625
30
0
11
49.218617
21
-22.789412
31
0
39
0
210
0
220
0
230
1
0
LINE
5
B6
100
AcDbEntity
8
1
62
256
6
ByLayer
370
13
48
1
60
0
100
AcDbLine
10
58.691273
20
-16.413737
30
0
11
58.756998
21
-16.420794
31
0
39
0
210
0
220
0
230
1
0
LINE
5
B7
100
AcDbEntity
8
1
62
256
6
ByLayer
370
13
48
1
60
0
100
AcDbLine
10
55.246495
20
-24.7134
30
0
11
55.17423
21
-24.81324
31
0
39
0
210
0
220
0
230
1
0
LINE
5
B8
100
AcDbEntity
8
1
62
256
6
ByLayer
370
13
48
1
60
0
100
AcDbLine
10
50.473948
20
-23.163387
30
0
11
48.883778
21
-23.060219
31
0
39
0
210
0
220
0
230
1
0
LINE
5
B9
100
AcDbEntity
8
1
62
256
6
ByLayer
370
13
48
1
60
0
100
AcDbLine
10
51.539615
20
-22.543875
30
0
11
52.31125
21
-23.299237
31
0
39
0
210
0
220
0
230
1
0
LINE
5
BA
100
AcDbEntity
8
1
62
256
6
ByLayer
370
13
48
1
60
0
100
AcDbLine
10
58.593906
20
-14.200423
30
0
11
58.593146
21
-14.643733
31
0
39
0
210
0
220
0
230
1
0
LINE
5
BB
100
AcDbEntity
8
1
62
256
6
ByLayer
370
13
48
1
60
0
100
AcDbLine
10
26.069651
20
-13.04678
30
0
11
26.069651
21
-25.1
31
0
39
0
210
0
220
0
230
1
0
LINE
5
BC
100
AcDbEntity
8
1
62
256
6
ByLayer
370
13
48
1
60
0
100
AcDbLine
10
11.894338
20
8.055848
30
0
11
11.894338
21
23.666502
31
0
39
0
210
0
220
0
230
1
0
LINE
5
BD
100
AcDbEntity
8
1
62
256
6
ByLayer
370
13
48
1
60
0
100
AcDbLine
10
52.36656
20
-23.519284
30
0
11
53.287524
21
-23.436902
31
0
39
0
210
0
220
0
230
1
0
LINE
5
BE
100
AcDbEntity
8
1
62
256
6
ByLayer
370
13
48
1
60
0
100
AcDbLine
10
48.42967
20
-25.879871
30
0
11
48.333241
21
-24.726301
31
0
39
0
210
0
220
0
230
1
0
LINE
5
BF
100
AcDbEntity
8
1
62
256
6
ByLayer
370
13
48
1
60
0
100
AcDbLine
10
37.210139
20
-31.280285
30
0
11
37.210139
21
-31.803151
31
0
39
0
210
0
220
0
230
1
0
LINE
5
C0
100
AcDbEntity
8
1
62
256
6
ByLayer
370
13
48
1
60
0
100
AcDbLine
10
48.30742
20
-28.071943
30
0
11
48.069878
21
-24.916857
31
0
39
0
210
0
220
0
230
1
0
LINE
5
C1
100
AcDbEntity
8
1
62
256
6
ByLayer
370
13
48
1
60
0
100
AcDbLine
10
8.538675
20
-23.83913
30
0
11
8.538675
21
-7.529667
31
0
39
0
210
0
220
0
230
1
0
LINE
5
C2
100
AcDbEntity
8
1
62
256
6
ByLayer
370
13
48
1
60
0
100
AcDbLine
10
11.461325
20
7.529667
30
0
11
11.461325
21
23.83913
31
0
39
0
210
0
220
0
230
1
0
LINE
5
C3
100
AcDbEntity
8
SK1
62
256
6
ByLayer
370
13
48
1
60
0
100
AcDbLine
10
-0.194977
20
17.370465
30
0
11
-0.194977
21
17.370479
31
0
39
0
210
0
220
0
230
1
0
LINE
5
C5
100
AcDbEntity
8
SK1
62
256
6
ByLayer
370
13
48
1
60
0
100
AcDbLine
10
-1.315435
20
-3.910269
30
0
11
-1.315435
21
3.910272
31
0
39
0
210
0
220
0
230
1
0
LINE
5
C6
100
AcDbEntity
8
1
62
256
6
ByLayer
370
18
48
1
60
0
100
AcDbLine
10
49.156561
20
-28.97852
30
0
11
49.795669
21
-29.762041
31
0
39
0
210
0
220
0
230
1
0
LINE
5
C7
100
AcDbEntity
8
1
62
256
6
ByLayer
370
13
48
1
60
0
100
AcDbLine
10
48.594102
20
-25.208135
30
0
11
48.366485
21
-25.124012
31
0
39
0
210
0
220
0
230
1
0
LINE
5
C8
100
AcDbEntity
8
1
62
256
6
ByLayer
370
18
48
1
60
0
100
AcDbLine
10
52.210918
20
-25.989458
30
0
11
50.406752
21
-25.882321
31
0
39
0
210
0
220
0
230
1
0
LINE
5
C9
100
AcDbEntity
8
1
62
256
6
ByLayer
370
13
48
1
60
0
100
AcDbLine
10
56.052156
20
-34.743704
30
0
11
56.116735
21
-34.049844
31
0
39
0
210
0
220
0
230
1
0
LINE
5
CA
100
AcDbEntity
8
1
62
256
6
ByLayer
370
18
48
1
60
0
100
AcDbLine
10
48.839968
20
-28.481869
30
0
11
48.835192
21
-28.480104
31
0
39
0
210
0
220
0
230
1
0
LINE
5
CB
100
AcDbEntity
8
1
62
256
6
ByLayer
370
13
48
1
60
0
100
AcDbLine
10
51.2219
20
-23.44522
30
0
11
48.696742
21
-23.295268
31
0
39
0
210
0
220
0
230
1
0
LINE
5
CC
100
AcDbEntity
8
1
62
256
6
ByLayer
370
13
48
1
60
0
100
AcDbLine
10
50.428513
20
-25.890363
30
0
11
50.406752
21
-25.882321
31
0
39
0
210
0
220
0
230
1
0
LINE
5
CD
100
AcDbEntity
8
1
62
256
6
ByLayer
370
13
48
1
60
0
100
AcDbLine
10
49.759517
20
-33.566869
30
0
11
51.987382
21
-33.750033
31
0
39
0
210
0
220
0
230
1
0
LINE
5
CE
100
AcDbEntity
8
1
62
256
6
ByLayer
370
18
48
1
60
0
100
AcDbLine
10
59.13732
20
-34.99735
30
0
11
56.052156
21
-34.743704
31
0
39
0
210
0
220
0
230
1
0
LINE
5
CF
100
AcDbEntity
8
1
62
256
6
ByLayer
370
13
48
1
60
0
100
AcDbLine
10
50.182716
20
-27.390342
30
0
11
50.201722
21
-27.397366
31
0
39
0
210
0
220
0
230
1
0
LINE
5
D0
100
AcDbEntity
8
1
62
256
6
ByLayer
370
13
48
1
60
0
100
AcDbLine
10
49.283162
20
-33.927961
30
0
11
49.268586
21
-34.084568
31
0
39
0
210
0
220
0
230
1
0
LINE
5
D1
100
AcDbEntity
8
1
62
256
6
ByLayer
370
18
48
1
60
0
100
AcDbLine
10
53.603886
20
-34.68748
30
0
11
53.742269
21
-33.200638
31
0
39
0
210
0
220
0
230
1
0
LINE
5
D2
100
AcDbEntity
8
1
62
256
6
ByLayer
370
13
48
1
60
0
100
AcDbLine
10
59.526918
20
-26.142386
30
0
11
57.408745
21
-26.016602
31
0
39
0
210
0
220
0
230
1
0
LINE
5
D3
100
AcDbEntity
8
1
62
256
6
ByLayer
370
13
48
1
60
0
100
AcDbLine
10
49.756101
20
-31.293453
30
0
11
49.698012
21
-31.288677
31
0
39
0
210
0
220
0
230
1
0
LINE
5
D4
100
AcDbEntity
8
1
62
256
6
ByLayer
370
18
48
1
60
0
100
AcDbLine
10
53.507637
20
-26.109076
30
0
11
55.180482
21
-26.318373
31
0
39
0
210
0
220
0
230
1
0
LINE
5
D5
100
AcDbEntity
8
1
62
256
6
ByLayer
370
13
48
1
60
0
100
AcDbLine
10
55.011362
20
-33.242242
30
0
11
54.87684
21
-34.687592
31
0
39
0
210
0
220
0
230
1
0
LINE
5
D6
100
AcDbEntity
8
1
62
256
6
ByLayer
370
13
48
1
60
0
100
AcDbLine
10
49.154788
20
-23.762191
30
0
11
49.166506
21
-23.636297
31
0
39
0
210
0
220
0
230
1
0
LINE
5
D7
100
AcDbEntity
8
1
62
256
6
ByLayer
370
18
48
1
60
0
100
AcDbLine
10
49.98656
20
-30.265925
30
0
11
50.001156
21
-30.267125
31
0
39
0
210
0
220
0
230
1
0
LINE
5
D8
100
AcDbEntity
8
1
62
256
6
ByLayer
370
18
48
1
60
0
100
AcDbLine
10
55.318866
20
-24.831531
30
0
11
55.180482
21
-26.318373
31
0
39
0
210
0
220
0
230
1
0
LINE
5
D9
100
AcDbEntity
8
1
62
256
6
ByLayer
370
18
48
1
60
0
100
AcDbLine
10
48.608759
20
-23.430165
30
0
11
49.166506
21
-23.636297
31
0
39
0
210
0
220
0
230
1
0
LINE
5
DA
100
AcDbEntity
8
1
62
256
6
ByLayer
370
13
48
1
60
0
100
AcDbLine
10
56.294712
20
-24.943363
30
0
11
57.034589
21
-24.987299
31
0
39
0
210
0
220
0
230
1
0
LINE
5
DB
100
AcDbEntity
8
1
62
256
6
ByLayer
370
13
48
1
60
0
100
AcDbLine
10
59.245791
20
-25.118607
30
0
11
59.359574
21
-25.125364
31
0
39
0
210
0
220
0
230
1
0
LINE
5
DC
100
AcDbEntity
8
1
62
256
6
ByLayer
370
18
48
1
60
0
100
AcDbLine
10
59.03865
20
-29.313117
30
0
11
59.526918
21
-26.142386
31
0
39
0
210
0
220
0
230
1
0
LINE
5
DD
100
AcDbEntity
8
1
62
256
6
ByLayer
370
13
48
1
60
0
100
AcDbLine
10
48.395497
20
-23.951257
30
0
11
49.416039
21
-24.328429
31
0
39
0
210
0
220
0
230
1
0
LINE
5
DE
100
AcDbEntity
8
1
62
256
6
ByLayer
370
18
48
1
60
0
100
AcDbLine
10
59.359574
20
-25.125364
30
0
11
59.244573
21
-25.082862
31
0
39
0
210
0
220
0
230
1
0
LINE
5
DF
100
AcDbEntity
8
1
62
256
6
ByLayer
370
18
48
1
60
0
100
AcDbLine
10
50.182716
20
-27.390342
30
0
11
50.096099
21
-26.214808
31
0
39
0
210
0
220
0
230
1
0
LINE
5
E0
100
AcDbEntity
8
1
62
256
6
ByLayer
370
13
48
1
60
0
100
AcDbLine
10
50.109524
20
-26.21977
30
0
11
50.096099
21
-26.214808
31
0
39
0
210
0
220
0
230
1
0
LINE
5
E1
100
AcDbEntity
8
1
62
256
6
ByLayer
370
18
48
1
60
0
100
AcDbLine
10
49.59234
20
-34.408901
30
0
11
49.268586
21
-34.084568
31
0
39
0
210
0
220
0
230
1
0
LINE
5
E2
100
AcDbEntity
8
1
62
256
6
ByLayer
370
18
48
1
60
0
100
AcDbLine
10
54.87684
20
-34.687592
30
0
11
53.603886
21
-34.68748
31
0
39
0
210
0
220
0
230
1
0
LINE
5
E3
100
AcDbEntity
8
1
62
256
6
ByLayer
370
18
48
1
60
0
100
AcDbLine
10
53.64602
20
-24.622234
30
0
11
54.44483
21
-24.722176
31
0
39
0
210
0
220
0
230
1
0
LINE
5
E4
100
AcDbEntity
8
1
62
256
6
ByLayer
370
18
48
1
60
0
100
AcDbLine
10
55.169068
20
-24.812789
30
0
11
55.318866
21
-24.831531
31
0
39
0
210
0
220
0
230
1
0
LINE
5
E5
100
AcDbEntity
8
1
62
256
6
ByLayer
370
18
48
1
60
0
100
AcDbLine
10
50.001156
20
-30.267125
30
0
11
49.759517
21
-33.566869
31
0
39
0
210
0
220
0
230
1
0
LINE
5
E6
100
AcDbEntity
8
1
62
256
6
ByLayer
370
18
48
1
60
0
100
AcDbLine
10
52.359649
20
-30.880268
30
0
11
49.98035
21
-30.157601
31
0
39
0
210
0
220
0
230
1
0
LINE
5
E7
100
AcDbEntity
8
1
62
256
6
ByLayer
370
13
48
1
60
0
100
AcDbLine
10
49.628253
20
-32.475592
30
0
11
49.669286
21
-32.478965
31
0
39
0
210
0
220
0
230
1
0
LINE
5
E8
100
AcDbEntity
8
1
62
256
6
ByLayer
370
13
48
1
60
0
100
AcDbLine
10
56.116735
20
-34.049844
30
0
11
56.186665
21
-33.298493
31
0
39
0
210
0
220
0
230
1
0
LINE
5
E9
100
AcDbEntity
8
1
62
256
6
ByLayer
370
18
48
1
60
0
100
AcDbLine
10
59.73782
20
-30.9686
30
0
11
59.99737
21
-34.137582
31
0
39
0
210
0
220
0
230
1
0
LINE
5
EA
100
AcDbEntity
8
1
62
256
6
ByLayer
370
13
48
1
60
0
100
AcDbLine
10
53.507637
20
-26.109076
30
0
11
53.64602
21
-24.622234
31
0
39
0
210
0
220
0
230
1
0
LINE
5
EB
100
AcDbEntity
8
1
62
256
6
ByLayer
370
18
48
1
60
0
100
AcDbLine
10
59.728181
20
-30.850914
30
0
11
59.73782
21
-30.9686
31
0
39
0
210
0
220
0
230
1
0
LINE
5
EC
100
AcDbEntity
8
1
62
256
6
ByLayer
370
13
48
1
60
0
100
AcDbLine
10
49.151853
20
-28.50035
30
0
11
49.147205
21
-28.498632
31
0
39
0
210
0
220
0
230
1
0
LINE
5
ED
100
AcDbEntity
8
1
62
256
6
ByLayer
370
18
48
1
60
0
100
AcDbLine
10
48.835192
20
-28.480104
30
0
11
48.594102
21
-25.208135
31
0
39
0
210
0
220
0
230
1
0
LINE
5
EE
100
AcDbEntity
8
1
62
256
6
ByLayer
370
18
48
1
60
0
100
AcDbLine
10
49.416039
20
-24.328429
30
0
11
52.349301
21
-24.502616
31
0
39
0
210
0
220
0
230
1
0
LINE
5
EF
100
AcDbEntity
8
1
62
256
6
ByLayer
370
18
48
1
60
0
100
AcDbLine
10
56.828929
20
-28.777797
30
0
11
59.050035
21
-29.417713
31
0
39
0
210
0
220
0
230
1
0
LINE
5
F0
100
AcDbEntity
8
1
62
256
6
ByLayer
370
18
48
1
60
0
100
AcDbLine
10
59.100259
20
-29.742938
30
0
11
59.48474
21
-30.393262
31
0
39
0
210
0
220
0
230
1
0
LINE
5
F1
100
AcDbEntity
8
1
62
256
6
ByLayer
370
18
48
1
60
0
100
AcDbLine
10
49.756101
20
-31.293453
30
0
11
49.669286
21
-32.478965
31
0
39
0
210
0
220
0
230
1
0
LINE
5
F2
100
AcDbEntity
8
1
62
256
6
ByLayer
370
18
48
1
60
0
100
AcDbLine
10
49.166294
20
-23.760047
30
0
11
48.589981
21
-23.866563
31
0
39
0
210
0
220
0
230
1
0
LINE
5
F3
100
AcDbEntity
8
1
62
256
6
ByLayer
370
18
48
1
60
0
100
AcDbLine
10
48.643171
20
-28.38502
30
0
11
48.852397
21
-28.589835
31
0
39
0
210
0
220
0
230
1
0
LINE
5
F4
100
AcDbEntity
8
1
62
256
6
ByLayer
370
18
48
1
60
0
100
AcDbLine
10
48.835192
20
-28.480104
30
0
11
49.147205
21
-28.498632
31
0
39
0
210
0
220
0
230
1
0
LINE
5
F5
100
AcDbEntity
8
1
62
256
6
ByLayer
370
13
48
1
60
0
100
AcDbLine
10
52.210918
20
-25.989458
30
0
11
52.349301
21
-24.502616
31
0
39
0
210
0
220
0
230
1
0
LINE
5
F6
100
AcDbEntity
8
1
62
256
6
ByLayer
370
18
48
1
60
0
100
AcDbLine
10
59.052527
20
-29.313941
30
0
11
59.03865
21
-29.313117
31
0
39
0
210
0
220
0
230
1
0
LINE
5
F7
100
AcDbEntity
8
2
62
256
6
ByLayer
370
13
48
1
60
0
100
AcDbLine
10
60
20
32.906502
30
0
11
0
21
32.906502
31
0
39
0
210
0
220
0
230
1
0
LINE
5
F9
100
AcDbEntity
8
2
62
256
6
ByLayer
370
13
48
1
60
0
100
AcDbLine
10
0
20
3.944817
30
0
11
0
21
36.081502
31
0
39
0
210
0
220
0
230
1
0
LINE
5
FA
100
AcDbEntity
8
2
62
256
6
ByLayer
370
13
48
1
60
0
100
AcDbLine
10
60
20
1.5875
30
0
11
60
21
36.081502
31
0
39
0
210
0
220
0
230
1
0
LINE
5
FB
100
AcDbEntity
8
2
62
256
6
ByLayer
370
18
48
1
60
0
100
AcDbLine
10
0
20
32.906502
30
0
11
3.174997
21
33.757241
31
0
39
0
210
0
220
0
230
1
0
LINE
5
FC
100
AcDbEntity
8
2
62
256
6
ByLayer
370
18
48
1
60
0
100
AcDbLine
10
0
20
32.906502
30
0
11
3.175003
21
32.055764
31
0
39
0
210
0
220
0
230
1
0
LINE
5
FD
100
AcDbEntity
8
2
62
256
6
ByLayer
370
18
48
1
60
0
100
AcDbLine
10
3.174997
20
33.757241
30
0
11
3.175003
21
32.055764
31
0
39
0
210
0
220
0
230
1
0
LINE
5
FE
100
AcDbEntity
8
2
62
256
6
ByLayer
370
18
48
1
60
0
100
AcDbLine
10
60
20
32.906502
30
0
11
56.825003
21
32.055764
31
0
39
0
210
0
220
0
230
1
0
LINE
5
FF
100
AcDbEntity
8
2
62
256
6
ByLayer
370
18
48
1
60
0
100
AcDbLine
10
60
20
32.906502
30
0
11
56.824997
21
33.757241
31
0
39
0
210
0
220
0
230
1
0
LINE
5
100
100
AcDbEntity
8
2
62
256
6
ByLayer
370
18
48
1
60
0
100
AcDbLine
10
56.825003
20
32.055764
30
0
11
56.824997
21
33.757241
31
0
39
0
210
0
220
0
230
1
0
MTEXT
5
1D3
100
AcDbEntity
8
SK6
62
256
6
ByLayer
370
18
48
1
60
0
100
AcDbMText
10
-24.52415
20
29.653682
30
0
210
0
220
0
230
1
1
\W0.7215;C5-3-80-LL35060-10C
40
3.5
41
0
44
1.084337
50
0
71
7
72
5
7
iso_b_vert
0
MTEXT
5
1D7
100
AcDbEntity
8
2
62
256
6
ByLayer
370
13
48
1
60
0
100
AcDbMText
10
28.436842
20
34.031502
30
0
210
0
220
0
230
1
1
\W0.6740;60
40
4.5
41
0
44
1.084337
50
0
71
7
72
5
7
iso_b_vert
0
DIMENSION
5
1E5
100
AcDbEntity
8
2
62
256
6
ByLayer
370
13
48
1
60
0
100
AcDbDimension
2
DimnDraft3D1
10
60
20
5
30
0
11
49.38131
21
-43.510399
31
0
70
34
71
5
72
1
41
1
210
0
220
0
230
1
3
Standard
100
AcDb2LineAngularDimension
13
60
23
-35
33
0
14
55.016813
24
-34.590307
34
0
15
60
25
0
35
0
16
46.681299
26
-47.268642
36
0
40
0
0
DIMENSION
5
1FB
100
AcDbEntity
8
SK2
62
256
6
ByLayer
370
13
48
1
60
0
100
AcDbDimension
2
DimnDraft3D2
10
60
20
43.453878
30
0
11
20.773776
21
43.453878
31
0
70
32
71
5
72
1
41
1
210
0
220
0
230
1
3
Standard
100
AcDbAlignedDimension
13
-30
23
1.5875
33
0
14
60
24
1.5875
34
0
50
0
100
AcDbRotatedDimension
1001
ACAD
1000
DSTYLE
1002
{
1070
   279
1070
     0
1070
   172
1070
     1
1070
   173
1070
     1
1070
   340
1005
1D4
1070
   271
1070
     1
1070
   272
1070
     2
1070
    77
1070
     1
1070
    73
1070
     0
1070
   171
1070
     3
1070
   274
1070
     4
1070
   177
1070
   150
1070
   176
1070
     9
1070
   178
1070
    43
1070
    78
1070
     8
1070
    48
1040
-0.005
1070
    41
1041
3.175
1070
   147
1041
2.25
1070
    42
1041
1.5875
1070
    44
1041
3.175
1070
   140
1041
4.5
1070
   343
1005
1E6
1070
   344
1005
1E6
1002
}
0
DIMENSION
5
209
100
AcDbEntity
8
2
62
256
6
ByLayer
370
13
48
1
60
0
100
AcDbDimension
2
DimnDraft3D3
10
92.118938
20
-35
30
0
11
92.118938
21
-23.733807
31
0
70
32
71
5
72
1
41
1
210
0
220
0
230
1
3
Standard
100
AcDbAlignedDimension
13
61.5875
23
0
33
0
14
71.5875
24
-35
34
0
50
90
100
AcDbRotatedDimension
1001
ACAD
1000
DSTYLE
1002
{
1070
    74
1070
     0
1070
   279
1070
     0
1070
   172
1070
     1
1070
   173
1070
     1
1070
   340
1005
1D4
1070
   271
1070
     1
1070
   272
1070
     2
1070
    77
1070
     1
1070
    73
1070
     0
1070
   171
1070
     3
1070
   274
1070
     4
1070
   177
1070
   150
1070
   176
1070
     9
1070
   178
1070
    43
1070
    78
1070
     8
1070
    48
1040
-0.005
1070
    41
1041
3.175
1070
   147
1041
2.25
1070
    42
1041
1.5875
1070
    44
1041
3.175
1070
   140
1041
4.5
1070
   343
1005
1E6
1070
   344
1005
1E6
1002
}
0
DIMENSION
5
217
100
AcDbEntity
8
SK2
62
256
6
ByLayer
370
13
48
1
60
0
100
AcDbDimension
2
DimnDraft3D4
10
-41.085109
20
-25
30
0
11
-41.085109
21
0.469341
31
0
70
32
71
5
72
1
41
1
210
0
220
0
230
1
3
Standard
100
AcDbAlignedDimension
13
-1.5875
23
25
33
0
14
-1.5875
24
-25
34
0
50
90
100
AcDbRotatedDimension
1001
ACAD
1000
DSTYLE
1002
{
1070
    74
1070
     0
1070
   279
1070
     0
1070
   172
1070
     1
1070
   173
1070
     1
1070
   340
1005
1D4
1070
   271
1070
     1
1070
   272
1070
     2
1070
    77
1070
     1
1070
    73
1070
     0
1070
   171
1070
     3
1070
   274
1070
     4
1070
   177
1070
   150
1070
   176
1070
     9
1070
   178
1070
    43
1070
    78
1070
     8
1070
    48
1040
-0.005
1070
    41
1041
3.175
1070
   147
1041
2.25
1070
    42
1041
1.5875
1070
    44
1041
3.175
1070
   140
1041
4.5
1070
   343
1005
1E6
1070
   344
1005
1E6
1002
}
0
ENDSEC
0
SECTION
2
OBJECTS
0
DICTIONARY
5
281
330
0
100
AcDbDictionary
280
0
281
1
3
ACAD_GROUP
350
282
3
ACAD_MLINESTYLE
350
283
0
DICTIONARY
5
282
330
0
100
AcDbDictionary
280
0
281
1
0
DICTIONARY
5
283
330
0
100
AcDbDictionary
280
0
281
1
3
Standard
350
18
0
MLINESTYLE
5
18
330
283
100
AcDbMlineStyle
2
Standard
70
0
3

62
256
51
90
52
90
71
2
49
-0.5
62
256
6
ByLayer
49
0.5
62
256
6
ByLayer
0
RASTERVARIABLES
5
270
330

100
AcDbRasterVariables
90
0
70
1
71
1
72
1
0
ENDSEC
0
EOF
