0
SECTION
2
HEADER
9
$ACADVER
1
AC1015
9
$DWGCODEPAGE
3
ANSI_1252
9
$HANDSEED
5
22b
9
$ANGBASE
50
0
9
$ANGDIR
70
0
9
$ATTMODE
70
1
9
$AUNITS
70
0
9
$AUPREC
70
0
9
$CECOLOR
62
256
9
$CELTSCALE
40
1
9
$CELTYPE
6
ByLayer
9
$CELWEIGHT
370
18
9
$CLAYER
8
0
9
$CMLJUST
70
0
9
$CMLSCALE
40
1
9
$CMLSTYLE
2
Standard
9
$DIMSTYLE
2
Standard
9
$TEXTSIZE
40
0.2
9
$TEXTSTYLE
7
Standard
9
$LUNITS
70
2
9
$LUPREC
70
4
9
$EXTNAMES
290
1
9
$INSUNITS
70
4
9
$LTSCALE
40
1
9
$LWDISPLAY
290
1
9
$PDMODE
70
0
9
$PDSIZE
40
0
9
$PLINEGEN
70
0
0
ENDSEC
0
SECTION
2
CLASSES
0
CLASS
1
RASTERVARIABLES
2
AcDbRasterVariables
3
ISM
90
0
280
0
281
0
0
ENDSEC
0
SECTION
2
TABLES
0
TABLE
2
VPORT
5
221
100
AcDbSymbolTable
0
VPORT
5
1
100
AcDbSymbolTableRecord
100
AcDbViewportTableRecord
2
*Active
70
0
10
0
20
0
11
1
21
1
12
-1
22
1
13
0
23
0
14
0.5
24
0.5
15
10
25
10
16
0
26
0
36
1
17
0
27
0
37
0
0
ENDTAB
0
TABLE
2
LTYPE
5
222
100
AcDbSymbolTable
0
LTYPE
5
14
100
AcDbSymbolTableRecord
100
AcDbLinetypeTableRecord
70
0
2
ByBlock
3

72
65
73
0
40
0
0
LTYPE
5
15
100
AcDbSymbolTableRecord
100
AcDbLinetypeTableRecord
70
0
2
ByLayer
3

72
65
73
0
40
0
0
LTYPE
5
16
100
AcDbSymbolTableRecord
100
AcDbLinetypeTableRecord
70
0
2
CONTINUOUS
3
Solid line
72
65
73
0
40
0
0
LTYPE
5
6A
100
AcDbSymbolTableRecord
100
AcDbLinetypeTableRecord
70
0
2
CENTER
3
____ _ ____ _ ____ _ ____
72
65
73
4
40
47.5
49
22
74
0
49
-8.5
74
0
49
8.5
74
0
49
-8.5
74
0
0
LTYPE
5
6B
100
AcDbSymbolTableRecord
100
AcDbLinetypeTableRecord
70
0
2
DASHED
3
__ __ __ __ __ __ __ __ __
72
65
73
2
40
25.72
49
12.86
74
0
49
-12.86
74
0
0
ENDTAB
0
TABLE
2
LAYER
5
223
100
AcDbSymbolTable
0
LAYER
5
10
100
AcDbSymbolTableRecord
100
AcDbLayerTableRecord
2
0
70
0
62
7
6
CONTINUOUS
290
1
370
-3
390
0
0
LAYER
5
6D
100
AcDbSymbolTableRecord
100
AcDbLayerTableRecord
2
80
70
0
62
-6
6
CONTINUOUS
290
1
370
-3
390
0
0
LAYER
5
6F
100
AcDbSymbolTableRecord
100
AcDbLayerTableRecord
2
81
70
0
62
-3
6
CONTINUOUS
290
1
370
-3
390
0
0
LAYER
5
72
100
AcDbSymbolTableRecord
100
AcDbLayerTableRecord
2
4
70
0
62
-2
6
CENTER
290
1
370
-3
390
0
0
LAYER
5
80
100
AcDbSymbolTableRecord
100
AcDbLayerTableRecord
2
1
70
0
62
4
6
CONTINUOUS
290
1
370
-3
390
0
0
LAYER
5
178
100
AcDbSymbolTableRecord
100
AcDbLayerTableRecord
2
2
70
0
62
7
6
CONTINUOUS
290
1
370
-3
390
0
0
LAYER
5
20d
100
AcDbSymbolTableRecord
100
AcDbLayerTableRecord
2
SK4
70
0
62
2
6
CENTER
290
1
370
-3
390
0
0
LAYER
5
20e
100
AcDbSymbolTableRecord
100
AcDbLayerTableRecord
2
SK1
70
0
62
4
6
CONTINUOUS
290
1
370
-3
390
0
0
LAYER
5
20f
100
AcDbSymbolTableRecord
100
AcDbLayerTableRecord
2
SK6
70
0
62
5
6
CONTINUOUS
290
1
370
-3
390
0
0
LAYER
5
210
100
AcDbSymbolTableRecord
100
AcDbLayerTableRecord
2
SK2
70
0
62
7
6
CONTINUOUS
290
1
370
-3
390
0
0
ENDTAB
0
TABLE
2
STYLE
5
224
100
AcDbSymbolTable
0
STYLE
5
11
100
AcDbSymbolTableRecord
100
AcDbTextStyleTableRecord
2
Standard
3
txt
70
0
71
0
40
0
41
1
42
0
50
0
0
STYLE
5
173
100
AcDbSymbolTableRecord
100
AcDbTextStyleTableRecord
2
iso_b_vert
3
simplex.shx
70
0
71
0
40
0
41
1
42
0
50
0
0
STYLE
5
174
100
AcDbSymbolTableRecord
100
AcDbTextStyleTableRecord
2
DWGDirectTextStyle
3
simplex
70
0
71
0
40
0
41
1
42
0
50
0
0
ENDTAB
0
TABLE
2
DIMSTYLE
5
225
100
AcDbSymbolTable
100
AcDbDimStyleTable
0
DIMSTYLE
105
27
100
AcDbSymbolTableRecord
100
AcDbDimStyleTableRecord
2
Standard
70
0
3
<>
41
0.18
42
0.0625
44
0.18
140
0.18
147
0.09
73
0
74
0
77
1
271
2
275
0
278
52
280
0
340
11
0
ENDTAB
0
TABLE
2
VIEW
5
226
100
AcDbSymbolTable
0
ENDTAB
0
TABLE
2
UCS
5
227
100
AcDbSymbolTable
0
ENDTAB
0
TABLE
2
APPID
5
228
100
AcDbSymbolTable
0
APPID
5
12
100
AcDbSymbolTableRecord
100
AcDbRegAppTableRecord
2
ACAD
70
0
0
ENDTAB
0
TABLE
2
BLOCK_RECORD
5
229
100
AcDbSymbolTable
0
BLOCK_RECORD
5
1F
100
AcDbSymbolTableRecord
100
AcDbBlockTableRecord
2
*Model_Space
340
0
70
0
0
BLOCK_RECORD
5
1B
100
AcDbSymbolTableRecord
100
AcDbBlockTableRecord
2
*Paper_Space
340
0
70
0
0
BLOCK_RECORD
5
23
100
AcDbSymbolTableRecord
100
AcDbBlockTableRecord
2
*Paper_Space0
340
0
70
0
0
BLOCK_RECORD
5
176
100
AcDbSymbolTableRecord
100
AcDbBlockTableRecord
2
DimnDraft3D1
340
0
70
0
0
BLOCK_RECORD
5
181
100
AcDbSymbolTableRecord
100
AcDbBlockTableRecord
2
DimnDraft3D2
340
0
70
0
0
BLOCK_RECORD
5
18D
100
AcDbSymbolTableRecord
100
AcDbBlockTableRecord
2
DimnDraft3D3
340
0
70
0
0
BLOCK_RECORD
5
197
100
AcDbSymbolTableRecord
100
AcDbBlockTableRecord
2
DimnDraft3D44
340
0
70
0
0
BLOCK_RECORD
5
1A1
100
AcDbSymbolTableRecord
100
AcDbBlockTableRecord
2
DimnDraft3D5
340
0
70
0
0
BLOCK_RECORD
5
1AC
100
AcDbSymbolTableRecord
100
AcDbBlockTableRecord
2
DimnDraft3D6
340
0
70
0
0
ENDTAB
0
ENDSEC
0
SECTION
2
BLOCKS
0
BLOCK
5
20
100
AcDbEntity
8
0
100
AcDbBlockBegin
2
*Model_Space
70
0
10
0
20
0
30
0
3
*Model_Space
0
ENDBLK
5
21
100
AcDbEntity
8
0
100
AcDbBlockEnd
0
BLOCK
5
1C
100
AcDbEntity
8
0
100
AcDbBlockBegin
2
*Paper_Space
70
0
10
0
20
0
30
0
3
*Paper_Space
0
ENDBLK
5
1D
100
AcDbEntity
8
0
100
AcDbBlockEnd
0
BLOCK
5
24
100
AcDbEntity
8
0
100
AcDbBlockBegin
2
*Paper_Space0
70
0
10
0
20
0
30
0
3
*Paper_Space0
0
ENDBLK
5
25
100
AcDbEntity
8
0
100
AcDbBlockEnd
0
BLOCK
5
17E
100
AcDbEntity
8
0
100
AcDbBlockBegin
2
DimnDraft3D1
70
0
10
0
20
0
30
0
3
DimnDraft3D1
0
MTEXT
5
177
100
AcDbEntity
8
2
62
256
6
ByLayer
370
13
48
1
60
0
100
AcDbMText
10
64.107533
20
47.677371
30
0
210
0
220
0
230
1
1
\W0.6217;132
40
3.175
41
0
44
1.084337
50
0
71
7
72
5
7
iso_b_vert
0
LINE
5
179
100
AcDbEntity
8
2
62
256
6
ByLayer
370
13
48
1
60
0
100
AcDbLine
10
0
20
1.5875
30
0
11
0
21
50.058621
31
0
39
0
210
0
220
0
230
1
0
LINE
5
17A
100
AcDbEntity
8
2
62
256
6
ByLayer
370
13
48
1
60
0
100
AcDbLine
10
132
20
1.5875
30
0
11
132
21
50.058621
31
0
39
0
210
0
220
0
230
1
0
LINE
5
17B
100
AcDbEntity
8
2
62
256
6
ByLayer
370
13
48
1
60
0
100
AcDbLine
10
0
20
46.883621
30
0
11
132
21
46.883621
31
0
39
0
210
0
220
0
230
1
0
SOLID
5
17C
100
AcDbEntity
8
2
62
256
6
ByLayer
370
13
48
1
60
0
100
AcDbTrace
10
0
20
46.883621
30
0
11
3.174998
21
47.301618
31
0
12
3.175002
22
46.465624
32
0
13
0
23
46.883621
33
0
39
0
210
0
220
0
230
1
0
SOLID
5
17D
100
AcDbEntity
8
2
62
256
6
ByLayer
370
13
48
1
60
0
100
AcDbTrace
10
132
20
46.883621
30
0
11
128.825002
21
46.465624
31
0
12
128.824998
22
47.301618
32
0
13
132
23
46.883621
33
0
39
0
210
0
220
0
230
1
0
ENDBLK
5
17F
100
AcDbEntity
8
0
100
AcDbBlockEnd
0
BLOCK
5
18A
100
AcDbEntity
8
0
100
AcDbBlockBegin
2
DimnDraft3D2
70
0
10
0
20
0
30
0
3
DimnDraft3D2
0
MTEXT
5
182
100
AcDbEntity
8
SK2
62
256
6
ByLayer
370
13
48
1
60
0
100
AcDbMText
10
-44.331217
20
-4.420195
30
0
210
0
220
0
230
1
1
%%c
40
3.175
41
0
44
1.084337
50
90
71
7
72
5
7
iso_b_vert
0
MTEXT
5
184
100
AcDbEntity
8
SK2
62
256
6
ByLayer
370
13
48
1
60
0
100
AcDbMText
10
-44.331217
20
3.4925
30
0
210
0
220
0
230
1
1
\W0.7361;40
40
3.175
41
0
44
1.084337
50
90
71
7
72
5
7
iso_b_vert
0
LINE
5
185
100
AcDbEntity
8
SK2
62
256
6
ByLayer
370
13
48
1
60
0
100
AcDbLine
10
-1.2875
20
20
30
0
11
-45.918717
21
20
31
0
39
0
210
0
220
0
230
1
0
LINE
5
186
100
AcDbEntity
8
SK2
62
256
6
ByLayer
370
13
48
1
60
0
100
AcDbLine
10
-1.2875
20
-20
30
0
11
-45.918717
21
-20
31
0
39
0
210
0
220
0
230
1
0
LINE
5
187
100
AcDbEntity
8
SK2
62
256
6
ByLayer
370
13
48
1
60
0
100
AcDbLine
10
-42.743717
20
20
30
0
11
-42.743717
21
-20
31
0
39
0
210
0
220
0
230
1
0
SOLID
5
188
100
AcDbEntity
8
SK2
62
256
6
ByLayer
370
13
48
1
60
0
100
AcDbTrace
10
-42.743717
20
20
30
0
11
-42.325721
21
16.825002
31
0
12
-43.161714
22
16.824998
32
0
13
-42.743717
23
20
33
0
39
0
210
0
220
0
230
1
0
SOLID
5
189
100
AcDbEntity
8
SK2
62
256
6
ByLayer
370
13
48
1
60
0
100
AcDbTrace
10
-42.743717
20
-20
30
0
11
-43.161714
21
-16.825002
31
0
12
-42.325721
22
-16.824998
32
0
13
-42.743717
23
-20
33
0
39
0
210
0
220
0
230
1
0
ENDBLK
5
18B
100
AcDbEntity
8
0
100
AcDbBlockEnd
0
BLOCK
5
194
100
AcDbEntity
8
0
100
AcDbBlockBegin
2
DimnDraft3D3
70
0
10
0
20
0
30
0
3
DimnDraft3D3
0
MTEXT
5
18E
100
AcDbEntity
8
SK2
62
256
6
ByLayer
370
13
48
1
60
0
100
AcDbMText
10
8.897105
20
-29.133344
30
0
210
0
220
0
230
1
1
\W0.6740;20
40
3.175
41
0
44
1.084337
50
0
71
7
72
5
7
iso_b_vert
0
LINE
5
18F
100
AcDbEntity
8
SK2
62
256
6
ByLayer
370
13
48
1
60
0
100
AcDbLine
10
0
20
-21.2875
30
0
11
0
21
-33.102094
31
0
39
0
210
0
220
0
230
1
0
LINE
5
190
100
AcDbEntity
8
SK2
62
256
6
ByLayer
370
13
48
1
60
0
100
AcDbLine
10
20
20
-21.5875
30
0
11
20
21
-33.102094
31
0
39
0
210
0
220
0
230
1
0
LINE
5
191
100
AcDbEntity
8
SK2
62
256
6
ByLayer
370
13
48
1
60
0
100
AcDbLine
10
0
20
-29.927094
30
0
11
20
21
-29.927094
31
0
39
0
210
0
220
0
230
1
0
SOLID
5
192
100
AcDbEntity
8
SK2
62
256
6
ByLayer
370
13
48
1
60
0
100
AcDbTrace
10
0
20
-29.927094
30
0
11
3.174998
21
-29.509097
31
0
12
3.175002
22
-30.34509
32
0
13
0
23
-29.927094
33
0
39
0
210
0
220
0
230
1
0
SOLID
5
193
100
AcDbEntity
8
SK2
62
256
6
ByLayer
370
13
48
1
60
0
100
AcDbTrace
10
20
20
-29.927094
30
0
11
16.825002
21
-30.34509
31
0
12
16.824998
22
-29.509097
32
0
13
20
23
-29.927094
33
0
39
0
210
0
220
0
230
1
0
ENDBLK
5
195
100
AcDbEntity
8
0
100
AcDbBlockEnd
0
BLOCK
5
198
100
AcDbEntity
8
0
100
AcDbBlockBegin
2
DimnDraft3D44
70
0
10
0
20
0
30
0
3
DimnDraft3D44
0
LINE
5
19A
100
AcDbEntity
8
SK2
62
256
6
ByLayer
370
25
48
1
60
0
100
AcDbLine
10
132
20
-1.5875
30
0
11
132
21
-33.005307
31
0
39
0
210
0
220
0
230
1
0
LINE
5
19B
100
AcDbEntity
8
SK2
62
256
6
ByLayer
370
25
48
1
60
0
100
AcDbLine
10
24.3116
20
-14.0875
30
0
11
24.3116
21
-33.005307
31
0
39
0
210
0
220
0
230
1
0
LINE
5
19C
100
AcDbEntity
8
SK2
62
256
6
ByLayer
370
25
48
1
60
0
100
AcDbLine
10
132
20
-29.830307
30
0
11
24.3116
21
-29.830307
31
0
39
0
210
0
220
0
230
1
0
SOLID
5
19D
100
AcDbEntity
8
SK2
62
256
6
ByLayer
370
25
48
1
60
0
100
AcDbTrace
10
132
20
-29.830307
30
0
11
128.825002
21
-30.248304
31
0
12
128.824998
22
-29.412311
32
0
13
132
23
-29.830307
33
0
39
0
210
0
220
0
230
1
0
SOLID
5
19E
100
AcDbEntity
8
SK2
62
256
6
ByLayer
370
25
48
1
60
0
100
AcDbTrace
10
24.3116
20
-29.830307
30
0
11
27.486598
21
-29.412311
31
0
12
27.486601
22
-30.248304
32
0
13
24.3116
23
-29.830307
33
0
39
0
210
0
220
0
230
1
0
MTEXT
5
19F
100
AcDbEntity
8
SK2
62
256
6
ByLayer
370
13
48
1
60
0
100
AcDbMText
10
74.517083
20
-29.036557
30
0
210
0
220
0
230
1
1
\W0.6713;107,7
40
3.175
41
0
44
1.084337
50
0
71
7
72
5
7
iso_b_vert
0
ENDBLK
5
199
100
AcDbEntity
8
0
100
AcDbBlockEnd
0
BLOCK
5
1A9
100
AcDbEntity
8
0
100
AcDbBlockBegin
2
DimnDraft3D5
70
0
10
0
20
0
30
0
3
DimnDraft3D5
0
MTEXT
5
1A2
100
AcDbEntity
8
SK2
62
256
6
ByLayer
370
13
48
1
60
0
100
AcDbMText
10
156.774209
20
20.329084
30
0
210
0
220
0
230
1
1
%%c
40
3.175
41
0
44
1.084337
50
90
71
7
72
5
7
iso_b_vert
0
MTEXT
5
1A3
100
AcDbEntity
8
SK2
62
256
6
ByLayer
370
13
48
1
60
0
100
AcDbMText
10
156.774209
20
28.24178
30
0
210
0
220
0
230
1
1
\W0.6740;25
40
3.175
41
0
44
1.084337
50
90
71
7
72
5
7
iso_b_vert
0
LINE
5
1A4
100
AcDbEntity
8
SK2
62
256
6
ByLayer
370
13
48
1
60
0
100
AcDbLine
10
131.3875
20
12.5
30
0
11
161.536709
21
12.5
31
0
39
0
210
0
220
0
230
1
0
LINE
5
1A5
100
AcDbEntity
8
SK2
62
256
6
ByLayer
370
13
48
1
60
0
100
AcDbLine
10
131.3875
20
-12.5
30
0
11
161.536709
21
-12.5
31
0
39
0
210
0
220
0
230
1
0
LINE
5
1A6
100
AcDbEntity
8
SK2
62
256
6
ByLayer
370
13
48
1
60
0
100
AcDbLine
10
158.361709
20
-12.5
30
0
11
158.361709
21
31.241319
31
0
39
0
210
0
220
0
230
1
0
SOLID
5
1A7
100
AcDbEntity
8
SK2
62
256
6
ByLayer
370
13
48
1
60
0
100
AcDbTrace
10
158.361709
20
12.5
30
0
11
158.779706
21
9.325002
31
0
12
157.943712
22
9.324998
32
0
13
158.361709
23
12.5
33
0
39
0
210
0
220
0
230
1
0
SOLID
5
1A8
100
AcDbEntity
8
SK2
62
256
6
ByLayer
370
13
48
1
60
0
100
AcDbTrace
10
158.361709
20
-12.5
30
0
11
157.943712
21
-9.325002
31
0
12
158.779706
22
-9.324998
32
0
13
158.361709
23
-12.5
33
0
39
0
210
0
220
0
230
1
0
ENDBLK
5
1AA
100
AcDbEntity
8
0
100
AcDbBlockEnd
0
BLOCK
5
1B1
100
AcDbEntity
8
0
100
AcDbBlockBegin
2
DimnDraft3D6
70
0
10
0
20
0
30
0
3
DimnDraft3D6
0
MTEXT
5
1AD
100
AcDbEntity
8
SK2
62
256
6
ByLayer
370
13
48
1
60
0
100
AcDbMText
10
32.767572
20
28.227843
30
0
210
0
220
0
230
1
1
\W0.5404;3
40
3.175
41
0
44
1.084337
50
53.4236718159191
71
7
72
5
7
iso_b_vert
0
MTEXT
5
1AE
100
AcDbEntity
8
SK2
62
256
6
ByLayer
370
13
48
1
60
0
100
AcDbMText
10
30.303044
20
24.906487
30
0
210
0
220
0
230
1
1
\W0.6380;R
40
3.175
41
0
44
1.084337
50
53.4236718159191
71
7
72
5
7
iso_b_vert
0
LINE
5
1AF
100
AcDbEntity
8
SK2
62
256
6
ByLayer
370
13
48
1
60
0
100
AcDbLine
10
22.52392
20
13.090809
30
0
11
33.778417
21
28.258088
31
0
39
0
210
0
220
0
230
1
0
SOLID
5
1B0
100
AcDbEntity
8
SK2
62
256
6
ByLayer
370
13
48
1
60
0
100
AcDbTrace
10
22.52392
20
13.090809
30
0
11
24.080202
21
15.889616
31
0
12
24.75156
22
15.391456
32
0
13
22.52392
23
13.090809
33
0
39
0
210
0
220
0
230
1
0
ENDBLK
5
1B2
100
AcDbEntity
8
0
100
AcDbBlockEnd
0
ENDSEC
0
SECTION
2
ENTITIES
0
ARC
5
ED
100
AcDbEntity
8
SK1
62
256
6
ByLayer
370
18
48
1
60
0
100
AcDbCircle
39
0
10
0.6
20
-15
30
0
40
1
210
0
220
0
230
-1
100
AcDbArc
50
113.578178
51
126.869898
0
ARC
5
EE
100
AcDbEntity
8
SK1
62
256
6
ByLayer
370
18
48
1
60
0
100
AcDbCircle
39
0
10
0.6
20
15
30
0
40
1
210
0
220
0
230
-1
100
AcDbArc
50
233.130102
51
246.421822
0
ARC
5
EF
100
AcDbEntity
8
1
62
256
6
ByLayer
370
18
48
1
60
0
100
AcDbCircle
39
0
10
-24.3116
20
15.5
30
0
40
3
210
0
220
0
230
-1
100
AcDbArc
50
270
51
345
0
ARC
5
F0
100
AcDbEntity
8
1
62
256
6
ByLayer
370
18
48
1
60
0
100
AcDbCircle
39
0
10
-24.3116
20
-15.5
30
0
40
3
210
0
220
0
230
-1
100
AcDbArc
50
15
51
90
0
ARC
5
F1
100
AcDbEntity
8
1
62
256
6
ByLayer
370
18
48
1
60
0
100
AcDbCircle
39
0
10
129.8
20
-12.3
30
0
40
0.2
210
0
220
0
230
1
100
AcDbArc
50
270
51
0
0
ARC
5
F2
100
AcDbEntity
8
1
62
256
6
ByLayer
370
18
48
1
60
0
100
AcDbCircle
39
0
10
129.8
20
12.3
30
0
40
0.2
210
0
220
0
230
1
100
AcDbArc
50
0
51
90
0
ARC
5
F3
100
AcDbEntity
8
1
62
256
6
ByLayer
370
18
48
1
60
0
100
AcDbCircle
39
0
10
130.2
20
12.3
30
0
40
0.2
210
0
220
0
230
1
100
AcDbArc
50
90
51
180
0
ARC
5
F4
100
AcDbEntity
8
1
62
256
6
ByLayer
370
18
48
1
60
0
100
AcDbCircle
39
0
10
130.2
20
-12.3
30
0
40
0.2
210
0
220
0
230
1
100
AcDbArc
50
180
51
270
0
CIRCLE
5
EC
100
AcDbEntity
8
1
62
256
6
ByLayer
370
18
48
1
60
0
100
AcDbCircle
10
124
20
0
30
0
40
1
39
0
210
0
220
0
230
1
0
ELLIPSE
5
F5
100
AcDbEntity
8
1
62
256
6
ByLayer
370
18
48
1
60
0
100
AcDbEllipse
10
-0.948929
20
0
30
0
11
9.3674178797821
21
19.7417491527503
31
0
210
0
220
0
230
1
40
0.341999
41
-1.0963195274999
42
-0.152726244898346
0
ELLIPSE
5
F6
100
AcDbEntity
8
1
62
256
6
ByLayer
370
18
48
1
60
0
100
AcDbEllipse
10
16.948929
20
0
30
0
11
-9.36741787978202
21
19.7417491527502
31
0
210
0
220
0
230
1
40
0.341999
41
0.152726244898346
42
1.0963195274999
0
ELLIPSE
5
F7
100
AcDbEntity
8
1
62
256
6
ByLayer
370
18
48
1
60
0
100
AcDbEllipse
10
-0.948929
20
0
30
0
11
-9.36741787978205
21
19.7417491527502
31
0
210
0
220
0
230
1
40
0.341999
41
-2.98886640869145
42
-2.0452731260899
0
ELLIPSE
5
F8
100
AcDbEntity
8
1
62
256
6
ByLayer
370
18
48
1
60
0
100
AcDbEllipse
10
16.948929
20
0
30
0
11
9.36741787978217
21
19.7417491527503
31
0
210
0
220
0
230
1
40
0.341999
41
2.0452731260899
42
2.98886640869145
0
POINT
5
6C
100
AcDbEntity
8
80
62
256
6
ByLayer
370
18
48
1
60
0
100
AcDbPoint
10
0
20
0
30
0
39
0
210
0
220
0
230
1
50
360
0
POINT
5
6E
100
AcDbEntity
8
81
62
256
6
ByLayer
370
18
48
1
60
0
100
AcDbPoint
10
132
20
0
30
0
39
0
210
0
220
0
230
1
50
360
0
SPLINE
5
F9
100
AcDbEntity
8
1
62
256
6
ByLayer
370
18
48
1
60
0
100
AcDbSpline
70
4
71
3
72
12
73
8
40
0
40
0
40
0
40
0
40
0.265719942217166
40
0.599036009117993
40
0.761657831218621
40
0.897560774262824
40
1
40
1
40
1
40
1
41
1
10
9.33660254037847
20
19.0245744101322
30
0
41
1
10
9.32739981151922
20
19.0364639229926
30
0
41
1
10
9.29891794835862
20
19.0618545760644
30
0
41
1
10
9.24586548363794
20
19.0922020308427
30
0
41
1
10
9.18004381265056
20
19.1119863348999
30
0
41
1
10
9.12695767963687
20
19.1206333617066
30
0
41
1
10
9.09237493297187
20
19.1221703099562
30
0
41
1
10
9.07679491924314
20
19.1222825906925
30
0
0
SPLINE
5
FA
100
AcDbEntity
8
1
62
256
6
ByLayer
370
18
48
1
60
0
100
AcDbSpline
70
4
71
3
72
13
73
9
40
0
40
0
40
0
40
0
40
0.0076032659669651
40
0.11769582150854
40
0.259929979044482
40
0.484696993414007
40
0.914227471159898
40
1
40
1
40
1
40
1
41
1
10
6.92320508075691
20
19.1222825906925
30
0
41
1
10
6.92208343162644
20
19.1222824818149
30
0
41
1
10
6.90475309307502
20
19.1222238234749
30
0
41
1
10
6.86638514382993
20
19.1199368878566
30
0
41
1
10
6.80537220365145
20
19.1089570197386
30
0
41
1
10
6.72921423963335
20
19.0818012839434
30
0
41
1
10
6.68742097944506
20
19.05077371029
30
0
41
1
10
6.66654748745397
20
19.0283578482605
30
0
41
1
10
6.66339745962159
20
19.0245744101322
30
0
0
SPLINE
5
FB
100
AcDbEntity
8
1
62
256
6
ByLayer
370
18
48
1
60
0
100
AcDbSpline
70
4
71
3
72
12
73
8
40
0
40
0
40
0
40
0
40
0.265719942217318
40
0.599036009118092
40
0.761657831218706
40
0.897560774262866
40
1
40
1
40
1
40
1
41
1
10
6.66339745962154
20
6.16973001948561
30
0
41
1
10
6.6726001884808
20
6.13301213651451
30
0
41
1
10
6.70108205164141
20
6.05402946027784
30
0
41
1
10
6.75413451636212
20
5.95737571232069
30
0
41
1
10
6.81995618734947
20
5.89343195669847
30
0
41
1
10
6.87304232036317
20
5.86526993273031
30
0
41
1
10
6.90762506702815
20
5.86026502058225
30
0
41
1
10
6.92320508075687
20
5.85988980456926
30
0
0
SPLINE
5
FC
100
AcDbEntity
8
1
62
256
6
ByLayer
370
18
48
1
60
0
100
AcDbSpline
70
4
71
3
72
13
73
9
40
0
40
0
40
0
40
0
40
0.0076032659669883
40
0.117695821508561
40
0.259929979044521
40
0.484696993414033
40
0.914227471159926
40
1
40
1
40
1
40
1
41
1
10
9.07679491924309
20
5.85988980456928
30
0
41
1
10
9.07791656837356
20
5.85989017094223
30
0
41
1
10
9.09524690692498
20
5.86008143011441
30
0
41
1
10
9.13361485617009
20
5.86754876580059
30
0
41
1
10
9.19462779634855
20
5.9032750873874
30
0
41
1
10
9.27078576036668
20
5.99082752985897
30
0
41
1
10
9.31257902055492
20
6.08874001225087
30
0
41
1
10
9.33345251254604
20
6.15805995337818
30
0
41
1
10
9.33660254037843
20
6.16973001948557
30
0
0
SPLINE
5
FD
100
AcDbEntity
8
1
62
256
6
ByLayer
370
18
48
1
60
0
100
AcDbSpline
70
4
71
3
72
12
73
8
40
0
40
0
40
0
40
0
40
0.265719942217508
40
0.599036009118182
40
0.761657831218753
40
0.89756077426294
40
1
40
1
40
1
40
1
41
1
10
9.33660254037847
20
-6.16973001948571
30
0
41
1
10
9.32739981151921
20
-6.13301213651459
30
0
41
1
10
9.29891794835859
20
-6.05402946027791
30
0
41
1
10
9.24586548363787
20
-5.95737571232078
30
0
41
1
10
9.18004381265051
20
-5.89343195669858
30
0
41
1
10
9.12695767963682
20
-5.86526993273043
30
0
41
1
10
9.09237493297186
20
-5.8602650205824
30
0
41
1
10
9.07679491924314
20
-5.85988980456942
30
0
0
SPLINE
5
FE
100
AcDbEntity
8
1
62
256
6
ByLayer
370
18
48
1
60
0
100
AcDbSpline
70
4
71
3
72
13
73
9
40
0
40
0
40
0
40
0
40
0.0076032659669655
40
0.117695821508565
40
0.259929979044501
40
0.484696993414045
40
0.914227471159988
40
1
40
1
40
1
40
1
41
1
10
6.92320508075691
20
-5.85988980456942
30
0
41
1
10
6.92208343162644
20
-5.85989017094237
30
0
41
1
10
6.90475309307503
20
-5.86008143011455
30
0
41
1
10
6.86638514382992
20
-5.86754876580074
30
0
41
1
10
6.80537220365145
20
-5.90327508738756
30
0
41
1
10
6.72921423963333
20
-5.99082752985914
30
0
41
1
10
6.68742097944507
20
-6.08874001225106
30
0
41
1
10
6.66654748745397
20
-6.15805995337837
30
0
41
1
10
6.66339745962159
20
-6.16973001948575
30
0
0
SPLINE
5
FF
100
AcDbEntity
8
1
62
256
6
ByLayer
370
18
48
1
60
0
100
AcDbSpline
70
4
71
3
72
12
73
8
40
0
40
0
40
0
40
0
40
0.265719942217288
40
0.599036009118079
40
0.761657831218678
40
0.897560774262867
40
1
40
1
40
1
40
1
41
1
10
6.66339745962154
20
-19.0245744101322
30
0
41
1
10
6.6726001884808
20
-19.0364639229926
30
0
41
1
10
6.7010820516414
20
-19.0618545760644
30
0
41
1
10
6.7541345163621
20
-19.0922020308427
30
0
41
1
10
6.81995618734947
20
-19.1119863349
30
0
41
1
10
6.87304232036316
20
-19.1206333617066
30
0
41
1
10
6.90762506702814
20
-19.1221703099563
30
0
41
1
10
6.92320508075687
20
-19.1222825906926
30
0
0
SPLINE
5
100
100
AcDbEntity
8
1
62
256
6
ByLayer
370
18
48
1
60
0
100
AcDbSpline
70
4
71
3
72
13
73
9
40
0
40
0
40
0
40
0
40
0.007603265966968
40
0.117695821508559
40
0.259929979044517
40
0.48469699341404
40
0.914227471159928
40
1
40
1
40
1
40
1
41
1
10
9.07679491924309
20
-19.1222825906926
30
0
41
1
10
9.07791656837356
20
-19.122282481815
30
0
41
1
10
9.09524690692498
20
-19.1222238234746
30
0
41
1
10
9.13361485617009
20
-19.1199368878568
30
0
41
1
10
9.19462779634856
20
-19.1089570197386
30
0
41
1
10
9.27078576036667
20
-19.0818012839434
30
0
41
1
10
9.31257902055493
20
-19.0507737102901
30
0
41
1
10
9.33345251254604
20
-19.0283578482605
30
0
41
1
10
9.33660254037843
20
-19.0245744101322
30
0
0
SPLINE
5
101
100
AcDbEntity
8
SK1
62
256
6
ByLayer
370
18
48
1
60
0
100
AcDbSpline
70
4
71
3
72
16
73
12
40
0
40
0
40
0
40
0
40
0.0342000354973572
40
0.0605905045752672
40
0.0816285829201537
40
0.102678614001618
40
0.131797822243899
40
0.184012126305108
40
0.347854568511447
40
0.68796249256673
40
1
40
1
40
1
40
1
41
1
10
-0.399999999999911
20
-4.85227456454994
30
0
41
1
10
-0.394081100360578
20
-4.84641475107354
30
0
41
1
10
-0.382427036885915
20
-4.83834528418683
30
0
41
1
10
-0.363733943798237
20
-4.83139115655347
30
0
41
1
10
-0.346531085981341
20
-4.83159527287138
30
0
41
1
10
-0.329380123933329
20
-4.83794108169008
30
0
41
1
10
-0.308694227448353
20
-4.85456705793342
30
0
41
1
10
-0.273475033183062
20
-4.90664052671328
30
0
41
1
10
-0.233585090780696
20
-5.04035814467212
30
0
41
1
10
-0.20722549208387
20
-5.23618930954121
30
0
41
1
10
-0.19969847469452
20
-5.39067777519391
30
0
41
1
10
-0.200744816461058
20
-5.46426413493323
30
0
0
SPLINE
5
102
100
AcDbEntity
8
SK1
62
256
6
ByLayer
370
18
48
1
60
0
100
AcDbSpline
70
4
71
3
72
17
73
13
40
0
40
0
40
0
40
0
40
0.394062956803909
40
0.579269931994641
40
0.673110491487895
40
0.766390439000195
40
0.820057603519885
40
0.859615627003421
40
0.892735432826609
40
0.925829545200736
40
0.975259144426349
40
1
40
1
40
1
40
1
41
1
10
-1.30710678118702
20
-3.58871727154681
30
0
41
1
10
-1.26682045103744
20
-3.82556370750089
30
0
41
1
10
-1.17491195517723
20
-4.15942341036761
30
0
41
1
10
-1.02592092892777
20
-4.52941808068158
30
0
41
1
10
-0.91726035860376
20
-4.72216668343688
30
0
41
1
10
-0.825038923768913
20
-4.83603647986041
30
0
41
1
10
-0.731909403949882
20
-4.907830089528
30
0
41
1
10
-0.654337073360726
20
-4.93888656804779
30
0
41
1
10
-0.582633243030824
20
-4.94424132471018
30
0
41
1
10
-0.506892759955285
20
-4.92696726390557
30
0
41
1
10
-0.446905376920511
20
-4.89164867646768
30
0
41
1
10
-0.41122908616211
20
-4.8627476894002
30
0
41
1
10
-0.399999999999912
20
-4.85227456454996
30
0
0
SPLINE
5
103
100
AcDbEntity
8
SK1
62
256
6
ByLayer
370
18
48
1
60
0
100
AcDbSpline
70
4
71
3
72
16
73
12
40
0
40
0
40
0
40
0
40
0.0458061793984074
40
0.0920319687734718
40
0.125201924585219
40
0.158337043073247
40
0.20843751348042
40
0.3043452881592
40
0.468912637256242
40
0.634261469004893
40
1
40
1
40
1
40
1
41
1
10
-0.399999999999912
20
4.85227506835233
30
0
41
1
10
-0.420700832949043
20
4.87244120540508
30
0
41
1
10
-0.466822839048379
20
4.90598931104072
30
0
41
1
10
-0.543097504775565
20
4.93918676362228
30
0
41
1
10
-0.619486377335265
20
4.94405673004105
30
0
41
1
10
-0.69547355172662
20
4.92599032748423
30
0
41
1
10
-0.794985769578137
20
4.86664880964094
30
0
41
1
10
-0.920653203427967
20
4.72330252222832
30
0
41
1
10
-1.04321510126071
20
4.50113768855481
30
0
41
1
10
-1.18465216025737
20
4.1145500757118
30
0
41
1
10
-1.26739085056728
20
3.80762261001774
30
0
41
1
10
-1.30710678118918
20
3.58871725124909
30
0
0
SPLINE
5
104
100
AcDbEntity
8
SK1
62
256
6
ByLayer
370
18
48
1
60
0
100
AcDbSpline
70
4
71
1
72
4
73
2
40
0
40
0
40
1
40
1
41
1
10
-0.199999999999942
20
5.5470428702547
30
0
41
1
10
-0.200301846969965
20
5.49397740642924
30
0
0
SPLINE
5
105
100
AcDbEntity
8
SK1
62
256
6
ByLayer
370
18
48
1
60
0
100
AcDbSpline
70
4
71
3
72
16
73
12
40
0
40
0
40
0
40
0
40
0.0493849502308077
40
0.0875116804556997
40
0.117936400073409
40
0.148377402694352
40
0.190550337600669
40
0.266222192819707
40
0.50380965526362
40
0.997009422643416
40
1
40
1
40
1
40
1
41
1
10
-0.399999999999965
20
13.8205590132786
30
0
41
1
10
-0.394073606076333
20
13.820600162639
30
0
41
1
10
-0.382406464473853
20
13.8214745590867
30
0
41
1
10
-0.36368822041011
20
13.8242480796256
30
0
41
1
10
-0.346466383218331
20
13.8283158419628
30
0
41
1
10
-0.329271881090486
20
13.8337752991639
30
0
41
1
10
-0.308629200909765
20
13.842324164013
30
0
41
1
10
-0.272151468661333
20
13.8624954491367
30
0
41
1
10
-0.254133913249712
20
13.89137329405
30
0
41
1
10
-0.125875884056777
20
13.9592617211792
30
0
41
1
10
-0.210803476865485
20
13.9396915836633
30
0
41
1
10
-0.211317539165016
20
13.9395727860659
30
0
0
SPLINE
5
106
100
AcDbEntity
8
SK1
62
256
6
ByLayer
370
18
48
1
60
0
100
AcDbSpline
70
4
71
3
72
13
73
9
40
0
40
0
40
0
40
0
40
0.159100309974683
40
0.343735843764981
40
0.528335281660789
40
0.712913164315448
40
0.897478294095563
40
1
40
1
40
1
40
1
41
1
10
-1.69993687531098
20
-14.020100365382
30
0
41
1
10
-1.69994538414022
20
-14.0183895005909
30
0
41
1
10
-1.69996140409278
20
-13.9751346176469
30
0
41
1
10
-1.69997687218163
20
-13.7696428966371
30
0
41
1
10
-1.69998698919573
20
-13.4223478971224
30
0
41
1
10
-1.69999285717934
20
-12.9534421236523
30
0
41
1
10
-1.69999557959139
20
-12.4581892532656
30
0
41
1
10
-1.69999664148501
20
-12.1146762049301
30
0
41
1
10
-1.69999692073963
20
-11.9864743023158
30
0
0
SPLINE
5
107
100
AcDbEntity
8
SK1
62
256
6
ByLayer
370
18
48
1
60
0
100
AcDbSpline
70
4
71
1
72
4
73
2
40
0
40
0
40
1
40
1
41
1
10
-1.69501459340779
20
14.0202240353752
30
0
41
1
10
-1.70247692149313
20
14.0200365557195
30
0
0
SPLINE
5
108
100
AcDbEntity
8
SK1
62
256
6
ByLayer
370
18
48
1
60
0
100
AcDbSpline
70
4
71
2
72
6
73
3
40
0
40
0
40
0
40
1
40
1
40
1
41
1
10
-1.70247692149313
20
14.0200365557195
30
0
41
1
10
-2.10123846074657
20
14.010018277881
30
0
41
1
10
-2.5
20
14.0000000000425
30
0
0
SPLINE
5
109
100
AcDbEntity
8
SK1
62
256
6
ByLayer
370
18
48
1
60
0
100
AcDbSpline
70
4
71
2
72
6
73
3
40
0
40
0
40
0
40
1
40
1
40
1
41
1
10
-2.5
20
-14.0000000000165
30
0
41
1
10
-2.10880412766767
20
-14.0098282019681
30
0
41
1
10
-1.71760825533534
20
-14.0196564039197
30
0
0
SPLINE
5
10A
100
AcDbEntity
8
SK1
62
256
6
ByLayer
370
18
48
1
60
0
100
AcDbSpline
70
4
71
1
72
4
73
2
40
0
40
0
40
1
40
1
41
1
10
-1.71760825533534
20
-14.0196564039197
30
0
41
1
10
-1.69501459340779
20
-14.0202240353492
30
0
0
SPLINE
5
10B
100
AcDbEntity
8
SK1
62
256
6
ByLayer
370
18
48
1
60
0
100
AcDbSpline
70
4
71
3
72
13
73
9
40
0
40
0
40
0
40
0
40
0.114732482762473
40
0.298495508937696
40
0.482203741607765
40
0.667059897806827
40
0.850714839789897
40
1
40
1
40
1
40
1
41
1
10
-1.69996145737016
20
2.58069190327936
30
0
41
1
10
-1.69996431475483
20
2.80965750767172
30
0
41
1
10
-1.69997121461844
20
3.39748694554417
30
0
41
1
10
-1.69998009540474
20
4.31489106972618
30
0
41
1
10
-1.69998715014584
20
5.31718398961387
30
0
41
1
10
-1.69999186348018
20
6.27043405293038
30
0
41
1
10
-1.69999465609303
20
7.11806017201896
30
0
41
1
10
-1.69999587201021
20
7.63592034942421
30
0
41
1
10
-1.69999627454012
20
7.86268334022597
30
0
0
SPLINE
5
10C
100
AcDbEntity
8
SK1
62
256
6
ByLayer
370
18
48
1
60
0
100
AcDbSpline
70
4
71
3
72
14
73
10
40
0
40
0
40
0
40
0
40
0.204234487539548
40
0.310102896854175
40
0.415945396780658
40
0.525102053955855
40
0.634264528387592
40
0.817031555528954
40
1
40
1
40
1
40
1
41
1
10
-1.69996145737016
20
2.58069190327936
30
0
41
1
10
-1.75593909595959
20
2.24281195540064
30
0
41
1
10
-1.82624082869748
20
1.7209418434484
30
0
41
1
10
-1.89388615311578
20
1.00153616331879
30
0
41
1
10
-1.92526164955488
20
0.439249543726392
30
0
41
1
10
-1.93194096393067
20
-0.132838237707682
30
0
41
1
10
-1.90922617373926
20
-0.83903303550607
30
0
41
1
10
-1.83416370970633
20
-1.66415858941529
30
0
41
1
10
-1.75020417376661
20
-2.27805642603999
30
0
41
1
10
-1.69996145715966
20
-2.58068890323811
30
0
0
SPLINE
5
10D
100
AcDbEntity
8
SK1
62
256
6
ByLayer
370
18
48
1
60
0
100
AcDbSpline
70
4
71
2
72
6
73
3
40
0
40
0
40
0
40
1
40
1
40
1
41
1
10
-2.5
20
14.0000000000425
30
0
41
1
10
-12.5002365839528
20
13.7487592491499
30
0
41
1
10
-22.5004731679057
20
13.4975184982574
30
0
0
SPLINE
5
10E
100
AcDbEntity
8
SK1
62
256
6
ByLayer
370
18
48
1
60
0
100
AcDbSpline
70
4
71
2
72
6
73
3
40
0
40
0
40
0
40
1
40
1
40
1
41
1
10
-22.5004731679057
20
-13.4975184982324
30
0
41
1
10
-12.5002365839528
20
-13.7487592491244
30
0
41
1
10
-2.5
20
-14.0000000000165
30
0
0
SPLINE
5
10F
100
AcDbEntity
8
SK1
62
256
6
ByLayer
370
18
48
1
60
0
100
AcDbSpline
70
4
71
1
72
4
73
2
40
0
40
0
40
1
40
1
41
1
10
-1.30710678118653
20
-3.58871727154921
30
0
41
1
10
-1.49999999999989
20
-2.55452633951475
30
0
0
SPLINE
5
110
100
AcDbEntity
8
SK1
62
256
6
ByLayer
370
18
48
1
60
0
100
AcDbSpline
70
4
71
3
72
20
73
16
40
0
40
0
40
0
40
0
40
0.345562919302941
40
0.427025786136921
40
0.454525500906422
40
0.476216827950564
40
0.498049695918619
40
0.506765230469235
40
0.512861980213392
40
0.518986997668402
40
0.52619214051833
40
0.538378134357748
40
0.575740325141693
40
0.745485760641008
40
1
40
1
40
1
40
1
41
1
10
-1.49999999999989
20
-2.55452633951474
30
0
41
1
10
-1.51648554874406
20
-2.42718372094838
30
0
41
1
10
-1.54834688105854
20
-2.27635031761977
30
0
41
1
10
-1.59085503125082
20
-2.1193215259614
30
0
41
1
10
-1.60668834123992
20
-2.07676248177445
30
0
41
1
10
-1.61686212901992
20
-2.05514661308357
30
0
41
1
10
-1.62621983626351
20
-2.04091302265078
30
0
41
1
10
-1.63500333842402
20
-2.03499959782051
30
0
41
1
10
-1.64072453855214
20
-2.03427026943717
30
0
41
1
10
-1.64606028838512
20
-2.03641167600511
30
0
41
1
10
-1.65208772007596
20
-2.0424882645219
30
0
41
1
10
-1.66201353830464
20
-2.06093430484973
30
0
41
1
10
-1.68290631443505
20
-2.14367576118889
30
0
41
1
10
-1.69457912012565
20
-2.32212847656804
30
0
41
1
10
-1.70233122684051
20
-2.48362461057229
30
0
41
1
10
-1.69996145715966
20
-2.58068890323811
30
0
0
SPLINE
5
111
100
AcDbEntity
8
SK1
62
256
6
ByLayer
370
18
48
1
60
0
100
AcDbSpline
70
4
71
3
72
19
73
15
40
0
40
0
40
0
40
0
40
0.324468387590947
40
0.410956847703731
40
0.454322928570292
40
0.469668851440634
40
0.477235712620306
40
0.483552830947824
40
0.489905958553625
40
0.497056051972002
40
0.509094168792749
40
0.546278138475011
40
0.716743128616003
40
1
40
1
40
1
40
1
41
1
10
-1.69996145737016
20
2.58069190327936
30
0
41
1
10
-1.70439481687506
20
2.45656504742783
30
0
41
1
10
-1.69648178924638
20
2.2996401972981
30
0
41
1
10
-1.67708625961683
20
2.12530094970731
30
0
41
1
10
-1.66499441461273
20
2.07022749428379
30
0
41
1
10
-1.65509647176958
20
2.04728811588842
30
0
41
1
10
-1.64900686779819
20
2.03903475012098
30
0
41
1
10
-1.64384774920754
20
2.0351592721522
30
0
41
1
10
-1.63830032020765
20
2.03417606455196
30
0
41
1
10
-1.63163427748031
20
2.03666990200846
30
0
41
1
10
-1.61954014177462
20
2.04879879083039
30
0
41
1
10
-1.58771108115576
20
2.11683795208022
30
0
41
1
10
-1.54845153470479
20
2.2911129910853
30
0
41
1
10
-1.51407272936499
20
2.4506164435976
30
0
41
1
10
-1.49999999999989
20
2.55452876952824
30
0
0
SPLINE
5
112
100
AcDbEntity
8
SK1
62
256
6
ByLayer
370
18
48
1
60
0
100
AcDbSpline
70
4
71
1
72
4
73
2
40
0
40
0
40
1
40
1
41
1
10
-1.49999999999989
20
2.55452876952821
30
0
41
1
10
-1.30710678118653
20
3.58871725126215
30
0
0
SPLINE
5
113
100
AcDbEntity
8
SK1
62
256
6
ByLayer
370
18
48
1
60
0
100
AcDbSpline
70
4
71
2
72
6
73
3
40
0
40
0
40
0
40
1
40
1
40
1
41
1
10
-22.5003908339782
20
13.4978821831766
30
0
41
1
10
-23.250195418368
20
13.0391711292673
30
0
41
1
10
-24
20
12.580456895609
30
0
0
SPLINE
5
114
100
AcDbEntity
8
SK1
62
256
6
ByLayer
370
18
48
1
60
0
100
AcDbSpline
70
4
71
2
72
6
73
3
40
0
40
0
40
0
40
1
40
1
40
1
41
1
10
-24
20
-12.579249793836
30
0
41
1
10
-23.2502022102608
20
-13.0377782396013
30
0
41
1
10
-22.5004044652863
20
-13.4963063088843
30
0
0
SPLINE
5
115
100
AcDbEntity
8
SK1
62
256
6
ByLayer
370
18
48
1
60
0
100
AcDbSpline
70
4
71
3
72
16
73
12
40
0
40
0
40
0
40
0
40
0.626110504454706
40
0.838701343801516
40
0.965252152349321
40
0.982128289662878
40
0.993183087862248
40
0.995190572255263
40
0.996984036378129
40
0.9986517820384
40
1
40
1
40
1
40
1
41
1
10
-1.51875091313556
20
13.8226324269327
30
0
41
1
10
-1.52283712788707
20
13.8208810872055
30
0
41
1
10
-1.53158186756229
20
13.8187674317586
30
0
41
1
10
-1.54589349101528
20
13.8164818049652
30
0
41
1
10
-1.55239229649427
20
13.8158164961426
30
0
41
1
10
-1.55922981862636
20
13.8169459920033
30
0
41
1
10
-1.5612105841537
20
13.8173974240871
30
0
41
1
10
-1.56268660629051
20
13.8178229799925
30
0
41
1
10
-1.56329941409585
20
13.8180110723612
30
0
41
1
10
-1.5638857193638
20
13.8182019124281
30
0
41
1
10
-1.56425016170828
20
13.8183267828202
30
0
41
1
10
-1.56441450415118
20
13.8183842603284
30
0
0
SPLINE
5
116
100
AcDbEntity
8
SK1
62
256
6
ByLayer
370
18
48
1
60
0
100
AcDbSpline
70
4
71
3
72
18
73
14
40
0
40
0
40
0
40
0
40
9.68234534682E-05
40
0.0006495584712788
40
0.0012670256397356
40
0.0027821471892591
40
0.0139718859049886
40
0.0348812913580284
40
0.109814458252947
40
0.235272377753824
40
0.41998130534551
40
0.674485628794762
40
1
40
1
40
1
40
1
41
1
10
-1.56441450415118
20
13.8183842603284
30
0
41
1
10
-1.56445137680016
20
13.8183971683155
30
0
41
1
10
-1.56469702317688
20
13.8184835233009
30
0
41
1
10
-1.56515924644772
20
13.8186514829945
30
0
41
1
10
-1.56602784404178
20
13.8189834684376
30
0
41
1
10
-1.56940167823861
20
13.8203883779526
30
0
41
1
10
-1.57280023378994
20
13.8223967285338
30
0
41
1
10
-1.58055711587687
20
13.8276028236357
30
0
41
1
10
-1.58773749886923
20
13.835087742321
30
0
41
1
10
-1.59694547227717
20
13.8453325080626
30
0
41
1
10
-1.60543729054366
20
13.8552357128356
30
0
41
1
10
-1.61385091946871
20
13.8611170064822
30
0
41
1
10
-1.61885092296528
20
13.8590755989278
30
0
41
1
10
-1.62105761499343
20
13.8557820629873
30
0
0
SPLINE
5
117
100
AcDbEntity
8
SK1
62
256
6
ByLayer
370
18
48
1
60
0
100
AcDbSpline
70
4
71
1
72
4
73
2
40
0
40
0
40
1
40
1
41
1
10
-1.49999999999995
20
13.8251486126234
30
0
41
1
10
-1.50336273708494
20
13.8250555594789
30
0
0
SPLINE
5
118
100
AcDbEntity
8
SK1
62
256
6
ByLayer
370
18
48
1
60
0
100
AcDbSpline
70
4
71
3
72
22
73
18
40
0
40
0
40
0
40
0
40
0.0140683667366217
40
0.0892332665460817
40
0.164395551634574
40
0.239803516023724
40
0.314963035302238
40
0.390122093655359
40
0.465507965345406
40
0.540667680217411
40
0.615828566561221
40
0.690991314130793
40
0.766421613815622
40
0.841591287493308
40
0.91676704414113
40
0.992340381662974
40
1
40
1
40
1
40
1
41
1
10
-1.69999627454012
20
7.86268334022597
30
0
41
1
10
-1.69999637312041
20
7.91488092633672
30
0
41
1
10
-1.69999697372515
20
8.24410811757989
30
0
41
1
10
-1.69999773557013
20
8.82921615751928
30
0
41
1
10
-1.699998269437
20
9.58192761302062
30
0
41
1
10
-1.6999984405575
20
10.2830851421293
30
0
41
1
10
-1.69999830628029
20
10.9315576832095
30
0
41
1
10
-1.69999782757508
20
11.5260339657362
30
0
41
1
10
-1.69999687028134
20
12.0648298803261
30
0
41
1
10
-1.69999520035386
20
12.5459187413993
30
0
41
1
10
-1.69999247763596
20
12.9665129202253
30
0
41
1
10
-1.69998822665159
20
13.3245285236674
30
0
41
1
10
-1.69998182571097
20
13.6156767428254
30
0
41
1
10
-1.69997246241492
20
13.8353589337997
30
0
41
1
10
-1.69995908044295
20
13.9779109936444
30
0
41
1
10
-1.69994596733708
20
14.0183157875337
30
0
41
1
10
-1.69993766092779
20
14.0200928056386
30
0
41
1
10
-1.69993688587214
20
14.0201003693626
30
0
0
SPLINE
5
119
100
AcDbEntity
8
SK1
62
256
6
ByLayer
370
18
48
1
60
0
100
AcDbSpline
70
4
71
3
72
16
73
12
40
0
40
0
40
0
40
0
40
0.0235392749689216
40
0.0376717091212054
40
0.0519447529786971
40
0.0641838169633698
40
0.0818883159081324
40
0.115918915407646
40
0.238611331815329
40
0.725720205023145
40
1
40
1
40
1
40
1
41
1
10
-1.62465007239127
20
13.5637301859808
30
0
41
1
10
-1.6268555162322
20
13.5645192015202
30
0
41
1
10
-1.63081569621192
20
13.5666206181093
30
0
41
1
10
-1.63723891518061
20
13.571090061156
30
0
41
1
10
-1.64280612891612
20
13.5761178195486
30
0
41
1
10
-1.64844920558995
20
13.5824237943133
30
0
41
1
10
-1.65513966789588
20
13.5915339308593
30
0
41
1
10
-1.66769401449552
20
13.6136390645023
30
0
41
1
10
-1.68950076703067
20
13.6777437488159
30
0
41
1
10
-1.696516088852
20
13.7439903130112
30
0
41
1
10
-1.70005010010887
20
13.7965823234521
30
0
41
1
10
-1.69987639962217
20
13.8139891097793
30
0
0
SPLINE
5
11A
100
AcDbEntity
8
SK1
62
256
6
ByLayer
370
18
48
1
60
0
100
AcDbSpline
70
4
71
1
72
4
73
2
40
0
40
0
40
1
40
1
41
1
10
-1.50335337448489
20
-13.8244560820365
30
0
41
1
10
-1.49999999999995
20
-13.8251486130518
30
0
0
SPLINE
5
11B
100
AcDbEntity
8
SK1
62
256
6
ByLayer
370
18
48
1
60
0
100
AcDbSpline
70
4
71
2
72
6
73
3
40
0
40
0
40
0
40
1
40
1
40
1
41
1
10
-1.55995928788274
20
-13.6862588112244
30
0
41
1
10
-1.53762002435267
20
-13.7611319415175
30
0
41
1
10
-1.52359498282825
20
-13.7952261154278
30
0
0
SPLINE
5
11C
100
AcDbEntity
8
SK1
62
256
6
ByLayer
370
18
48
1
60
0
100
AcDbSpline
70
4
71
1
72
4
73
2
40
0
40
0
40
1
40
1
41
1
10
-1.52359498282825
20
-13.7952261154278
30
0
41
1
10
-1.51965217654464
20
-13.8037754659331
30
0
0
SPLINE
5
11D
100
AcDbEntity
8
SK1
62
256
6
ByLayer
370
18
48
1
60
0
100
AcDbSpline
70
4
71
3
72
11
73
7
40
0
40
0
40
0
40
0
40
0.0034341183134578
40
0.0278362955027287
40
0.117782077886833
40
1
40
1
40
1
40
1
41
1
10
-1.60653294573544
20
-13.6021083057444
30
0
41
1
10
-1.60637752965821
20
-13.6020446030624
30
0
41
1
10
-1.60515325321445
20
-13.6015583872232
30
0
41
1
10
-1.60191026090909
20
-13.6012041659862
30
0
41
1
10
-1.5882469347736
20
-13.6076126239482
30
0
41
1
10
-1.57851482801853
20
-13.6156599765471
30
0
41
1
10
-1.58036224726025
20
-13.6297566041791
30
0
0
SPLINE
5
11E
100
AcDbEntity
8
SK1
62
256
6
ByLayer
370
18
48
1
60
0
100
AcDbSpline
70
4
71
3
72
10
73
6
40
0
40
0
40
0
40
0
40
0.0024095381437257
40
0.700831580718639
40
1
40
1
40
1
40
1
41
1
10
-1.66858163945402
20
-13.9162361468973
30
0
41
1
10
-1.66857717754034
20
-13.9162389970256
30
0
41
1
10
-1.66727866707676
20
-13.9170503523629
30
0
41
1
10
-1.66521757266769
20
-13.9112869820943
30
0
41
1
10
-1.66259558001652
20
-13.8945896279154
30
0
41
1
10
-1.66176838055382
20
-13.8886391240986
30
0
0
SPLINE
5
11F
100
AcDbEntity
8
SK1
62
256
6
ByLayer
370
18
48
1
60
0
100
AcDbSpline
70
4
71
3
72
23
73
19
40
0
40
0
40
0
40
0
40
0.134703994330307
40
0.364358089740667
40
0.548072312138373
40
0.723775276353078
40
0.849509165048265
40
0.933355509701027
40
0.981333503110039
40
0.993406786482696
40
0.996775042200615
40
0.997885936577144
40
0.998330552076632
40
0.998725246519729
40
0.999097960293006
40
0.999480901020968
40
0.999903449154988
40
1
40
1
40
1
40
1
41
1
10
-1.66176838055382
20
-13.8886391240986
30
0
41
1
10
-1.66102756581201
20
-13.8832760179172
30
0
41
1
10
-1.65881952260714
20
-13.8663831850664
30
0
41
1
10
-1.65486627275034
20
-13.8316566843778
30
0
41
1
10
-1.64921894178133
20
-13.7817330805793
30
0
41
1
10
-1.64283412539422
20
-13.7307138063144
30
0
41
1
10
-1.63554755003315
20
-13.682587747706
30
0
41
1
10
-1.62776561786749
20
-13.6456135946054
30
0
41
1
10
-1.62098489737533
20
-13.6223565402931
30
0
41
1
10
-1.6146207162398
20
-13.6098865835842
30
0
41
1
10
-1.61138435796332
20
-13.6057444262185
30
0
41
1
10
-1.60978221021075
20
-13.6042113390738
30
0
41
1
10
-1.60895928926409
20
-13.6035443835238
30
0
41
1
10
-1.60837578963982
20
-13.6031206042033
30
0
41
1
10
-1.60778324823225
20
-13.6027403543825
30
0
41
1
10
-1.60719393261814
20
-13.6024116199559
30
0
41
1
10
-1.60678805656765
20
-13.6022185967954
30
0
41
1
10
-1.60657244540976
20
-13.6021250359685
30
0
41
1
10
-1.60653294573544
20
-13.6021083057444
30
0
0
SPLINE
5
120
100
AcDbEntity
8
SK1
62
256
6
ByLayer
370
18
48
1
60
0
100
AcDbSpline
70
4
71
3
72
18
73
14
40
0
40
0
40
0
40
0
40
0.0516932676689895
40
0.167942667045579
40
0.284193192222676
40
0.400447608887743
40
0.516709485120435
40
0.632983865600241
40
0.749279345845691
40
0.865611861750894
40
0.92372443861728
40
0.982078601375584
40
1
40
1
40
1
40
1
41
1
10
-1.69999692073963
20
-11.9864743023158
30
0
41
1
10
-1.69999715437814
20
-11.883910418458
30
0
41
1
10
-1.69999782433319
20
-11.5400969029425
30
0
41
1
10
-1.69999836373944
20
-10.898753644446
30
0
41
1
10
-1.69999844991954
20
-10.0157965915711
30
0
41
1
10
-1.69999797783991
20
-9.03963647706589
30
0
41
1
10
-1.69999668795173
20
-7.97264080154235
30
0
41
1
10
-1.699993973276
20
-6.81628822560885
30
0
41
1
10
-1.69998883647604
20
-5.57169152927562
30
0
41
1
10
-1.69998130948002
20
-4.46140587846812
30
0
41
1
10
-1.69997252499595
20
-3.53013418829437
30
0
41
1
10
-1.69996629114291
20
-2.97619817537775
30
0
41
1
10
-1.69996239430717
20
-2.65619587568568
30
0
41
1
10
-1.69996145716258
20
-2.58068890323808
30
0
0
SPLINE
5
121
100
AcDbEntity
8
SK1
62
256
6
ByLayer
370
18
48
1
60
0
100
AcDbSpline
70
4
71
2
72
6
73
3
40
0
40
0
40
0
40
1
40
1
40
1
41
1
10
-1.49999999999995
20
-13.7870504860687
30
0
41
1
10
-0.949999999999955
20
-13.7870504860687
30
0
41
1
10
-0.399999999999963
20
-13.7870504860687
30
0
0
SPLINE
5
122
100
AcDbEntity
8
SK1
62
256
6
ByLayer
370
18
48
1
60
0
100
AcDbSpline
70
4
71
2
72
6
73
3
40
0
40
0
40
0
40
1
40
1
40
1
41
1
10
-0.399999999999963
20
13.787050293933
30
0
41
1
10
-0.949999999999955
20
13.787050293933
30
0
41
1
10
-1.49999999999995
20
13.787050293933
30
0
0
SPLINE
5
123
100
AcDbEntity
8
SK1
62
256
6
ByLayer
370
18
48
1
60
0
100
AcDbSpline
70
4
71
2
72
6
73
3
40
0
40
0
40
0
40
1
40
1
40
1
41
1
10
-0.200744816461058
20
-5.46426413493323
30
0
41
1
10
-0.19998756677337
20
-5.50576972917532
30
0
41
1
10
-0.199999999999911
20
-5.54704286105715
30
0
0
SPLINE
5
124
100
AcDbEntity
8
SK1
62
256
6
ByLayer
370
18
48
1
60
0
100
AcDbSpline
70
4
71
3
72
16
73
12
40
0
40
0
40
0
40
0
40
0.0421707788687355
40
0.399952716344494
40
0.646898168408735
40
0.770962939591916
40
0.813965475420395
40
0.857372639271984
40
0.897133406594816
40
0.938799544993199
40
1
40
1
40
1
40
1
41
1
10
-0.216255786881502
20
-13.9296106776505
30
0
41
1
10
-0.216903688272853
20
-13.9283927481296
30
0
41
1
10
-0.223433198369528
20
-13.9166755638577
30
0
41
1
10
-0.237865172034387
20
-13.8956082606712
30
0
41
1
10
-0.26804464717553
20
-13.8667049680213
30
0
41
1
10
-0.299244510483302
20
-13.8469040824707
30
0
41
1
10
-0.323138954555011
20
-13.8361398750612
30
0
41
1
10
-0.340977847427413
20
-13.8298084144674
30
0
41
1
10
-0.360554505948121
20
-13.8248326228131
30
0
41
1
10
-0.381089762041407
20
-13.8215768063063
30
0
41
1
10
-0.393441271379835
20
-13.8205832830335
30
0
41
1
10
-0.399999999999966
20
-13.8205593061295
30
0
0
SPLINE
5
125
100
AcDbEntity
8
SK1
62
256
6
ByLayer
370
18
48
1
60
0
100
AcDbSpline
70
4
71
3
72
17
73
13
40
0
40
0
40
0
40
0
40
0.430859289263179
40
0.643863792155957
40
0.789797909837152
40
0.863098549092154
40
0.888713360969829
40
0.914567147032547
40
0.934548097872687
40
0.954469140248284
40
0.987586465586162
40
1
40
1
40
1
40
1
41
1
10
-0.200301846969965
20
5.49397740642924
30
0
41
1
10
-0.198496831085282
20
5.38806425608713
30
0
41
1
10
-0.208842211789572
20
5.22903123022151
30
0
41
1
10
-0.237685633594326
20
5.03106092911067
30
0
41
1
10
-0.267917331201085
20
4.9236744471567
30
0
41
1
10
-0.298847869435578
20
4.86609435379624
30
0
41
1
10
-0.322531138486228
20
4.84260936260632
30
0
41
1
10
-0.339478156214289
20
4.83321539239518
30
0
41
1
10
-0.356706961334853
20
4.83087192143352
30
0
41
1
10
-0.375030998672527
20
4.8345614632187
30
0
41
1
10
-0.38915499697046
20
4.84309028904014
30
0
41
1
10
-0.397751980695762
20
4.85019121227135
30
0
41
1
10
-0.399999999999912
20
4.85227506835228
30
0
0
SPLINE
5
126
100
AcDbEntity
8
1
62
256
6
ByLayer
370
18
48
1
60
0
100
AcDbSpline
70
4
71
3
72
12
73
8
40
0
40
0
40
0
40
0
40
0.0803877123706631
40
0.2813432795699
40
0.494236421170227
40
0.829041466284647
40
1
40
1
40
1
40
1
41
1
10
131.641
20
-12.38
30
0
41
1
10
131.641013476882
20
-12.3799861944927
30
0
41
1
10
131.641944478628
20
-12.3790417650631
30
0
41
1
10
131.649614566706
20
-12.3712588527912
30
0
41
1
10
131.671467138981
20
-12.3491100828145
30
0
41
1
10
131.701142393209
20
-12.3190958093908
30
0
41
1
10
131.724092935496
20
-12.2959537688679
30
0
41
1
10
131.732250000005
20
-12.2877335939083
30
0
0
SPLINE
5
127
100
AcDbEntity
8
1
62
256
6
ByLayer
370
18
48
1
60
0
100
AcDbSpline
70
4
71
3
72
11
73
7
40
0
40
0
40
0
40
0
40
0.248186657667955
40
0.497039963561377
40
0.748107727826598
40
1
40
1
40
1
40
1
41
1
10
131.73225
20
-4.5683454401687
30
0
41
1
10
131.805377571448
20
-4.2672954994748
30
0
41
1
10
131.937905855759
20
-3.66089892394095
30
0
41
1
10
132.096581763782
20
-2.73682557745096
30
0
41
1
10
132.211254211074
20
-1.79927606954585
30
0
41
1
10
132.256273819696
20
-1.16857474579321
30
0
41
1
10
132.271
20
-0.851623924067277
30
0
0
SPLINE
5
128
100
AcDbEntity
8
1
62
256
6
ByLayer
370
18
48
1
60
0
100
AcDbSpline
70
4
71
3
72
14
73
10
40
0
40
0
40
0
40
0
40
0.109342584805099
40
0.182599253080311
40
0.256361666700852
40
0.323283419577467
40
0.426821569309522
40
0.620067492932241
40
1
40
1
40
1
40
1
41
1
10
131.732250000024
20
-5.28980280247635
30
0
41
1
10
131.725687804626
20
-5.297560282759
30
0
41
1
10
131.714353399258
20
-5.30777349770063
30
0
41
1
10
131.696968508131
20
-5.31729474570022
30
0
41
1
10
131.682858246388
20
-5.31822483399799
30
0
41
1
10
131.669531938377
20
-5.3113622573377
30
0
41
1
10
131.655485794365
20
-5.29135768964445
30
0
41
1
10
131.642912628438
20
-5.24024681003285
30
0
41
1
10
131.638980621897
20
-5.19359825871477
30
0
41
1
10
131.641039150681
20
-5.15905671087024
30
0
0
SPLINE
5
129
100
AcDbEntity
8
1
62
256
6
ByLayer
370
18
48
1
60
0
100
AcDbSpline
70
4
71
1
72
4
73
2
40
0
40
0
40
1
40
1
41
1
10
132.271
20
-4.67275427615122
30
0
41
1
10
131.73225
20
-5.28980280249553
30
0
0
SPLINE
5
12A
100
AcDbEntity
8
1
62
256
6
ByLayer
370
18
48
1
60
0
100
AcDbSpline
70
4
71
1
72
4
73
2
40
0
40
0
40
1
40
1
41
1
10
131.73225
20
-6.91573598044248
30
0
41
1
10
132.271
20
-5.3348388956308
30
0
0
SPLINE
5
12B
100
AcDbEntity
8
1
62
256
6
ByLayer
370
18
48
1
60
0
100
AcDbSpline
70
4
71
3
72
14
73
10
40
0
40
0
40
0
40
0
40
0.0907799683165004
40
0.242088607027761
40
0.355695581184206
40
0.469180356968472
40
0.632539634262437
40
0.912014528228864
40
1
40
1
40
1
40
1
41
1
10
131.732250000006
20
-7.35862688269814
30
0
41
1
10
131.727395342641
20
-7.36309200926983
30
0
41
1
10
131.71446466206
20
-7.37348895244816
30
0
41
1
10
131.694483105227
20
-7.38461738912768
30
0
41
1
10
131.675240870768
20
-7.38626791884762
30
0
41
1
10
131.659631515193
20
-7.37846582208443
30
0
41
1
10
131.645717173161
20
-7.35534584137324
30
0
41
1
10
131.641483505943
20
-7.32455555062664
30
0
41
1
10
131.640930912185
20
-7.3020073690269
30
0
41
1
10
131.641004696959
20
-7.29644401145868
30
0
0
SPLINE
5
12C
100
AcDbEntity
8
1
62
256
6
ByLayer
370
18
48
1
60
0
100
AcDbSpline
70
4
71
1
72
4
73
2
40
0
40
0
40
1
40
1
41
1
10
132.271
20
-6.87200042134735
30
0
41
1
10
131.73225
20
-7.35862688270122
30
0
0
SPLINE
5
12D
100
AcDbEntity
8
1
62
256
6
ByLayer
370
18
48
1
60
0
100
AcDbSpline
70
4
71
1
72
4
73
2
40
0
40
0
40
1
40
1
41
1
10
131.73225
20
-8.46522464212636
30
0
41
1
10
132.271
20
-7.28496731472603
30
0
0
SPLINE
5
12E
100
AcDbEntity
8
1
62
256
6
ByLayer
370
18
48
1
60
0
100
AcDbSpline
70
4
71
3
72
13
73
9
40
0
40
0
40
0
40
0
40
0.130307103749859
40
0.323908710135253
40
0.494817830063428
40
0.639384076730592
40
0.866836580659599
40
1
40
1
40
1
40
1
41
1
10
131.732250000002
20
-8.78588444656102
30
0
41
1
10
131.725538358709
20
-8.79161630959275
30
0
41
1
10
131.709210578845
20
-8.80369891602728
30
0
41
1
10
131.683879739629
20
-8.81617024418504
30
0
41
1
10
131.662748752799
20
-8.81515089058575
30
0
41
1
10
131.647921319459
20
-8.80213138192733
30
0
41
1
10
131.64190188829
20
-8.78097308248884
30
0
41
1
10
131.640842118157
20
-8.76353317479932
30
0
41
1
10
131.641005277412
20
-8.75656778647347
30
0
0
SPLINE
5
12F
100
AcDbEntity
8
1
62
256
6
ByLayer
370
18
48
1
60
0
100
AcDbSpline
70
4
71
1
72
4
73
2
40
0
40
0
40
1
40
1
41
1
10
132.271
20
-8.33601505857005
30
0
41
1
10
131.73225
20
-8.78588444656179
30
0
0
SPLINE
5
130
100
AcDbEntity
8
1
62
256
6
ByLayer
370
18
48
1
60
0
100
AcDbSpline
70
4
71
1
72
4
73
2
40
0
40
0
40
1
40
1
41
1
10
131.73225
20
-9.61080914034506
30
0
41
1
10
132.271
20
-8.63458114276067
30
0
0
SPLINE
5
131
100
AcDbEntity
8
1
62
256
6
ByLayer
370
18
48
1
60
0
100
AcDbSpline
70
4
71
3
72
13
73
9
40
0
40
0
40
0
40
0
40
0.167240470114902
40
0.362015125418144
40
0.558092142198144
40
0.727011612384589
40
0.966209183304106
40
1
40
1
40
1
40
1
41
1
10
131.732250000001
20
-9.85439706008715
30
0
41
1
10
131.723889335677
20
-9.8613627454527
30
0
41
1
10
131.706408324265
20
-9.87407950636639
30
0
41
1
10
131.68002421729
20
-9.88764270671051
30
0
41
1
10
131.658795135828
20
-9.88901189296134
30
0
41
1
10
131.6446930768
20
-9.87779025991198
30
0
41
1
10
131.641211388179
20
-9.86196359465081
30
0
41
1
10
131.640991603466
20
-9.85073318741976
30
0
41
1
10
131.641000369587
20
-9.84930867733357
30
0
0
SPLINE
5
132
100
AcDbEntity
8
1
62
256
6
ByLayer
370
18
48
1
60
0
100
AcDbSpline
70
4
71
1
72
4
73
2
40
0
40
0
40
1
40
1
41
1
10
132.271
20
-9.41429255559945
30
0
41
1
10
131.73225
20
-9.85439706008743
30
0
0
SPLINE
5
133
100
AcDbEntity
8
1
62
256
6
ByLayer
370
18
48
1
60
0
100
AcDbSpline
70
4
71
1
72
4
73
2
40
0
40
0
40
1
40
1
41
1
10
131.73225
20
-10.4857177352157
30
0
41
1
10
132.271
20
-9.63930673052837
30
0
0
SPLINE
5
134
100
AcDbEntity
8
1
62
256
6
ByLayer
370
18
48
1
60
0
100
AcDbSpline
70
4
71
3
72
12
73
8
40
0
40
0
40
0
40
0
40
0.200181900414808
40
0.414389023711284
40
0.630028444429564
40
0.815820213355149
40
1
40
1
40
1
40
1
41
1
10
131.73225
20
-10.6724653818778
30
0
41
1
10
131.722350770154
20
-10.6807412049953
30
0
41
1
10
131.70285888451
20
-10.6951744690972
30
0
41
1
10
131.67465213726
20
-10.7105743498161
30
0
41
1
10
131.653651694288
20
-10.7131954498675
30
0
41
1
10
131.642892486012
20
-10.7035659632027
30
0
41
1
10
131.640813208929
20
-10.6928448237194
30
0
41
1
10
131.641001095817
20
-10.6861577308969
30
0
0
SPLINE
5
135
100
AcDbEntity
8
1
62
256
6
ByLayer
370
18
48
1
60
0
100
AcDbSpline
70
4
71
1
72
4
73
2
40
0
40
0
40
1
40
1
41
1
10
132.271
20
-10.2295484547522
30
0
41
1
10
131.73225
20
-10.672465381878
30
0
0
SPLINE
5
136
100
AcDbEntity
8
1
62
256
6
ByLayer
370
18
48
1
60
0
100
AcDbSpline
70
4
71
1
72
4
73
2
40
0
40
0
40
1
40
1
41
1
10
131.73225
20
-11.1538289619795
30
0
41
1
10
132.271
20
-10.3995902313265
30
0
0
SPLINE
5
137
100
AcDbEntity
8
1
62
256
6
ByLayer
370
18
48
1
60
0
100
AcDbSpline
70
4
71
3
72
12
73
8
40
0
40
0
40
0
40
0
40
0.231480102558276
40
0.462123651622541
40
0.694380869318139
40
0.893083043456552
40
1
40
1
40
1
40
1
41
1
10
131.73225
20
-11.2946400224578
30
0
41
1
10
131.720885070444
20
-11.3043276532536
30
0
41
1
10
131.699624154611
20
-11.3206922624265
30
0
41
1
10
131.670008557052
20
-11.3384806826822
30
0
41
1
10
131.649612503947
20
-11.3428461089969
30
0
41
1
10
131.64197820197
20
-11.3355180180312
30
0
41
1
10
131.640943894421
20
-11.328156115494
30
0
41
1
10
131.641000908894
20
-11.3251321151027
30
0
0
SPLINE
5
138
100
AcDbEntity
8
1
62
256
6
ByLayer
370
18
48
1
60
0
100
AcDbSpline
70
4
71
1
72
4
73
2
40
0
40
0
40
1
40
1
41
1
10
132.271
20
-10.8412830815283
30
0
41
1
10
131.73225
20
-11.2946400224579
30
0
0
SPLINE
5
139
100
AcDbEntity
8
1
62
256
6
ByLayer
370
18
48
1
60
0
100
AcDbSpline
70
4
71
1
72
4
73
2
40
0
40
0
40
1
40
1
41
1
10
131.73225
20
-11.6507735624537
30
0
41
1
10
132.271
20
-10.9663904596632
30
0
0
SPLINE
5
13A
100
AcDbEntity
8
1
62
256
6
ByLayer
370
18
48
1
60
0
100
AcDbSpline
70
4
71
3
72
12
73
8
40
0
40
0
40
0
40
0
40
0.261950786946849
40
0.506820095807973
40
0.753518780296037
40
0.962397106901304
40
1
40
1
40
1
40
1
41
1
10
131.73225
20
-11.7520750995911
30
0
41
1
10
131.719457057234
20
-11.7633166138184
30
0
41
1
10
131.696605576442
20
-11.7818651776419
30
0
41
1
10
131.665919907703
20
-11.802547568362
30
0
41
1
10
131.646386257931
20
-11.8091517857849
30
0
41
1
10
131.641309208965
20
-11.8038910801297
30
0
41
1
10
131.640994952719
20
-11.7991200467866
30
0
41
1
10
131.641000064647
20
-11.7983365902929
30
0
0
SPLINE
5
13B
100
AcDbEntity
8
1
62
256
6
ByLayer
370
18
48
1
60
0
100
AcDbSpline
70
4
71
1
72
4
73
2
40
0
40
0
40
1
40
1
41
1
10
132.271
20
-11.282649339563
30
0
41
1
10
131.73225
20
-11.7520750995911
30
0
0
SPLINE
5
13C
100
AcDbEntity
8
1
62
256
6
ByLayer
370
18
48
1
60
0
100
AcDbSpline
70
4
71
1
72
4
73
2
40
0
40
0
40
1
40
1
41
1
10
131.73225
20
-11.9978393343988
30
0
41
1
10
132.271
20
-11.3686834087366
30
0
0
SPLINE
5
13D
100
AcDbEntity
8
1
62
256
6
ByLayer
370
18
48
1
60
0
100
AcDbSpline
70
4
71
3
72
12
73
8
40
0
40
0
40
0
40
0
40
0.290983322097181
40
0.547294733627023
40
0.762967008538249
40
0.979204130115366
40
1
40
1
40
1
40
1
41
1
10
131.73225
20
-12.0635253991507
30
0
41
1
10
131.718037755791
20
-12.0765081431125
30
0
41
1
10
131.693730705964
20
-12.0975441788766
30
0
41
1
10
131.663921863982
20
-12.1203534086869
30
0
41
1
10
131.645762867167
20
-12.1301210985049
30
0
41
1
10
131.641179049469
20
-12.1283485956463
30
0
41
1
10
131.640999091514
20
-12.1252304965168
30
0
41
1
10
131.641000006457
20
-12.1249394678571
30
0
0
SPLINE
5
13E
100
AcDbEntity
8
1
62
256
6
ByLayer
370
18
48
1
60
0
100
AcDbSpline
70
4
71
1
72
4
73
2
40
0
40
0
40
1
40
1
41
1
10
132.271
20
-11.5731557228463
30
0
41
1
10
131.73225
20
-12.0635253991507
30
0
0
SPLINE
5
13F
100
AcDbEntity
8
1
62
256
6
ByLayer
370
18
48
1
60
0
100
AcDbSpline
70
4
71
1
72
4
73
2
40
0
40
0
40
1
40
1
41
1
10
131.73225
20
-12.2078160530262
30
0
41
1
10
132.271
20
-11.6235624996115
30
0
0
SPLINE
5
140
100
AcDbEntity
8
1
62
256
6
ByLayer
370
18
48
1
60
0
100
AcDbSpline
70
4
71
3
72
11
73
7
40
0
40
0
40
0
40
0
40
0.375255716024033
40
0.626534127373166
40
0.879705804923617
40
1
40
1
40
1
40
1
41
1
10
131.73225
20
-12.240139744524
30
0
41
1
10
131.713599904727
20
-12.2579945218035
30
0
41
1
10
131.686559076416
20
-12.2830317744962
30
0
41
1
10
131.655379930047
20
-12.3099063869531
30
0
41
1
10
131.642747442315
20
-12.3184440401272
30
0
41
1
10
131.641019956689
20
-12.3175646030442
30
0
41
1
10
131.641000074585
20
-12.3167157001201
30
0
0
SPLINE
5
141
100
AcDbEntity
8
1
62
256
6
ByLayer
370
18
48
1
60
0
100
AcDbSpline
70
4
71
1
72
4
73
2
40
0
40
0
40
1
40
1
41
1
10
132.271
20
-11.7240219485873
30
0
41
1
10
131.73225
20
-12.240139744524
30
0
0
SPLINE
5
142
100
AcDbEntity
8
1
62
256
6
ByLayer
370
18
48
1
60
0
100
AcDbSpline
70
4
71
1
72
4
73
2
40
0
40
0
40
1
40
1
41
1
10
131.73225
20
-12.2877335939139
30
0
41
1
10
132.271
20
-11.7406323473937
30
0
0
SPLINE
5
143
100
AcDbEntity
8
1
62
256
6
ByLayer
370
18
48
1
60
0
100
AcDbSpline
70
4
71
3
72
11
73
7
40
0
40
0
40
0
40
0
40
0.363287111290101
40
0.632578006283337
40
0.855518608046197
40
1
40
1
40
1
40
1
41
1
10
131.73225
20
12.2877335939139
30
0
41
1
10
131.714309344944
20
12.305822034923
30
0
41
1
10
131.68702195137
20
12.3333607295675
30
0
41
1
10
131.656736184429
20
12.3640364762848
30
0
41
1
10
131.643242804848
20
12.3777243681483
30
0
41
1
10
131.641081162625
20
12.3799169186725
30
0
41
1
10
131.641
20
12.38
30
0
0
SPLINE
5
144
100
AcDbEntity
8
1
62
256
6
ByLayer
370
18
48
1
60
0
100
AcDbSpline
70
4
71
1
72
4
73
2
40
0
40
0
40
1
40
1
41
1
10
132.271
20
11.7406323473937
30
0
41
1
10
131.73225
20
12.2877335939139
30
0
0
SPLINE
5
145
100
AcDbEntity
8
1
62
256
6
ByLayer
370
18
48
1
60
0
100
AcDbSpline
70
4
71
1
72
4
73
2
40
0
40
0
40
1
40
1
41
1
10
131.73225
20
12.240139744524
30
0
41
1
10
132.271
20
11.7240219485874
30
0
0
SPLINE
5
146
100
AcDbEntity
8
1
62
256
6
ByLayer
370
18
48
1
60
0
100
AcDbSpline
70
4
71
3
72
11
73
7
40
0
40
0
40
0
40
0
40
0.349370500438198
40
0.638637293876408
40
0.8691069038913
40
1
40
1
40
1
40
1
41
1
10
131.73225
20
12.2078160530262
30
0
41
1
10
131.715068446075
20
12.2262074939963
30
0
41
1
10
131.687476651846
20
12.2565788574195
30
0
41
1
10
131.656718127131
20
12.2925596197082
30
0
41
1
10
131.643107492336
20
12.3109044679547
30
0
41
1
10
131.641097696745
20
12.3156176109689
30
0
41
1
10
131.641000066466
20
12.3167166460803
30
0
0
SPLINE
5
147
100
AcDbEntity
8
1
62
256
6
ByLayer
370
18
48
1
60
0
100
AcDbSpline
70
4
71
1
72
4
73
2
40
0
40
0
40
1
40
1
41
1
10
132.271
20
11.6235624996115
30
0
41
1
10
131.73225
20
12.2078160530262
30
0
0
SPLINE
5
148
100
AcDbEntity
8
1
62
256
6
ByLayer
370
18
48
1
60
0
100
AcDbSpline
70
4
71
1
72
4
73
2
40
0
40
0
40
1
40
1
41
1
10
131.73225
20
12.0635253991507
30
0
41
1
10
132.271
20
11.5731557228463
30
0
0
SPLINE
5
149
100
AcDbEntity
8
1
62
256
6
ByLayer
370
18
48
1
60
0
100
AcDbSpline
70
4
71
3
72
11
73
7
40
0
40
0
40
0
40
0
40
0.33308795331635
40
0.644813062810287
40
0.882871267765043
40
1
40
1
40
1
40
1
41
1
10
131.73225
20
11.9978393343988
30
0
41
1
10
131.715897099759
20
12.0165880876396
30
0
41
1
10
131.687920771365
20
12.0502576314821
30
0
41
1
10
131.65664016433
20
12.0921054132819
30
0
41
1
10
131.642933659516
20
12.1156284907934
30
0
41
1
10
131.641099965024
20
12.1229478471312
30
0
41
1
10
131.641000150798
20
12.1249009548997
30
0
0
SPLINE
5
14A
100
AcDbEntity
8
1
62
256
6
ByLayer
370
18
48
1
60
0
100
AcDbSpline
70
4
71
1
72
4
73
2
40
0
40
0
40
1
40
1
41
1
10
132.271
20
11.3686834087366
30
0
41
1
10
131.73225
20
11.9978393343988
30
0
0
SPLINE
5
14B
100
AcDbEntity
8
1
62
256
6
ByLayer
370
18
48
1
60
0
100
AcDbSpline
70
4
71
1
72
4
73
2
40
0
40
0
40
1
40
1
41
1
10
131.73225
20
11.7520750995911
30
0
41
1
10
132.271
20
11.282649339563
30
0
0
SPLINE
5
14C
100
AcDbEntity
8
1
62
256
6
ByLayer
370
18
48
1
60
0
100
AcDbSpline
70
4
71
3
72
11
73
7
40
0
40
0
40
0
40
0
40
0.442944605750177
40
0.734057798056087
40
0.961334347078453
40
1
40
1
40
1
40
1
41
1
10
131.73225
20
11.6507735624537
30
0
41
1
10
131.709952755053
20
11.6783205754549
30
0
41
1
10
131.679343684123
20
11.7199159520568
30
0
41
1
10
131.649582559341
20
11.7690068420046
30
0
41
1
10
131.641519733339
20
11.7903216832456
30
0
41
1
10
131.641013824334
20
11.7973188971531
30
0
41
1
10
131.641000283227
20
11.7982829874517
30
0
0
SPLINE
5
14D
100
AcDbEntity
8
1
62
256
6
ByLayer
370
18
48
1
60
0
100
AcDbSpline
70
4
71
1
72
4
73
2
40
0
40
0
40
1
40
1
41
1
10
132.271
20
10.9663904596632
30
0
41
1
10
131.73225
20
11.6507735624537
30
0
0
SPLINE
5
14E
100
AcDbEntity
8
1
62
256
6
ByLayer
370
18
48
1
60
0
100
AcDbSpline
70
4
71
1
72
4
73
2
40
0
40
0
40
1
40
1
41
1
10
131.73225
20
11.2946400224578
30
0
41
1
10
132.271
20
10.8412830815283
30
0
0
SPLINE
5
14F
100
AcDbEntity
8
1
62
256
6
ByLayer
370
18
48
1
60
0
100
AcDbSpline
70
4
71
3
72
11
73
7
40
0
40
0
40
0
40
0
40
0.480609355804178
40
0.770968203727937
40
0.996743393635325
40
1
40
1
40
1
40
1
41
1
10
131.73225
20
11.1538289619795
30
0
41
1
10
131.707756501219
20
11.1868640022235
30
0
41
1
10
131.676074980672
20
11.2356212246286
30
0
41
1
10
131.64712723428
20
11.2935532216921
30
0
41
1
10
131.641040607634
20
11.3172665208874
30
0
41
1
10
131.641000135915
20
11.3252530445039
30
0
41
1
10
131.641000006299
20
11.3253662263497
30
0
0
SPLINE
5
150
100
AcDbEntity
8
1
62
256
6
ByLayer
370
18
48
1
60
0
100
AcDbSpline
70
4
71
1
72
4
73
2
40
0
40
0
40
1
40
1
41
1
10
132.271
20
10.3995902313265
30
0
41
1
10
131.73225
20
11.1538289619795
30
0
0
SPLINE
5
151
100
AcDbEntity
8
1
62
256
6
ByLayer
370
18
48
1
60
0
100
AcDbSpline
70
4
71
1
72
4
73
2
40
0
40
0
40
1
40
1
41
1
10
131.73225
20
10.672465381878
30
0
41
1
10
132.271
20
10.2295484547522
30
0
0
SPLINE
5
152
100
AcDbEntity
8
1
62
256
6
ByLayer
370
18
48
1
60
0
100
AcDbSpline
70
4
71
3
72
10
73
6
40
0
40
0
40
0
40
0
40
0.52691746595695
40
0.808564407963988
40
1
40
1
40
1
40
1
41
1
10
131.73225
20
10.4857177352157
30
0
41
1
10
131.705076955431
20
10.5263368124714
30
0
41
1
10
131.672737278581
20
10.5839549418005
30
0
41
1
10
131.645469848686
20
10.6514284861078
30
0
41
1
10
131.641483416014
20
10.6767751808335
30
0
41
1
10
131.641000443446
20
10.6862930857991
30
0
0
SPLINE
5
153
100
AcDbEntity
8
1
62
256
6
ByLayer
370
18
48
1
60
0
100
AcDbSpline
70
4
71
1
72
4
73
2
40
0
40
0
40
1
40
1
41
1
10
132.271
20
9.63930673052837
30
0
41
1
10
131.73225
20
10.4857177352157
30
0
0
SPLINE
5
154
100
AcDbEntity
8
1
62
256
6
ByLayer
370
18
48
1
60
0
100
AcDbSpline
70
4
71
1
72
4
73
2
40
0
40
0
40
1
40
1
41
1
10
131.73225
20
9.85439706008743
30
0
41
1
10
132.271
20
9.41429255559945
30
0
0
SPLINE
5
155
100
AcDbEntity
8
1
62
256
6
ByLayer
370
18
48
1
60
0
100
AcDbSpline
70
4
71
3
72
10
73
6
40
0
40
0
40
0
40
0
40
0.545679595672341
40
0.822040952921989
40
1
40
1
40
1
40
1
41
1
10
131.73225
20
9.61080914034506
30
0
41
1
10
131.704102118531
20
9.65864874010422
30
0
41
1
10
131.671578235156
20
9.72653713101796
30
0
41
1
10
131.645330471689
20
9.80611535457746
30
0
41
1
10
131.641527699899
20
9.83687106211837
30
0
41
1
10
131.641007037684
20
9.84835937641311
30
0
0
SPLINE
5
156
100
AcDbEntity
8
1
62
256
6
ByLayer
370
18
48
1
60
0
100
AcDbSpline
70
4
71
1
72
4
73
2
40
0
40
0
40
1
40
1
41
1
10
132.271
20
8.63458114276067
30
0
41
1
10
131.73225
20
9.61080914034506
30
0
0
SPLINE
5
157
100
AcDbEntity
8
1
62
256
6
ByLayer
370
18
48
1
60
0
100
AcDbSpline
70
4
71
1
72
4
73
2
40
0
40
0
40
1
40
1
41
1
10
131.73225
20
8.78588444656179
30
0
41
1
10
132.271
20
8.33601505857005
30
0
0
SPLINE
5
158
100
AcDbEntity
8
1
62
256
6
ByLayer
370
18
48
1
60
0
100
AcDbSpline
70
4
71
3
72
10
73
6
40
0
40
0
40
0
40
0
40
0.645741552554987
40
0.977472555209762
40
1
40
1
40
1
40
1
41
1
10
131.73225
20
8.46522464212637
30
0
41
1
10
131.697315858198
20
8.53382923621455
30
0
41
1
10
131.661112963558
20
8.63044234160288
30
0
41
1
10
131.641463524552
20
8.7262875338564
30
0
41
1
10
131.641011251805
20
8.7556970564151
30
0
41
1
10
131.641000449002
20
8.75755697857318
30
0
0
SPLINE
5
159
100
AcDbEntity
8
1
62
256
6
ByLayer
370
18
48
1
60
0
100
AcDbSpline
70
4
71
1
72
4
73
2
40
0
40
0
40
1
40
1
41
1
10
132.271
20
7.28496731472603
30
0
41
1
10
131.73225
20
8.46522464212637
30
0
0
SPLINE
5
15A
100
AcDbEntity
8
1
62
256
6
ByLayer
370
18
48
1
60
0
100
AcDbSpline
70
4
71
1
72
4
73
2
40
0
40
0
40
1
40
1
41
1
10
131.73225
20
7.35862688270121
30
0
41
1
10
132.271
20
6.87200042134735
30
0
0
SPLINE
5
15B
100
AcDbEntity
8
1
62
256
6
ByLayer
370
18
48
1
60
0
100
AcDbSpline
70
4
71
2
72
6
73
3
40
0
40
0
40
0
40
1
40
1
40
1
41
1
10
131.73225
20
6.91573598044249
30
0
41
1
10
131.647341250578
20
7.12057655727495
30
0
41
1
10
131.64100051912
20
7.29764901403886
30
0
0
SPLINE
5
15C
100
AcDbEntity
8
1
62
256
6
ByLayer
370
18
48
1
60
0
100
AcDbSpline
70
4
71
1
72
4
73
2
40
0
40
0
40
1
40
1
41
1
10
132.271
20
5.3348388956308
30
0
41
1
10
131.73225
20
6.91573598044249
30
0
0
SPLINE
5
15D
100
AcDbEntity
8
1
62
256
6
ByLayer
370
18
48
1
60
0
100
AcDbSpline
70
4
71
1
72
4
73
2
40
0
40
0
40
1
40
1
41
1
10
131.73225
20
5.28980280249555
30
0
41
1
10
132.271
20
4.67275427615122
30
0
0
SPLINE
5
15E
100
AcDbEntity
8
1
62
256
6
ByLayer
370
18
48
1
60
0
100
AcDbSpline
70
4
71
3
72
10
73
6
40
0
40
0
40
0
40
0
40
0.525934623504237
40
0.824622818104746
40
1
40
1
40
1
40
1
41
1
10
131.73225
20
4.5683454401687
30
0
41
1
10
131.706220797638
20
4.67396709893657
30
0
41
1
10
131.674366906058
20
4.83778484638592
30
0
41
1
10
131.644503167958
20
5.03646938686784
30
0
41
1
10
131.641208193085
20
5.12715336956575
30
0
41
1
10
131.641027593363
20
5.16040734629456
30
0
0
SPLINE
5
15F
100
AcDbEntity
8
1
62
256
6
ByLayer
370
18
48
1
60
0
100
AcDbSpline
70
4
71
3
72
11
73
7
40
0
40
0
40
0
40
0
40
0.248044878400227
40
0.496900885465193
40
0.748091501936513
40
1
40
1
40
1
40
1
41
1
10
132.271
20
0.851623924067277
30
0
41
1
10
132.256504058157
20
1.16372341807578
30
0
41
1
10
132.212263697489
20
1.78685316374695
30
0
41
1
10
132.099071724144
20
2.71989445377738
30
0
41
1
10
131.940419097326
20
3.64892858913388
30
0
41
1
10
131.80648277038
20
4.26277359037254
30
0
41
1
10
131.73225
20
4.5683454401687
30
0
0
SPLINE
5
160
100
AcDbEntity
8
1
62
256
6
ByLayer
370
18
48
1
60
0
100
AcDbSpline
70
4
71
3
72
14
73
10
40
0
40
0
40
0
40
0
40
0.267120466906939
40
0.575029237593566
40
0.670372036100255
40
0.743598405040165
40
0.817203495589852
40
0.884392368803756
40
1
40
1
40
1
40
1
41
1
10
131.641027593363
20
5.16040734629456
30
0
41
1
10
131.640074209011
20
5.18399829609843
30
0
41
1
10
131.64280075747
20
5.23110439232335
30
0
41
1
10
131.651390926651
20
5.28535142767696
30
0
41
1
10
131.669601020314
20
5.31133846389615
30
0
41
1
10
131.682704964574
20
5.31829009007506
30
0
41
1
10
131.696754376304
20
5.31724730425011
30
0
41
1
10
131.71401352582
20
5.30807017581153
30
0
41
1
10
131.725334917772
20
5.29799592781705
30
0
41
1
10
131.73225
20
5.28980280249555
30
0
0
SPLINE
5
161
100
AcDbEntity
8
1
62
256
6
ByLayer
370
18
48
1
60
0
100
AcDbSpline
70
4
71
3
72
10
73
6
40
0
40
0
40
0
40
0
40
0.103288009068171
40
0.550967073567645
40
1
40
1
40
1
40
1
41
1
10
131.641039150681
20
-5.15905671087024
30
0
41
1
10
131.641432470523
20
-5.13946378441799
30
0
41
1
10
131.645099443266
20
-5.03450250879099
30
0
41
1
10
131.672470237674
20
-4.83600437177487
30
0
41
1
10
131.709256831476
20
-4.6582743889595
30
0
41
1
10
131.73225
20
-4.56834544016871
30
0
0
SPLINE
5
162
100
AcDbEntity
8
1
62
256
6
ByLayer
370
18
48
1
60
0
100
AcDbSpline
70
4
71
3
72
14
73
10
40
0
40
0
40
0
40
0
40
0.0390141540525789
40
0.337072844639803
40
0.490534566057347
40
0.618613520646313
40
0.747478255881249
40
0.861074918597936
40
1
40
1
40
1
40
1
41
1
10
131.64100051912
20
7.29764901403886
30
0
41
1
10
131.640988669223
20
7.30008174002103
30
0
41
1
10
131.641216609858
20
7.3208430539651
30
0
41
1
10
131.64426479956
20
7.34977579165449
30
0
41
1
10
131.657011557995
20
7.3753623663644
30
0
41
1
10
131.671943896654
20
7.3858780725401
30
0
41
1
10
131.690336405742
20
7.38558726106177
30
0
41
1
10
131.711284997506
20
7.3757241746976
30
0
41
1
10
131.72477625305
20
7.36558081082204
30
0
41
1
10
131.73225
20
7.35862688270121
30
0
0
SPLINE
5
163
100
AcDbEntity
8
1
62
256
6
ByLayer
370
18
48
1
60
0
100
AcDbSpline
70
4
71
2
72
6
73
3
40
0
40
0
40
0
40
1
40
1
40
1
41
1
10
131.641004696959
20
-7.29644401145868
30
0
41
1
10
131.649760437173
20
-7.11785984629924
30
0
41
1
10
131.73225
20
-6.91573598044247
30
0
0
SPLINE
5
164
100
AcDbEntity
8
1
62
256
6
ByLayer
370
18
48
1
60
0
100
AcDbSpline
70
4
71
3
72
13
73
9
40
0
40
0
40
0
40
0
40
0.197408238358968
40
0.433517811964354
40
0.583072919887689
40
0.732915986575603
40
0.91410026674257
40
1
40
1
40
1
40
1
41
1
10
131.641000449002
20
8.75755697857318
30
0
41
1
10
131.640670355196
20
8.76802344691722
30
0
41
1
10
131.642840548213
20
8.78800347088268
30
0
41
1
10
131.652740403298
20
8.80952052104318
30
0
41
1
10
131.671174644796
20
8.81675099498914
30
0
41
1
10
131.693111653422
20
8.81252282735976
30
0
41
1
10
131.714483797195
20
8.79994491151436
30
0
41
1
10
131.727901031238
20
8.78956030944887
30
0
41
1
10
131.732250000033
20
8.78588444655162
30
0
0
SPLINE
5
165
100
AcDbEntity
8
1
62
256
6
ByLayer
370
18
48
1
60
0
100
AcDbSpline
70
4
71
3
72
10
73
6
40
0
40
0
40
0
40
0
40
0.158074141884703
40
0.61872332098089
40
1
40
1
40
1
40
1
41
1
10
131.641005277412
20
-8.75656778647347
30
0
41
1
10
131.641509504893
20
-8.74313839359063
30
0
41
1
10
131.646174533825
20
-8.68935801067675
30
0
41
1
10
131.677340766494
20
-8.58857099215641
30
0
41
1
10
131.712930301786
20
-8.5044024755659
30
0
41
1
10
131.73225
20
-8.46522464212637
30
0
0
SPLINE
5
166
100
AcDbEntity
8
1
62
256
6
ByLayer
370
18
48
1
60
0
100
AcDbSpline
70
4
71
3
72
13
73
9
40
0
40
0
40
0
40
0
40
0.149091420999595
40
0.342542673938177
40
0.537436452174653
40
0.709329403864551
40
0.925170870121925
40
1
40
1
40
1
40
1
41
1
10
131.641007037684
20
9.84835937641311
30
0
41
1
10
131.64081143298
20
9.85490965216278
30
0
41
1
10
131.642105620229
20
9.86817996442208
30
0
41
1
10
131.649602776803
20
9.88424598499666
30
0
41
1
10
131.666558963067
20
9.88994274271424
30
0
41
1
10
131.69148433463
20
9.88290254486097
30
0
41
1
10
131.714287821628
20
9.86854415598925
30
0
41
1
10
131.728542939606
20
9.85744887478989
30
0
41
1
10
131.732250000003
20
9.85439706008651
30
0
0
SPLINE
5
167
100
AcDbEntity
8
1
62
256
6
ByLayer
370
18
48
1
60
0
100
AcDbSpline
70
4
71
3
72
10
73
6
40
0
40
0
40
0
40
0
40
0.231487098965093
40
0.670623613354806
40
1
40
1
40
1
40
1
41
1
10
131.641000369587
20
-9.84930867733357
30
0
41
1
10
131.641884898263
20
-9.83403972200337
30
0
41
1
10
131.648550907168
20
-9.78772811218212
30
0
41
1
10
131.682448406439
20
-9.70356230246134
30
0
41
1
10
131.715730844019
20
-9.63922941005738
30
0
41
1
10
131.73225
20
-9.61080914034506
30
0
0
SPLINE
5
168
100
AcDbEntity
8
1
62
256
6
ByLayer
370
18
48
1
60
0
100
AcDbSpline
70
4
71
3
72
13
73
9
40
0
40
0
40
0
40
0
40
0.0474900768900241
40
0.262176384730762
40
0.478365749104849
40
0.665736863585979
40
0.907797407895767
40
1
40
1
40
1
40
1
41
1
10
131.641000443446
20
10.6862930857991
30
0
41
1
10
131.640985630284
20
10.6879440243469
30
0
41
1
10
131.641330344465
20
10.6966292438395
30
0
41
1
10
131.645715173158
20
10.7092414453006
30
0
41
1
10
131.661908261157
20
10.7135427262871
30
0
41
1
10
131.687321347321
20
10.7047460876007
30
0
41
1
10
131.711867750692
20
10.6886761888625
30
0
41
1
10
131.727786622405
20
10.6761589357035
30
0
41
1
10
131.732250000005
20
10.6724653818764
30
0
0
SPLINE
5
169
100
AcDbEntity
8
1
62
256
6
ByLayer
370
18
48
1
60
0
100
AcDbSpline
70
4
71
3
72
11
73
7
40
0
40
0
40
0
40
0
40
0.0483188377386262
40
0.321676692793121
40
0.760544060736383
40
1
40
1
40
1
40
1
41
1
10
131.641001095817
20
-10.6861577308969
30
0
41
1
10
131.641036468705
20
-10.6838642190676
30
0
41
1
10
131.64185702375
20
-10.6681603154257
30
0
41
1
10
131.655423283263
20
-10.6213509600996
30
0
41
1
10
131.690032029038
20
-10.5530332434686
30
0
41
1
10
131.720478739271
20
-10.5035635793041
30
0
41
1
10
131.732249999995
20
-10.4857177352159
30
0
0
SPLINE
5
16A
100
AcDbEntity
8
1
62
256
6
ByLayer
370
18
48
1
60
0
100
AcDbSpline
70
4
71
3
72
12
73
8
40
0
40
0
40
0
40
0
40
0.213484102384136
40
0.432168674349121
40
0.628620877039147
40
0.893256422038517
40
1
40
1
40
1
40
1
41
1
10
131.641000006299
20
11.3253662263497
30
0
41
1
10
131.640891758172
20
11.3315613616354
30
0
41
1
10
131.643993477246
20
11.3402431446011
30
0
41
1
10
131.658815665029
20
11.3420594990345
30
0
41
1
10
131.683909325859
20
11.3310850013292
30
0
41
1
10
131.709758570348
20
11.3130368323155
30
0
41
1
10
131.727142031516
20
11.2989573809917
30
0
41
1
10
131.732250000006
20
11.2946400224557
30
0
0
SPLINE
5
16B
100
AcDbEntity
8
1
62
256
6
ByLayer
370
18
48
1
60
0
100
AcDbSpline
70
4
71
3
72
11
73
7
40
0
40
0
40
0
40
0
40
0.114908749294124
40
0.39785391283406
40
0.8284897535631
40
1
40
1
40
1
40
1
41
1
10
131.641000908894
20
-11.3251321151027
30
0
41
1
10
131.641159414802
20
-11.3209561428857
30
0
41
1
10
131.643297472435
20
-11.3052649910631
30
0
41
1
10
131.661986939533
20
-11.260521717925
30
0
41
1
10
131.696422459188
20
-11.2042674299904
30
0
41
1
10
131.723938246981
20
-11.165168813805
30
0
41
1
10
131.73225
20
-11.1538289619795
30
0
0
SPLINE
5
16C
100
AcDbEntity
8
1
62
256
6
ByLayer
370
18
48
1
60
0
100
AcDbSpline
70
4
71
3
72
11
73
7
40
0
40
0
40
0
40
0
40
0.143612839063687
40
0.415788673195538
40
0.813100232698575
40
1
40
1
40
1
40
1
41
1
10
131.641000064647
20
-11.7983365902929
30
0
41
1
10
131.641196935113
20
-11.7945588509816
30
0
41
1
10
131.643826138242
20
-11.7819032940043
30
0
41
1
10
131.663209853271
20
-11.7444605532104
30
0
41
1
10
131.696704781508
20
-11.6962103252866
30
0
41
1
10
131.723221037978
20
-11.6620103753937
30
0
41
1
10
131.73225
20
-11.6507735624533
30
0
0
SPLINE
5
16D
100
AcDbEntity
8
1
62
256
6
ByLayer
370
18
48
1
60
0
100
AcDbSpline
70
4
71
3
72
12
73
8
40
0
40
0
40
0
40
0
40
0.170659557561955
40
0.38745126176446
40
0.589665989295094
40
0.871605397554957
40
1
40
1
40
1
40
1
41
1
10
131.641000283227
20
11.7982829874517
30
0
41
1
10
131.640952071143
20
11.8019637786855
30
0
41
1
10
131.643266227553
20
11.8076075159008
30
0
41
1
10
131.655736710408
20
11.8068897417832
30
0
41
1
10
131.68000598631
20
11.7938342496183
30
0
41
1
10
131.707117248023
20
11.7734439340102
30
0
41
1
10
131.726121115317
20
11.7574269990051
30
0
41
1
10
131.732250000011
20
11.7520750995866
30
0
0
SPLINE
5
16E
100
AcDbEntity
8
1
62
256
6
ByLayer
370
18
48
1
60
0
100
AcDbSpline
70
4
71
3
72
12
73
8
40
0
40
0
40
0
40
0
40
0.087540420870783
40
0.306019354289522
40
0.511065355130463
40
0.794892985150591
40
1
40
1
40
1
40
1
41
1
10
131.641000150798
20
12.1249009548997
30
0
41
1
10
131.640988042082
20
12.1261473956113
30
0
41
1
10
131.641964833701
20
12.1294168157099
30
0
41
1
10
131.649924908218
20
12.1284642409282
30
0
41
1
10
131.671321865837
20
12.1151467098039
30
0
41
1
10
131.700224472356
20
12.091987134192
30
0
41
1
10
131.722390423519
20
12.0725084367706
30
0
41
1
10
131.73225
20
12.0635253991507
30
0
0
SPLINE
5
16F
100
AcDbEntity
8
1
62
256
6
ByLayer
370
18
48
1
60
0
100
AcDbSpline
70
4
71
3
72
11
73
7
40
0
40
0
40
0
40
0
40
0.16525299931745
40
0.425192053112741
40
0.791705976488182
40
1
40
1
40
1
40
1
41
1
10
131.641000006457
20
-12.1249394678571
30
0
41
1
10
131.64122382811
20
-12.1220767441879
30
0
41
1
10
131.644217894085
20
-12.1125470916562
30
0
41
1
10
131.663709176019
20
-12.0817929418507
30
0
41
1
10
131.696333454391
20
-12.0399776818316
30
0
41
1
10
131.722209659759
20
-12.0093765331493
30
0
41
1
10
131.73225
20
-11.997839334396
30
0
0
SPLINE
5
170
100
AcDbEntity
8
1
62
256
6
ByLayer
370
18
48
1
60
0
100
AcDbSpline
70
4
71
3
72
12
73
8
40
0
40
0
40
0
40
0
40
0.108028543480888
40
0.317243002895845
40
0.52744422694134
40
0.845783473658981
40
1
40
1
40
1
40
1
41
1
10
131.641000066466
20
12.3167166460803
30
0
41
1
10
131.641008273107
20
12.3174868749118
30
0
41
1
10
131.642338118565
20
12.3183801046858
30
0
41
1
10
131.651559704708
20
12.3126771171367
30
0
41
1
10
131.674465875053
20
12.2937605336001
30
0
41
1
10
131.703339524004
20
12.2674796497939
30
0
41
1
10
131.724907147914
20
12.2471450854789
30
0
41
1
10
131.732250000007
20
12.2401397445188
30
0
0
SPLINE
5
171
100
AcDbEntity
8
1
62
256
6
ByLayer
370
18
48
1
60
0
100
AcDbSpline
70
4
71
3
72
12
73
8
40
0
40
0
40
0
40
0
40
0.0917271355055282
40
0.28689118208724
40
0.569760075617019
40
0.965249206079288
40
1
40
1
40
1
40
1
41
1
10
131.641000074585
20
-12.3167157001201
30
0
41
1
10
131.64103710015
20
-12.3159829169107
30
0
41
1
10
131.642176033522
20
-12.3126941274602
30
0
41
1
10
131.651614824072
20
-12.2990246027895
30
0
41
1
10
131.67923473731
20
-12.2658008367054
30
0
41
1
10
131.710484089983
20
-12.2312239130685
30
0
41
1
10
131.730609710998
20
-12.2095761454434
30
0
41
1
10
131.73225
20
-12.2078160530262
30
0
0
INSERT
5
1A0
100
AcDbEntity
8
SK2
62
256
6
ByLayer
370
25
48
1
60
0
100
AcDbBlockReference
2
DimnDraft3D44
10
0
20
0
30
0
41
1
42
1
43
1
50
0
210
0
220
0
230
1
0
LINE
5
70
100
AcDbEntity
8
81
62
256
6
ByLayer
370
18
48
1
60
0
100
AcDbLine
10
132
20
0
30
0
11
145.2
21
0
31
0
39
0
210
0
220
0
230
1
0
LINE
5
71
100
AcDbEntity
8
4
62
256
6
ByLayer
370
18
48
0.05
60
0
100
AcDbLine
10
0
20
0
30
0
11
132
21
0
31
0
39
0
210
0
220
0
230
1
0
LINE
5
73
100
AcDbEntity
8
SK4
62
256
6
ByLayer
370
18
48
0.05
60
0
100
AcDbLine
10
-29
20
0
30
0
11
138
21
0
31
0
39
0
210
0
220
0
230
1
0
LINE
5
75
100
AcDbEntity
8
80
62
256
6
ByLayer
370
18
48
1
60
0
100
AcDbLine
10
0
20
0
30
0
11
-13.2
21
0
31
0
39
0
210
0
220
0
230
1
0
LINE
5
76
100
AcDbEntity
8
SK1
62
256
6
ByLayer
370
18
48
1
60
0
100
AcDbLine
10
140
20
-2.156854
30
0
11
136
21
-2.156854
31
0
39
0
210
0
220
0
230
1
0
LINE
5
78
100
AcDbEntity
8
SK1
62
256
6
ByLayer
370
18
48
1
60
0
100
AcDbLine
10
136
20
-9.156854
30
0
11
140
21
-9.156854
31
0
39
0
210
0
220
0
230
1
0
LINE
5
79
100
AcDbEntity
8
SK1
62
256
6
ByLayer
370
18
48
1
60
0
100
AcDbLine
10
136
20
-3.656854
30
0
11
132.271
21
-3.656854
31
0
39
0
210
0
220
0
230
1
0
LINE
5
7A
100
AcDbEntity
8
SK1
62
256
6
ByLayer
370
18
48
1
60
0
100
AcDbLine
10
132.271
20
-7.656854
30
0
11
136
21
-7.656854
31
0
39
0
210
0
220
0
230
1
0
LINE
5
7B
100
AcDbEntity
8
SK1
62
256
6
ByLayer
370
18
48
1
60
0
100
AcDbLine
10
140
20
9.156854
30
0
11
136
21
9.156854
31
0
39
0
210
0
220
0
230
1
0
LINE
5
7C
100
AcDbEntity
8
SK1
62
256
6
ByLayer
370
18
48
1
60
0
100
AcDbLine
10
136
20
2.156854
30
0
11
140
21
2.156854
31
0
39
0
210
0
220
0
230
1
0
LINE
5
7D
100
AcDbEntity
8
SK1
62
256
6
ByLayer
370
18
48
1
60
0
100
AcDbLine
10
136
20
7.656854
30
0
11
132.271
21
7.656854
31
0
39
0
210
0
220
0
230
1
0
LINE
5
7E
100
AcDbEntity
8
SK1
62
256
6
ByLayer
370
18
48
1
60
0
100
AcDbLine
10
132.271
20
3.656854
30
0
11
136
21
3.656854
31
0
39
0
210
0
220
0
230
1
0
LINE
5
7F
100
AcDbEntity
8
1
62
256
6
ByLayer
370
18
48
1
60
0
100
AcDbLine
10
20
20
20
30
0
11
0.3
21
20
31
0
39
0
210
0
220
0
230
1
0
LINE
5
81
100
AcDbEntity
8
1
62
256
6
ByLayer
370
18
48
1
60
0
100
AcDbLine
10
0.3
20
-20
30
0
11
20
21
-20
31
0
39
0
210
0
220
0
230
1
0
LINE
5
82
100
AcDbEntity
8
1
62
256
6
ByLayer
370
18
48
1
60
0
100
AcDbLine
10
6.923205
20
19.122283
30
0
11
9.076795
21
19.122283
31
0
39
0
210
0
220
0
230
1
0
LINE
5
83
100
AcDbEntity
8
1
62
256
6
ByLayer
370
18
48
1
60
0
100
AcDbLine
10
9.076795
20
5.85989
30
0
11
6.923205
21
5.85989
31
0
39
0
210
0
220
0
230
1
0
LINE
5
84
100
AcDbEntity
8
1
62
256
6
ByLayer
370
18
48
1
60
0
100
AcDbLine
10
6.923205
20
-5.85989
30
0
11
9.076795
21
-5.85989
31
0
39
0
210
0
220
0
230
1
0
LINE
5
85
100
AcDbEntity
8
1
62
256
6
ByLayer
370
18
48
1
60
0
100
AcDbLine
10
9.076795
20
-19.122283
30
0
11
6.923205
21
-19.122283
31
0
39
0
210
0
220
0
230
1
0
LINE
5
86
100
AcDbEntity
8
1
62
256
6
ByLayer
370
18
48
1
60
0
100
AcDbLine
10
20
20
-20
30
0
11
21.413822
21
-14.723543
31
0
39
0
210
0
220
0
230
1
0
LINE
5
87
100
AcDbEntity
8
1
62
256
6
ByLayer
370
18
48
1
60
0
100
AcDbLine
10
21.413822
20
14.723543
30
0
11
20
21
20
31
0
39
0
210
0
220
0
230
1
0
LINE
5
88
100
AcDbEntity
8
1
62
256
6
ByLayer
370
18
48
1
60
0
100
AcDbLine
10
0.3
20
20
30
0
11
0
21
19.7
31
0
39
0
210
0
220
0
230
1
0
LINE
5
89
100
AcDbEntity
8
1
62
256
6
ByLayer
370
18
48
1
60
0
100
AcDbLine
10
0
20
-19.7
30
0
11
0.3
21
-20
31
0
39
0
210
0
220
0
230
1
0
LINE
5
8A
100
AcDbEntity
8
1
62
256
6
ByLayer
370
18
48
1
60
0
100
AcDbLine
10
9.076795
20
5.85989
30
0
11
9.076795
21
19.122283
31
0
39
0
210
0
220
0
230
1
0
LINE
5
8B
100
AcDbEntity
8
1
62
256
6
ByLayer
370
18
48
1
60
0
100
AcDbLine
10
9.336603
20
6.16973
30
0
11
9.336603
21
19.024574
31
0
39
0
210
0
220
0
230
1
0
LINE
5
8C
100
AcDbEntity
8
1
62
256
6
ByLayer
370
18
48
1
60
0
100
AcDbLine
10
6.663397
20
-19.024574
30
0
11
6.663397
21
-6.16973
31
0
39
0
210
0
220
0
230
1
0
LINE
5
8D
100
AcDbEntity
8
1
62
256
6
ByLayer
370
18
48
1
60
0
100
AcDbLine
10
6.923205
20
-19.122283
30
0
11
6.923205
21
-5.85989
31
0
39
0
210
0
220
0
230
1
0
LINE
5
8E
100
AcDbEntity
8
1
62
256
6
ByLayer
370
18
48
1
60
0
100
AcDbLine
10
6.663397
20
6.16973
30
0
11
6.663397
21
19.024574
31
0
39
0
210
0
220
0
230
1
0
LINE
5
8F
100
AcDbEntity
8
1
62
256
6
ByLayer
370
18
48
1
60
0
100
AcDbLine
10
6.923205
20
5.85989
30
0
11
6.923205
21
19.122283
31
0
39
0
210
0
220
0
230
1
0
LINE
5
90
100
AcDbEntity
8
1
62
256
6
ByLayer
370
18
48
1
60
0
100
AcDbLine
10
9.076795
20
-19.122283
30
0
11
9.076795
21
-5.85989
31
0
39
0
210
0
220
0
230
1
0
LINE
5
91
100
AcDbEntity
8
1
62
256
6
ByLayer
370
18
48
1
60
0
100
AcDbLine
10
9.336603
20
-19.024574
30
0
11
9.336603
21
-6.16973
31
0
39
0
210
0
220
0
230
1
0
LINE
5
92
100
AcDbEntity
8
1
62
256
6
ByLayer
370
18
48
1
60
0
100
AcDbLine
10
129.8
20
12.5
30
0
11
24.3116
21
12.5
31
0
39
0
210
0
220
0
230
1
0
LINE
5
93
100
AcDbEntity
8
1
62
256
6
ByLayer
370
18
48
1
60
0
100
AcDbLine
10
24.3116
20
-12.5
30
0
11
129.8
21
-12.5
31
0
39
0
210
0
220
0
230
1
0
LINE
5
94
100
AcDbEntity
8
1
62
256
6
ByLayer
370
18
48
1
60
0
100
AcDbLine
10
132.546
20
-3.656854
30
0
11
132.546
21
3.656854
31
0
39
0
210
0
220
0
230
1
0
LINE
5
95
100
AcDbEntity
8
1
62
256
6
ByLayer
370
18
48
1
60
0
100
AcDbLine
10
131.521
20
-12.5
30
0
11
131.642492
21
-12.378508
31
0
39
0
210
0
220
0
230
1
0
LINE
5
96
100
AcDbEntity
8
1
62
256
6
ByLayer
370
18
48
1
60
0
100
AcDbLine
10
131.642492
20
12.378508
30
0
11
131.521
21
12.5
31
0
39
0
210
0
220
0
230
1
0
LINE
5
97
100
AcDbEntity
8
1
62
256
6
ByLayer
370
18
48
1
60
0
100
AcDbLine
10
130.2
20
-12.5
30
0
11
131.521
21
-12.5
31
0
39
0
210
0
220
0
230
1
0
LINE
5
98
100
AcDbEntity
8
1
62
256
6
ByLayer
370
18
48
1
60
0
100
AcDbLine
10
131.521
20
12.5
30
0
11
130.2
21
12.5
31
0
39
0
210
0
220
0
230
1
0
LINE
5
99
100
AcDbEntity
8
1
62
256
6
ByLayer
370
18
48
1
60
0
100
AcDbLine
10
131.73225
20
5.289803
30
0
11
131.73225
21
4.568345
31
0
39
0
210
0
220
0
230
1
0
LINE
5
9A
100
AcDbEntity
8
1
62
256
6
ByLayer
370
18
48
1
60
0
100
AcDbLine
10
131.73225
20
-4.568345
30
0
11
131.73225
21
-5.289803
31
0
39
0
210
0
220
0
230
1
0
LINE
5
9B
100
AcDbEntity
8
1
62
256
6
ByLayer
370
18
48
1
60
0
100
AcDbLine
10
132.271
20
4.672754
30
0
11
132.271
21
0.851624
31
0
39
0
210
0
220
0
230
1
0
LINE
5
9C
100
AcDbEntity
8
1
62
256
6
ByLayer
370
18
48
1
60
0
100
AcDbLine
10
132.271
20
-0.851624
30
0
11
132.271
21
-4.672754
31
0
39
0
210
0
220
0
230
1
0
LINE
5
9D
100
AcDbEntity
8
1
62
256
6
ByLayer
370
18
48
1
60
0
100
AcDbLine
10
131.73225
20
7.358627
30
0
11
131.73225
21
6.915736
31
0
39
0
210
0
220
0
230
1
0
LINE
5
9E
100
AcDbEntity
8
1
62
256
6
ByLayer
370
18
48
1
60
0
100
AcDbLine
10
131.73225
20
-6.915736
30
0
11
131.73225
21
-7.358627
31
0
39
0
210
0
220
0
230
1
0
LINE
5
9F
100
AcDbEntity
8
1
62
256
6
ByLayer
370
18
48
1
60
0
100
AcDbLine
10
132.271
20
6.872
30
0
11
132.271
21
5.334839
31
0
39
0
210
0
220
0
230
1
0
LINE
5
A0
100
AcDbEntity
8
1
62
256
6
ByLayer
370
18
48
1
60
0
100
AcDbLine
10
132.271
20
-5.334839
30
0
11
132.271
21
-6.872
31
0
39
0
210
0
220
0
230
1
0
LINE
5
A1
100
AcDbEntity
8
1
62
256
6
ByLayer
370
18
48
1
60
0
100
AcDbLine
10
131.73225
20
8.785884
30
0
11
131.73225
21
8.465225
31
0
39
0
210
0
220
0
230
1
0
LINE
5
A2
100
AcDbEntity
8
1
62
256
6
ByLayer
370
18
48
1
60
0
100
AcDbLine
10
131.73225
20
-8.465225
30
0
11
131.73225
21
-8.785884
31
0
39
0
210
0
220
0
230
1
0
LINE
5
A3
100
AcDbEntity
8
1
62
256
6
ByLayer
370
18
48
1
60
0
100
AcDbLine
10
132.271
20
8.336015
30
0
11
132.271
21
7.284967
31
0
39
0
210
0
220
0
230
1
0
LINE
5
A4
100
AcDbEntity
8
1
62
256
6
ByLayer
370
18
48
1
60
0
100
AcDbLine
10
132.271
20
-7.284967
30
0
11
132.271
21
-8.336015
31
0
39
0
210
0
220
0
230
1
0
LINE
5
A5
100
AcDbEntity
8
1
62
256
6
ByLayer
370
18
48
1
60
0
100
AcDbLine
10
131.73225
20
9.854397
30
0
11
131.73225
21
9.610809
31
0
39
0
210
0
220
0
230
1
0
LINE
5
A6
100
AcDbEntity
8
1
62
256
6
ByLayer
370
18
48
1
60
0
100
AcDbLine
10
131.73225
20
-9.610809
30
0
11
131.73225
21
-9.854397
31
0
39
0
210
0
220
0
230
1
0
LINE
5
A7
100
AcDbEntity
8
1
62
256
6
ByLayer
370
18
48
1
60
0
100
AcDbLine
10
132.271
20
9.414293
30
0
11
132.271
21
8.634581
31
0
39
0
210
0
220
0
230
1
0
LINE
5
A8
100
AcDbEntity
8
1
62
256
6
ByLayer
370
18
48
1
60
0
100
AcDbLine
10
132.271
20
-8.634581
30
0
11
132.271
21
-9.414293
31
0
39
0
210
0
220
0
230
1
0
LINE
5
A9
100
AcDbEntity
8
1
62
256
6
ByLayer
370
18
48
1
60
0
100
AcDbLine
10
131.73225
20
10.672465
30
0
11
131.73225
21
10.485718
31
0
39
0
210
0
220
0
230
1
0
LINE
5
AA
100
AcDbEntity
8
1
62
256
6
ByLayer
370
18
48
1
60
0
100
AcDbLine
10
131.73225
20
-10.485718
30
0
11
131.73225
21
-10.672465
31
0
39
0
210
0
220
0
230
1
0
LINE
5
AB
100
AcDbEntity
8
1
62
256
6
ByLayer
370
18
48
1
60
0
100
AcDbLine
10
132.271
20
-9.639307
30
0
11
132.271
21
-10.229548
31
0
39
0
210
0
220
0
230
1
0
LINE
5
AC
100
AcDbEntity
8
1
62
256
6
ByLayer
370
18
48
1
60
0
100
AcDbLine
10
132.271
20
10.229548
30
0
11
132.271
21
9.639307
31
0
39
0
210
0
220
0
230
1
0
LINE
5
AD
100
AcDbEntity
8
1
62
256
6
ByLayer
370
18
48
1
60
0
100
AcDbLine
10
131.73225
20
11.29464
30
0
11
131.73225
21
11.153829
31
0
39
0
210
0
220
0
230
1
0
LINE
5
AE
100
AcDbEntity
8
1
62
256
6
ByLayer
370
18
48
1
60
0
100
AcDbLine
10
131.73225
20
-11.153829
30
0
11
131.73225
21
-11.29464
31
0
39
0
210
0
220
0
230
1
0
LINE
5
AF
100
AcDbEntity
8
1
62
256
6
ByLayer
370
18
48
1
60
0
100
AcDbLine
10
132.271
20
10.841283
30
0
11
132.271
21
10.39959
31
0
39
0
210
0
220
0
230
1
0
LINE
5
B0
100
AcDbEntity
8
1
62
256
6
ByLayer
370
18
48
1
60
0
100
AcDbLine
10
132.271
20
-10.39959
30
0
11
132.271
21
-10.841283
31
0
39
0
210
0
220
0
230
1
0
LINE
5
B1
100
AcDbEntity
8
1
62
256
6
ByLayer
370
18
48
1
60
0
100
AcDbLine
10
131.73225
20
-11.650774
30
0
11
131.73225
21
-11.752075
31
0
39
0
210
0
220
0
230
1
0
LINE
5
B2
100
AcDbEntity
8
1
62
256
6
ByLayer
370
18
48
1
60
0
100
AcDbLine
10
131.73225
20
11.752075
30
0
11
131.73225
21
11.650774
31
0
39
0
210
0
220
0
230
1
0
LINE
5
B3
100
AcDbEntity
8
1
62
256
6
ByLayer
370
18
48
1
60
0
100
AcDbLine
10
132.271
20
11.282649
30
0
11
132.271
21
10.96639
31
0
39
0
210
0
220
0
230
1
0
LINE
5
B4
100
AcDbEntity
8
1
62
256
6
ByLayer
370
18
48
1
60
0
100
AcDbLine
10
132.271
20
-10.96639
30
0
11
132.271
21
-11.282649
31
0
39
0
210
0
220
0
230
1
0
LINE
5
B5
100
AcDbEntity
8
1
62
256
6
ByLayer
370
18
48
1
60
0
100
AcDbLine
10
131.73225
20
12.063525
30
0
11
131.73225
21
11.997839
31
0
39
0
210
0
220
0
230
1
0
LINE
5
B6
100
AcDbEntity
8
1
62
256
6
ByLayer
370
18
48
1
60
0
100
AcDbLine
10
131.73225
20
-11.997839
30
0
11
131.73225
21
-12.063525
31
0
39
0
210
0
220
0
230
1
0
LINE
5
B7
100
AcDbEntity
8
1
62
256
6
ByLayer
370
18
48
1
60
0
100
AcDbLine
10
132.271
20
11.573156
30
0
11
132.271
21
11.368683
31
0
39
0
210
0
220
0
230
1
0
LINE
5
B8
100
AcDbEntity
8
1
62
256
6
ByLayer
370
18
48
1
60
0
100
AcDbLine
10
132.271
20
-11.368683
30
0
11
132.271
21
-11.573156
31
0
39
0
210
0
220
0
230
1
0
LINE
5
B9
100
AcDbEntity
8
1
62
256
6
ByLayer
370
18
48
1
60
0
100
AcDbLine
10
131.73225
20
12.24014
30
0
11
131.73225
21
12.207816
31
0
39
0
210
0
220
0
230
1
0
LINE
5
BA
100
AcDbEntity
8
1
62
256
6
ByLayer
370
18
48
1
60
0
100
AcDbLine
10
131.73225
20
-12.207816
30
0
11
131.73225
21
-12.24014
31
0
39
0
210
0
220
0
230
1
0
LINE
5
BB
100
AcDbEntity
8
1
62
256
6
ByLayer
370
18
48
1
60
0
100
AcDbLine
10
132.271
20
11.724022
30
0
11
132.271
21
11.623562
31
0
39
0
210
0
220
0
230
1
0
LINE
5
BC
100
AcDbEntity
8
1
62
256
6
ByLayer
370
18
48
1
60
0
100
AcDbLine
10
132.271
20
-11.623562
30
0
11
132.271
21
-11.724022
31
0
39
0
210
0
220
0
230
1
0
LINE
5
BD
100
AcDbEntity
8
SK1
62
256
6
ByLayer
370
18
48
1
60
0
100
AcDbLine
10
140
20
-2.156854
30
0
11
140
21
-9.156854
31
0
39
0
210
0
220
0
230
1
0
LINE
5
BE
100
AcDbEntity
8
SK1
62
256
6
ByLayer
370
18
48
1
60
0
100
AcDbLine
10
136
20
-2.156854
30
0
11
136
21
-9.156854
31
0
39
0
210
0
220
0
230
1
0
LINE
5
BF
100
AcDbEntity
8
SK1
62
256
6
ByLayer
370
18
48
1
60
0
100
AcDbLine
10
140
20
9.156854
30
0
11
140
21
2.156854
31
0
39
0
210
0
220
0
230
1
0
LINE
5
C0
100
AcDbEntity
8
SK1
62
256
6
ByLayer
370
18
48
1
60
0
100
AcDbLine
10
136
20
9.156854
30
0
11
136
21
2.156854
31
0
39
0
210
0
220
0
230
1
0
LINE
5
C1
100
AcDbEntity
8
1
62
256
6
ByLayer
370
18
48
1
60
0
100
AcDbLine
10
20
20
20
30
0
11
20
21
-20
31
0
39
0
210
0
220
0
230
1
0
LINE
5
C2
100
AcDbEntity
8
1
62
256
6
ByLayer
370
18
48
1
60
0
100
AcDbLine
10
0.3
20
20
30
0
11
0.3
21
-20
31
0
39
0
210
0
220
0
230
1
0
LINE
5
C3
100
AcDbEntity
8
1
62
256
6
ByLayer
370
18
48
1
60
0
100
AcDbLine
10
21.413822
20
14.723543
30
0
11
21.413822
21
-14.723543
31
0
39
0
210
0
220
0
230
1
0
LINE
5
C4
100
AcDbEntity
8
1
62
256
6
ByLayer
370
18
48
1
60
0
100
AcDbLine
10
0
20
-19.7
30
0
11
0
21
19.7
31
0
39
0
210
0
220
0
230
1
0
LINE
5
C5
100
AcDbEntity
8
SK1
62
256
6
ByLayer
370
18
48
1
60
0
100
AcDbLine
10
-0.2
20
-14.083485
30
0
11
-0.2
21
-5.547043
31
0
39
0
210
0
220
0
230
1
0
LINE
5
C6
100
AcDbEntity
8
SK1
62
256
6
ByLayer
370
18
48
1
60
0
100
AcDbLine
10
-1.307107
20
-3.588717
30
0
11
-1.307107
21
3.588717
31
0
39
0
210
0
220
0
230
1
0
LINE
5
C7
100
AcDbEntity
8
SK1
62
256
6
ByLayer
370
18
48
1
60
0
100
AcDbLine
10
-0.2
20
5.547043
30
0
11
-0.2
21
14.083485
31
0
39
0
210
0
220
0
230
1
0
LINE
5
C8
100
AcDbEntity
8
1
62
256
6
ByLayer
370
18
48
1
60
0
100
AcDbLine
10
24.3116
20
12.5
30
0
11
24.3116
21
-12.5
31
0
39
0
210
0
220
0
230
1
0
LINE
5
C9
100
AcDbEntity
8
1
62
256
6
ByLayer
370
18
48
1
60
0
100
AcDbLine
10
129.8
20
-12.5
30
0
11
129.8
21
0
31
0
39
0
210
0
220
0
230
1
0
LINE
5
CA
100
AcDbEntity
8
1
62
256
6
ByLayer
370
18
48
1
60
0
100
AcDbLine
10
130
20
12.3
30
0
11
130
21
0
31
0
39
0
210
0
220
0
230
1
0
LINE
5
CB
100
AcDbEntity
8
1
62
256
6
ByLayer
370
18
48
1
60
0
100
AcDbLine
10
130
20
0
30
0
11
130
21
-12.3
31
0
39
0
210
0
220
0
230
1
0
LINE
5
CC
100
AcDbEntity
8
1
62
256
6
ByLayer
370
18
48
1
60
0
100
AcDbLine
10
129.8
20
0
30
0
11
129.8
21
12.5
31
0
39
0
210
0
220
0
230
1
0
LINE
5
CD
100
AcDbEntity
8
1
62
256
6
ByLayer
370
18
48
1
60
0
100
AcDbLine
10
131.521
20
-12.5
30
0
11
131.521
21
0
31
0
39
0
210
0
220
0
230
1
0
LINE
5
CE
100
AcDbEntity
8
1
62
256
6
ByLayer
370
18
48
1
60
0
100
AcDbLine
10
132.271
20
-5.334839
30
0
11
132.271
21
-4.672754
31
0
39
0
210
0
220
0
230
1
0
LINE
5
CF
100
AcDbEntity
8
1
62
256
6
ByLayer
370
18
48
1
60
0
100
AcDbLine
10
132.271
20
-7.284967
30
0
11
132.271
21
-6.872
31
0
39
0
210
0
220
0
230
1
0
LINE
5
D0
100
AcDbEntity
8
1
62
256
6
ByLayer
370
18
48
1
60
0
100
AcDbLine
10
132.271
20
-8.634581
30
0
11
132.271
21
-8.336015
31
0
39
0
210
0
220
0
230
1
0
LINE
5
D1
100
AcDbEntity
8
1
62
256
6
ByLayer
370
18
48
1
60
0
100
AcDbLine
10
132.271
20
-9.639307
30
0
11
132.271
21
-9.414293
31
0
39
0
210
0
220
0
230
1
0
LINE
5
D2
100
AcDbEntity
8
1
62
256
6
ByLayer
370
18
48
1
60
0
100
AcDbLine
10
132.271
20
-10.39959
30
0
11
132.271
21
-10.229548
31
0
39
0
210
0
220
0
230
1
0
LINE
5
D3
100
AcDbEntity
8
1
62
256
6
ByLayer
370
18
48
1
60
0
100
AcDbLine
10
132.271
20
-10.96639
30
0
11
132.271
21
-10.841283
31
0
39
0
210
0
220
0
230
1
0
LINE
5
D4
100
AcDbEntity
8
1
62
256
6
ByLayer
370
18
48
1
60
0
100
AcDbLine
10
132.271
20
-11.368683
30
0
11
132.271
21
-11.282649
31
0
39
0
210
0
220
0
230
1
0
LINE
5
D5
100
AcDbEntity
8
1
62
256
6
ByLayer
370
18
48
1
60
0
100
AcDbLine
10
132.271
20
-11.623562
30
0
11
132.271
21
-11.573156
31
0
39
0
210
0
220
0
230
1
0
LINE
5
D6
100
AcDbEntity
8
1
62
256
6
ByLayer
370
18
48
1
60
0
100
AcDbLine
10
132.271
20
-11.740632
30
0
11
132.271
21
-11.724022
31
0
39
0
210
0
220
0
230
1
0
LINE
5
D7
100
AcDbEntity
8
1
62
256
6
ByLayer
370
18
48
1
60
0
100
AcDbLine
10
132.271
20
11.724022
30
0
11
132.271
21
11.740632
31
0
39
0
210
0
220
0
230
1
0
LINE
5
D8
100
AcDbEntity
8
1
62
256
6
ByLayer
370
18
48
1
60
0
100
AcDbLine
10
132.271
20
11.573156
30
0
11
132.271
21
11.623562
31
0
39
0
210
0
220
0
230
1
0
LINE
5
D9
100
AcDbEntity
8
1
62
256
6
ByLayer
370
18
48
1
60
0
100
AcDbLine
10
132.271
20
11.282649
30
0
11
132.271
21
11.368683
31
0
39
0
210
0
220
0
230
1
0
LINE
5
DA
100
AcDbEntity
8
1
62
256
6
ByLayer
370
18
48
1
60
0
100
AcDbLine
10
132.271
20
10.841283
30
0
11
132.271
21
10.96639
31
0
39
0
210
0
220
0
230
1
0
LINE
5
DB
100
AcDbEntity
8
1
62
256
6
ByLayer
370
18
48
1
60
0
100
AcDbLine
10
132.271
20
10.229548
30
0
11
132.271
21
10.39959
31
0
39
0
210
0
220
0
230
1
0
LINE
5
DC
100
AcDbEntity
8
1
62
256
6
ByLayer
370
18
48
1
60
0
100
AcDbLine
10
132.271
20
9.414293
30
0
11
132.271
21
9.639307
31
0
39
0
210
0
220
0
230
1
0
LINE
5
DD
100
AcDbEntity
8
1
62
256
6
ByLayer
370
18
48
1
60
0
100
AcDbLine
10
132.271
20
8.336015
30
0
11
132.271
21
8.634581
31
0
39
0
210
0
220
0
230
1
0
LINE
5
DE
100
AcDbEntity
8
1
62
256
6
ByLayer
370
18
48
1
60
0
100
AcDbLine
10
132.271
20
6.872
30
0
11
132.271
21
7.284967
31
0
39
0
210
0
220
0
230
1
0
LINE
5
DF
100
AcDbEntity
8
1
62
256
6
ByLayer
370
18
48
1
60
0
100
AcDbLine
10
132.271
20
4.672754
30
0
11
132.271
21
5.334839
31
0
39
0
210
0
220
0
230
1
0
LINE
5
E0
100
AcDbEntity
8
1
62
256
6
ByLayer
370
18
48
1
60
0
100
AcDbLine
10
132.271
20
-0.851624
30
0
11
132.271
21
0.851624
31
0
39
0
210
0
220
0
230
1
0
LINE
5
E1
100
AcDbEntity
8
1
62
256
6
ByLayer
370
18
48
1
60
0
100
AcDbLine
10
131.521
20
0
30
0
11
131.521
21
12.5
31
0
39
0
210
0
220
0
230
1
0
LINE
5
E2
100
AcDbEntity
8
1
62
256
6
ByLayer
370
18
48
1
60
0
100
AcDbLine
10
130.2
20
12.5
30
0
11
130.2
21
-12.5
31
0
39
0
210
0
220
0
230
1
0
LINE
5
E3
100
AcDbEntity
8
1
62
256
6
ByLayer
370
18
48
1
60
0
100
AcDbLine
10
130
20
-12.3
30
0
11
130
21
0
31
0
39
0
210
0
220
0
230
1
0
LINE
5
E4
100
AcDbEntity
8
1
62
256
6
ByLayer
370
18
48
1
60
0
100
AcDbLine
10
130
20
0
30
0
11
130
21
12.3
31
0
39
0
210
0
220
0
230
1
0
LINE
5
E5
100
AcDbEntity
8
SK1
62
256
6
ByLayer
370
18
48
1
60
0
100
AcDbLine
10
-2.5
20
-14
30
0
11
-2.5
21
14
31
0
39
0
210
0
220
0
230
1
0
LINE
5
E6
100
AcDbEntity
8
SK1
62
256
6
ByLayer
370
18
48
1
60
0
100
AcDbLine
10
-22.500473
20
13.497014
30
0
11
-22.500473
21
-13.497265
31
0
39
0
210
0
220
0
230
1
0
LINE
5
E7
100
AcDbEntity
8
SK1
62
256
6
ByLayer
370
18
48
1
60
0
100
AcDbLine
10
-24
20
12.58007
30
0
11
-24
21
-12.579369
31
0
39
0
210
0
220
0
230
1
0
LINE
5
E8
100
AcDbEntity
8
SK1
62
256
6
ByLayer
370
18
48
1
60
0
100
AcDbLine
10
-1.5
20
-2.554526
30
0
11
-1.5
21
-13.787499
31
0
39
0
210
0
220
0
230
1
0
LINE
5
E9
100
AcDbEntity
8
SK1
62
256
6
ByLayer
370
18
48
1
60
0
100
AcDbLine
10
-0.4
20
-4.852275
30
0
11
-0.4
21
-13.788013
31
0
39
0
210
0
220
0
230
1
0
LINE
5
EA
100
AcDbEntity
8
SK1
62
256
6
ByLayer
370
18
48
1
60
0
100
AcDbLine
10
-0.4
20
13.788013
30
0
11
-0.4
21
4.852275
31
0
39
0
210
0
220
0
230
1
0
LINE
5
EB
100
AcDbEntity
8
SK1
62
256
6
ByLayer
370
18
48
1
60
0
100
AcDbLine
10
-1.5
20
13.787498
30
0
11
-1.5
21
2.554529
31
0
39
0
210
0
220
0
230
1
0
MTEXT
5
172
100
AcDbEntity
8
SK6
62
256
6
ByLayer
370
13
48
1
60
0
100
AcDbMText
10
5.050893
20
62.378048
30
0
210
0
220
0
230
1
1
\W0.7166;C4-SL-3C 25 132
40
3.175
41
0
44
1.084337
50
0
71
7
72
5
7
iso_b_vert
0
DIMENSION
5
180
100
AcDbEntity
8
2
62
256
6
ByLayer
370
13
48
1
60
0
100
AcDbDimension
2
DimnDraft3D1
10
132
20
46.883621
30
0
11
63.313783
21
46.883621
31
0
70
32
71
5
72
1
41
1
210
0
220
0
230
1
3
Standard
100
AcDbAlignedDimension
13
0
23
1.5875
33
0
14
132
24
1.5875
34
0
50
0
100
AcDbRotatedDimension
1001
ACAD
1000
DSTYLE
1002
{
1070
   279
1070
     0
1070
   173
1070
     1
1070
   340
1005
173
1070
   271
1070
     1
1070
   272
1070
     2
1070
    77
1070
     1
1070
    73
1070
     0
1070
   171
1070
     3
1070
   274
1070
     4
1070
   177
1070
     7
1070
   176
1070
     7
1070
   178
1070
     7
1070
    78
1070
     8
1070
    48
1040
-0.005
1070
    41
1041
3.175
1070
   147
1041
1.5875
1070
    42
1041
1.5875
1070
    44
1041
3.175
1070
   140
1041
3.175
1070
   343
1005
0
1070
   344
1005
0
1002
}
0
DIMENSION
5
18C
100
AcDbEntity
8
SK2
62
256
6
ByLayer
370
13
48
1
60
0
100
AcDbDimension
2
DimnDraft3D2
10
-42.743717
20
-20
30
0
11
-42.743717
21
-6.82625
31
0
70
32
71
5
72
1
41
1
210
0
220
0
230
1
3
Standard
100
AcDbAlignedDimension
13
-1.2875
23
20
33
0
14
-1.2875
24
-20
34
0
50
90
100
AcDbRotatedDimension
1001
ACAD
1000
DSTYLE
1002
{
1070
    74
1070
     0
1070
   279
1070
     0
1070
   173
1070
     1
1070
   340
1005
173
1070
   271
1070
     1
1070
   272
1070
     2
1070
    77
1070
     1
1070
    73
1070
     0
1070
   171
1070
     3
1070
   274
1070
     4
1070
   177
1070
     7
1070
   176
1070
     7
1070
   178
1070
     7
1070
    78
1070
     8
1070
    48
1040
-0.005
1070
    41
1041
3.175
1070
   147
1041
1.5875
1070
    42
1041
1.5875
1070
    44
1041
3.175
1070
   140
1041
3.175
1070
   343
1005
0
1070
   344
1005
0
1002
}
0
DIMENSION
5
196
100
AcDbEntity
8
SK2
62
256
6
ByLayer
370
13
48
1
60
0
100
AcDbDimension
2
DimnDraft3D3
10
20
20
-29.927094
30
0
11
8.103355
21
-29.927094
31
0
70
32
71
5
72
1
41
1
210
0
220
0
230
1
3
Standard
100
AcDbAlignedDimension
13
0
23
-21.2875
33
0
14
20
24
-21.5875
34
0
50
0
100
AcDbRotatedDimension
1001
ACAD
1000
DSTYLE
1002
{
1070
   279
1070
     0
1070
   173
1070
     1
1070
   340
1005
173
1070
   271
1070
     1
1070
   272
1070
     2
1070
    77
1070
     1
1070
    73
1070
     0
1070
   171
1070
     3
1070
   274
1070
     4
1070
   177
1070
     7
1070
   176
1070
     7
1070
   178
1070
     7
1070
    78
1070
     8
1070
    48
1040
-0.005
1070
    41
1041
3.175
1070
   147
1041
1.5875
1070
    42
1041
1.5875
1070
    44
1041
3.175
1070
   140
1041
3.175
1070
   343
1005
0
1070
   344
1005
0
1002
}
0
DIMENSION
5
1AB
100
AcDbEntity
8
SK2
62
256
6
ByLayer
370
13
48
1
60
0
100
AcDbDimension
2
DimnDraft3D5
10
158.361709
20
-12.5
30
0
11
158.361709
21
17.92303
31
0
70
32
71
5
72
1
41
1
210
0
220
0
230
1
3
Standard
100
AcDbAlignedDimension
13
131.3875
23
12.5
33
0
14
131.3875
24
-12.5
34
0
50
90
100
AcDbRotatedDimension
1001
ACAD
1000
DSTYLE
1002
{
1070
    74
1070
     0
1070
   279
1070
     0
1070
   173
1070
     1
1070
   340
1005
173
1070
   271
1070
     1
1070
   272
1070
     2
1070
    77
1070
     1
1070
    73
1070
     0
1070
   171
1070
     3
1070
   274
1070
     4
1070
   177
1070
     7
1070
   176
1070
     7
1070
   178
1070
     7
1070
    78
1070
     8
1070
    48
1040
-0.005
1070
    41
1041
3.175
1070
   147
1041
1.5875
1070
    42
1041
1.5875
1070
    44
1041
3.175
1070
   140
1041
3.175
1070
   343
1005
0
1070
   344
1005
0
1002
}
0
DIMENSION
5
1B3
100
AcDbEntity
8
SK2
62
256
6
ByLayer
370
13
48
1
60
0
100
AcDbDimension
2
DimnDraft3D6
10
24.3116
20
15.5
30
0
11
31.657149
21
28.063401
31
0
70
36
71
5
72
1
41
1
210
0
220
0
230
1
3
Standard
100
AcDbRadialDimension
15
0
25
0
35
0
40
0
1001
ACAD
1000
DSTYLE
1002
{
1070
   279
1070
     0
1070
   173
1070
     1
1070
   340
1005
173
1070
    75
1070
     1
1070
    76
1070
     1
1070
   271
1070
     1
1070
   272
1070
     2
1070
    77
1070
     1
1070
    73
1070
     0
1070
   171
1070
     3
1070
   274
1070
     4
1070
   177
1070
     7
1070
   176
1070
     7
1070
   178
1070
     7
1070
    78
1070
     8
1070
    48
1040
-0.005
1070
    41
1041
3.175
1070
   147
1041
1.5875
1070
    42
1041
1.5875
1070
    44
1041
3.175
1070
   140
1041
3.175
1070
   343
1005
0
1070
   344
1005
0
1002
}
0
ENDSEC
0
SECTION
2
OBJECTS
0
DICTIONARY
5
21e
330
0
100
AcDbDictionary
280
0
281
1
3
ACAD_GROUP
350
21f
3
ACAD_MLINESTYLE
350
220
0
DICTIONARY
5
21f
330
0
100
AcDbDictionary
280
0
281
1
0
DICTIONARY
5
220
330
0
100
AcDbDictionary
280
0
281
1
3
Standard
350
18
0
MLINESTYLE
5
18
330
220
100
AcDbMlineStyle
2
Standard
70
0
3

62
256
51
90
52
90
71
2
49
-0.5
62
256
6
ByLayer
49
0.5
62
256
6
ByLayer
0
RASTERVARIABLES
5
20c
330

100
AcDbRasterVariables
90
0
70
1
71
1
72
1
0
ENDSEC
0
EOF
