0
SECTION
2
HEADER
9
$ACADVER
1
AC1015
9
$DWGCODEPAGE
3
ANSI_1252
9
$HANDSEED
5
1da
9
$ANGBASE
50
0
9
$ANGDIR
70
0
9
$ATTMODE
70
1
9
$AUNITS
70
0
9
$AUPREC
70
0
9
$CECOLOR
62
256
9
$CELTSCALE
40
1
9
$CELTYPE
6
ByLayer
9
$CELWEIGHT
370
-1
9
$CLAYER
8
0
9
$CMLJUST
70
0
9
$CMLSCALE
40
1
9
$CMLSTYLE
2
Standard
9
$DIMSTYLE
2
Standard
9
$TEXTSIZE
40
0.2
9
$TEXTSTYLE
7
Standard
9
$LUNITS
70
2
9
$LUPREC
70
4
9
$EXTNAMES
290
1
9
$INSUNITS
70
4
9
$LTSCALE
40
1
9
$LWDISPLAY
290
0
9
$PDMODE
70
0
9
$PDSIZE
40
0
9
$PLINEGEN
70
0
0
ENDSEC
0
SECTION
2
CLASSES
0
CLASS
1
RASTERVARIABLES
2
AcDbRasterVariables
3
ISM
90
0
280
0
281
0
0
ENDSEC
0
SECTION
2
TABLES
0
TABLE
2
VPORT
5
1d0
100
AcDbSymbolTable
0
VPORT
5
1
100
AcDbSymbolTableRecord
100
AcDbViewportTableRecord
2
*Active
70
0
10
0
20
0
11
1
21
1
12
-1
22
1
13
0
23
0
14
0.5
24
0.5
15
10
25
10
16
0
26
0
36
1
17
0
27
0
37
0
0
ENDTAB
0
TABLE
2
LTYPE
5
1d1
100
AcDbSymbolTable
0
LTYPE
5
14
100
AcDbSymbolTableRecord
100
AcDbLinetypeTableRecord
70
0
2
ByBlock
3

72
65
73
0
40
0
0
LTYPE
5
15
100
AcDbSymbolTableRecord
100
AcDbLinetypeTableRecord
70
0
2
ByLayer
3

72
65
73
0
40
0
0
LTYPE
5
16
100
AcDbSymbolTableRecord
100
AcDbLinetypeTableRecord
70
0
2
CONTINUOUS
3
Solid line
72
65
73
0
40
0
0
LTYPE
5
3B
100
AcDbSymbolTableRecord
100
AcDbLinetypeTableRecord
70
0
2
DASHED
3
__ __ __ __ __ __ __ __ __
72
65
73
2
40
25.72
49
12.86
74
0
49
-12.86
74
0
0
LTYPE
5
3C
100
AcDbSymbolTableRecord
100
AcDbLinetypeTableRecord
70
0
2
HIDDEN
3
_ _ _ _ _ _ _ _ _ _ _ _ _ _ _
72
65
73
2
40
0.5
49
0.25
74
0
49
-0.25
74
0
0
LTYPE
5
3D
100
AcDbSymbolTableRecord
100
AcDbLinetypeTableRecord
70
0
2
PHANTOM
3
____ _ _ ____ _ _ _____ _ _ ____
72
65
73
6
40
50.5
49
18
74
0
49
-6.5
74
0
49
6.5
74
0
49
-6.5
74
0
49
6.5
74
0
49
-6.5
74
0
0
LTYPE
5
3E
100
AcDbSymbolTableRecord
100
AcDbLinetypeTableRecord
70
0
2
CENTER
3
____ _ ____ _ ____ _ ____
72
65
73
4
40
47.5
49
22
74
0
49
-8.5
74
0
49
8.5
74
0
49
-8.5
74
0
0
LTYPE
5
3F
100
AcDbSymbolTableRecord
100
AcDbLinetypeTableRecord
70
0
2
DOT
3
.........................
72
65
73
2
40
10
49
0
74
0
49
-10
74
0
0
LTYPE
5
40
100
AcDbSymbolTableRecord
100
AcDbLinetypeTableRecord
70
0
2
DASHDOT
3
_._._._._._._._._._._._._._._._.
72
65
73
4
40
70
49
31
74
0
49
-13
74
0
49
13
74
0
49
-13
74
0
0
ENDTAB
0
TABLE
2
LAYER
5
1d2
100
AcDbSymbolTable
0
LAYER
5
10
100
AcDbSymbolTableRecord
100
AcDbLayerTableRecord
2
0
70
0
62
7
6
CONTINUOUS
290
1
370
-3
390
0
0
LAYER
5
42
100
AcDbSymbolTableRecord
100
AcDbLayerTableRecord
2
80
70
0
62
-6
6
CONTINUOUS
290
1
370
-3
390
0
0
LAYER
5
44
100
AcDbSymbolTableRecord
100
AcDbLayerTableRecord
2
81
70
0
62
-3
6
CONTINUOUS
290
1
370
-3
390
0
0
LAYER
5
46
100
AcDbSymbolTableRecord
100
AcDbLayerTableRecord
2
1
70
0
62
4
6
CONTINUOUS
290
1
370
-3
390
0
0
LAYER
5
48
100
AcDbSymbolTableRecord
100
AcDbLayerTableRecord
2
2
70
0
62
7
6
CONTINUOUS
290
1
370
-3
390
0
0
LAYER
5
4F
100
AcDbSymbolTableRecord
100
AcDbLayerTableRecord
2
4
70
0
62
-2
6
CENTER
290
1
370
-3
390
0
0
LAYER
5
1bc
100
AcDbSymbolTableRecord
100
AcDbLayerTableRecord
2
SK4
70
0
62
2
6
CENTER
290
1
370
-3
390
0
0
LAYER
5
1bd
100
AcDbSymbolTableRecord
100
AcDbLayerTableRecord
2
SK1
70
0
62
4
6
CONTINUOUS
290
1
370
-3
390
0
0
LAYER
5
1be
100
AcDbSymbolTableRecord
100
AcDbLayerTableRecord
2
SK6
70
0
62
5
6
CONTINUOUS
290
1
370
-3
390
0
0
LAYER
5
1bf
100
AcDbSymbolTableRecord
100
AcDbLayerTableRecord
2
SK2
70
0
62
7
6
CONTINUOUS
290
1
370
-3
390
0
0
ENDTAB
0
TABLE
2
STYLE
5
1d3
100
AcDbSymbolTable
0
STYLE
5
11
100
AcDbSymbolTableRecord
100
AcDbTextStyleTableRecord
2
Standard
3
txt
70
0
71
0
40
0
41
1
42
0
50
0
0
STYLE
5
11E
100
AcDbSymbolTableRecord
100
AcDbTextStyleTableRecord
2
DEFAULT
3
simplex.shx
70
0
71
0
40
0
41
1
42
0
50
0
0
STYLE
5
141
100
AcDbSymbolTableRecord
100
AcDbTextStyleTableRecord
2
DWGDirectTextStyle
3
SIMPLEX
70
0
71
0
40
0
41
1
42
0
50
0
0
ENDTAB
0
TABLE
2
DIMSTYLE
5
1d4
100
AcDbSymbolTable
100
AcDbDimStyleTable
0
DIMSTYLE
105
27
100
AcDbSymbolTableRecord
100
AcDbDimStyleTableRecord
2
Standard
70
0
3
<>
41
0.18
42
0.0625
44
0.18
140
0.18
147
0.09
73
0
74
0
77
1
271
2
275
0
278
52
280
0
340
11
0
ENDTAB
0
TABLE
2
VIEW
5
1d5
100
AcDbSymbolTable
0
ENDTAB
0
TABLE
2
UCS
5
1d6
100
AcDbSymbolTable
0
ENDTAB
0
TABLE
2
APPID
5
1d7
100
AcDbSymbolTable
0
APPID
5
12
100
AcDbSymbolTableRecord
100
AcDbRegAppTableRecord
2
ACAD
70
0
0
ENDTAB
0
TABLE
2
BLOCK_RECORD
5
1d8
100
AcDbSymbolTable
0
BLOCK_RECORD
5
1F
100
AcDbSymbolTableRecord
100
AcDbBlockTableRecord
2
*Model_Space
340
0
70
0
0
BLOCK_RECORD
5
1B
100
AcDbSymbolTableRecord
100
AcDbBlockTableRecord
2
*Paper_Space
340
0
70
0
0
BLOCK_RECORD
5
23
100
AcDbSymbolTableRecord
100
AcDbBlockTableRecord
2
*Paper_Space0
340
0
70
0
0
BLOCK_RECORD
5
143
100
AcDbSymbolTableRecord
100
AcDbBlockTableRecord
2
DimnDraft3D1
340
0
70
0
0
BLOCK_RECORD
5
152
100
AcDbSymbolTableRecord
100
AcDbBlockTableRecord
2
_CLOSED
340
0
70
0
0
BLOCK_RECORD
5
159
100
AcDbSymbolTableRecord
100
AcDbBlockTableRecord
2
DimnDraft3D2
340
0
70
0
0
BLOCK_RECORD
5
165
100
AcDbSymbolTableRecord
100
AcDbBlockTableRecord
2
DimnDraft3D3
340
0
70
0
0
BLOCK_RECORD
5
173
100
AcDbSymbolTableRecord
100
AcDbBlockTableRecord
2
DimnDraft3D4
340
0
70
0
0
BLOCK_RECORD
5
181
100
AcDbSymbolTableRecord
100
AcDbBlockTableRecord
2
DimnDraft3D5
340
0
70
0
0
BLOCK_RECORD
5
18F
100
AcDbSymbolTableRecord
100
AcDbBlockTableRecord
2
DimnDraft3D6
340
0
70
0
0
ENDTAB
0
ENDSEC
0
SECTION
2
BLOCKS
0
BLOCK
5
20
100
AcDbEntity
8
0
100
AcDbBlockBegin
2
*Model_Space
70
0
10
0
20
0
30
0
3
*Model_Space
0
ENDBLK
5
21
100
AcDbEntity
8
0
100
AcDbBlockEnd
0
BLOCK
5
1C
100
AcDbEntity
8
0
100
AcDbBlockBegin
2
*Paper_Space
70
0
10
0
20
0
30
0
3
*Paper_Space
0
ENDBLK
5
1D
100
AcDbEntity
8
0
100
AcDbBlockEnd
0
BLOCK
5
24
100
AcDbEntity
8
0
100
AcDbBlockBegin
2
*Paper_Space0
70
0
10
0
20
0
30
0
3
*Paper_Space0
0
ENDBLK
5
25
100
AcDbEntity
8
0
100
AcDbBlockEnd
0
BLOCK
5
14F
100
AcDbEntity
8
0
100
AcDbBlockBegin
2
DimnDraft3D1
70
0
10
0
20
0
30
0
3
DimnDraft3D1
0
MTEXT
5
144
100
AcDbEntity
8
SK2
62
256
6
ByLayer
370
-1
48
1
60
0
100
AcDbMText
10
-37.875
20
-3.896053
30
0
210
0
220
0
230
1
1
\W01.000;\fsimplex.shx,bigfont.shx;%%c40 
40
4.5
41
0
44
1.084337
50
90
71
7
72
5
7
DEFAULT
0
LINE
5
146
100
AcDbEntity
8
SK2
62
256
6
ByLayer
370
-1
48
1
60
0
100
AcDbLine
10
-2
20
-20
30
0
11
-38.75
21
-20
31
0
39
0
210
0
220
0
230
1
0
LINE
5
147
100
AcDbEntity
8
SK2
62
256
6
ByLayer
370
-1
48
1
60
0
100
AcDbLine
10
-2
20
20
30
0
11
-38.75
21
20
31
0
39
0
210
0
220
0
230
1
0
LINE
5
148
100
AcDbEntity
8
SK2
62
256
6
ByLayer
370
-1
48
1
60
0
100
AcDbLine
10
-36.75
20
-20
30
0
11
-36.75
21
20
31
0
39
0
210
0
220
0
230
1
0
LINE
5
149
100
AcDbEntity
8
SK2
62
256
6
ByLayer
370
-1
48
1
60
0
100
AcDbLine
10
-36.75
20
-20
30
0
11
-37.167997
21
-16.825002
31
0
39
0
210
0
220
0
230
1
0
LINE
5
14A
100
AcDbEntity
8
SK2
62
256
6
ByLayer
370
-1
48
1
60
0
100
AcDbLine
10
-36.75
20
-20
30
0
11
-36.332003
21
-16.824998
31
0
39
0
210
0
220
0
230
1
0
LINE
5
14B
100
AcDbEntity
8
SK2
62
256
6
ByLayer
370
-1
48
1
60
0
100
AcDbLine
10
-37.167997
20
-16.825002
30
0
11
-36.332003
21
-16.824998
31
0
39
0
210
0
220
0
230
1
0
LINE
5
14C
100
AcDbEntity
8
SK2
62
256
6
ByLayer
370
-1
48
1
60
0
100
AcDbLine
10
-36.75
20
20
30
0
11
-36.332003
21
16.825002
31
0
39
0
210
0
220
0
230
1
0
LINE
5
14D
100
AcDbEntity
8
SK2
62
256
6
ByLayer
370
-1
48
1
60
0
100
AcDbLine
10
-36.75
20
20
30
0
11
-37.167997
21
16.824998
31
0
39
0
210
0
220
0
230
1
0
LINE
5
14E
100
AcDbEntity
8
SK2
62
256
6
ByLayer
370
-1
48
1
60
0
100
AcDbLine
10
-36.332003
20
16.825002
30
0
11
-37.167997
21
16.824998
31
0
39
0
210
0
220
0
230
1
0
ENDBLK
5
150
100
AcDbEntity
8
0
100
AcDbBlockEnd
0
BLOCK
5
153
100
AcDbEntity
8
0
100
AcDbBlockBegin
2
_CLOSED
70
0
10
0
20
0
30
0
3
_CLOSED
0
LINE
5
155
100
AcDbEntity
8
0
62
256
6
ByLayer
370
-2
48
1
60
0
100
AcDbLine
10
-1
20
0.166667
30
0
11
0
21
0
31
0
39
0
210
0
220
0
230
1
0
LINE
5
156
100
AcDbEntity
8
0
62
256
6
ByLayer
370
-2
48
1
60
0
100
AcDbLine
10
0
20
0
30
0
11
-1
21
-0.166667
31
0
39
0
210
0
220
0
230
1
0
LINE
5
157
100
AcDbEntity
8
0
62
256
6
ByLayer
370
-2
48
1
60
0
100
AcDbLine
10
-1
20
0.166667
30
0
11
-1
21
-0.166667
31
0
39
0
210
0
220
0
230
1
0
LINE
5
158
100
AcDbEntity
8
0
62
256
6
ByLayer
370
-2
48
1
60
0
100
AcDbLine
10
0
20
0
30
0
11
-1
21
0
31
0
39
0
210
0
220
0
230
1
0
ENDBLK
5
154
100
AcDbEntity
8
0
100
AcDbBlockEnd
0
BLOCK
5
162
100
AcDbEntity
8
0
100
AcDbBlockBegin
2
DimnDraft3D2
70
0
10
0
20
0
30
0
3
DimnDraft3D2
0
MTEXT
5
15A
100
AcDbEntity
8
2
62
256
6
ByLayer
370
-1
48
1
60
0
100
AcDbMText
10
36.225
20
-6.193421
30
0
210
0
220
0
230
1
1
\W01.000;\fsimplex.shx,bigfont.shx;%%c20.0 
40
4.5
41
0
44
1.084337
50
90
71
7
72
5
7
DEFAULT
0
LINE
5
15B
100
AcDbEntity
8
2
62
256
6
ByLayer
370
-1
48
1
60
0
100
AcDbLine
10
37.35
20
-10
30
0
11
37.35
21
10
31
0
39
0
210
0
220
0
230
1
0
LINE
5
15C
100
AcDbEntity
8
2
62
256
6
ByLayer
370
-1
48
1
60
0
100
AcDbLine
10
37.35
20
-10
30
0
11
36.932003
21
-6.825002
31
0
39
0
210
0
220
0
230
1
0
LINE
5
15D
100
AcDbEntity
8
2
62
256
6
ByLayer
370
-1
48
1
60
0
100
AcDbLine
10
37.35
20
-10
30
0
11
37.767997
21
-6.824998
31
0
39
0
210
0
220
0
230
1
0
LINE
5
15E
100
AcDbEntity
8
2
62
256
6
ByLayer
370
-1
48
1
60
0
100
AcDbLine
10
36.932003
20
-6.825002
30
0
11
37.767997
21
-6.824998
31
0
39
0
210
0
220
0
230
1
0
LINE
5
15F
100
AcDbEntity
8
2
62
256
6
ByLayer
370
-1
48
1
60
0
100
AcDbLine
10
37.35
20
10
30
0
11
37.767997
21
6.825002
31
0
39
0
210
0
220
0
230
1
0
LINE
5
160
100
AcDbEntity
8
2
62
256
6
ByLayer
370
-1
48
1
60
0
100
AcDbLine
10
37.35
20
10
30
0
11
36.932003
21
6.824998
31
0
39
0
210
0
220
0
230
1
0
LINE
5
161
100
AcDbEntity
8
2
62
256
6
ByLayer
370
-1
48
1
60
0
100
AcDbLine
10
37.767997
20
6.825002
30
0
11
36.932003
21
6.824998
31
0
39
0
210
0
220
0
230
1
0
ENDBLK
5
163
100
AcDbEntity
8
0
100
AcDbBlockEnd
0
BLOCK
5
170
100
AcDbEntity
8
0
100
AcDbBlockBegin
2
DimnDraft3D3
70
0
10
0
20
0
30
0
3
DimnDraft3D3
0
MTEXT
5
166
100
AcDbEntity
8
2
62
256
6
ByLayer
370
-1
48
1
60
0
100
AcDbMText
10
91.125
20
24.28
30
0
210
0
220
0
230
1
1
\W01.000;\fsimplex.shx,bigfont.shx;13.0 
40
4.5
41
0
44
1.084337
50
90
71
7
72
5
7
DEFAULT
0
LINE
5
167
100
AcDbEntity
8
2
62
256
6
ByLayer
370
-1
48
1
60
0
100
AcDbLine
10
82
20
12.9
30
0
11
94.25
21
12.9
31
0
39
0
210
0
220
0
230
1
0
LINE
5
168
100
AcDbEntity
8
2
62
256
6
ByLayer
370
-1
48
1
60
0
100
AcDbLine
10
82
20
0
30
0
11
94.25
21
0
31
0
39
0
210
0
220
0
230
1
0
LINE
5
169
100
AcDbEntity
8
2
62
256
6
ByLayer
370
-1
48
1
60
0
100
AcDbLine
10
92.25
20
0
30
0
11
92.25
21
32.356316
31
0
39
0
210
0
220
0
230
1
0
LINE
5
16A
100
AcDbEntity
8
2
62
256
6
ByLayer
370
-1
48
1
60
0
100
AcDbLine
10
92.25
20
12.9
30
0
11
92.667997
21
9.725002
31
0
39
0
210
0
220
0
230
1
0
LINE
5
16B
100
AcDbEntity
8
2
62
256
6
ByLayer
370
-1
48
1
60
0
100
AcDbLine
10
92.25
20
12.9
30
0
11
91.832003
21
9.724998
31
0
39
0
210
0
220
0
230
1
0
LINE
5
16C
100
AcDbEntity
8
2
62
256
6
ByLayer
370
-1
48
1
60
0
100
AcDbLine
10
92.667997
20
9.725002
30
0
11
91.832003
21
9.724998
31
0
39
0
210
0
220
0
230
1
0
LINE
5
16D
100
AcDbEntity
8
2
62
256
6
ByLayer
370
-1
48
1
60
0
100
AcDbLine
10
92.25
20
0
30
0
11
91.832003
21
3.174998
31
0
39
0
210
0
220
0
230
1
0
LINE
5
16E
100
AcDbEntity
8
2
62
256
6
ByLayer
370
-1
48
1
60
0
100
AcDbLine
10
92.25
20
0
30
0
11
92.667997
21
3.175002
31
0
39
0
210
0
220
0
230
1
0
LINE
5
16F
100
AcDbEntity
8
2
62
256
6
ByLayer
370
-1
48
1
60
0
100
AcDbLine
10
91.832003
20
3.174998
30
0
11
92.667997
21
3.175002
31
0
39
0
210
0
220
0
230
1
0
ENDBLK
5
171
100
AcDbEntity
8
0
100
AcDbBlockEnd
0
BLOCK
5
17E
100
AcDbEntity
8
0
100
AcDbBlockBegin
2
DimnDraft3D4
70
0
10
0
20
0
30
0
3
DimnDraft3D4
0
MTEXT
5
174
100
AcDbEntity
8
2
62
256
6
ByLayer
370
-1
48
1
60
0
100
AcDbMText
10
35.961842
20
41.775
30
0
210
0
220
0
230
1
1
\W01.000;\fsimplex.shx,bigfont.shx;80.0 
40
4.5
41
0
44
1.084337
50
0
71
7
72
5
7
DEFAULT
0
LINE
5
175
100
AcDbEntity
8
2
62
256
6
ByLayer
370
-1
48
1
60
0
100
AcDbLine
10
0
20
22
30
0
11
0
21
42.65
31
0
39
0
210
0
220
0
230
1
0
LINE
5
176
100
AcDbEntity
8
2
62
256
6
ByLayer
370
-1
48
1
60
0
100
AcDbLine
10
80
20
14.9
30
0
11
80
21
42.65
31
0
39
0
210
0
220
0
230
1
0
LINE
5
177
100
AcDbEntity
8
2
62
256
6
ByLayer
370
-1
48
1
60
0
100
AcDbLine
10
0
20
40.65
30
0
11
80
21
40.65
31
0
39
0
210
0
220
0
230
1
0
LINE
5
178
100
AcDbEntity
8
2
62
256
6
ByLayer
370
-1
48
1
60
0
100
AcDbLine
10
0
20
40.65
30
0
11
3.174998
21
41.067997
31
0
39
0
210
0
220
0
230
1
0
LINE
5
179
100
AcDbEntity
8
2
62
256
6
ByLayer
370
-1
48
1
60
0
100
AcDbLine
10
0
20
40.65
30
0
11
3.175002
21
40.232003
31
0
39
0
210
0
220
0
230
1
0
LINE
5
17A
100
AcDbEntity
8
2
62
256
6
ByLayer
370
-1
48
1
60
0
100
AcDbLine
10
3.174998
20
41.067997
30
0
11
3.175002
21
40.232003
31
0
39
0
210
0
220
0
230
1
0
LINE
5
17B
100
AcDbEntity
8
2
62
256
6
ByLayer
370
-1
48
1
60
0
100
AcDbLine
10
80
20
40.65
30
0
11
76.825002
21
40.232003
31
0
39
0
210
0
220
0
230
1
0
LINE
5
17C
100
AcDbEntity
8
2
62
256
6
ByLayer
370
-1
48
1
60
0
100
AcDbLine
10
80
20
40.65
30
0
11
76.824998
21
41.067997
31
0
39
0
210
0
220
0
230
1
0
LINE
5
17D
100
AcDbEntity
8
2
62
256
6
ByLayer
370
-1
48
1
60
0
100
AcDbLine
10
76.825002
20
40.232003
30
0
11
76.824998
21
41.067997
31
0
39
0
210
0
220
0
230
1
0
ENDBLK
5
17F
100
AcDbEntity
8
0
100
AcDbBlockEnd
0
BLOCK
5
18C
100
AcDbEntity
8
0
100
AcDbBlockBegin
2
DimnDraft3D5
70
0
10
0
20
0
30
0
3
DimnDraft3D5
0
MTEXT
5
182
100
AcDbEntity
8
2
62
256
6
ByLayer
370
-1
48
1
60
0
100
AcDbMText
10
47.011842
20
26.775
30
0
210
0
220
0
230
1
1
\W01.000;\fsimplex.shx,bigfont.shx;57.9 
40
4.5
41
0
44
1.084337
50
0
71
7
72
5
7
DEFAULT
0
LINE
5
183
100
AcDbEntity
8
2
62
256
6
ByLayer
370
-1
48
1
60
0
100
AcDbLine
10
22.1
20
12
30
0
11
22.1
21
27.65
31
0
39
0
210
0
220
0
230
1
0
LINE
5
184
100
AcDbEntity
8
2
62
256
6
ByLayer
370
-1
48
1
60
0
100
AcDbLine
10
80
20
14.9
30
0
11
80
21
27.65
31
0
39
0
210
0
220
0
230
1
0
LINE
5
185
100
AcDbEntity
8
2
62
256
6
ByLayer
370
-1
48
1
60
0
100
AcDbLine
10
22.1
20
25.65
30
0
11
80
21
25.65
31
0
39
0
210
0
220
0
230
1
0
LINE
5
186
100
AcDbEntity
8
2
62
256
6
ByLayer
370
-1
48
1
60
0
100
AcDbLine
10
22.1
20
25.65
30
0
11
25.274998
21
26.067997
31
0
39
0
210
0
220
0
230
1
0
LINE
5
187
100
AcDbEntity
8
2
62
256
6
ByLayer
370
-1
48
1
60
0
100
AcDbLine
10
22.1
20
25.65
30
0
11
25.275002
21
25.232003
31
0
39
0
210
0
220
0
230
1
0
LINE
5
188
100
AcDbEntity
8
2
62
256
6
ByLayer
370
-1
48
1
60
0
100
AcDbLine
10
25.274998
20
26.067997
30
0
11
25.275002
21
25.232003
31
0
39
0
210
0
220
0
230
1
0
LINE
5
189
100
AcDbEntity
8
2
62
256
6
ByLayer
370
-1
48
1
60
0
100
AcDbLine
10
80
20
25.65
30
0
11
76.825002
21
25.232003
31
0
39
0
210
0
220
0
230
1
0
LINE
5
18A
100
AcDbEntity
8
2
62
256
6
ByLayer
370
-1
48
1
60
0
100
AcDbLine
10
80
20
25.65
30
0
11
76.824998
21
26.067997
31
0
39
0
210
0
220
0
230
1
0
LINE
5
18B
100
AcDbEntity
8
2
62
256
6
ByLayer
370
-1
48
1
60
0
100
AcDbLine
10
76.825002
20
25.232003
30
0
11
76.824998
21
26.067997
31
0
39
0
210
0
220
0
230
1
0
ENDBLK
5
18D
100
AcDbEntity
8
0
100
AcDbBlockEnd
0
BLOCK
5
19A
100
AcDbEntity
8
0
100
AcDbBlockBegin
2
DimnDraft3D6
70
0
10
0
20
0
30
0
3
DimnDraft3D6
0
MTEXT
5
190
100
AcDbEntity
8
2
62
256
6
ByLayer
370
-1
48
1
60
0
100
AcDbMText
10
107.046196
20
-36.834311
30
0
210
0
220
0
230
1
1
\W01.000;\fsimplex.shx,bigfont.shx;93%%d0' 
40
4.5
41
0
44
1.084337
50
43.5
71
7
72
5
7
DEFAULT
0
LINE
5
191
100
AcDbEntity
8
2
62
256
6
ByLayer
370
-1
48
1
60
0
100
AcDbLine
10
79.319633
20
-0.082184
30
0
11
76.763329
21
-48.859355
31
0
39
0
210
0
220
0
230
1
0
LINE
5
192
100
AcDbEntity
8
2
62
256
6
ByLayer
370
-1
48
1
60
0
100
AcDbLine
10
82
20
0
30
0
11
128.250347
21
0
31
0
39
0
210
0
220
0
230
1
0
ARC
5
193
100
AcDbEntity
8
2
62
256
6
ByLayer
370
-1
48
1
60
0
100
AcDbCircle
39
0
10
79.32394
20
0
30
0
40
46.9264068782928
210
0
220
0
230
1
100
AcDbArc
50
267
51
0
0
LINE
5
194
100
AcDbEntity
8
2
62
256
6
ByLayer
370
-1
48
1
60
0
100
AcDbLine
10
76.868001
20
-46.862096
30
0
11
80.05582
21
-46.556897
31
0
39
0
210
0
220
0
230
1
0
LINE
5
195
100
AcDbEntity
8
2
62
256
6
ByLayer
370
-1
48
1
60
0
100
AcDbLine
10
76.868001
20
-46.862096
30
0
11
80.026192
21
-47.392365
31
0
39
0
210
0
220
0
230
1
0
LINE
5
196
100
AcDbEntity
8
2
62
256
6
ByLayer
370
-1
48
1
60
0
100
AcDbLine
10
80.05582
20
-46.556897
30
0
11
80.026192
21
-47.392365
31
0
39
0
210
0
220
0
230
1
0
LINE
5
197
100
AcDbEntity
8
2
62
256
6
ByLayer
370
-1
48
1
60
0
100
AcDbLine
10
126.250347
20
0
30
0
11
126.614602
21
-3.181612
31
0
39
0
210
0
220
0
230
1
0
LINE
5
198
100
AcDbEntity
8
2
62
256
6
ByLayer
370
-1
48
1
60
0
100
AcDbLine
10
126.250347
20
0
30
0
11
125.778728
21
-3.16748
31
0
39
0
210
0
220
0
230
1
0
LINE
5
199
100
AcDbEntity
8
2
62
256
6
ByLayer
370
-1
48
1
60
0
100
AcDbLine
10
126.614602
20
-3.181612
30
0
11
125.778728
21
-3.16748
31
0
39
0
210
0
220
0
230
1
0
ENDBLK
5
19B
100
AcDbEntity
8
0
100
AcDbBlockEnd
0
ENDSEC
0
SECTION
2
ENTITIES
0
ARC
5
93
100
AcDbEntity
8
SK1
62
256
6
ByLayer
370
-1
48
1
60
0
100
AcDbCircle
39
0
10
0.6
20
-15
30
0
40
1
210
0
220
0
230
-1
100
AcDbArc
50
113.578178
51
126.869898
0
ARC
5
94
100
AcDbEntity
8
SK1
62
256
6
ByLayer
370
-1
48
1
60
0
100
AcDbCircle
39
0
10
0.6
20
15
30
0
40
1
210
0
220
0
230
-1
100
AcDbArc
50
233.130102
51
246.421822
0
ARC
5
95
100
AcDbEntity
8
1
62
256
6
ByLayer
370
-1
48
1
60
0
100
AcDbCircle
39
0
10
-26.739484
20
-16
30
0
40
6
210
0
220
0
230
-1
100
AcDbArc
50
14.574216
51
90
0
ARC
5
96
100
AcDbEntity
8
1
62
256
6
ByLayer
370
-1
48
1
60
0
100
AcDbCircle
39
0
10
-26.739484
20
16
30
0
40
6
210
0
220
0
230
-1
100
AcDbArc
50
270
51
345.425784
0
ELLIPSE
5
97
100
AcDbEntity
8
1
62
256
6
ByLayer
370
-1
48
1
60
0
100
AcDbEllipse
10
246.032324
20
-0.000526
30
0
11
1907.18151200909
21
-1.00051099418149
31
0
210
0
220
0
230
-1
40
0.005217
41
1.66279696298527
42
1.66604604270694
0
ELLIPSE
5
98
100
AcDbEntity
8
1
62
256
6
ByLayer
370
-1
48
1
60
0
100
AcDbEllipse
10
70.154526
20
-3.605404
30
0
11
1.49794430213186
21
-0.0785039343644125
31
0
210
0
220
0
230
1
40
0.994969
41
1.92078370055015
42
3.00021527915992
0
ELLIPSE
5
99
100
AcDbEntity
8
1
62
256
6
ByLayer
370
-1
48
1
60
0
100
AcDbEllipse
10
70.154526
20
-3.605404
30
0
11
1.49794430213186
21
-0.0785039343644125
31
0
210
0
220
0
230
1
40
0.994969
41
0.141365422157469
42
0.521792620209476
0
ELLIPSE
5
9A
100
AcDbEntity
8
1
62
256
6
ByLayer
370
-1
48
1
60
0
100
AcDbEllipse
10
60.72267
20
0
30
0
11
14.2895138393505
21
-9.97563970221418
31
0
210
0
220
0
230
-1
40
0.048817
41
-2.9044195448925
42
-2.56596707038013
0
ELLIPSE
5
9B
100
AcDbEntity
8
1
62
256
6
ByLayer
370
-1
48
1
60
0
100
AcDbEllipse
10
81.949325
20
3.28369
30
0
11
-3.19561451121463
21
0.167475059977413
31
0
210
0
220
0
230
1
40
0.994969
41
0.52936028948504
42
0.616987723653931
0
ELLIPSE
5
9C
100
AcDbEntity
8
1
62
256
6
ByLayer
370
-1
48
1
60
0
100
AcDbEllipse
10
70.740564
20
-1.295067
30
0
11
1.77240405798873
21
-0.0928877606714361
31
0
210
0
220
0
230
1
40
0.994969
41
2.1816615649929
42
-2.62171267453888
0
ELLIPSE
5
9D
100
AcDbEntity
8
1
62
256
6
ByLayer
370
-1
48
1
60
0
100
AcDbEllipse
10
246.039512
20
0.00012
30
0
11
1907.22149671573
21
-1.00047114043403
31
0
210
0
220
0
230
-1
40
0.005217
41
-1.67413882832531
42
-1.66542836291888
0
ELLIPSE
5
9E
100
AcDbEntity
8
1
62
256
6
ByLayer
370
-1
48
1
60
0
100
AcDbEllipse
10
54.822524
20
16.594753
30
0
11
8.58821399888934
21
-0.450089223689299
31
0
210
0
220
0
230
1
40
0.994969
41
-2.12903742649804
42
-1.51817218830002
0
ELLIPSE
5
9F
100
AcDbEntity
8
1
62
256
6
ByLayer
370
-1
48
1
60
0
100
AcDbEllipse
10
88.021809
20
0
30
0
11
30.8805156989992
21
-2.25505717651407
31
0
210
0
220
0
230
-1
40
0.315488
41
2.38227537497634
42
-2.57674111332198
0
ELLIPSE
5
A0
100
AcDbEntity
8
1
62
256
6
ByLayer
370
-1
48
1
60
0
100
AcDbEllipse
10
68.504895
20
-0.21746
30
0
11
-1.45456230846864
21
-0.666519685217454
31
0
210
0
220
0
230
1
40
0.088863
41
0.420680879377311
42
1.52433694035127
0
ELLIPSE
5
A1
100
AcDbEntity
8
1
62
256
6
ByLayer
370
-1
48
1
60
0
100
AcDbEllipse
10
65.593408
20
-1.537055
30
0
11
1.59780725560732
21
-0.0837375299887068
31
0
210
0
220
0
230
1
40
0.994969
41
-0.463382686839911
42
7.76007877493639E-06
0
ELLIPSE
5
A2
100
AcDbEntity
8
1
62
256
6
ByLayer
370
-1
48
1
60
0
100
AcDbEllipse
10
16.948929
20
0
30
0
11
9.3674178797817
21
-19.7417491527498
31
0
210
0
220
0
230
-1
40
0.341999
41
2.04527312608988
42
2.98886640869144
0
ELLIPSE
5
A3
100
AcDbEntity
8
1
62
256
6
ByLayer
370
-1
48
1
60
0
100
AcDbEllipse
10
70.157934
20
-3.540374
30
0
11
1.49794430213186
21
-0.0785039343644125
31
0
210
0
220
0
230
1
40
0.994969
41
1.92082517731632
42
2.26792026907301
0
ELLIPSE
5
A4
100
AcDbEntity
8
1
62
256
6
ByLayer
370
-1
48
1
60
0
100
AcDbEllipse
10
70.157934
20
-3.540374
30
0
11
1.49794430213186
21
-0.0785039343644125
31
0
210
0
220
0
230
1
40
0.994969
41
0.400720939201705
42
0.48591167667389
0
ELLIPSE
5
A5
100
AcDbEntity
8
1
62
256
6
ByLayer
370
-1
48
1
60
0
100
AcDbEllipse
10
68.37755
20
-3.108048
30
0
11
-1.39028624327816
21
0.791899085585717
31
0
210
0
220
0
230
1
40
0.089617
41
0.044975121894419
42
1.61577144868926
0
ELLIPSE
5
A6
100
AcDbEntity
8
1
62
256
6
ByLayer
370
-1
48
1
60
0
100
AcDbEllipse
10
62.618826
20
5.534955
30
0
11
1.33659767044668
21
-0.906732034226449
31
0
210
0
220
0
230
-1
40
0.964523
41
-2.15127860246268
42
-1.00782368147109
0
ELLIPSE
5
A7
100
AcDbEntity
8
1
62
256
6
ByLayer
370
-1
48
1
60
0
100
AcDbEllipse
10
49.901938
20
9.745461
30
0
11
0.914406415159379
21
1.31295883709862
31
0
210
0
220
0
230
1
40
0.053066
41
-2.55991247468499
42
-1.65599250888056
0
ELLIPSE
5
A8
100
AcDbEntity
8
1
62
256
6
ByLayer
370
-1
48
1
60
0
100
AcDbEllipse
10
68.439359
20
0
30
0
11
5.6526260171179
21
9.9975673622704
31
0
210
0
220
0
230
-1
40
0.039019
41
-2.80456770578789
42
-2.12470932860561
0
ELLIPSE
5
A9
100
AcDbEntity
8
1
62
256
6
ByLayer
370
-1
48
1
60
0
100
AcDbEllipse
10
70.721951
20
-1.650226
30
0
11
-1.62277299397618
21
0.0850459288947799
31
0
210
0
220
0
230
1
40
0.994969
41
-0.924408013919801
42
-0.0682293850456228
0
ELLIPSE
5
AA
100
AcDbEntity
8
1
62
256
6
ByLayer
370
-1
48
1
60
0
100
AcDbEllipse
10
-0.948929
20
0
30
0
11
9.36741787978168
21
-19.7417491527498
31
0
210
0
220
0
230
-1
40
0.341999
41
-1.09631952749991
42
-0.152726244898338
0
ELLIPSE
5
AB
100
AcDbEntity
8
1
62
256
6
ByLayer
370
-1
48
1
60
0
100
AcDbEllipse
10
65.61928
20
-1.043385
30
0
11
1.33659767045768
21
-0.90673203421478
31
0
210
0
220
0
230
-1
40
0.964523
41
-1.00782368146108
42
-0.0644754503235084
0
ELLIPSE
5
AC
100
AcDbEntity
8
1
62
256
6
ByLayer
370
-1
48
1
60
0
100
AcDbEllipse
10
54.835447
20
8.197972
30
0
11
-2.93905524917371E-16
21
-1.6
31
0
210
0
220
0
230
1
40
0.00527
41
-1.47058388292052
42
-0.813328407899015
0
ELLIPSE
5
AD
100
AcDbEntity
8
1
62
256
6
ByLayer
370
-1
48
1
60
0
100
AcDbEllipse
10
-0.948929
20
0
30
0
11
9.36741787978086
21
19.7417491527488
31
0
210
0
220
0
230
-1
40
0.341999
41
0.152726244898353
42
1.09631952749996
0
ELLIPSE
5
AE
100
AcDbEntity
8
1
62
256
6
ByLayer
370
-1
48
1
60
0
100
AcDbEllipse
10
65.503012
20
6.333621
30
0
11
-1.45456230846864
21
-0.666519685217454
31
0
210
0
220
0
230
1
40
0.088863
41
0.527961379629379
42
1.52433694035129
0
ELLIPSE
5
AF
100
AcDbEntity
8
1
62
256
6
ByLayer
370
-1
48
1
60
0
100
AcDbEllipse
10
62.589838
20
8.197972
30
0
11
-2.93905524917371E-16
21
-1.6
31
0
210
0
220
0
230
1
40
0.00527
41
-1.47058388292052
42
-0.824152002775759
0
ELLIPSE
5
B0
100
AcDbEntity
8
1
62
256
6
ByLayer
370
-1
48
1
60
0
100
AcDbEllipse
10
16.948929
20
0
30
0
11
9.36741787978175
21
19.7417491527498
31
0
210
0
220
0
230
-1
40
0.341999
41
-2.98886640869145
42
-2.04527312608988
0
ELLIPSE
5
B1
100
AcDbEntity
8
1
62
256
6
ByLayer
370
-1
48
1
60
0
100
AcDbEllipse
10
65.585019
20
-1.697127
30
0
11
-3.19561451121464
21
0.167475059977413
31
0
210
0
220
0
230
1
40
0.994969
41
2.67820996674988
42
-2.66162710929136
0
ELLIPSE
5
B2
100
AcDbEntity
8
1
62
256
6
ByLayer
370
-1
48
1
60
0
100
AcDbEllipse
10
70.176547
20
-3.185215
30
0
11
-1.49794430213186
21
0.0785039343644123
31
0
210
0
220
0
230
1
40
0.994969
41
-0.770808716976225
42
-2.84373538192866
0
ELLIPSE
5
B3
100
AcDbEntity
8
1
62
256
6
ByLayer
370
-1
48
1
60
0
100
AcDbEllipse
10
70.733486
20
-1.430128
30
0
11
-1.62277299397618
21
0.0850459288947799
31
0
210
0
220
0
230
1
40
0.994969
41
-0.924408013919801
42
0.498363537933492
0
ELLIPSE
5
B4
100
AcDbEntity
8
1
62
256
6
ByLayer
370
-1
48
1
60
0
100
AcDbEllipse
10
62.583136
20
4.853955
30
0
11
-3.19561451121464
21
0.167475059977413
31
0
210
0
220
0
230
1
40
0.994969
41
-2.66162710929136
42
-1.51817218830003
0
ELLIPSE
5
B5
100
AcDbEntity
8
1
62
256
6
ByLayer
370
-1
48
1
60
0
100
AcDbEllipse
10
70.153629
20
10.199151
30
0
11
-3.19561451121465
21
0.167475059977414
31
0
210
0
220
0
230
1
40
0.994969
41
0.837758040957284
42
1.63613363721631
0
ELLIPSE
5
B6
100
AcDbEntity
8
1
62
256
6
ByLayer
370
-1
48
1
60
0
100
AcDbEllipse
10
79.205986
20
12.109768
30
0
11
0.792911850595142
21
-0.0415547492568963
31
0
210
0
220
0
230
1
40
0.994969
41
0
42
2.18166156499286
0
ELLIPSE
5
B7
100
AcDbEntity
8
1
62
256
6
ByLayer
370
-1
48
1
60
0
100
AcDbEllipse
10
70.990467
20
7.003149
30
0
11
0.792911850595143
21
-0.0415547492568963
31
0
210
0
220
0
230
1
40
0.994969
41
2.18166156499291
42
-3.14159265358979
0
ELLIPSE
5
B8
100
AcDbEntity
8
1
62
256
6
ByLayer
370
-1
48
1
60
0
100
AcDbEllipse
10
70.48592
20
-2.624181
30
0
11
0.792911850595142
21
-0.0415547492568963
31
0
210
0
220
0
230
1
40
0.994969
41
-3.14159265358975
42
-0.959931088596865
0
ELLIPSE
5
B9
100
AcDbEntity
8
1
62
256
6
ByLayer
370
-1
48
1
60
0
100
AcDbEllipse
10
78.701439
20
2.482438
30
0
11
0.792911850595143
21
-0.0415547492568963
31
0
210
0
220
0
230
1
40
0.994969
41
-0.959931088596886
42
3.09173924312373E-14
0
ELLIPSE
5
BA
100
AcDbEntity
8
1
62
256
6
ByLayer
370
-1
48
1
60
0
100
AcDbEllipse
10
73.453131
20
4.591746
30
0
11
-0.291599824148336
21
0.015282099222939
31
0
210
0
220
0
230
1
40
0.994969
41
-1.27122687921973
42
-0.235998002051876
0
ELLIPSE
5
BB
100
AcDbEntity
8
1
62
256
6
ByLayer
370
-1
48
1
60
0
100
AcDbEllipse
10
73.213569
20
5.535319
30
0
11
-0.685059860841638
21
0.0359024659826579
31
0
210
0
220
0
230
1
40
0.994969
41
1.87036577437006
42
2.5400130680745
0
ELLIPSE
5
BC
100
AcDbEntity
8
1
62
256
6
ByLayer
370
-1
48
1
60
0
100
AcDbEllipse
10
74.158886
20
5.784233
30
0
11
-0.291599824148336
21
0.015282099222939
31
0
210
0
220
0
230
1
40
0.994969
41
-2.31254901295658
42
-0.22109991997611
0
ELLIPSE
5
BD
100
AcDbEntity
8
1
62
256
6
ByLayer
370
-1
48
1
60
0
100
AcDbEllipse
10
74.856247
20
6.466108
30
0
11
-0.685059860841638
21
0.0359024659826579
31
0
210
0
220
0
230
1
40
0.994969
41
0.829043640633266
42
1.61303428425409
0
ELLIPSE
5
BE
100
AcDbEntity
8
1
62
256
6
ByLayer
370
-1
48
1
60
0
100
AcDbEllipse
10
75.539953
20
5.76996
30
0
11
-0.291599824148336
21
0.015282099222939
31
0
210
0
220
0
230
1
40
0.994969
41
-2.86991042987721
42
-0.744567725714948
0
ELLIPSE
5
BF
100
AcDbEntity
8
1
62
256
6
ByLayer
370
-1
48
1
60
0
100
AcDbEllipse
10
76.483168
20
5.512293
30
0
11
-0.685059860841638
21
0.0359024659826579
31
0
210
0
220
0
230
1
40
0.994969
41
7.83105847213825E-07
42
0.568627280738827
0
ELLIPSE
5
C0
100
AcDbEntity
8
1
62
256
6
ByLayer
370
-1
48
1
60
0
100
AcDbEllipse
10
76.222048
20
4.574663
30
0
11
-0.291599824148336
21
0.015282099222939
31
0
210
0
220
0
230
1
40
0.994969
41
-2.90701816597914
42
-1.78897472923015
0
ELLIPSE
5
C1
100
AcDbEntity
8
1
62
256
6
ByLayer
370
-1
48
1
60
0
100
AcDbEllipse
10
74.83759
20
4.583204
30
0
11
-1.20484653368139
21
0.0631433312071088
31
0
210
0
220
0
230
1
40
0.994969
41
1.85610330119475
42
2.54104518102066
0
ELLIPSE
5
C2
100
AcDbEntity
8
1
62
256
6
ByLayer
370
-1
48
1
60
0
100
AcDbEllipse
10
74.843638
20
4.69862
30
0
11
1.20484653368139
21
-0.063143331207109
31
0
210
0
220
0
230
1
40
0.994969
41
2.59259447587949
42
2.73065974270322
0
ELLIPSE
5
C3
100
AcDbEntity
8
1
62
256
6
ByLayer
370
-1
48
1
60
0
100
AcDbEllipse
10
74.845061
20
4.725768
30
0
11
1.67420241501604
21
-0.0877412306412916
31
0
210
0
220
0
230
1
40
0.994969
41
-2.05076187109335
42
-1.00635486757808
0
ELLIPSE
5
C4
100
AcDbEntity
8
1
62
256
6
ByLayer
370
-1
48
1
60
0
100
AcDbEllipse
10
76.46161
20
3.63109
30
0
11
-0.685059860841638
21
0.0359024659826579
31
0
210
0
220
0
230
1
40
0.994969
41
-6.31314192252011E-06
42
0.311295790622781
0
ELLIPSE
5
C5
100
AcDbEntity
8
1
62
256
6
ByLayer
370
-1
48
1
60
0
100
AcDbEllipse
10
74.845061
20
4.725768
30
0
11
1.67420241501604
21
-0.0877412306412916
31
0
210
0
220
0
230
1
40
0.994969
41
-3.09516887460859
42
-2.05076187109335
0
ELLIPSE
5
C6
100
AcDbEntity
8
1
62
256
6
ByLayer
370
-1
48
1
60
0
100
AcDbEllipse
10
74.83759
20
4.583204
30
0
11
-1.20484653368139
21
0.0631433312071088
31
0
210
0
220
0
230
1
40
0.994969
41
0.675825649469468
42
1.35868845794898
0
ELLIPSE
5
C7
100
AcDbEntity
8
1
62
256
6
ByLayer
370
-1
48
1
60
0
100
AcDbEllipse
10
74.843638
20
4.69862
30
0
11
1.20484653368139
21
-0.063143331207109
31
0
210
0
220
0
230
1
40
0.994969
41
-0.548998177710358
42
-0.410932910886523
0
ELLIPSE
5
C8
100
AcDbEntity
8
1
62
256
6
ByLayer
370
-1
48
1
60
0
100
AcDbEllipse
10
74.83759
20
4.583204
30
0
11
1.20484653368139
21
-0.063143331207109
31
0
210
0
220
0
230
1
40
0.994969
41
0.568627280738844
42
1.6130342842541
0
ELLIPSE
5
C9
100
AcDbEntity
8
1
62
256
6
ByLayer
370
-1
48
1
60
0
100
AcDbEllipse
10
74.83759
20
4.583204
30
0
11
-1.20484653368139
21
0.0631433312071088
31
0
210
0
220
0
230
1
40
0.994969
41
2.84168643387606
42
-2.57296537285096
0
ELLIPSE
5
CA
100
AcDbEntity
8
1
62
256
6
ByLayer
370
-1
48
1
60
0
100
AcDbEllipse
10
74.845061
20
4.725768
30
0
11
1.67420241501604
21
-0.0877412306412916
31
0
210
0
220
0
230
1
40
0.994969
41
-1.00635486757808
42
0.0464237789812188
0
ELLIPSE
5
CB
100
AcDbEntity
8
1
62
256
6
ByLayer
370
-1
48
1
60
0
100
AcDbEllipse
10
74.856247
20
6.466108
30
0
11
-0.685059860841638
21
0.0359024659826579
31
0
210
0
220
0
230
1
40
0.994969
41
1.61303428425409
42
2.39702492787485
0
ELLIPSE
5
CC
100
AcDbEntity
8
1
62
256
6
ByLayer
370
-1
48
1
60
0
100
AcDbEllipse
10
74.845061
20
4.725768
30
0
11
1.67420241501604
21
-0.0877412306412916
31
0
210
0
220
0
230
1
40
0.994969
41
2.13523778601174
42
-3.09516887460859
0
ELLIPSE
5
CD
100
AcDbEntity
8
1
62
256
6
ByLayer
370
-1
48
1
60
0
100
AcDbEllipse
10
74.83759
20
4.583204
30
0
11
1.20484653368139
21
-0.063143331207109
31
0
210
0
220
0
230
1
40
0.994969
41
2.59259447587949
42
2.73065974270322
0
ELLIPSE
5
CE
100
AcDbEntity
8
1
62
256
6
ByLayer
370
-1
48
1
60
0
100
AcDbEllipse
10
74.845061
20
4.725768
30
0
11
1.67420241501604
21
-0.0877412306412916
31
0
210
0
220
0
230
1
40
0.994969
41
0.0464237789812193
42
1.09083078249649
0
ELLIPSE
5
CF
100
AcDbEntity
8
1
62
256
6
ByLayer
370
-1
48
1
60
0
100
AcDbEllipse
10
73.213569
20
5.535319
30
0
11
-0.685059860841638
21
0.0359024659826579
31
0
210
0
220
0
230
1
40
0.994969
41
2.78324115050819
42
3.14158663131364
0
ELLIPSE
5
D0
100
AcDbEntity
8
1
62
256
6
ByLayer
370
-1
48
1
60
0
100
AcDbEllipse
10
74.83759
20
4.583204
30
0
11
-1.20484653368139
21
0.0631433312071088
31
0
210
0
220
0
230
1
40
0.994969
41
-0.410932910886583
42
0.344094109427324
0
ELLIPSE
5
D1
100
AcDbEntity
8
1
62
256
6
ByLayer
370
-1
48
1
60
0
100
AcDbEllipse
10
74.845061
20
4.725768
30
0
11
1.67420241501604
21
-0.0877412306412916
31
0
210
0
220
0
230
1
40
0.994969
41
1.09083078249649
42
2.13523778601174
0
ELLIPSE
5
D2
100
AcDbEntity
8
1
62
256
6
ByLayer
370
-1
48
1
60
0
100
AcDbEllipse
10
74.83759
20
4.583204
30
0
11
-1.20484653368139
21
0.0631433312071088
31
0
210
0
220
0
230
1
40
0.994969
41
-1.52855836933571
42
-0.548998177710318
0
ELLIPSE
5
D3
100
AcDbEntity
8
1
62
256
6
ByLayer
370
-1
48
1
60
0
100
AcDbEllipse
10
76.483168
20
5.512293
30
0
11
-0.685059860841638
21
0.0359024659826579
31
0
210
0
220
0
230
1
40
0.994969
41
0.568627280738827
42
1.35261792435962
0
ELLIPSE
5
D4
100
AcDbEntity
8
1
62
256
6
ByLayer
370
-1
48
1
60
0
100
AcDbEllipse
10
74.843617
20
4.698212
30
0
11
2.62140252873075
21
-0.137381885137722
31
0
210
0
220
0
230
1
40
0.994969
41
0
42
6.28318530717959
0
ELLIPSE
5
D5
100
AcDbEntity
8
1
62
256
6
ByLayer
370
-1
48
1
60
0
100
AcDbEllipse
10
74.845061
20
4.725768
30
0
11
1.79753316255823
21
-0.0942047212372949
31
0
210
0
220
0
230
1
40
0.994969
41
0
42
6.28318530717959
0
ELLIPSE
5
D6
100
AcDbEntity
8
1
62
256
6
ByLayer
370
-1
48
1
60
0
100
AcDbEllipse
10
74.837721
20
4.585705
30
0
11
2.62140252873076
21
-0.137381885137722
31
0
210
0
220
0
230
1
40
0.994969
41
3.14153321551452
42
-3.4006454843848E-16
0
ELLIPSE
5
D7
100
AcDbEntity
8
1
62
256
6
ByLayer
370
-1
48
1
60
0
100
AcDbEllipse
10
74.839801
20
4.625399
30
0
11
2.94083001014413
21
-0.154122370080571
31
0
210
0
220
0
230
1
40
0.994969
41
0
42
6.28318530717959
0
ELLIPSE
5
D8
100
AcDbEntity
8
1
62
256
6
ByLayer
370
-1
48
1
60
0
100
AcDbEllipse
10
74.840605
20
4.640748
30
0
11
2.99588860426372
21
-0.157007868728825
31
0
210
0
220
0
230
1
40
0.994969
41
-0.755416178846559
42
-2.9755647988367E-16
0
ELLIPSE
5
D9
100
AcDbEntity
8
1
62
256
6
ByLayer
370
-1
48
1
60
0
100
AcDbEllipse
10
74.840605
20
4.640748
30
0
11
2.99588860426372
21
-0.157007868728825
31
0
210
0
220
0
230
1
40
0.994969
41
0
42
0.0526241677111632
0
ELLIPSE
5
DA
100
AcDbEntity
8
1
62
256
6
ByLayer
370
-1
48
1
60
0
100
AcDbEllipse
10
74.840605
20
4.640748
30
0
11
2.99588860426372
21
-0.157007868728825
31
0
210
0
220
0
230
1
40
0.994969
41
-2.3739254136035
42
-0.767688147710834
0
ELLIPSE
5
DB
100
AcDbEntity
8
1
62
256
6
ByLayer
370
-1
48
1
60
0
100
AcDbEllipse
10
74.840605
20
4.640748
30
0
11
2.99588860426372
21
-0.157007868728825
31
0
210
0
220
0
230
1
40
0.994969
41
0.0526241275058865
42
-2.38619704953726
0
ELLIPSE
5
DC
100
AcDbEntity
8
1
62
256
6
ByLayer
370
-1
48
1
60
0
100
AcDbEllipse
10
74.845953
20
4.742793
30
0
11
3.0671162035353
21
-0.160740749030311
31
0
210
0
220
0
230
1
40
0.994969
41
0
42
6.28318530717959
0
POINT
5
41
100
AcDbEntity
8
80
62
256
6
ByLayer
370
-1
48
1
60
0
100
AcDbPoint
10
0
20
0
30
0
39
0
210
0
220
0
230
1
50
360
0
POINT
5
43
100
AcDbEntity
8
81
62
256
6
ByLayer
370
-1
48
1
60
0
100
AcDbPoint
10
80
20
12.9
30
0
39
0
210
0
220
0
230
1
50
360
0
POINT
5
45
100
AcDbEntity
8
1
62
256
6
ByLayer
370
-1
48
1
60
0
100
AcDbPoint
10
0
20
0
30
0
39
0
210
0
220
0
230
1
50
360
0
POINT
5
47
100
AcDbEntity
8
2
62
256
6
ByLayer
370
-1
48
1
60
0
100
AcDbPoint
10
80
20
12.9
30
0
39
0
210
0
220
0
230
1
50
360
0
POINT
5
49
100
AcDbEntity
8
2
62
256
6
ByLayer
370
-1
48
1
60
0
100
AcDbPoint
10
79.777612
20
11.715065
30
0
39
0
210
0
220
0
230
1
50
360
0
SPLINE
5
DD
100
AcDbEntity
8
SK1
62
256
6
ByLayer
370
-1
48
1
60
0
100
AcDbSpline
70
4
71
2
72
6
73
3
40
0
40
0
40
0
40
1
40
1
40
1
41
1
10
-1.69501459340779
20
14.0202240353752
30
0
41
1
10
-2.0975072967039
20
14.0101120177088
30
0
41
1
10
-2.5
20
14.0000000000425
30
0
0
SPLINE
5
DE
100
AcDbEntity
8
SK1
62
256
6
ByLayer
370
-1
48
1
60
0
100
AcDbSpline
70
4
71
2
72
6
73
3
40
0
40
0
40
0
40
1
40
1
40
1
41
1
10
-2.5
20
-14.0000000000165
30
0
41
1
10
-2.0975072967039
20
-14.0101120176829
30
0
41
1
10
-1.69501459340779
20
-14.0202240353492
30
0
0
SPLINE
5
DF
100
AcDbEntity
8
SK1
62
256
6
ByLayer
370
-1
48
1
60
0
100
AcDbSpline
70
4
71
2
72
6
73
3
40
0
40
0
40
0
40
1
40
1
40
1
41
1
10
-2.5
20
14.0000000000425
30
0
41
1
10
-12.5002365839528
20
13.7487592491499
30
0
41
1
10
-22.5004731679057
20
13.4975184982574
30
0
0
SPLINE
5
E0
100
AcDbEntity
8
SK1
62
256
6
ByLayer
370
-1
48
1
60
0
100
AcDbSpline
70
4
71
2
72
6
73
3
40
0
40
0
40
0
40
1
40
1
40
1
41
1
10
-22.5004731679057
20
-13.4975184982324
30
0
41
1
10
-12.5002365839528
20
-13.7487592491245
30
0
41
1
10
-2.5
20
-14.0000000000165
30
0
0
SPLINE
5
E1
100
AcDbEntity
8
SK1
62
256
6
ByLayer
370
-1
48
1
60
0
100
AcDbSpline
70
4
71
2
72
6
73
3
40
0
40
0
40
0
40
1
40
1
40
1
41
1
10
-22.5003908339782
20
13.4978821831766
30
0
41
1
10
-23.250195418368
20
13.0391711292673
30
0
41
1
10
-24
20
12.580456895609
30
0
0
SPLINE
5
E2
100
AcDbEntity
8
SK1
62
256
6
ByLayer
370
-1
48
1
60
0
100
AcDbSpline
70
4
71
2
72
6
73
3
40
0
40
0
40
0
40
1
40
1
40
1
41
1
10
-24
20
-12.579249793836
30
0
41
1
10
-23.2502022102608
20
-13.0377782396013
30
0
41
1
10
-22.5004044652863
20
-13.4963063088843
30
0
0
SPLINE
5
E3
100
AcDbEntity
8
SK1
62
256
6
ByLayer
370
-1
48
1
60
0
100
AcDbSpline
70
4
71
2
72
6
73
3
40
0
40
0
40
0
40
1
40
1
40
1
41
1
10
-1.5307338908475
20
13.6252614478748
30
0
41
1
10
-1.53145146754065
20
13.6187560658346
30
0
41
1
10
-1.53248549198287
20
13.6035488735101
30
0
0
SPLINE
5
E4
100
AcDbEntity
8
SK1
62
256
6
ByLayer
370
-1
48
1
60
0
100
AcDbSpline
70
4
71
3
72
17
73
13
40
0
40
0
40
0
40
0
40
0.0145833558077114
40
0.112130151763803
40
0.219032510386727
40
0.33389777224674
40
0.454856455681662
40
0.579671973306757
40
0.705875321170092
40
0.830911232223804
40
0.952290521297557
40
1
40
1
40
1
40
1
41
1
10
-1.68701305435195
20
-5.32942014223536
30
0
41
1
10
-1.68666930224578
20
-5.38550449046915
30
0
41
1
10
-1.68397445401342
20
-5.81410306988334
30
0
41
1
10
-1.67747795392955
20
-6.59498365509117
30
0
41
1
10
-1.66733035148536
20
-7.67989781062096
30
0
41
1
10
-1.65521296658039
20
-8.75231679586201
30
0
41
1
10
-1.64144529409293
20
-9.78469838326623
30
0
41
1
10
-1.62617518540907
20
-10.7406546133084
30
0
41
1
10
-1.60969228283148
20
-11.593520022169
30
0
41
1
10
-1.59218937142668
20
-12.3124383508891
30
0
41
1
10
-1.57763786243373
20
-12.7998189050261
30
0
41
1
10
-1.56854622455614
20
-13.0112709401583
30
0
41
1
10
-1.56593765313892
20
-13.0666967750816
30
0
0
SPLINE
5
E5
100
AcDbEntity
8
SK1
62
256
6
ByLayer
370
-1
48
1
60
0
100
AcDbSpline
70
4
71
2
72
6
73
3
40
0
40
0
40
0
40
1
40
1
40
1
41
1
10
-1.49999999999994
20
-13.7870504860687
30
0
41
1
10
-0.949999999999932
20
-13.7870504860687
30
0
41
1
10
-0.399999999999977
20
-13.7870504860687
30
0
0
SPLINE
5
E6
100
AcDbEntity
8
SK1
62
256
6
ByLayer
370
-1
48
1
60
0
100
AcDbSpline
70
4
71
2
72
6
73
3
40
0
40
0
40
0
40
1
40
1
40
1
41
1
10
-0.399999999999977
20
13.787050293933
30
0
41
1
10
-0.949999999999932
20
13.787050293933
30
0
41
1
10
-1.49999999999994
20
13.787050293933
30
0
0
SPLINE
5
E7
100
AcDbEntity
8
1
62
256
6
ByLayer
370
-1
48
1
60
0
100
AcDbSpline
70
4
71
3
72
18
73
14
40
0
40
0
40
0
40
0
40
0.0074698584965012
40
0.0074698584965012
40
0.116973966194809
40
0.116973966194809
40
0.25872581190871
40
0.25872581190871
40
0.483357667469334
40
0.483357667469334
40
0.914372095275209
40
0.914372095275209
40
1
40
1
40
1
40
1
41
1
10
6.92320508075693
20
19.1222825906925
30
0
41
1
10
6.92208468721896
20
19.1222825906925
30
0
41
1
10
6.92096421381791
20
19.122278667842
30
0
41
1
10
6.90362587375569
20
19.1221572838471
30
0
41
1
10
6.88729582850942
20
19.1211855627664
30
0
41
1
10
6.8524149477613
20
19.1174067506415
30
0
41
1
10
6.83403826981095
20
19.1141200721533
30
0
41
1
10
6.7918964493229
20
19.1041233146922
30
0
41
1
10
6.77017927255531
20
19.0964050302576
30
0
41
1
10
6.71671845086621
20
19.072454346092
30
0
41
1
10
6.69216738458636
20
19.054370658815
30
0
41
1
10
6.67004133265903
20
19.0320887998676
30
0
41
1
10
6.66660535986762
20
19.0283457512526
30
0
41
1
10
6.66339745962159
20
19.0245744101322
30
0
0
SPLINE
5
E8
100
AcDbEntity
8
1
62
256
6
ByLayer
370
-1
48
1
60
0
100
AcDbSpline
70
4
71
3
72
16
73
12
40
0
40
0
40
0
40
0
40
0.267372091523283
40
0.267372091523283
40
0.600855844067897
40
0.600855844067897
40
0.762574643716936
40
0.762574643716936
40
0.898037673161731
40
0.898037673161731
40
1
40
1
40
1
40
1
41
1
10
6.66339745962154
20
6.1697300194856
30
0
41
1
10
6.67334240635006
20
6.13367828095576
30
0
41
1
10
6.68546814770986
20
6.09801792960664
30
0
41
1
10
6.7192969694421
20
6.02025855383837
30
0
41
1
10
6.74283026958983
20
5.9779480294857
30
0
41
1
10
6.78884631127272
20
5.92367470492701
30
0
41
1
10
6.80595658073201
20
5.90709361727346
30
0
41
1
10
6.84135466156636
20
5.88208699512387
30
0
41
1
10
6.85938079361097
20
5.87260601127599
30
0
41
1
10
6.89283602717148
20
5.86230971122501
30
0
41
1
10
6.90809932802136
20
5.85988980456929
30
0
41
1
10
6.92320508075687
20
5.85988980456929
30
0
0
SPLINE
5
E9
100
AcDbEntity
8
1
62
256
6
ByLayer
370
-1
48
1
60
0
100
AcDbSpline
70
4
71
3
72
16
73
12
40
0
40
0
40
0
40
0
40
0.26737209152346
40
0.26737209152346
40
0.600855844067949
40
0.600855844067949
40
0.762574643716998
40
0.762574643716998
40
0.898037673161785
40
0.898037673161785
40
1
40
1
40
1
40
1
41
1
10
9.33660254037846
20
-6.16973001948571
30
0
41
1
10
9.32665759364994
20
-6.13367828095585
30
0
41
1
10
9.31453185229014
20
-6.0980179296067
30
0
41
1
10
9.28070303055785
20
-6.02025855383846
30
0
41
1
10
9.25716973041017
20
-5.97794802948579
30
0
41
1
10
9.21115368872728
20
-5.92367470492709
30
0
41
1
10
9.19404341926793
20
-5.90709361727357
30
0
41
1
10
9.15864533843364
20
-5.88208699512398
30
0
41
1
10
9.14061920638903
20
-5.87260601127613
30
0
41
1
10
9.10716397282852
20
-5.86230971122512
30
0
41
1
10
9.09190067197864
20
-5.85988980456943
30
0
41
1
10
9.07679491924313
20
-5.85988980456943
30
0
0
SPLINE
5
EA
100
AcDbEntity
8
1
62
256
6
ByLayer
370
-1
48
1
60
0
100
AcDbSpline
70
4
71
2
72
6
73
3
40
0
40
0
40
0
40
1
40
1
40
1
41
0.499740600585934
10
54.8630297681703
20
7.11621294171317
30
0
41
0.500259399414066
10
58.5917286587363
20
7.11800598439437
30
0
41
0.499740600585934
10
62.3188511553126
20
7.11979809982229
30
0
0
SPLINE
5
EB
100
AcDbEntity
8
1
62
256
6
ByLayer
370
-1
48
1
60
0
100
AcDbSpline
70
4
71
3
72
16
73
12
40
0
40
0
40
0
40
0
40
0.26737209152312
40
0.26737209152312
40
0.600855844067793
40
0.600855844067793
40
0.762574643716858
40
0.762574643716858
40
0.898037673161672
40
0.898037673161672
40
1
40
1
40
1
40
1
41
1
10
9.33660254037846
20
19.0245744101322
30
0
41
1
10
9.32665759364994
20
19.036266103658
30
0
41
1
10
9.3145318522902
20
19.0477160699853
30
0
41
1
10
9.2807030305579
20
19.0724552288876
30
0
41
1
10
9.25716973041023
20
19.0857432838256
30
0
41
1
10
9.21115368872734
20
19.1026287554228
30
0
41
1
10
9.19404341926798
20
19.1077588484921
30
0
41
1
10
9.1586453384337
20
19.1154700309996
30
0
41
1
10
9.14061920638903
20
19.1183821582684
30
0
41
1
10
9.10716397282852
20
19.1215414200073
30
0
41
1
10
9.09190067197864
20
19.1222825906925
30
0
41
1
10
9.07679491924313
20
19.1222825906925
30
0
0
SPLINE
5
EC
100
AcDbEntity
8
1
62
256
6
ByLayer
370
-1
48
1
60
0
100
AcDbSpline
70
4
71
3
72
18
73
14
40
0
40
0
40
0
40
0
40
0.0074698584964997
40
0.0074698584964997
40
0.116973966194809
40
0.116973966194809
40
0.258725811908725
40
0.258725811908725
40
0.483357667469371
40
0.483357667469371
40
0.914372095275296
40
0.914372095275296
40
1
40
1
40
1
40
1
41
1
10
6.92320508075693
20
-5.85988980456943
30
0
41
1
10
6.92208468721896
20
-5.85988980456943
30
0
41
1
10
6.92096421381791
20
-5.85990260585547
30
0
41
1
10
6.90362587375569
20
-5.86029870927993
30
0
41
1
10
6.88729582850942
20
-5.86347117694424
30
0
41
1
10
6.8524149477613
20
-5.87578180524324
30
0
41
1
10
6.83403826981095
20
-5.88647487106027
30
0
41
1
10
6.7918964493229
20
-5.91885996191019
30
0
41
1
10
6.77017927255531
20
-5.94374247779564
30
0
41
1
10
6.71671845086615
20
-6.02032056207844
30
0
41
1
10
6.69216738458636
20
-6.07738634703685
30
0
41
1
10
6.67004133265903
20
-6.14652276485683
30
0
41
1
10
6.66660535986762
20
-6.15810095961689
30
0
41
1
10
6.66339745962159
20
-6.16973001948574
30
0
0
SPLINE
5
ED
100
AcDbEntity
8
1
62
256
6
ByLayer
370
-1
48
1
60
0
100
AcDbSpline
70
4
71
3
72
18
73
14
40
0
40
0
40
0
40
0
40
0.0074698584964884
40
0.0074698584964884
40
0.116973966194809
40
0.116973966194809
40
0.258725811908718
40
0.258725811908718
40
0.483357667469339
40
0.483357667469339
40
0.914372095275223
40
0.914372095275223
40
1
40
1
40
1
40
1
41
1
10
9.07679491924307
20
5.85988980456929
30
0
41
1
10
9.07791531278104
20
5.85988980456929
30
0
41
1
10
9.07903578618209
20
5.85990260585533
30
0
41
1
10
9.09637412624431
20
5.86029870927979
30
0
41
1
10
9.11270417149058
20
5.8634711769441
30
0
41
1
10
9.1475850522387
20
5.87578180524309
30
0
41
1
10
9.16596173018905
20
5.8864748710601
30
0
41
1
10
9.20810355067709
20
5.91885996191004
30
0
41
1
10
9.22982072744469
20
5.94374247779547
30
0
41
1
10
9.28328154913385
20
6.02032056207824
30
0
41
1
10
9.30783261541364
20
6.07738634703668
30
0
41
1
10
9.32995866734097
20
6.14652276485666
30
0
41
1
10
9.33339464013244
20
6.15810095961672
30
0
41
1
10
9.33660254037841
20
6.16973001948557
30
0
0
SPLINE
5
EE
100
AcDbEntity
8
1
62
256
6
ByLayer
370
-1
48
1
60
0
100
AcDbSpline
70
4
71
3
72
18
73
14
40
0
40
0
40
0
40
0
40
0.0893073031241838
40
0.0893073031241838
40
0.179390514073301
40
0.179390514073301
40
0.259524510636257
40
0.259524510636257
40
0.386835195924806
40
0.386835195924806
40
0.603052490618545
40
0.603052490618545
40
1
40
1
40
1
40
1
41
1
10
46.9475960875143
20
9.86028174493399
30
0
41
1
10
46.9120408683058
20
9.87574276512987
30
0
41
1
10
46.8894644986791
20
9.89098750306235
30
0
41
1
10
46.881831866749
20
9.91842586308471
30
0
41
1
10
46.8974034515398
20
9.93093152499691
30
0
41
1
10
46.9599944535956
20
9.95029640381392
30
0
41
1
10
47.0037089299854
20
9.9578985878243
30
0
41
1
10
47.139064677987
20
9.97374553212441
30
0
41
1
10
47.2453188690068
20
9.98018513030365
30
0
41
1
10
47.5533665806132
20
9.9925311381767
30
0
41
1
10
47.7758987829311
20
9.9955245642501
30
0
41
1
10
48.4168417600335
20
10.0005441397207
30
0
41
1
10
48.8612678628334
20
9.99994392236491
30
0
41
1
10
49.2982972863288
20
9.99995112494523
30
0
0
SPLINE
5
EF
100
AcDbEntity
8
1
62
256
6
ByLayer
370
-1
48
1
60
0
100
AcDbSpline
70
4
71
3
72
16
73
12
40
0
40
0
40
0
40
0
40
0.267372091523256
40
0.267372091523256
40
0.600855844067868
40
0.600855844067868
40
0.762574643716911
40
0.762574643716911
40
0.898037673161716
40
0.898037673161716
40
1
40
1
40
1
40
1
41
1
10
6.66339745962154
20
-19.0245744101322
30
0
41
1
10
6.67334240635006
20
-19.036266103658
30
0
41
1
10
6.68546814770986
20
-19.0477160699853
30
0
41
1
10
6.7192969694421
20
-19.0724552288877
30
0
41
1
10
6.74283026958983
20
-19.0857432838256
30
0
41
1
10
6.78884631127272
20
-19.1026287554228
30
0
41
1
10
6.80595658073201
20
-19.1077588484921
30
0
41
1
10
6.84135466156636
20
-19.1154700309997
30
0
41
1
10
6.85938079361097
20
-19.1183821582684
30
0
41
1
10
6.89283602717148
20
-19.1215414200073
30
0
41
1
10
6.90809932802136
20
-19.1222825906926
30
0
41
1
10
6.92320508075687
20
-19.1222825906926
30
0
0
SPLINE
5
F0
100
AcDbEntity
8
1
62
256
6
ByLayer
370
-1
48
1
60
0
100
AcDbSpline
70
4
71
3
72
16
73
12
40
0
40
0
40
0
40
0
40
0.251242267349416
40
0.251242267349416
40
0.504714405982681
40
0.504714405982681
40
0.678720132405499
40
0.678720132405499
40
0.853734639986236
40
0.853734639986236
40
1
40
1
40
1
40
1
41
1
10
64.6431897518029
20
-9.8095674857226
30
0
41
1
10
64.4217850083543
20
-9.80934098767034
30
0
41
1
10
64.1972842154489
20
-9.80238763961339
30
0
41
1
10
63.7783619619158
20
-9.77227015237077
30
0
41
1
10
63.5769991551762
20
-9.74832758192193
30
0
41
1
10
63.2970720529092
20
-9.68844088906835
30
0
41
1
10
63.197017681367
20
-9.65769646741211
30
0
41
1
10
63.0470695003158
20
-9.58417316491474
30
0
41
1
10
62.995681371407
20
-9.54012819696516
30
0
41
1
10
62.9550780652883
20
-9.45154416207473
30
0
41
1
10
62.9564560098625
20
-9.40733656173697
30
0
41
1
10
62.9757379345401
20
-9.36219548394598
30
0
0
SPLINE
5
F1
100
AcDbEntity
8
1
62
256
6
ByLayer
370
-1
48
1
60
0
100
AcDbSpline
70
4
71
3
72
8
73
4
40
0
40
0
40
0
40
0
40
1
40
1
40
1
40
1
41
1
10
54.8630297681739
20
7.11621294171317
30
0
41
1
10
52.6172451237188
20
7.11513299725041
30
0
41
1
10
50.4253505230948
20
7.90486984451385
30
0
41
1
10
49.0009786561672
20
8.74781689806591
30
0
0
SPLINE
5
F2
100
AcDbEntity
8
1
62
256
6
ByLayer
370
-1
48
1
60
0
100
AcDbSpline
70
4
71
3
72
18
73
14
40
0
40
0
40
0
40
0
40
0.0074698584964846
40
0.0074698584964846
40
0.116973966194816
40
0.116973966194816
40
0.258725811908727
40
0.258725811908727
40
0.483357667469355
40
0.483357667469355
40
0.91437209527524
40
0.91437209527524
40
1
40
1
40
1
40
1
41
1
10
9.07679491924307
20
-19.1222825906926
30
0
41
1
10
9.07791531278104
20
-19.1222825906926
30
0
41
1
10
9.07903578618209
20
-19.122278667842
30
0
41
1
10
9.09637412624431
20
-19.1221572838471
30
0
41
1
10
9.11270417149058
20
-19.1211855627664
30
0
41
1
10
9.1475850522387
20
-19.1174067506416
30
0
41
1
10
9.16596173018905
20
-19.1141200721534
30
0
41
1
10
9.20810355067709
20
-19.1041233146922
30
0
41
1
10
9.22982072744469
20
-19.0964050302577
30
0
41
1
10
9.28328154913385
20
-19.0724543460921
30
0
41
1
10
9.30783261541364
20
-19.0543706588151
30
0
41
1
10
9.32995866734097
20
-19.0320887998676
30
0
41
1
10
9.33339464013244
20
-19.0283457512527
30
0
41
1
10
9.33660254037841
20
-19.0245744101322
30
0
0
SPLINE
5
F3
100
AcDbEntity
8
1
62
256
6
ByLayer
370
-1
48
1
60
0
100
AcDbSpline
70
4
71
3
72
8
73
4
40
0
40
0
40
0
40
0
40
1
40
1
40
1
40
1
41
1
10
69.2676510289179
20
-2.12719127040612
30
0
41
1
10
69.2292944478007
20
-2.11262568075017
30
0
41
1
10
69.1921563469308
20
-2.10038100089363
30
0
41
1
10
69.1564200915392
20
-2.09051008083043
30
0
0
SPLINE
5
F4
100
AcDbEntity
8
SK1
62
256
6
ByLayer
370
-1
48
1
60
0
100
AcDbSpline
70
4
71
3
72
8
73
4
40
0
40
0
40
0
40
0
40
1
40
1
40
1
40
1
41
1
10
-1.49999999999989
20
2.55452876952822
30
0
41
1
10
-1.44087207369961
20
2.90701199552916
30
0
41
1
10
-1.37532387973016
20
3.25201982801605
30
0
41
1
10
-1.30710678118652
20
3.58871725126215
30
0
0
SPLINE
5
F5
100
AcDbEntity
8
SK1
62
256
6
ByLayer
370
-1
48
1
60
0
100
AcDbSpline
70
4
71
3
72
27
73
23
40
0
40
0
40
0
40
0
40
0.0373491017623529
40
0.088422386502302
40
0.139495671242251
40
0.1905689559822
40
0.241642240722149
40
0.292715525462099
40
0.343788810202048
40
0.394862094941997
40
0.445935379681946
40
0.497008664421895
40
0.548081949161844
40
0.599155233901794
40
0.650228518641743
40
0.701301803381692
40
0.752375088121641
40
0.80344837286159
40
0.854521657601539
40
0.905594942341489
40
0.956668227081438
40
1
40
1
40
1
40
1
41
1
10
-0.399999999999977
20
13.7965930683392
30
0
41
1
10
-0.400000000000034
20
13.7852940851148
30
0
41
1
10
-0.399999999999977
20
13.7501746952335
30
0
41
1
10
-0.399999999999977
20
13.6607745146452
30
0
41
1
10
-0.399999999999977
20
13.5152595834079
30
0
41
1
10
-0.399999999999977
20
13.3190171661248
30
0
41
1
10
-0.399999999999977
20
13.0696050793313
30
0
41
1
10
-0.39999999999992
20
12.765695711353
30
0
41
1
10
-0.39999999999992
20
12.4071875173709
30
0
41
1
10
-0.39999999999992
20
11.9952649527342
30
0
41
1
10
-0.39999999999992
20
11.5324121673266
30
0
41
1
10
-0.39999999999992
20
11.0223736645665
30
0
41
1
10
-0.39999999999992
20
10.470066387995
30
0
41
1
10
-0.39999999999992
20
9.88144573908428
30
0
41
1
10
-0.39999999999992
20
9.26332794093628
30
0
41
1
10
-0.39999999999992
20
8.62318069742537
30
0
41
1
10
-0.39999999999992
20
7.96888164701966
30
0
41
1
10
-0.39999999999992
20
7.30846469728445
30
0
41
1
10
-0.39999999999992
20
6.64985041554638
30
0
41
1
10
-0.39999999999992
20
6.00058612356241
30
0
41
1
10
-0.39999999999992
20
5.39957119182188
30
0
41
1
10
-0.39999999999992
20
5.02226907709914
30
0
41
1
10
-0.39999999999992
20
4.85227506835238
30
0
0
SPLINE
5
F6
100
AcDbEntity
8
SK1
62
256
6
ByLayer
370
-1
48
1
60
0
100
AcDbSpline
70
4
71
3
72
36
73
32
40
0
40
0
40
0
40
0
40
0.0609459679812531
40
0.0609459679812531
40
0.132350572984809
40
0.132350572984809
40
0.203732784324389
40
0.203732784324389
40
0.275101574810937
40
0.275101574810937
40
0.346462424970356
40
0.346462424970356
40
0.417819049793368
40
0.417819049793368
40
0.489174288115022
40
0.489174288115022
40
0.560530863047856
40
0.560530863047856
40
0.631891607752965
40
0.631891607752965
40
0.703260276789038
40
0.703260276789038
40
0.774642141231086
40
0.774642141231086
40
0.846046336364047
40
0.846046336364047
40
0.917489939235092
40
0.917489939235092
40
0.989010298502673
40
0.989010298502673
40
1
40
1
40
1
40
1
41
1
10
-1.69993712518544
20
-14.0200998908196
30
0
41
1
10
-1.69994579429311
20
-14.0197255439057
30
0
41
1
10
-1.69995293797183
20
-13.9984598300086
30
0
41
1
10
-1.699965968995
20
-13.912699878437
30
0
41
1
10
-1.69997144501832
20
-13.8412461697365
30
0
41
1
10
-1.69998026772578
20
-13.6540534429184
30
0
41
1
10
-1.69998362760805
20
-13.5381086536818
30
0
41
1
10
-1.69998893512076
20
-13.2660178923742
30
0
41
1
10
-1.69999089366297
20
-13.1096457528619
30
0
41
1
10
-1.69999393023608
20
-12.759718428774
30
0
41
1
10
-1.69999500206262
20
-12.5659031533754
30
0
41
1
10
-1.69999661222783
20
-12.1434156407086
30
0
41
1
10
-1.69999715099709
20
-11.9144442673658
30
0
41
1
10
-1.69999791606472
20
-11.4234052370848
30
0
41
1
10
-1.69999814136457
20
-11.1610105069826
30
0
41
1
10
-1.69999839419393
20
-10.6045273427662
30
0
41
1
10
-1.69999842180135
20
-10.310058909404
30
0
41
1
10
-1.69999829195729
20
-9.69048832766435
30
0
41
1
10
-1.69999813485146
20
-9.36495240576079
30
0
41
1
10
-1.69999754826785
20
-8.68408754721199
30
0
41
1
10
-1.69999711775762
20
-8.3282356479576
30
0
41
1
10
-1.69999578337627
20
-7.58734438932615
30
0
41
1
10
-1.69999487990981
20
-7.20167717645487
30
0
41
1
10
-1.69999225979791
20
-6.40163925188287
30
0
41
1
10
-1.69999054604449
20
-5.98644558449715
30
0
41
1
10
-1.6999858288633
20
-5.12780487492378
30
0
41
1
10
-1.69998281485044
20
-4.68321714982289
30
0
41
1
10
-1.69997494930925
20
-3.76648812038707
30
0
41
1
10
-1.69997003537304
20
-3.29259296387656
30
0
41
1
10
-1.69996330814757
20
-2.73138446680247
30
0
41
1
10
-1.69996239228777
20
-2.65618850451398
30
0
41
1
10
-1.6999614571626
20
-2.58068890323852
30
0
0
SPLINE
5
F7
100
AcDbEntity
8
SK1
62
256
6
ByLayer
370
-1
48
1
60
0
100
AcDbSpline
70
4
71
3
72
33
73
29
40
0
40
0
40
0
40
0
40
0.0059999172002414
40
0.0460661204192662
40
0.0861323236382909
40
0.126198526857316
40
0.16626473007634
40
0.206330933295365
40
0.24639713651439
40
0.286463339733415
40
0.32652954295244
40
0.366595746171464
40
0.406661949390489
40
0.446728152609514
40
0.486794355828539
40
0.526860559047563
40
0.566926762266588
40
0.606992965485613
40
0.647059168704638
40
0.687125371923662
40
0.727191575142687
40
0.767257778361712
40
0.807323981580737
40
0.847390184799761
40
0.887456388018786
40
0.927522591237811
40
0.967588794456836
40
1
40
1
40
1
40
1
41
1
10
-1.49999999999989
20
-2.55452633951475
30
0
41
1
10
-1.49999999999989
20
-2.57758935777625
30
0
41
1
10
-1.49999999999989
20
-2.75563386385181
30
0
41
1
10
-1.49999999999989
20
-3.10259085919483
30
0
41
1
10
-1.49999999999989
20
-3.62131828040256
30
0
41
1
10
-1.49999999999989
20
-4.17356946094313
30
0
41
1
10
-1.49999999999989
20
-4.75691744833273
30
0
41
1
10
-1.49999999999989
20
-5.36758879010387
30
0
41
1
10
-1.49999999999989
20
-6.00058584498379
30
0
41
1
10
-1.49999999999989
20
-6.64985057156352
30
0
41
1
10
-1.49999999999989
20
-7.30846436616247
30
0
41
1
10
-1.49999999999989
20
-7.96888181888042
30
0
41
1
10
-1.49999999999989
20
-8.62318035716163
30
0
41
1
10
-1.49999999999989
20
-9.26332810646636
30
0
41
1
10
-1.49999999999989
20
-9.88144543350359
30
0
41
1
10
-1.49999999999989
20
-10.4700665265398
30
0
41
1
10
-1.49999999999994
20
-11.022373431452
30
0
41
1
10
-1.49999999999994
20
-11.5324122627522
30
0
41
1
10
-1.49999999999994
20
-11.9952648181666
30
0
41
1
10
-1.49999999999994
20
-12.4071875603976
30
0
41
1
10
-1.49999999999994
20
-12.7656956859389
30
0
41
1
10
-1.49999999999994
20
-13.0696050688166
30
0
41
1
10
-1.49999999999994
20
-13.3190172436223
30
0
41
1
10
-1.49999999999994
20
-13.5152595263794
30
0
41
1
10
-1.49999999999994
20
-13.6607746658667
30
0
41
1
10
-1.49999999999994
20
-13.7589698929487
30
0
41
1
10
-1.49999999999994
20
-13.8105242760186
30
0
41
1
10
-1.49999999999994
20
-13.8227877021916
30
0
41
1
10
-1.49999999999994
20
-13.8245323396283
30
0
0
SPLINE
5
F8
100
AcDbEntity
8
SK1
62
256
6
ByLayer
370
-1
48
1
60
0
100
AcDbSpline
70
4
71
3
72
79
73
75
40
0
40
0
40
0
40
0
40
0.0069311075253428
40
0.0210187902978691
40
0.0351064730703953
40
0.0491941558429215
40
0.0632818386154478
40
0.0773695213879741
40
0.0914572041605003
40
0.105544886933026
40
0.119632569705553
40
0.133720252478079
40
0.147807935250605
40
0.161895618023131
40
0.175983300795658
40
0.190070983568184
40
0.20415866634071
40
0.218246349113237
40
0.232334031885763
40
0.246421714658289
40
0.260509397430815
40
0.274597080203341
40
0.288684762975868
40
0.302772445748394
40
0.31686012852092
40
0.330947811293447
40
0.345035494065973
40
0.359123176838499
40
0.373210859611025
40
0.387298542383551
40
0.401386225156078
40
0.415473907928604
40
0.42956159070113
40
0.443649273473656
40
0.457736956246183
40
0.471824639018709
40
0.485912321791235
40
0.500000004563761
40
0.514087687336288
40
0.528175370108814
40
0.54226305288134
40
0.556350735653866
40
0.570438418426393
40
0.584526101198919
40
0.598613783971445
40
0.612701466743971
40
0.626789149516498
40
0.640876832289024
40
0.65496451506155
40
0.669052197834076
40
0.683139880606603
40
0.697227563379129
40
0.711315246151655
40
0.725402928924181
40
0.739490611696708
40
0.753578294469234
40
0.76766597724176
40
0.781753660014286
40
0.795841342786813
40
0.809929025559339
40
0.824016708331865
40
0.838104391104391
40
0.852192073876918
40
0.866279756649444
40
0.88036743942197
40
0.894455122194496
40
0.908542804967023
40
0.922630487739549
40
0.936718170512075
40
0.950805853284601
40
0.964893536057128
40
0.978981218829654
40
0.99306890160218
40
1
40
1
40
1
40
1
41
1
10
-2.5
20
-13.8300380008039
30
0
41
1
10
-2.5
20
-13.8443994546755
30
0
41
1
10
-2.5
20
-13.8858550854485
30
0
41
1
10
-2.5
20
-13.9432745301022
30
0
41
1
10
-2.5
20
-13.9887542441536
30
0
41
1
10
-2.5
20
-14.0056234056246
30
0
41
1
10
-2.5
20
-13.988752133348
30
0
41
1
10
-2.5
20
-13.9330904587156
30
0
41
1
10
-2.5
20
-13.8339177083708
30
0
41
1
10
-2.5
20
-13.6870701821128
30
0
41
1
10
-2.5
20
-13.4891606659135
30
0
41
1
10
-2.5
20
-13.2377634553435
30
0
41
1
10
-2.5
20
-12.9315646731672
30
0
41
1
10
-2.5
20
-12.5704720586786
30
0
41
1
10
-2.49999999999994
20
-12.1556745862519
30
0
41
1
10
-2.49999999999994
20
-11.6896573582757
30
0
41
1
10
-2.49999999999994
20
-11.1761598486008
30
0
41
1
10
-2.49999999999994
20
-10.6200921552756
30
0
41
1
10
-2.49999999999994
20
-10.0273966309962
30
0
41
1
10
-2.49999999999994
20
-9.40487698463008
30
0
41
1
10
-2.49999999999994
20
-8.75998301936997
30
0
41
1
10
-2.49999999999994
20
-8.10057759802723
30
0
41
1
10
-2.49999999999994
20
-7.43467620819112
30
0
41
1
10
-2.49999999999994
20
-6.77018655593477
30
0
41
1
10
-2.49999999999994
20
-6.11464187468977
30
0
41
1
10
-2.49999999999994
20
-5.47495238907831
30
0
41
1
10
-2.49999999999994
20
-4.85717257311447
30
0
41
1
10
-2.49999999999994
20
-4.26630223424849
30
0
41
1
10
-2.49999999999994
20
-3.70612309484702
30
0
41
1
10
-2.49999999999994
20
-3.17908000235968
30
0
41
1
10
-2.49999999999994
20
-2.68621197756718
30
0
41
1
10
-2.49999999999994
20
-2.22713214869714
30
0
41
1
10
-2.49999999999994
20
-1.80006432484655
30
0
41
1
10
-2.49999999999994
20
-1.40192548161284
30
0
41
1
10
-2.49999999999994
20
-1.02846311010666
30
0
41
1
10
-2.49999999999994
20
-0.674428687296569
30
0
41
1
10
-2.49999999999994
20
-0.333795915844576
30
0
41
1
10
-2.49999999999994
20
7.12340693E-08
30
0
41
1
10
-2.49999999999994
20
0.333795630908241
30
0
41
1
10
-2.49999999999994
20
0.674428818459575
30
0
41
1
10
-2.49999999999994
20
1.02846287039082
30
0
41
1
10
-2.49999999999994
20
1.40192558052763
30
0
41
1
10
-2.49999999999994
20
1.80006416890296
30
0
41
1
10
-2.49999999999994
20
2.22713219916599
30
0
41
1
10
-2.49999999999994
20
2.68621193163514
30
0
41
1
10
-2.49999999999994
20
3.17907999530164
30
0
41
1
10
-2.49999999999994
20
3.70612316901105
30
0
41
1
10
-2.49999999999994
20
4.26630216899858
30
0
41
1
10
-2.49999999999994
20
4.85717275994992
30
0
41
1
10
-2.49999999999994
20
5.47495227341935
30
0
41
1
10
-2.49999999999994
20
6.11464215048997
30
0
41
1
10
-2.49999999999994
20
6.7701864048623
30
0
41
1
10
-2.49999999999994
20
7.43467653668063
30
0
41
1
10
-2.49999999999994
20
8.10057743145504
30
0
41
1
10
-2.49999999999994
20
8.75998335716918
30
0
41
1
10
-2.49999999999994
20
9.40487682435958
30
0
41
1
10
-2.49999999999994
20
10.027396934279
30
0
41
1
10
-2.49999999999994
20
10.6200920217111
30
0
41
1
10
-2.49999999999994
20
11.1761600795757
30
0
41
1
10
-2.49999999999994
20
11.6896572673894
30
0
41
1
10
-2.49999999999994
20
12.1556747188218
30
0
41
1
10
-2.5
20
12.5704720196536
30
0
41
1
10
-2.5
20
12.931564696697
30
0
41
1
10
-2.5
20
13.2377634692878
30
0
41
1
10
-2.5
20
13.4891605866066
30
0
41
1
10
-2.5
20
13.6870702420279
30
0
41
1
10
-2.5
20
13.8339175480175
30
0
41
1
10
-2.5
20
13.9330908491367
30
0
41
1
10
-2.5
20
13.9887513430622
30
0
41
1
10
-2.5
20
14.0056234821498
30
0
41
1
10
-2.5
20
13.9887547283385
30
0
41
1
10
-2.5
20
13.9432743681012
30
0
41
1
10
-2.5
20
13.8858549225244
30
0
41
1
10
-2.5
20
13.8443994049363
30
0
41
1
10
-2.5
20
13.8300379990088
30
0
0
SPLINE
5
F9
100
AcDbEntity
8
SK1
62
256
6
ByLayer
370
-1
48
1
60
0
100
AcDbSpline
70
4
71
3
72
24
73
20
40
0
40
0
40
0
40
0
40
0.0301438054682626
40
0.0301438054682626
40
0.0534484785704926
40
0.0534484785704926
40
0.0720095400082129
40
0.0720095400082129
40
0.0905695383101134
40
0.0905695383101134
40
0.116305960787128
40
0.116305960787128
40
0.162592546214773
40
0.162592546214773
40
0.309069601694218
40
0.309069601694218
40
0.921117608952043
40
0.921117608952043
40
1
40
1
40
1
40
1
41
1
10
-0.39999999999992
20
-4.85227456454996
30
0
41
1
10
-0.394020023648125
20
-4.84686859936412
30
0
41
1
10
-0.38745185957265
20
-4.84195482474243
30
0
41
1
10
-0.374634642632827
20
-4.83535851489759
30
0
41
1
10
-0.36852859233727
20
-4.8331693070069
30
0
41
1
10
-0.357122680087116
20
-4.83148108534394
30
0
41
1
10
-0.351799999816137
20
-4.83153855404609
30
0
41
1
10
-0.341483048247653
20
-4.83346410195867
30
0
41
1
10
-0.336373704588141
20
-4.83534876772512
30
0
41
1
10
-0.325154856426082
20
-4.84135562492241
30
0
41
1
10
-0.319215535802016
20
-4.84610423757906
30
0
41
1
10
-0.304561922415417
20
-4.86072267449359
30
0
41
1
10
-0.296947393086157
20
-4.87187082056749
30
0
41
1
10
-0.269928948964264
20
-4.91910282403435
30
0
41
1
10
-0.258077067230204
20
-4.95889086918967
30
0
41
1
10
-0.207846446885696
20
-5.16015067546422
30
0
41
1
10
-0.202576938682455
20
-5.32517565344045
30
0
41
1
10
-0.200133226173534
20
-5.50577396851835
30
0
41
1
10
-0.199999999999932
20
-5.52643078383124
30
0
41
1
10
-0.199999999999932
20
-5.54704286105715
30
0
0
SPLINE
5
FA
100
AcDbEntity
8
SK1
62
256
6
ByLayer
370
-1
48
1
60
0
100
AcDbSpline
70
4
71
3
72
26
73
22
40
0
40
0
40
0
40
0
40
0.469785788569223
40
0.469785788569223
40
0.668418514928441
40
0.668418514928441
40
0.804692954578532
40
0.804692954578532
40
0.873184756231219
40
0.873184756231219
40
0.896859155065293
40
0.896859155065293
40
0.920924484951571
40
0.920924484951571
40
0.939434470473137
40
0.939434470473137
40
0.957835931594602
40
0.957835931594602
40
0.988578442147356
40
0.988578442147356
40
1
40
1
40
1
40
1
41
1
10
-0.199999999999932
20
5.54704287025544
30
0
41
1
10
-0.199999999999932
20
5.42431718290925
30
0
41
1
10
-0.203964578956231
20
5.29966999710626
30
0
41
1
10
-0.224282767013278
20
5.12103358120197
30
0
41
1
10
-0.232179309049343
20
5.06756976720519
30
0
41
1
10
-0.252704740622107
20
4.978190210186
30
0
41
1
10
-0.262871079026354
20
4.94160900373799
30
0
41
1
10
-0.286311952507617
20
4.88949466422366
30
0
41
1
10
-0.295652382926335
20
4.87213340280371
30
0
41
1
10
-0.312747464259928
20
4.85229180429835
30
0
41
1
10
-0.317656735592436
20
4.84745945050676
30
0
41
1
10
-0.328573296848788
20
4.83925806030632
30
0
41
1
10
-0.334764979883005
20
4.83584014543155
30
0
41
1
10
-0.346232005513514
20
4.8322957525329
30
0
41
1
10
-0.35150620542197
20
4.83157582806544
30
0
41
1
10
-0.361702396533531
20
4.83188756629812
30
0
41
1
10
-0.366737314583702
20
4.83289323712492
30
0
41
1
10
-0.37930147980228
20
4.83714877172162
30
0
41
1
10
-0.386503100688515
20
4.84144785455825
30
0
41
1
10
-0.395398036299696
20
4.84826453743355
30
0
41
1
10
-0.397738018100881
20
4.85023021284434
30
0
41
1
10
-0.39999999999992
20
4.85227506835233
30
0
0
SPLINE
5
FB
100
AcDbEntity
8
SK1
62
256
6
ByLayer
370
-1
48
1
60
0
100
AcDbSpline
70
4
71
3
72
8
73
4
40
0
40
0
40
0
40
0
40
1
40
1
40
1
40
1
41
1
10
-1.30710678118652
20
-3.5887172715492
30
0
41
1
10
-1.37532422566159
20
-3.25201925983745
30
0
41
1
10
-1.44087263133542
20
-2.90701066801501
30
0
41
1
10
-1.49999999999989
20
-2.55452633951475
30
0
0
SPLINE
5
FC
100
AcDbEntity
8
SK1
62
256
6
ByLayer
370
-1
48
1
60
0
100
AcDbSpline
70
4
71
3
72
36
73
32
40
0
40
0
40
0
40
0
40
0.0332996421666341
40
0.0332996421666341
40
0.0866295922416619
40
0.0866295922416619
40
0.193745270168884
40
0.193745270168884
40
0.247042319248779
40
0.247042319248779
40
0.300332977592923
40
0.300332977592923
40
0.353619292121433
40
0.353619292121433
40
0.460448184649849
40
0.460448184649849
40
0.513730575825556
40
0.513730575825556
40
0.620535716610854
40
0.620535716610854
40
0.673818292223676
40
0.673818292223676
40
0.7271023236074
40
0.7271023236074
40
0.833958376066595
40
0.833958376066595
40
0.88724878106689
40
0.88724878106689
40
0.994263406442903
40
0.994263406442903
40
1
40
1
40
1
40
1
41
1
10
-1.69996145737014
20
2.58069190327936
30
0
41
1
10
-1.69996429163041
20
2.80951695785709
30
0
41
1
10
-1.69996696089555
20
3.03562557775425
30
0
41
1
10
-1.699973337193
20
3.6157289366447
30
0
41
1
10
-1.69997671926922
20
3.96552379997851
30
0
41
1
10
-1.69998530650679
20
4.99113580073313
30
0
41
1
10
-1.69998901558614
20
5.6451156934246
30
0
41
1
10
-1.69999286236259
20
6.57296958257461
30
0
41
1
10
-1.69999386162709
20
6.87371338526046
30
0
41
1
10
-1.69999546843786
20
7.4583834927808
30
0
41
1
10
-1.69999607823138
20
7.74261790611689
30
0
41
1
10
-1.69999703744656
20
8.29417338948343
30
0
41
1
10
-1.69999738660749
20
8.56175046472268
30
0
41
1
10
-1.69999817831075
20
9.33946452185438
30
0
41
1
10
-1.69999837743336
20
9.82518649337788
30
0
41
1
10
-1.69999839575109
20
10.4996879381028
30
0
41
1
10
-1.69999835090124
20
10.7156644660853
30
0
41
1
10
-1.69999804475918
20
11.336874457689
30
0
41
1
10
-1.69999762619807
20
11.7157820313895
30
0
41
1
10
-1.69999631259481
20
12.2254945281863
30
0
41
1
10
-1.69999575688217
20
12.385732211918
30
0
41
1
10
-1.69999429236037
20
12.686096780789
30
0
41
1
10
-1.69999338656009
20
12.8263310062018
30
0
41
1
10
-1.69998989513294
20
13.2157140959206
30
0
41
1
10
-1.69998657603577
20
13.4338327645562
30
0
41
1
10
-1.69997869923833
20
13.6890552895256
30
0
41
1
10
-1.69997557888934
20
13.7622199088226
30
0
41
1
10
-1.69996421209731
20
13.9433027119529
30
0
41
1
10
-1.69995396430045
20
14.0130768516047
30
0
41
1
10
-1.69993838351945
20
14.0199514281955
30
0
41
1
10
-1.69993757578186
20
14.0201187474209
30
0
41
1
10
-1.69993675425053
20
14.0201000442182
30
0
0
SPLINE
5
FD
100
AcDbEntity
8
SK1
62
256
6
ByLayer
370
-1
48
1
60
0
100
AcDbSpline
70
4
71
3
72
30
73
26
40
0
40
0
40
0
40
0
40
0.323683715287821
40
0.323683715287821
40
0.409735865249923
40
0.409735865249923
40
0.452928625832081
40
0.452928625832081
40
0.468145406180671
40
0.468145406180671
40
0.475617260213128
40
0.475617260213128
40
0.481869520397867
40
0.481869520397867
40
0.48817626052579
40
0.48817626052579
40
0.495259728072395
40
0.495259728072395
40
0.507216161807773
40
0.507216161807773
40
0.544450808915845
40
0.544450808915845
40
0.715771905876251
40
0.715771905876251
40
1
40
1
40
1
40
1
41
1
10
-1.69996145737014
20
2.58069190327925
30
0
41
1
10
-1.69957279427672
20
2.45735174741614
30
0
41
1
10
-1.69747943572611
20
2.33275959372483
30
0
41
1
10
-1.68280786661541
20
2.17510563663223
30
0
41
1
10
-1.6790531264358
20
2.14178513841156
30
0
41
1
10
-1.66982584439813
20
2.09257517130857
30
0
41
1
10
-1.66622418704014
20
2.07599882381985
30
0
41
1
10
-1.65853526999024
20
2.05523575475587
30
0
41
1
10
-1.65621727335139
20
2.04990011502019
30
0
41
1
10
-1.65190392784495
20
2.04295844851055
30
0
41
1
10
-1.65031465018177
20
2.04081354663947
30
0
41
1
10
-1.64708474378222
20
2.03758976610058
30
0
41
1
10
-1.64546025470031
20
2.03637666738331
30
0
41
1
10
-1.64208683909158
20
2.03484515225668
30
0
41
1
10
-1.64029350998902
20
2.0345257545506
30
0
41
1
10
-1.63665124005524
20
2.03480200364953
30
0
41
1
10
-1.63476836522864
20
2.03549609263416
30
0
41
1
10
-1.63011332934303
20
2.03820563111981
30
0
41
1
10
-1.62749907113709
20
2.04079535648785
30
0
41
1
10
-1.61785331798274
20
2.05253646839518
30
0
41
1
10
-1.61239259265159
20
2.06415551700681
30
0
41
1
10
-1.58481103440909
20
2.12952424336697
30
0
41
1
10
-1.57120245893441
20
2.19071878810982
30
0
41
1
10
-1.53537272921415
20
2.35076653698448
30
0
41
1
10
-1.51709733996256
20
2.45260526361207
30
0
41
1
10
-1.49999999999989
20
2.55452876952825
30
0
0
SPLINE
5
FE
100
AcDbEntity
8
SK1
62
256
6
ByLayer
370
-1
48
1
60
0
100
AcDbSpline
70
4
71
3
72
10
73
6
40
0
40
0
40
0
40
0
40
0.5
40
0.5
40
1
40
1
40
1
40
1
41
1
10
-1.69996145737099
20
2.58069190327947
30
0
41
1
10
-1.83066345631863
20
1.75993459600485
30
0
41
1
10
-1.92828862479951
20
0.882205733470045
30
0
41
1
10
-1.92884980393791
20
-0.873906280567809
30
0
41
1
10
-1.83183274904314
20
-1.75257870763846
30
0
41
1
10
-1.69996145715965
20
-2.5806889032381
30
0
0
SPLINE
5
FF
100
AcDbEntity
8
SK1
62
256
6
ByLayer
370
-1
48
1
60
0
100
AcDbSpline
70
4
71
3
72
27
73
23
40
0
40
0
40
0
40
0
40
0.0433318476030133
40
0.0944051784802365
40
0.14547850935746
40
0.196551840234683
40
0.247625171111906
40
0.29869850198913
40
0.349771832866353
40
0.400845163743576
40
0.451918494620799
40
0.502991825498022
40
0.554065156375245
40
0.605138487252469
40
0.656211818129692
40
0.707285149006915
40
0.758358479884139
40
0.809431810761362
40
0.860505141638585
40
0.911578472515808
40
0.962651803393031
40
1
40
1
40
1
40
1
41
1
10
-0.39999999999992
20
-4.85227456455002
30
0
41
1
10
-0.39999999999992
20
-5.02226873502778
30
0
41
1
10
-0.39999999999992
20
-5.3995711445526
30
0
41
1
10
-0.39999999999992
20
-6.00058584498379
30
0
41
1
10
-0.39999999999992
20
-6.64985057156352
30
0
41
1
10
-0.39999999999992
20
-7.30846436616247
30
0
41
1
10
-0.39999999999992
20
-7.96888181888042
30
0
41
1
10
-0.39999999999992
20
-8.62318035716163
30
0
41
1
10
-0.39999999999992
20
-9.26332810646636
30
0
41
1
10
-0.39999999999992
20
-9.88144543350359
30
0
41
1
10
-0.39999999999992
20
-10.4700665265398
30
0
41
1
10
-0.39999999999992
20
-11.022373431452
30
0
41
1
10
-0.39999999999992
20
-11.5324122627522
30
0
41
1
10
-0.39999999999992
20
-11.9952648181666
30
0
41
1
10
-0.39999999999992
20
-12.4071875603976
30
0
41
1
10
-0.39999999999992
20
-12.7656956859389
30
0
41
1
10
-0.399999999999977
20
-13.0696050688166
30
0
41
1
10
-0.399999999999977
20
-13.3190172436223
30
0
41
1
10
-0.399999999999977
20
-13.5152595263794
30
0
41
1
10
-0.399999999999977
20
-13.6607746658667
30
0
41
1
10
-0.399999999999977
20
-13.7501737648896
30
0
41
1
10
-0.400000000000034
20
-13.7852935510281
30
0
41
1
10
-0.400000000000034
20
-13.7965925646335
30
0
0
SPLINE
5
100
100
AcDbEntity
8
SK1
62
256
6
ByLayer
370
-1
48
1
60
0
100
AcDbSpline
70
4
71
3
72
73
73
69
40
0
40
0
40
0
40
0
40
0.0021269019394747
40
0.0175876598887031
40
0.0330484178379314
40
0.0485091757871598
40
0.0639699337363882
40
0.0794306916856166
40
0.094891449634845
40
0.110352207584073
40
0.125812965533302
40
0.14127372348253
40
0.156734481431759
40
0.172195239380987
40
0.187655997330215
40
0.203116755279444
40
0.218577513228672
40
0.234038271177901
40
0.249499029127129
40
0.264959787076357
40
0.280420545025586
40
0.295881302974814
40
0.311342060924042
40
0.326802818873271
40
0.342263576822499
40
0.357724334771728
40
0.373185092720956
40
0.388645850670184
40
0.404106608619413
40
0.419567366568641
40
0.43502812451787
40
0.450488882467098
40
0.465949640416326
40
0.481410398365555
40
0.496871156314783
40
0.512331914264012
40
0.52779267221324
40
0.543253430162468
40
0.558714188111697
40
0.574174946060925
40
0.589635704010154
40
0.605096461959382
40
0.62055721990861
40
0.636017977857839
40
0.651478735807067
40
0.666939493756295
40
0.682400251705524
40
0.697861009654752
40
0.713321767603981
40
0.728782525553209
40
0.744243283502438
40
0.759704041451666
40
0.775164799400894
40
0.790625557350123
40
0.806086315299351
40
0.821547073248579
40
0.837007831197808
40
0.852468589147036
40
0.867929347096265
40
0.883390105045493
40
0.898850862994721
40
0.91431162094395
40
0.929772378893178
40
0.945233136842407
40
0.960693894791635
40
0.976154652740863
40
0.991615410690092
40
1
40
1
40
1
40
1
41
1
10
-22.5004731679057
20
13.2758819190878
30
0
41
1
10
-22.5004731679057
20
13.2802062554133
30
0
41
1
10
-22.5004731679057
20
13.3155954383733
30
0
41
1
10
-22.5004731679057
20
13.3761852100001
30
0
41
1
10
-22.5004731679057
20
13.4428288363681
30
0
41
1
10
-22.5004731679057
20
13.4866768366259
30
0
41
1
10
-22.5004731679057
20
13.5029401449552
30
0
41
1
10
-22.5004731679057
20
13.4866735728523
30
0
41
1
10
-22.5004731679057
20
13.4330108195395
30
0
41
1
10
-22.5004731679057
20
13.337397000512
30
0
41
1
10
-22.5004731679057
20
13.1958202698685
30
0
41
1
10
-22.5004731679057
20
13.0050138959382
30
0
41
1
10
-22.5004731679057
20
12.7626398072662
30
0
41
1
10
-22.5004731679057
20
12.4674309788965
30
0
41
1
10
-22.5004731679057
20
12.1192984726134
30
0
41
1
10
-22.5004731679057
20
11.7193888839714
30
0
41
1
10
-22.5004731679057
20
11.2700975146
30
0
41
1
10
-22.5004731679057
20
10.7750305295073
30
0
41
1
10
-22.5004731679057
20
10.2389206082719
30
0
41
1
10
-22.5004731679056
20
9.66749825781358
30
0
41
1
10
-22.5004731679056
20
9.06732135073148
30
0
41
1
10
-22.5004731679056
20
8.44557410053281
30
0
41
1
10
-22.5004731679056
20
7.80983526623564
30
0
41
1
10
-22.5004731679056
20
7.16783457729306
30
0
41
1
10
-22.5004731679056
20
6.52719401685732
30
0
41
1
10
-22.5004731679056
20
5.89517825258659
30
0
41
1
10
-22.5004731679056
20
5.27844782766641
30
0
41
1
10
-22.5004731679056
20
4.68284136974694
30
0
41
1
10
-22.5004731679056
20
4.11317803178852
30
0
41
1
10
-22.5004731679056
20
3.57310471645678
30
0
41
1
10
-22.5004731679056
20
3.06497793170669
30
0
41
1
10
-22.5004731679056
20
2.58979965981251
30
0
41
1
10
-22.5004731679056
20
2.14719700401545
30
0
41
1
10
-22.5004731679056
20
1.73545710126746
30
0
41
1
10
-22.5004731679056
20
1.35160831830677
30
0
41
1
10
-22.5004731679056
20
0.99154975841634
30
0
41
1
10
-22.5004731679056
20
0.650222532349147
30
0
41
1
10
-22.5004731679056
20
0.321815193057716
30
0
41
1
10
-22.5004731679056
20
6.8677366E-08
30
0
41
1
10
-22.5004731679056
20
-0.321815467767209
30
0
41
1
10
-22.5004731679056
20
-0.6502224058938
30
0
41
1
10
-22.5004731679056
20
-0.991549989528409
30
0
41
1
10
-22.5004731679056
20
-1.35160822294216
30
0
41
1
10
-22.5004731679056
20
-1.73545725161398
30
0
41
1
10
-22.5004731679056
20
-2.147196955358
30
0
41
1
10
-22.5004731679056
20
-2.58979970409598
30
0
41
1
10
-22.5004731679056
20
-3.06497793851142
30
0
41
1
10
-22.5004731679056
20
-3.57310464495464
30
0
41
1
10
-22.5004731679056
20
-4.11317809469654
30
0
41
1
10
-22.5004731679056
20
-4.68284118961728
30
0
41
1
10
-22.5004731679056
20
-5.27844793917419
30
0
41
1
10
-22.5004731679056
20
-5.8951779866853
30
0
41
1
10
-22.5004731679056
20
-6.52719416250756
30
0
41
1
10
-22.5004731679056
20
-7.16783426059354
30
0
41
1
10
-22.5004731679056
20
-7.80983542682932
30
0
41
1
10
-22.5004731679056
20
-8.44557377485773
30
0
41
1
10
-22.5004731679056
20
-9.06732150524965
30
0
41
1
10
-22.5004731679056
20
-9.66749796541603
30
0
41
1
10
-22.5004731679057
20
-10.2389207370426
30
0
41
1
10
-22.5004731679057
20
-10.7750303068224
30
0
41
1
10
-22.5004731679057
20
-11.2700976022241
30
0
41
1
10
-22.5004731679057
20
-11.7193887561596
30
0
41
1
10
-22.5004731679057
20
-12.1192985102377
30
0
41
1
10
-22.5004731679057
20
-12.4674309562112
30
0
41
1
10
-22.5004731679057
20
-12.7626397938224
30
0
41
1
10
-22.5004731679057
20
-13.0050139723987
30
0
41
1
10
-22.5004731679057
20
-13.1667104462908
30
0
41
1
10
-22.5004731679057
20
-13.2452876128955
30
0
41
1
10
-22.5004731679057
20
-13.2705909223857
30
0
0
SPLINE
5
101
100
AcDbEntity
8
SK1
62
256
6
ByLayer
370
-1
48
1
60
0
100
AcDbSpline
70
4
71
3
72
28
73
24
40
0
40
0
40
0
40
0
40
0.0501427564991567
40
0.0501427564991567
40
0.16249976911837
40
0.16249976911837
40
0.274856781737583
40
0.274856781737583
40
0.387213794356797
40
0.387213794356797
40
0.49957080697601
40
0.49957080697601
40
0.555749313285617
40
0.555749313285617
40
0.611927819595224
40
0.611927819595224
40
0.724284832214437
40
0.724284832214437
40
0.83664184483365
40
0.83664184483365
40
0.948998857452864
40
0.948998857452864
40
1
40
1
40
1
40
1
41
1
10
-24
20
12.5805081847721
30
0
41
1
10
-24
20
12.5752826496516
30
0
41
1
10
-24
20
12.5048481056025
30
0
41
1
10
-24
20
12.1268240366655
30
0
41
1
10
-24
20
11.6069824914266
30
0
41
1
10
-24
20
10.2308904791419
30
0
41
1
10
-23.9999999999999
20
9.3350510096983
30
0
41
1
10
-24
20
7.25451337711701
30
0
41
1
10
-24
20
6.03406201720802
30
0
41
1
10
-23.9999999999999
20
3.29058259471469
30
0
41
1
10
-23.9999999999999
20
1.73762162493182
30
0
41
1
10
-23.9999999999999
20
-0.765894734704204
30
0
41
1
10
-23.9999999999999
20
-1.58205517513369
30
0
41
1
10
-24
20
-3.14126978157822
30
0
41
1
10
-23.9999999999999
20
-3.8725832985441
30
0
41
1
10
-24
20
-5.96204061486441
30
0
41
1
10
-24
20
-7.16781782016216
30
0
41
1
10
-24
20
-9.29720085705901
30
0
41
1
10
-24
20
-10.1768487891987
30
0
41
1
10
-24
20
-11.5892073073507
30
0
41
1
10
-24
20
-12.1068779312492
30
0
41
1
10
-24
20
-12.4983591952166
30
0
41
1
10
-24
20
-12.5722980967013
30
0
41
1
10
-24
20
-12.5789068153825
30
0
0
SPLINE
5
102
100
AcDbEntity
8
SK1
62
256
6
ByLayer
370
-1
48
1
60
0
100
AcDbSpline
70
4
71
3
72
30
73
26
40
0
40
0
40
0
40
0
40
0.124897922391381
40
0.124897922391381
40
0.167561104039919
40
0.167561104039919
40
0.203477104541937
40
0.203477104541937
40
0.240104439326309
40
0.240104439326309
40
0.250944368985584
40
0.250944368985584
40
0.261968600588481
40
0.261968600588481
40
0.271359827232317
40
0.271359827232317
40
0.284980205918507
40
0.284980205918507
40
0.31124172552865
40
0.31124172552865
40
0.40668575699313
40
0.40668575699313
40
0.786544903778702
40
0.786544903778702
40
1
40
1
40
1
40
1
41
1
10
-1.57434200672606
20
13.5697524952529
30
0
41
1
10
-1.58142388217652
20
13.5659826201094
30
0
41
1
10
-1.5890363536472
20
13.5626863620185
30
0
41
1
10
-1.6013072359338
20
13.5605634744677
30
0
41
1
10
-1.60462784617891
20
13.5602351852046
30
0
41
1
10
-1.61136477270867
20
13.5603829527657
30
0
41
1
10
-1.6146830542956
20
13.5607248602462
30
0
41
1
10
-1.62228239094077
20
13.5626439304685
30
0
41
1
10
-1.62665165692869
20
13.5641658144187
30
0
41
1
10
-1.633716248285
20
13.5686250506848
30
0
41
1
10
-1.6354830178696
20
13.5698688039791
30
0
41
1
10
-1.63916555696898
20
13.5728313577292
30
0
41
1
10
-1.64113772385815
20
13.5746110950765
30
0
41
1
10
-1.64462082807188
20
13.5781471549731
30
0
41
1
10
-1.64619573481406
20
13.5799049614575
30
0
41
1
10
-1.64972043997636
20
13.584157849073
30
0
41
1
10
-1.65159006135411
20
13.5866989919877
30
0
41
1
10
-1.65639599432831
20
13.5937562155754
30
0
41
1
10
-1.65888709683196
20
13.598117184021
30
0
41
1
10
-1.66876077054769
20
13.6169304791085
30
0
41
1
10
-1.67291602816357
20
13.6292362105215
30
0
41
1
10
-1.69081671913955
20
13.6869666460463
30
0
41
1
10
-1.69435307535019
20
13.7234530454499
30
0
41
1
10
-1.69876945362603
20
13.7776281868664
30
0
41
1
10
-1.69958314545909
20
13.7961831676943
30
0
41
1
10
-1.69987639962216
20
13.8139891097792
30
0
0
SPLINE
5
103
100
AcDbEntity
8
SK1
62
256
6
ByLayer
370
-1
48
1
60
0
100
AcDbSpline
70
4
71
3
72
22
73
18
40
0
40
0
40
0
40
0
40
0.0595258214859284
40
0.0595258214859284
40
0.105568894829459
40
0.105568894829459
40
0.142277186834084
40
0.142277186834084
40
0.178981358892391
40
0.178981358892391
40
0.229954859327503
40
0.229954859327503
40
0.321691642302811
40
0.321691642302811
40
0.612167812350022
40
0.612167812350022
40
1
40
1
40
1
40
1
41
1
10
-0.399999999999977
20
13.8205590132786
30
0
41
1
10
-0.394013511242747
20
13.8207198641373
30
0
41
1
10
-0.387438377041576
20
13.8211277948213
30
0
41
1
10
-0.374607857819001
20
13.8226095541097
30
0
41
1
10
-0.368494470268672
20
13.8235344490986
30
0
41
1
10
-0.357073302473168
20
13.8258132771122
30
0
41
1
10
-0.351741572367757
20
13.8270713477329
30
0
41
1
10
-0.34140996003066
20
13.8299215021952
30
0
41
1
10
-0.336294849042872
20
13.831543966011
30
0
41
1
10
-0.325054468279177
20
13.8355258548496
30
0
41
1
10
-0.319101901704414
20
13.8379842992552
30
0
41
1
10
-0.304411347490543
20
13.8446767815525
30
0
41
1
10
-0.296779548188397
20
13.8489171706104
30
0
41
1
10
-0.269692663824287
20
13.8655029311592
30
0
41
1
10
-0.257826564745358
20
13.8765532193897
30
0
41
1
10
-0.235124081103947
20
13.8999306105895
30
0
41
1
10
-0.225788536075299
20
13.9118728961634
30
0
41
1
10
-0.219011124100064
20
13.9226732108115
30
0
0
SPLINE
5
104
100
AcDbEntity
8
SK1
62
256
6
ByLayer
370
-1
48
1
60
0
100
AcDbSpline
70
4
71
3
72
22
73
18
40
0
40
0
40
0
40
0
40
0.0453538571579231
40
0.0453538571579231
40
0.0914518524267671
40
0.0914518524267671
40
0.124365048640693
40
0.124365048640693
40
0.157186848928651
40
0.157186848928651
40
0.206991933628443
40
0.206991933628443
40
0.302636793523901
40
0.302636793523901
40
0.633583445149988
40
0.633583445149988
40
1
40
1
40
1
40
1
41
1
10
-0.39999999999992
20
4.85227506835233
30
0
41
1
10
-0.420964880828194
20
4.87122754186862
30
0
41
1
10
-0.443888117925155
20
4.88887456363264
30
0
41
1
10
-0.494495022291232
20
4.91840151431526
30
0
41
1
10
-0.52299513623484
20
4.93045451470871
30
0
41
1
10
-0.574401278620769
20
4.94114219540694
30
0
41
1
10
-0.597076224252874
20
4.9426164760024
30
0
41
1
10
-0.641056311684338
20
4.93891494651641
30
0
41
1
10
-0.662845886446405
20
4.9337627063027
30
0
41
1
10
-0.71376347581031
20
4.91501929832424
30
0
41
1
10
-0.741856008482671
20
4.89837342492686
30
0
41
1
10
-0.814978349041667
20
4.84361103162897
30
0
41
1
10
-0.854317961498339
20
4.79908644376556
30
0
41
1
10
-1.00688542665307
20
4.59427172963152
30
0
41
1
10
-1.0791858799123
20
4.40986442942582
30
0
41
1
10
-1.21067514066448
20
4.01906025534171
30
0
41
1
10
-1.26311821358462
20
3.80583052169118
30
0
41
1
10
-1.30710678118919
20
3.58871725124908
30
0
0
SPLINE
5
105
100
AcDbEntity
8
SK1
62
256
6
ByLayer
370
-1
48
1
60
0
100
AcDbSpline
70
4
71
3
72
24
73
20
40
0
40
0
40
0
40
0
40
0.394875644104776
40
0.394875644104776
40
0.580237478202818
40
0.580237478202818
40
0.768024594545524
40
0.768024594545524
40
0.821318184582328
40
0.821318184582328
40
0.86063645050671
40
0.86063645050671
40
0.893544596745066
40
0.893544596745066
40
0.926376480305815
40
0.926376480305815
40
0.975583602956219
40
0.975583602956219
40
1
40
1
40
1
40
1
41
1
10
-1.30710678118703
20
-3.58871727154681
30
0
41
1
10
-1.25970314050051
20
-3.82268545505016
30
0
41
1
10
-1.20268951681544
20
-4.0522990637061
30
0
41
1
10
-1.088442965686
20
-4.37621064451773
30
0
41
1
10
-1.047217807636
20
-4.47806704652851
30
0
41
1
10
-0.946498347972181
20
-4.67402400407769
30
0
41
1
10
-0.887649711538188
20
-4.77181850306434
30
0
41
1
10
-0.778611976213313
20
-4.87193345154523
30
0
41
1
10
-0.751538353604587
20
-4.89265008986257
30
0
41
1
10
-0.69905062310346
20
-4.92098681441374
30
0
41
1
10
-0.674564059132251
20
-4.93073454927372
30
0
41
1
10
-0.627610440444357
20
-4.94089837201273
30
0
41
1
10
-0.604990345651117
20
-4.94257917258165
30
0
41
1
10
-0.561019153025597
20
-4.93928086468458
30
0
41
1
10
-0.539185873337146
20
-4.9343220454893
30
0
41
1
10
-0.488505513252846
20
-4.91611333631423
30
0
41
1
10
-0.460609299544501
20
-4.89990010346509
30
0
41
1
10
-0.423195770996927
20
-4.87233551414784
30
0
41
1
10
-0.411325532072283
20
-4.86251297160928
30
0
41
1
10
-0.39999999999992
20
-4.85227456454996
30
0
0
SPLINE
5
106
100
AcDbEntity
8
SK1
62
256
6
ByLayer
370
-1
48
1
60
0
100
AcDbSpline
70
4
71
3
72
32
73
28
40
0
40
0
40
0
40
0
40
0.343889632240037
40
0.343889632240037
40
0.424881203786091
40
0.424881203786091
40
0.45219319517405
40
0.45219319517405
40
0.473746524143709
40
0.473746524143709
40
0.495563509153789
40
0.495563509153789
40
0.504202913264278
40
0.504202913264278
40
0.510236809227349
40
0.510236809227349
40
0.516312447398371
40
0.516312447398371
40
0.523454548652051
40
0.523454548652051
40
0.535565299712341
40
0.535565299712341
40
0.57300444614615
40
0.57300444614615
40
0.744007987780293
40
0.744007987780293
40
1
40
1
40
1
40
1
41
1
10
-1.49999999999989
20
-2.55452633951475
30
0
41
1
10
-1.5208598537892
20
-2.43017154880397
30
0
41
1
10
-1.54277848657125
20
-2.30539150900933
30
0
41
1
10
-1.58054446546703
20
-2.15690281341079
30
0
41
1
10
-1.58828317908854
20
-2.12879825114811
30
0
41
1
10
-1.60072712650162
20
-2.09279395763306
30
0
41
1
10
-1.60406058795388
20
-2.08384105107302
30
0
41
1
10
-1.61062680538259
20
-2.06838289745696
30
0
41
1
10
-1.61373380991563
20
-2.06173130148738
30
0
41
1
10
-1.62074858386092
20
-2.04929690476194
30
0
41
1
10
-1.62469152135657
20
-2.04329967204669
30
0
41
1
10
-1.6314398383696
20
-2.03738508207587
30
0
41
1
10
-1.6335507648601
20
-2.03598317715259
30
0
41
1
10
-1.63737876424597
20
-2.03469617825761
30
0
41
1
10
-1.63905717359933
20
-2.03448731940549
30
0
41
1
10
-1.64239270814323
20
-2.0349385986527
30
0
41
1
10
-1.6440888940507
20
-2.03561765464858
30
0
41
1
10
-1.64749825596726
20
-2.03787010124455
30
0
41
1
10
-1.64921667651578
20
-2.03959185511141
30
0
41
1
10
-1.65333511326014
20
-2.04482054191681
30
0
41
1
10
-1.65549701098456
20
-2.04879885431208
30
0
41
1
10
-1.66311966371092
20
-2.06550748630016
30
0
41
1
10
-1.66673415611746
20
-2.07974527657228
30
0
41
1
10
-1.68385102741172
20
-2.1575921539345
30
0
41
1
10
-1.68804814437192
20
-2.22386329884722
30
0
41
1
10
-1.69782346255602
20
-2.3865563041347
30
0
41
1
10
-1.69965656225776
20
-2.48393126749517
30
0
41
1
10
-1.69996145716266
20
-2.58068890323847
30
0
0
SPLINE
5
107
100
AcDbEntity
8
SK1
62
256
6
ByLayer
370
-1
48
1
60
0
100
AcDbSpline
70
4
71
3
72
24
73
20
40
0
40
0
40
0
40
0
40
0.0008299253363491
40
0.0008299253363491
40
0.37424132444431
40
0.37424132444431
40
0.632344789479643
40
0.632344789479643
40
0.762112395221031
40
0.762112395221031
40
0.80657969498569
40
0.80657969498569
40
0.851786357615354
40
0.851786357615354
40
0.8932270001552
40
0.8932270001552
40
0.936464331680802
40
0.936464331680802
40
1
40
1
40
1
40
1
41
1
10
-0.218267038722559
20
-13.9259778556267
30
0
41
1
10
-0.218280426881961
20
-13.9259543424539
30
0
41
1
10
-0.218293824099817
20
-13.9259308243107
30
0
41
1
10
-0.224346935588187
20
-13.9153098301286
30
0
41
1
10
-0.232233669438131
20
-13.9036655551733
30
0
41
1
10
-0.252765410814618
20
-13.8814084969653
30
0
41
1
10
-0.26298325754334
20
-13.8715421084066
30
0
41
1
10
-0.286616108803798
20
-13.8549361512882
30
0
41
1
10
-0.296048597512936
20
-13.8489546731
30
0
41
1
10
-0.313313649213967
20
-13.8405611977702
30
0
41
1
10
-0.318242626725294
20
-13.8383488525843
30
0
41
1
10
-0.32918712877688
20
-13.8339930106961
30
0
41
1
10
-0.335388564995355
20
-13.83179581462
30
0
41
1
10
-0.347755359286111
20
-13.8280854434499
30
0
41
1
10
-0.354048035137055
20
-13.8264890383489
30
0
41
1
10
-0.366250197629427
20
-13.8239295609977
30
0
41
1
10
-0.372316125402563
20
-13.8229457626001
30
0
41
1
10
-0.386037066972222
20
-13.821215643274
30
0
41
1
10
-0.393386043187945
20
-13.8207370125792
30
0
41
1
10
-0.399999999999977
20
-13.8205593061294
30
0
0
SPLINE
5
108
100
AcDbEntity
8
SK1
62
256
6
ByLayer
370
-1
48
1
60
0
100
AcDbSpline
70
4
71
3
72
33
73
29
40
0
40
0
40
0
40
0
40
0.0324085626072208
40
0.0724748849410522
40
0.112541207274884
40
0.152607529608715
40
0.192673851942546
40
0.232740174276378
40
0.272806496610209
40
0.312872818944041
40
0.352939141277872
40
0.393005463611704
40
0.433071785945535
40
0.473138108279367
40
0.513204430613198
40
0.553270752947029
40
0.593337075280861
40
0.633403397614692
40
0.673469719948524
40
0.713536042282355
40
0.753602364616187
40
0.793668686950018
40
0.83373500928385
40
0.873801331617681
40
0.913867653951512
40
0.953933976285344
40
0.994000298619175
40
1
40
1
40
1
40
1
41
1
10
-1.49999999999994
20
13.824531769606
30
0
41
1
10
-1.49999999999994
20
13.8227864649787
30
0
41
1
10
-1.49999999999994
20
13.8105223076575
30
0
41
1
10
-1.49999999999994
20
13.7589702687857
30
0
41
1
10
-1.49999999999994
20
13.6607745146452
30
0
41
1
10
-1.49999999999994
20
13.5152595834079
30
0
41
1
10
-1.49999999999994
20
13.3190171661248
30
0
41
1
10
-1.49999999999994
20
13.0696050793313
30
0
41
1
10
-1.49999999999994
20
12.765695711353
30
0
41
1
10
-1.49999999999994
20
12.4071875173709
30
0
41
1
10
-1.49999999999994
20
11.9952649527342
30
0
41
1
10
-1.49999999999994
20
11.5324121673266
30
0
41
1
10
-1.49999999999994
20
11.0223736645665
30
0
41
1
10
-1.49999999999989
20
10.470066387995
30
0
41
1
10
-1.49999999999989
20
9.88144573908428
30
0
41
1
10
-1.49999999999989
20
9.26332794093628
30
0
41
1
10
-1.49999999999989
20
8.62318069742537
30
0
41
1
10
-1.49999999999989
20
7.96888164701966
30
0
41
1
10
-1.49999999999989
20
7.30846469728445
30
0
41
1
10
-1.49999999999989
20
6.64985041554638
30
0
41
1
10
-1.49999999999989
20
6.00058612356241
30
0
41
1
10
-1.49999999999989
20
5.36758867042255
30
0
41
1
10
-1.49999999999989
20
4.75691763797596
30
0
41
1
10
-1.49999999999989
20
4.17356939352865
30
0
41
1
10
-1.49999999999989
20
3.62131845460988
30
0
41
1
10
-1.49999999999989
20
3.10259083011954
30
0
41
1
10
-1.49999999999989
20
2.75563447873756
30
0
41
1
10
-1.49999999999989
20
2.57759088990096
30
0
41
1
10
-1.49999999999989
20
2.55452876952825
30
0
0
SPLINE
5
109
100
AcDbEntity
8
1
62
256
6
ByLayer
370
-1
48
1
60
0
100
AcDbSpline
70
4
71
3
72
18
73
14
40
0
40
0
40
0
40
0
40
0.205042569407875
40
0.205042569407875
40
0.380490253800733
40
0.380490253800733
40
0.557706679217329
40
0.557706679217329
40
0.710949103235794
40
0.710949103235794
40
0.912502109150519
40
0.912502109150519
40
1
40
1
40
1
40
1
41
1
10
74.3739966478898
20
6.11948372883148
30
0
41
1
10
74.4218236473724
20
6.06731829818878
30
0
41
1
10
74.4786061146563
20
6.02104710936837
30
0
41
1
10
74.5967505576843
20
5.95367207484085
30
0
41
1
10
74.6577012855867
20
5.92929382758749
30
0
41
1
10
74.7853737367723
20
5.90023974791842
30
0
41
1
10
74.8541087677636
20
5.89555650655132
30
0
41
1
10
74.9775941862124
20
5.90693443507936
30
0
41
1
10
75.0344598835111
20
5.92031299408123
30
0
41
1
10
75.155963969216
20
5.96579003554979
30
0
41
1
10
75.2195750802932
20
6.00298070259575
30
0
41
1
10
75.2987759540963
20
6.0665368283112
30
0
41
1
10
75.3215210824303
20
6.08740618240978
30
0
41
1
10
75.3427202872751
20
6.10947242398004
30
0
0
SPLINE
5
10A
100
AcDbEntity
8
1
62
256
6
ByLayer
370
-1
48
1
60
0
100
AcDbSpline
70
4
71
3
72
18
73
14
40
0
40
0
40
0
40
0
40
0.0445242400515414
40
0.0445242400515414
40
0.267732157852852
40
0.267732157852852
40
0.492679340186586
40
0.492679340186586
40
0.731224456037448
40
0.731224456037448
40
0.992713252849954
40
0.992713252849954
40
1
40
1
40
1
40
1
41
1
10
76.5215110188278
20
4.71542539237467
30
0
41
1
10
76.5215448782693
20
4.72136380474731
30
0
41
1
10
76.521395061661
20
4.72729802422074
30
0
41
1
10
76.5194085974408
20
4.76257795307416
30
0
41
1
10
76.5130718562824
20
4.79178897196655
30
0
41
1
10
76.4923322612554
20
4.84546805670237
30
0
41
1
10
76.4776237223084
20
4.87059071510097
30
0
41
1
10
76.4413616414714
20
4.91517905279142
30
0
41
1
10
76.4190186143586
20
4.93478956434086
30
0
41
1
10
76.36842868568
20
4.96682697151692
30
0
41
1
10
76.3392052823946
20
4.97881400691497
30
0
41
1
10
76.3085906004038
20
4.98589787516809
30
0
41
1
10
76.3077508982589
20
4.98608810996714
30
0
41
1
10
76.3069105169519
20
4.98627444991575
30
0
0
SPLINE
5
10B
100
AcDbEntity
8
1
62
256
6
ByLayer
370
-1
48
1
60
0
100
AcDbSpline
70
4
71
3
72
12
73
8
40
0
40
0
40
0
40
0
40
0.314796651252676
40
0.314796651252676
40
0.781971087515042
40
0.781971087515042
40
1
40
1
40
1
40
1
41
1
10
73.8486311876475
20
5.37805022277234
30
0
41
1
10
73.8689700251535
20
5.42503434347611
30
0
41
1
10
73.8839632141962
20
5.47469041325462
30
0
41
1
10
73.9072422375237
20
5.59734117218977
30
0
41
1
10
73.9093114904254
20
5.67200667464633
30
0
41
1
10
73.8975555443257
20
5.776372010465
30
0
41
1
10
73.8915619799502
20
5.80930779242124
30
0
41
1
10
73.8835355449843
20
5.84140540310113
30
0
0
SPLINE
5
10C
100
AcDbEntity
8
1
62
256
6
ByLayer
370
-1
48
1
60
0
100
AcDbSpline
70
4
71
3
72
18
73
14
40
0
40
0
40
0
40
0
40
0.204484327331652
40
0.204484327331652
40
0.380032436580353
40
0.380032436580353
40
0.557355801854077
40
0.557355801854077
40
0.710621155738166
40
0.710621155738166
40
0.912077806931135
40
0.912077806931135
40
1
40
1
40
1
40
1
41
1
10
75.8284674825012
20
5.82469344978594
30
0
41
1
10
75.8102324513107
20
5.75562199391629
30
0
41
1
10
75.8014082892554
20
5.68193890946714
30
0
41
1
10
75.8064306068948
20
5.54389942062977
30
0
41
1
10
75.8174718048219
20
5.47814089618655
30
0
41
1
10
75.8582736263058
20
5.3523840016131
30
0
41
1
10
75.8890295608443
20
5.29065434822581
30
0
41
1
10
75.9600973818432
20
5.19061167306754
30
0
41
1
10
75.9993267527094
20
5.1490002001602
30
0
41
1
10
76.0967505779608
20
5.06927336026675
30
0
41
1
10
76.1585477777104
20
5.03477857500638
30
0
41
1
10
76.2497745623868
20
5.00096705276849
30
0
41
1
10
76.2782282158325
20
4.99263425167746
30
0
41
1
10
76.3069105169518
20
4.98627444991573
30
0
0
SPLINE
5
10D
100
AcDbEntity
8
1
62
256
6
ByLayer
370
-1
48
1
60
0
100
AcDbSpline
70
4
71
3
72
14
73
10
40
0
40
0
40
0
40
0
40
0.253826519598054
40
0.253826519598054
40
0.543931427297441
40
0.543931427297441
40
0.8061921188441
40
0.8061921188441
40
1
40
1
40
1
40
1
41
1
10
73.8605121875671
20
3.60504417806902
30
0
41
1
10
73.8526707948824
20
3.57783533525588
30
0
41
1
10
73.8491559480009
20
3.54855600083718
30
0
41
1
10
73.8524169287044
20
3.48537327601216
30
0
41
1
10
73.8608767543277
20
3.45038420860399
30
0
41
1
10
73.8898075555179
20
3.38832073941887
30
0
41
1
10
73.9095459888668
20
3.35989005271506
30
0
41
1
10
73.951613694594
20
3.31777844833809
30
0
41
1
10
73.9723172937066
20
3.30176070442496
30
0
41
1
10
73.99456451618
20
3.28871782686051
30
0
0
SPLINE
5
10E
100
AcDbEntity
8
1
62
256
6
ByLayer
370
-1
48
1
60
0
100
AcDbSpline
70
4
71
3
72
16
73
12
40
0
40
0
40
0
40
0
40
0.0559896302621796
40
0.0559896302621796
40
0.278865236505659
40
0.278865236505659
40
0.504139857462645
40
0.504139857462645
40
0.743542544183017
40
0.743542544183017
40
1
40
1
40
1
40
1
41
1
10
73.1686110635785
20
4.73611076145414
30
0
41
1
10
73.1685685180091
20
4.72864893915809
30
0
41
1
10
73.1688147482191
20
4.72116475522671
30
0
41
1
10
73.1714542500551
20
4.68419880339374
30
0
41
1
10
73.1782064747926
20
4.65450581589027
30
0
41
1
10
73.1996551598982
20
4.59912194115367
30
0
41
1
10
73.214687870987
20
4.57276417514012
30
0
41
1
10
73.2515133644062
20
4.52504914051647
30
0
41
1
10
73.2741074521249
20
4.50349243341535
30
0
41
1
10
73.3244377528202
20
4.46744134075368
30
0
41
1
10
73.3530066474511
20
4.45308174421379
30
0
41
1
10
73.3820691531165
20
4.44346317793918
30
0
0
SPLINE
5
10F
100
AcDbEntity
8
1
62
256
6
ByLayer
370
-1
48
1
60
0
100
AcDbSpline
70
4
71
3
72
18
73
14
40
0
40
0
40
0
40
0
40
0.211826658493614
40
0.211826658493614
40
0.386063242106298
40
0.386063242106298
40
0.561989010675229
40
0.561989010675229
40
0.71496920608973
40
0.71496920608973
40
0.917706490638758
40
0.917706490638758
40
1
40
1
40
1
40
1
41
1
10
75.3149830221777
20
3.31025389902442
30
0
41
1
10
75.2651859424474
20
3.3568071851841
30
0
41
1
10
75.2058087980072
20
3.39750219776124
30
0
41
1
10
75.0844713404326
20
3.45449550199791
30
0
41
1
10
75.0233953610449
20
3.47436240465632
30
0
41
1
10
74.8959830944496
20
3.49765658973698
30
0
41
1
10
74.8276751825759
20
3.5011129335428
30
0
41
1
10
74.705016280166
20
3.49108744811295
30
0
41
1
10
74.6485354588708
20
3.47970738100858
30
0
41
1
10
74.5275486934746
20
3.44091055231217
30
0
41
1
10
74.4642255335195
20
3.40900605146854
30
0
41
1
10
74.3871927205557
20
3.35501487823348
30
0
41
1
10
74.3660420297039
20
3.33813245198255
30
0
41
1
10
74.3462593827932
20
3.32026520387478
30
0
0
SPLINE
5
110
100
AcDbEntity
8
1
62
256
6
ByLayer
370
-1
48
1
60
0
100
AcDbSpline
70
4
71
3
72
18
73
14
40
0
40
0
40
0
40
0
40
0.0932927671353658
40
0.0932927671353658
40
0.291452469912735
40
0.291452469912735
40
0.452571747977744
40
0.452571747977744
40
0.614437057926331
40
0.614437057926331
40
0.766897325913068
40
0.766897325913068
40
1
40
1
40
1
40
1
41
1
10
73.8605121875672
20
3.60504417806899
30
0
41
1
10
73.868695600042
20
3.63343979510492
30
0
41
1
10
73.8749018292107
20
3.66277164492834
30
0
41
1
10
73.8874819468691
20
3.75630823893471
30
0
41
1
10
73.886283957762
20
3.82418658459562
30
0
41
1
10
73.8632713786592
20
3.94788238117178
30
0
41
1
10
73.8449380696255
20
4.00494573075233
30
0
41
1
10
73.7933635331414
20
4.11348092837494
30
0
41
1
10
73.7593271015282
20
4.16630496361785
30
0
41
1
10
73.6836062121478
20
4.25690387620287
30
0
41
1
10
73.6416774704275
20
4.29649355446304
30
0
41
1
10
73.5306376363502
20
4.38061877741933
30
0
41
1
10
73.4566761361106
20
4.41877114970399
30
0
41
1
10
73.3820691531165
20
4.44346317793924
30
0
0
SPLINE
5
111
100
AcDbEntity
8
1
62
256
6
ByLayer
370
-1
48
1
60
0
100
AcDbSpline
70
4
71
3
72
12
73
8
40
0
40
0
40
0
40
0
40
0.321062853359416
40
0.321062853359416
40
0.789577101064581
40
0.789577101064581
40
1
40
1
40
1
40
1
41
1
10
75.8386454019613
20
4.01919069404292
30
0
41
1
10
75.8179349293351
20
3.97234816504024
30
0
41
1
10
75.8028577341013
20
3.92378277393274
30
0
41
1
10
75.7802767446501
20
3.80696326648027
30
0
41
1
10
75.7788789069454
20
3.7379350086839
30
0
41
1
10
75.7915530512478
20
3.64417024536812
30
0
41
1
10
75.7975489229841
20
3.61564829449372
30
0
41
1
10
75.8054258877245
20
3.58798423520349
30
0
0
SPLINE
5
112
100
AcDbEntity
8
1
62
256
6
ByLayer
370
-1
48
1
60
0
100
AcDbSpline
70
4
71
3
72
14
73
10
40
0
40
0
40
0
40
0
40
0.281732662281437
40
0.281732662281437
40
0.568336047605727
40
0.568336047605727
40
0.827726871356157
40
0.827726871356157
40
1
40
1
40
1
40
1
41
1
10
74.3739966478898
20
6.11948372883148
30
0
41
1
10
74.3507658842422
20
6.14482177643924
30
0
41
1
10
74.322651062473
20
6.16675199268681
30
0
41
1
10
74.2598595939589
20
6.1994798456457
30
0
41
1
10
74.2240743623524
20
6.21052785271459
30
0
41
1
10
74.1544002631113
20
6.21752802891527
30
0
41
1
10
74.1195969392675
20
6.21485792806837
30
0
41
1
10
74.0647465470469
20
6.20004144664964
30
0
41
1
10
74.0432253820077
20
6.19128902935933
30
0
41
1
10
74.0232150364935
20
6.18010120332119
30
0
0
SPLINE
5
113
100
AcDbEntity
8
1
62
256
6
ByLayer
370
-1
48
1
60
0
100
AcDbSpline
70
4
71
3
72
14
73
10
40
0
40
0
40
0
40
0
40
0.280886135263036
40
0.280886135263036
40
0.565779229752025
40
0.565779229752025
40
0.823531433577458
40
0.823531433577458
40
1
40
1
40
1
40
1
41
1
10
73.3884963672104
20
5.00495733626551
30
0
41
1
10
73.3561673255101
20
4.99856790007115
30
0
41
1
10
73.3242695273443
20
4.98616581968989
30
0
41
1
10
73.266647495388
20
4.94987802403077
30
0
41
1
10
73.2401583502821
20
4.9252132743413
30
0
41
1
10
73.2006817293251
20
4.86956553831433
30
0
41
1
10
73.1861018439008
20
4.83853009288882
30
0
41
1
10
73.1718292511744
20
4.78338735837988
30
0
41
1
10
73.1687457088365
20
4.75972541755837
30
0
41
1
10
73.1686110635785
20
4.73611076145414
30
0
0
SPLINE
5
114
100
AcDbEntity
8
1
62
256
6
ByLayer
370
-1
48
1
60
0
100
AcDbSpline
70
4
71
3
72
18
73
14
40
0
40
0
40
0
40
0
40
0.0447160259823061
40
0.0447160259823061
40
0.265841569193256
40
0.265841569193256
40
0.488725170244804
40
0.488725170244804
40
0.7251090124228
40
0.7251090124228
40
0.984244822558491
40
0.984244822558491
40
1
40
1
40
1
40
1
41
1
10
75.6669070459128
20
3.27143495050763
30
0
41
1
10
75.6721800179131
20
3.27438308018395
30
0
41
1
10
75.6773633371776
20
3.27748730340039
30
0
41
1
10
75.707322687521
20
3.29666623824224
30
0
41
1
10
75.7299308865082
20
3.31644002100629
30
0
41
1
10
75.7673412134616
20
3.36039288279943
30
0
41
1
10
75.7825746238946
20
3.38515248997965
30
0
41
1
10
75.805011695737
20
3.43758915638443
30
0
41
1
10
75.8119833825928
20
3.46599782644489
30
0
41
1
10
75.8170213387053
20
3.52416735260229
30
0
41
1
10
75.8142649731725
20
3.55452366045657
30
0
41
1
10
75.8063905151777
20
3.58452858753827
30
0
41
1
10
75.8059169010314
20
3.58625978655107
30
0
41
1
10
75.8054258877245
20
3.58798423520349
30
0
0
SPLINE
5
115
100
AcDbEntity
8
1
62
256
6
ByLayer
370
-1
48
1
60
0
100
AcDbSpline
70
4
71
3
72
14
73
10
40
0
40
0
40
0
40
0
40
0.284182305388168
40
0.284182305388168
40
0.578057080079393
40
0.578057080079393
40
0.83655546293435
40
0.83655546293435
40
1
40
1
40
1
40
1
41
1
10
75.8284674825014
20
5.82469344978588
30
0
41
1
10
75.8374036916867
20
5.85854241730036
30
0
41
1
10
75.8409246331235
20
5.89487253558266
30
0
41
1
10
75.8350965997141
20
5.96804505614105
30
0
41
1
10
75.8250903860448
20
6.00605434328909
30
0
41
1
10
75.7933495111005
20
6.07100134646626
30
0
41
1
10
75.7726368750133
20
6.09967103500051
30
0
41
1
10
75.7320304527809
20
6.13843920160454
30
0
41
1
10
75.7143586703938
20
6.15179580494211
30
0
41
1
10
75.6955575662263
20
6.16281832696831
30
0
0
SPLINE
5
116
100
AcDbEntity
8
1
62
256
6
ByLayer
370
-1
48
1
60
0
100
AcDbSpline
70
4
71
3
72
12
73
8
40
0
40
0
40
0
40
0
40
0.494547693254168
40
0.494547693254168
40
0.899638041788351
40
0.899638041788351
40
1
40
1
40
1
40
1
41
1
10
76.3004650654981
20
4.42443230203907
30
0
41
1
10
76.2312451323728
20
4.40340408507615
30
0
41
1
10
76.1624927009262
20
4.37114189013764
30
0
41
1
10
76.0469487292783
20
4.2928726359585
30
0
41
1
10
75.9972173590527
20
4.24940799946657
30
0
41
1
10
75.9433962945006
20
4.18766094825648
30
0
41
1
10
75.9330182467269
20
4.17492786560524
30
0
41
1
10
75.9230829775228
20
4.16186151691451
30
0
0
SPLINE
5
117
100
AcDbEntity
8
1
62
256
6
ByLayer
370
-1
48
1
60
0
100
AcDbSpline
70
4
71
3
72
14
73
10
40
0
40
0
40
0
40
0
40
0.258927663111493
40
0.258927663111493
40
0.548393416998196
40
0.548393416998196
40
0.810122265230841
40
0.810122265230841
40
1
40
1
40
1
40
1
41
1
10
75.3149830221776
20
3.31025389902439
30
0
41
1
10
75.3365054282939
20
3.29013346754118
30
0
41
1
10
75.3621049088861
20
3.27276718715268
30
0
41
1
10
75.4219201956941
20
3.24520523436547
30
0
41
1
10
75.4577971483077
20
3.23572658694181
30
0
41
1
10
75.5279816967416
20
3.23071367389784
30
0
41
1
10
75.5631822036283
20
3.23391550113459
30
0
41
1
10
75.6209378541174
20
3.24942038394354
30
0
41
1
10
75.6448603371277
20
3.25910858950471
30
0
41
1
10
75.6669070459128
20
3.27143495050763
30
0
0
SPLINE
5
118
100
AcDbEntity
8
1
62
256
6
ByLayer
370
-1
48
1
60
0
100
AcDbSpline
70
4
71
3
72
16
73
12
40
0
40
0
40
0
40
0
40
0.0608533059028956
40
0.0608533059028956
40
0.28162318291706
40
0.28162318291706
40
0.505077149700701
40
0.505077149700701
40
0.742780487870713
40
0.742780487870713
40
1
40
1
40
1
40
1
41
1
10
74.0232150364935
20
6.18010120332119
30
0
41
1
10
74.0160499532299
20
6.17609519027931
30
0
41
1
10
74.0090468236923
20
6.17176628224874
30
0
41
1
10
73.9777639754162
20
6.15048652011262
30
0
41
1
10
73.9556332450913
20
6.12962340193718
30
0
41
1
10
73.9191330264608
20
6.08283816445274
30
0
41
1
10
73.9043780259117
20
6.05627727133279
30
0
41
1
10
73.8829022510791
20
5.99962214890863
30
0
41
1
10
73.8764551206349
20
5.96871330866594
30
0
41
1
10
73.8725427256256
20
5.90546666673126
30
0
41
1
10
73.8757730310631
20
5.87244759690154
30
0
41
1
10
73.8835355449843
20
5.84140540310113
30
0
0
SPLINE
5
119
100
AcDbEntity
8
1
62
256
6
ByLayer
370
-1
48
1
60
0
100
AcDbSpline
70
4
71
3
72
14
73
10
40
0
40
0
40
0
40
0
40
0.26495168563345
40
0.26495168563345
40
0.551839051429004
40
0.551839051429004
40
0.811228646787243
40
0.811228646787243
40
1
40
1
40
1
40
1
41
1
10
76.3004650654981
20
4.42443230203907
30
0
41
1
10
76.3311377378495
20
4.4337503059711
30
0
41
1
10
76.3613932760654
20
4.44825286923768
30
0
41
1
10
76.4185342875604
20
4.48816432507391
30
0
41
1
10
76.4458000021415
20
4.51507639876041
30
0
41
1
10
76.4867479389502
20
4.57415041025297
30
0
41
1
10
76.502051630346
20
4.60649429730202
30
0
41
1
10
76.5178234062878
20
4.66452476131661
30
0
41
1
10
76.5213670218815
20
4.69017059754259
30
0
41
1
10
76.5215110188278
20
4.71542539237467
30
0
0
SPLINE
5
11A
100
AcDbEntity
8
1
62
256
6
ByLayer
370
-1
48
1
60
0
100
AcDbSpline
70
4
71
3
72
16
73
12
40
0
40
0
40
0
40
0
40
0.0414949540903979
40
0.0414949540903979
40
0.264700717331965
40
0.264700717331965
40
0.489470788841688
40
0.489470788841688
40
0.72769284889594
40
0.72769284889594
40
1
40
1
40
1
40
1
41
1
10
73.99456451618
20
3.28871782686051
30
0
41
1
10
73.9993610137468
20
3.28590578456726
30
0
41
1
10
74.0042403446758
20
3.2832213124461
30
0
41
1
10
74.035562019666
20
3.26708389735236
30
0
41
1
10
74.0643471088559
20
3.25725082186685
30
0
41
1
10
74.1221757896336
20
3.24631278301402
30
0
41
1
10
74.1519539368919
20
3.24510831669434
30
0
41
1
10
74.2103336667396
20
3.25088032503666
30
0
41
1
10
74.2394938510811
20
3.25839277641512
30
0
41
1
10
74.2960499656319
20
3.28207317923636
30
0
41
1
10
74.3233883918459
20
3.29960863190189
30
0
41
1
10
74.3462593827932
20
3.32026520387481
30
0
0
SPLINE
5
11B
100
AcDbEntity
8
1
62
256
6
ByLayer
370
-1
48
1
60
0
100
AcDbSpline
70
4
71
3
72
12
73
8
40
0
40
0
40
0
40
0
40
0.483263508943146
40
0.483263508943146
40
0.890318766416344
40
0.890318766416344
40
1
40
1
40
1
40
1
41
1
10
73.3884963672104
20
5.00495733626551
30
0
41
1
10
73.4557632853138
20
5.01825181264354
30
0
41
1
10
73.5225752314051
20
5.04263968576942
30
0
41
1
10
73.6367726439504
20
5.10888712131435
30
0
41
1
10
73.686775628108
20
5.14829898872472
30
0
41
1
10
73.7420062679363
20
5.20813355891715
30
0
41
1
10
73.7533615289592
20
5.22149701292736
30
0
41
1
10
73.764193612086
20
5.23537939990084
30
0
0
SPLINE
5
11C
100
AcDbEntity
8
1
62
256
6
ByLayer
370
-1
48
1
60
0
100
AcDbSpline
70
4
71
3
72
16
73
12
40
0
40
0
40
0
40
0
40
0.0694210632323375
40
0.0694210632323375
40
0.292087864368647
40
0.292087864368647
40
0.517918296334297
40
0.517918296334297
40
0.758497576948283
40
0.758497576948283
40
1
40
1
40
1
40
1
41
1
10
75.6955575662263
20
6.16281832696831
30
0
41
1
10
75.6875555448202
20
6.16750967149878
30
0
41
1
10
75.6793158666072
20
6.17180540279713
30
0
41
1
10
75.6441011737256
20
6.18799513906336
30
0
41
1
10
75.6150715098127
20
6.19603798369775
30
0
41
1
10
75.5568996876819
20
6.20272959446885
30
0
41
1
10
75.5270251593913
20
6.20135269473411
30
0
41
1
10
75.468601644479
20
6.18972567069059
30
0
41
1
10
75.4395298397031
20
6.17878857555033
30
0
41
1
10
75.3870970391527
20
6.14945882410549
30
0
41
1
10
75.3631764264937
20
6.13076520891701
30
0
41
1
10
75.3427202872751
20
6.10947242398007
30
0
0
LINE
5
4A
100
AcDbEntity
8
80
62
256
6
ByLayer
370
-1
48
1
60
0
100
AcDbLine
10
0
20
0
30
0
11
-10
21
0
31
0
39
0
210
0
220
0
230
1
0
LINE
5
4B
100
AcDbEntity
8
81
62
256
6
ByLayer
370
-1
48
1
60
0
100
AcDbLine
10
80
20
12.9
30
0
11
90
21
12.9
31
0
39
0
210
0
220
0
230
1
0
LINE
5
4C
100
AcDbEntity
8
SK4
62
256
6
ByLayer
370
-1
48
0.05
60
0
100
AcDbLine
10
-29
20
0
30
0
11
84.777612
21
0
31
0
39
0
210
0
220
0
230
1
0
LINE
5
4E
100
AcDbEntity
8
4
62
256
6
ByLayer
370
-1
48
0.05
60
0
100
AcDbLine
10
0
20
0
30
0
11
108.777612
21
0
31
0
39
0
210
0
220
0
230
1
0
LINE
5
50
100
AcDbEntity
8
1
62
256
6
ByLayer
370
-1
48
1
60
0
100
AcDbLine
10
73.877071
20
3.618213
30
0
11
73.883619
21
3.743151
31
0
39
0
210
0
220
0
230
1
0
LINE
5
51
100
AcDbEntity
8
1
62
256
6
ByLayer
370
-1
48
1
60
0
100
AcDbLine
10
75.782952
20
3.789139
30
0
11
75.77655
21
3.666992
31
0
39
0
210
0
220
0
230
1
0
LINE
5
52
100
AcDbEntity
8
1
62
256
6
ByLayer
370
-1
48
1
60
0
100
AcDbLine
10
77.459123
20
4.448323
30
0
11
77.465019
21
4.56083
31
0
39
0
210
0
220
0
230
1
0
LINE
5
53
100
AcDbEntity
8
1
62
256
6
ByLayer
370
-1
48
1
60
0
100
AcDbLine
10
72.222214
20
4.835594
30
0
11
72.216318
21
4.723087
31
0
39
0
210
0
220
0
230
1
0
LINE
5
54
100
AcDbEntity
8
1
62
256
6
ByLayer
370
-1
48
1
60
0
100
AcDbLine
10
75.804654
20
5.673102
30
0
11
75.798108
21
5.548196
31
0
39
0
210
0
220
0
230
1
0
LINE
5
55
100
AcDbEntity
8
1
62
256
6
ByLayer
370
-1
48
1
60
0
100
AcDbLine
10
73.898629
20
5.499416
30
0
11
73.90503
21
5.621567
31
0
39
0
210
0
220
0
230
1
0
LINE
5
56
100
AcDbEntity
8
1
62
256
6
ByLayer
370
-1
48
1
60
0
100
AcDbLine
10
0.3
20
20
30
0
11
0
21
19.7
31
0
39
0
210
0
220
0
230
1
0
LINE
5
57
100
AcDbEntity
8
1
62
256
6
ByLayer
370
-1
48
1
60
0
100
AcDbLine
10
0
20
-19.7
30
0
11
0.3
21
-20
31
0
39
0
210
0
220
0
230
1
0
LINE
5
58
100
AcDbEntity
8
1
62
256
6
ByLayer
370
-1
48
1
60
0
100
AcDbLine
10
19.5
20
20
30
0
11
0.3
21
20
31
0
39
0
210
0
220
0
230
1
0
LINE
5
59
100
AcDbEntity
8
1
62
256
6
ByLayer
370
-1
48
1
60
0
100
AcDbLine
10
0.3
20
-20
30
0
11
19.5
21
-20
31
0
39
0
210
0
220
0
230
1
0
LINE
5
5A
100
AcDbEntity
8
1
62
256
6
ByLayer
370
-1
48
1
60
0
100
AcDbLine
10
19.5
20
-20
30
0
11
20.932549
21
-14.490197
31
0
39
0
210
0
220
0
230
1
0
LINE
5
5B
100
AcDbEntity
8
1
62
256
6
ByLayer
370
-1
48
1
60
0
100
AcDbLine
10
20.932549
20
14.490197
30
0
11
19.5
21
20
31
0
39
0
210
0
220
0
230
1
0
LINE
5
5C
100
AcDbEntity
8
1
62
256
6
ByLayer
370
-1
48
1
60
0
100
AcDbLine
10
49.301838
20
10
30
0
11
26.739484
21
10
31
0
39
0
210
0
220
0
230
1
0
LINE
5
5D
100
AcDbEntity
8
1
62
256
6
ByLayer
370
-1
48
1
60
0
100
AcDbLine
10
55.230407
20
10
30
0
11
49.301838
21
10
31
0
39
0
210
0
220
0
230
1
0
LINE
5
5E
100
AcDbEntity
8
1
62
256
6
ByLayer
370
-1
48
1
60
0
100
AcDbLine
10
26.739484
20
-10
30
0
11
70.549535
21
-10
31
0
39
0
210
0
220
0
230
1
0
LINE
5
5F
100
AcDbEntity
8
1
62
256
6
ByLayer
370
-1
48
1
60
0
100
AcDbLine
10
67.191215
20
-1.620793
30
0
11
67.214454
21
-1.177361
31
0
39
0
210
0
220
0
230
1
0
LINE
5
60
100
AcDbEntity
8
1
62
256
6
ByLayer
370
-1
48
1
60
0
100
AcDbLine
10
67.891513
20
7.948357
30
0
11
65.829713
21
9.999844
31
0
39
0
210
0
220
0
230
1
0
LINE
5
61
100
AcDbEntity
8
1
62
256
6
ByLayer
370
-1
48
1
60
0
100
AcDbLine
10
0.3
20
-20
30
0
11
0.3
21
20
31
0
39
0
210
0
220
0
230
1
0
LINE
5
62
100
AcDbEntity
8
1
62
256
6
ByLayer
370
-1
48
1
60
0
100
AcDbLine
10
69.799661
20
0.202775
30
0
11
69.840308
21
0.228041
31
0
39
0
210
0
220
0
230
1
0
LINE
5
63
100
AcDbEntity
8
1
62
256
6
ByLayer
370
-1
48
1
60
0
100
AcDbLine
10
67.009449
20
-1.86517
30
0
11
66.985479
21
-2.322552
31
0
39
0
210
0
220
0
230
1
0
LINE
5
64
100
AcDbEntity
8
1
62
256
6
ByLayer
370
-1
48
1
60
0
100
AcDbLine
10
79.246491
20
1.580667
30
0
11
78.947674
21
-4.121098
31
0
39
0
210
0
220
0
230
1
0
LINE
5
65
100
AcDbEntity
8
1
62
256
6
ByLayer
370
-1
48
1
60
0
100
AcDbLine
10
70.549535
20
-10
30
0
11
70.812631
21
-9.815826
31
0
39
0
210
0
220
0
230
1
0
LINE
5
66
100
AcDbEntity
8
1
62
256
6
ByLayer
370
-1
48
1
60
0
100
AcDbLine
10
9.076795
20
-19.122283
30
0
11
6.923205
21
-19.122283
31
0
39
0
210
0
220
0
230
1
0
LINE
5
67
100
AcDbEntity
8
1
62
256
6
ByLayer
370
-1
48
1
60
0
100
AcDbLine
10
71.56768
20
-3.031277
30
0
11
71.575685
21
-2.878529
31
0
39
0
210
0
220
0
230
1
0
LINE
5
68
100
AcDbEntity
8
1
62
256
6
ByLayer
370
-1
48
1
60
0
100
AcDbLine
10
62.318851
20
7.119798
30
0
11
62.617108
21
7.11024
31
0
39
0
210
0
220
0
230
1
0
LINE
5
69
100
AcDbEntity
8
1
62
256
6
ByLayer
370
-1
48
1
60
0
100
AcDbLine
10
69.267651
20
-2.127191
30
0
11
69.256116
21
-2.34729
31
0
39
0
210
0
220
0
230
1
0
LINE
5
6A
100
AcDbEntity
8
1
62
256
6
ByLayer
370
-1
48
1
60
0
100
AcDbLine
10
9.076795
20
-19.122283
30
0
11
9.076795
21
-5.85989
31
0
39
0
210
0
220
0
230
1
0
LINE
5
6B
100
AcDbEntity
8
1
62
256
6
ByLayer
370
-1
48
1
60
0
100
AcDbLine
10
6.663397
20
-19.024574
30
0
11
6.663397
21
-6.16973
31
0
39
0
210
0
220
0
230
1
0
LINE
5
6C
100
AcDbEntity
8
1
62
256
6
ByLayer
370
-1
48
1
60
0
100
AcDbLine
10
20.932549
20
-14.490197
30
0
11
20.932549
21
14.490197
31
0
39
0
210
0
220
0
230
1
0
LINE
5
6D
100
AcDbEntity
8
1
62
256
6
ByLayer
370
-1
48
1
60
0
100
AcDbLine
10
62.581449
20
8.0379
30
0
11
54.827058
21
8.0379
31
0
39
0
210
0
220
0
230
1
0
LINE
5
6E
100
AcDbEntity
8
1
62
256
6
ByLayer
370
-1
48
1
60
0
100
AcDbLine
10
6.923205
20
-19.122283
30
0
11
6.923205
21
-5.85989
31
0
39
0
210
0
220
0
230
1
0
LINE
5
6F
100
AcDbEntity
8
1
62
256
6
ByLayer
370
-1
48
1
60
0
100
AcDbLine
10
9.076795
20
5.85989
30
0
11
9.076795
21
19.122283
31
0
39
0
210
0
220
0
230
1
0
LINE
5
70
100
AcDbEntity
8
1
62
256
6
ByLayer
370
-1
48
1
60
0
100
AcDbLine
10
6.923205
20
-5.85989
30
0
11
9.076795
21
-5.85989
31
0
39
0
210
0
220
0
230
1
0
LINE
5
71
100
AcDbEntity
8
1
62
256
6
ByLayer
370
-1
48
1
60
0
100
AcDbLine
10
6.923205
20
19.122283
30
0
11
9.076795
21
19.122283
31
0
39
0
210
0
220
0
230
1
0
LINE
5
72
100
AcDbEntity
8
1
62
256
6
ByLayer
370
-1
48
1
60
0
100
AcDbLine
10
0
20
-19.7
30
0
11
0
21
19.7
31
0
39
0
210
0
220
0
230
1
0
LINE
5
73
100
AcDbEntity
8
1
62
256
6
ByLayer
370
-1
48
1
60
0
100
AcDbLine
10
64.071766
20
6.141252
30
0
11
67.07222
21
-0.437087
31
0
39
0
210
0
220
0
230
1
0
LINE
5
74
100
AcDbEntity
8
1
62
256
6
ByLayer
370
-1
48
1
60
0
100
AcDbLine
10
6.663397
20
6.16973
30
0
11
6.663397
21
19.024574
31
0
39
0
210
0
220
0
230
1
0
LINE
5
75
100
AcDbEntity
8
1
62
256
6
ByLayer
370
-1
48
1
60
0
100
AcDbLine
10
9.336603
20
-19.024574
30
0
11
9.336603
21
-6.16973
31
0
39
0
210
0
220
0
230
1
0
LINE
5
76
100
AcDbEntity
8
1
62
256
6
ByLayer
370
-1
48
1
60
0
100
AcDbLine
10
69.799661
20
0.202775
30
0
11
69.832723
21
0.08328
31
0
39
0
210
0
220
0
230
1
0
LINE
5
77
100
AcDbEntity
8
1
62
256
6
ByLayer
370
-1
48
1
60
0
100
AcDbLine
10
19.5
20
-20
30
0
11
19.5
21
20
31
0
39
0
210
0
220
0
230
1
0
LINE
5
78
100
AcDbEntity
8
1
62
256
6
ByLayer
370
-1
48
1
60
0
100
AcDbLine
10
49.893549
20
9.58539
30
0
11
49.298297
21
9.999951
31
0
39
0
210
0
220
0
230
1
0
LINE
5
79
100
AcDbEntity
8
1
62
256
6
ByLayer
370
-1
48
1
60
0
100
AcDbLine
10
64.64319
20
-9.809567
30
0
11
68.369161
21
-3.26812
31
0
39
0
210
0
220
0
230
1
0
LINE
5
7A
100
AcDbEntity
8
1
62
256
6
ByLayer
370
-1
48
1
60
0
100
AcDbLine
10
70.812631
20
-9.815826
30
0
11
78.947674
21
-4.121098
31
0
39
0
210
0
220
0
230
1
0
LINE
5
7B
100
AcDbEntity
8
1
62
256
6
ByLayer
370
-1
48
1
60
0
100
AcDbLine
10
6.923205
20
5.85989
30
0
11
6.923205
21
19.122283
31
0
39
0
210
0
220
0
230
1
0
LINE
5
7C
100
AcDbEntity
8
1
62
256
6
ByLayer
370
-1
48
1
60
0
100
AcDbLine
10
9.336603
20
6.16973
30
0
11
9.336603
21
19.024574
31
0
39
0
210
0
220
0
230
1
0
LINE
5
7D
100
AcDbEntity
8
1
62
256
6
ByLayer
370
-1
48
1
60
0
100
AcDbLine
10
9.076795
20
5.85989
30
0
11
6.923205
21
5.85989
31
0
39
0
210
0
220
0
230
1
0
LINE
5
7E
100
AcDbEntity
8
1
62
256
6
ByLayer
370
-1
48
1
60
0
100
AcDbLine
10
68.496506
20
-0.377532
30
0
11
65.494623
21
6.17355
31
0
39
0
210
0
220
0
230
1
0
LINE
5
7F
100
AcDbEntity
8
1
62
256
6
ByLayer
370
-1
48
1
60
0
100
AcDbLine
10
26.739484
20
10
30
0
11
26.739484
21
-10
31
0
39
0
210
0
220
0
230
1
0
LINE
5
80
100
AcDbEntity
8
1
62
256
6
ByLayer
370
-1
48
1
60
0
100
AcDbLine
10
66.985479
20
-2.322552
30
0
11
62.975738
21
-9.362195
31
0
39
0
210
0
220
0
230
1
0
LINE
5
81
100
AcDbEntity
8
1
62
256
6
ByLayer
370
-1
48
1
60
0
100
AcDbLine
10
67.009449
20
-1.86517
30
0
11
65.134204
21
-5.071331
31
0
39
0
210
0
220
0
230
1
0
LINE
5
82
100
AcDbEntity
8
SK1
62
256
6
ByLayer
370
-1
48
1
60
0
100
AcDbLine
10
-0.2
20
-14.083485
30
0
11
-0.2
21
-5.547043
31
0
39
0
210
0
220
0
230
1
0
LINE
5
84
100
AcDbEntity
8
SK1
62
256
6
ByLayer
370
-1
48
1
60
0
100
AcDbLine
10
-0.2
20
14.083485
30
0
11
-0.2
21
5.547043
31
0
39
0
210
0
220
0
230
1
0
LINE
5
85
100
AcDbEntity
8
SK1
62
256
6
ByLayer
370
-1
48
1
60
0
100
AcDbLine
10
-1.307107
20
-3.588717
30
0
11
-1.307107
21
3.588717
31
0
39
0
210
0
220
0
230
1
0
LINE
5
86
100
AcDbEntity
8
1
62
256
6
ByLayer
370
-1
48
1
60
0
100
AcDbLine
10
75.798535
20
3.456494
30
0
11
75.805426
21
3.587984
31
0
39
0
210
0
220
0
230
1
0
LINE
5
87
100
AcDbEntity
8
1
62
256
6
ByLayer
370
-1
48
1
60
0
100
AcDbLine
10
76.30001
20
4.85461
30
0
11
76.306911
21
4.986274
31
0
39
0
210
0
220
0
230
1
0
LINE
5
88
100
AcDbEntity
8
1
62
256
6
ByLayer
370
-1
48
1
60
0
100
AcDbLine
10
75.33582
20
5.977808
30
0
11
75.34272
21
6.109472
31
0
39
0
210
0
220
0
230
1
0
LINE
5
89
100
AcDbEntity
8
1
62
256
6
ByLayer
370
-1
48
1
60
0
100
AcDbLine
10
74.367096
20
5.987819
30
0
11
74.373997
21
6.119484
31
0
39
0
210
0
220
0
230
1
0
LINE
5
8A
100
AcDbEntity
8
1
62
256
6
ByLayer
370
-1
48
1
60
0
100
AcDbLine
10
73.381605
20
4.873467
30
0
11
73.388496
21
5.004957
31
0
39
0
210
0
220
0
230
1
0
LINE
5
8B
100
AcDbEntity
8
1
62
256
6
ByLayer
370
-1
48
1
60
0
100
AcDbLine
10
73.855084
20
3.501467
30
0
11
73.860512
21
3.605044
31
0
39
0
210
0
220
0
230
1
0
LINE
5
8C
100
AcDbEntity
8
1
62
256
6
ByLayer
370
-1
48
1
60
0
100
AcDbLine
10
73.764194
20
5.235379
30
0
11
73.758145
21
5.119963
31
0
39
0
210
0
220
0
230
1
0
LINE
5
8D
100
AcDbEntity
8
1
62
256
6
ByLayer
370
-1
48
1
60
0
100
AcDbLine
10
73.842582
20
5.262634
30
0
11
73.848631
21
5.37805
31
0
39
0
210
0
220
0
230
1
0
LINE
5
8E
100
AcDbEntity
8
1
62
256
6
ByLayer
370
-1
48
1
60
0
100
AcDbLine
10
70.197556
20
7.044704
30
0
11
69.693009
21
-2.582627
31
0
39
0
210
0
220
0
230
1
0
LINE
5
8F
100
AcDbEntity
8
1
62
256
6
ByLayer
370
-1
48
1
60
0
100
AcDbLine
10
78.785059
20
12.779851
30
0
11
70.56954
21
7.673231
31
0
39
0
210
0
220
0
230
1
0
LINE
5
90
100
AcDbEntity
8
1
62
256
6
ByLayer
370
-1
48
1
60
0
100
AcDbLine
10
79.494351
20
2.440883
30
0
11
79.998898
21
12.068213
31
0
39
0
210
0
220
0
230
1
0
LINE
5
91
100
AcDbEntity
8
1
62
256
6
ByLayer
370
-1
48
1
60
0
100
AcDbLine
10
70.906848
20
-3.294264
30
0
11
79.122366
21
1.812355
31
0
39
0
210
0
220
0
230
1
0
LINE
5
92
100
AcDbEntity
8
2
62
256
6
ByLayer
370
-1
48
1
60
1
100
AcDbLine
10
80
20
0
30
0
11
80.001
21
0.001
31
0
39
0
210
0
220
0
230
1
0
MTEXT
5
11D
100
AcDbEntity
8
SK6
62
256
6
ByLayer
370
-1
48
1
60
0
100
AcDbMText
10
-0.836194
20
-30.875
30
0
210
0
220
0
230
1
1
\W00.708;\fsimplex.shx,bigfont.shx;C4-SDUCR-13080-11HP 
40
3.5
41
0
44
1.084337
50
0
71
7
72
5
7
DEFAULT
0
DIMENSION
5
151
100
AcDbEntity
8
SK2
62
256
6
ByLayer
370
-3
48
1
60
0
100
AcDbDimension
2
DimnDraft3D1
10
-36.75
20
20
30
0
11
-36.75
21
-5.021053
31
0
70
32
71
5
72
1
41
1
210
0
220
0
230
1
3
Standard
100
AcDbAlignedDimension
13
-2
23
-20
33
0
14
-2
24
20
34
0
50
90
100
AcDbRotatedDimension
1001
ACAD
1000
DSTYLE
1002
{
1070
    74
1070
     0
1070
   279
1070
     0
1070
   172
1070
     1
1070
   173
1070
     1
1070
   340
1005
11E
1070
    77
1070
     1
1070
    73
1070
     0
1070
   171
1070
     4
1070
   274
1070
     4
1070
   177
1070
     2
1070
   176
1070
     2
1070
   178
1070
     7
1070
    78
1070
     8
1070
    41
1041
3.175
1070
   147
1041
2.25
1070
    42
1041
2.0
1070
    44
1041
2.0
1070
   140
1041
4.5
1070
   343
1005
152
1070
   344
1005
152
1002
}
0
DIMENSION
5
164
100
AcDbEntity
8
2
62
256
6
ByLayer
370
-3
48
1
60
0
100
AcDbDimension
2
DimnDraft3D2
10
37.35
20
10
30
0
11
37.35
21
0
31
0
70
32
71
5
72
1
41
1
210
0
220
0
230
1
3
Standard
100
AcDbAlignedDimension
13
22.1
23
10
33
0
14
0
24
0
34
0
50
90
100
AcDbRotatedDimension
1001
ACAD
1000
DSTYLE
1002
{
1070
    74
1070
     0
1070
   279
1070
     0
1070
   172
1070
     1
1070
   173
1070
     1
1070
   340
1005
11E
1070
    75
1070
     1
1070
    76
1070
     1
1070
    77
1070
     1
1070
    73
1070
     0
1070
   171
1070
     4
1070
   274
1070
     4
1070
   177
1070
     2
1070
   176
1070
     2
1070
   178
1070
     7
1070
    78
1070
     8
1070
    41
1041
3.175
1070
   147
1041
2.25
1070
    42
1041
2.0
1070
    44
1041
2.0
1070
   140
1041
4.5
1070
   343
1005
152
1070
   344
1005
152
1002
}
0
DIMENSION
5
172
100
AcDbEntity
8
2
62
256
6
ByLayer
370
-3
48
1
60
0
100
AcDbDimension
2
DimnDraft3D3
10
92.25
20
0
30
0
11
92.25
21
23.155
31
0
70
32
71
5
72
1
41
1
210
0
220
0
230
1
3
Standard
100
AcDbAlignedDimension
13
82
23
12.9
33
0
14
82
24
0
34
0
50
90
100
AcDbRotatedDimension
1001
ACAD
1000
DSTYLE
1002
{
1070
    74
1070
     0
1070
   279
1070
     0
1070
   172
1070
     1
1070
   173
1070
     1
1070
   340
1005
11E
1070
    77
1070
     1
1070
    73
1070
     0
1070
   171
1070
     4
1070
   274
1070
     4
1070
   177
1070
     2
1070
   176
1070
     2
1070
   178
1070
     7
1070
    78
1070
     8
1070
    41
1041
3.175
1070
   147
1041
2.25
1070
    42
1041
2.0
1070
    44
1041
2.0
1070
   140
1041
4.5
1070
   343
1005
152
1070
   344
1005
152
1002
}
0
DIMENSION
5
180
100
AcDbEntity
8
2
62
256
6
ByLayer
370
-3
48
1
60
0
100
AcDbDimension
2
DimnDraft3D4
10
80
20
40.65
30
0
11
34.836842
21
40.65
31
0
70
32
71
5
72
1
41
1
210
0
220
0
230
1
3
Standard
100
AcDbAlignedDimension
13
0
23
22
33
0
14
80
24
14.9
34
0
50
0
100
AcDbRotatedDimension
1001
ACAD
1000
DSTYLE
1002
{
1070
   279
1070
     0
1070
   172
1070
     1
1070
   173
1070
     1
1070
   340
1005
11E
1070
    77
1070
     1
1070
    73
1070
     0
1070
   171
1070
     4
1070
   274
1070
     4
1070
   177
1070
     2
1070
   176
1070
     2
1070
   178
1070
     7
1070
    78
1070
     8
1070
    41
1041
3.175
1070
   147
1041
2.25
1070
    42
1041
2.0
1070
    44
1041
2.0
1070
   140
1041
4.5
1070
   343
1005
152
1070
   344
1005
152
1002
}
0
DIMENSION
5
18E
100
AcDbEntity
8
2
62
256
6
ByLayer
370
-3
48
1
60
0
100
AcDbDimension
2
DimnDraft3D5
10
80
20
25.65
30
0
11
45.886842
21
25.65
31
0
70
32
71
5
72
1
41
1
210
0
220
0
230
1
3
Standard
100
AcDbAlignedDimension
13
22.1
23
12
33
0
14
80
24
14.9
34
0
50
0
100
AcDbRotatedDimension
1001
ACAD
1000
DSTYLE
1002
{
1070
   279
1070
     0
1070
   172
1070
     1
1070
   173
1070
     1
1070
   340
1005
11E
1070
    77
1070
     1
1070
    73
1070
     0
1070
   171
1070
     4
1070
   274
1070
     4
1070
   177
1070
     2
1070
   176
1070
     2
1070
   178
1070
     7
1070
    78
1070
     8
1070
    41
1041
3.175
1070
   147
1041
2.25
1070
    42
1041
2.0
1070
    44
1041
2.0
1070
   140
1041
4.5
1070
   343
1005
152
1070
   344
1005
152
1002
}
0
DIMENSION
5
19C
100
AcDbEntity
8
2
62
256
6
ByLayer
370
-3
48
1
60
0
100
AcDbDimension
2
DimnDraft3D6
10
128.250347
20
0
30
0
11
105.45575
21
-36.792664
31
0
70
34
71
5
72
1
41
1
210
0
220
0
230
1
3
Standard
100
AcDb2LineAngularDimension
13
79.319633
23
-0.082184
33
0
14
76.763329
24
-48.859355
34
0
15
82
25
0
35
0
16
108.528351
26
-30.775028
36
0
40
0
0
ENDSEC
0
SECTION
2
OBJECTS
0
DICTIONARY
5
1cd
330
0
100
AcDbDictionary
280
0
281
1
3
ACAD_GROUP
350
1ce
3
ACAD_MLINESTYLE
350
1cf
0
DICTIONARY
5
1ce
330
0
100
AcDbDictionary
280
0
281
1
0
DICTIONARY
5
1cf
330
0
100
AcDbDictionary
280
0
281
1
3
Standard
350
18
0
MLINESTYLE
5
18
330
1cf
100
AcDbMlineStyle
2
Standard
70
0
3

62
256
51
90
52
90
71
2
49
-0.5
62
256
6
ByLayer
49
0.5
62
256
6
ByLayer
0
RASTERVARIABLES
5
1bb
330

100
AcDbRasterVariables
90
0
70
1
71
1
72
1
0
ENDSEC
0
EOF
