0
SECTION
2
HEADER
9
$ACADVER
1
AC1015
9
$DWGCODEPAGE
3
ANSI_1252
9
$HANDSEED
5
18c
9
$ANGBASE
50
0
9
$ANGDIR
70
0
9
$ATTMODE
70
1
9
$AUNITS
70
0
9
$AUPREC
70
0
9
$CECOLOR
62
256
9
$CELTSCALE
40
1
9
$CELTYPE
6
ByLayer
9
$CELWEIGHT
370
-1
9
$CLAYER
8
0
9
$CMLJUST
70
0
9
$CMLSCALE
40
1
9
$CMLSTYLE
2
Standard
9
$DIMSTYLE
2
Standard
9
$TEXTSIZE
40
0.2
9
$TEXTSTYLE
7
Standard
9
$LUNITS
70
2
9
$LUPREC
70
4
9
$EXTNAMES
290
1
9
$INSUNITS
70
4
9
$LTSCALE
40
1
9
$LWDISPLAY
290
0
9
$PDMODE
70
0
9
$PDSIZE
40
0
9
$PLINEGEN
70
0
0
ENDSEC
0
SECTION
2
CLASSES
0
CLASS
1
RASTERVARIABLES
2
AcDbRasterVariables
3
ISM
90
0
280
0
281
0
0
ENDSEC
0
SECTION
2
TABLES
0
TABLE
2
VPORT
5
182
100
AcDbSymbolTable
0
VPORT
5
1
100
AcDbSymbolTableRecord
100
AcDbViewportTableRecord
2
*Active
70
0
10
0
20
0
11
1
21
1
12
-1
22
1
13
0
23
0
14
0.5
24
0.5
15
10
25
10
16
0
26
0
36
1
17
0
27
0
37
0
0
ENDTAB
0
TABLE
2
LTYPE
5
183
100
AcDbSymbolTable
0
LTYPE
5
14
100
AcDbSymbolTableRecord
100
AcDbLinetypeTableRecord
70
0
2
ByBlock
3

72
65
73
0
40
0
0
LTYPE
5
15
100
AcDbSymbolTableRecord
100
AcDbLinetypeTableRecord
70
0
2
ByLayer
3

72
65
73
0
40
0
0
LTYPE
5
16
100
AcDbSymbolTableRecord
100
AcDbLinetypeTableRecord
70
0
2
CONTINUOUS
3
Solid line
72
65
73
0
40
0
0
LTYPE
5
3B
100
AcDbSymbolTableRecord
100
AcDbLinetypeTableRecord
70
0
2
DASHED
3
__ __ __ __ __ __ __ __ __
72
65
73
2
40
25.72
49
12.86
74
0
49
-12.86
74
0
0
LTYPE
5
3C
100
AcDbSymbolTableRecord
100
AcDbLinetypeTableRecord
70
0
2
HIDDEN
3
_ _ _ _ _ _ _ _ _ _ _ _ _ _ _
72
65
73
2
40
0.5
49
0.25
74
0
49
-0.25
74
0
0
LTYPE
5
3D
100
AcDbSymbolTableRecord
100
AcDbLinetypeTableRecord
70
0
2
PHANTOM
3
____ _ _ ____ _ _ _____ _ _ ____
72
65
73
6
40
50.5
49
18
74
0
49
-6.5
74
0
49
6.5
74
0
49
-6.5
74
0
49
6.5
74
0
49
-6.5
74
0
0
LTYPE
5
3E
100
AcDbSymbolTableRecord
100
AcDbLinetypeTableRecord
70
0
2
CENTER
3
____ _ ____ _ ____ _ ____
72
65
73
4
40
47.5
49
22
74
0
49
-8.5
74
0
49
8.5
74
0
49
-8.5
74
0
0
LTYPE
5
3F
100
AcDbSymbolTableRecord
100
AcDbLinetypeTableRecord
70
0
2
DOT
3
.........................
72
65
73
2
40
10
49
0
74
0
49
-10
74
0
0
LTYPE
5
40
100
AcDbSymbolTableRecord
100
AcDbLinetypeTableRecord
70
0
2
DASHDOT
3
_._._._._._._._._._._._._._._._.
72
65
73
4
40
70
49
31
74
0
49
-13
74
0
49
13
74
0
49
-13
74
0
0
ENDTAB
0
TABLE
2
LAYER
5
184
100
AcDbSymbolTable
0
LAYER
5
10
100
AcDbSymbolTableRecord
100
AcDbLayerTableRecord
2
0
70
0
62
7
6
CONTINUOUS
290
1
370
-3
390
0
0
LAYER
5
42
100
AcDbSymbolTableRecord
100
AcDbLayerTableRecord
2
80
70
0
62
-6
6
CONTINUOUS
290
1
370
-3
390
0
0
LAYER
5
44
100
AcDbSymbolTableRecord
100
AcDbLayerTableRecord
2
2
70
0
62
7
6
CONTINUOUS
290
1
370
-3
390
0
0
LAYER
5
4D
100
AcDbSymbolTableRecord
100
AcDbLayerTableRecord
2
81
70
0
62
-3
6
CONTINUOUS
290
1
370
-3
390
0
0
LAYER
5
4F
100
AcDbSymbolTableRecord
100
AcDbLayerTableRecord
2
1
70
0
62
4
6
CONTINUOUS
290
1
370
-3
390
0
0
LAYER
5
58
100
AcDbSymbolTableRecord
100
AcDbLayerTableRecord
2
4
70
0
62
-2
6
CENTER
290
1
370
-3
390
0
0
LAYER
5
16e
100
AcDbSymbolTableRecord
100
AcDbLayerTableRecord
2
SK2
70
0
62
7
6
CONTINUOUS
290
1
370
-3
390
0
0
LAYER
5
16f
100
AcDbSymbolTableRecord
100
AcDbLayerTableRecord
2
SK4
70
0
62
2
6
CENTER
290
1
370
-3
390
0
0
LAYER
5
170
100
AcDbSymbolTableRecord
100
AcDbLayerTableRecord
2
SK1
70
0
62
4
6
CONTINUOUS
290
1
370
-3
390
0
0
LAYER
5
171
100
AcDbSymbolTableRecord
100
AcDbLayerTableRecord
2
SK6
70
0
62
5
6
CONTINUOUS
290
1
370
-3
390
0
0
ENDTAB
0
TABLE
2
STYLE
5
185
100
AcDbSymbolTable
0
STYLE
5
11
100
AcDbSymbolTableRecord
100
AcDbTextStyleTableRecord
2
Standard
3
txt
70
0
71
0
40
0
41
1
42
0
50
0
0
STYLE
5
EA
100
AcDbSymbolTableRecord
100
AcDbTextStyleTableRecord
2
DEFAULT
3
simplex.shx
70
0
71
0
40
0
41
1
42
0
50
0
0
STYLE
5
10D
100
AcDbSymbolTableRecord
100
AcDbTextStyleTableRecord
2
DWGDirectTextStyle
3
SIMPLEX
70
0
71
0
40
0
41
1
42
0
50
0
0
ENDTAB
0
TABLE
2
DIMSTYLE
5
186
100
AcDbSymbolTable
100
AcDbDimStyleTable
0
DIMSTYLE
105
27
100
AcDbSymbolTableRecord
100
AcDbDimStyleTableRecord
2
Standard
70
0
3
<>
41
0.18
42
0.0625
44
0.18
140
0.18
147
0.09
73
0
74
0
77
1
271
2
275
0
278
52
280
0
340
11
0
ENDTAB
0
TABLE
2
VIEW
5
187
100
AcDbSymbolTable
0
ENDTAB
0
TABLE
2
UCS
5
188
100
AcDbSymbolTable
0
ENDTAB
0
TABLE
2
APPID
5
189
100
AcDbSymbolTable
0
APPID
5
12
100
AcDbSymbolTableRecord
100
AcDbRegAppTableRecord
2
ACAD
70
0
0
ENDTAB
0
TABLE
2
BLOCK_RECORD
5
18a
100
AcDbSymbolTable
0
BLOCK_RECORD
5
1F
100
AcDbSymbolTableRecord
100
AcDbBlockTableRecord
2
*Model_Space
340
0
70
0
0
BLOCK_RECORD
5
1B
100
AcDbSymbolTableRecord
100
AcDbBlockTableRecord
2
*Paper_Space
340
0
70
0
0
BLOCK_RECORD
5
23
100
AcDbSymbolTableRecord
100
AcDbBlockTableRecord
2
*Paper_Space0
340
0
70
0
0
BLOCK_RECORD
5
10F
100
AcDbSymbolTableRecord
100
AcDbBlockTableRecord
2
DimnDraft3D11
340
0
70
0
0
BLOCK_RECORD
5
11D
100
AcDbSymbolTableRecord
100
AcDbBlockTableRecord
2
DimnDraft3D2
340
0
70
0
0
BLOCK_RECORD
5
12C
100
AcDbSymbolTableRecord
100
AcDbBlockTableRecord
2
_CLOSED
340
0
70
0
0
BLOCK_RECORD
5
133
100
AcDbSymbolTableRecord
100
AcDbBlockTableRecord
2
DimnDraft3D3
340
0
70
0
0
BLOCK_RECORD
5
141
100
AcDbSymbolTableRecord
100
AcDbBlockTableRecord
2
DimnDraft3D4
340
0
70
0
0
ENDTAB
0
ENDSEC
0
SECTION
2
BLOCKS
0
BLOCK
5
20
100
AcDbEntity
8
0
100
AcDbBlockBegin
2
*Model_Space
70
0
10
0
20
0
30
0
3
*Model_Space
0
ENDBLK
5
21
100
AcDbEntity
8
0
100
AcDbBlockEnd
0
BLOCK
5
1C
100
AcDbEntity
8
0
100
AcDbBlockBegin
2
*Paper_Space
70
0
10
0
20
0
30
0
3
*Paper_Space
0
ENDBLK
5
1D
100
AcDbEntity
8
0
100
AcDbBlockEnd
0
BLOCK
5
24
100
AcDbEntity
8
0
100
AcDbBlockBegin
2
*Paper_Space0
70
0
10
0
20
0
30
0
3
*Paper_Space0
0
ENDBLK
5
25
100
AcDbEntity
8
0
100
AcDbBlockEnd
0
BLOCK
5
110
100
AcDbEntity
8
0
100
AcDbBlockBegin
2
DimnDraft3D11
70
0
10
0
20
0
30
0
3
DimnDraft3D11
0
LINE
5
112
100
AcDbEntity
8
2
62
256
6
ByLayer
370
-1
48
1
60
0
100
AcDbLine
10
52
20
0.4817
30
0
11
79.25
21
0.4817
31
0
39
0
210
0
220
0
230
1
0
LINE
5
113
100
AcDbEntity
8
2
62
256
6
ByLayer
370
-1
48
1
60
0
100
AcDbLine
10
52
20
0
30
0
11
79.25
21
0
31
0
39
0
210
0
220
0
230
1
0
LINE
5
114
100
AcDbEntity
8
2
62
256
6
ByLayer
370
-1
48
1
60
0
100
AcDbLine
10
77.25
20
-11.25
30
0
11
77.25
21
21.5367
31
0
39
0
210
0
220
0
230
1
0
LINE
5
115
100
AcDbEntity
8
2
62
256
6
ByLayer
370
-1
48
1
60
0
100
AcDbLine
10
77.25
20
0.4817
30
0
11
76.832003
21
3.656698
31
0
39
0
210
0
220
0
230
1
0
LINE
5
116
100
AcDbEntity
8
2
62
256
6
ByLayer
370
-1
48
1
60
0
100
AcDbLine
10
77.25
20
0.4817
30
0
11
77.667997
21
3.656702
31
0
39
0
210
0
220
0
230
1
0
LINE
5
117
100
AcDbEntity
8
2
62
256
6
ByLayer
370
-1
48
1
60
0
100
AcDbLine
10
76.832003
20
3.656698
30
0
11
77.667997
21
3.656702
31
0
39
0
210
0
220
0
230
1
0
LINE
5
118
100
AcDbEntity
8
2
62
256
6
ByLayer
370
-1
48
1
60
0
100
AcDbLine
10
77.25
20
0
30
0
11
77.667997
21
-3.174998
31
0
39
0
210
0
220
0
230
1
0
LINE
5
119
100
AcDbEntity
8
2
62
256
6
ByLayer
370
-1
48
1
60
0
100
AcDbLine
10
77.25
20
0
30
0
11
76.832003
21
-3.175002
31
0
39
0
210
0
220
0
230
1
0
LINE
5
11A
100
AcDbEntity
8
2
62
256
6
ByLayer
370
-1
48
1
60
0
100
AcDbLine
10
77.667997
20
-3.174998
30
0
11
76.832003
21
-3.175002
31
0
39
0
210
0
220
0
230
1
0
MTEXT
5
11B
100
AcDbEntity
8
2
62
256
6
ByLayer
370
-1
48
1
60
0
100
AcDbMText
10
76.125
20
11.8617
30
0
210
0
220
0
230
1
1
\W00.749;\fsimplex.shx,bigfont.shx;0.48 
40
4.5
41
0
44
1.084337
50
90
71
7
72
5
7
DEFAULT
0
ENDBLK
5
111
100
AcDbEntity
8
0
100
AcDbBlockEnd
0
BLOCK
5
129
100
AcDbEntity
8
0
100
AcDbBlockBegin
2
DimnDraft3D2
70
0
10
0
20
0
30
0
3
DimnDraft3D2
0
MTEXT
5
11E
100
AcDbEntity
8
2
62
256
6
ByLayer
370
-1
48
1
60
0
100
AcDbMText
10
56.028426
20
14.7003
30
0
210
0
220
0
230
1
1
\W01.000;\fsimplex.shx,bigfont.shx;62%%d30' 
40
4.5
41
0
44
1.084337
50
310.494742722827
71
7
72
5
7
DEFAULT
0
LINE
5
11F
100
AcDbEntity
8
2
62
256
6
ByLayer
370
-1
48
1
60
0
100
AcDbLine
10
50
20
2.793791
30
0
11
50
21
15.174361
31
0
39
0
210
0
220
0
230
1
0
LINE
5
120
100
AcDbEntity
8
2
62
256
6
ByLayer
370
-1
48
1
60
0
100
AcDbLine
10
46.91173
20
2.089351
30
0
11
36.967451
21
7.266016
31
0
39
0
210
0
220
0
230
1
0
ARC
5
121
100
AcDbEntity
8
2
62
256
6
ByLayer
370
-1
48
1
60
0
100
AcDbCircle
39
0
10
50
20
0.4817
30
0
40
12.6926605500973
210
0
220
0
230
1
100
AcDbArc
50
8.197776
51
90
0
ARC
5
122
100
AcDbEntity
8
2
62
256
6
ByLayer
370
-1
48
1
60
0
100
AcDbCircle
39
0
10
50
20
0.4817
30
0
40
12.6926605500973
210
0
220
0
230
1
100
AcDbArc
50
90
51
152.5
0
LINE
5
123
100
AcDbEntity
8
2
62
256
6
ByLayer
370
-1
48
1
60
0
100
AcDbLine
10
50
20
13.174361
30
0
11
46.857132
21
12.559773
31
0
39
0
210
0
220
0
230
1
0
LINE
5
124
100
AcDbEntity
8
2
62
256
6
ByLayer
370
-1
48
1
60
0
100
AcDbLine
10
50
20
13.174361
30
0
11
46.805153
21
13.394149
31
0
39
0
210
0
220
0
230
1
0
LINE
5
125
100
AcDbEntity
8
2
62
256
6
ByLayer
370
-1
48
1
60
0
100
AcDbLine
10
46.857132
20
12.559773
30
0
11
46.805153
21
13.394149
31
0
39
0
210
0
220
0
230
1
0
LINE
5
126
100
AcDbEntity
8
2
62
256
6
ByLayer
370
-1
48
1
60
0
100
AcDbLine
10
38.741473
20
6.342518
30
0
11
40.021732
21
9.277867
31
0
39
0
210
0
220
0
230
1
0
LINE
5
127
100
AcDbEntity
8
2
62
256
6
ByLayer
370
-1
48
1
60
0
100
AcDbLine
10
38.741473
20
6.342518
30
0
11
40.737834
21
8.846494
31
0
39
0
210
0
220
0
230
1
0
LINE
5
128
100
AcDbEntity
8
2
62
256
6
ByLayer
370
-1
48
1
60
0
100
AcDbLine
10
40.021732
20
9.277867
30
0
11
40.737834
21
8.846494
31
0
39
0
210
0
220
0
230
1
0
ENDBLK
5
12A
100
AcDbEntity
8
0
100
AcDbBlockEnd
0
BLOCK
5
12D
100
AcDbEntity
8
0
100
AcDbBlockBegin
2
_CLOSED
70
0
10
0
20
0
30
0
3
_CLOSED
0
LINE
5
12F
100
AcDbEntity
8
0
62
256
6
ByLayer
370
-2
48
1
60
0
100
AcDbLine
10
-1
20
0.166667
30
0
11
0
21
0
31
0
39
0
210
0
220
0
230
1
0
LINE
5
130
100
AcDbEntity
8
0
62
256
6
ByLayer
370
-2
48
1
60
0
100
AcDbLine
10
0
20
0
30
0
11
-1
21
-0.166667
31
0
39
0
210
0
220
0
230
1
0
LINE
5
131
100
AcDbEntity
8
0
62
256
6
ByLayer
370
-2
48
1
60
0
100
AcDbLine
10
-1
20
0.166667
30
0
11
-1
21
-0.166667
31
0
39
0
210
0
220
0
230
1
0
LINE
5
132
100
AcDbEntity
8
0
62
256
6
ByLayer
370
-2
48
1
60
0
100
AcDbLine
10
0
20
0
30
0
11
-1
21
0
31
0
39
0
210
0
220
0
230
1
0
ENDBLK
5
12E
100
AcDbEntity
8
0
100
AcDbBlockEnd
0
BLOCK
5
13E
100
AcDbEntity
8
0
100
AcDbBlockBegin
2
DimnDraft3D3
70
0
10
0
20
0
30
0
3
DimnDraft3D3
0
MTEXT
5
134
100
AcDbEntity
8
SK2
62
256
6
ByLayer
370
-1
48
1
60
0
100
AcDbMText
10
-34.875
20
-3.896053
30
0
210
0
220
0
230
1
1
\W01.000;\fsimplex.shx,bigfont.shx;%%c40 
40
4.5
41
0
44
1.084337
50
90
71
7
72
5
7
DEFAULT
0
LINE
5
135
100
AcDbEntity
8
SK2
62
256
6
ByLayer
370
-1
48
1
60
0
100
AcDbLine
10
-2
20
-20
30
0
11
-35.75
21
-20
31
0
39
0
210
0
220
0
230
1
0
LINE
5
136
100
AcDbEntity
8
SK2
62
256
6
ByLayer
370
-1
48
1
60
0
100
AcDbLine
10
-2
20
20
30
0
11
-35.75
21
20
31
0
39
0
210
0
220
0
230
1
0
LINE
5
137
100
AcDbEntity
8
SK2
62
256
6
ByLayer
370
-1
48
1
60
0
100
AcDbLine
10
-33.75
20
-20
30
0
11
-33.75
21
20
31
0
39
0
210
0
220
0
230
1
0
LINE
5
138
100
AcDbEntity
8
SK2
62
256
6
ByLayer
370
-1
48
1
60
0
100
AcDbLine
10
-33.75
20
-20
30
0
11
-34.167997
21
-16.825002
31
0
39
0
210
0
220
0
230
1
0
LINE
5
139
100
AcDbEntity
8
SK2
62
256
6
ByLayer
370
-1
48
1
60
0
100
AcDbLine
10
-33.75
20
-20
30
0
11
-33.332003
21
-16.824998
31
0
39
0
210
0
220
0
230
1
0
LINE
5
13A
100
AcDbEntity
8
SK2
62
256
6
ByLayer
370
-1
48
1
60
0
100
AcDbLine
10
-34.167997
20
-16.825002
30
0
11
-33.332003
21
-16.824998
31
0
39
0
210
0
220
0
230
1
0
LINE
5
13B
100
AcDbEntity
8
SK2
62
256
6
ByLayer
370
-1
48
1
60
0
100
AcDbLine
10
-33.75
20
20
30
0
11
-33.332003
21
16.825002
31
0
39
0
210
0
220
0
230
1
0
LINE
5
13C
100
AcDbEntity
8
SK2
62
256
6
ByLayer
370
-1
48
1
60
0
100
AcDbLine
10
-33.75
20
20
30
0
11
-34.167997
21
16.824998
31
0
39
0
210
0
220
0
230
1
0
LINE
5
13D
100
AcDbEntity
8
SK2
62
256
6
ByLayer
370
-1
48
1
60
0
100
AcDbLine
10
-33.332003
20
16.825002
30
0
11
-34.167997
21
16.824998
31
0
39
0
210
0
220
0
230
1
0
ENDBLK
5
13F
100
AcDbEntity
8
0
100
AcDbBlockEnd
0
BLOCK
5
14C
100
AcDbEntity
8
0
100
AcDbBlockBegin
2
DimnDraft3D4
70
0
10
0
20
0
30
0
3
DimnDraft3D4
0
MTEXT
5
142
100
AcDbEntity
8
2
62
256
6
ByLayer
370
-1
48
1
60
0
100
AcDbMText
10
23.496053
20
31.668791
30
0
210
0
220
0
230
1
1
\W01.000;\fsimplex.shx,bigfont.shx;50 
40
4.5
41
0
44
1.084337
50
0
71
7
72
5
7
DEFAULT
0
LINE
5
143
100
AcDbEntity
8
2
62
256
6
ByLayer
370
-1
48
1
60
0
100
AcDbLine
10
0
20
22
30
0
11
0
21
32.543791
31
0
39
0
210
0
220
0
230
1
0
LINE
5
144
100
AcDbEntity
8
2
62
256
6
ByLayer
370
-1
48
1
60
0
100
AcDbLine
10
50
20
2.793791
30
0
11
50
21
32.543791
31
0
39
0
210
0
220
0
230
1
0
LINE
5
145
100
AcDbEntity
8
2
62
256
6
ByLayer
370
-1
48
1
60
0
100
AcDbLine
10
0
20
30.543791
30
0
11
50
21
30.543791
31
0
39
0
210
0
220
0
230
1
0
LINE
5
146
100
AcDbEntity
8
2
62
256
6
ByLayer
370
-1
48
1
60
0
100
AcDbLine
10
0
20
30.543791
30
0
11
3.174998
21
30.961787
31
0
39
0
210
0
220
0
230
1
0
LINE
5
147
100
AcDbEntity
8
2
62
256
6
ByLayer
370
-1
48
1
60
0
100
AcDbLine
10
0
20
30.543791
30
0
11
3.175002
21
30.125794
31
0
39
0
210
0
220
0
230
1
0
LINE
5
148
100
AcDbEntity
8
2
62
256
6
ByLayer
370
-1
48
1
60
0
100
AcDbLine
10
3.174998
20
30.961787
30
0
11
3.175002
21
30.125794
31
0
39
0
210
0
220
0
230
1
0
LINE
5
149
100
AcDbEntity
8
2
62
256
6
ByLayer
370
-1
48
1
60
0
100
AcDbLine
10
50
20
30.543791
30
0
11
46.825002
21
30.125794
31
0
39
0
210
0
220
0
230
1
0
LINE
5
14A
100
AcDbEntity
8
2
62
256
6
ByLayer
370
-1
48
1
60
0
100
AcDbLine
10
50
20
30.543791
30
0
11
46.824998
21
30.961787
31
0
39
0
210
0
220
0
230
1
0
LINE
5
14B
100
AcDbEntity
8
2
62
256
6
ByLayer
370
-1
48
1
60
0
100
AcDbLine
10
46.825002
20
30.125794
30
0
11
46.824998
21
30.961787
31
0
39
0
210
0
220
0
230
1
0
ENDBLK
5
14D
100
AcDbEntity
8
0
100
AcDbBlockEnd
0
ENDSEC
0
SECTION
2
ENTITIES
0
ARC
5
80
100
AcDbEntity
8
SK1
62
256
6
ByLayer
370
-1
48
1
60
0
100
AcDbCircle
39
0
10
0.6
20
-15
30
0
40
0.999999999999989
210
0
220
0
230
-1
100
AcDbArc
50
113.578178
51
126.869898
0
ARC
5
81
100
AcDbEntity
8
SK1
62
256
6
ByLayer
370
-1
48
1
60
0
100
AcDbCircle
39
0
10
0.6
20
15
30
0
40
0.999999999999989
210
0
220
0
230
-1
100
AcDbArc
50
233.130102
51
246.421822
0
ARC
5
82
100
AcDbEntity
8
1
62
256
6
ByLayer
370
-1
48
1
60
0
100
AcDbCircle
39
0
10
-31.411205
20
0
30
0
40
1.5
210
0
220
0
230
-1
100
AcDbArc
50
269.534924
51
132.442321
0
ARC
5
83
100
AcDbEntity
8
1
62
256
6
ByLayer
370
-1
48
1
60
0
100
AcDbCircle
39
0
10
-31.411205
20
0
30
0
40
1.5
210
0
220
0
230
-1
100
AcDbArc
50
227.554899
51
259.846036
0
ARC
5
84
100
AcDbEntity
8
1
62
256
6
ByLayer
370
-1
48
1
60
0
100
AcDbCircle
39
0
10
33.098763
20
-0.692055
30
0
40
1.625
210
0
220
0
230
1
100
AcDbArc
50
208.864477
51
297.5
0
ARC
5
85
100
AcDbEntity
8
1
62
256
6
ByLayer
370
-1
48
1
60
0
100
AcDbCircle
39
0
10
46.840869
20
-10.206709
30
0
40
8.10000000000001
210
0
220
0
230
1
100
AcDbArc
50
142.255887
51
155.647821
0
ARC
5
86
100
AcDbEntity
8
1
62
256
6
ByLayer
370
-1
48
1
60
0
100
AcDbCircle
39
0
10
46.840869
20
10.206709
30
0
40
8.10000000000001
210
0
220
0
230
1
100
AcDbArc
50
204.352179
51
217.897971
0
ARC
5
87
100
AcDbEntity
8
1
62
256
6
ByLayer
370
-1
48
1
60
0
100
AcDbCircle
39
0
10
-33.098763
20
-0.692055
30
0
40
1.86000000000004
210
0
220
0
230
-1
100
AcDbArc
50
242.5
51
334.255891
0
ARC
5
88
100
AcDbEntity
8
1
62
256
6
ByLayer
370
-1
48
1
60
0
100
AcDbCircle
39
0
10
29.030034
20
-23.796316
30
0
40
10.2
210
0
220
0
230
1
100
AcDbArc
50
117.5
51
137.998851
0
ARC
5
89
100
AcDbEntity
8
1
62
256
6
ByLayer
370
-1
48
1
60
0
100
AcDbCircle
39
0
10
29.030034
20
23.796316
30
0
40
10.2
210
0
220
0
230
1
100
AcDbArc
50
222.001149
51
242.5
0
ARC
5
8A
100
AcDbEntity
8
1
62
256
6
ByLayer
370
-1
48
1
60
0
100
AcDbCircle
39
0
10
40.611205
20
0
30
0
40
1.2065
210
0
220
0
230
1
100
AcDbArc
50
330.079943
51
29.920057
0
ARC
5
8B
100
AcDbEntity
8
1
62
256
6
ByLayer
370
-1
48
1
60
0
100
AcDbCircle
39
0
10
-40.611205
20
0
30
0
40
1.2065
210
0
220
0
230
-1
100
AcDbArc
50
29.920057
51
86.044721
0
ARC
5
8C
100
AcDbEntity
8
1
62
256
6
ByLayer
370
-1
48
1
60
0
100
AcDbCircle
39
0
10
-40.611205
20
0
30
0
40
1.6765
210
0
220
0
230
-1
100
AcDbArc
50
0
51
59.840113
0
ARC
5
8D
100
AcDbEntity
8
1
62
256
6
ByLayer
370
-1
48
1
60
0
100
AcDbCircle
39
0
10
40.611205
20
0
30
0
40
1.2065
210
0
220
0
230
1
100
AcDbArc
50
29.920057
51
86.044721
0
ARC
5
8E
100
AcDbEntity
8
1
62
256
6
ByLayer
370
-1
48
1
60
0
100
AcDbCircle
39
0
10
-40.611205
20
0
30
0
40
1.6765
210
0
220
0
230
-1
100
AcDbArc
50
300.159887
51
0
0
ARC
5
8F
100
AcDbEntity
8
1
62
256
6
ByLayer
370
-1
48
1
60
0
100
AcDbCircle
39
0
10
-40.611205
20
0
30
0
40
1.6765
210
0
220
0
230
-1
100
AcDbArc
50
239.840113
51
300.159887
0
ARC
5
90
100
AcDbEntity
8
1
62
256
6
ByLayer
370
-1
48
1
60
0
100
AcDbCircle
39
0
10
-49.205709
20
0
30
0
40
0.793999999999992
210
0
220
0
230
-1
100
AcDbArc
50
117.5
51
242.5
0
ARC
5
92
100
AcDbEntity
8
1
62
256
6
ByLayer
370
-1
48
1
60
0
100
AcDbCircle
39
0
10
-40.611205
20
0
30
0
40
1.6765
210
0
220
0
230
-1
100
AcDbArc
50
59.840113
51
120.159887
0
ARC
5
94
100
AcDbEntity
8
1
62
256
6
ByLayer
370
-1
48
1
60
0
100
AcDbCircle
39
0
10
-40.611205
20
0
30
0
40
1.6765
210
0
220
0
230
-1
100
AcDbArc
50
120.159887
51
180
0
ARC
5
95
100
AcDbEntity
8
1
62
256
6
ByLayer
370
-1
48
1
60
0
100
AcDbCircle
39
0
10
-40.611205
20
4.474015
30
0
40
0.794
210
0
220
0
230
-1
100
AcDbArc
50
62.5
51
117.5
0
ARC
5
96
100
AcDbEntity
8
1
62
256
6
ByLayer
370
-1
48
1
60
0
100
AcDbCircle
39
0
10
-40.611205
20
0
30
0
40
1.6765
210
0
220
0
230
-1
100
AcDbArc
50
180
51
239.840113
0
ARC
5
97
100
AcDbEntity
8
1
62
256
6
ByLayer
370
-1
48
1
60
0
100
AcDbCircle
39
0
10
40.611205
20
0
30
0
40
1.2065
210
0
220
0
230
1
100
AcDbArc
50
273.955279
51
330.079943
0
ARC
5
98
100
AcDbEntity
8
1
62
256
6
ByLayer
370
-1
48
1
60
0
100
AcDbCircle
39
0
10
-40.611205
20
0
30
0
40
1.2065
210
0
220
0
230
-1
100
AcDbArc
50
86.044721
51
93.955279
0
ARC
5
99
100
AcDbEntity
8
1
62
256
6
ByLayer
370
-1
48
1
60
0
100
AcDbCircle
39
0
10
40.611205
20
0
30
0
40
1.2065
210
0
220
0
230
1
100
AcDbArc
50
150.079943
51
209.920057
0
ARC
5
9A
100
AcDbEntity
8
1
62
256
6
ByLayer
370
-1
48
1
60
0
100
AcDbCircle
39
0
10
-40.611205
20
-4.474015
30
0
40
0.794
210
0
220
0
230
-1
100
AcDbArc
50
242.5
51
297.5
0
ARC
5
9B
100
AcDbEntity
8
1
62
256
6
ByLayer
370
-1
48
1
60
0
100
AcDbCircle
39
0
10
-32.016702
20
0
30
0
40
0.793999999999992
210
0
220
0
230
-1
100
AcDbArc
50
297.5
51
62.5
0
ARC
5
9C
100
AcDbEntity
8
1
62
256
6
ByLayer
370
-1
48
1
60
0
100
AcDbCircle
39
0
10
40.611205
20
0
30
0
40
1.2065
210
0
220
0
230
1
100
AcDbArc
50
209.920057
51
266.044721
0
ARC
5
9D
100
AcDbEntity
8
1
62
256
6
ByLayer
370
-1
48
1
60
0
100
AcDbCircle
39
0
10
-40.611205
20
0
30
0
40
1.2065
210
0
220
0
230
-1
100
AcDbArc
50
266.044721
51
273.955279
0
CIRCLE
5
91
100
AcDbEntity
8
1
62
256
6
ByLayer
370
-1
48
1
60
0
100
AcDbCircle
10
-40.611205
20
0
30
0
40
3.07132534818238
39
0
210
0
220
0
230
-1
0
CIRCLE
5
93
100
AcDbEntity
8
1
62
256
6
ByLayer
370
-1
48
1
60
0
100
AcDbCircle
10
-40.611205
20
0
30
0
40
3
39
0
210
0
220
0
230
-1
0
CIRCLE
5
9E
100
AcDbEntity
8
1
62
256
6
ByLayer
370
-1
48
1
60
0
100
AcDbCircle
10
-40.611205
20
0
30
0
40
2.625
39
0
210
0
220
0
230
-1
0
CIRCLE
5
9F
100
AcDbEntity
8
1
62
256
6
ByLayer
370
-1
48
1
60
0
100
AcDbCircle
10
-40.611205
20
0
30
0
40
1.8
39
0
210
0
220
0
230
-1
0
CIRCLE
5
A0
100
AcDbEntity
8
1
62
256
6
ByLayer
370
-1
48
1
60
0
100
AcDbCircle
10
-40.611205
20
0
30
0
40
2.94486584643911
39
0
210
0
220
0
230
-1
0
ELLIPSE
5
A1
100
AcDbEntity
8
1
62
256
6
ByLayer
370
-1
48
1
60
0
100
AcDbEllipse
10
16.948929
20
0
30
0
11
-9.36741787978159
21
-19.7417491527496
31
0
210
0
220
0
230
1
40
0.341999
41
-1.09631952749992
42
-0.152726244898348
0
ELLIPSE
5
A2
100
AcDbEntity
8
1
62
256
6
ByLayer
370
-1
48
1
60
0
100
AcDbEllipse
10
16.696483
20
0
30
0
11
2.75536429610035E-16
21
4.5
31
0
210
0
220
0
230
1
40
0.091138
41
1.5707963267949
42
-1.94621671353208
0
ELLIPSE
5
A3
100
AcDbEntity
8
1
62
256
6
ByLayer
370
-1
48
1
60
0
100
AcDbEllipse
10
16.696483
20
0
30
0
11
2.75536429610035E-16
21
4.5
31
0
210
0
220
0
230
1
40
0.091138
41
-1.19527783088174
42
1.5707963267949
0
ELLIPSE
5
A4
100
AcDbEntity
8
1
62
256
6
ByLayer
370
-1
48
1
60
0
100
AcDbEllipse
10
-0.948929
20
0
30
0
11
-9.3674178797817
21
-19.7417491527498
31
0
210
0
220
0
230
1
40
0.341999
41
2.04527312608988
42
2.98886640869144
0
ELLIPSE
5
A5
100
AcDbEntity
8
1
62
256
6
ByLayer
370
-1
48
1
60
0
100
AcDbEllipse
10
16.948929
20
0
30
0
11
-9.36741787978248
21
19.7417491527508
31
0
210
0
220
0
230
1
40
0.341999
41
0.152726244898341
42
1.09631952749988
0
ELLIPSE
5
A6
100
AcDbEntity
8
1
62
256
6
ByLayer
370
-1
48
1
60
0
100
AcDbEllipse
10
17.749773
20
0
30
0
11
1.22460635382238E-15
21
20
31
0
210
0
220
0
230
1
40
0.087489
41
0.163293582831293
42
2.9782990707585
0
ELLIPSE
5
A7
100
AcDbEntity
8
1
62
256
6
ByLayer
370
-1
48
1
60
0
100
AcDbEllipse
10
-0.948929
20
0
30
0
11
-9.36741787978243
21
19.7417491527508
31
0
210
0
220
0
230
1
40
0.341999
41
-2.98886640869145
42
-2.04527312608992
0
ELLIPSE
5
A8
100
AcDbEntity
8
1
62
256
6
ByLayer
370
-1
48
1
60
0
100
AcDbEllipse
10
18.69224
20
0
30
0
11
9.18454765366783E-17
21
1.5
31
0
210
0
220
0
230
1
40
0.207912
41
-2.92737421963881
42
-1.57079607305451
0
ELLIPSE
5
A9
100
AcDbEntity
8
1
62
256
6
ByLayer
370
-1
48
1
60
0
100
AcDbEllipse
10
18.69224
20
0
30
0
11
9.18454765366783E-17
21
1.5
31
0
210
0
220
0
230
1
40
0.207912
41
-1.57079607305451
42
-0.214119207839466
0
ELLIPSE
5
AA
100
AcDbEntity
8
1
62
256
6
ByLayer
370
-1
48
1
60
0
100
AcDbEllipse
10
16.038197
20
0
30
0
11
1.01030024190346E-16
21
1.65
31
0
210
0
220
0
230
1
40
0.207912
41
-2.2811891046903
42
-1.57079637608483
0
ELLIPSE
5
AB
100
AcDbEntity
8
1
62
256
6
ByLayer
370
-1
48
1
60
0
100
AcDbEllipse
10
16.038197
20
0
30
0
11
1.01030024190346E-16
21
1.65
31
0
210
0
220
0
230
1
40
0.207912
41
-1.57079637608483
42
-0.860305303836484
0
ELLIPSE
5
AC
100
AcDbEntity
8
1
62
256
6
ByLayer
370
-1
48
1
60
0
100
AcDbEllipse
10
18.545518
20
0
30
0
11
-3.03090072571038E-16
21
-1.65
31
0
210
0
220
0
230
1
40
0.207912
41
0
42
-3.14159217944689
0
POINT
5
41
100
AcDbEntity
8
80
62
256
6
ByLayer
370
-1
48
1
60
0
100
AcDbPoint
10
0
20
0
30
0
39
0
210
0
220
0
230
1
50
360
0
POINT
5
43
100
AcDbEntity
8
2
62
256
6
ByLayer
370
-1
48
1
60
0
100
AcDbPoint
10
50
20
0.481659
30
0
39
0
210
0
220
0
230
1
50
360
0
POINT
5
45
100
AcDbEntity
8
SK2
62
256
6
ByLayer
370
-1
48
1
60
0
100
AcDbPoint
10
100
20
50.481659
30
0
39
0
210
0
220
0
230
1
50
360
0
POINT
5
47
100
AcDbEntity
8
SK2
62
256
6
ByLayer
370
-1
48
1
60
0
100
AcDbPoint
10
50
20
0.481659
30
0
39
0
210
0
220
0
230
1
50
360
0
POINT
5
48
100
AcDbEntity
8
SK2
62
256
6
ByLayer
370
-1
48
1
60
0
100
AcDbPoint
10
50
20
0.481659
30
0
39
0
210
0
220
0
230
1
50
360
0
POINT
5
49
100
AcDbEntity
8
SK2
62
256
6
ByLayer
370
-1
48
1
60
0
100
AcDbPoint
10
50
20
0.481659
30
0
39
0
210
0
220
0
230
1
50
360
0
POINT
5
4A
100
AcDbEntity
8
SK2
62
256
6
ByLayer
370
-1
48
1
60
0
100
AcDbPoint
10
100
20
50.481659
30
0
39
0
210
0
220
0
230
1
50
360
0
POINT
5
4B
100
AcDbEntity
8
SK2
62
256
6
ByLayer
370
-1
48
1
60
0
100
AcDbPoint
10
50
20
0.481659
30
0
39
0
210
0
220
0
230
1
50
360
0
POINT
5
4C
100
AcDbEntity
8
81
62
256
6
ByLayer
370
-1
48
1
60
0
100
AcDbPoint
10
50
20
0.481659
30
0
39
0
210
0
220
0
230
1
50
360
0
SPLINE
5
AD
100
AcDbEntity
8
SK1
62
256
6
ByLayer
370
-1
48
1
60
0
100
AcDbSpline
70
4
71
2
72
6
73
3
40
0
40
0
40
0
40
1
40
1
40
1
41
1
10
-22.5
20
-13.4933966698402
30
0
41
1
10
-12.0999999999449
20
-13.7545973909208
30
0
41
1
10
-1.7
20
-14.0157977997179
30
0
0
SPLINE
5
AE
100
AcDbEntity
8
SK1
62
256
6
ByLayer
370
-1
48
1
60
0
100
AcDbSpline
70
4
71
2
72
6
73
3
40
0
40
0
40
0
40
1
40
1
40
1
41
1
10
-1.7
20
14.0157970602974
30
0
41
1
10
-12.099999999963
20
13.7545958471854
30
0
41
1
10
-22.5
20
13.493394380475
30
0
0
SPLINE
5
AF
100
AcDbEntity
8
SK1
62
256
6
ByLayer
370
-1
48
1
60
0
100
AcDbSpline
70
4
71
3
72
13
73
9
40
0
40
0
40
0
40
0
40
0.23945613699745
40
0.36835972341717
40
0.499998985516726
40
0.631638416576566
40
0.76054246870241
40
1
40
1
40
1
40
1
41
1
10
-1.7
20
-14.0200984156386
30
0
41
1
10
-1.6990919864528
20
-13.9940409390257
30
0
41
1
10
-1.69103284110332
20
-13.9566683539303
30
0
41
1
10
-1.66563592205635
20
-13.9104491790265
30
0
41
1
10
-1.63886378681673
20
-13.8791676243503
30
0
41
1
10
-1.60627712752266
20
-13.8540002532836
30
0
41
1
10
-1.5588406423667
20
-13.830956449625
30
0
41
1
10
-1.52111030874428
20
-13.8247841935567
30
0
41
1
10
-1.4950399779393
20
-13.8251858327438
30
0
0
SPLINE
5
B0
100
AcDbEntity
8
SK1
62
256
6
ByLayer
370
-1
48
1
60
0
100
AcDbSpline
70
4
71
3
72
13
73
9
40
0
40
0
40
0
40
0
40
0.239457531274812
40
0.368361583394194
40
0.50000101445229
40
0.631640276555059
40
0.760543862982142
40
1
40
1
40
1
40
1
41
1
10
-1.4950399779393
20
13.8251858293361
30
0
41
1
10
-1.52111030874489
20
13.8247841901529
30
0
41
1
10
-1.55884064236791
20
13.8309564462263
30
0
41
1
10
-1.60627712752329
20
13.8540002498915
30
0
41
1
10
-1.63886378681727
20
13.8791676209635
30
0
41
1
10
-1.66563592205675
20
13.9104491756451
30
0
41
1
10
-1.69103284110358
20
13.9566683505561
30
0
41
1
10
-1.69909198645307
20
13.9940409356568
30
0
41
1
10
-1.7
20
14.0200984122732
30
0
0
SPLINE
5
B1
100
AcDbEntity
8
SK1
62
256
6
ByLayer
370
-1
48
1
60
0
100
AcDbSpline
70
4
71
2
72
6
73
3
40
0
40
0
40
0
40
1
40
1
40
1
41
1
10
-24
20
-12.6310964932104
30
0
41
1
10
-23.2499999989322
20
-13.0640911753538
30
0
41
1
10
-22.5
20
-13.4970856697526
30
0
0
SPLINE
5
B2
100
AcDbEntity
8
SK1
62
256
6
ByLayer
370
-1
48
1
60
0
100
AcDbSpline
70
4
71
2
72
6
73
3
40
0
40
0
40
0
40
1
40
1
40
1
41
1
10
-22.5
20
13.4970852847173
30
0
41
1
10
-23.2499999989318
20
13.0640908004416
30
0
41
1
10
-24
20
12.6310961283886
30
0
0
SPLINE
5
B3
100
AcDbEntity
8
SK1
62
256
6
ByLayer
370
-1
48
1
60
0
100
AcDbSpline
70
4
71
2
72
6
73
3
40
0
40
0
40
0
40
1
40
1
40
1
41
1
10
-1.4950399779393
20
-13.7129410868425
30
0
41
1
10
-0.945008433407295
20
-13.7266599565288
30
0
41
1
10
-0.394976888875291
20
-13.7403788260786
30
0
0
SPLINE
5
B4
100
AcDbEntity
8
SK1
62
256
6
ByLayer
370
-1
48
1
60
0
100
AcDbSpline
70
4
71
2
72
6
73
3
40
0
40
0
40
0
40
1
40
1
40
1
41
1
10
-0.394976888875291
20
13.740379899128
30
0
41
1
10
-0.945008433407295
20
13.7266611372792
30
0
41
1
10
-1.4950399779393
20
13.7129423752897
30
0
0
SPLINE
5
B5
100
AcDbEntity
8
1
62
256
6
ByLayer
370
-1
48
1
60
0
100
AcDbSpline
70
4
71
3
72
16
73
12
40
0
40
0
40
0
40
0
40
0.46430426715929
40
0.46430426715929
40
0.647533485141967
40
0.647533485141967
40
0.833383675860504
40
0.833383675860504
40
0.950238074309844
40
0.950238074309844
40
1
40
1
40
1
40
1
41
1
10
6.66339745962155
20
6.16973001948568
30
0
41
1
10
6.68070356543041
20
6.10699311212741
30
0
41
1
10
6.70445583204739
20
6.04466199750289
30
0
41
1
10
6.7533270655271
20
5.96658891111872
30
0
41
1
10
6.76920288341026
20
5.94525308185362
30
0
41
1
10
6.80605435144608
20
5.90694983484818
30
0
41
1
10
6.82759190740043
20
5.88959453036586
30
0
41
1
10
6.86713065155233
20
5.86981268651903
30
0
41
1
10
6.8838647446556
20
5.8641686994944
30
0
41
1
10
6.90829201976607
20
5.86046107106307
30
0
41
1
10
6.91575967688848
20
5.85988980456935
30
0
41
1
10
6.92320508075689
20
5.85988980456935
30
0
0
SPLINE
5
B6
100
AcDbEntity
8
1
62
256
6
ByLayer
370
-1
48
1
60
0
100
AcDbSpline
70
4
71
3
72
8
73
4
40
0
40
0
40
0
40
0
40
1
40
1
40
1
40
1
41
1
10
31.67564607742
20
-1.47650636365785
30
0
41
1
10
31.5942137645663
20
-1.49109081095651
30
0
41
1
10
31.5099750046388
20
-1.49924767468883
30
0
41
1
10
31.4233807613024
20
-1.49995058472027
30
0
0
SPLINE
5
B7
100
AcDbEntity
8
1
62
256
6
ByLayer
370
-1
48
1
60
0
100
AcDbSpline
70
4
71
3
72
8
73
4
40
0
40
0
40
0
40
0
40
1
40
1
40
1
40
1
41
1
10
21.4500934319985
20
-16.9710315847315
30
0
41
1
10
21.1212754746065
20
-17.3362062011826
30
0
41
1
10
20.8180571475732
20
-17.7266384900692
30
0
41
1
10
20.547399008033
20
-18.1319617005915
30
0
0
SPLINE
5
B8
100
AcDbEntity
8
1
62
256
6
ByLayer
370
-1
48
1
60
0
100
AcDbSpline
70
4
71
3
72
12
73
8
40
0
40
0
40
0
40
0
40
0.260989103595905
40
0.260989103595905
40
0.626438075115993
40
0.626438075115993
40
1
40
1
40
1
40
1
41
1
10
19.3008561554293
20
19.9987178673565
30
0
41
1
10
19.0317806026515
20
19.9967767134576
30
0
41
1
10
18.7815968601927
20
19.9922309458771
30
0
41
1
10
18.2525925621456
20
19.969186945762
30
0
41
1
10
17.9955138539919
20
19.9451297803514
30
0
41
1
10
17.6225408370649
20
19.8654851136732
30
0
41
1
10
17.5045175589084
20
19.8077718647999
30
0
41
1
10
17.4653146396316
20
19.7339440410484
30
0
0
SPLINE
5
B9
100
AcDbEntity
8
1
62
256
6
ByLayer
370
-1
48
1
60
0
100
AcDbSpline
70
4
71
3
72
16
73
12
40
0
40
0
40
0
40
0
40
0.114691258188368
40
0.114691258188368
40
0.256006982052502
40
0.256006982052502
40
0.47848150969846
40
0.47848150969846
40
0.904237458570168
40
0.904237458570168
40
1
40
1
40
1
40
1
41
1
10
6.92320508075689
20
-5.85988980456938
30
0
41
1
10
6.90623920058412
20
-5.85988980456938
30
0
41
1
10
6.8890625321241
20
-5.8629683550426
30
0
41
1
10
6.85346109846185
20
-5.87527238052311
30
0
41
1
10
6.83507168736791
20
-5.88582364044447
30
0
41
1
10
6.79305201772168
20
-5.91775860341622
30
0
41
1
10
6.77140364934787
20
-5.94228809980598
30
0
41
1
10
6.71814486104419
20
-6.01773563791645
30
0
41
1
10
6.69359399943792
20
-6.07398601286491
30
0
41
1
10
6.67087946572558
20
-6.14371014971229
30
0
41
1
10
6.66699503410796
20
-6.15668833929709
30
0
41
1
10
6.66339745962154
20
-6.16973001948568
30
0
0
SPLINE
5
BA
100
AcDbEntity
8
1
62
256
6
ByLayer
370
-1
48
1
60
0
100
AcDbSpline
70
4
71
3
72
16
73
12
40
0
40
0
40
0
40
0
40
0.114691258188364
40
0.114691258188364
40
0.256006982052491
40
0.256006982052491
40
0.478481509698431
40
0.478481509698431
40
0.904237458570125
40
0.904237458570125
40
1
40
1
40
1
40
1
41
1
10
9.07679491924311
20
5.85988980456938
30
0
41
1
10
9.09376079941588
20
5.85988980456938
30
0
41
1
10
9.1109374678759
20
5.8629683550426
30
0
41
1
10
9.14653890153815
20
5.87527238052311
30
0
41
1
10
9.16492831263209
20
5.88582364044447
30
0
41
1
10
9.20694798227832
20
5.91775860341619
30
0
41
1
10
9.22859635065211
20
5.94228809980598
30
0
41
1
10
9.28185513895581
20
6.01773563791645
30
0
41
1
10
9.30640600056208
20
6.07398601286488
30
0
41
1
10
9.32912053427441
20
6.14371014971229
30
0
41
1
10
9.33300496589204
20
6.15668833929709
30
0
41
1
10
9.33660254037846
20
6.16973001948568
30
0
0
SPLINE
5
BB
100
AcDbEntity
8
1
62
256
6
ByLayer
370
-1
48
1
60
0
100
AcDbSpline
70
4
71
3
72
16
73
12
40
0
40
0
40
0
40
0
40
0.114691258188364
40
0.114691258188364
40
0.256006982052499
40
0.256006982052499
40
0.478481509698429
40
0.478481509698429
40
0.904237458570111
40
0.904237458570111
40
1
40
1
40
1
40
1
41
1
10
6.92320508075689
20
19.1222825906926
30
0
41
1
10
6.90623920058412
20
19.1222825906926
30
0
41
1
10
6.8890625321241
20
19.1213397893258
30
0
41
1
10
6.85346109846185
20
19.117563257367
30
0
41
1
10
6.83507168736791
20
19.1143205262483
30
0
41
1
10
6.79305201772168
20
19.1044641374228
30
0
41
1
10
6.77140364934789
20
19.0968571256395
30
0
41
1
10
6.71814486104421
20
19.0732678361841
30
0
41
1
10
6.69359399943794
20
19.0554522237109
30
0
41
1
10
6.67087946572559
20
19.0329978954364
30
0
41
1
10
6.66699503410796
20
19.0288038685174
30
0
41
1
10
6.66339745962154
20
19.0245744101322
30
0
0
SPLINE
5
BC
100
AcDbEntity
8
1
62
256
6
ByLayer
370
-1
48
1
60
0
100
AcDbSpline
70
4
71
3
72
16
73
12
40
0
40
0
40
0
40
0
40
0.114691258188362
40
0.114691258188362
40
0.256006982052503
40
0.256006982052503
40
0.47848150969845
40
0.47848150969845
40
0.904237458570186
40
0.904237458570186
40
1
40
1
40
1
40
1
41
1
10
9.07679491924311
20
-19.1222825906926
30
0
41
1
10
9.09376079941588
20
-19.1222825906926
30
0
41
1
10
9.1109374678759
20
-19.1213397893258
30
0
41
1
10
9.14653890153815
20
-19.117563257367
30
0
41
1
10
9.16492831263209
20
-19.1143205262483
30
0
41
1
10
9.20694798227832
20
-19.1044641374228
30
0
41
1
10
9.22859635065213
20
-19.0968571256395
30
0
41
1
10
9.28185513895581
20
-19.0732678361841
30
0
41
1
10
9.30640600056208
20
-19.0554522237109
30
0
41
1
10
9.32912053427442
20
-19.0329978954363
30
0
41
1
10
9.33300496589204
20
-19.0288038685174
30
0
41
1
10
9.33660254037846
20
-19.0245744101322
30
0
0
SPLINE
5
BD
100
AcDbEntity
8
1
62
256
6
ByLayer
370
-1
48
1
60
0
100
AcDbSpline
70
4
71
3
72
12
73
8
40
0
40
0
40
0
40
0
40
0.363425842539923
40
0.363425842539923
40
0.726968011137092
40
0.726968011137092
40
1
40
1
40
1
40
1
41
1
10
17.4653146396316
20
-19.7339440410484
30
0
41
1
10
17.5034739380798
20
-19.8058064944648
30
0
41
1
10
17.6161751011552
20
-19.8624165220314
30
0
41
1
10
17.9756690056779
20
-19.9424652294745
30
0
41
1
10
18.2274335307558
20
-19.9672343230189
30
0
41
1
10
18.7586402705122
20
-19.9918040574087
30
0
41
1
10
19.0194488282493
20
-19.9966877500727
30
0
41
1
10
19.3008561554266
20
-19.9987178673565
30
0
0
SPLINE
5
BE
100
AcDbEntity
8
1
62
256
6
ByLayer
370
-1
48
1
60
0
100
AcDbSpline
70
4
71
3
72
8
73
4
40
0
40
0
40
0
40
0
40
1
40
1
40
1
40
1
41
1
10
20.547399008033
20
18.1319617005956
30
0
41
1
10
20.8180571475733
20
17.7266384900734
30
0
41
1
10
21.1212754746066
20
17.3362062011867
30
0
41
1
10
21.4500934319985
20
16.9710315847356
30
0
0
SPLINE
5
BF
100
AcDbEntity
8
1
62
256
6
ByLayer
370
-1
48
1
60
0
100
AcDbSpline
70
4
71
3
72
16
73
12
40
0
40
0
40
0
40
0
40
0.464304267159304
40
0.464304267159304
40
0.647533485141974
40
0.647533485141974
40
0.833383675860505
40
0.833383675860505
40
0.950238074309851
40
0.950238074309851
40
1
40
1
40
1
40
1
41
1
10
9.33660254037845
20
-6.16973001948568
30
0
41
1
10
9.31929643456959
20
-6.10699311212741
30
0
41
1
10
9.29554416795261
20
-6.04466199750289
30
0
41
1
10
9.2466729344729
20
-5.96658891111872
30
0
41
1
10
9.23079711658974
20
-5.94525308185362
30
0
41
1
10
9.19394564855391
20
-5.90694983484818
30
0
41
1
10
9.17240809259957
20
-5.88959453036583
30
0
41
1
10
9.13286934844767
20
-5.86981268651903
30
0
41
1
10
9.1161352553444
20
-5.86416869949437
30
0
41
1
10
9.09170798023393
20
-5.86046107106307
30
0
41
1
10
9.08424032311152
20
-5.85988980456935
30
0
41
1
10
9.07679491924311
20
-5.85988980456935
30
0
0
SPLINE
5
C0
100
AcDbEntity
8
1
62
256
6
ByLayer
370
-1
48
1
60
0
100
AcDbSpline
70
4
71
3
72
16
73
12
40
0
40
0
40
0
40
0
40
0.464304267159312
40
0.464304267159312
40
0.64753348514198
40
0.64753348514198
40
0.833383675860513
40
0.833383675860513
40
0.950238074309858
40
0.950238074309858
40
1
40
1
40
1
40
1
41
1
10
9.33660254037845
20
19.0245744101322
30
0
41
1
10
9.31929643456959
20
19.0449201888242
30
0
41
1
10
9.29554416795261
20
19.0647708693882
30
0
41
1
10
9.24667293447288
20
19.0892734034403
30
0
41
1
10
9.23079711658974
20
19.0959253431035
30
0
41
1
10
9.19394564855391
20
19.1078085849622
30
0
41
1
10
9.17240809259957
20
19.1131587398644
30
0
41
1
10
9.13286934844767
20
19.1192406569511
30
0
41
1
10
9.1161352553444
20
19.1209710216544
30
0
41
1
10
9.09170798023393
20
19.1221075563677
30
0
41
1
10
9.0842403231115
20
19.1222825906926
30
0
41
1
10
9.07679491924311
20
19.1222825906926
30
0
0
SPLINE
5
C1
100
AcDbEntity
8
1
62
256
6
ByLayer
370
-1
48
1
60
0
100
AcDbSpline
70
4
71
3
72
16
73
12
40
0
40
0
40
0
40
0
40
0.464304267159293
40
0.464304267159293
40
0.647533485141969
40
0.647533485141969
40
0.833383675860506
40
0.833383675860506
40
0.950238074309852
40
0.950238074309852
40
1
40
1
40
1
40
1
41
1
10
6.66339745962155
20
-19.0245744101322
30
0
41
1
10
6.68070356543041
20
-19.0449201888242
30
0
41
1
10
6.70445583204739
20
-19.0647708693882
30
0
41
1
10
6.7533270655271
20
-19.0892734034403
30
0
41
1
10
6.76920288341026
20
-19.0959253431035
30
0
41
1
10
6.80605435144608
20
-19.1078085849622
30
0
41
1
10
6.82759190740043
20
-19.1131587398644
30
0
41
1
10
6.86713065155233
20
-19.1192406569511
30
0
41
1
10
6.8838647446556
20
-19.1209710216544
30
0
41
1
10
6.90829201976607
20
-19.1221075563677
30
0
41
1
10
6.9157596768885
20
-19.1222825906926
30
0
41
1
10
6.92320508075689
20
-19.1222825906926
30
0
0
SPLINE
5
C2
100
AcDbEntity
8
1
62
256
6
ByLayer
370
-1
48
1
60
0
100
AcDbSpline
70
4
71
3
72
14
73
10
40
0
40
0
40
0
40
0
40
0.283961749036724
40
0.283961749036724
40
0.570285189259039
40
0.570285189259039
40
0.829451094335699
40
0.829451094335699
40
1
40
1
40
1
40
1
41
1
10
39.6335607693092
20
-1.12150404177393
30
0
41
1
10
39.6248839086139
20
-1.15388811302662
30
0
41
1
10
39.6216513772143
20
-1.18882554195702
30
0
41
1
10
39.6279988715338
20
-1.25850421461212
30
0
41
1
10
39.637846219261
20
-1.29431482284002
30
0
41
1
10
39.6689906456482
20
-1.35690846986839
30
0
41
1
10
39.6896374884175
20
-1.38514373353138
30
0
41
1
10
39.7308030776813
20
-1.42427613242984
30
0
41
1
10
39.7492542862538
20
-1.43812706135148
30
0
41
1
10
39.7689069333576
20
-1.44954676283498
30
0
0
SPLINE
5
C3
100
AcDbEntity
8
SK1
62
256
6
ByLayer
370
-1
48
1
60
0
100
AcDbSpline
70
4
71
3
72
24
73
20
40
0
40
0
40
0
40
0
40
0.0014544386996768
40
0.0014544386996768
40
0.361956423060175
40
0.361956423060175
40
0.727731599250329
40
0.727731599250329
40
0.782013304695397
40
0.782013304695397
40
0.837002501937712
40
0.837002501937712
40
0.873144196436444
40
0.873144196436444
40
0.909511909647818
40
0.909511909647818
40
0.95211385716867
40
0.95211385716867
40
1
40
1
40
1
40
1
41
1
10
-0.217773520819819
20
13.9477771104646
30
0
41
1
10
-0.217796303830497
20
13.9477385212397
30
0
41
1
10
-0.217819113763113
20
13.9476999169831
30
0
41
1
10
-0.223510113646839
20
13.9380759054837
30
0
41
1
10
-0.2308695540152
20
13.9275300777214
30
0
41
1
10
-0.252993763945881
20
13.9036085654018
30
0
41
1
10
-0.266169306055218
20
13.8900912648142
30
0
41
1
10
-0.29931321009893
20
13.8713678522793
30
0
41
1
10
-0.304168151080077
20
13.8688119846588
30
0
41
1
10
-0.315233613826862
20
13.8635902765912
30
0
41
1
10
-0.321588767727192
20
13.8608655729355
30
0
41
1
10
-0.333434048045547
20
13.8565368608439
30
0
41
1
10
-0.338587345813778
20
13.8548370746726
30
0
41
1
10
-0.349158334685953
20
13.8517865918864
30
0
41
1
10
-0.354704697438692
20
13.8504050227189
30
0
41
1
10
-0.36619369752195
20
13.847969712967
30
0
41
1
10
-0.372213730133424
20
13.8469665678177
30
0
41
1
10
-0.383950527302631
20
13.8454141457692
30
0
41
1
10
-0.389694590781985
20
13.8449066720063
30
0
41
1
10
-0.394976888882169
20
13.8446015176357
30
0
0
SPLINE
5
C4
100
AcDbEntity
8
SK1
62
256
6
ByLayer
370
-1
48
1
60
0
100
AcDbSpline
70
4
71
3
72
114
73
110
40
0
40
0
40
0
40
0
40
0.0074724377966504
40
0.0154968102951339
40
0.0235211827936173
40
0.0315455552921007
40
0.0395699277905841
40
0.0475943002890676
40
0.0636430452860344
40
0.0796917902830012
40
0.0957405352799681
40
0.103764907778452
40
0.111789280276935
40
0.119813652775418
40
0.127838025273902
40
0.143886770270869
40
0.151911142769352
40
0.159935515267835
40
0.167959887766319
40
0.175984260264802
40
0.184008632763286
40
0.192033005261769
40
0.208081750258736
40
0.216106122757219
40
0.224130495255703
40
0.232154867754186
40
0.24017924025267
40
0.248203612751153
40
0.256227985249637
40
0.26425235774812
40
0.272276730246603
40
0.28832547524357
40
0.296349847742054
40
0.304374220240537
40
0.320422965237504
40
0.336471710234471
40
0.344496082732954
40
0.352520455231438
40
0.360544827729921
40
0.368569200228405
40
0.376593572726888
40
0.384617945225371
40
0.388630131474613
40
0.392642317723855
40
0.400666690222338
40
0.408691062720822
40
0.416715435219305
40
0.432764180216272
40
0.440788552714755
40
0.448812925213239
40
0.456837297711722
40
0.464861670210206
40
0.472886042708689
40
0.480910415207172
40
0.488934787705656
40
0.496959160204139
40
0.504983532702623
40
0.513007905201106
40
0.529056650198073
40
0.537081022696556
40
0.54510539519504
40
0.549117581444282
40
0.553129767693523
40
0.561154140192007
40
0.577202885188973
40
0.585227257687457
40
0.59325163018594
40
0.609300375182907
40
0.625349120179874
40
0.633373492678358
40
0.641397865176841
40
0.657446610173808
40
0.665470982672291
40
0.673495355170775
40
0.681519727669258
40
0.689544100167741
40
0.697568472666225
40
0.705592845164708
40
0.721641590161675
40
0.737690335158642
40
0.745714707657125
40
0.753739080155609
40
0.761763452654092
40
0.769787825152576
40
0.785836570149543
40
0.801885315146509
40
0.817934060143476
40
0.833982805140443
40
0.842007177638927
40
0.85003155013741
40
0.858055922635893
40
0.866080295134377
40
0.87410466763286
40
0.882129040131344
40
0.890153412629827
40
0.89817778512831
40
0.906202157626794
40
0.914226530125277
40
0.922250902623761
40
0.930275275122244
40
0.938299647620728
40
0.946324020119211
40
0.954348392617694
40
0.962372765116178
40
0.970397137614661
40
0.978421510113145
40
0.986445882611628
40
0.994470255110112
40
1
40
1
40
1
40
1
41
1
10
-1.7
20
14.0157680965057
30
0
41
1
10
-1.7
20
14.014457446782
30
0
41
1
10
-1.7
20
14.0111300282163
30
0
41
1
10
-1.7
20
14.0041925984504
30
0
41
1
10
-1.7
20
13.9951252442004
30
0
41
1
10
-1.7
20
13.9841239086368
30
0
41
1
10
-1.7
20
13.9712195253815
30
0
41
1
10
-1.7
20
13.9515178138587
30
0
41
1
10
-1.7
20
13.9222750232465
30
0
41
1
10
-1.7
20
13.8800204120324
30
0
41
1
10
-1.7
20
13.838998019961
30
0
41
1
10
-1.7
20
13.8027899045868
30
0
41
1
10
-1.7
20
13.773955994413
30
0
41
1
10
-1.7
20
13.7434660879001
30
0
41
1
10
-1.7
20
13.7006353174901
30
0
41
1
10
-1.7
20
13.6545611373555
30
0
41
1
10
-1.7
20
13.6053355893185
30
0
41
1
10
-1.7
20
13.5668499361124
30
0
41
1
10
-1.7
20
13.5268172028035
30
0
41
1
10
-1.7
20
13.485252935173
30
0
41
1
10
-1.7
20
13.4421723218484
30
0
41
1
10
-1.7
20
13.3827344162836
30
0
41
1
10
-1.7
20
13.3203101073726
30
0
41
1
10
-1.7
20
13.254979960848
30
0
41
1
10
-1.7
20
13.2045321061977
30
0
41
1
10
-1.7
20
13.1526505121852
30
0
41
1
10
-1.7
20
13.099347414251
30
0
41
1
10
-1.7
20
13.0446338149516
30
0
41
1
10
-1.7
20
12.9885220902628
30
0
41
1
10
-1.7
20
12.9310230723471
30
0
41
1
10
-1.7
20
12.8525264142953
30
0
41
1
10
-1.7
20
12.7712834714132
30
0
41
1
10
-1.7
20
12.6873624197502
30
0
41
1
10
-1.7
20
12.6016598943421
30
0
41
1
10
-1.7
20
12.4912006491746
30
0
41
1
10
-1.7
20
12.3763763558488
30
0
41
1
10
-1.7
20
12.2819406900945
30
0
41
1
10
-1.7
20
12.209824815618
30
0
41
1
10
-1.7
20
12.1364316894724
30
0
41
1
10
-1.7
20
12.0617686582407
30
0
41
1
10
-1.7
20
11.9858436758677
30
0
41
1
10
-1.7
20
11.9215236068653
30
0
41
1
10
-1.7
20
11.8694488081267
30
0
41
1
10
-1.7
20
11.8169591426362
30
0
41
1
10
-1.7
20
11.7505641289662
30
0
41
1
10
-1.7
20
11.6696587742526
30
0
41
1
10
-1.7
20
11.5601529159528
30
0
41
1
10
-1.7
20
11.448182891669
30
0
41
1
10
-1.7
20
11.3338110499831
30
0
41
1
10
-1.7
20
11.2468221792499
30
0
41
1
10
-1.7
20
11.1586337603462
30
0
41
1
10
-1.7
20
11.0692509372408
30
0
41
1
10
-1.7
20
10.9786794422307
30
0
41
1
10
-1.7
20
10.8869237783616
30
0
41
1
10
-1.7
20
10.7939888359847
30
0
41
1
10
-1.7
20
10.6998796425436
30
0
41
1
10
-1.7
20
10.6046008465563
30
0
41
1
10
-1.7
20
10.4760157679139
30
0
41
1
10
-1.7
20
10.3450861470912
30
0
41
1
10
-1.7
20
10.2118742799613
30
0
41
1
10
-1.7
20
10.1276505623382
30
0
41
1
10
-1.7
20
10.0597065749413
30
0
41
1
10
-1.7
20
9.9913814320609
30
0
41
1
10
-1.7
20
9.87081043657869
30
0
41
1
10
-1.7
20
9.73071862052217
30
0
41
1
10
-1.7
20
9.58839008121353
30
0
41
1
10
-1.7
20
9.44455854729449
30
0
41
1
10
-1.7
20
9.26193698423123
30
0
41
1
10
-1.7
20
9.07558727703642
30
0
41
1
10
-1.7
20
8.92429760284432
30
0
41
1
10
-1.7
20
8.77152766795061
30
0
41
1
10
-1.7
20
8.61651162008161
30
0
41
1
10
-1.7
20
8.45931945344486
30
0
41
1
10
-1.7
20
8.34031606829598
30
0
41
1
10
-1.7
20
8.22021379775831
30
0
41
1
10
-1.7
20
8.09901464495698
30
0
41
1
10
-1.7
20
7.9767200242907
30
0
41
1
10
-1.7
20
7.81221411547432
30
0
41
1
10
-1.7
20
7.60382755625838
30
0
41
1
10
-1.7
20
7.39181445781463
30
0
41
1
10
-1.7
20
7.22005470774221
30
0
41
1
10
-1.7
20
7.09014226669851
30
0
41
1
10
-1.7
20
6.95914717066265
30
0
41
1
10
-1.7
20
6.7830583657493
30
0
41
1
10
-1.7
20
6.56021848903171
30
0
41
1
10
-1.7
20
6.28851700104784
30
0
41
1
10
-1.7
20
6.01251447744062
30
0
41
1
10
-1.7
20
5.77892152059965
30
0
41
1
10
-1.7
20
5.58993216915877
30
0
41
1
10
-1.7
20
5.44710899667646
30
0
41
1
10
-1.7
20
5.30321729486519
30
0
41
1
10
-1.7
20
5.15825857839869
30
0
41
1
10
-1.7
20
5.01223405348068
30
0
41
1
10
-1.7
20
4.86514556778678
30
0
41
1
10
-1.7
20
4.71699468615466
30
0
41
1
10
-1.7
20
4.56778337246482
30
0
41
1
10
-1.7
20
4.41751381174834
30
0
41
1
10
-1.7
20
4.26618872973953
30
0
41
1
10
-1.7
20
4.11381092681606
30
0
41
1
10
-1.7
20
3.96038358832212
30
0
41
1
10
-1.7
20
3.80591077742719
30
0
41
1
10
-1.7
20
3.65039714326571
30
0
41
1
10
-1.7
20
3.49384789900154
30
0
41
1
10
-1.7
20
3.33626943234705
30
0
41
1
10
-1.7
20
3.17766893265431
30
0
41
1
10
-1.7
20
3.01805527431182
30
0
41
1
10
-1.7
20
2.85743846779499
30
0
41
1
10
-1.7
20
2.71257747642741
30
0
41
1
10
-1.7
20
2.62111404232408
30
0
41
1
10
-1.7
20
2.58372509632827
30
0
0
SPLINE
5
C5
100
AcDbEntity
8
SK1
62
256
6
ByLayer
370
-1
48
1
60
0
100
AcDbSpline
70
4
71
3
72
116
73
112
40
0
40
0
40
0
40
0
40
0.0055297479117485
40
0.013554118509889
40
0.0215784891080294
40
0.0296028597061699
40
0.0376272303043103
40
0.0456516009024508
40
0.0536759715005912
40
0.0617003420987317
40
0.0697247126968721
40
0.0777490832950126
40
0.085773453893153
40
0.0937978244912935
40
0.101822195089434
40
0.109846565687574
40
0.117870936285715
40
0.125895306883855
40
0.133919677481996
40
0.141944048080136
40
0.149968418678277
40
0.157992789276417
40
0.166017159874558
40
0.182065901070838
40
0.198114642267119
40
0.2141633834634
40
0.230212124659681
40
0.238236495257822
40
0.246260865855962
40
0.254285236454102
40
0.262309607052243
40
0.278358348248524
40
0.294407089444805
40
0.302431460042945
40
0.310455830641086
40
0.318480201239226
40
0.326504571837366
40
0.334528942435507
40
0.342553313033647
40
0.358602054229928
40
0.366626424828069
40
0.374650795426209
40
0.39069953662249
40
0.406748277818771
40
0.414772648416911
40
0.422797019015052
40
0.438845760211333
40
0.446870130809473
40
0.450882316108543
40
0.454894501407614
40
0.462918872005754
40
0.470943242603894
40
0.486991983800175
40
0.495016354398316
40
0.503040724996456
40
0.511065095594597
40
0.519089466192737
40
0.527113836790878
40
0.535138207389018
40
0.543162577987158
40
0.551186948585299
40
0.559211319183439
40
0.56723568978158
40
0.583284430977861
40
0.591308801576001
40
0.599333172174142
40
0.607357542772282
40
0.611369728071352
40
0.615381913370422
40
0.623406283968563
40
0.631430654566703
40
0.639455025164844
40
0.647479395762984
40
0.655503766361125
40
0.663528136959265
40
0.679576878155546
40
0.695625619351827
40
0.703649989949967
40
0.711674360548108
40
0.727723101744389
40
0.735747472342529
40
0.74377184294067
40
0.75179621353881
40
0.759820584136951
40
0.767844954735091
40
0.775869325333231
40
0.783893695931372
40
0.791918066529512
40
0.807966807725793
40
0.815991178323934
40
0.824015548922074
40
0.832039919520215
40
0.840064290118355
40
0.848088660716495
40
0.856113031314636
40
0.872161772510917
40
0.880186143109057
40
0.888210513707198
40
0.896234884305338
40
0.904259254903479
40
0.920307996099759
40
0.9283323666979
40
0.93635673729604
40
0.944381107894181
40
0.952405478492321
40
0.960429849090462
40
0.968454219688602
40
0.976478590286743
40
0.984502960884883
40
0.992527331483023
40
1
40
1
40
1
40
1
41
1
10
-1.7
20
-2.5837250319525
30
0
41
1
10
-1.7
20
-2.62111400924692
30
0
41
1
10
-1.7
20
-2.71257747842986
30
0
41
1
10
-1.7
20
-2.85743848960826
30
0
41
1
10
-1.7
20
-3.01805529196176
30
0
41
1
10
-1.7
20
-3.17766896347746
30
0
41
1
10
-1.7
20
-3.33626946559076
30
0
41
1
10
-1.7
20
-3.49384788295134
30
0
41
1
10
-1.7
20
-3.65039703338328
30
0
41
1
10
-1.7
20
-3.80591068333541
30
0
41
1
10
-1.7
20
-3.9603838288908
30
0
41
1
10
-1.7
20
-4.11381118090259
30
0
41
1
10
-1.7
20
-4.26618881241484
30
0
41
1
10
-1.7
20
-4.41751369191317
30
0
41
1
10
-1.7
20
-4.56778315161375
30
0
41
1
10
-1.7
20
-4.7169946256985
30
0
41
1
10
-1.7
20
-4.86514572624662
30
0
41
1
10
-1.7
20
-5.01223421717728
30
0
41
1
10
-1.7
20
-5.15825863689906
30
0
41
1
10
-1.7
20
-5.30321731736851
30
0
41
1
10
-1.7
20
-5.44710902267545
30
0
41
1
10
-1.7
20
-5.58993219435266
30
0
41
1
10
-1.7
20
-5.77892152593586
30
0
41
1
10
-1.7
20
-6.01251450148573
30
0
41
1
10
-1.7
20
-6.28851702131561
30
0
41
1
10
-1.7
20
-6.56021849497904
30
0
41
1
10
-1.7
20
-6.78305839594086
30
0
41
1
10
-1.7
20
-6.95914718913937
30
0
41
1
10
-1.7
20
-7.0901422748378
30
0
41
1
10
-1.7
20
-7.22005471809891
30
0
41
1
10
-1.7
20
-7.391814483107
30
0
41
1
10
-1.7
20
-7.60382757721297
30
0
41
1
10
-1.7
20
-7.81221412115067
30
0
41
1
10
-1.7
20
-7.97672004102665
30
0
41
1
10
-1.7
20
-8.09901466976936
30
0
41
1
10
-1.7
20
-8.22021382021134
30
0
41
1
10
-1.7
20
-8.34031608257325
30
0
41
1
10
-1.7
20
-8.45931946186533
30
0
41
1
10
-1.7
20
-8.61651163422607
30
0
41
1
10
-1.7
20
-8.77152769372714
30
0
41
1
10
-1.7
20
-8.92429762219672
30
0
41
1
10
-1.7
20
-9.07558728630886
30
0
41
1
10
-1.7
20
-9.26193699842017
30
0
41
1
10
-1.7
20
-9.44455857133374
30
0
41
1
10
-1.7
20
-9.58839009925038
30
0
41
1
10
-1.7
20
-9.73071863089592
30
0
41
1
10
-1.7
20
-9.87081045044334
30
0
41
1
10
-1.7
20
-9.99138145148612
30
0
41
1
10
-1.7
20
-10.059706595653
30
0
41
1
10
-1.7
20
-10.127650582945
30
0
41
1
10
-1.7
20
-10.2118742978003
30
0
41
1
10
-1.7
20
-10.3450861597474
30
0
41
1
10
-1.7
20
-10.4760157822056
30
0
41
1
10
-1.7
20
-10.6046008653873
30
0
41
1
10
-1.7
20
-10.6998796625668
30
0
41
1
10
-1.7
20
-10.7939888545435
30
0
41
1
10
-1.7
20
-10.8869237943964
30
0
41
1
10
-1.7
20
-10.9786794570574
30
0
41
1
10
-1.7
20
-11.069250952524
30
0
41
1
10
-1.7
20
-11.1586337774266
30
0
41
1
10
-1.7
20
-11.2468221981049
30
0
41
1
10
-1.7
20
-11.3338110691597
30
0
41
1
10
-1.7
20
-11.4481829097131
30
0
41
1
10
-1.7
20
-11.5601529310588
30
0
41
1
10
-1.7
20
-11.6696587897978
30
0
41
1
10
-1.7
20
-11.7505641463283
30
0
41
1
10
-1.7
20
-11.8169591619061
30
0
41
1
10
-1.7
20
-11.869448828233
30
0
41
1
10
-1.7
20
-11.9215236271769
30
0
41
1
10
-1.7
20
-11.9858436943514
30
0
41
1
10
-1.7
20
-12.0617686735772
30
0
41
1
10
-1.7
20
-12.1364317035572
30
0
41
1
10
-1.7
20
-12.2098248313331
30
0
41
1
10
-1.7
20
-12.2819407102379
30
0
41
1
10
-1.7
20
-12.3763763795169
30
0
41
1
10
-1.7
20
-12.4912006631364
30
0
41
1
10
-1.7
20
-12.6016599065257
30
0
41
1
10
-1.7
20
-12.687362440577
30
0
41
1
10
-1.7
20
-12.7712834981639
30
0
41
1
10
-1.7
20
-12.8525264302737
30
0
41
1
10
-1.7
20
-12.9310230820619
30
0
41
1
10
-1.7
20
-12.9885221046098
30
0
41
1
10
-1.7
20
-13.0446338377524
30
0
41
1
10
-1.7
20
-13.0993474417035
30
0
41
1
10
-1.7
20
-13.1526505331688
30
0
41
1
10
-1.7
20
-13.2045321176789
30
0
41
1
10
-1.7
20
-13.2549799687684
30
0
41
1
10
-1.7
20
-13.3203101272292
30
0
41
1
10
-1.7
20
-13.3827344481881
30
0
41
1
10
-1.7
20
-13.4421723383994
30
0
41
1
10
-1.7
20
-13.4852529409442
30
0
41
1
10
-1.7
20
-13.5268172136993
30
0
41
1
10
-1.7
20
-13.5668499598694
30
0
41
1
10
-1.7
20
-13.6053356175566
30
0
41
1
10
-1.7
20
-13.6545611570253
30
0
41
1
10
-1.7
20
-13.7006353167884
30
0
41
1
10
-1.7
20
-13.7434661079967
30
0
41
1
10
-1.7
20
-13.7739560268625
30
0
41
1
10
-1.7
20
-13.8027899277569
30
0
41
1
10
-1.7
20
-13.8389980176944
30
0
41
1
10
-1.7
20
-13.8718187984145
30
0
41
1
10
-1.7
20
-13.9011479145568
30
0
41
1
10
-1.7
20
-13.9213794981548
30
0
41
1
10
-1.7
20
-13.9398197437578
30
0
41
1
10
-1.7
20
-13.9564420504847
30
0
41
1
10
-1.7
20
-13.9712195410175
30
0
41
1
10
-1.7
20
-13.9841238377961
30
0
41
1
10
-1.7
20
-13.9951249982352
30
0
41
1
10
-1.7
20
-14.0041924220526
30
0
41
1
10
-1.7
20
-14.0111305156117
30
0
41
1
10
-1.7
20
-14.0144583106513
30
0
41
1
10
-1.7
20
-14.0157690319235
30
0
0
SPLINE
5
C6
100
AcDbEntity
8
SK1
62
256
6
ByLayer
370
-1
48
1
60
0
100
AcDbSpline
70
4
71
3
72
287
73
283
40
0
40
0
40
0
40
0
40
0.0011530185115635
40
0.0046414623047587
40
0.0081299060979539
40
0.0116183498911492
40
0.0151067936843444
40
0.0185952374775397
40
0.0220836812707349
40
0.0255721250639302
40
0.0290605688571254
40
0.0325490126503206
40
0.039525900236711
40
0.0465027878231015
40
0.053479675409492
40
0.0569681192026873
40
0.0604565629958825
40
0.0639450067890777
40
0.067433450582273
40
0.0744103381686634
40
0.0778987819618587
40
0.0813872257550539
40
0.0848756695482492
40
0.0883641133414444
40
0.0918525571346397
40
0.0953410009278349
40
0.102317888514225
40
0.105806332307421
40
0.109294776100616
40
0.112783219893811
40
0.116271663687006
40
0.119760107480201
40
0.123248551273397
40
0.126736995066592
40
0.130225438859787
40
0.137202326446178
40
0.140690770239373
40
0.144179214032568
40
0.151156101618959
40
0.158132989205349
40
0.161621432998544
40
0.16510987679174
40
0.168598320584935
40
0.17208676437813
40
0.175575208171325
40
0.179063651964521
40
0.180807873861118
40
0.182552095757716
40
0.186040539550911
40
0.189528983344106
40
0.193017427137301
40
0.199994314723692
40
0.203482758516887
40
0.206971202310083
40
0.210459646103278
40
0.213948089896473
40
0.217436533689668
40
0.220924977482863
40
0.224413421276059
40
0.227901865069254
40
0.231390308862449
40
0.234878752655644
40
0.241855640242035
40
0.24534408403523
40
0.248832527828425
40
0.250576749725023
40
0.25232097162162
40
0.255809415414816
40
0.262786303001206
40
0.266274746794401
40
0.269763190587597
40
0.276740078173987
40
0.283716965760378
40
0.287205409553573
40
0.290693853346768
40
0.297670740933158
40
0.301159184726354
40
0.304647628519549
40
0.308136072312744
40
0.31162451610594
40
0.315112959899135
40
0.31860140369233
40
0.325578291278721
40
0.332555178865111
40
0.336043622658306
40
0.339532066451501
40
0.343020510244697
40
0.346508954037892
40
0.353485841624282
40
0.360462729210673
40
0.367439616797063
40
0.374416504383454
40
0.377904948176649
40
0.381393391969844
40
0.384881835763039
40
0.388370279556235
40
0.39185872334943
40
0.395347167142625
40
0.39883561093582
40
0.402324054729016
40
0.405812498522211
40
0.409300942315406
40
0.412789386108601
40
0.416277829901797
40
0.419766273694992
40
0.423254717488187
40
0.426743161281382
40
0.430231605074577
40
0.433720048867773
40
0.437208492660968
40
0.440696936454163
40
0.444185380247358
40
0.447673824040554
40
0.449418045937151
40
0.451162267833749
40
0.454650711626944
40
0.456394933523542
40
0.458139155420139
40
0.459883377316737
40
0.461627599213335
40
0.463371821109932
40
0.46511604300653
40
0.466860264903127
40
0.468604486799725
40
0.47209293059292
40
0.473837152489518
40
0.475581374386116
40
0.477325596282713
40
0.479069818179311
40
0.480814040075909
40
0.482558261972506
40
0.484302483869104
40
0.486046705765701
40
0.487790927662299
40
0.489535149558896
40
0.491279371455494
40
0.493023593352092
40
0.49476781524869
40
0.496512037145287
40
0.498256259041885
40
0.500000480938482
40
0.50174470283508
40
0.503488924731677
40
0.505233146628275
40
0.506977368524873
40
0.50872159042147
40
0.510465812318068
40
0.512210034214666
40
0.513954256111263
40
0.515698478007861
40
0.517442699904458
40
0.519186921801056
40
0.520931143697654
40
0.522675365594251
40
0.524419587490849
40
0.526163809387447
40
0.527908031284044
40
0.531396475077239
40
0.533140696973837
40
0.534884918870435
40
0.536629140767032
40
0.53837336266363
40
0.540117584560227
40
0.541861806456825
40
0.543606028353423
40
0.54535025025002
40
0.548838694043216
40
0.550582915939813
40
0.552327137836411
40
0.555815581629606
40
0.559304025422801
40
0.562792469215996
40
0.566280913009192
40
0.569769356802387
40
0.573257800595582
40
0.576746244388777
40
0.580234688181973
40
0.583723131975168
40
0.587211575768363
40
0.590700019561558
40
0.594188463354754
40
0.597676907147949
40
0.601165350941144
40
0.604653794734339
40
0.608142238527534
40
0.61163068232073
40
0.615119126113925
40
0.61860756990712
40
0.622096013700315
40
0.625584457493511
40
0.632561345079901
40
0.639538232666292
40
0.646515120252682
40
0.653492007839073
40
0.656980451632268
40
0.660468895425463
40
0.663957339218658
40
0.667445783011854
40
0.674422670598244
40
0.681399558184634
40
0.68488800197783
40
0.688376445771025
40
0.69186488956422
40
0.695353333357415
40
0.69884177715061
40
0.702330220943806
40
0.709307108530196
40
0.712795552323392
40
0.716283996116587
40
0.723260883702977
40
0.730237771289368
40
0.733726215082563
40
0.737214658875758
40
0.744191546462149
40
0.747679990255344
40
0.749424212151941
40
0.751168434048539
40
0.754656877841735
40
0.75814532163493
40
0.76512220922132
40
0.768610653014515
40
0.772099096807711
40
0.775587540600906
40
0.779075984394101
40
0.782564428187296
40
0.786052871980491
40
0.789541315773687
40
0.793029759566882
40
0.796518203360077
40
0.800006647153272
40
0.806983534739663
40
0.810471978532858
40
0.813960422326053
40
0.817448866119249
40
0.819193088015846
40
0.820937309912444
40
0.824425753705639
40
0.827914197498834
40
0.83140264129203
40
0.834891085085225
40
0.83837952887842
40
0.841867972671615
40
0.848844860258006
40
0.855821747844396
40
0.859310191637591
40
0.862798635430787
40
0.869775523017177
40
0.873263966810372
40
0.876752410603568
40
0.880240854396763
40
0.883729298189958
40
0.887217741983153
40
0.890706185776349
40
0.894194629569544
40
0.897683073362739
40
0.90465996094913
40
0.908148404742325
40
0.91163684853552
40
0.915125292328715
40
0.918613736121911
40
0.922102179915106
40
0.925590623708301
40
0.932567511294692
40
0.936055955087887
40
0.939544398881082
40
0.943032842674277
40
0.946521286467472
40
0.953498174053863
40
0.956986617847058
40
0.960475061640253
40
0.963963505433449
40
0.967451949226644
40
0.970940393019839
40
0.974428836813034
40
0.97791728060623
40
0.981405724399425
40
0.98489416819262
40
0.988382611985815
40
0.99187105577901
40
0.995359499572206
40
0.998847943365401
40
1
40
1
40
1
40
1
41
1
10
-22.5
20
13.4956358886652
30
0
41
1
10
-22.5
20
13.4959444123315
30
0
41
1
10
-22.5
20
13.4970336946891
30
0
41
1
10
-22.5
20
13.4978716184631
30
0
41
1
10
-22.5
20
13.4969161903089
30
0
41
1
10
-22.5
20
13.4939625245411
30
0
41
1
10
-22.5
20
13.4890441905268
30
0
41
1
10
-22.5
20
13.4821928739338
30
0
41
1
10
-22.5
20
13.4734382711797
30
0
41
1
10
-22.5
20
13.4628104278487
30
0
41
1
10
-22.5
20
13.4503375493538
30
0
41
1
10
-22.5
20
13.4312436783152
30
0
41
1
10
-22.5
20
13.402990048048
30
0
41
1
10
-22.5
20
13.3620642251226
30
0
41
1
10
-22.5
20
13.3223661774289
30
0
41
1
10
-22.5
20
13.2871835761246
30
0
41
1
10
-22.5
20
13.2592104836088
30
0
41
1
10
-22.5
20
13.2296213566399
30
0
41
1
10
-22.5
20
13.1879639126742
30
0
41
1
10
-22.5
20
13.1433841284413
30
0
41
1
10
-22.5
20
13.0954724183383
30
0
41
1
10
-22.5
20
13.0580720783436
30
0
41
1
10
-22.5
20
13.0191589474766
30
0
41
1
10
-22.5
20
12.9787481075024
30
0
41
1
10
-22.5
20
12.9368537004399
30
0
41
1
10
-22.5
20
12.8789379874313
30
0
41
1
10
-22.5
20
12.8184132188765
30
0
41
1
10
-22.5
20
12.7547247883428
30
0
41
1
10
-22.5
20
12.7056201369325
30
0
41
1
10
-22.5
20
12.6551113810006
30
0
41
1
10
-22.5
20
12.6032111684974
30
0
41
1
10
-22.5
20
12.5499297998313
30
0
41
1
10
-22.5
20
12.4952790326449
30
0
41
1
10
-22.5
20
12.4392702770472
30
0
41
1
10
-22.5
20
12.3626709718699
30
0
41
1
10
-22.5
20
12.2837700633604
30
0
41
1
10
-22.5
20
12.2018541666219
30
0
41
1
10
-22.5
20
12.1181901660327
30
0
41
1
10
-22.5
20
12.0106580823312
30
0
41
1
10
-22.5
20
11.8988607853737
30
0
41
1
10
-22.5
20
11.8066390784571
30
0
41
1
10
-22.5
20
11.7363216027856
30
0
41
1
10
-22.5
20
11.6647550005754
30
0
41
1
10
-22.5
20
11.59194615036
30
0
41
1
10
-22.5
20
11.5179033392113
30
0
41
1
10
-22.5
20
11.4552554262223
30
0
41
1
10
-22.5
20
11.4043880916922
30
0
41
1
10
-22.5
20
11.3531143221947
30
0
41
1
10
-22.5
20
11.2884404549429
30
0
41
1
10
-22.5
20
11.2095312020912
30
0
41
1
10
-22.5
20
11.1025558247745
30
0
41
1
10
-22.5
20
10.9936883814227
30
0
41
1
10
-22.5
20
10.881957392112
30
0
41
1
10
-22.5
20
10.7971107518715
30
0
41
1
10
-22.5
20
10.7110949831286
30
0
41
1
10
-22.5
20
10.6239149454148
30
0
41
1
10
-22.5
20
10.5355769819029
30
0
41
1
10
-22.5
20
10.4460865275718
30
0
41
1
10
-22.5
20
10.3554481215356
30
0
41
1
10
-22.5
20
10.2636670923514
30
0
41
1
10
-22.5
20
10.1707494549495
30
0
41
1
10
-22.5
20
10.0451570413025
30
0
41
1
10
-22.5
20
9.9178935930201
30
0
41
1
10
-22.5
20
9.78780083934149
30
0
41
1
10
-22.5
20
9.70579078784203
30
0
41
1
10
-22.5
20
9.63944489130404
30
0
41
1
10
-22.5
20
9.57273011219269
30
0
41
1
10
-22.5
20
9.45508832781687
30
0
41
1
10
-22.5
20
9.31898450356377
30
0
41
1
10
-22.5
20
9.18004983919923
30
0
41
1
10
-22.5
20
9.03966368952015
30
0
41
1
10
-22.5
20
8.86197296792949
30
0
41
1
10
-22.5
20
8.68069429175796
30
0
41
1
10
-22.5
20
8.53310893756458
30
0
41
1
10
-22.5
20
8.38410353449396
30
0
41
1
10
-22.5
20
8.23370690743869
30
0
41
1
10
-22.5
20
8.08045168982594
30
0
41
1
10
-22.5
20
7.96465014223952
30
0
41
1
10
-22.5
20
7.84779993569691
30
0
41
1
10
-22.5
20
7.72990617143802
30
0
41
1
10
-22.5
20
7.61097083499584
30
0
41
1
10
-22.5
20
7.45073654157579
30
0
41
1
10
-22.5
20
7.24848505186407
30
0
41
1
10
-22.5
20
7.04280518235291
30
0
41
1
10
-22.5
20
6.87569112826711
30
0
41
1
10
-22.5
20
6.74956632065386
30
0
41
1
10
-22.5
20
6.62242827644155
30
0
41
1
10
-22.5
20
6.4512555331213
30
0
41
1
10
-22.5
20
6.23550102644131
30
0
41
1
10
-22.5
20
5.97220551217549
30
0
41
1
10
-22.5
20
5.70495651005669
30
0
41
1
10
-22.5
20
5.47933703035866
30
0
41
1
10
-22.5
20
5.29623480232564
30
0
41
1
10
-22.5
20
5.15823567759486
30
0
41
1
10
-22.5
20
5.01927995326392
30
0
41
1
10
-22.5
20
4.87937450907222
30
0
41
1
10
-22.5
20
4.73852599905979
30
0
41
1
10
-22.5
20
4.59674211262629
30
0
41
1
10
-22.5
20
4.45403157575558
30
0
41
1
10
-22.5
20
4.31040309161111
30
0
41
1
10
-22.5
20
4.16586580001649
30
0
41
1
10
-22.5
20
4.02043049501106
30
0
41
1
10
-22.5
20
3.87410976932693
30
0
41
1
10
-22.5
20
3.72691565105669
30
0
41
1
10
-22.5
20
3.57886126909131
30
0
41
1
10
-22.5
20
3.4299627769704
30
0
41
1
10
-22.5
20
3.28023687778401
30
0
41
1
10
-22.5
20
3.12970257053468
30
0
41
1
10
-22.5
20
2.97838003358396
30
0
41
1
10
-22.5
20
2.8262921676581
30
0
41
1
10
-22.5
20
2.67346525953189
30
0
41
1
10
-22.5
20
2.51992549648591
30
0
41
1
10
-22.5
20
2.39172828921559
30
0
41
1
10
-22.5
20
2.2882368400623
30
0
41
1
10
-22.5
20
2.18454587114542
30
0
41
1
10
-22.5
20
2.08161602870015
30
0
41
1
10
-22.5
20
1.97729727415896
30
0
41
1
10
-22.5
20
1.89920682890118
30
0
41
1
10
-22.5
20
1.82098464012651
30
0
41
1
10
-22.5
20
1.74263823347056
30
0
41
1
10
-22.5
20
1.66417084854152
30
0
41
1
10
-22.5
20
1.58559123041411
30
0
41
1
10
-22.5
20
1.50690426712365
30
0
41
1
10
-22.5
20
1.40144074045128
30
0
41
1
10
-22.5
20
1.29707563275716
30
0
41
1
10
-22.5
20
1.1912185842138
30
0
41
1
10
-22.5
20
1.11209553564783
30
0
41
1
10
-22.5
20
1.03290644237791
30
0
41
1
10
-22.5
20
0.95365606681014
30
0
41
1
10
-22.5
20
0.874352168955852
30
0
41
1
10
-22.5
20
0.795000198505278
30
0
41
1
10
-22.5
20
0.71560660892132
30
0
41
1
10
-22.5
20
0.63617666680787
30
0
41
1
10
-22.5
20
0.556715993884097
30
0
41
1
10
-22.5
20
0.477229338262958
30
0
41
1
10
-22.5
20
0.397721593521055
30
0
41
1
10
-22.5
20
0.318196568076161
30
0
41
1
10
-22.5
20
0.238658582119825
30
0
41
1
10
-22.5
20
0.159110826532412
30
0
41
1
10
-22.5
20
0.0795570008675952
30
0
41
1
10
-22.5
20
-4.3520458E-09
30
0
41
1
10
-22.5
20
-0.0795570195282949
30
0
41
1
10
-22.5
20
-0.159110863620981
30
0
41
1
10
-22.5
20
-0.238658616598514
30
0
41
1
10
-22.5
20
-0.318196574925025
30
0
41
1
10
-22.5
20
-0.397721596430074
30
0
41
1
10
-22.5
20
-0.477229377934975
30
0
41
1
10
-22.5
20
-0.556716044364009
30
0
41
1
10
-22.5
20
-0.63617667254502
30
0
41
1
10
-22.5
20
-0.715606595157226
30
0
41
1
10
-22.5
20
-0.795000235128668
30
0
41
1
10
-22.5
20
-0.874352236673616
30
0
41
1
10
-22.5
20
-0.953656082911976
30
0
41
1
10
-22.5
20
-1.03290641330761
30
0
41
1
10
-22.5
20
-1.11209555133374
30
0
41
1
10
-22.5
20
-1.19121866112906
30
0
41
1
10
-22.5
20
-1.29707565327635
30
0
41
1
10
-22.5
20
-1.40144071039387
30
0
41
1
10
-22.5
20
-1.50690430877853
30
0
41
1
10
-22.5
20
-1.58559131690836
30
0
41
1
10
-22.5
20
-1.66417088377818
30
0
41
1
10
-22.5
20
-1.74263820265685
30
0
41
1
10
-22.5
20
-1.82098461234611
30
0
41
1
10
-22.5
20
-1.89920687090043
30
0
41
1
10
-22.5
20
-1.97729736527978
30
0
41
1
10
-22.5
20
-2.08161605220536
30
0
41
1
10
-22.5
20
-2.18454583019772
30
0
41
1
10
-22.5
20
-2.28823685042076
30
0
41
1
10
-22.5
20
-2.39172837491469
30
0
41
1
10
-22.5
20
-2.51992552331163
30
0
41
1
10
-22.5
20
-2.67346522993279
30
0
41
1
10
-22.5
20
-2.82629223006825
30
0
41
1
10
-22.5
20
-2.9783800820847
30
0
41
1
10
-22.5
20
-3.12970236953149
30
0
41
1
10
-22.5
20
-3.2802363758513
30
0
41
1
10
-22.5
20
-3.42996282061054
30
0
41
1
10
-22.5
20
-3.57886234252629
30
0
41
1
10
-22.5
20
-3.72691655621918
30
0
41
1
10
-22.5
20
-3.87410940415094
30
0
41
1
10
-22.5
20
-4.02042950258553
30
0
41
1
10
-22.5
20
-4.1658649918152
30
0
41
1
10
-22.5
20
-4.31040320562681
30
0
41
1
10
-22.5
20
-4.45403251641869
30
0
41
1
10
-22.5
20
-4.59674271442694
30
0
41
1
10
-22.5
20
-4.73852585442467
30
0
41
1
10
-22.5
20
-4.87937424460151
30
0
41
1
10
-22.5
20
-5.01927991936705
30
0
41
1
10
-22.5
20
-5.15823571506778
30
0
41
1
10
-22.5
20
-5.29623478947158
30
0
41
1
10
-22.5
20
-5.47933703089231
30
0
41
1
10
-22.5
20
-5.70495655337433
30
0
41
1
10
-22.5
20
-5.97220551419213
30
0
41
1
10
-22.5
20
-6.23550104742759
30
0
41
1
10
-22.5
20
-6.451255571394
30
0
41
1
10
-22.5
20
-6.6224282598192
30
0
41
1
10
-22.5
20
-6.74956631857708
30
0
41
1
10
-22.5
20
-6.87569116366484
30
0
41
1
10
-22.5
20
-7.04280522024894
30
0
41
1
10
-22.5
20
-7.24848505302427
30
0
41
1
10
-22.5
20
-7.4507365478344
30
0
41
1
10
-22.5
20
-7.6109708771202
30
0
41
1
10
-22.5
20
-7.72990620240671
30
0
41
1
10
-22.5
20
-7.84779994085653
30
0
41
1
10
-22.5
20
-7.96465013686171
30
0
41
1
10
-22.5
20
-8.08045169790759
30
0
41
1
10
-22.5
20
-8.23370694014301
30
0
41
1
10
-22.5
20
-8.38410356414289
30
0
41
1
10
-22.5
20
-8.53310893988203
30
0
41
1
10
-22.5
20
-8.68069429599308
30
0
41
1
10
-22.5
20
-8.8619729936481
30
0
41
1
10
-22.5
20
-9.0396637144479
30
0
41
1
10
-22.5
20
-9.18004984465043
30
0
41
1
10
-22.5
20
-9.31898451102214
30
0
41
1
10
-22.5
20
-9.45508835059124
30
0
41
1
10
-22.5
20
-9.57273013875857
30
0
41
1
10
-22.5
20
-9.63944491324963
30
0
41
1
10
-22.5
20
-9.70579080403837
30
0
41
1
10
-22.5
20
-9.7878008492857
30
0
41
1
10
-22.5
20
-9.91789360326428
30
0
41
1
10
-22.5
20
-10.0451570606616
30
0
41
1
10
-22.5
20
-10.1707494782419
30
0
41
1
10
-22.5
20
-10.2636671117607
30
0
41
1
10
-22.5
20
-10.3554481360506
30
0
41
1
10
-22.5
20
-10.4460865401309
30
0
41
1
10
-22.5
20
-10.5355769962349
30
0
41
1
10
-22.5
20
-10.6239149629423
30
0
41
1
10
-22.5
20
-10.7110950034658
30
0
41
1
10
-22.5
20
-10.7971107724731
30
0
41
1
10
-22.5
20
-10.881957410682
30
0
41
1
10
-22.5
20
-10.9936883968037
30
0
41
1
10
-22.5
20
-11.1025558384385
30
0
41
1
10
-22.5
20
-11.2095312195267
30
0
41
1
10
-22.5
20
-11.2884404756242
30
0
41
1
10
-22.5
20
-11.3531143441571
30
0
41
1
10
-22.5
20
-11.4043881128182
30
0
41
1
10
-22.5
20
-11.4552554448703
30
0
41
1
10
-22.5
20
-11.5179033535968
30
0
41
1
10
-22.5
20
-11.5919461625789
30
0
41
1
10
-22.5
20
-11.664755015164
30
0
41
1
10
-22.5
20
-11.7363216229303
30
0
41
1
10
-22.5
20
-11.8066391033683
30
0
41
1
10
-22.5
20
-11.8988608066557
30
0
41
1
10
-22.5
20
-12.0106580919609
30
0
41
1
10
-22.5
20
-12.1181901818312
30
0
41
1
10
-22.5
20
-12.2018541939414
30
0
41
1
10
-22.5
20
-12.2837700876339
30
0
41
1
10
-22.5
20
-12.3626709807027
30
0
41
1
10
-22.5
20
-12.4392702870471
30
0
41
1
10
-22.5
20
-12.4952790541085
30
0
41
1
10
-22.5
20
-12.5499298292215
30
0
41
1
10
-22.5
20
-12.6032111946844
30
0
41
1
10
-22.5
20
-12.6551113940766
30
0
41
1
10
-22.5
20
-12.7056201424592
30
0
41
1
10
-22.5
20
-12.7547247990428
30
0
41
1
10
-22.5
20
-12.8184132466048
30
0
41
1
10
-22.5
20
-12.8789380178894
30
0
41
1
10
-22.5
20
-12.9368537080862
30
0
41
1
10
-22.5
20
-12.9787481114295
30
0
41
1
10
-22.5
20
-13.0191589652135
30
0
41
1
10
-22.5
20
-13.0580721081213
30
0
41
1
10
-22.5
20
-13.0954724456838
30
0
41
1
10
-22.5
20
-13.143384141029
30
0
41
1
10
-22.5
20
-13.1879639125281
30
0
41
1
10
-22.5
20
-13.2296213845592
30
0
41
1
10
-22.5
20
-13.2592105165633
30
0
41
1
10
-22.5
20
-13.2871835921006
30
0
41
1
10
-22.5
20
-13.3223661764574
30
0
41
1
10
-22.5
20
-13.3540536969874
30
0
41
1
10
-22.5
20
-13.3825245595672
30
0
41
1
10
-22.5
20
-13.4021158939438
30
0
41
1
10
-22.5
20
-13.4199649415155
30
0
41
1
10
-22.5
20
-13.4360470510206
30
0
41
1
10
-22.5
20
-13.4503375548199
30
0
41
1
10
-22.5
20
-13.4628103286331
30
0
41
1
10
-22.5
20
-13.4734380181859
30
0
41
1
10
-22.5
20
-13.4821927509398
30
0
41
1
10
-22.5
20
-13.4890446841776
30
0
41
1
10
-22.5
20
-13.4939634903146
30
0
41
1
10
-22.5
20
-13.4969168014739
30
0
41
1
10
-22.5
20
-13.4978715423881
30
0
41
1
10
-22.5
20
-13.497033465519
30
0
41
1
10
-22.5
20
-13.4959444886921
30
0
41
1
10
-22.5
20
-13.4956362789697
30
0
0
SPLINE
5
C7
100
AcDbEntity
8
SK1
62
256
6
ByLayer
370
-1
48
1
60
0
100
AcDbSpline
70
4
71
3
72
119
73
115
40
0
40
0
40
0
40
0
40
0.0017654123448431
40
0.009687035249303
40
0.0176086581537629
40
0.0255302810582228
40
0.0334519039626826
40
0.0413735268671425
40
0.0492951497716024
40
0.0572167726760623
40
0.0651383955805221
40
0.073060018484982
40
0.0809816413894419
40
0.0889032642939018
40
0.0968248871983616
40
0.104746510102822
40
0.112668133007281
40
0.120589755911741
40
0.128511378816201
40
0.136433001720661
40
0.144354624625121
40
0.152276247529581
40
0.160197870434041
40
0.17604111624296
40
0.19188436205188
40
0.2077276078608
40
0.22357085366972
40
0.23149247657418
40
0.239414099478639
40
0.247335722383099
40
0.255257345287559
40
0.271100591096479
40
0.286943836905399
40
0.294865459809859
40
0.302787082714318
40
0.310708705618778
40
0.318630328523238
40
0.326551951427698
40
0.334473574332158
40
0.350316820141078
40
0.358238443045538
40
0.366160065949997
40
0.382003311758917
40
0.397846557567837
40
0.405768180472297
40
0.413689803376757
40
0.429533049185676
40
0.437454672090136
40
0.441415483542366
40
0.445376294994596
40
0.453297917899056
40
0.461219540803516
40
0.477062786612436
40
0.484984409516896
40
0.492906032421356
40
0.500827655325815
40
0.508749278230275
40
0.516670901134735
40
0.524592524039195
40
0.532514146943655
40
0.540435769848115
40
0.548357392752574
40
0.556279015657034
40
0.572122261465954
40
0.580043884370414
40
0.587965507274874
40
0.595887130179334
40
0.599847941631564
40
0.603808753083794
40
0.611730375988254
40
0.619651998892714
40
0.627573621797173
40
0.635495244701633
40
0.643416867606093
40
0.651338490510553
40
0.667181736319473
40
0.683024982128392
40
0.690946605032852
40
0.698868227937312
40
0.714711473746232
40
0.722633096650692
40
0.730554719555152
40
0.738476342459612
40
0.746397965364071
40
0.754319588268531
40
0.762241211172991
40
0.770162834077451
40
0.778084456981911
40
0.793927702790831
40
0.801849325695291
40
0.809770948599751
40
0.81769257150421
40
0.82561419440867
40
0.83353581731313
40
0.84145744021759
40
0.85730068602651
40
0.86522230893097
40
0.873143931835429
40
0.881065554739889
40
0.888987177644349
40
0.904830423453269
40
0.912752046357729
40
0.920673669262189
40
0.928595292166649
40
0.936516915071108
40
0.944438537975568
40
0.952360160880028
40
0.960281783784488
40
0.968203406688948
40
0.976125029593408
40
0.984046652497868
40
0.991968275402328
40
0.999889898306787
40
1
40
1
40
1
40
1
41
1
10
-1.4950399779393
20
-2.59465115086957
30
0
41
1
10
-1.4950399779393
20
-2.606473243442
30
0
41
1
10
-1.4950399779393
20
-2.67130382016646
30
0
41
1
10
-1.4950399779393
20
-2.78881794693001
30
0
41
1
10
-1.4950399779393
20
-2.94652921585708
30
0
41
1
10
-1.4950399779393
20
-3.10333581737226
30
0
41
1
10
-1.4950399779393
20
-3.25922160409144
30
0
41
1
10
-1.4950399779393
20
-3.4141725129254
30
0
41
1
10
-1.4950399779393
20
-3.56817684914566
30
0
41
1
10
-1.4950399779393
20
-3.72122348266291
30
0
41
1
10
-1.4950399779393
20
-3.87330241838259
30
0
41
1
10
-1.4950399779393
20
-4.02440435063471
30
0
41
1
10
-1.4950399779393
20
-4.17452257114442
30
0
41
1
10
-1.4950399779393
20
-4.32365075555242
30
0
41
1
10
-1.4950399779393
20
-4.47178250674139
30
0
41
1
10
-1.4950399779393
20
-4.61891187892093
30
0
41
1
10
-1.4950399779393
20
-4.7650335666859
30
0
41
1
10
-1.4950399779393
20
-4.91014320448997
30
0
41
1
10
-1.4950399779393
20
-5.05423700692032
30
0
41
1
10
-1.4950399779393
20
-5.19731095699922
30
0
41
1
10
-1.4950399779393
20
-5.33936160781602
30
0
41
1
10
-1.4950399779393
20
-5.48038543010182
30
0
41
1
10
-1.4950399779393
20
-5.66717892451575
30
0
41
1
10
-1.4950399779393
20
-5.89779786635279
30
0
41
1
10
-1.4950399779393
20
-6.17053537924178
30
0
41
1
10
-1.4950399779393
20
-6.43910150489376
30
0
41
1
10
-1.4950399779393
20
-6.65929861735816
30
0
41
1
10
-1.4950399779393
20
-6.83355374310952
30
0
41
1
10
-1.4950399779393
20
-6.96311018885424
30
0
41
1
10
-1.4950399779393
20
-7.09160988853208
30
0
41
1
10
-1.4950399779393
20
-7.26163684175143
30
0
41
1
10
-1.4950399779393
20
-7.47128768043942
30
0
41
1
10
-1.4950399779393
20
-7.67738590051292
30
0
41
1
10
-1.4950399779393
20
-7.84029855153605
30
0
41
1
10
-1.4950399779393
20
-7.96134018717205
30
0
41
1
10
-1.4950399779393
20
-8.08130644558901
30
0
41
1
10
-1.4950399779393
20
-8.2001957134178
30
0
41
1
10
-1.4950399779393
20
-8.31800484031689
30
0
41
1
10
-1.4950399779393
20
-8.47372856948019
30
0
41
1
10
-1.4950399779393
20
-8.62702161678089
30
0
41
1
10
-1.4950399779393
20
-8.7783873974316
30
0
41
1
10
-1.4950399779393
20
-8.92829538452324
30
0
41
1
10
-1.4950399779393
20
-9.11275364912453
30
0
41
1
10
-1.4950399779393
20
-9.2935360539519
30
0
41
1
10
-1.4950399779393
20
-9.43608247629777
30
0
41
1
10
-1.4950399779393
20
-9.57714512355727
30
0
41
1
10
-1.4950399779393
20
-9.71574945872365
30
0
41
1
10
-1.4950399779393
20
-9.835227886979
30
0
41
1
10
-1.4950399779393
20
-9.90295237623948
30
0
41
1
10
-1.4950399779393
20
-9.97030028641953
30
0
41
1
10
-1.4950399779393
20
-10.0536983203575
30
0
41
1
10
-1.4950399779393
20
-10.1857467801784
30
0
41
1
10
-1.4950399779393
20
-10.3153089526253
30
0
41
1
10
-1.4950399779393
20
-10.4427777956644
30
0
41
1
10
-1.4950399779393
20
-10.537175897834
30
0
41
1
10
-1.4950399779393
20
-10.630416702033
30
0
41
1
10
-1.4950399779393
20
-10.7224950525573
30
0
41
1
10
-1.4950399779393
20
-10.8134058114344
30
0
41
1
10
-1.4950399779393
20
-10.9031442186804
30
0
41
1
10
-1.4950399779393
20
-10.9917054227684
30
0
41
1
10
-1.4950399779393
20
-11.0790834618892
30
0
41
1
10
-1.4950399779393
20
-11.165273297363
30
0
41
1
10
-1.4950399779393
20
-11.2786601205037
30
0
41
1
10
-1.4950399779393
20
-11.3894729046301
30
0
41
1
10
-1.4950399779393
20
-11.4980349156059
30
0
41
1
10
-1.4950399779393
20
-11.5781957427673
30
0
41
1
10
-1.4950399779393
20
-11.6439487843731
30
0
41
1
10
-1.4950399779393
20
-11.6959849306732
30
0
41
1
10
-1.4950399779393
20
-11.747609354201
30
0
41
1
10
-1.4950399779393
20
-11.8113057197552
30
0
41
1
10
-1.4950399779393
20
-11.886528664654
30
0
41
1
10
-1.4950399779393
20
-11.960500101414
30
0
41
1
10
-1.4950399779393
20
-12.0332119519516
30
0
41
1
10
-1.4950399779393
20
-12.1046570427268
30
0
41
1
10
-1.4950399779393
20
-12.1982669205398
30
0
41
1
10
-1.4950399779393
20
-12.3119621581916
30
0
41
1
10
-1.4950399779393
20
-12.4213295969168
30
0
41
1
10
-1.4950399779393
20
-12.5062717787185
30
0
41
1
10
-1.4950399779393
20
-12.5894449263383
30
0
41
1
10
-1.4950399779393
20
-12.6698142967672
30
0
41
1
10
-1.4950399779393
20
-12.7476032540011
30
0
41
1
10
-1.4950399779393
20
-12.8045464232669
30
0
41
1
10
-1.4950399779393
20
-12.8601132308426
30
0
41
1
10
-1.4950399779393
20
-12.9142926213842
30
0
41
1
10
-1.4950399779393
20
-12.9670724454163
30
0
41
1
10
-1.4950399779393
20
-13.0184419731185
30
0
41
1
10
-1.4950399779393
20
-13.0683888234861
30
0
41
1
10
-1.4950399779393
20
-13.133106637017
30
0
41
1
10
-1.4950399779393
20
-13.1948224412614
30
0
41
1
10
-1.4950399779393
20
-13.2536925631392
30
0
41
1
10
-1.4950399779393
20
-13.296330722945
30
0
41
1
10
-1.4950399779393
20
-13.3374647797226
30
0
41
1
10
-1.4950399779393
20
-13.3770799229021
30
0
41
1
10
-1.4950399779393
20
-13.4151607649325
30
0
41
1
10
-1.4950399779393
20
-13.4638962511352
30
0
41
1
10
-1.4950399779393
20
-13.5094130161235
30
0
41
1
10
-1.4950399779393
20
-13.551806168738
30
0
41
1
10
-1.4950399779393
20
-13.5819601013665
30
0
41
1
10
-1.4950399779393
20
-13.6104729213425
30
0
41
1
10
-1.4950399779393
20
-13.646298505966
30
0
41
1
10
-1.4950399779393
20
-13.6786965897716
30
0
41
1
10
-1.4950399779393
20
-13.7077055842542
30
0
41
1
10
-1.4950399779393
20
-13.7276983600542
30
0
41
1
10
-1.4950399779393
20
-13.7459180935577
30
0
41
1
10
-1.4950399779393
20
-13.7623389110759
30
0
41
1
10
-1.4950399779393
20
-13.7769347594832
30
0
41
1
10
-1.4950399779393
20
-13.7896781016746
30
0
41
1
10
-1.4950399779393
20
-13.800539960484
30
0
41
1
10
-1.4950399779393
20
-13.8094907530557
30
0
41
1
10
-1.4950399779393
20
-13.8164987457743
30
0
41
1
10
-1.4950399779393
20
-13.821531562835
30
0
41
1
10
-1.4950399779393
20
-13.8245545856003
30
0
41
1
10
-1.4950399779393
20
-13.8252109199441
30
0
41
1
10
-1.4950399779393
20
-13.8251847302582
30
0
41
1
10
-1.4950399779393
20
-13.8251837301582
30
0
0
SPLINE
5
C8
100
AcDbEntity
8
SK1
62
256
6
ByLayer
370
-1
48
1
60
0
100
AcDbSpline
70
4
71
3
72
117
73
113
40
0
40
0
40
0
40
0
40
0.0001127295314487
40
0.0080343316329193
40
0.0159559337343899
40
0.0238775358358605
40
0.0317991379373311
40
0.0397207400388017
40
0.0476423421402724
40
0.055563944241743
40
0.0634855463432136
40
0.0793287505461548
40
0.0951719547490961
40
0.111015158952037
40
0.118936761053508
40
0.126858363154979
40
0.134779965256449
40
0.14270156735792
40
0.158544771560861
40
0.166466373662332
40
0.174387975763802
40
0.182309577865273
40
0.190231179966743
40
0.198152782068214
40
0.206074384169685
40
0.221917588372626
40
0.229839190474097
40
0.237760792575567
40
0.245682394677038
40
0.253603996778508
40
0.261525598879979
40
0.26944720098145
40
0.27736880308292
40
0.285290405184391
40
0.301133609387332
40
0.309055211488803
40
0.316976813590273
40
0.332820017793215
40
0.348663221996156
40
0.356584824097626
40
0.364506426199097
40
0.372428028300568
40
0.380349630402038
40
0.388271232503509
40
0.39619283460498
40
0.400153635655715
40
0.40411443670645
40
0.412036038807921
40
0.419957640909391
40
0.427879243010862
40
0.443722447213803
40
0.451644049315274
40
0.459565651416744
40
0.467487253518215
40
0.475408855619686
40
0.483330457721156
40
0.491252059822627
40
0.499173661924098
40
0.507095264025568
40
0.515016866127039
40
0.522938468228509
40
0.538781672431451
40
0.546703274532921
40
0.554624876634392
40
0.558585677685127
40
0.562546478735863
40
0.570468080837333
40
0.586311285040274
40
0.594232887141745
40
0.602154489243216
40
0.617997693446157
40
0.633840897649098
40
0.641762499750569
40
0.649684101852039
40
0.665527306054981
40
0.673448908156451
40
0.681370510257922
40
0.689292112359392
40
0.697213714460863
40
0.705135316562334
40
0.713056918663804
40
0.728900122866745
40
0.744743327069687
40
0.752664929171157
40
0.760586531272628
40
0.768508133374098
40
0.776429735475569
40
0.79227293967851
40
0.808116143881452
40
0.823959348084393
40
0.839802552287334
40
0.847724154388805
40
0.855645756490275
40
0.863567358591746
40
0.871488960693216
40
0.879410562794687
40
0.887332164896158
40
0.895253766997628
40
0.903175369099099
40
0.91109697120057
40
0.91901857330204
40
0.926940175403511
40
0.934861777504981
40
0.942783379606452
40
0.950704981707923
40
0.958626583809393
40
0.966548185910864
40
0.974469788012334
40
0.982391390113805
40
0.990312992215276
40
0.998234594316746
40
1
40
1
40
1
40
1
41
1
10
-1.4950399779393
20
13.8251837281678
30
0
41
1
10
-1.4950399779393
20
13.8251847282678
30
0
41
1
10
-1.4950399779393
20
13.825210875498
30
0
41
1
10
-1.4950399779393
20
13.8245539604948
30
0
41
1
10
-1.4950399779393
20
13.8215305966481
30
0
41
1
10
-1.4950399779393
20
13.8164982902869
30
0
41
1
10
-1.4950399779393
20
13.8094909095343
30
0
41
1
10
-1.4950399779393
20
13.8005402090708
30
0
41
1
10
-1.4950399779393
20
13.7896781830989
30
0
41
1
10
-1.4950399779393
20
13.7769347476405
30
0
41
1
10
-1.4950399779393
20
13.7574597557179
30
0
41
1
10
-1.4950399779393
20
13.7285859139399
30
0
41
1
10
-1.4950399779393
20
13.6868269300449
30
0
41
1
10
-1.4950399779393
20
13.6462985077496
30
0
41
1
10
-1.4950399779393
20
13.6104729008558
30
0
41
1
10
-1.4950399779393
20
13.5819600687286
30
0
41
1
10
-1.4950399779393
20
13.5518061457236
30
0
41
1
10
-1.4950399779393
20
13.509413016618
30
0
41
1
10
-1.4950399779393
20
13.4638962341071
30
0
41
1
10
-1.4950399779393
20
13.4151607370273
30
0
41
1
10
-1.4950399779393
20
13.3770798968994
30
0
41
1
10
-1.4950399779393
20
13.3374647662751
30
0
41
1
10
-1.4950399779393
20
13.2963307178616
30
0
41
1
10
-1.4950399779393
20
13.2536925499096
30
0
41
1
10
-1.4950399779393
20
13.1948224098965
30
0
41
1
10
-1.4950399779393
20
13.1331066142243
30
0
41
1
10
-1.4950399779393
20
13.0683888145289
30
0
41
1
10
-1.4950399779393
20
13.0184419638584
30
0
41
1
10
-1.4950399779393
20
12.9670724273821
30
0
41
1
10
-1.4950399779393
20
12.9142925944038
30
0
41
1
10
-1.4950399779393
20
12.860113205584
30
0
41
1
10
-1.4950399779393
20
12.8045464062654
30
0
41
1
10
-1.4950399779393
20
12.74760324418
30
0
41
1
10
-1.4950399779393
20
12.6698142834541
30
0
41
1
10
-1.4950399779393
20
12.5894449005116
30
0
41
1
10
-1.4950399779393
20
12.50627175547
30
0
41
1
10
-1.4950399779393
20
12.4213295833849
30
0
41
1
10
-1.4950399779393
20
12.3119621458456
30
0
41
1
10
-1.4950399779393
20
12.1982668977617
30
0
41
1
10
-1.4950399779393
20
12.1046570208051
30
0
41
1
10
-1.4950399779393
20
12.0332119345842
30
0
41
1
10
-1.4950399779393
20
11.9605000871413
30
0
41
1
10
-1.4950399779393
20
11.8865286504803
30
0
41
1
10
-1.4950399779393
20
11.8113057028001
30
0
41
1
10
-1.4950399779393
20
11.7476093345099
30
0
41
1
10
-1.4950399779393
20
11.6959849101866
30
0
41
1
10
-1.4950399779393
20
11.643948764099
30
0
41
1
10
-1.4950399779393
20
11.5781957241672
30
0
41
1
10
-1.4950399779393
20
11.4980348993556
30
0
41
1
10
-1.4950399779393
20
11.3894728900619
30
0
41
1
10
-1.4950399779393
20
11.278660103453
30
0
41
1
10
-1.4950399779393
20
11.1652732784127
30
0
41
1
10
-1.4950399779393
20
11.0790834423827
30
0
41
1
10
-1.4950399779393
20
10.9917054044732
30
0
41
1
10
-1.4950399779393
20
10.9031442025602
30
0
41
1
10
-1.4950399779393
20
10.8134057967923
30
0
41
1
10
-1.4950399779393
20
10.7224950378189
30
0
41
1
10
-1.4950399779393
20
10.6304166849825
30
0
41
1
10
-1.4950399779393
20
10.5371758780398
30
0
41
1
10
-1.4950399779393
20
10.4427777751693
30
0
41
1
10
-1.4950399779393
20
10.3153089364435
30
0
41
1
10
-1.4950399779393
20
10.1857467684219
30
0
41
1
10
-1.4950399779393
20
10.0536983054632
30
0
41
1
10
-1.4950399779393
20
9.97030026745779
30
0
41
1
10
-1.4950399779393
20
9.90295235506755
30
0
41
1
10
-1.4950399779393
20
9.83522786489038
30
0
41
1
10
-1.4950399779393
20
9.71574944153573
30
0
41
1
10
-1.4950399779393
20
9.57714511427093
30
0
41
1
10
-1.4950399779393
20
9.43608246295526
30
0
41
1
10
-1.4950399779393
20
9.29353602958125
30
0
41
1
10
-1.4950399779393
20
9.11275363063515
30
0
41
1
10
-1.4950399779393
20
8.92829537712967
30
0
41
1
10
-1.4950399779393
20
8.77838738443313
30
0
41
1
10
-1.4950399779393
20
8.62702158956
30
0
41
1
10
-1.4950399779393
20
8.47372854841302
30
0
41
1
10
-1.4950399779393
20
8.31800483202281
30
0
41
1
10
-1.4950399779393
20
8.20019570647173
30
0
41
1
10
-1.4950399779393
20
8.08130642958628
30
0
41
1
10
-1.4950399779393
20
7.96134016006346
30
0
41
1
10
-1.4950399779393
20
7.84029852533041
30
0
41
1
10
-1.4950399779393
20
7.67738589461936
30
0
41
1
10
-1.4950399779393
20
7.47128766686797
30
0
41
1
10
-1.4950399779393
20
7.261636811758
30
0
41
1
10
-1.4950399779393
20
7.09160986883526
30
0
41
1
10
-1.4950399779393
20
6.96311018452545
30
0
41
1
10
-1.4950399779393
20
6.83355373772449
30
0
41
1
10
-1.4950399779393
20
6.6592985841524
30
0
41
1
10
-1.4950399779393
20
6.43910149333703
30
0
41
1
10
-1.4950399779393
20
6.17053536578155
30
0
41
1
10
-1.4950399779393
20
5.89779783511918
30
0
41
1
10
-1.4950399779393
20
5.66717892097088
30
0
41
1
10
-1.4950399779393
20
5.48038541909952
30
0
41
1
10
-1.4950399779393
20
5.33936157753735
30
0
41
1
10
-1.4950399779393
20
5.19731095553271
30
0
41
1
10
-1.4950399779393
20
5.05423706888553
30
0
41
1
10
-1.4950399779393
20
4.91014315579861
30
0
41
1
10
-1.4950399779393
20
4.7650332428635
30
0
41
1
10
-1.4950399779393
20
4.61891156596767
30
0
41
1
10
-1.4950399779393
20
4.47178260268984
30
0
41
1
10
-1.4950399779393
20
4.32365113214263
30
0
41
1
10
-1.4950399779393
20
4.17452288947305
30
0
41
1
10
-1.4950399779393
20
4.02440432752809
30
0
41
1
10
-1.4950399779393
20
3.87330192992579
30
0
41
1
10
-1.4950399779393
20
3.7212231412766
30
0
41
1
10
-1.4950399779393
20
3.56817690176541
30
0
41
1
10
-1.4950399779393
20
3.41417271020586
30
0
41
1
10
-1.4950399779393
20
3.25922165821993
30
0
41
1
10
-1.4950399779393
20
3.1033357799555
30
0
41
1
10
-1.4950399779393
20
2.94652918151195
30
0
41
1
10
-1.4950399779393
20
2.78881794429316
30
0
41
1
10
-1.4950399779393
20
2.67130381064959
30
0
41
1
10
-1.4950399779393
20
2.60647323876154
30
0
41
1
10
-1.4950399779393
20
2.59465115838313
30
0
0
SPLINE
5
C9
100
AcDbEntity
8
SK1
62
256
6
ByLayer
370
-1
48
1
60
0
100
AcDbSpline
70
4
71
3
72
287
73
283
40
0
40
0
40
0
40
0
40
0.0005770540107353
40
0.0040695192342304
40
0.0075619844577255
40
0.0110544496812206
40
0.0145469149047157
40
0.0180393801282108
40
0.021531845351706
40
0.0250243105752011
40
0.0285167757986961
40
0.0320092410221912
40
0.0389941714691815
40
0.0459791019161716
40
0.0529640323631618
40
0.056456497586657
40
0.059948962810152
40
0.0634414280336472
40
0.0669338932571422
40
0.0739188237041325
40
0.0774112889276276
40
0.0809037541511226
40
0.0843962193746177
40
0.0878886845981129
40
0.091381149821608
40
0.0948736150451031
40
0.101858545492093
40
0.105351010715588
40
0.108843475939083
40
0.112335941162579
40
0.115828406386074
40
0.119320871609569
40
0.122813336833064
40
0.126305802056559
40
0.129798267280054
40
0.136783197727044
40
0.140275662950539
40
0.143768128174035
40
0.150753058621025
40
0.157737989068015
40
0.16123045429151
40
0.164722919515005
40
0.1682153847385
40
0.171707849961995
40
0.175200315185491
40
0.178692780408986
40
0.180439013020733
40
0.182185245632481
40
0.185677710855976
40
0.189170176079471
40
0.192662641302966
40
0.199647571749956
40
0.203140036973451
40
0.206632502196946
40
0.210124967420442
40
0.213617432643937
40
0.217109897867432
40
0.220602363090927
40
0.224094828314422
40
0.227587293537917
40
0.231079758761412
40
0.234572223984907
40
0.241557154431897
40
0.245049619655392
40
0.248542084878888
40
0.250288317490635
40
0.252034550102383
40
0.255527015325878
40
0.262511945772868
40
0.266004410996363
40
0.269496876219858
40
0.276481806666848
40
0.283466737113839
40
0.286959202337334
40
0.290451667560829
40
0.297436598007819
40
0.300929063231314
40
0.304421528454809
40
0.307913993678304
40
0.311406458901799
40
0.314898924125295
40
0.31839138934879
40
0.32537631979578
40
0.33236125024277
40
0.335853715466265
40
0.33934618068976
40
0.342838645913255
40
0.34633111113675
40
0.353316041583741
40
0.360300972030731
40
0.367285902477721
40
0.374270832924711
40
0.377763298148206
40
0.381255763371701
40
0.384748228595196
40
0.388240693818692
40
0.391733159042187
40
0.395225624265682
40
0.398718089489177
40
0.402210554712672
40
0.405703019936167
40
0.409195485159662
40
0.412687950383157
40
0.416180415606652
40
0.419672880830147
40
0.423165346053643
40
0.426657811277138
40
0.430150276500633
40
0.433642741724128
40
0.437135206947623
40
0.440627672171118
40
0.444120137394613
40
0.447612602618108
40
0.449358835229856
40
0.451105067841603
40
0.454597533065099
40
0.456343765676846
40
0.458089998288594
40
0.459836230900341
40
0.461582463512089
40
0.463328696123836
40
0.465074928735584
40
0.466821161347331
40
0.468567393959079
40
0.472059859182574
40
0.473806091794322
40
0.475552324406069
40
0.477298557017817
40
0.479044789629564
40
0.480791022241312
40
0.482537254853059
40
0.484283487464807
40
0.486029720076554
40
0.487775952688302
40
0.489522185300049
40
0.491268417911797
40
0.493014650523545
40
0.494760883135292
40
0.49650711574704
40
0.498253348358787
40
0.499999580970535
40
0.501745813582283
40
0.50349204619403
40
0.505238278805778
40
0.506984511417525
40
0.508730744029273
40
0.51047697664102
40
0.512223209252768
40
0.513969441864515
40
0.515715674476263
40
0.51746190708801
40
0.519208139699758
40
0.520954372311505
40
0.522700604923253
40
0.524446837535001
40
0.526193070146748
40
0.527939302758496
40
0.531431767981991
40
0.533178000593738
40
0.534924233205486
40
0.536670465817234
40
0.538416698428981
40
0.540162931040729
40
0.541909163652476
40
0.543655396264224
40
0.545401628875971
40
0.548894094099467
40
0.550640326711214
40
0.552386559322961
40
0.555879024546457
40
0.559371489769952
40
0.562863954993447
40
0.566356420216942
40
0.569848885440437
40
0.573341350663932
40
0.576833815887427
40
0.580326281110922
40
0.583818746334417
40
0.587311211557913
40
0.590803676781407
40
0.594296142004903
40
0.597788607228398
40
0.601281072451893
40
0.604773537675388
40
0.608266002898883
40
0.611758468122378
40
0.615250933345873
40
0.618743398569368
40
0.622235863792864
40
0.625728329016359
40
0.632713259463349
40
0.639698189910339
40
0.646683120357329
40
0.653668050804319
40
0.657160516027814
40
0.66065298125131
40
0.664145446474805
40
0.6676379116983
40
0.67462284214529
40
0.68160777259228
40
0.685100237815775
40
0.68859270303927
40
0.692085168262766
40
0.695577633486261
40
0.699070098709756
40
0.702562563933251
40
0.709547494380241
40
0.713039959603736
40
0.716532424827231
40
0.723517355274221
40
0.730502285721212
40
0.733994750944707
40
0.737487216168202
40
0.744472146615192
40
0.747964611838687
40
0.749710844450435
40
0.751457077062182
40
0.754949542285677
40
0.758442007509173
40
0.765426937956163
40
0.768919403179658
40
0.772411868403153
40
0.775904333626648
40
0.779396798850143
40
0.782889264073638
40
0.786381729297133
40
0.789874194520628
40
0.793366659744123
40
0.796859124967619
40
0.800351590191114
40
0.807336520638104
40
0.810828985861599
40
0.814321451085094
40
0.817813916308589
40
0.819560148920337
40
0.821306381532084
40
0.824798846755579
40
0.828291311979075
40
0.83178377720257
40
0.835276242426065
40
0.83876870764956
40
0.842261172873055
40
0.849246103320045
40
0.856231033767035
40
0.85972349899053
40
0.863215964214026
40
0.870200894661016
40
0.873693359884511
40
0.877185825108006
40
0.880678290331501
40
0.884170755554996
40
0.887663220778491
40
0.891155686001986
40
0.894648151225481
40
0.898140616448977
40
0.905125546895967
40
0.908618012119462
40
0.912110477342957
40
0.915602942566452
40
0.919095407789947
40
0.922587873013442
40
0.926080338236938
40
0.933065268683928
40
0.936557733907423
40
0.940050199130918
40
0.943542664354413
40
0.947035129577908
40
0.954020060024898
40
0.957512525248393
40
0.961004990471888
40
0.964497455695384
40
0.967989920918878
40
0.971482386142374
40
0.974974851365869
40
0.978467316589364
40
0.981959781812859
40
0.985452247036354
40
0.988944712259849
40
0.992437177483344
40
0.99592964270684
40
0.999422107930335
40
1
40
1
40
1
40
1
41
1
10
-24
20
12.6301466093715
30
0
41
1
10
-24
20
12.6302729705023
30
0
41
1
10
-24
20
12.6311019481927
30
0
41
1
10
-24
20
12.6318299492432
30
0
41
1
10
-24
20
12.6309352666138
30
0
41
1
10
-24
20
12.6281658201647
30
0
41
1
10
-24
20
12.623548726994
30
0
41
1
10
-24
20
12.6171099043118
30
0
41
1
10
-24
20
12.6088736083307
30
0
41
1
10
-24
20
12.5988647342338
30
0
41
1
10
-24
20
12.5871069661155
30
0
41
1
10
-24
20
12.569020437469
30
0
41
1
10
-24
20
12.5424060911485
30
0
41
1
10
-24
20
12.5036823998811
30
0
41
1
10
-24
20
12.466179119183
30
0
41
1
10
-24
20
12.4326960489613
30
0
41
1
10
-24
20
12.4061495447384
30
0
41
1
10
-24
20
12.3780532328159
30
0
41
1
10
-24
20
12.3383402816863
30
0
41
1
10
-24
20
12.2962370819873
30
0
41
1
10
-24
20
12.2505027270978
30
0
41
1
10
-24
20
12.2149010201899
30
0
41
1
10
-24
20
12.1778433481664
30
0
41
1
10
-24
20
12.139344023803
30
0
41
1
10
-24
20
12.0994154546281
30
0
41
1
10
-24
20
12.0440223921018
30
0
41
1
10
-24
20
11.9866456328948
30
0
41
1
10
-24
20
11.9256779328098
30
0
41
1
10
-24
20
11.8787993022056
30
0
41
1
10
-24
20
11.8305656793587
30
0
41
1
10
-24
20
11.78099039585
30
0
41
1
10
-24
20
11.7300825884547
30
0
41
1
10
-24
20
11.6778529900837
30
0
41
1
10
-24
20
11.6243139686469
30
0
41
1
10
-24
20
11.5508590476175
30
0
41
1
10
-24
20
11.4758394707542
30
0
41
1
10
-24
20
11.3972466128896
30
0
41
1
10
-24
20
11.3169609533628
30
0
41
1
10
-24
20
11.2142799019792
30
0
41
1
10
-24
20
11.1074990885262
30
0
41
1
10
-24
20
11.0189464603389
30
0
41
1
10
-24
20
10.9516093773873
30
0
41
1
10
-24
20
10.8830697782116
30
0
41
1
10
-24
20
10.8133337656712
30
0
41
1
10
-24
20
10.7424101789121
30
0
41
1
10
-24
20
10.6825334430363
30
0
41
1
10
-24
20
10.6336671760819
30
0
41
1
10
-24
20
10.5844084477176
30
0
41
1
10
-24
20
10.5225869468266
30
0
41
1
10
-24
20
10.4469857296791
30
0
41
1
10
-24
20
10.3442039867663
30
0
41
1
10
-24
20
10.2404782892815
30
0
41
1
10
-24
20
10.133123847137
30
0
41
1
10
-24
20
10.0518274139735
30
0
41
1
10
-24
20
9.96941226524035
30
0
41
1
10
-24
20
9.8858827890852
30
0
41
1
10
-24
20
9.80124634105394
30
0
41
1
10
-24
20
9.71550990056983
30
0
41
1
10
-24
20
9.62867742465991
30
0
41
1
10
-24
20
9.54075474090101
30
0
41
1
10
-24
20
9.45175012870757
30
0
41
1
10
-24
20
9.33111730296773
30
0
41
1
10
-24
20
9.20992961158598
30
0
41
1
10
-24
20
9.08500600225796
30
0
41
1
10
-24
20
9.00666454438806
30
0
41
1
10
-24
20
8.94296708063843
30
0
41
1
10
-24
20
8.87892107357061
30
0
41
1
10
-24
20
8.76613371827506
30
0
41
1
10
-24
20
8.63663898523424
30
0
41
1
10
-24
20
8.50332881313912
30
0
41
1
10
-24
20
8.36865251940401
30
0
41
1
10
-24
20
8.19913342470036
30
0
41
1
10
-24
20
8.02625870426021
30
0
41
1
10
-24
20
7.88481232676438
30
0
41
1
10
-24
20
7.74204568631339
30
0
41
1
10
-24
20
7.59930458489882
30
0
41
1
10
-24
20
7.45257386795717
30
0
41
1
10
-24
20
7.34207855908448
30
0
41
1
10
-24
20
7.23061782890775
30
0
41
1
10
-24
20
7.11820191301106
30
0
41
1
10
-24
20
7.00483374343872
30
0
41
1
10
-24
20
6.8516785758469
30
0
41
1
10
-24
20
6.65959441745028
30
0
41
1
10
-24
20
6.46441027855923
30
0
41
1
10
-24
20
6.30499529459033
30
0
41
1
10
-24
20
6.18514753468796
30
0
41
1
10
-24
20
6.06440158167572
30
0
41
1
10
-24
20
5.90137597131746
30
0
41
1
10
-24
20
5.69736367955667
30
0
41
1
10
-24
20
5.44799894794272
30
0
41
1
10
-24
20
5.19525670130326
30
0
41
1
10
-24
20
4.98285125019774
30
0
41
1
10
-24
20
4.80950544532163
30
0
41
1
10
-24
20
4.67950096380329
30
0
41
1
10
-24
20
4.54872537799758
30
0
41
1
10
-24
20
4.41719445888799
30
0
41
1
10
-24
20
4.28492388892991
30
0
41
1
10
-24
20
4.15193103870837
30
0
41
1
10
-24
20
4.01823650200188
30
0
41
1
10
-24
20
3.88386015063671
30
0
41
1
10
-24
20
3.74882265025218
30
0
41
1
10
-24
20
3.61314816606938
30
0
41
1
10
-24
20
3.47686551917991
30
0
41
1
10
-24
20
3.34000139230267
30
0
41
1
10
-24
20
3.20258393847712
30
0
41
1
10
-24
20
3.06464837689458
30
0
41
1
10
-24
20
2.9262304523017
30
0
41
1
10
-24
20
2.78737006373561
30
0
41
1
10
-24
20
2.64810891556724
30
0
41
1
10
-24
20
2.50849315364215
30
0
41
1
10
-24
20
2.36857603859875
30
0
41
1
10
-24
20
2.22840727338092
30
0
41
1
10
-24
20
2.11231267734073
30
0
41
1
10
-24
20
2.01771125590744
30
0
41
1
10
-24
20
1.92310511773127
30
0
41
1
10
-24
20
1.8313714962141
30
0
41
1
10
-24
20
1.73663368976398
30
0
41
1
10
-24
20
1.66636839269287
30
0
41
1
10
-24
20
1.59612143913762
30
0
41
1
10
-24
20
1.52590617425699
30
0
41
1
10
-24
20
1.45572440081648
30
0
41
1
10
-24
20
1.38559146347788
30
0
41
1
10
-24
20
1.31551245865842
30
0
41
1
10
-24
20
1.22103102890804
30
0
41
1
10
-24
20
1.13019491172781
30
0
41
1
10
-24
20
1.03590357373665
30
0
41
1
10
-24
20
0.966211278320685
30
0
41
1
10
-24
20
0.896616942008535
30
0
41
1
10
-24
20
0.827119549474418
30
0
41
1
10
-24
20
0.757724503129253
30
0
41
1
10
-24
20
0.688430802184314
30
0
41
1
10
-24
20
0.619238394305086
30
0
41
1
10
-24
20
0.550143822342449
30
0
41
1
10
-24
20
0.481142957404018
30
0
41
1
10
-24
20
0.412229055265982
30
0
41
1
10
-24
20
0.343394373554958
30
0
41
1
10
-24
20
0.274627961865065
30
0
41
1
10
-24
20
0.205919183520024
30
0
41
1
10
-24
20
0.137254128872428
30
0
41
1
10
-24
20
0.068619580615092
30
0
41
1
10
-24
20
1.20069785E-08
30
0
41
1
10
-24
20
-0.0686195837654395
30
0
41
1
10
-24
20
-0.1372541822264
30
0
41
1
10
-24
20
-0.205919229600312
30
0
41
1
10
-24
20
-0.274627932715674
30
0
41
1
10
-24
20
-0.343394334295567
30
0
41
1
10
-24
20
-0.412229116407673
30
0
41
1
10
-24
20
-0.48114304712405
30
0
41
1
10
-24
20
-0.55014378989776
30
0
41
1
10
-24
20
-0.619238310392802
30
0
41
1
10
-24
20
-0.688430856535206
30
0
41
1
10
-24
20
-0.757724640342815
30
0
41
1
10
-24
20
-0.827119544713668
30
0
41
1
10
-24
20
-0.896616816711344
30
0
41
1
10
-24
20
-0.966211277672699
30
0
41
1
10
-24
20
-1.03590373801057
30
0
41
1
10
-24
20
-1.13019491751669
30
0
41
1
10
-24
20
-1.22103090337816
30
0
41
1
10
-24
20
-1.31551253110209
30
0
41
1
10
-24
20
-1.38559165365194
30
0
41
1
10
-24
20
-1.45572444737027
30
0
41
1
10
-24
20
-1.52590604398472
30
0
41
1
10
-24
20
-1.59612132289769
30
0
41
1
10
-24
20
-1.66636846888792
30
0
41
1
10
-24
20
-1.73663389391052
30
0
41
1
10
-24
20
-1.83137150908334
30
0
41
1
10
-24
20
-1.923104963833
30
0
41
1
10
-24
20
-2.01771124909399
30
0
41
1
10
-24
20
-2.11231287096447
30
0
41
1
10
-24
20
-2.22840729138045
30
0
41
1
10
-24
20
-2.36857592379664
30
0
41
1
10
-24
20
-2.50849329023109
30
0
41
1
10
-24
20
-2.64810899336408
30
0
41
1
10
-24
20
-2.7873694745272
30
0
41
1
10
-24
20
-2.92622914514115
30
0
41
1
10
-24
20
-3.06464867495961
30
0
41
1
10
-24
20
-3.20258694679339
30
0
41
1
10
-24
20
-3.34000339886188
30
0
41
1
10
-24
20
-3.47686412773234
30
0
41
1
10
-24
20
-3.61314539193521
30
0
41
1
10
-24
20
-3.74882070125759
30
0
41
1
10
-24
20
-3.88386081960974
30
0
41
1
10
-24
20
-4.01823910176785
30
0
41
1
10
-24
20
-4.15193237523465
30
0
41
1
10
-24
20
-4.28492323331267
30
0
41
1
10
-24
20
-4.41719365917407
30
0
41
1
10
-24
20
-4.54872525063163
30
0
41
1
10
-24
20
-4.67950102029136
30
0
41
1
10
-24
20
-4.8095053694127
30
0
41
1
10
-24
20
-4.98285124277228
30
0
41
1
10
-24
20
-5.19525677656026
30
0
41
1
10
-24
20
-5.44799891971269
30
0
41
1
10
-24
20
-5.69736372546626
30
0
41
1
10
-24
20
-5.90137602298265
30
0
41
1
10
-24
20
-6.0644015068855
30
0
41
1
10
-24
20
-6.1851475156806
30
0
41
1
10
-24
20
-6.30499537148731
30
0
41
1
10
-24
20
-6.46441033734266
30
0
41
1
10
-24
20
-6.65959438580623
30
0
41
1
10
-24
20
-6.85167858307042
30
0
41
1
10
-24
20
-7.00483382763792
30
0
41
1
10
-24
20
-7.11820195418233
30
0
41
1
10
-24
20
-7.2306178054078
30
0
41
1
10
-24
20
-7.34207852113332
30
0
41
1
10
-24
20
-7.45257387547733
30
0
41
1
10
-24
20
-7.59930464836137
30
0
41
1
10
-24
20
-7.74204572237986
30
0
41
1
10
-24
20
-7.88481230085068
30
0
41
1
10
-24
20
-8.02625870014725
30
0
41
1
10
-24
20
-8.19913346952643
30
0
41
1
10
-24
20
-8.36865254580422
30
0
41
1
10
-24
20
-8.50332879773273
30
0
41
1
10
-24
20
-8.63663898786112
30
0
41
1
10
-24
20
-8.76613375581505
30
0
41
1
10
-24
20
-8.87892111197036
30
0
41
1
10
-24
20
-8.94296710462893
30
0
41
1
10
-24
20
-9.00666455327519
30
0
41
1
10
-24
20
-9.08500599911847
30
0
41
1
10
-24
20
-9.20992961783276
30
0
41
1
10
-24
20
-9.33111733072479
30
0
41
1
10
-24
20
-9.45175015939358
30
0
41
1
10
-24
20
-9.54075475929304
30
0
41
1
10
-24
20
-9.62867743247332
30
0
41
1
10
-24
20
-9.71550990736878
30
0
41
1
10
-24
20
-9.80124635456619
30
0
41
1
10
-24
20
-9.88588281033205
30
0
41
1
10
-24
20
-9.9694122909747
30
0
41
1
10
-24
20
-10.0518274374696
30
0
41
1
10
-24
20
-10.1331238647016
30
0
41
1
10
-24
20
-10.240478300249
30
0
41
1
10
-24
20
-10.3442039980406
30
0
41
1
10
-24
20
-10.4469857502475
30
0
41
1
10
-24
20
-10.5225869730086
30
0
41
1
10
-24
20
-10.5844084741421
30
0
41
1
10
-24
20
-10.6336671988976
30
0
41
1
10
-24
20
-10.6825334589273
30
0
41
1
10
-24
20
-10.7424101865055
30
0
41
1
10
-24
20
-10.8133337727233
30
0
41
1
10
-24
20
-10.8830697936353
30
0
41
1
10
-24
20
-10.951609404873
30
0
41
1
10
-24
20
-11.0189464931514
30
0
41
1
10
-24
20
-11.1074991058536
30
0
41
1
10
-24
20
-11.2142799044294
30
0
41
1
10
-24
20
-11.3169609751522
30
0
41
1
10
-24
20
-11.3972466509688
30
0
41
1
10
-24
20
-11.4758394909226
30
0
41
1
10
-24
20
-11.5508590446085
30
0
41
1
10
-24
20
-11.6243139791192
30
0
41
1
10
-24
20
-11.6778530233414
30
0
41
1
10
-24
20
-11.7300826287653
30
0
41
1
10
-24
20
-11.7809904199399
30
0
41
1
10
-24
20
-11.8305656793297
30
0
41
1
10
-24
20
-11.8787992978642
30
0
41
1
10
-24
20
-11.9256779481161
30
0
41
1
10
-24
20
-11.9866456736684
30
0
41
1
10
-24
20
-12.0440224201629
30
0
41
1
10
-24
20
-12.099415447517
30
0
41
1
10
-24
20
-12.1393440246738
30
0
41
1
10
-24
20
-12.1778433772408
30
0
41
1
10
-24
20
-12.2149010599454
30
0
41
1
10
-24
20
-12.250502752964
30
0
41
1
10
-24
20
-12.2962370828382
30
0
41
1
10
-24
20
-12.3383402824608
30
0
41
1
10
-24
20
-12.3780532736994
30
0
41
1
10
-24
20
-12.4061495785297
30
0
41
1
10
-24
20
-12.4326960530149
30
0
41
1
10
-24
20
-12.4661791203578
30
0
41
1
10
-24
20
-12.4959885477691
30
0
41
1
10
-24
20
-12.523037071398
30
0
41
1
10
-24
20
-12.5415673540695
30
0
41
1
10
-24
20
-12.55843663992
30
0
41
1
10
-24
20
-12.5736235086905
30
0
41
1
10
-24
20
-12.5871069547276
30
0
41
1
10
-24
20
-12.5988645879939
30
0
41
1
10
-24
20
-12.6088733436887
30
0
41
1
10
-24
20
-12.617109869821
30
0
41
1
10
-24
20
-12.6235493215145
30
0
41
1
10
-24
20
-12.6281667848456
30
0
41
1
10
-24
20
-12.630935840933
30
0
41
1
10
-24
20
-12.6318298800803
30
0
41
1
10
-24
20
-12.6311015701445
30
0
41
1
10
-24
20
-12.6302722756643
30
0
41
1
10
-24
20
-12.6301456986612
30
0
0
SPLINE
5
CA
100
AcDbEntity
8
SK1
62
256
6
ByLayer
370
-1
48
1
60
0
100
AcDbSpline
70
4
71
3
72
8
73
4
40
0
40
0
40
0
40
0
40
1
40
1
40
1
40
1
41
1
10
-1.4950399779393
20
-2.59465115086957
30
0
41
1
10
-1.43729564430089
20
-2.94660231507382
30
0
41
1
10
-1.37345704405578
20
-3.29127575598179
30
0
41
1
10
-1.30710678118653
20
-3.6278161010051
30
0
0
SPLINE
5
CB
100
AcDbEntity
8
1
62
256
6
ByLayer
370
-1
48
1
60
0
100
AcDbSpline
70
4
71
3
72
18
73
14
40
0
40
0
40
0
40
0
40
0.2124916957553
40
0.2124916957553
40
0.386618276853801
40
0.386618276853801
40
0.562426360907928
40
0.562426360907928
40
0.71538841664593
40
0.71538841664593
40
0.918249208689852
40
0.918249208689852
40
1
40
1
40
1
40
1
41
1
10
41.5888497047267
20
1.12150404177777
30
0
41
1
10
41.570481313208
20
1.05294891330075
30
0
41
1
10
41.5622963461711
20
0.979185025513488
30
0
41
1
10
41.5701662378719
20
0.843022153374733
30
0
41
1
10
41.5823609964616
20
0.779448760083
30
0
41
1
10
41.6250358086409
20
0.656905539533085
30
0
41
1
10
41.6565029053572
20
0.596232464323975
30
0
41
1
10
41.728508473357
20
0.496295746405622
30
0
41
1
10
41.7681241359074
20
0.454031777747133
30
0
41
1
10
41.8666111994984
20
0.371396705693513
30
0
41
1
10
41.9290988245469
20
0.334518098060471
30
0
41
1
10
42.018981968936
20
0.297950670802806
30
0
41
1
10
42.0454312730976
20
0.289055491737884
30
0
41
1
10
42.0720706292033
20
0.281837412132347
30
0
0
SPLINE
5
CC
100
AcDbEntity
8
1
62
256
6
ByLayer
370
-1
48
1
60
0
100
AcDbSpline
70
4
71
3
72
12
73
8
40
0
40
0
40
0
40
0
40
0.495785575728963
40
0.495785575728963
40
0.900238279923911
40
0.900238279923911
40
1
40
1
40
1
40
1
41
1
10
40.123294259654
20
1.40233678765202
30
0
41
1
10
40.1734316320493
20
1.35160801295854
30
0
41
1
10
40.2332762252901
20
1.307123351455
30
0
41
1
10
40.3551889482603
20
1.24516073117704
30
0
41
1
10
40.4162590028335
20
1.22366365063726
30
0
41
1
10
40.4956879803975
20
1.20816202596683
30
0
41
1
10
40.5117809565664
20
1.20560657989554
30
0
41
1
10
40.5279835005007
20
1.20362635089785
30
0
0
SPLINE
5
CD
100
AcDbEntity
8
1
62
256
6
ByLayer
370
-1
48
1
60
0
100
AcDbSpline
70
4
71
3
72
12
73
8
40
0
40
0
40
0
40
0
40
0.495785575728963
40
0.495785575728963
40
0.900238279923922
40
0.900238279923922
40
1
40
1
40
1
40
1
41
1
10
41.0991162143819
20
-1.40233678764818
30
0
41
1
10
41.0489788419866
20
-1.3516080129547
30
0
41
1
10
40.9891342487458
20
-1.30712335145117
30
0
41
1
10
40.8672215257756
20
-1.24516073117323
30
0
41
1
10
40.8061514712024
20
-1.22366365063346
30
0
41
1
10
40.7267224936383
20
-1.20816202596299
30
0
41
1
10
40.7106295174695
20
-1.20560657989171
30
0
41
1
10
40.6944269735352
20
-1.20362635089401
30
0
0
SPLINE
5
CE
100
AcDbEntity
8
SK1
62
256
6
ByLayer
370
-1
48
1
60
0
100
AcDbSpline
70
4
71
3
72
24
73
20
40
0
40
0
40
0
40
0
40
0.470757791634908
40
0.470757791634908
40
0.661826126045254
40
0.661826126045254
40
0.85568916651581
40
0.85568916651581
40
0.884460546127643
40
0.884460546127643
40
0.91360691814161
40
0.91360691814161
40
0.932763100125268
40
0.932763100125268
40
0.95203909678233
40
0.95203909678233
40
0.974618894615272
40
0.974618894615272
40
1
40
1
40
1
40
1
41
1
10
-0.199999999999989
20
-5.70317605472911
30
0
41
1
10
-0.199999999999989
20
-5.58107998739831
30
0
41
1
10
-0.203895983734896
20
-5.45705658909691
30
0
41
1
10
-0.223509916035724
20
-5.28128624620587
30
0
41
1
10
-0.23086916609185
20
-5.23019697507434
30
0
41
1
10
-0.252992963272021
20
-5.12819212434212
30
0
41
1
10
-0.266168518183207
20
-5.0748758166919
30
0
41
1
10
-0.299311339940957
20
-5.02202983998879
30
0
41
1
10
-0.304166370278011
20
-5.01525404855027
30
0
41
1
10
-0.315232060467949
20
-5.00279573504582
30
0
41
1
10
-0.321587352348573
20
-4.99699852204864
30
0
41
1
10
-0.333432884234483
20
-4.98975078853741
30
0
41
1
10
-0.338586253854444
20
-4.98746585289803
30
0
41
1
10
-0.349157439354414
20
-4.98479989040243
30
0
41
1
10
-0.354703931885936
20
-4.98441392730476
30
0
41
1
10
-0.366193082216242
20
-4.98556317954746
30
0
41
1
10
-0.372213152675172
20
-4.98741181161262
30
0
41
1
10
-0.383950186909431
20
-4.99285513665984
30
0
41
1
10
-0.389694431034414
20
-4.99667072159761
30
0
41
1
10
-0.394976888882155
20
-5.00092508225598
30
0
0
SPLINE
5
CF
100
AcDbEntity
8
1
62
256
6
ByLayer
370
-1
48
1
60
0
100
AcDbSpline
70
4
71
3
72
14
73
10
40
0
40
0
40
0
40
0
40
0.283961749036707
40
0.283961749036707
40
0.570285189259013
40
0.570285189259013
40
0.829451094335676
40
0.829451094335676
40
1
40
1
40
1
40
1
41
1
10
41.5888497047267
20
1.12150404177777
30
0
41
1
10
41.597526565422
20
1.15388811303046
30
0
41
1
10
41.6007590968216
20
1.18882554196082
30
0
41
1
10
41.5944116025021
20
1.25850421461593
30
0
41
1
10
41.5845642547749
20
1.29431482284386
30
0
41
1
10
41.5534198283877
20
1.35690846987222
30
0
41
1
10
41.5327729856184
20
1.38514373353519
30
0
41
1
10
41.4916073963546
20
1.42427613243368
30
0
41
1
10
41.4731561877821
20
1.43812706135532
30
0
41
1
10
41.4535035406783
20
1.44954676283882
30
0
0
SPLINE
5
D0
100
AcDbEntity
8
1
62
256
6
ByLayer
370
-1
48
1
60
0
100
AcDbSpline
70
4
71
3
72
12
73
8
40
0
40
0
40
0
40
0
40
0.422118641229834
40
0.422118641229834
40
0.843213633747324
40
0.843213633747324
40
1
40
1
40
1
40
1
41
1
10
40.6944269735352
20
1.20362635089785
30
0
41
1
10
40.7618744385691
20
1.21186958891184
30
0
41
1
10
40.8278635961616
20
1.23046260794322
30
0
41
1
10
40.9464780189113
20
1.28256908028311
30
0
41
1
10
41.0008476483061
20
1.31660935904461
30
0
41
1
10
41.0661322364593
20
1.37058295421579
30
0
41
1
10
41.0830868829198
20
1.38611837999755
30
0
41
1
10
41.0991162143819
20
1.40233678765199
30
0
0
SPLINE
5
D1
100
AcDbEntity
8
1
62
256
6
ByLayer
370
-1
48
1
60
0
100
AcDbSpline
70
4
71
3
72
12
73
8
40
0
40
0
40
0
40
0
40
0.422118641229788
40
0.422118641229788
40
0.843213633747275
40
0.843213633747275
40
1
40
1
40
1
40
1
41
1
10
40.5279835005007
20
-1.20362635089401
30
0
41
1
10
40.4605360354668
20
-1.211869588908
30
0
41
1
10
40.3945468778742
20
-1.23046260793939
30
0
41
1
10
40.2759324551246
20
-1.28256908027927
30
0
41
1
10
40.2215628257298
20
-1.31660935904077
30
0
41
1
10
40.1562782375766
20
-1.37058295421195
30
0
41
1
10
40.1393235911161
20
-1.38611837999372
30
0
41
1
10
40.123294259654
20
-1.40233678764818
30
0
0
SPLINE
5
D2
100
AcDbEntity
8
1
62
256
6
ByLayer
370
-1
48
1
60
0
100
AcDbSpline
70
4
71
3
72
18
73
14
40
0
40
0
40
0
40
0
40
0.212491592102416
40
0.212491592102416
40
0.386618191488477
40
0.386618191488477
40
0.562426295050819
40
0.562426295050819
40
0.715388354469462
40
0.715388354469462
40
0.918249128147168
40
0.918249128147168
40
1
40
1
40
1
40
1
41
1
10
39.1503398448326
20
0.281837412132347
30
0
41
1
10
39.2188429605025
20
0.300398706938836
30
0
41
1
10
39.2867334062985
20
0.330381808912534
30
0
41
1
10
39.4005095030113
20
0.405596523653571
30
0
41
1
10
39.4493499437972
20
0.448080643420042
30
0
41
1
10
39.533863658348
20
0.546545944414419
30
0
41
1
10
39.5705137012356
20
0.604236286895315
30
0
41
1
10
39.6207450198122
20
0.716703910714529
30
0
41
1
10
39.6373840921655
20
0.772190714039368
30
0
41
1
10
39.6593512470858
20
0.898862337760846
30
0
41
1
10
39.6598427825944
20
0.971419161562295
30
0
41
1
10
39.6463013509491
20
1.06750657274645
30
0
41
1
10
39.6407038366382
20
1.09484444570137
30
0
41
1
10
39.6335607693092
20
1.12150404177777
30
0
0
SPLINE
5
D3
100
AcDbEntity
8
SK1
62
256
6
ByLayer
370
-1
48
1
60
0
100
AcDbSpline
70
4
71
3
72
24
73
20
40
0
40
0
40
0
40
0
40
0.408002420194574
40
0.408002420194574
40
0.586477084363329
40
0.586477084363329
40
0.763728221544513
40
0.763728221544513
40
0.83464833042642
40
0.83464833042642
40
0.871680147904128
40
0.871680147904128
40
0.909315863704638
40
0.909315863704638
40
0.941446160303592
40
0.941446160303592
40
0.988233002766673
40
0.988233002766673
40
1
40
1
40
1
40
1
41
1
10
-1.30710678118655
20
3.62781725664615
30
0
41
1
10
-1.25754709276271
20
3.87919081380429
30
0
41
1
10
-1.1977179392694
20
4.12580048883993
30
0
41
1
10
-1.07980138365164
20
4.46640123366592
30
0
41
1
10
-1.03947389583291
20
4.56855181342542
30
0
41
1
10
-0.943165684412477
20
4.76452984977917
30
0
41
1
10
-0.887972849225292
20
4.86076144162979
30
0
41
1
10
-0.781589632759719
20
4.97623115222154
30
0
41
1
10
-0.746942513659562
20
5.00751721259149
30
0
41
1
10
-0.685298347589722
20
5.04425501792002
30
0
41
1
10
-0.662073057062727
20
5.05499571071985
30
0
41
1
10
-0.612858105189787
20
5.06918922724967
30
0
41
1
10
-0.586087478285805
20
5.07253385323432
30
0
41
1
10
-0.537899014579082
20
5.06994558199364
30
0
41
1
10
-0.515734678473706
20
5.06532466911642
30
0
41
1
10
-0.465255653618996
20
5.04798484569733
30
0
41
1
10
-0.437776087568892
20
5.03248974169182
30
0
41
1
10
-0.406986543980821
20
5.01034621255963
30
0
41
1
10
-0.400907252385935
20
5.00570060770795
30
0
41
1
10
-0.394976888875291
20
5.00092441402839
30
0
0
SPLINE
5
D4
100
AcDbEntity
8
SK1
62
256
6
ByLayer
370
-1
48
1
60
0
100
AcDbSpline
70
4
71
3
72
22
73
18
40
0
40
0
40
0
40
0
40
0.0408146055975421
40
0.0408146055975421
40
0.0823243808208714
40
0.0823243808208714
40
0.113722137960843
40
0.113722137960843
40
0.144934004837801
40
0.144934004837801
40
0.197663645148653
40
0.197663645148653
40
0.33040493622216
40
0.33040493622216
40
0.796191409884692
40
0.796191409884692
40
1
40
1
40
1
40
1
41
1
10
-0.394976888875291
20
-5.00092508226666
30
0
41
1
10
-0.41553010785394
20
-5.01747813555136
30
0
41
1
10
-0.438024560131566
20
-5.03261131985604
30
0
41
1
10
-0.487324802537927
20
-5.05682200266617
30
0
41
1
10
-0.514951385379717
20
-5.065973715838
30
0
41
1
10
-0.565001076851487
20
-5.07238571210249
30
0
41
1
10
-0.587551462055302
20
-5.07198375916977
30
0
41
1
10
-0.630654498772842
20
-5.06497384681828
30
0
41
1
10
-0.65169083057323
20
-5.05839846240309
30
0
41
1
10
-0.704063404944179
20
-5.0354696203506
30
0
41
1
10
-0.733646054998772
20
-5.01537181535585
30
0
41
1
10
-0.825717517678285
20
-4.93804001611764
30
0
41
1
10
-0.875568215521142
20
-4.86927174197922
30
0
41
1
10
-1.06893868726922
20
-4.55513362670803
30
0
41
1
10
-1.15213866111816
20
-4.27852588598478
30
0
41
1
10
-1.25478905452405
20
-3.87761185644086
30
0
41
1
10
-1.28234760083204
20
-3.75339907142145
30
0
41
1
10
-1.30710678118763
20
-3.62781610099955
30
0
0
SPLINE
5
D5
100
AcDbEntity
8
1
62
256
6
ByLayer
370
-1
48
1
60
0
100
AcDbSpline
70
4
71
3
72
14
73
10
40
0
40
0
40
0
40
0
40
0.283961457856582
40
0.283961457856582
40
0.570284934646614
40
0.570284934646614
40
0.829450869060451
40
0.829450869060451
40
1
40
1
40
1
40
1
41
1
10
39.1503398448326
20
0.281837412132347
30
0
41
1
10
39.117980360653
20
0.273069432460602
30
0
41
1
10
39.0861484858056
20
0.258311308211063
30
0
41
1
10
39.0290915284442
20
0.217815543955595
30
0
41
1
10
39.0030761591059
20
0.191309493311706
30
0
41
1
10
38.9646034124959
20
0.132933226218029
30
0
41
1
10
38.9505637142366
20
0.100895602612297
30
0
41
1
10
38.9374109689969
20
0.0456420108802433
30
0
41
1
10
38.9347052370179
20
0.0227296607974949
30
0
41
1
10
38.9347052370179
20
1.9043E-12
30
0
0
SPLINE
5
D6
100
AcDbEntity
8
1
62
256
6
ByLayer
370
-1
48
1
60
0
100
AcDbSpline
70
4
71
3
72
16
73
12
40
0
40
0
40
0
40
0
40
0.0630415689509389
40
0.0630415689509389
40
0.285914332024969
40
0.285914332024969
40
0.511588305408882
40
0.511588305408882
40
0.751723061839349
40
0.751723061839349
40
1
40
1
40
1
40
1
41
1
10
42.287705237018
20
1.9043E-12
30
0
41
1
10
42.287705237018
20
0.0084336538348282
30
0
41
1
10
42.2873388657666
20
0.0168769683523635
30
0
41
1
10
42.2840483804331
20
0.0547537924334449
30
0
41
1
10
42.2768391274289
20
0.084121608772449
30
0
41
1
10
42.2545293257109
20
0.138367789845233
30
0
41
1
10
42.2390687029379
20
0.163884549645729
30
0
41
1
10
42.2014280718378
20
0.209452916503722
30
0
41
1
10
42.1784342667981
20
0.229640568255093
30
0
41
1
10
42.1282448552214
20
0.261951448649569
30
0
41
1
10
42.1003839505348
20
0.274165762470204
30
0
41
1
10
42.0720706292033
20
0.281837412132347
30
0
0
SPLINE
5
D7
100
AcDbEntity
8
1
62
256
6
ByLayer
370
-1
48
1
60
0
100
AcDbSpline
70
4
71
3
72
18
73
14
40
0
40
0
40
0
40
0
40
0.212491592102414
40
0.212491592102414
40
0.386618191488476
40
0.386618191488476
40
0.562426295050812
40
0.562426295050812
40
0.715388354469459
40
0.715388354469459
40
0.918249128147162
40
0.918249128147162
40
1
40
1
40
1
40
1
41
1
10
42.0720706292033
20
-0.28183741212851
30
0
41
1
10
42.0035675135334
20
-0.300398706934999
30
0
41
1
10
41.9356770677374
20
-0.330381808908697
30
0
41
1
10
41.8219009710246
20
-0.405596523649734
30
0
41
1
10
41.7730605302387
20
-0.448080643416205
30
0
41
1
10
41.6885468156879
20
-0.546545944410582
30
0
41
1
10
41.6518967728002
20
-0.604236286891478
30
0
41
1
10
41.6016654542237
20
-0.716703910710663
30
0
41
1
10
41.5850263818704
20
-0.772190714035531
30
0
41
1
10
41.5630592269501
20
-0.898862337756981
30
0
41
1
10
41.5625676914415
20
-0.971419161558458
30
0
41
1
10
41.5761091230868
20
-1.06750657274262
30
0
41
1
10
41.5817066373977
20
-1.09484444569753
30
0
41
1
10
41.5888497047267
20
-1.12150404177393
30
0
0
SPLINE
5
D8
100
AcDbEntity
8
1
62
256
6
ByLayer
370
-1
48
1
60
0
100
AcDbSpline
70
4
71
3
72
18
73
14
40
0
40
0
40
0
40
0
40
0.212491695755302
40
0.212491695755302
40
0.386618276853806
40
0.386618276853806
40
0.562426360907937
40
0.562426360907937
40
0.71538841664594
40
0.71538841664594
40
0.918249208689864
40
0.918249208689864
40
1
40
1
40
1
40
1
41
1
10
39.6335607693092
20
-1.12150404177393
30
0
41
1
10
39.6519291608279
20
-1.05294891329692
30
0
41
1
10
39.6601141278648
20
-0.979185025509651
30
0
41
1
10
39.652244236164
20
-0.843022153370896
30
0
41
1
10
39.6400494775743
20
-0.779448760079163
30
0
41
1
10
39.597374665395
20
-0.656905539529248
30
0
41
1
10
39.5659075686787
20
-0.596232464320167
30
0
41
1
10
39.4939020006789
20
-0.496295746401813
30
0
41
1
10
39.4542863381284
20
-0.454031777743296
30
0
41
1
10
39.3557992745375
20
-0.371396705689676
30
0
41
1
10
39.2933116494889
20
-0.334518098056662
30
0
41
1
10
39.2034285050999
20
-0.297950670798968
30
0
41
1
10
39.1769792009383
20
-0.289055491734047
30
0
41
1
10
39.1503398448326
20
-0.281837412128539
30
0
0
SPLINE
5
D9
100
AcDbEntity
8
SK1
62
256
6
ByLayer
370
-1
48
1
60
0
100
AcDbSpline
70
4
71
3
72
22
73
18
40
0
40
0
40
0
40
0
40
0.0262443259631879
40
0.0262443259631879
40
0.0530261953238149
40
0.0530261953238149
40
0.0713561417138392
40
0.0713561417138392
40
0.089587671732252
40
0.089587671732252
40
0.119482760569379
40
0.119482760569379
40
0.178619847888867
40
0.178619847888867
40
0.388025243769701
40
0.388025243769701
40
1
40
1
40
1
40
1
41
1
10
-0.394976888875291
20
-13.8446019297682
30
0
41
1
10
-0.389542940031561
20
-13.8449158599001
30
0
41
1
10
-0.38361759348102
20
-13.8454439659091
30
0
41
1
10
-0.370682577094911
20
-13.8471856765741
30
0
41
1
10
-0.363425095790518
20
-13.8484584409772
30
0
41
1
10
-0.350979043087179
20
-13.8513238322133
30
0
41
1
10
-0.345738104843406
20
-13.8527220431424
30
0
41
1
10
-0.335836036111374
20
-13.8557300394867
30
0
41
1
10
-0.331061234651429
20
-13.8573680363077
30
0
41
1
10
-0.319536857691602
20
-13.8617043765564
30
0
41
1
10
-0.313226439154875
20
-13.8644842406524
30
0
41
1
10
-0.296825865103983
20
-13.8724174982475
30
0
41
1
10
-0.288454852011284
20
-13.8774557840676
30
0
41
1
10
-0.256352537857253
20
-13.8987262995108
30
0
41
1
10
-0.243999907013645
20
-13.9124642192994
30
0
41
1
10
-0.204596917519396
20
-13.9605471889767
30
0
41
1
10
-0.200000000000046
20
-13.9849787272997
30
0
41
1
10
-0.200000000000046
20
-14.0034375364996
30
0
0
SPLINE
5
DA
100
AcDbEntity
8
SK1
62
256
6
ByLayer
370
-1
48
1
60
0
100
AcDbSpline
70
4
71
3
72
30
73
26
40
0
40
0
40
0
40
0
40
0.337353368376273
40
0.337353368376273
40
0.421572476570396
40
0.421572476570396
40
0.437870507614647
40
0.437870507614647
40
0.454360744150349
40
0.454360744150349
40
0.46102437321649
40
0.46102437321649
40
0.467802724987302
40
0.467802724987302
40
0.473791453396888
40
0.473791453396888
40
0.481264268969724
40
0.481264268969724
40
0.494804301393218
40
0.494804301393218
40
0.541069262252274
40
0.541069262252274
40
0.76221802419653
40
0.76221802419653
40
1
40
1
40
1
40
1
41
1
10
-1.7
20
-2.5837250319525
30
0
41
1
10
-1.69946915813009
20
-2.45210484593008
30
0
41
1
10
-1.69760670671556
20
-2.31884997747196
30
0
41
1
10
-1.67915375522098
20
-2.15294187932722
30
0
41
1
10
-1.67485152519237
20
-2.11932442567118
30
0
41
1
10
-1.66472347048305
20
-2.08095979549279
30
0
41
1
10
-1.66287560510223
20
-2.07475454077749
30
0
41
1
10
-1.65846712486042
20
-2.06274931231133
30
0
41
1
10
-1.65588139752758
20
-2.05680133794195
30
0
41
1
10
-1.65120237663186
20
-2.0497680665317
30
0
41
1
10
-1.64969999009789
20
-2.04787870491481
30
0
41
1
10
-1.64639510213217
20
-2.0447894938039
30
0
41
1
10
-1.644535578477
20
-2.04357912964019
30
0
41
1
10
-1.64096575658941
20
-2.04240828386776
30
0
41
1
10
-1.63922229186966
20
-2.04230771235822
30
0
41
1
10
-1.63551182442282
20
-2.04297037181766
30
0
41
1
10
-1.63353448434609
20
-2.04393506875687
30
0
41
1
10
-1.62845259442084
20
-2.04750201060256
30
0
41
1
10
-1.62558657915471
20
-2.0508033417303
30
0
41
1
10
-1.61425491864985
20
-2.06649024761731
30
0
41
1
10
-1.60795428020354
20
-2.08189579117942
30
0
41
1
10
-1.57473680217674
20
-2.17064161742221
30
0
41
1
10
-1.55852136531563
20
-2.25243693059593
30
0
41
1
10
-1.5247433730911
20
-2.41950302647342
30
0
41
1
10
-1.50941945205861
20
-2.5070083929059
30
0
41
1
10
-1.4950399779393
20
-2.59465115086951
30
0
0
SPLINE
5
DB
100
AcDbEntity
8
SK1
62
256
6
ByLayer
370
-1
48
1
60
0
100
AcDbSpline
70
4
71
3
72
98
73
94
40
0
40
0
40
0
40
0
40
0.0012808740763045
40
0.0105737783742241
40
0.0198666826721437
40
0.0291595869700633
40
0.0384524912679829
40
0.0477453955659025
40
0.0663312041617417
40
0.0849170127575809
40
0.10350282135342
40
0.11279572565134
40
0.122088629949259
40
0.131381534247179
40
0.140674438545099
40
0.159260247140938
40
0.168553151438857
40
0.177846055736777
40
0.187138960034696
40
0.196431864332616
40
0.205724768630536
40
0.215017672928455
40
0.233603481524295
40
0.242896385822214
40
0.252189290120134
40
0.261482194418053
40
0.270775098715973
40
0.280068003013893
40
0.289360907311812
40
0.298653811609732
40
0.307946715907651
40
0.326532524503491
40
0.33582542880141
40
0.34511833309933
40
0.363704141695169
40
0.382289950291008
40
0.391582854588928
40
0.400875758886847
40
0.410168663184767
40
0.419461567482687
40
0.428754471780606
40
0.438047376078526
40
0.442693828227486
40
0.447340280376445
40
0.456633184674365
40
0.465926088972284
40
0.475218993270204
40
0.493804801866043
40
0.503097706163963
40
0.512390610461883
40
0.521683514759802
40
0.530976419057722
40
0.540269323355641
40
0.549562227653561
40
0.558855131951481
40
0.5681480362494
40
0.57744094054732
40
0.586733844845239
40
0.605319653441079
40
0.614612557738998
40
0.623905462036918
40
0.628551914185878
40
0.633198366334837
40
0.642491270632757
40
0.661077079228596
40
0.670369983526516
40
0.679662887824435
40
0.698248696420275
40
0.716834505016114
40
0.726127409314034
40
0.735420313611953
40
0.754006122207792
40
0.763299026505712
40
0.772591930803632
40
0.781884835101551
40
0.791177739399471
40
0.80047064369739
40
0.80976354799531
40
0.828349356591149
40
0.846935165186988
40
0.856228069484908
40
0.865520973782828
40
0.874813878080747
40
0.884106782378667
40
0.902692590974506
40
0.921278399570345
40
0.939864208166184
40
0.958450016762024
40
0.967742921059943
40
0.977035825357863
40
0.986328729655782
40
0.995621633953702
40
1
40
1
40
1
40
1
41
1
10
-0.394976888875291
20
13.8446015176322
30
0
41
1
10
-0.394976888875291
20
13.8443369604552
30
0
41
1
10
-0.394976888875291
20
13.842101166137
30
0
41
1
10
-0.394976888875291
20
13.8370982474882
30
0
41
1
10
-0.394976888875291
20
13.8281310063336
30
0
41
1
10
-0.394976888875291
20
13.8172492272358
30
0
41
1
10
-0.394976888875291
20
13.8044829705053
30
0
41
1
10
-0.394976888875291
20
13.7849758313288
30
0
41
1
10
-0.394976888875291
20
13.7560496751861
30
0
41
1
10
-0.394976888875291
20
13.7142204148031
30
0
41
1
10
-0.394976888875291
20
13.6736219510479
30
0
41
1
10
-0.394976888875291
20
13.6377421071264
30
0
41
1
10
-0.394976888875291
20
13.6091837483775
30
0
41
1
10
-0.394976888875291
20
13.5789821852606
30
0
41
1
10
-0.394976888875291
20
13.5365270016785
30
0
41
1
10
-0.394976888875291
20
13.4909311840823
30
0
41
1
10
-0.394976888875291
20
13.4421262012037
30
0
41
1
10
-0.394976888875291
20
13.4039879614121
30
0
41
1
10
-0.394976888875291
20
13.3643136176474
30
0
41
1
10
-0.394976888875291
20
13.3231185671574
30
0
41
1
10
-0.394976888875291
20
13.2804176635455
30
0
41
1
10
-0.394976888875291
20
13.2214670183476
30
0
41
1
10
-0.394976888875291
20
13.1596507604527
30
0
41
1
10
-0.394976888875291
20
13.094846134259
30
0
41
1
10
-0.394976888875291
20
13.0448282447276
30
0
41
1
10
-0.394976888875291
20
12.9933861020735
30
0
41
1
10
-0.394976888875291
20
12.9405320737836
30
0
41
1
10
-0.394976888875291
20
12.8862769376535
30
0
41
1
10
-0.394976888875291
20
12.8306328717281
30
0
41
1
10
-0.394976888875291
20
12.7736108931729
30
0
41
1
10
-0.394976888875291
20
12.6957215859151
30
0
41
1
10
-0.394976888875291
20
12.6152283382819
30
0
41
1
10
-0.394976888875291
20
12.5319491453114
30
0
41
1
10
-0.394976888875291
20
12.4468991604423
30
0
41
1
10
-0.394976888875291
20
12.3373769122162
30
0
41
1
10
-0.394976888875291
20
12.2235215734124
30
0
41
1
10
-0.394976888875291
20
12.1297946053789
30
0
41
1
10
-0.394976888875291
20
12.0582544060742
30
0
41
1
10
-0.394976888875291
20
11.9854459580753
30
0
41
1
10
-0.394976888875291
20
11.9113764581405
30
0
41
1
10
-0.394976888875291
20
11.8360539668501
30
0
41
1
10
-0.394976888875291
20
11.7722691621604
30
0
41
1
10
-0.394976888875291
20
11.7205808778945
30
0
41
1
10
-0.394976888875291
20
11.6684804259269
30
0
41
1
10
-0.394976888875291
20
11.6026363586083
30
0
41
1
10
-0.394976888875291
20
11.5223699646631
30
0
41
1
10
-0.394976888875291
20
11.4136741241806
30
0
41
1
10
-0.394976888875291
20
11.3026972493618
30
0
41
1
10
-0.394976888875291
20
11.1891707558493
30
0
41
1
10
-0.394976888875291
20
11.102867622286
30
0
41
1
10
-0.394976888875291
20
11.0153746780185
30
0
41
1
10
-0.394976888875291
20
10.9266969759659
30
0
41
1
10
-0.394976888875291
20
10.8368404439692
30
0
41
1
10
-0.394976888875291
20
10.74580988339
30
0
41
1
10
-0.394976888875291
20
10.6536100721469
30
0
41
1
10
-0.394976888875291
20
10.5602461340712
30
0
41
1
10
-0.394976888875291
20
10.4657231550753
30
0
41
1
10
-0.394976888875291
20
10.3380960413352
30
0
41
1
10
-0.394976888875291
20
10.2083399780688
30
0
41
1
10
-0.394976888875291
20
10.0761265525343
30
0
41
1
10
-0.394976888875291
20
9.99261143893298
30
0
41
1
10
-0.394976888875291
20
9.92517900727512
30
0
41
1
10
-0.394976888875291
20
9.85736934874495
30
0
41
1
10
-0.394976888875291
20
9.73773600630287
30
0
41
1
10
-0.394976888875291
20
9.59892076352932
30
0
41
1
10
-0.394976888875291
20
9.45767861814849
30
0
41
1
10
-0.394976888875291
20
9.3149499665038
30
0
41
1
10
-0.394976888875291
20
9.13390678694702
30
0
41
1
10
-0.394976888875291
20
8.94918033853523
30
0
41
1
10
-0.394976888875291
20
8.79907643306458
30
0
41
1
10
-0.394976888875291
20
8.64751154095558
30
0
41
1
10
-0.394976888875291
20
8.49397418950429
30
0
41
1
10
-0.394976888875291
20
8.33804225713789
30
0
41
1
10
-0.394976888875291
20
8.22006379392718
30
0
41
1
10
-0.394976888875291
20
8.10100252302422
30
0
41
1
10
-0.394976888875291
20
7.98086143927398
30
0
41
1
10
-0.394976888875291
20
7.85964213989763
30
0
41
1
10
-0.394976888875291
20
7.69650359349293
30
0
41
1
10
-0.394976888875291
20
7.49008089634199
30
0
41
1
10
-0.394976888875291
20
7.28009509164627
30
0
41
1
10
-0.394976888875291
20
7.10982244878713
30
0
41
1
10
-0.394976888875291
20
6.98112244545175
30
0
41
1
10
-0.394976888875291
20
6.85136200824962
30
0
41
1
10
-0.394976888875291
20
6.67684685573994
30
0
41
1
10
-0.394976888875291
20
6.45627503636445
30
0
41
1
10
-0.394976888875291
20
6.18726433662556
30
0
41
1
10
-0.394976888875291
20
5.91406385279547
30
0
41
1
10
-0.394976888875291
20
5.68302324019061
30
0
41
1
10
-0.394976888875291
20
5.49591838220567
30
0
41
1
10
-0.394976888875291
20
5.35463940810163
30
0
41
1
10
-0.394976888875291
20
5.21232773385495
30
0
41
1
10
-0.394976888875291
20
5.09425517295406
30
0
41
1
10
-0.394976888875291
20
5.02359271293304
30
0
41
1
10
-0.394976888875291
20
5.0009244140283
30
0
0
SPLINE
5
DC
100
AcDbEntity
8
1
62
256
6
ByLayer
370
-1
48
1
60
0
100
AcDbSpline
70
4
71
3
72
16
73
12
40
0
40
0
40
0
40
0
40
0.0630415689509099
40
0.0630415689509099
40
0.285914332024936
40
0.285914332024936
40
0.511588305408832
40
0.511588305408832
40
0.751723061839294
40
0.751723061839294
40
1
40
1
40
1
40
1
41
1
10
38.9347052370179
20
1.9043E-12
30
0
41
1
10
38.9347052370179
20
-0.0084336538309913
30
0
41
1
10
38.9350716082693
20
-0.0168769683485266
30
0
41
1
10
38.9383620936028
20
-0.054753792429608
30
0
41
1
10
38.9455713466069
20
-0.0841216087686121
30
0
41
1
10
38.967881148325
20
-0.138367789841396
30
0
41
1
10
38.9833417710979
20
-0.163884549641892
30
0
41
1
10
39.0209824021981
20
-0.209452916499885
30
0
41
1
10
39.0439762072377
20
-0.229640568251256
30
0
41
1
10
39.0941656188145
20
-0.261951448645732
30
0
41
1
10
39.1220265235011
20
-0.274165762466367
30
0
41
1
10
39.1503398448326
20
-0.281837412128539
30
0
0
SPLINE
5
DD
100
AcDbEntity
8
SK1
62
256
6
ByLayer
370
-1
48
1
60
0
100
AcDbSpline
70
4
71
3
72
32
73
28
40
0
40
0
40
0
40
0
40
0.335339404831972
40
0.335339404831972
40
0.429287156787091
40
0.429287156787091
40
0.47567705376244
40
0.47567705376244
40
0.494539743197707
40
0.494539743197707
40
0.513645880085614
40
0.513645880085614
40
0.520504273461008
40
0.520504273461008
40
0.527488218290634
40
0.527488218290634
40
0.533551201014328
40
0.533551201014328
40
0.540998152878254
40
0.540998152878254
40
0.554393631774451
40
0.554393631774451
40
0.598967269657032
40
0.598967269657032
40
0.809317334416223
40
0.809317334416223
40
1
40
1
40
1
40
1
41
1
10
-1.4950399779393
20
2.59465115838304
30
0
41
1
10
-1.51545804662706
20
2.47020327904033
30
0
41
1
10
-1.53713921924269
20
2.34554891087819
30
0
41
1
10
-1.57392592094843
20
2.19043955590803
30
0
41
1
10
-1.58255890853935
20
2.15670217135892
30
0
41
1
10
-1.59805956936562
20
2.1081468839686
30
0
41
1
10
-1.60359902440038
20
2.09231222948606
30
0
41
1
10
-1.61296122457533
20
2.07152520286885
30
0
41
1
10
-1.61586967413162
20
2.0656737244498
30
0
41
1
10
-1.62242426172162
20
2.05481886173052
30
0
41
1
10
-1.62611615645157
20
2.04963161073078
30
0
41
1
10
-1.63217263701876
20
2.04479089552191
30
0
41
1
10
-1.63391092603902
20
2.04372430879368
30
0
41
1
10
-1.63759701012465
20
2.04243943769597
30
0
41
1
10
-1.63960513001732
20
2.04224314885471
30
0
41
1
10
-1.64327142014689
20
2.04303363449088
30
0
41
1
10
-1.64498274878694
20
2.04388024545895
30
0
41
1
10
-1.64846923771175
20
2.04652261877811
30
0
41
1
10
-1.65023197368771
20
2.04850621085967
30
0
41
1
10
-1.6545929794447
20
2.05462030362457
30
0
41
1
10
-1.65687449353446
20
2.05928542847226
30
0
41
1
10
-1.66535432668745
20
2.07982184742582
30
0
41
1
10
-1.66919635898847
20
2.09736547364699
30
0
41
1
10
-1.6880096715786
20
2.19569498442294
30
0
41
1
10
-1.6917465712958
20
2.27904221250569
30
0
41
1
10
-1.69840552504972
20
2.43548746422863
30
0
41
1
10
-1.69970172620592
20
2.50976932903754
30
0
41
1
10
-1.7
20
2.58372509632824
30
0
0
SPLINE
5
DE
100
AcDbEntity
8
SK1
62
256
6
ByLayer
370
-1
48
1
60
0
100
AcDbSpline
70
4
71
3
72
10
73
6
40
0
40
0
40
0
40
0
40
0.5
40
0.5
40
1
40
1
40
1
40
1
41
1
10
-1.7
20
2.58372509632821
30
0
41
1
10
-1.83222262461143
20
1.751855044526
30
0
41
1
10
-1.92871617486691
20
0.884329181036094
30
0
41
1
10
-1.92842303871006
20
-0.888588835776119
30
0
41
1
10
-1.83224326233339
20
-1.75172436897285
30
0
41
1
10
-1.69999999999999
20
-2.58372503195247
30
0
0
SPLINE
5
DF
100
AcDbEntity
8
1
62
256
6
ByLayer
370
-1
48
1
60
0
100
AcDbSpline
70
4
71
3
72
14
73
10
40
0
40
0
40
0
40
0
40
0.282169922576098
40
0.282169922576098
40
0.566902245317945
40
0.566902245317945
40
0.824523972080258
40
0.824523972080258
40
1
40
1
40
1
40
1
41
1
10
41.0991162143819
20
-1.40233678764818
30
0
41
1
10
41.1227296941502
20
-1.42622880347724
30
0
41
1
10
41.1513078654207
20
-1.44669095398302
30
0
41
1
10
41.2148018297152
20
-1.4764275995193
30
0
41
1
10
41.2507844538077
20
-1.48600316007085
30
0
41
1
10
41.3207210047214
20
-1.49063981765841
30
0
41
1
10
41.355603941846
20
-1.48700486817157
30
0
41
1
10
41.4110470791685
20
-1.47083834362695
30
0
41
1
10
41.433097345903
20
-1.46140433354887
30
0
41
1
10
41.4535035406783
20
-1.44954676283498
30
0
0
SPLINE
5
E0
100
AcDbEntity
8
1
62
256
6
ByLayer
370
-1
48
1
60
0
100
AcDbSpline
70
4
71
3
72
14
73
10
40
0
40
0
40
0
40
0
40
0.282169922576105
40
0.282169922576105
40
0.566902245317976
40
0.566902245317976
40
0.824523972080274
40
0.824523972080274
40
1
40
1
40
1
40
1
41
1
10
40.123294259654
20
1.40233678765199
30
0
41
1
10
40.0996807798857
20
1.42622880348108
30
0
41
1
10
40.0711026086152
20
1.44669095398683
30
0
41
1
10
40.0076086443206
20
1.47642759952313
30
0
41
1
10
39.9716260202282
20
1.48600316007469
30
0
41
1
10
39.9016894693145
20
1.49063981766224
30
0
41
1
10
39.8668065321899
20
1.4870048681754
30
0
41
1
10
39.8113633948674
20
1.47083834363079
30
0
41
1
10
39.7893131281329
20
1.46140433355271
30
0
41
1
10
39.7689069333576
20
1.44954676283882
30
0
0
SPLINE
5
E1
100
AcDbEntity
8
1
62
256
6
ByLayer
370
-1
48
1
60
0
100
AcDbSpline
70
4
71
3
72
14
73
10
40
0
40
0
40
0
40
0
40
0.283961457856596
40
0.283961457856596
40
0.570284934646628
40
0.570284934646628
40
0.829450869060476
40
0.829450869060476
40
1
40
1
40
1
40
1
41
1
10
42.0720706292033
20
-0.28183741212851
30
0
41
1
10
42.104430113383
20
-0.273069432456765
30
0
41
1
10
42.1362619882303
20
-0.258311308207226
30
0
41
1
10
42.1933189455917
20
-0.21781554395173
30
0
41
1
10
42.2193343149301
20
-0.19130949330787
30
0
41
1
10
42.25780706154
20
-0.132933226214192
30
0
41
1
10
42.2718467597993
20
-0.10089560260846
30
0
41
1
10
42.2849995050389
20
-0.045642010876378
30
0
41
1
10
42.287705237018
20
-0.022729660793658
30
0
41
1
10
42.287705237018
20
1.9043E-12
30
0
0
SPLINE
5
E2
100
AcDbEntity
8
SK1
62
256
6
ByLayer
370
-1
48
1
60
0
100
AcDbSpline
70
4
71
3
72
22
73
18
40
0
40
0
40
0
40
0
40
0.0262442859026881
40
0.0262442859026881
40
0.0530261157854851
40
0.0530261157854851
40
0.0713559655737796
40
0.0713559655737796
40
0.089587401263909
40
0.089587401263909
40
0.119482247898519
40
0.119482247898519
40
0.178618886842945
40
0.178618886842945
40
0.388022338076953
40
0.388022338076953
40
1
40
1
40
1
40
1
41
1
10
-0.394976888875291
20
5.0009244140283
30
0
41
1
10
-0.389542958903149
20
4.99654803778401
30
0
41
1
10
-0.383617633691586
20
4.99263335383438
30
0
41
1
10
-0.370682657201087
20
4.98677476419829
30
0
41
1
10
-0.363425194676552
20
4.98483424058901
30
0
41
1
10
-0.350979181144169
20
4.98462903203949
30
0
41
1
10
-0.345738268039327
20
4.98542011278013
30
0
41
1
10
-0.335836240990062
20
4.98861553627458
30
0
41
1
10
-0.331061456711964
20
4.99102841332402
30
0
41
1
10
-0.319537139874143
20
4.9986715699325
30
0
41
1
10
-0.313226756018608
20
5.00478758784652
30
0
41
1
10
-0.296826258261476
20
5.02421063341325
30
0
41
1
10
-0.288455270980236
20
5.03906576138257
30
0
41
1
10
-0.256353055935392
20
5.10678482490906
30
0
41
1
10
-0.244000373144985
20
5.16381228581221
30
0
41
1
10
-0.204596889637315
20
5.38213882730372
30
0
41
1
10
-0.200000000000046
20
5.54465158381666
30
0
41
1
10
-0.200000000000046
20
5.70317614351262
30
0
0
SPLINE
5
E3
100
AcDbEntity
8
SK1
62
256
6
ByLayer
370
-1
48
1
60
0
100
AcDbSpline
70
4
71
3
72
8
73
4
40
0
40
0
40
0
40
0
40
1
40
1
40
1
40
1
41
1
10
-1.30710678118655
20
3.62781725664615
30
0
41
1
10
-1.37345758266253
20
3.29127686428785
30
0
41
1
10
-1.43729556141982
20
2.946602671997
30
0
41
1
10
-1.4950399779393
20
2.59465115838313
30
0
0
SPLINE
5
E4
100
AcDbEntity
8
1
62
256
6
ByLayer
370
-1
48
1
60
0
100
AcDbSpline
70
4
71
3
72
16
73
12
40
0
40
0
40
0
40
0
40
0.0569446172824897
40
0.0569446172824897
40
0.279906644834044
40
0.279906644834044
40
0.505321967306638
40
0.505321967306638
40
0.744915047128744
40
0.744915047128744
40
1
40
1
40
1
40
1
41
1
10
41.4535035406783
20
-1.44954676283498
30
0
41
1
10
41.4600947985103
20
-1.44571673441976
30
0
41
1
10
41.4665419117367
20
-1.44162442621922
30
0
41
1
10
41.497168853857
20
-1.42045865074718
30
0
41
1
10
41.5191329040241
20
-1.39963106375964
30
0
41
1
10
41.5552128734113
20
-1.35336102380162
30
0
41
1
10
41.5697177911012
20
-1.32729536171368
30
0
41
1
10
41.5906421192391
20
-1.27206196334089
30
0
41
1
10
41.5967874374043
20
-1.24212170469127
30
0
41
1
10
41.6000581380074
20
-1.18170391695185
30
0
41
1
10
41.5966457582423
20
-1.15060073485273
30
0
41
1
10
41.5888497047267
20
-1.12150404177393
30
0
0
SPLINE
5
E5
100
AcDbEntity
8
1
62
256
6
ByLayer
370
-1
48
1
60
0
100
AcDbSpline
70
4
71
3
72
16
73
12
40
0
40
0
40
0
40
0
40
0.0624450082614247
40
0.0624450082614247
40
0.283207995985766
40
0.283207995985766
40
0.506745688833486
40
0.506745688833486
40
0.744607284736904
40
0.744607284736904
40
1
40
1
40
1
40
1
41
1
10
39.7689069333576
20
-1.44954676283498
30
0
41
1
10
39.7761989202025
20
-1.4537839687722
30
0
41
1
10
39.7836833315493
20
-1.45770925194373
30
0
41
1
10
39.818085864738
20
-1.47389408653405
30
0
41
1
10
39.8471001010348
20
-1.48241558862671
30
0
41
1
10
39.9052115754987
20
-1.49038000157952
30
0
41
1
10
39.9350416935916
20
-1.4898323211772
30
0
41
1
10
39.9933525293734
20
-1.4801814267162
30
0
41
1
10
40.0223597380945
20
-1.47044293260188
30
0
41
1
10
40.0765298790189
20
-1.44276136963253
30
0
41
1
10
40.1019206226123
20
-1.42396254037649
30
0
41
1
10
40.123294259654
20
-1.40233678764815
30
0
0
SPLINE
5
E6
100
AcDbEntity
8
1
62
256
6
ByLayer
370
-1
48
1
60
0
100
AcDbSpline
70
4
71
3
72
16
73
12
40
0
40
0
40
0
40
0
40
0.0624450082613867
40
0.0624450082613867
40
0.283207995985731
40
0.283207995985731
40
0.506745688833469
40
0.506745688833469
40
0.744607284736884
40
0.744607284736884
40
1
40
1
40
1
40
1
41
1
10
41.4535035406783
20
1.44954676283882
30
0
41
1
10
41.4462115538334
20
1.45378396877604
30
0
41
1
10
41.4387271424866
20
1.45770925194756
30
0
41
1
10
41.4043246092979
20
1.47389408653788
30
0
41
1
10
41.3753103730011
20
1.48241558863055
30
0
41
1
10
41.3171988985372
20
1.49038000158336
30
0
41
1
10
41.2873687804443
20
1.48983232118104
30
0
41
1
10
41.2290579446625
20
1.48018142672004
30
0
41
1
10
41.2000507359414
20
1.47044293260572
30
0
41
1
10
41.1458805950169
20
1.44276136963637
30
0
41
1
10
41.1204898514236
20
1.42396254038033
30
0
41
1
10
41.0991162143819
20
1.40233678765199
30
0
0
SPLINE
5
E7
100
AcDbEntity
8
1
62
256
6
ByLayer
370
-1
48
1
60
0
100
AcDbSpline
70
4
71
3
72
16
73
12
40
0
40
0
40
0
40
0
40
0.0569446172825068
40
0.0569446172825068
40
0.27990664483406
40
0.27990664483406
40
0.505321967306655
40
0.505321967306655
40
0.744915047128763
40
0.744915047128763
40
1
40
1
40
1
40
1
41
1
10
39.7689069333576
20
1.44954676283882
30
0
41
1
10
39.7623156755256
20
1.4457167344236
30
0
41
1
10
39.7558685622992
20
1.44162442622303
30
0
41
1
10
39.7252416201789
20
1.42045865075102
30
0
41
1
10
39.7032775700118
20
1.39963106376348
30
0
41
1
10
39.6671976006246
20
1.35336102380546
30
0
41
1
10
39.6526926829347
20
1.32729536171749
30
0
41
1
10
39.6317683547967
20
1.2720619633447
30
0
41
1
10
39.6256230366316
20
1.24212170469508
30
0
41
1
10
39.6223523360285
20
1.18170391695568
30
0
41
1
10
39.6257647157936
20
1.15060073485657
30
0
41
1
10
39.6335607693092
20
1.12150404177777
30
0
0
SPLINE
5
E8
100
AcDbEntity
8
SK1
62
256
6
ByLayer
370
-1
48
1
60
0
100
AcDbSpline
70
4
71
3
72
100
73
96
40
0
40
0
40
0
40
0
40
0.0043783247532282
40
0.0136712309453665
40
0.0229641371375048
40
0.0322570433296431
40
0.0415499495217814
40
0.0601357619060581
40
0.0787215742903348
40
0.0973073866746114
40
0.115893199058888
40
0.125186105251026
40
0.134479011443165
40
0.143771917635303
40
0.153064823827441
40
0.171650636211718
40
0.190236448595995
40
0.199529354788133
40
0.208822260980271
40
0.21811516717241
40
0.227408073364548
40
0.236700979556686
40
0.245993885748825
40
0.264579698133101
40
0.27387260432524
40
0.283165510517378
40
0.301751322901655
40
0.320337135285931
40
0.32963004147807
40
0.338922947670208
40
0.357508760054485
40
0.366801666246623
40
0.371448119342692
40
0.376094572438761
40
0.385387478630899
40
0.394680384823038
40
0.413266197207314
40
0.422559103399453
40
0.431852009591591
40
0.441144915783729
40
0.450437821975868
40
0.459730728168006
40
0.469023634360144
40
0.478316540552283
40
0.487609446744421
40
0.496902352936559
40
0.506195259128698
40
0.524781071512974
40
0.534073977705113
40
0.543366883897251
40
0.552659790089389
40
0.557306243185458
40
0.561952696281528
40
0.571245602473666
40
0.580538508665804
40
0.589831414857943
40
0.599124321050081
40
0.608417227242219
40
0.617710133434358
40
0.636295945818634
40
0.654881758202911
40
0.664174664395049
40
0.673467570587188
40
0.692053382971464
40
0.701346289163602
40
0.710639195355741
40
0.719932101547879
40
0.729225007740017
40
0.738517913932156
40
0.747810820124294
40
0.757103726316433
40
0.766396632508571
40
0.784982444892847
40
0.794275351084986
40
0.803568257277124
40
0.812861163469262
40
0.822154069661401
40
0.831446975853539
40
0.840739882045677
40
0.859325694429954
40
0.868618600622092
40
0.877911506814231
40
0.887204413006369
40
0.896497319198507
40
0.915083131582784
40
0.924376037774922
40
0.933668943967061
40
0.942961850159199
40
0.952254756351337
40
0.961547662543476
40
0.970840568735614
40
0.980133474927752
40
0.98942638111989
40
0.998719287312029
40
1
40
1
40
1
40
1
41
1
10
-0.394976888875291
20
-5.00092508225416
30
0
41
1
10
-0.394976888875291
20
-5.02359314607176
30
0
41
1
10
-0.394976888875291
20
-5.09425535366776
30
0
41
1
10
-0.394976888875291
20
-5.21232773830431
30
0
41
1
10
-0.394976888875291
20
-5.35463943777347
30
0
41
1
10
-0.394976888875291
20
-5.49591839522026
30
0
41
1
10
-0.394976888875291
20
-5.68302324398948
30
0
41
1
10
-0.394976888875291
20
-5.91406388300979
30
0
41
1
10
-0.394976888875291
20
-6.18726435105106
30
0
41
1
10
-0.394976888875291
20
-6.45627504712579
30
0
41
1
10
-0.394976888875291
20
-6.6768468885183
30
0
41
1
10
-0.394976888875291
20
-6.85136201549099
30
0
41
1
10
-0.394976888875291
20
-6.98112245032084
30
0
41
1
10
-0.394976888875291
20
-7.10982246715957
30
0
41
1
10
-0.394976888875291
20
-7.28009512097313
30
0
41
1
10
-0.394976888875291
20
-7.49008091096033
30
0
41
1
10
-0.394976888875291
20
-7.69650359935568
30
0
41
1
10
-0.394976888875291
20
-7.85964216476054
30
0
41
1
10
-0.394976888875291
20
-7.98086146605701
30
0
41
1
10
-0.394976888875291
20
-8.10100253994159
30
0
41
1
10
-0.394976888875291
20
-8.22006380191277
30
0
41
1
10
-0.394976888875291
20
-8.3380422654499
30
0
41
1
10
-0.394976888875291
20
-8.49397420958985
30
0
41
1
10
-0.394976888875291
20
-8.64751156797169
30
0
41
1
10
-0.394976888875291
20
-8.79907644696402
30
0
41
1
10
-0.394976888875291
20
-8.94918034619519
30
0
41
1
10
-0.394976888875291
20
-9.13390680482667
30
0
41
1
10
-0.394976888875291
20
-9.31494999082747
30
0
41
1
10
-0.394976888875291
20
-9.45767863215664
30
0
41
1
10
-0.394976888875291
20
-9.59892077296985
30
0
41
1
10
-0.394976888875291
20
-9.73773602301958
30
0
41
1
10
-0.394976888875291
20
-9.85736937045593
30
0
41
1
10
-0.394976888875291
20
-9.92517902838179
30
0
41
1
10
-0.394976888875291
20
-9.99261145812801
30
0
41
1
10
-0.394976888875291
20
-10.0761265678462
30
0
41
1
10
-0.394976888875291
20
-10.2083399899529
30
0
41
1
10
-0.394976888875291
20
-10.338096057249
30
0
41
1
10
-0.394976888875291
20
-10.4657231753345
30
0
41
1
10
-0.394976888875291
20
-10.5602461538978
30
0
41
1
10
-0.394976888875291
20
-10.6536100894112
30
0
41
1
10
-0.394976888875291
20
-10.7458098983122
30
0
41
1
10
-0.394976888875291
20
-10.8368404586376
30
0
41
1
10
-0.394976888875291
20
-10.9266969919675
30
0
41
1
10
-0.394976888875291
20
-11.0153746961414
30
0
41
1
10
-0.394976888875291
20
-11.1028676417001
30
0
41
1
10
-0.394976888875291
20
-11.1891707748317
30
0
41
1
10
-0.394976888875291
20
-11.3026972665534
30
0
41
1
10
-0.394976888875291
20
-11.413674138825
30
0
41
1
10
-0.394976888875291
20
-11.5223699808134
30
0
41
1
10
-0.394976888875291
20
-11.6026363770329
30
0
41
1
10
-0.394976888875291
20
-11.6684804460587
30
0
41
1
10
-0.394976888875291
20
-11.7205808983271
30
0
41
1
10
-0.394976888875291
20
-11.7722691819395
30
0
41
1
10
-0.394976888875291
20
-11.836053984022
30
0
41
1
10
-0.394976888875291
20
-11.9113764724791
30
0
41
1
10
-0.394976888875291
20
-11.9854459723214
30
0
41
1
10
-0.394976888875291
20
-12.0582544232072
30
0
41
1
10
-0.394976888875291
20
-12.1297946270485
30
0
41
1
10
-0.394976888875291
20
-12.2235215963167
30
0
41
1
10
-0.394976888875291
20
-12.3373769247913
30
0
41
1
10
-0.394976888875291
20
-12.446899173783
30
0
41
1
10
-0.394976888875291
20
-12.5319491682166
30
0
41
1
10
-0.394976888875291
20
-12.6152283642396
30
0
41
1
10
-0.394976888875291
20
-12.6957215996061
30
0
41
1
10
-0.394976888875291
20
-12.773610902979
30
0
41
1
10
-0.394976888875291
20
-12.8306328883531
30
0
41
1
10
-0.394976888875291
20
-12.8862769625636
30
0
41
1
10
-0.394976888875291
20
-12.940532100831
30
0
41
1
10
-0.394976888875291
20
-12.9933861205259
30
0
41
1
10
-0.394976888875291
20
-13.0448282543027
30
0
41
1
10
-0.394976888875291
20
-13.0948461430692
30
0
41
1
10
-0.394976888875291
20
-13.1596507828291
30
0
41
1
10
-0.394976888875291
20
-13.221467049789
30
0
41
1
10
-0.394976888875291
20
-13.2804176772461
30
0
41
1
10
-0.394976888875291
20
-13.3231185723383
30
0
41
1
10
-0.394976888875291
20
-13.3643136307331
30
0
41
1
10
-0.394976888875291
20
-13.4039879870964
30
0
41
1
10
-0.394976888875291
20
-13.4421262291561
30
0
41
1
10
-0.394976888875291
20
-13.490931201485
30
0
41
1
10
-0.394976888875291
20
-13.5365270011545
30
0
41
1
10
-0.394976888875291
20
-13.5789822078612
30
0
41
1
10
-0.394976888875291
20
-13.6091837809887
30
0
41
1
10
-0.394976888875291
20
-13.6377421279937
30
0
41
1
10
-0.394976888875291
20
-13.6736219491958
30
0
41
1
10
-0.394976888875291
20
-13.706079968468
30
0
41
1
10
-0.394976888875291
20
-13.7351343539634
30
0
41
1
10
-0.394976888875291
20
-13.7551609910392
30
0
41
1
10
-0.394976888875291
20
-13.7734119916164
30
0
41
1
10
-0.394976888875291
20
-13.7898613788954
30
0
41
1
10
-0.394976888875291
20
-13.8044829828858
30
0
41
1
10
-0.394976888875291
20
-13.8172491473121
30
0
41
1
10
-0.394976888875291
20
-13.8281307581185
30
0
41
1
10
-0.394976888875291
20
-13.8370980881852
30
0
41
1
10
-0.394976888875291
20
-13.8421014019358
30
0
41
1
10
-0.394976888875291
20
-13.8443373794894
30
0
41
1
10
-0.394976888875291
20
-13.8446019297682
30
0
0
INSERT
5
11C
100
AcDbEntity
8
2
62
256
6
ByLayer
370
-1
48
1
60
0
100
AcDbBlockReference
2
DimnDraft3D11
10
0
20
0
30
0
41
1
42
1
43
1
50
0
210
0
220
0
230
1
0
LINE
5
4E
100
AcDbEntity
8
1
62
256
6
ByLayer
370
-1
48
1
60
0
100
AcDbLine
10
18.545518
20
1.65
30
0
11
16.314943
21
1.65
31
0
39
0
210
0
220
0
230
1
0
LINE
5
50
100
AcDbEntity
8
1
62
256
6
ByLayer
370
-1
48
1
60
0
100
AcDbLine
10
16.314943
20
-1.65
30
0
11
18.545518
21
-1.65
31
0
39
0
210
0
220
0
230
1
0
LINE
5
51
100
AcDbEntity
8
1
62
256
6
ByLayer
370
-1
48
1
60
0
100
AcDbLine
10
18.618436
20
-1.612295
30
0
11
18.758529
21
-1.465723
31
0
39
0
210
0
220
0
230
1
0
LINE
5
52
100
AcDbEntity
8
1
62
256
6
ByLayer
370
-1
48
1
60
0
100
AcDbLine
10
18.758529
20
1.465723
30
0
11
18.618436
21
1.612295
31
0
39
0
210
0
220
0
230
1
0
LINE
5
53
100
AcDbEntity
8
1
62
256
6
ByLayer
370
-1
48
1
60
0
100
AcDbLine
10
0.3
20
-20
30
0
11
19.3
21
-20
31
0
39
0
210
0
220
0
230
1
0
LINE
5
54
100
AcDbEntity
8
1
62
256
6
ByLayer
370
-1
48
1
60
0
100
AcDbLine
10
19.3
20
20
30
0
11
0.3
21
20
31
0
39
0
210
0
220
0
230
1
0
LINE
5
55
100
AcDbEntity
8
1
62
256
6
ByLayer
370
-1
48
1
60
0
100
AcDbLine
10
0.3
20
20
30
0
11
0
21
19.7
31
0
39
0
210
0
220
0
230
1
0
LINE
5
56
100
AcDbEntity
8
1
62
256
6
ByLayer
370
-1
48
1
60
0
100
AcDbLine
10
0
20
-19.7
30
0
11
0.3
21
-20
31
0
39
0
210
0
220
0
230
1
0
LINE
5
57
100
AcDbEntity
8
4
62
256
6
ByLayer
370
-1
48
0.05
60
0
100
AcDbLine
10
0
20
0
30
0
11
50
21
0
31
0
39
0
210
0
220
0
230
1
0
LINE
5
59
100
AcDbEntity
8
81
62
256
6
ByLayer
370
-1
48
1
60
0
100
AcDbLine
10
50
20
0.481659
30
0
11
60
21
0.481659
31
0
39
0
210
0
220
0
230
1
0
LINE
5
5A
100
AcDbEntity
8
SK4
62
256
6
ByLayer
370
-1
48
0.05
60
0
100
AcDbLine
10
-29
20
0
30
0
11
50
21
0
31
0
39
0
210
0
220
0
230
1
0
LINE
5
5C
100
AcDbEntity
8
80
62
256
6
ByLayer
370
-1
48
1
60
0
100
AcDbLine
10
0
20
0
30
0
11
-5
21
0
31
0
39
0
210
0
220
0
230
1
0
LINE
5
5D
100
AcDbEntity
8
1
62
256
6
ByLayer
370
-1
48
1
60
0
100
AcDbLine
10
19.300856
20
19.998718
30
0
11
19.3
21
20
31
0
39
0
210
0
220
0
230
1
0
LINE
5
5E
100
AcDbEntity
8
1
62
256
6
ByLayer
370
-1
48
1
60
0
100
AcDbLine
10
9.076795
20
5.85989
30
0
11
9.076795
21
19.122283
31
0
39
0
210
0
220
0
230
1
0
LINE
5
5F
100
AcDbEntity
8
1
62
256
6
ByLayer
370
-1
48
1
60
0
100
AcDbLine
10
6.663397
20
-19.024574
30
0
11
6.663397
21
-6.16973
31
0
39
0
210
0
220
0
230
1
0
LINE
5
60
100
AcDbEntity
8
1
62
256
6
ByLayer
370
-1
48
1
60
0
100
AcDbLine
10
39.461541
20
6.866721
30
0
11
24.320198
21
14.748805
31
0
39
0
210
0
220
0
230
1
0
LINE
5
61
100
AcDbEntity
8
1
62
256
6
ByLayer
370
-1
48
1
60
0
100
AcDbLine
10
33.849104
20
-2.133447
30
0
11
34.122287
21
-1.991237
31
0
39
0
210
0
220
0
230
1
0
LINE
5
62
100
AcDbEntity
8
1
62
256
6
ByLayer
370
-1
48
1
60
0
100
AcDbLine
10
33.957615
20
-2.341895
30
0
11
33.849104
21
-2.133447
31
0
39
0
210
0
220
0
230
1
0
LINE
5
63
100
AcDbEntity
8
1
62
256
6
ByLayer
370
-1
48
1
60
0
100
AcDbLine
10
6.923205
20
5.85989
30
0
11
9.076795
21
5.85989
31
0
39
0
210
0
220
0
230
1
0
LINE
5
64
100
AcDbEntity
8
1
62
256
6
ByLayer
370
-1
48
1
60
0
100
AcDbLine
10
6.923205
20
-19.122283
30
0
11
6.923205
21
-5.85989
31
0
39
0
210
0
220
0
230
1
0
LINE
5
65
100
AcDbEntity
8
1
62
256
6
ByLayer
370
-1
48
1
60
0
100
AcDbLine
10
17.465315
20
19.733944
30
0
11
17.465315
21
1.649634
31
0
39
0
210
0
220
0
230
1
0
LINE
5
66
100
AcDbEntity
8
1
62
256
6
ByLayer
370
-1
48
1
60
0
100
AcDbLine
10
17.465315
20
-1.649634
30
0
11
17.465315
21
-19.733944
31
0
39
0
210
0
220
0
230
1
0
LINE
5
67
100
AcDbEntity
8
1
62
256
6
ByLayer
370
-1
48
1
60
0
100
AcDbLine
10
34.376749
20
-2.123707
30
0
11
33.957615
21
-2.341895
31
0
39
0
210
0
220
0
230
1
0
LINE
5
68
100
AcDbEntity
8
1
62
256
6
ByLayer
370
-1
48
1
60
0
100
AcDbLine
10
9.076795
20
-5.85989
30
0
11
6.923205
21
-5.85989
31
0
39
0
210
0
220
0
230
1
0
LINE
5
69
100
AcDbEntity
8
1
62
256
6
ByLayer
370
-1
48
1
60
0
100
AcDbLine
10
19.3
20
-20
30
0
11
19.300856
21
-19.998718
31
0
39
0
210
0
220
0
230
1
0
LINE
5
6A
100
AcDbEntity
8
1
62
256
6
ByLayer
370
-1
48
1
60
0
100
AcDbLine
10
9.076795
20
-19.122283
30
0
11
9.076795
21
-5.85989
31
0
39
0
210
0
220
0
230
1
0
LINE
5
6B
100
AcDbEntity
8
1
62
256
6
ByLayer
370
-1
48
1
60
0
100
AcDbLine
10
6.663397
20
6.16973
30
0
11
6.663397
21
19.024574
31
0
39
0
210
0
220
0
230
1
0
LINE
5
6C
100
AcDbEntity
8
1
62
256
6
ByLayer
370
-1
48
1
60
0
100
AcDbLine
10
9.336603
20
-19.024574
30
0
11
9.336603
21
-6.16973
31
0
39
0
210
0
220
0
230
1
0
LINE
5
6D
100
AcDbEntity
8
1
62
256
6
ByLayer
370
-1
48
1
60
0
100
AcDbLine
10
6.923205
20
5.85989
30
0
11
6.923205
21
19.122283
31
0
39
0
210
0
220
0
230
1
0
LINE
5
6E
100
AcDbEntity
8
1
62
256
6
ByLayer
370
-1
48
1
60
0
100
AcDbLine
10
0
20
-19.7
30
0
11
0
21
19.7
31
0
39
0
210
0
220
0
230
1
0
LINE
5
6F
100
AcDbEntity
8
1
62
256
6
ByLayer
370
-1
48
1
60
0
100
AcDbLine
10
6.923205
20
-19.122283
30
0
11
9.076795
21
-19.122283
31
0
39
0
210
0
220
0
230
1
0
LINE
5
70
100
AcDbEntity
8
1
62
256
6
ByLayer
370
-1
48
1
60
0
100
AcDbLine
10
0.3
20
-20
30
0
11
0.3
21
20
31
0
39
0
210
0
220
0
230
1
0
LINE
5
71
100
AcDbEntity
8
1
62
256
6
ByLayer
370
-1
48
1
60
0
100
AcDbLine
10
9.076795
20
19.122283
30
0
11
6.923205
21
19.122283
31
0
39
0
210
0
220
0
230
1
0
LINE
5
72
100
AcDbEntity
8
1
62
256
6
ByLayer
370
-1
48
1
60
0
100
AcDbLine
10
20.547399
20
18.131962
30
0
11
19.300856
21
19.998718
31
0
39
0
210
0
220
0
230
1
0
LINE
5
73
100
AcDbEntity
8
1
62
256
6
ByLayer
370
-1
48
1
60
0
100
AcDbLine
10
19.300856
20
-19.998718
30
0
11
20.547399
21
-18.131962
31
0
39
0
210
0
220
0
230
1
0
LINE
5
74
100
AcDbEntity
8
1
62
256
6
ByLayer
370
-1
48
1
60
0
100
AcDbLine
10
9.336603
20
6.16973
30
0
11
9.336603
21
19.024574
31
0
39
0
210
0
220
0
230
1
0
LINE
5
75
100
AcDbEntity
8
1
62
256
6
ByLayer
370
-1
48
1
60
0
100
AcDbLine
10
24.320198
20
-14.748805
30
0
11
39.461541
21
-6.866721
31
0
39
0
210
0
220
0
230
1
0
LINE
5
76
100
AcDbEntity
8
1
62
256
6
ByLayer
370
-1
48
1
60
0
100
AcDbLine
10
21.450093
20
16.971032
30
0
11
21.450093
21
-16.971032
31
0
39
0
210
0
220
0
230
1
0
LINE
5
77
100
AcDbEntity
8
SK1
62
256
6
ByLayer
370
-1
48
1
60
0
100
AcDbLine
10
-0.2
20
5.703176
30
0
11
-0.2
21
14.083485
31
0
39
0
210
0
220
0
230
1
0
LINE
5
79
100
AcDbEntity
8
SK1
62
256
6
ByLayer
370
-1
48
1
60
0
100
AcDbLine
10
-0.2
20
-14.083485
30
0
11
-0.2
21
-5.703176
31
0
39
0
210
0
220
0
230
1
0
LINE
5
7A
100
AcDbEntity
8
1
62
256
6
ByLayer
370
-1
48
1
60
0
100
AcDbLine
10
49.572337
20
0.704287
30
0
11
40.977834
21
5.178302
31
0
39
0
210
0
220
0
230
1
0
LINE
5
7B
100
AcDbEntity
8
1
62
256
6
ByLayer
370
-1
48
1
60
0
100
AcDbLine
10
31.650073
20
-0.704287
30
0
11
40.244577
21
-5.178302
31
0
39
0
210
0
220
0
230
1
0
LINE
5
7C
100
AcDbEntity
8
1
62
256
6
ByLayer
370
-1
48
1
60
0
100
AcDbLine
10
40.244577
20
5.178302
30
0
11
31.650073
21
0.704287
31
0
39
0
210
0
220
0
230
1
0
LINE
5
7D
100
AcDbEntity
8
SK1
62
256
6
ByLayer
370
-1
48
1
60
0
100
AcDbLine
10
-1.307107
20
-3.627816
30
0
11
-1.307107
21
3.627817
31
0
39
0
210
0
220
0
230
1
0
LINE
5
7E
100
AcDbEntity
8
1
62
256
6
ByLayer
370
-1
48
1
60
0
100
AcDbLine
10
40.977834
20
-5.178302
30
0
11
49.572337
21
-0.704287
31
0
39
0
210
0
220
0
230
1
0
LINE
5
7F
100
AcDbEntity
8
2
62
256
6
ByLayer
370
-1
48
1
60
1
100
AcDbLine
10
50
20
0.4817
30
0
11
50.000887
21
0.481238
31
0
39
0
210
0
220
0
230
1
0
MTEXT
5
E9
100
AcDbEntity
8
SK6
62
256
6
ByLayer
370
-1
48
1
60
0
100
AcDbMText
10
17.478519
20
-31.28641
30
0
210
0
220
0
230
1
1
\W00.720;\fsimplex.shx,bigfont.shx;C4-SDNCN-00050-11 
40
3.5
41
0
44
1.084337
50
0
71
7
72
5
7
DEFAULT
0
DIMENSION
5
12B
100
AcDbEntity
8
2
62
256
6
ByLayer
370
-3
48
1
60
0
100
AcDbDimension
2
DimnDraft3D2
10
36.967451
20
7.266016
30
0
11
56.1534
21
16.286374
31
0
70
34
71
5
72
1
41
1
210
0
220
0
230
1
3
Standard
100
AcDb2LineAngularDimension
13
50
23
2.793791
33
0
14
50
24
15.174361
34
0
15
46.91173
25
2.089351
35
0
16
63.074426
26
11.64624
36
0
40
0
0
DIMENSION
5
140
100
AcDbEntity
8
SK2
62
256
6
ByLayer
370
-3
48
1
60
0
100
AcDbDimension
2
DimnDraft3D3
10
-33.75
20
20
30
0
11
-33.75
21
-5.021053
31
0
70
32
71
5
72
1
41
1
210
0
220
0
230
1
3
Standard
100
AcDbAlignedDimension
13
-2
23
-20
33
0
14
-2
24
20
34
0
50
90
100
AcDbRotatedDimension
1001
ACAD
1000
DSTYLE
1002
{
1070
    74
1070
     0
1070
   279
1070
     0
1070
   172
1070
     1
1070
   173
1070
     1
1070
   340
1005
EA
1070
    77
1070
     1
1070
    73
1070
     0
1070
   171
1070
     3
1070
   274
1070
     4
1070
   177
1070
     2
1070
   176
1070
     2
1070
   178
1070
     7
1070
    78
1070
     8
1070
    41
1041
3.175
1070
   147
1041
2.25
1070
    42
1041
2.0
1070
    44
1041
2.0
1070
   140
1041
4.5
1070
   343
1005
12C
1070
   344
1005
12C
1002
}
0
DIMENSION
5
14E
100
AcDbEntity
8
2
62
256
6
ByLayer
370
-3
48
1
60
0
100
AcDbDimension
2
DimnDraft3D4
10
50
20
30.543791
30
0
11
22.371053
21
30.543791
31
0
70
32
71
5
72
1
41
1
210
0
220
0
230
1
3
Standard
100
AcDbAlignedDimension
13
0
23
22
33
0
14
50
24
2.793791
34
0
50
0
100
AcDbRotatedDimension
1001
ACAD
1000
DSTYLE
1002
{
1070
   279
1070
     0
1070
   172
1070
     1
1070
   173
1070
     1
1070
   340
1005
EA
1070
    77
1070
     1
1070
    73
1070
     0
1070
   171
1070
     3
1070
   274
1070
     4
1070
   177
1070
     2
1070
   176
1070
     2
1070
   178
1070
     7
1070
    78
1070
     8
1070
    41
1041
3.175
1070
   147
1041
2.25
1070
    42
1041
2.0
1070
    44
1041
2.0
1070
   140
1041
4.5
1070
   343
1005
12C
1070
   344
1005
12C
1002
}
0
ENDSEC
0
SECTION
2
OBJECTS
0
DICTIONARY
5
17f
330
0
100
AcDbDictionary
280
0
281
1
3
ACAD_GROUP
350
180
3
ACAD_MLINESTYLE
350
181
0
DICTIONARY
5
180
330
0
100
AcDbDictionary
280
0
281
1
0
DICTIONARY
5
181
330
0
100
AcDbDictionary
280
0
281
1
3
Standard
350
18
0
MLINESTYLE
5
18
330
181
100
AcDbMlineStyle
2
Standard
70
0
3

62
256
51
90
52
90
71
2
49
-0.5
62
256
6
ByLayer
49
0.5
62
256
6
ByLayer
0
RASTERVARIABLES
5
16d
330

100
AcDbRasterVariables
90
0
70
1
71
1
72
1
0
ENDSEC
0
EOF
