0
SECTION
2
HEADER
9
$ACADVER
1
AC1015
9
$DWGCODEPAGE
3
ANSI_1252
9
$HANDSEED
5
1a4
9
$ANGBASE
50
0
9
$ANGDIR
70
0
9
$ATTMODE
70
1
9
$AUNITS
70
0
9
$AUPREC
70
0
9
$CECOLOR
62
256
9
$CELTSCALE
40
1
9
$CELTYPE
6
ByLayer
9
$CELWEIGHT
370
-1
9
$CLAYER
8
0
9
$CMLJUST
70
0
9
$CMLSCALE
40
1
9
$CMLSTYLE
2
Standard
9
$DIMSTYLE
2
Standard
9
$TEXTSIZE
40
0.2
9
$TEXTSTYLE
7
Standard
9
$LUNITS
70
2
9
$LUPREC
70
4
9
$EXTNAMES
290
1
9
$INSUNITS
70
4
9
$LTSCALE
40
1
9
$LWDISPLAY
290
0
9
$PDMODE
70
0
9
$PDSIZE
40
0
9
$PLINEGEN
70
0
0
ENDSEC
0
SECTION
2
CLASSES
0
CLASS
1
RASTERVARIABLES
2
AcDbRasterVariables
3
ISM
90
0
280
0
281
0
0
ENDSEC
0
SECTION
2
TABLES
0
TABLE
2
VPORT
5
19a
100
AcDbSymbolTable
0
VPORT
5
1
100
AcDbSymbolTableRecord
100
AcDbViewportTableRecord
2
*Active
70
0
10
0
20
0
11
1
21
1
12
-1
22
1
13
0
23
0
14
0.5
24
0.5
15
10
25
10
16
0
26
0
36
1
17
0
27
0
37
0
0
ENDTAB
0
TABLE
2
LTYPE
5
19b
100
AcDbSymbolTable
0
LTYPE
5
14
100
AcDbSymbolTableRecord
100
AcDbLinetypeTableRecord
70
0
2
ByBlock
3

72
65
73
0
40
0
0
LTYPE
5
15
100
AcDbSymbolTableRecord
100
AcDbLinetypeTableRecord
70
0
2
ByLayer
3

72
65
73
0
40
0
0
LTYPE
5
16
100
AcDbSymbolTableRecord
100
AcDbLinetypeTableRecord
70
0
2
CONTINUOUS
3
Solid line
72
65
73
0
40
0
0
LTYPE
5
3B
100
AcDbSymbolTableRecord
100
AcDbLinetypeTableRecord
70
0
2
DASHED
3
__ __ __ __ __ __ __ __ __
72
65
73
2
40
25.72
49
12.86
74
0
49
-12.86
74
0
0
LTYPE
5
3C
100
AcDbSymbolTableRecord
100
AcDbLinetypeTableRecord
70
0
2
HIDDEN
3
_ _ _ _ _ _ _ _ _ _ _ _ _ _ _
72
65
73
2
40
0.5
49
0.25
74
0
49
-0.25
74
0
0
LTYPE
5
3D
100
AcDbSymbolTableRecord
100
AcDbLinetypeTableRecord
70
0
2
PHANTOM
3
____ _ _ ____ _ _ _____ _ _ ____
72
65
73
6
40
50.5
49
18
74
0
49
-6.5
74
0
49
6.5
74
0
49
-6.5
74
0
49
6.5
74
0
49
-6.5
74
0
0
LTYPE
5
3E
100
AcDbSymbolTableRecord
100
AcDbLinetypeTableRecord
70
0
2
CENTER
3
____ _ ____ _ ____ _ ____
72
65
73
4
40
47.5
49
22
74
0
49
-8.5
74
0
49
8.5
74
0
49
-8.5
74
0
0
LTYPE
5
3F
100
AcDbSymbolTableRecord
100
AcDbLinetypeTableRecord
70
0
2
DOT
3
.........................
72
65
73
2
40
10
49
0
74
0
49
-10
74
0
0
LTYPE
5
40
100
AcDbSymbolTableRecord
100
AcDbLinetypeTableRecord
70
0
2
DASHDOT
3
_._._._._._._._._._._._._._._._.
72
65
73
4
40
70
49
31
74
0
49
-13
74
0
49
13
74
0
49
-13
74
0
0
ENDTAB
0
TABLE
2
LAYER
5
19c
100
AcDbSymbolTable
0
LAYER
5
10
100
AcDbSymbolTableRecord
100
AcDbLayerTableRecord
2
0
70
0
62
7
6
CONTINUOUS
290
1
370
-3
390
0
0
LAYER
5
42
100
AcDbSymbolTableRecord
100
AcDbLayerTableRecord
2
81
70
0
62
-3
6
CONTINUOUS
290
1
370
-3
390
0
0
LAYER
5
49
100
AcDbSymbolTableRecord
100
AcDbLayerTableRecord
2
2
70
0
62
7
6
CONTINUOUS
290
1
370
-3
390
0
0
LAYER
5
4C
100
AcDbSymbolTableRecord
100
AcDbLayerTableRecord
2
80
70
0
62
-6
6
CONTINUOUS
290
1
370
-3
390
0
0
LAYER
5
50
100
AcDbSymbolTableRecord
100
AcDbLayerTableRecord
2
1
70
0
62
4
6
CONTINUOUS
290
1
370
-3
390
0
0
LAYER
5
5C
100
AcDbSymbolTableRecord
100
AcDbLayerTableRecord
2
4
70
0
62
-2
6
CENTER
290
1
370
-3
390
0
0
LAYER
5
186
100
AcDbSymbolTableRecord
100
AcDbLayerTableRecord
2
SK2
70
0
62
7
6
CONTINUOUS
290
1
370
-3
390
0
0
LAYER
5
187
100
AcDbSymbolTableRecord
100
AcDbLayerTableRecord
2
SK4
70
0
62
2
6
CENTER
290
1
370
-3
390
0
0
LAYER
5
188
100
AcDbSymbolTableRecord
100
AcDbLayerTableRecord
2
SK1
70
0
62
4
6
CONTINUOUS
290
1
370
-3
390
0
0
LAYER
5
189
100
AcDbSymbolTableRecord
100
AcDbLayerTableRecord
2
SK6
70
0
62
5
6
CONTINUOUS
290
1
370
-3
390
0
0
ENDTAB
0
TABLE
2
STYLE
5
19d
100
AcDbSymbolTable
0
STYLE
5
11
100
AcDbSymbolTableRecord
100
AcDbTextStyleTableRecord
2
Standard
3
txt
70
0
71
0
40
0
41
1
42
0
50
0
0
STYLE
5
103
100
AcDbSymbolTableRecord
100
AcDbTextStyleTableRecord
2
DEFAULT
3
simplex.shx
70
0
71
0
40
0
41
1
42
0
50
0
0
STYLE
5
126
100
AcDbSymbolTableRecord
100
AcDbTextStyleTableRecord
2
DWGDirectTextStyle
3
SIMPLEX
70
0
71
0
40
0
41
1
42
0
50
0
0
ENDTAB
0
TABLE
2
DIMSTYLE
5
19e
100
AcDbSymbolTable
100
AcDbDimStyleTable
0
DIMSTYLE
105
27
100
AcDbSymbolTableRecord
100
AcDbDimStyleTableRecord
2
Standard
70
0
3
<>
41
0.18
42
0.0625
44
0.18
140
0.18
147
0.09
73
0
74
0
77
1
271
2
275
0
278
52
280
0
340
11
0
ENDTAB
0
TABLE
2
VIEW
5
19f
100
AcDbSymbolTable
0
ENDTAB
0
TABLE
2
UCS
5
1a0
100
AcDbSymbolTable
0
ENDTAB
0
TABLE
2
APPID
5
1a1
100
AcDbSymbolTable
0
APPID
5
12
100
AcDbSymbolTableRecord
100
AcDbRegAppTableRecord
2
ACAD
70
0
0
ENDTAB
0
TABLE
2
BLOCK_RECORD
5
1a2
100
AcDbSymbolTable
0
BLOCK_RECORD
5
1F
100
AcDbSymbolTableRecord
100
AcDbBlockTableRecord
2
*Model_Space
340
0
70
0
0
BLOCK_RECORD
5
1B
100
AcDbSymbolTableRecord
100
AcDbBlockTableRecord
2
*Paper_Space
340
0
70
0
0
BLOCK_RECORD
5
23
100
AcDbSymbolTableRecord
100
AcDbBlockTableRecord
2
*Paper_Space0
340
0
70
0
0
BLOCK_RECORD
5
128
100
AcDbSymbolTableRecord
100
AcDbBlockTableRecord
2
DimnDraft3D11
340
0
70
0
0
BLOCK_RECORD
5
136
100
AcDbSymbolTableRecord
100
AcDbBlockTableRecord
2
DimnDraft3D2
340
0
70
0
0
BLOCK_RECORD
5
144
100
AcDbSymbolTableRecord
100
AcDbBlockTableRecord
2
_CLOSED
340
0
70
0
0
BLOCK_RECORD
5
14B
100
AcDbSymbolTableRecord
100
AcDbBlockTableRecord
2
DimnDraft3D3
340
0
70
0
0
BLOCK_RECORD
5
159
100
AcDbSymbolTableRecord
100
AcDbBlockTableRecord
2
DimnDraft3D4
340
0
70
0
0
ENDTAB
0
ENDSEC
0
SECTION
2
BLOCKS
0
BLOCK
5
20
100
AcDbEntity
8
0
100
AcDbBlockBegin
2
*Model_Space
70
0
10
0
20
0
30
0
3
*Model_Space
0
ENDBLK
5
21
100
AcDbEntity
8
0
100
AcDbBlockEnd
0
BLOCK
5
1C
100
AcDbEntity
8
0
100
AcDbBlockBegin
2
*Paper_Space
70
0
10
0
20
0
30
0
3
*Paper_Space
0
ENDBLK
5
1D
100
AcDbEntity
8
0
100
AcDbBlockEnd
0
BLOCK
5
24
100
AcDbEntity
8
0
100
AcDbBlockBegin
2
*Paper_Space0
70
0
10
0
20
0
30
0
3
*Paper_Space0
0
ENDBLK
5
25
100
AcDbEntity
8
0
100
AcDbBlockEnd
0
BLOCK
5
129
100
AcDbEntity
8
0
100
AcDbBlockBegin
2
DimnDraft3D11
70
0
10
0
20
0
30
0
3
DimnDraft3D11
0
LINE
5
12B
100
AcDbEntity
8
2
62
256
6
ByLayer
370
-1
48
1
60
0
100
AcDbLine
10
50
20
29
30
0
11
50
21
48.75
31
0
39
0
210
0
220
0
230
1
0
LINE
5
12C
100
AcDbEntity
8
2
62
256
6
ByLayer
370
-1
48
1
60
0
100
AcDbLine
10
0
20
22
30
0
11
0
21
48.75
31
0
39
0
210
0
220
0
230
1
0
LINE
5
12D
100
AcDbEntity
8
2
62
256
6
ByLayer
370
-1
48
1
60
0
100
AcDbLine
10
50
20
46.75
30
0
11
0
21
46.75
31
0
39
0
210
0
220
0
230
1
0
LINE
5
12E
100
AcDbEntity
8
2
62
256
6
ByLayer
370
-1
48
1
60
0
100
AcDbLine
10
50
20
46.75
30
0
11
46.825002
21
46.332003
31
0
39
0
210
0
220
0
230
1
0
LINE
5
12F
100
AcDbEntity
8
2
62
256
6
ByLayer
370
-1
48
1
60
0
100
AcDbLine
10
50
20
46.75
30
0
11
46.824998
21
47.167997
31
0
39
0
210
0
220
0
230
1
0
LINE
5
130
100
AcDbEntity
8
2
62
256
6
ByLayer
370
-1
48
1
60
0
100
AcDbLine
10
46.825002
20
46.332003
30
0
11
46.824998
21
47.167997
31
0
39
0
210
0
220
0
230
1
0
LINE
5
131
100
AcDbEntity
8
2
62
256
6
ByLayer
370
-1
48
1
60
0
100
AcDbLine
10
0
20
46.75
30
0
11
3.174998
21
47.167997
31
0
39
0
210
0
220
0
230
1
0
LINE
5
132
100
AcDbEntity
8
2
62
256
6
ByLayer
370
-1
48
1
60
0
100
AcDbLine
10
0
20
46.75
30
0
11
3.175002
21
46.332003
31
0
39
0
210
0
220
0
230
1
0
LINE
5
133
100
AcDbEntity
8
2
62
256
6
ByLayer
370
-1
48
1
60
0
100
AcDbLine
10
3.174998
20
47.167997
30
0
11
3.175002
21
46.332003
31
0
39
0
210
0
220
0
230
1
0
MTEXT
5
134
100
AcDbEntity
8
2
62
256
6
ByLayer
370
-1
48
1
60
0
100
AcDbMText
10
23.496053
20
47.875
30
0
210
0
220
0
230
1
1
\W00.656;\fsimplex.shx,bigfont.shx;50 
40
4.5
41
0
44
1.084337
50
0
71
7
72
5
7
DEFAULT
0
ENDBLK
5
12A
100
AcDbEntity
8
0
100
AcDbBlockEnd
0
BLOCK
5
141
100
AcDbEntity
8
0
100
AcDbBlockBegin
2
DimnDraft3D2
70
0
10
0
20
0
30
0
3
DimnDraft3D2
0
MTEXT
5
137
100
AcDbEntity
8
2
62
256
6
ByLayer
370
-1
48
1
60
0
100
AcDbMText
10
36.548859
20
32.575144
30
0
210
0
220
0
230
1
1
\W01.000;\fsimplex.shx,bigfont.shx;93%%d0' 
40
4.5
41
0
44
1.084337
50
46.5000000000004
71
7
72
5
7
DEFAULT
0
LINE
5
138
100
AcDbEntity
8
2
62
256
6
ByLayer
370
-1
48
1
60
0
100
AcDbLine
10
50
20
29
30
0
11
50
21
41.483093
31
0
39
0
210
0
220
0
230
1
0
LINE
5
139
100
AcDbEntity
8
2
62
256
6
ByLayer
370
-1
48
1
60
0
100
AcDbLine
10
46.16882
20
26.841904
30
0
11
35.579385
21
26.286936
31
0
39
0
210
0
220
0
230
1
0
ARC
5
13A
100
AcDbEntity
8
2
62
256
6
ByLayer
370
-1
48
1
60
0
100
AcDbCircle
39
0
10
50
20
27.042688
30
0
40
12.4404046838469
210
0
220
0
230
1
100
AcDbArc
50
90
51
183
0
LINE
5
13B
100
AcDbEntity
8
2
62
256
6
ByLayer
370
-1
48
1
60
0
100
AcDbLine
10
50
20
39.483093
30
0
11
46.857902
21
38.864583
31
0
39
0
210
0
220
0
230
1
0
LINE
5
13C
100
AcDbEntity
8
2
62
256
6
ByLayer
370
-1
48
1
60
0
100
AcDbLine
10
50
20
39.483093
30
0
11
46.804881
21
39.698894
31
0
39
0
210
0
220
0
230
1
0
LINE
5
13D
100
AcDbEntity
8
2
62
256
6
ByLayer
370
-1
48
1
60
0
100
AcDbLine
10
46.857902
20
38.864583
30
0
11
46.804881
21
39.698894
31
0
39
0
210
0
220
0
230
1
0
LINE
5
13E
100
AcDbEntity
8
2
62
256
6
ByLayer
370
-1
48
1
60
0
100
AcDbLine
10
37.576644
20
26.391607
30
0
11
37.19392
21
29.571051
31
0
39
0
210
0
220
0
230
1
0
LINE
5
13F
100
AcDbEntity
8
2
62
256
6
ByLayer
370
-1
48
1
60
0
100
AcDbLine
10
37.576644
20
26.391607
30
0
11
38.029861
21
29.561773
31
0
39
0
210
0
220
0
230
1
0
LINE
5
140
100
AcDbEntity
8
2
62
256
6
ByLayer
370
-1
48
1
60
0
100
AcDbLine
10
37.19392
20
29.571051
30
0
11
38.029861
21
29.561773
31
0
39
0
210
0
220
0
230
1
0
ENDBLK
5
142
100
AcDbEntity
8
0
100
AcDbBlockEnd
0
BLOCK
5
145
100
AcDbEntity
8
0
100
AcDbBlockBegin
2
_CLOSED
70
0
10
0
20
0
30
0
3
_CLOSED
0
LINE
5
147
100
AcDbEntity
8
0
62
256
6
ByLayer
370
-2
48
1
60
0
100
AcDbLine
10
-1
20
0.166667
30
0
11
0
21
0
31
0
39
0
210
0
220
0
230
1
0
LINE
5
148
100
AcDbEntity
8
0
62
256
6
ByLayer
370
-2
48
1
60
0
100
AcDbLine
10
0
20
0
30
0
11
-1
21
-0.166667
31
0
39
0
210
0
220
0
230
1
0
LINE
5
149
100
AcDbEntity
8
0
62
256
6
ByLayer
370
-2
48
1
60
0
100
AcDbLine
10
-1
20
0.166667
30
0
11
-1
21
-0.166667
31
0
39
0
210
0
220
0
230
1
0
LINE
5
14A
100
AcDbEntity
8
0
62
256
6
ByLayer
370
-2
48
1
60
0
100
AcDbLine
10
0
20
0
30
0
11
-1
21
0
31
0
39
0
210
0
220
0
230
1
0
ENDBLK
5
146
100
AcDbEntity
8
0
100
AcDbBlockEnd
0
BLOCK
5
156
100
AcDbEntity
8
0
100
AcDbBlockBegin
2
DimnDraft3D3
70
0
10
0
20
0
30
0
3
DimnDraft3D3
0
MTEXT
5
14C
100
AcDbEntity
8
SK2
62
256
6
ByLayer
370
-1
48
1
60
0
100
AcDbMText
10
-34.875
20
-3.896053
30
0
210
0
220
0
230
1
1
\W01.000;\fsimplex.shx,bigfont.shx;%%c40 
40
4.5
41
0
44
1.084337
50
90
71
7
72
5
7
DEFAULT
0
LINE
5
14D
100
AcDbEntity
8
SK2
62
256
6
ByLayer
370
-1
48
1
60
0
100
AcDbLine
10
-2
20
-20
30
0
11
-35.75
21
-20
31
0
39
0
210
0
220
0
230
1
0
LINE
5
14E
100
AcDbEntity
8
SK2
62
256
6
ByLayer
370
-1
48
1
60
0
100
AcDbLine
10
-2
20
20
30
0
11
-35.75
21
20
31
0
39
0
210
0
220
0
230
1
0
LINE
5
14F
100
AcDbEntity
8
SK2
62
256
6
ByLayer
370
-1
48
1
60
0
100
AcDbLine
10
-33.75
20
-20
30
0
11
-33.75
21
20
31
0
39
0
210
0
220
0
230
1
0
LINE
5
150
100
AcDbEntity
8
SK2
62
256
6
ByLayer
370
-1
48
1
60
0
100
AcDbLine
10
-33.75
20
-20
30
0
11
-34.167997
21
-16.825002
31
0
39
0
210
0
220
0
230
1
0
LINE
5
151
100
AcDbEntity
8
SK2
62
256
6
ByLayer
370
-1
48
1
60
0
100
AcDbLine
10
-33.75
20
-20
30
0
11
-33.332003
21
-16.824998
31
0
39
0
210
0
220
0
230
1
0
LINE
5
152
100
AcDbEntity
8
SK2
62
256
6
ByLayer
370
-1
48
1
60
0
100
AcDbLine
10
-34.167997
20
-16.825002
30
0
11
-33.332003
21
-16.824998
31
0
39
0
210
0
220
0
230
1
0
LINE
5
153
100
AcDbEntity
8
SK2
62
256
6
ByLayer
370
-1
48
1
60
0
100
AcDbLine
10
-33.75
20
20
30
0
11
-33.332003
21
16.825002
31
0
39
0
210
0
220
0
230
1
0
LINE
5
154
100
AcDbEntity
8
SK2
62
256
6
ByLayer
370
-1
48
1
60
0
100
AcDbLine
10
-33.75
20
20
30
0
11
-34.167997
21
16.824998
31
0
39
0
210
0
220
0
230
1
0
LINE
5
155
100
AcDbEntity
8
SK2
62
256
6
ByLayer
370
-1
48
1
60
0
100
AcDbLine
10
-33.332003
20
16.825002
30
0
11
-34.167997
21
16.824998
31
0
39
0
210
0
220
0
230
1
0
ENDBLK
5
157
100
AcDbEntity
8
0
100
AcDbBlockEnd
0
BLOCK
5
164
100
AcDbEntity
8
0
100
AcDbBlockBegin
2
DimnDraft3D4
70
0
10
0
20
0
30
0
3
DimnDraft3D4
0
MTEXT
5
15A
100
AcDbEntity
8
2
62
256
6
ByLayer
370
-1
48
1
60
0
100
AcDbMText
10
76.125
20
11.996053
30
0
210
0
220
0
230
1
1
\W01.000;\fsimplex.shx,bigfont.shx;27 
40
4.5
41
0
44
1.084337
50
90
71
7
72
5
7
DEFAULT
0
LINE
5
15B
100
AcDbEntity
8
2
62
256
6
ByLayer
370
-1
48
1
60
0
100
AcDbLine
10
52
20
0
30
0
11
79.25
21
0
31
0
39
0
210
0
220
0
230
1
0
LINE
5
15C
100
AcDbEntity
8
2
62
256
6
ByLayer
370
-1
48
1
60
0
100
AcDbLine
10
52
20
27
30
0
11
79.25
21
27
31
0
39
0
210
0
220
0
230
1
0
LINE
5
15D
100
AcDbEntity
8
2
62
256
6
ByLayer
370
-1
48
1
60
0
100
AcDbLine
10
77.25
20
0
30
0
11
77.25
21
27
31
0
39
0
210
0
220
0
230
1
0
LINE
5
15E
100
AcDbEntity
8
2
62
256
6
ByLayer
370
-1
48
1
60
0
100
AcDbLine
10
77.25
20
0
30
0
11
76.832003
21
3.174998
31
0
39
0
210
0
220
0
230
1
0
LINE
5
15F
100
AcDbEntity
8
2
62
256
6
ByLayer
370
-1
48
1
60
0
100
AcDbLine
10
77.25
20
0
30
0
11
77.667997
21
3.175002
31
0
39
0
210
0
220
0
230
1
0
LINE
5
160
100
AcDbEntity
8
2
62
256
6
ByLayer
370
-1
48
1
60
0
100
AcDbLine
10
76.832003
20
3.174998
30
0
11
77.667997
21
3.175002
31
0
39
0
210
0
220
0
230
1
0
LINE
5
161
100
AcDbEntity
8
2
62
256
6
ByLayer
370
-1
48
1
60
0
100
AcDbLine
10
77.25
20
27
30
0
11
77.667997
21
23.825002
31
0
39
0
210
0
220
0
230
1
0
LINE
5
162
100
AcDbEntity
8
2
62
256
6
ByLayer
370
-1
48
1
60
0
100
AcDbLine
10
77.25
20
27
30
0
11
76.832003
21
23.824998
31
0
39
0
210
0
220
0
230
1
0
LINE
5
163
100
AcDbEntity
8
2
62
256
6
ByLayer
370
-1
48
1
60
0
100
AcDbLine
10
77.667997
20
23.825002
30
0
11
76.832003
21
23.824998
31
0
39
0
210
0
220
0
230
1
0
ENDBLK
5
165
100
AcDbEntity
8
0
100
AcDbBlockEnd
0
ENDSEC
0
SECTION
2
ENTITIES
0
ARC
5
92
100
AcDbEntity
8
SK1
62
256
6
ByLayer
370
-1
48
1
60
0
100
AcDbCircle
39
0
10
0.6
20
-15
30
0
40
0.999999999999989
210
0
220
0
230
-1
100
AcDbArc
50
113.578178
51
126.869898
0
ARC
5
93
100
AcDbEntity
8
SK1
62
256
6
ByLayer
370
-1
48
1
60
0
100
AcDbCircle
39
0
10
0.6
20
15
30
0
40
0.999999999999989
210
0
220
0
230
-1
100
AcDbArc
50
233.130102
51
246.421822
0
ARC
5
94
100
AcDbEntity
8
1
62
256
6
ByLayer
370
-1
48
1
60
0
100
AcDbCircle
39
0
10
-33.873521
20
17.174582
30
0
40
1.5
210
0
220
0
230
-1
100
AcDbArc
50
197.054899
51
229.346036
0
ARC
5
95
100
AcDbEntity
8
1
62
256
6
ByLayer
370
-1
48
1
60
0
100
AcDbCircle
39
0
10
-52.401457
20
16.296135
30
0
40
8.10000000000002
210
0
220
0
230
-1
100
AcDbArc
50
353.852179
51
6.881645
0
ARC
5
96
100
AcDbEntity
8
1
62
256
6
ByLayer
370
-1
48
1
60
0
100
AcDbCircle
39
0
10
38.205692
20
8.817191
30
0
40
1.6
210
0
220
0
230
1
100
AcDbArc
50
351.110771
51
63.5
0
ARC
5
97
100
AcDbEntity
8
1
62
256
6
ByLayer
370
-1
48
1
60
0
100
AcDbCircle
39
0
10
35.678813
20
17.434788
30
0
40
1.625
210
0
220
0
230
1
100
AcDbArc
50
239.364477
51
328
0
ARC
5
98
100
AcDbEntity
8
1
62
256
6
ByLayer
370
-1
48
1
60
0
100
AcDbCircle
39
0
10
35.678813
20
17.434788
30
0
40
1.86
210
0
220
0
230
1
100
AcDbArc
50
236.244109
51
328
0
ARC
5
99
100
AcDbEntity
8
1
62
256
6
ByLayer
370
-1
48
1
60
0
100
AcDbCircle
39
0
10
29.932319
20
16.517823
30
0
40
1.6
210
0
220
0
230
1
100
AcDbArc
50
239.553471
51
243.5
0
ARC
5
9A
100
AcDbEntity
8
1
62
256
6
ByLayer
370
-1
48
1
60
0
100
AcDbCircle
39
0
10
38.205692
20
8.817191
30
0
40
3.2
210
0
220
0
230
1
100
AcDbArc
50
25.794687
51
63.5
0
ARC
5
9B
100
AcDbEntity
8
1
62
256
6
ByLayer
370
-1
48
1
60
0
100
AcDbCircle
39
0
10
33.873521
20
17.174582
30
0
40
1.5
210
0
220
0
230
1
100
AcDbArc
50
78.057679
51
300.965076
0
ARC
5
9C
100
AcDbEntity
8
1
62
256
6
ByLayer
370
-1
48
1
60
0
100
AcDbCircle
39
0
10
-41.800509
20
21.843935
30
0
40
1.67649999999999
210
0
220
0
230
-1
100
AcDbArc
50
89.659887
51
149.5
0
ARC
5
9D
100
AcDbEntity
8
1
62
256
6
ByLayer
370
-1
48
1
60
0
100
AcDbCircle
39
0
10
-44.071243
20
17.988993
30
0
40
0.794000000000003
210
0
220
0
230
-1
100
AcDbArc
50
212
51
267
0
ARC
5
A0
100
AcDbEntity
8
1
62
256
6
ByLayer
370
-1
48
1
60
0
100
AcDbCircle
39
0
10
41.800509
20
21.843935
30
0
40
1.2065
210
0
220
0
230
1
100
AcDbArc
50
60.420057
51
116.544721
0
ARC
5
A1
100
AcDbEntity
8
1
62
256
6
ByLayer
370
-1
48
1
60
0
100
AcDbCircle
39
0
10
-41.800509
20
21.843935
30
0
40
1.67649999999999
210
0
220
0
230
-1
100
AcDbArc
50
329.5
51
29.340113
0
ARC
5
A2
100
AcDbEntity
8
1
62
256
6
ByLayer
370
-1
48
1
60
0
100
AcDbCircle
39
0
10
-39.529774
20
25.698877
30
0
40
0.794000000000003
210
0
220
0
230
-1
100
AcDbArc
50
32
51
87
0
ARC
5
A3
100
AcDbEntity
8
1
62
256
6
ByLayer
370
-1
48
1
60
0
100
AcDbCircle
39
0
10
-41.800509
20
21.843935
30
0
40
1.67649999999999
210
0
220
0
230
-1
100
AcDbArc
50
269.659887
51
329.5
0
ARC
5
A7
100
AcDbEntity
8
1
62
256
6
ByLayer
370
-1
48
1
60
0
100
AcDbCircle
39
0
10
41.800509
20
21.843935
30
0
40
1.2065
210
0
220
0
230
1
100
AcDbArc
50
0.579943
51
60.420057
0
ARC
5
A8
100
AcDbEntity
8
1
62
256
6
ByLayer
370
-1
48
1
60
0
100
AcDbCircle
39
0
10
41.800509
20
21.843935
30
0
40
1.2065
210
0
220
0
230
1
100
AcDbArc
50
240.420057
51
296.544721
0
ARC
5
A9
100
AcDbEntity
8
1
62
256
6
ByLayer
370
-1
48
1
60
0
100
AcDbCircle
39
0
10
-41.800509
20
21.843935
30
0
40
1.67649999999999
210
0
220
0
230
-1
100
AcDbArc
50
149.5
51
209.340113
0
ARC
5
AA
100
AcDbEntity
8
1
62
256
6
ByLayer
370
-1
48
1
60
0
100
AcDbCircle
39
0
10
41.800509
20
21.843935
30
0
40
1.2065
210
0
220
0
230
1
100
AcDbArc
50
180.579943
51
240.420057
0
ARC
5
AB
100
AcDbEntity
8
1
62
256
6
ByLayer
370
-1
48
1
60
0
100
AcDbCircle
39
0
10
-34.395234
20
17.481895
30
0
40
0.793999999999998
210
0
220
0
230
-1
100
AcDbArc
50
267
51
32
0
ARC
5
AC
100
AcDbEntity
8
1
62
256
6
ByLayer
370
-1
48
1
60
0
100
AcDbCircle
39
0
10
-49.205783
20
26.205975
30
0
40
0.793999999999998
210
0
220
0
230
-1
100
AcDbArc
50
87
51
212
0
ARC
5
AD
100
AcDbEntity
8
1
62
256
6
ByLayer
370
-1
48
1
60
0
100
AcDbCircle
39
0
10
41.800509
20
21.843935
30
0
40
1.2065
210
0
220
0
230
1
100
AcDbArc
50
124.455279
51
180.579943
0
ARC
5
AE
100
AcDbEntity
8
1
62
256
6
ByLayer
370
-1
48
1
60
0
100
AcDbCircle
39
0
10
-41.800509
20
21.843935
30
0
40
1.2065
210
0
220
0
230
-1
100
AcDbArc
50
235.544721
51
243.455279
0
ARC
5
AF
100
AcDbEntity
8
1
62
256
6
ByLayer
370
-1
48
1
60
0
100
AcDbCircle
39
0
10
-41.800509
20
21.843935
30
0
40
1.2065
210
0
220
0
230
-1
100
AcDbArc
50
55.544721
51
63.455279
0
ARC
5
B0
100
AcDbEntity
8
1
62
256
6
ByLayer
370
-1
48
1
60
0
100
AcDbCircle
39
0
10
-41.800509
20
21.843935
30
0
40
1.67649999999999
210
0
220
0
230
-1
100
AcDbArc
50
209.340113
51
269.659887
0
ARC
5
B1
100
AcDbEntity
8
1
62
256
6
ByLayer
370
-1
48
1
60
0
100
AcDbCircle
39
0
10
41.800509
20
21.843935
30
0
40
1.2065
210
0
220
0
230
1
100
AcDbArc
50
304.455279
51
0.579943
0
ARC
5
B2
100
AcDbEntity
8
1
62
256
6
ByLayer
370
-1
48
1
60
0
100
AcDbCircle
39
0
10
-41.800509
20
21.843935
30
0
40
1.67649999999999
210
0
220
0
230
-1
100
AcDbArc
50
29.340113
51
89.659887
0
CIRCLE
5
9E
100
AcDbEntity
8
1
62
256
6
ByLayer
370
-1
48
1
60
0
100
AcDbCircle
10
-41.800509
20
21.843935
30
0
40
3
39
0
210
0
220
0
230
-1
0
CIRCLE
5
9F
100
AcDbEntity
8
1
62
256
6
ByLayer
370
-1
48
1
60
0
100
AcDbCircle
10
-41.800509
20
21.843935
30
0
40
2.625
39
0
210
0
220
0
230
-1
0
CIRCLE
5
A4
100
AcDbEntity
8
1
62
256
6
ByLayer
370
-1
48
1
60
0
100
AcDbCircle
10
-41.800509
20
21.843935
30
0
40
3.07132534818238
39
0
210
0
220
0
230
-1
0
CIRCLE
5
A5
100
AcDbEntity
8
1
62
256
6
ByLayer
370
-1
48
1
60
0
100
AcDbCircle
10
-41.800509
20
21.843935
30
0
40
2.94486584643912
39
0
210
0
220
0
230
-1
0
CIRCLE
5
A6
100
AcDbEntity
8
1
62
256
6
ByLayer
370
-1
48
1
60
0
100
AcDbCircle
10
-41.800509
20
21.843935
30
0
40
1.79999999999999
39
0
210
0
220
0
230
-1
0
ELLIPSE
5
B3
100
AcDbEntity
8
1
62
256
6
ByLayer
370
-1
48
1
60
0
100
AcDbEllipse
10
16.948929
20
0
30
0
11
-9.36741787978159
21
-19.7417491527496
31
0
210
0
220
0
230
1
40
0.341999
41
-1.09631952749992
42
-0.152726244898348
0
ELLIPSE
5
B4
100
AcDbEntity
8
1
62
256
6
ByLayer
370
-1
48
1
60
0
100
AcDbEllipse
10
16.948929
20
0
30
0
11
-9.36741787978248
21
19.7417491527508
31
0
210
0
220
0
230
1
40
0.341999
41
0.152726244898341
42
1.09631952749988
0
ELLIPSE
5
B5
100
AcDbEntity
8
1
62
256
6
ByLayer
370
-1
48
1
60
0
100
AcDbEllipse
10
-0.948929
20
0
30
0
11
-9.3674178797817
21
-19.7417491527498
31
0
210
0
220
0
230
1
40
0.341999
41
2.04527312608988
42
2.98886640869144
0
ELLIPSE
5
B6
100
AcDbEntity
8
1
62
256
6
ByLayer
370
-1
48
1
60
0
100
AcDbEllipse
10
-0.948929
20
0
30
0
11
-9.36741787978243
21
19.7417491527508
31
0
210
0
220
0
230
1
40
0.341999
41
-2.98886640869145
42
-2.04527312608992
0
POINT
5
41
100
AcDbEntity
8
81
62
256
6
ByLayer
370
-1
48
1
60
0
100
AcDbPoint
10
50
20
27
30
0
39
0
210
0
220
0
230
1
50
360
0
POINT
5
43
100
AcDbEntity
8
SK2
62
256
6
ByLayer
370
-1
48
1
60
0
100
AcDbPoint
10
50
20
27
30
0
39
0
210
0
220
0
230
1
50
360
0
POINT
5
45
100
AcDbEntity
8
SK2
62
256
6
ByLayer
370
-1
48
1
60
0
100
AcDbPoint
10
50
20
27
30
0
39
0
210
0
220
0
230
1
50
360
0
POINT
5
46
100
AcDbEntity
8
SK2
62
256
6
ByLayer
370
-1
48
1
60
0
100
AcDbPoint
10
23.60083
20
0
30
0
39
0
210
0
220
0
230
1
50
360
0
POINT
5
47
100
AcDbEntity
8
SK2
62
256
6
ByLayer
370
-1
48
1
60
0
100
AcDbPoint
10
100
20
77
30
0
39
0
210
0
220
0
230
1
50
360
0
POINT
5
48
100
AcDbEntity
8
2
62
256
6
ByLayer
370
-1
48
1
60
0
100
AcDbPoint
10
50
20
27
30
0
39
0
210
0
220
0
230
1
50
360
0
POINT
5
4A
100
AcDbEntity
8
SK2
62
256
6
ByLayer
370
-1
48
1
60
0
100
AcDbPoint
10
100
20
77
30
0
39
0
210
0
220
0
230
1
50
360
0
POINT
5
4B
100
AcDbEntity
8
80
62
256
6
ByLayer
370
-1
48
1
60
0
100
AcDbPoint
10
0
20
0
30
0
39
0
210
0
220
0
230
1
50
360
0
POINT
5
4D
100
AcDbEntity
8
SK2
62
256
6
ByLayer
370
-1
48
1
60
0
100
AcDbPoint
10
50
20
27
30
0
39
0
210
0
220
0
230
1
50
360
0
POINT
5
4E
100
AcDbEntity
8
SK2
62
256
6
ByLayer
370
-1
48
1
60
0
100
AcDbPoint
10
50
20
27
30
0
39
0
210
0
220
0
230
1
50
360
0
SPLINE
5
B7
100
AcDbEntity
8
SK1
62
256
6
ByLayer
370
-1
48
1
60
0
100
AcDbSpline
70
4
71
2
72
6
73
3
40
0
40
0
40
0
40
1
40
1
40
1
41
1
10
-22.5
20
-13.4933966698402
30
0
41
1
10
-12.0999999999449
20
-13.7545973909208
30
0
41
1
10
-1.7
20
-14.0157977997179
30
0
0
SPLINE
5
B8
100
AcDbEntity
8
SK1
62
256
6
ByLayer
370
-1
48
1
60
0
100
AcDbSpline
70
4
71
2
72
6
73
3
40
0
40
0
40
0
40
1
40
1
40
1
41
1
10
-1.7
20
14.0157970602974
30
0
41
1
10
-12.099999999963
20
13.7545958471854
30
0
41
1
10
-22.5
20
13.493394380475
30
0
0
SPLINE
5
B9
100
AcDbEntity
8
SK1
62
256
6
ByLayer
370
-1
48
1
60
0
100
AcDbSpline
70
4
71
3
72
13
73
9
40
0
40
0
40
0
40
0
40
0.23945613699745
40
0.36835972341717
40
0.499998985516726
40
0.631638416576566
40
0.76054246870241
40
1
40
1
40
1
40
1
41
1
10
-1.7
20
-14.0200984156386
30
0
41
1
10
-1.6990919864528
20
-13.9940409390257
30
0
41
1
10
-1.69103284110332
20
-13.9566683539303
30
0
41
1
10
-1.66563592205635
20
-13.9104491790265
30
0
41
1
10
-1.63886378681673
20
-13.8791676243503
30
0
41
1
10
-1.60627712752266
20
-13.8540002532836
30
0
41
1
10
-1.5588406423667
20
-13.830956449625
30
0
41
1
10
-1.52111030874428
20
-13.8247841935567
30
0
41
1
10
-1.4950399779393
20
-13.8251858327438
30
0
0
SPLINE
5
BA
100
AcDbEntity
8
SK1
62
256
6
ByLayer
370
-1
48
1
60
0
100
AcDbSpline
70
4
71
3
72
13
73
9
40
0
40
0
40
0
40
0
40
0.239457531274812
40
0.368361583394194
40
0.50000101445229
40
0.631640276555059
40
0.760543862982142
40
1
40
1
40
1
40
1
41
1
10
-1.4950399779393
20
13.8251858293361
30
0
41
1
10
-1.52111030874489
20
13.8247841901529
30
0
41
1
10
-1.55884064236791
20
13.8309564462263
30
0
41
1
10
-1.60627712752329
20
13.8540002498915
30
0
41
1
10
-1.63886378681727
20
13.8791676209635
30
0
41
1
10
-1.66563592205675
20
13.9104491756451
30
0
41
1
10
-1.69103284110358
20
13.9566683505561
30
0
41
1
10
-1.69909198645307
20
13.9940409356568
30
0
41
1
10
-1.7
20
14.0200984122732
30
0
0
SPLINE
5
BB
100
AcDbEntity
8
SK1
62
256
6
ByLayer
370
-1
48
1
60
0
100
AcDbSpline
70
4
71
2
72
6
73
3
40
0
40
0
40
0
40
1
40
1
40
1
41
1
10
-24
20
-12.6310964932104
30
0
41
1
10
-23.2499999989322
20
-13.0640911753538
30
0
41
1
10
-22.5
20
-13.4970856697526
30
0
0
SPLINE
5
BC
100
AcDbEntity
8
SK1
62
256
6
ByLayer
370
-1
48
1
60
0
100
AcDbSpline
70
4
71
2
72
6
73
3
40
0
40
0
40
0
40
1
40
1
40
1
41
1
10
-22.5
20
13.4970852847173
30
0
41
1
10
-23.2499999989318
20
13.0640908004416
30
0
41
1
10
-24
20
12.6310961283886
30
0
0
SPLINE
5
BD
100
AcDbEntity
8
SK1
62
256
6
ByLayer
370
-1
48
1
60
0
100
AcDbSpline
70
4
71
2
72
6
73
3
40
0
40
0
40
0
40
1
40
1
40
1
41
1
10
-1.4950399779393
20
-13.7129410868425
30
0
41
1
10
-0.945008433407295
20
-13.7266599565288
30
0
41
1
10
-0.394976888875291
20
-13.7403788260786
30
0
0
SPLINE
5
BE
100
AcDbEntity
8
SK1
62
256
6
ByLayer
370
-1
48
1
60
0
100
AcDbSpline
70
4
71
2
72
6
73
3
40
0
40
0
40
0
40
1
40
1
40
1
41
1
10
-0.394976888875291
20
13.740379899128
30
0
41
1
10
-0.945008433407295
20
13.7266611372792
30
0
41
1
10
-1.4950399779393
20
13.7129423752897
30
0
0
SPLINE
5
BF
100
AcDbEntity
8
1
62
256
6
ByLayer
370
-1
48
1
60
0
100
AcDbSpline
70
4
71
3
72
8
73
4
40
0
40
0
40
0
40
0
40
1
40
1
40
1
40
1
41
1
10
21.0145745973509
20
17.7157112853208
30
0
41
1
10
20.9829344294339
20
17.5600138143263
30
0
41
1
10
20.9516646563597
20
17.4044416608566
30
0
41
1
10
20.92079238
20
17.2489979836687
30
0
0
SPLINE
5
C0
100
AcDbEntity
8
1
62
256
6
ByLayer
370
-1
48
1
60
0
100
AcDbSpline
70
4
71
3
72
8
73
4
40
0
40
0
40
0
40
0
40
1
40
1
40
1
40
1
41
1
10
20.9119475993503
20
19.9639675415484
30
0
41
1
10
20.9046126430198
20
19.9682789457095
30
0
41
1
10
20.9076461149518
20
19.9722944358558
30
0
41
1
10
20.92079238
20
19.9757881388486
30
0
0
SPLINE
5
C1
100
AcDbEntity
8
1
62
256
6
ByLayer
370
-1
48
1
60
0
100
AcDbSpline
70
4
71
3
72
16
73
12
40
0
40
0
40
0
40
0
40
0.46430426715929
40
0.46430426715929
40
0.647533485141967
40
0.647533485141967
40
0.833383675860504
40
0.833383675860504
40
0.950238074309844
40
0.950238074309844
40
1
40
1
40
1
40
1
41
1
10
6.66339745962155
20
6.16973001948568
30
0
41
1
10
6.68070356543041
20
6.10699311212741
30
0
41
1
10
6.70445583204739
20
6.04466199750289
30
0
41
1
10
6.7533270655271
20
5.96658891111872
30
0
41
1
10
6.76920288341026
20
5.94525308185362
30
0
41
1
10
6.80605435144609
20
5.90694983484818
30
0
41
1
10
6.82759190740043
20
5.88959453036586
30
0
41
1
10
6.86713065155233
20
5.86981268651903
30
0
41
1
10
6.8838647446556
20
5.8641686994944
30
0
41
1
10
6.90829201976607
20
5.86046107106307
30
0
41
1
10
6.9157596768885
20
5.85988980456935
30
0
41
1
10
6.92320508075689
20
5.85988980456935
30
0
0
SPLINE
5
C2
100
AcDbEntity
8
1
62
256
6
ByLayer
370
-1
48
1
60
0
100
AcDbSpline
70
4
71
3
72
16
73
12
40
0
40
0
40
0
40
0
40
0.464304267159293
40
0.464304267159293
40
0.647533485141969
40
0.647533485141969
40
0.833383675860506
40
0.833383675860506
40
0.950238074309852
40
0.950238074309852
40
1
40
1
40
1
40
1
41
1
10
6.66339745962155
20
-19.0245744101322
30
0
41
1
10
6.68070356543041
20
-19.0449201888242
30
0
41
1
10
6.70445583204739
20
-19.0647708693882
30
0
41
1
10
6.7533270655271
20
-19.0892734034403
30
0
41
1
10
6.76920288341026
20
-19.0959253431035
30
0
41
1
10
6.80605435144609
20
-19.1078085849622
30
0
41
1
10
6.82759190740043
20
-19.1131587398644
30
0
41
1
10
6.86713065155233
20
-19.1192406569511
30
0
41
1
10
6.8838647446556
20
-19.1209710216544
30
0
41
1
10
6.90829201976607
20
-19.1221075563677
30
0
41
1
10
6.9157596768885
20
-19.1222825906926
30
0
41
1
10
6.92320508075689
20
-19.1222825906926
30
0
0
SPLINE
5
C3
100
AcDbEntity
8
1
62
256
6
ByLayer
370
-1
48
1
60
0
100
AcDbSpline
70
4
71
3
72
16
73
12
40
0
40
0
40
0
40
0
40
0.114691258188368
40
0.114691258188368
40
0.256006982052502
40
0.256006982052502
40
0.47848150969846
40
0.47848150969846
40
0.904237458570168
40
0.904237458570168
40
1
40
1
40
1
40
1
41
1
10
6.92320508075689
20
-5.85988980456938
30
0
41
1
10
6.90623920058412
20
-5.85988980456938
30
0
41
1
10
6.8890625321241
20
-5.8629683550426
30
0
41
1
10
6.85346109846185
20
-5.87527238052311
30
0
41
1
10
6.83507168736791
20
-5.88582364044447
30
0
41
1
10
6.79305201772168
20
-5.91775860341622
30
0
41
1
10
6.77140364934787
20
-5.94228809980598
30
0
41
1
10
6.71814486104419
20
-6.01773563791645
30
0
41
1
10
6.69359399943792
20
-6.07398601286491
30
0
41
1
10
6.67087946572558
20
-6.14371014971229
30
0
41
1
10
6.66699503410796
20
-6.15668833929709
30
0
41
1
10
6.66339745962154
20
-6.16973001948568
30
0
0
SPLINE
5
C4
100
AcDbEntity
8
1
62
256
6
ByLayer
370
-1
48
1
60
0
100
AcDbSpline
70
4
71
3
72
10
73
6
40
0
40
0
40
0
40
0
40
0.5
40
0.5
40
1
40
1
40
1
40
1
41
1
10
25.4023765998664
20
22.9972100566571
30
0
41
1
10
26.0677053094997
20
23.5555715731571
30
0
41
1
10
26.7634612029551
20
24.0659140481931
30
0
41
1
10
28.2142220654667
20
24.9930943270933
30
0
41
1
10
28.9692277828234
20
25.4099309500175
30
0
41
1
10
29.7545697535375
20
25.7788920345304
30
0
0
SPLINE
5
C5
100
AcDbEntity
8
1
62
256
6
ByLayer
370
-1
48
1
60
0
100
AcDbSpline
70
4
71
3
72
10
73
6
40
0
40
0
40
0
40
0
40
0.546998917151079
40
0.546998917151079
40
1
40
1
40
1
40
1
41
1
10
21.024801113738
20
20.3878323988343
30
0
41
1
10
20.9931857551966
20
20.2691045287424
30
0
41
1
10
20.9670952368595
20
20.1695740756313
30
0
41
1
10
20.9341665962379
20
20.0384028759534
30
0
41
1
10
20.9244786397544
20
19.9967693868106
30
0
41
1
10
20.92079238
20
19.9757881388486
30
0
0
SPLINE
5
C6
100
AcDbEntity
8
1
62
256
6
ByLayer
370
-1
48
1
60
0
100
AcDbSpline
70
4
71
3
72
16
73
12
40
0
40
0
40
0
40
0
40
0.266410447241112
40
0.266410447241112
40
0.492429033927135
40
0.492429033927135
40
0.707797430965119
40
0.707797430965119
40
0.960902937883124
40
0.960902937883124
40
1
40
1
40
1
40
1
41
1
10
33.9207257975167
20
12.7414365565363
30
0
41
1
10
33.7363494896015
20
12.8333631926235
30
0
41
1
10
33.5334445767605
20
12.9681151395675
30
0
41
1
10
33.1266557393321
20
13.2181383847002
30
0
41
1
10
32.921383021885
20
13.3352924011622
30
0
41
1
10
32.5145955324024
20
13.5355067565034
30
0
41
1
10
32.3092043893064
20
13.6230028663801
30
0
41
1
10
31.8813193040748
20
13.7954271183421
30
0
41
1
10
31.6552891726984
20
13.8802538218681
30
0
41
1
10
31.4308340084516
20
13.9835044149056
30
0
41
1
10
31.4011952331458
20
13.99762815686
30
0
41
1
10
31.3724594610439
20
14.0119552843232
30
0
0
SPLINE
5
C7
100
AcDbEntity
8
1
62
256
6
ByLayer
370
-1
48
1
60
0
100
AcDbSpline
70
4
71
3
72
8
73
4
40
0
40
0
40
0
40
0
40
1
40
1
40
1
40
1
41
1
10
34.8507540828674
20
16.0365950449145
30
0
41
1
10
34.7879917940171
20
15.9826986370752
30
0
41
1
10
34.7195491432897
20
15.9329160431142
30
0
41
1
10
34.6452937719114
20
15.8883604948292
30
0
0
SPLINE
5
C8
100
AcDbEntity
8
1
62
256
6
ByLayer
370
-1
48
1
60
0
100
AcDbSpline
70
4
71
3
72
12
73
8
40
0
40
0
40
0
40
0
40
0.181035749336067
40
0.181035749336067
40
0.634044759400508
40
0.634044759400508
40
1
40
1
40
1
40
1
41
1
10
23.2596810273136
20
-18.3197561515603
30
0
41
1
10
23.0979982676283
20
-18.3052204610035
30
0
41
1
10
22.9382590081389
20
-18.2858168166579
30
0
41
1
10
22.3949113013475
20
-18.201536589476
30
0
41
1
10
22.0262058687472
20
-18.1102537094776
30
0
41
1
10
21.4414808571673
20
-17.8960265437553
30
0
41
1
10
21.2046191083206
20
-17.7806420836653
30
0
41
1
10
21.0011771377293
20
-17.6496818012683
30
0
0
SPLINE
5
C9
100
AcDbEntity
8
1
62
256
6
ByLayer
370
-1
48
1
60
0
100
AcDbSpline
70
4
71
3
72
8
73
4
40
0
40
0
40
0
40
0
40
1
40
1
40
1
40
1
41
1
10
21.0145745973509
20
18.7115605976626
30
0
41
1
10
21.0145745973509
20
18.8084226834596
30
0
41
1
10
21.0179912049897
20
18.912759198218
30
0
41
1
10
21.0248011137382
20
19.0245611145089
30
0
0
SPLINE
5
CA
100
AcDbEntity
8
1
62
256
6
ByLayer
370
-1
48
1
60
0
100
AcDbSpline
70
4
71
3
72
16
73
12
40
0
40
0
40
0
40
0
40
0.114691258188364
40
0.114691258188364
40
0.256006982052491
40
0.256006982052491
40
0.478481509698431
40
0.478481509698431
40
0.904237458570125
40
0.904237458570125
40
1
40
1
40
1
40
1
41
1
10
9.07679491924311
20
5.85988980456938
30
0
41
1
10
9.09376079941588
20
5.85988980456938
30
0
41
1
10
9.1109374678759
20
5.8629683550426
30
0
41
1
10
9.14653890153815
20
5.87527238052311
30
0
41
1
10
9.16492831263209
20
5.88582364044447
30
0
41
1
10
9.20694798227832
20
5.91775860341619
30
0
41
1
10
9.22859635065211
20
5.94228809980598
30
0
41
1
10
9.28185513895581
20
6.01773563791645
30
0
41
1
10
9.30640600056206
20
6.07398601286488
30
0
41
1
10
9.32912053427441
20
6.14371014971229
30
0
41
1
10
9.33300496589204
20
6.15668833929709
30
0
41
1
10
9.33660254037846
20
6.16973001948568
30
0
0
SPLINE
5
CB
100
AcDbEntity
8
1
62
256
6
ByLayer
370
-1
48
1
60
0
100
AcDbSpline
70
4
71
3
72
12
73
8
40
0
40
0
40
0
40
0
40
0.269777565285678
40
0.269777565285678
40
0.678112449974122
40
0.678112449974122
40
1
40
1
40
1
40
1
41
1
10
23.5773021631815
20
18.397302351012
30
0
41
1
10
23.3069541565259
20
18.3837187210676
30
0
41
1
10
23.0385853496981
20
18.3568436407893
30
0
41
1
10
22.3941869714145
20
18.2571406602662
30
0
41
1
10
22.0253075239153
20
18.166042353317
30
0
41
1
10
21.4465730247257
20
17.9545087189967
30
0
41
1
10
21.2146873347254
20
17.8425589865676
30
0
41
1
10
21.0145745973509
20
17.7157112853208
30
0
0
SPLINE
5
CC
100
AcDbEntity
8
1
62
256
6
ByLayer
370
-1
48
1
60
0
100
AcDbSpline
70
4
71
3
72
8
73
4
40
0
40
0
40
0
40
0
40
1
40
1
40
1
40
1
41
1
10
20.92079238
20
-17.2489979836687
30
0
41
1
10
20.9472999679722
20
-17.3824652051905
30
0
41
1
10
20.9741006446305
20
-17.5160271553918
30
0
41
1
10
21.0011771377293
20
-17.6496818012683
30
0
0
SPLINE
5
CD
100
AcDbEntity
8
1
62
256
6
ByLayer
370
-1
48
1
60
0
100
AcDbSpline
70
4
71
3
72
10
73
6
40
0
40
0
40
0
40
0
40
0.5
40
0.5
40
1
40
1
40
1
40
1
41
1
10
23.8567256581192
20
21.7000470264388
30
0
41
1
10
23.6585399604187
20
21.5337212306498
30
0
41
1
10
23.4495736683108
20
21.3801003324681
30
0
41
1
10
23.0094780901589
20
21.0989775568186
30
0
41
1
10
22.7788938803366
20
20.9721019461405
30
0
41
1
10
22.5424856575885
20
20.8614836960106
30
0
0
SPLINE
5
CE
100
AcDbEntity
8
1
62
256
6
ByLayer
370
-1
48
1
60
0
100
AcDbSpline
70
4
71
3
72
16
73
12
40
0
40
0
40
0
40
0
40
0.229373410813257
40
0.229373410813257
40
0.45947480062516
40
0.45947480062516
40
0.675210318018721
40
0.675210318018721
40
0.902869499641535
40
0.902869499641535
40
1
40
1
40
1
40
1
41
1
10
37.9978640567453
20
10.7086504069939
30
0
41
1
10
37.8473973230989
20
10.7836703530139
30
0
41
1
10
37.6839302671768
20
10.8883000753489
30
0
41
1
10
37.3332802217258
20
11.1071798465169
30
0
41
1
10
37.1399056040216
20
11.2236168470783
30
0
41
1
10
36.7541420542624
20
11.4231742979241
30
0
41
1
10
36.5581412921602
20
11.5104902417953
30
0
41
1
10
36.1705108134903
20
11.6686539054269
30
0
41
1
10
35.9747088386237
20
11.7411608647176
30
0
41
1
10
35.7256602434862
20
11.845429392378
30
0
41
1
10
35.6542009355251
20
11.8771577347074
30
0
41
1
10
35.5881873823584
20
11.9100708781985
30
0
0
SPLINE
5
CF
100
AcDbEntity
8
1
62
256
6
ByLayer
370
-1
48
1
60
0
100
AcDbSpline
70
4
71
3
72
8
73
4
40
0
40
0
40
0
40
0
40
1
40
1
40
1
40
1
41
1
10
21.024801113738
20
19.8976335254216
30
0
41
1
10
21.2285879533582
20
19.7778499318034
30
0
41
1
10
21.4620948545347
20
19.640597222994
30
0
41
1
10
21.7115603435879
20
19.4939642371829
30
0
0
SPLINE
5
D0
100
AcDbEntity
8
1
62
256
6
ByLayer
370
-1
48
1
60
0
100
AcDbSpline
70
4
71
3
72
10
73
6
40
0
40
0
40
0
40
0
40
0.476653924373622
40
0.476653924373622
40
1
40
1
40
1
40
1
41
1
10
21.024801113738
20
20.3878323988343
30
0
41
1
10
21.2417935855677
20
20.426337923863
30
0
41
1
10
21.4831687007503
20
20.4801405986643
30
0
41
1
10
21.9951935128151
20
20.6319108115655
30
0
41
1
10
22.2755206894283
20
20.7365675772708
30
0
41
1
10
22.542485657589
20
20.8614836960109
30
0
0
SPLINE
5
D1
100
AcDbEntity
8
1
62
256
6
ByLayer
370
-1
48
1
60
0
100
AcDbSpline
70
4
71
3
72
16
73
12
40
0
40
0
40
0
40
0
40
0.114691258188362
40
0.114691258188362
40
0.256006982052503
40
0.256006982052503
40
0.47848150969845
40
0.47848150969845
40
0.904237458570186
40
0.904237458570186
40
1
40
1
40
1
40
1
41
1
10
9.07679491924311
20
-19.1222825906926
30
0
41
1
10
9.09376079941588
20
-19.1222825906926
30
0
41
1
10
9.1109374678759
20
-19.1213397893258
30
0
41
1
10
9.14653890153815
20
-19.117563257367
30
0
41
1
10
9.16492831263209
20
-19.1143205262483
30
0
41
1
10
9.20694798227832
20
-19.1044641374228
30
0
41
1
10
9.22859635065213
20
-19.0968571256395
30
0
41
1
10
9.28185513895581
20
-19.0732678361841
30
0
41
1
10
9.30640600056208
20
-19.0554522237109
30
0
41
1
10
9.32912053427442
20
-19.0329978954363
30
0
41
1
10
9.33300496589204
20
-19.0288038685174
30
0
41
1
10
9.33660254037846
20
-19.0245744101322
30
0
0
SPLINE
5
D2
100
AcDbEntity
8
1
62
256
6
ByLayer
370
-1
48
1
60
0
100
AcDbSpline
70
4
71
3
72
8
73
4
40
0
40
0
40
0
40
0
40
1
40
1
40
1
40
1
41
1
10
20.92079238
20
-17.2489979836687
30
0
41
1
10
20.2740755798082
20
-16.7912580388214
30
0
41
1
10
20
20
-16.1722518144995
30
0
41
1
10
20
20
-15.4699554826023
30
0
0
SPLINE
5
D3
100
AcDbEntity
8
1
62
256
6
ByLayer
370
-1
48
1
60
0
100
AcDbSpline
70
4
71
3
72
8
73
4
40
0
40
0
40
0
40
0
40
1
40
1
40
1
40
1
41
1
10
20
20
15.4699554826023
30
0
41
1
10
20
20
16.1723819962709
30
0
41
1
10
20.27373597597
20
16.7910176704838
30
0
41
1
10
20.92079238
20
17.2489979836687
30
0
0
SPLINE
5
D4
100
AcDbEntity
8
1
62
256
6
ByLayer
370
-1
48
1
60
0
100
AcDbSpline
70
4
71
3
72
8
73
4
40
0
40
0
40
0
40
0
40
1
40
1
40
1
40
1
41
1
10
21.024801113738
20
19.8976335254216
30
0
41
1
10
20.9714833510302
20
19.9289731017786
30
0
41
1
10
20.9364638990635
20
19.9495571385639
30
0
41
1
10
20.92079238
20
19.9587686797723
30
0
0
SPLINE
5
D5
100
AcDbEntity
8
1
62
256
6
ByLayer
370
-1
48
1
60
0
100
AcDbSpline
70
4
71
3
72
8
73
4
40
0
40
0
40
0
40
0
40
1
40
1
40
1
40
1
41
1
10
21.7115603436026
20
19.4939642371831
30
0
41
1
10
21.4695954581427
20
19.330931160616
30
0
41
1
10
21.2266749805811
20
19.1785033745685
30
0
41
1
10
21.0248011137436
20
19.0245611145088
30
0
0
SPLINE
5
D6
100
AcDbEntity
8
1
62
256
6
ByLayer
370
-1
48
1
60
0
100
AcDbSpline
70
4
71
3
72
16
73
12
40
0
40
0
40
0
40
0
40
0.114691258188364
40
0.114691258188364
40
0.256006982052499
40
0.256006982052499
40
0.478481509698429
40
0.478481509698429
40
0.904237458570111
40
0.904237458570111
40
1
40
1
40
1
40
1
41
1
10
6.92320508075689
20
19.1222825906926
30
0
41
1
10
6.90623920058412
20
19.1222825906926
30
0
41
1
10
6.8890625321241
20
19.1213397893258
30
0
41
1
10
6.85346109846185
20
19.117563257367
30
0
41
1
10
6.83507168736791
20
19.1143205262483
30
0
41
1
10
6.79305201772168
20
19.1044641374228
30
0
41
1
10
6.77140364934789
20
19.0968571256395
30
0
41
1
10
6.71814486104421
20
19.0732678361841
30
0
41
1
10
6.69359399943794
20
19.0554522237109
30
0
41
1
10
6.67087946572559
20
19.0329978954364
30
0
41
1
10
6.66699503410796
20
19.0288038685174
30
0
41
1
10
6.66339745962154
20
19.0245744101322
30
0
0
SPLINE
5
D7
100
AcDbEntity
8
1
62
256
6
ByLayer
370
-1
48
1
60
0
100
AcDbSpline
70
4
71
3
72
8
73
4
40
0
40
0
40
0
40
0
40
1
40
1
40
1
40
1
41
1
10
25.4023765998664
20
22.9972100566571
30
0
41
1
10
24.8871576946793
20
22.5648246732151
30
0
41
1
10
24.3719405990544
20
22.132437133534
30
0
41
1
10
23.8567256581192
20
21.7000470264388
30
0
0
SPLINE
5
D8
100
AcDbEntity
8
1
62
256
6
ByLayer
370
-1
48
1
60
0
100
AcDbSpline
70
4
71
3
72
14
73
10
40
0
40
0
40
0
40
0
40
0.0985258488534768
40
0.0985258488534768
40
0.53345656380164
40
0.53345656380164
40
0.8322234182269
40
0.8322234182269
40
1
40
1
40
1
40
1
41
1
10
41.0868407947079
20
10.2096631789321
30
0
41
1
10
41.0495554202984
20
10.1499941068363
30
0
41
1
10
41.0122340225414
20
10.0902673853338
30
0
41
1
10
40.812390042629
20
9.77045016385887
30
0
41
1
10
40.6515476905012
20
9.51304859401665
30
0
41
1
10
40.3979984135868
20
9.10728493135707
30
0
41
1
10
40.2981392377005
20
8.94747684414469
30
0
41
1
10
40.1460680128369
20
8.70411201212187
30
0
41
1
10
40.0920271350706
20
8.61762852945287
30
0
41
1
10
40.0376839622295
20
8.53066127353759
30
0
0
SPLINE
5
D9
100
AcDbEntity
8
1
62
256
6
ByLayer
370
-1
48
1
60
0
100
AcDbSpline
70
4
71
3
72
16
73
12
40
0
40
0
40
0
40
0
40
0.464304267159304
40
0.464304267159304
40
0.647533485141974
40
0.647533485141974
40
0.833383675860505
40
0.833383675860505
40
0.950238074309851
40
0.950238074309851
40
1
40
1
40
1
40
1
41
1
10
9.33660254037845
20
-6.16973001948568
30
0
41
1
10
9.31929643456959
20
-6.10699311212741
30
0
41
1
10
9.29554416795261
20
-6.04466199750289
30
0
41
1
10
9.2466729344729
20
-5.96658891111872
30
0
41
1
10
9.23079711658974
20
-5.94525308185362
30
0
41
1
10
9.19394564855391
20
-5.90694983484818
30
0
41
1
10
9.17240809259957
20
-5.88959453036583
30
0
41
1
10
9.13286934844767
20
-5.86981268651903
30
0
41
1
10
9.1161352553444
20
-5.86416869949437
30
0
41
1
10
9.09170798023393
20
-5.86046107106307
30
0
41
1
10
9.0842403231115
20
-5.85988980456935
30
0
41
1
10
9.07679491924311
20
-5.85988980456935
30
0
0
SPLINE
5
DA
100
AcDbEntity
8
1
62
256
6
ByLayer
370
-1
48
1
60
0
100
AcDbSpline
70
4
71
3
72
16
73
12
40
0
40
0
40
0
40
0
40
0.464304267159312
40
0.464304267159312
40
0.64753348514198
40
0.64753348514198
40
0.833383675860513
40
0.833383675860513
40
0.950238074309858
40
0.950238074309858
40
1
40
1
40
1
40
1
41
1
10
9.33660254037845
20
19.0245744101322
30
0
41
1
10
9.31929643456959
20
19.0449201888242
30
0
41
1
10
9.29554416795261
20
19.0647708693882
30
0
41
1
10
9.2466729344729
20
19.0892734034403
30
0
41
1
10
9.23079711658974
20
19.0959253431035
30
0
41
1
10
9.19394564855391
20
19.1078085849622
30
0
41
1
10
9.17240809259957
20
19.1131587398644
30
0
41
1
10
9.13286934844767
20
19.1192406569511
30
0
41
1
10
9.1161352553444
20
19.1209710216544
30
0
41
1
10
9.09170798023393
20
19.1221075563677
30
0
41
1
10
9.0842403231115
20
19.1222825906926
30
0
41
1
10
9.07679491924311
20
19.1222825906926
30
0
0
SPLINE
5
DB
100
AcDbEntity
8
SK1
62
256
6
ByLayer
370
-1
48
1
60
0
100
AcDbSpline
70
4
71
3
72
24
73
20
40
0
40
0
40
0
40
0
40
0.0014544386996199
40
0.0014544386996199
40
0.361956423060139
40
0.361956423060139
40
0.727731599250313
40
0.727731599250313
40
0.782013304695385
40
0.782013304695385
40
0.837002501937702
40
0.837002501937702
40
0.873144196436436
40
0.873144196436436
40
0.909511909647813
40
0.909511909647813
40
0.952113857168667
40
0.952113857168667
40
1
40
1
40
1
40
1
41
1
10
-0.217773520819847
20
13.9477771104646
30
0
41
1
10
-0.217796303830511
20
13.9477385212397
30
0
41
1
10
-0.217819113763113
20
13.9476999169831
30
0
41
1
10
-0.223510113646839
20
13.9380759054837
30
0
41
1
10
-0.2308695540152
20
13.9275300777214
30
0
41
1
10
-0.252993763945881
20
13.9036085654018
30
0
41
1
10
-0.266169306055218
20
13.8900912648142
30
0
41
1
10
-0.29931321009893
20
13.8713678522793
30
0
41
1
10
-0.304168151080077
20
13.8688119846588
30
0
41
1
10
-0.315233613826862
20
13.8635902765912
30
0
41
1
10
-0.321588767727192
20
13.8608655729355
30
0
41
1
10
-0.333434048045547
20
13.8565368608439
30
0
41
1
10
-0.338587345813778
20
13.8548370746726
30
0
41
1
10
-0.349158334685953
20
13.8517865918864
30
0
41
1
10
-0.354704697438692
20
13.8504050227189
30
0
41
1
10
-0.36619369752195
20
13.847969712967
30
0
41
1
10
-0.372213730133424
20
13.8469665678177
30
0
41
1
10
-0.383950527302631
20
13.8454141457692
30
0
41
1
10
-0.389694590781985
20
13.8449066720063
30
0
41
1
10
-0.394976888882169
20
13.8446015176357
30
0
0
SPLINE
5
DC
100
AcDbEntity
8
SK1
62
256
6
ByLayer
370
-1
48
1
60
0
100
AcDbSpline
70
4
71
3
72
22
73
18
40
0
40
0
40
0
40
0
40
0.0557195764028317
40
0.0557195764028317
40
0.112580416271354
40
0.112580416271354
40
0.151496898629154
40
0.151496898629154
40
0.190204432258571
40
0.190204432258571
40
0.253674977810635
40
0.253674977810635
40
0.379229486612312
40
0.379229486612312
40
0.823820061021183
40
0.823820061021183
40
1
40
1
40
1
40
1
41
1
10
-0.394976888875291
20
-13.8446019297682
30
0
41
1
10
-0.389542940031561
20
-13.8449158599001
30
0
41
1
10
-0.38361759348102
20
-13.8454439659091
30
0
41
1
10
-0.370682577094911
20
-13.8471856765741
30
0
41
1
10
-0.363425095790518
20
-13.8484584409772
30
0
41
1
10
-0.350979043087179
20
-13.8513238322133
30
0
41
1
10
-0.345738104843406
20
-13.8527220431424
30
0
41
1
10
-0.335836036111374
20
-13.8557300394867
30
0
41
1
10
-0.331061234651429
20
-13.8573680363077
30
0
41
1
10
-0.319536857691602
20
-13.8617043765564
30
0
41
1
10
-0.313226439154875
20
-13.8644842406524
30
0
41
1
10
-0.296825865103983
20
-13.8724174982475
30
0
41
1
10
-0.288454852011284
20
-13.8774557840676
30
0
41
1
10
-0.256352537857253
20
-13.8987262995108
30
0
41
1
10
-0.243999907013645
20
-13.9124642192994
30
0
41
1
10
-0.229963428239699
20
-13.9295927568019
30
0
41
1
10
-0.226439280033532
20
-13.9342393022239
30
0
41
1
10
-0.223319935549526
20
-13.9386901109158
30
0
0
SPLINE
5
DD
100
AcDbEntity
8
SK1
62
256
6
ByLayer
370
-1
48
1
60
0
100
AcDbSpline
70
4
71
3
72
118
73
114
40
0
40
0
40
0
40
0
40
0.0076461636851357
40
0.0154178034823601
40
0.0231894432795845
40
0.0309610830768089
40
0.0387327228740333
40
0.0465043626712577
40
0.0542760024684821
40
0.0620476422657065
40
0.0698192820629308
40
0.0775909218601552
40
0.093134201454604
40
0.108677481049053
40
0.124220760643502
40
0.131992400440726
40
0.13976404023795
40
0.147535680035175
40
0.155307319832399
40
0.170850599426848
40
0.178622239224072
40
0.186393879021297
40
0.194165518818521
40
0.201937158615745
40
0.20970879841297
40
0.217480438210194
40
0.233023717804643
40
0.240795357601867
40
0.248566997399092
40
0.256338637196316
40
0.26411027699354
40
0.271881916790765
40
0.279653556587989
40
0.287425196385214
40
0.295196836182438
40
0.310740115776887
40
0.318511755574111
40
0.326283395371335
40
0.341826674965784
40
0.357369954560233
40
0.365141594357458
40
0.372913234154682
40
0.380684873951906
40
0.388456513749131
40
0.396228153546355
40
0.403999793343579
40
0.407885613242192
40
0.411771433140804
40
0.419543072938028
40
0.427314712735253
40
0.435086352532477
40
0.450629632126926
40
0.45840127192415
40
0.466172911721374
40
0.473944551518599
40
0.481716191315823
40
0.489487831113048
40
0.497259470910272
40
0.505031110707496
40
0.512802750504721
40
0.520574390301945
40
0.528346030099169
40
0.543889309693618
40
0.551660949490843
40
0.559432589288067
40
0.563318409186679
40
0.567204229085291
40
0.574975868882516
40
0.590519148476965
40
0.598290788274189
40
0.606062428071413
40
0.621605707665862
40
0.637148987260311
40
0.644920627057535
40
0.65269226685476
40
0.668235546449208
40
0.676007186246433
40
0.683778826043657
40
0.691550465840882
40
0.699322105638106
40
0.70709374543533
40
0.714865385232555
40
0.730408664827004
40
0.745951944421452
40
0.753723584218677
40
0.761495224015901
40
0.769266863813125
40
0.77703850361035
40
0.792581783204799
40
0.808125062799247
40
0.823668342393696
40
0.839211621988145
40
0.846983261785369
40
0.854754901582594
40
0.862526541379818
40
0.870298181177042
40
0.878069820974267
40
0.885841460771491
40
0.893613100568716
40
0.90138474036594
40
0.909156380163164
40
0.916928019960389
40
0.924699659757613
40
0.932471299554838
40
0.940242939352062
40
0.948014579149286
40
0.955786218946511
40
0.963557858743735
40
0.971329498540959
40
0.979101138338184
40
0.986872778135408
40
0.994644417932633
40
1
40
1
40
1
40
1
41
1
10
-1.7
20
14.0157582213473
30
0
41
1
10
-1.7
20
14.0171808698334
30
0
41
1
10
-1.7
20
14.0193350222449
30
0
41
1
10
-1.7
20
14.0204498319149
30
0
41
1
10
-1.7
20
14.0194577493028
30
0
41
1
10
-1.7
20
14.0163929237538
30
0
41
1
10
-1.7
20
14.0112928179987
30
0
41
1
10
-1.7
20
14.0041925984504
30
0
41
1
10
-1.7
20
13.9951252442004
30
0
41
1
10
-1.7
20
13.9841239086368
30
0
41
1
10
-1.7
20
13.9712195253815
30
0
41
1
10
-1.7
20
13.9515178138587
30
0
41
1
10
-1.7
20
13.9222750232465
30
0
41
1
10
-1.7
20
13.8800204120324
30
0
41
1
10
-1.7
20
13.838998019961
30
0
41
1
10
-1.7
20
13.8027899045868
30
0
41
1
10
-1.7
20
13.773955994413
30
0
41
1
10
-1.7
20
13.7434660879001
30
0
41
1
10
-1.7
20
13.7006353174901
30
0
41
1
10
-1.7
20
13.6545611373555
30
0
41
1
10
-1.7
20
13.6053355893185
30
0
41
1
10
-1.7
20
13.5668499361124
30
0
41
1
10
-1.7
20
13.5268172028035
30
0
41
1
10
-1.7
20
13.485252935173
30
0
41
1
10
-1.7
20
13.4421723218484
30
0
41
1
10
-1.7
20
13.3827344162836
30
0
41
1
10
-1.7
20
13.3203101073726
30
0
41
1
10
-1.7
20
13.254979960848
30
0
41
1
10
-1.7
20
13.2045321061977
30
0
41
1
10
-1.7
20
13.1526505121852
30
0
41
1
10
-1.7
20
13.099347414251
30
0
41
1
10
-1.7
20
13.0446338149516
30
0
41
1
10
-1.7
20
12.9885220902628
30
0
41
1
10
-1.7
20
12.9310230723471
30
0
41
1
10
-1.7
20
12.8525264142953
30
0
41
1
10
-1.7
20
12.7712834714132
30
0
41
1
10
-1.7
20
12.6873624197502
30
0
41
1
10
-1.7
20
12.6016598943421
30
0
41
1
10
-1.7
20
12.4912006491746
30
0
41
1
10
-1.7
20
12.3763763558488
30
0
41
1
10
-1.7
20
12.2819406900945
30
0
41
1
10
-1.7
20
12.209824815618
30
0
41
1
10
-1.7
20
12.1364316894724
30
0
41
1
10
-1.7
20
12.0617686582407
30
0
41
1
10
-1.7
20
11.9858436758677
30
0
41
1
10
-1.7
20
11.9215236068653
30
0
41
1
10
-1.7
20
11.8694488081267
30
0
41
1
10
-1.7
20
11.8169591426362
30
0
41
1
10
-1.7
20
11.7505641289662
30
0
41
1
10
-1.7
20
11.6696587742526
30
0
41
1
10
-1.7
20
11.5601529159528
30
0
41
1
10
-1.7
20
11.448182891669
30
0
41
1
10
-1.7
20
11.3338110499831
30
0
41
1
10
-1.7
20
11.2468221792499
30
0
41
1
10
-1.7
20
11.1586337603462
30
0
41
1
10
-1.7
20
11.0692509372408
30
0
41
1
10
-1.7
20
10.9786794422307
30
0
41
1
10
-1.7
20
10.8869237783616
30
0
41
1
10
-1.7
20
10.7939888359847
30
0
41
1
10
-1.7
20
10.6998796425436
30
0
41
1
10
-1.7
20
10.6046008465563
30
0
41
1
10
-1.7
20
10.4760157679139
30
0
41
1
10
-1.7
20
10.3450861470912
30
0
41
1
10
-1.7
20
10.2118742799613
30
0
41
1
10
-1.7
20
10.1276505623382
30
0
41
1
10
-1.7
20
10.0597065749413
30
0
41
1
10
-1.7
20
9.9913814320609
30
0
41
1
10
-1.7
20
9.87081043657869
30
0
41
1
10
-1.7
20
9.73071862052217
30
0
41
1
10
-1.7
20
9.58839008121353
30
0
41
1
10
-1.7
20
9.44455854729449
30
0
41
1
10
-1.7
20
9.26193698423123
30
0
41
1
10
-1.7
20
9.07558727703642
30
0
41
1
10
-1.7
20
8.92429760284432
30
0
41
1
10
-1.7
20
8.77152766795061
30
0
41
1
10
-1.7
20
8.61651162008161
30
0
41
1
10
-1.7
20
8.45931945344486
30
0
41
1
10
-1.7
20
8.34031606829598
30
0
41
1
10
-1.7
20
8.22021379775831
30
0
41
1
10
-1.7
20
8.09901464495698
30
0
41
1
10
-1.7
20
7.9767200242907
30
0
41
1
10
-1.7
20
7.81221411547432
30
0
41
1
10
-1.7
20
7.60382755625838
30
0
41
1
10
-1.7
20
7.39181445781463
30
0
41
1
10
-1.7
20
7.22005470774221
30
0
41
1
10
-1.7
20
7.09014226669851
30
0
41
1
10
-1.7
20
6.95914717066265
30
0
41
1
10
-1.7
20
6.7830583657493
30
0
41
1
10
-1.7
20
6.56021848903171
30
0
41
1
10
-1.7
20
6.28851700104784
30
0
41
1
10
-1.7
20
6.01251447744062
30
0
41
1
10
-1.7
20
5.77892152059965
30
0
41
1
10
-1.7
20
5.58993216915877
30
0
41
1
10
-1.7
20
5.44710899667646
30
0
41
1
10
-1.7
20
5.30321729486519
30
0
41
1
10
-1.7
20
5.15825857839869
30
0
41
1
10
-1.7
20
5.01223405348068
30
0
41
1
10
-1.7
20
4.86514556778678
30
0
41
1
10
-1.7
20
4.71699468615466
30
0
41
1
10
-1.7
20
4.56778337246482
30
0
41
1
10
-1.7
20
4.41751381174834
30
0
41
1
10
-1.7
20
4.26618872973953
30
0
41
1
10
-1.7
20
4.11381092681606
30
0
41
1
10
-1.7
20
3.96038358832212
30
0
41
1
10
-1.7
20
3.80591077742719
30
0
41
1
10
-1.7
20
3.65039714326571
30
0
41
1
10
-1.7
20
3.49384789900154
30
0
41
1
10
-1.7
20
3.33626943234705
30
0
41
1
10
-1.7
20
3.17766893265431
30
0
41
1
10
-1.7
20
3.01805527431182
30
0
41
1
10
-1.7
20
2.85743846779499
30
0
41
1
10
-1.7
20
2.71257747642741
30
0
41
1
10
-1.7
20
2.62111404232408
30
0
41
1
10
-1.7
20
2.58372509632827
30
0
0
SPLINE
5
DE
100
AcDbEntity
8
SK1
62
256
6
ByLayer
370
-1
48
1
60
0
100
AcDbSpline
70
4
71
3
72
120
73
116
40
0
40
0
40
0
40
0
40
0.0053555999407613
40
0.0131272595870793
40
0.0208989192333973
40
0.0286705788797153
40
0.0364422385260333
40
0.0442138981723513
40
0.0519855578186693
40
0.0597572174649873
40
0.0675288771113053
40
0.0753005367576233
40
0.0830721964039413
40
0.0908438560502593
40
0.0986155156965773
40
0.106387175342895
40
0.114158834989213
40
0.121930494635531
40
0.129702154281849
40
0.137473813928167
40
0.145245473574485
40
0.153017133220803
40
0.160788792867121
40
0.176332112159757
40
0.191875431452393
40
0.207418750745029
40
0.222962070037665
40
0.230733729683983
40
0.238505389330301
40
0.246277048976619
40
0.254048708622937
40
0.269592027915573
40
0.285135347208209
40
0.292907006854527
40
0.300678666500845
40
0.308450326147163
40
0.316221985793481
40
0.323993645439799
40
0.331765305086117
40
0.347308624378753
40
0.355080284025071
40
0.362851943671389
40
0.378395262964025
40
0.393938582256661
40
0.401710241902979
40
0.409481901549297
40
0.425025220841933
40
0.432796880488251
40
0.43668271031141
40
0.440568540134569
40
0.448340199780887
40
0.456111859427205
40
0.471655178719841
40
0.479426838366159
40
0.487198498012477
40
0.494970157658795
40
0.502741817305113
40
0.510513476951431
40
0.518285136597749
40
0.526056796244067
40
0.533828455890385
40
0.541600115536703
40
0.549371775183021
40
0.564915094475657
40
0.572686754121975
40
0.580458413768293
40
0.588230073414611
40
0.59211590323777
40
0.596001733060929
40
0.603773392707247
40
0.611545052353565
40
0.619316711999883
40
0.627088371646201
40
0.634860031292519
40
0.642631690938837
40
0.658175010231473
40
0.673718329524109
40
0.681489989170427
40
0.689261648816745
40
0.704804968109381
40
0.712576627755699
40
0.720348287402018
40
0.728119947048335
40
0.735891606694653
40
0.743663266340971
40
0.751434925987289
40
0.759206585633607
40
0.766978245279925
40
0.782521564572561
40
0.790293224218879
40
0.798064883865197
40
0.805836543511515
40
0.813608203157833
40
0.821379862804151
40
0.829151522450469
40
0.844694841743106
40
0.852466501389423
40
0.860238161035741
40
0.868009820682059
40
0.875781480328377
40
0.891324799621013
40
0.899096459267332
40
0.906868118913649
40
0.914639778559967
40
0.922411438206285
40
0.930183097852603
40
0.937954757498922
40
0.945726417145239
40
0.953498076791558
40
0.961269736437875
40
0.969041396084193
40
0.976813055730511
40
0.984584715376829
40
0.992356375023147
40
1
40
1
40
1
40
1
41
1
10
-1.7
20
-2.5837250319525
30
0
41
1
10
-1.7
20
-2.62111400924692
30
0
41
1
10
-1.7
20
-2.71257747842986
30
0
41
1
10
-1.7
20
-2.85743848960826
30
0
41
1
10
-1.7
20
-3.01805529196176
30
0
41
1
10
-1.7
20
-3.17766896347746
30
0
41
1
10
-1.7
20
-3.33626946559076
30
0
41
1
10
-1.7
20
-3.49384788295134
30
0
41
1
10
-1.7
20
-3.65039703338328
30
0
41
1
10
-1.7
20
-3.80591068333541
30
0
41
1
10
-1.7
20
-3.9603838288908
30
0
41
1
10
-1.7
20
-4.11381118090259
30
0
41
1
10
-1.7
20
-4.26618881241484
30
0
41
1
10
-1.7
20
-4.41751369191317
30
0
41
1
10
-1.7
20
-4.56778315161375
30
0
41
1
10
-1.7
20
-4.7169946256985
30
0
41
1
10
-1.7
20
-4.86514572624662
30
0
41
1
10
-1.7
20
-5.01223421717728
30
0
41
1
10
-1.7
20
-5.15825863689906
30
0
41
1
10
-1.7
20
-5.30321731736851
30
0
41
1
10
-1.7
20
-5.44710902267545
30
0
41
1
10
-1.7
20
-5.58993219435266
30
0
41
1
10
-1.7
20
-5.77892152593586
30
0
41
1
10
-1.7
20
-6.01251450148573
30
0
41
1
10
-1.7
20
-6.28851702131561
30
0
41
1
10
-1.7
20
-6.56021849497904
30
0
41
1
10
-1.7
20
-6.78305839594086
30
0
41
1
10
-1.7
20
-6.95914718913937
30
0
41
1
10
-1.7
20
-7.0901422748378
30
0
41
1
10
-1.7
20
-7.22005471809891
30
0
41
1
10
-1.7
20
-7.391814483107
30
0
41
1
10
-1.7
20
-7.60382757721297
30
0
41
1
10
-1.7
20
-7.81221412115067
30
0
41
1
10
-1.7
20
-7.97672004102665
30
0
41
1
10
-1.7
20
-8.09901466976936
30
0
41
1
10
-1.7
20
-8.22021382021134
30
0
41
1
10
-1.7
20
-8.34031608257325
30
0
41
1
10
-1.7
20
-8.45931946186533
30
0
41
1
10
-1.7
20
-8.61651163422607
30
0
41
1
10
-1.7
20
-8.77152769372714
30
0
41
1
10
-1.7
20
-8.92429762219672
30
0
41
1
10
-1.7
20
-9.07558728630886
30
0
41
1
10
-1.7
20
-9.26193699842017
30
0
41
1
10
-1.7
20
-9.44455857133374
30
0
41
1
10
-1.7
20
-9.58839009925038
30
0
41
1
10
-1.7
20
-9.73071863089592
30
0
41
1
10
-1.7
20
-9.87081045044334
30
0
41
1
10
-1.7
20
-9.99138145148612
30
0
41
1
10
-1.7
20
-10.059706595653
30
0
41
1
10
-1.7
20
-10.127650582945
30
0
41
1
10
-1.7
20
-10.2118742978003
30
0
41
1
10
-1.7
20
-10.3450861597474
30
0
41
1
10
-1.7
20
-10.4760157822056
30
0
41
1
10
-1.7
20
-10.6046008653873
30
0
41
1
10
-1.7
20
-10.6998796625668
30
0
41
1
10
-1.7
20
-10.7939888545435
30
0
41
1
10
-1.7
20
-10.8869237943964
30
0
41
1
10
-1.7
20
-10.9786794570574
30
0
41
1
10
-1.7
20
-11.069250952524
30
0
41
1
10
-1.7
20
-11.1586337774266
30
0
41
1
10
-1.7
20
-11.2468221981049
30
0
41
1
10
-1.7
20
-11.3338110691597
30
0
41
1
10
-1.7
20
-11.4481829097131
30
0
41
1
10
-1.7
20
-11.5601529310588
30
0
41
1
10
-1.7
20
-11.6696587897978
30
0
41
1
10
-1.7
20
-11.7505641463283
30
0
41
1
10
-1.7
20
-11.8169591619061
30
0
41
1
10
-1.7
20
-11.869448828233
30
0
41
1
10
-1.7
20
-11.9215236271769
30
0
41
1
10
-1.7
20
-11.9858436943514
30
0
41
1
10
-1.7
20
-12.0617686735772
30
0
41
1
10
-1.7
20
-12.1364317035572
30
0
41
1
10
-1.7
20
-12.2098248313331
30
0
41
1
10
-1.7
20
-12.2819407102379
30
0
41
1
10
-1.7
20
-12.3763763795169
30
0
41
1
10
-1.7
20
-12.4912006631364
30
0
41
1
10
-1.7
20
-12.6016599065257
30
0
41
1
10
-1.7
20
-12.687362440577
30
0
41
1
10
-1.7
20
-12.7712834981639
30
0
41
1
10
-1.7
20
-12.8525264302737
30
0
41
1
10
-1.7
20
-12.9310230820619
30
0
41
1
10
-1.7
20
-12.9885221046098
30
0
41
1
10
-1.7
20
-13.0446338377524
30
0
41
1
10
-1.7
20
-13.0993474417035
30
0
41
1
10
-1.7
20
-13.1526505331688
30
0
41
1
10
-1.7
20
-13.2045321176789
30
0
41
1
10
-1.7
20
-13.2549799687684
30
0
41
1
10
-1.7
20
-13.3203101272292
30
0
41
1
10
-1.7
20
-13.3827344481881
30
0
41
1
10
-1.7
20
-13.4421723383994
30
0
41
1
10
-1.7
20
-13.4852529409442
30
0
41
1
10
-1.7
20
-13.5268172136993
30
0
41
1
10
-1.7
20
-13.5668499598694
30
0
41
1
10
-1.7
20
-13.6053356175566
30
0
41
1
10
-1.7
20
-13.6545611570253
30
0
41
1
10
-1.7
20
-13.7006353167884
30
0
41
1
10
-1.7
20
-13.7434661079967
30
0
41
1
10
-1.7
20
-13.7739560268625
30
0
41
1
10
-1.7
20
-13.8027899277569
30
0
41
1
10
-1.7
20
-13.8389980176944
30
0
41
1
10
-1.7
20
-13.8718187984145
30
0
41
1
10
-1.7
20
-13.9011479145568
30
0
41
1
10
-1.7
20
-13.9213794981548
30
0
41
1
10
-1.7
20
-13.9398197437578
30
0
41
1
10
-1.7
20
-13.9564420504847
30
0
41
1
10
-1.7
20
-13.9712195410175
30
0
41
1
10
-1.7
20
-13.9841238377961
30
0
41
1
10
-1.7
20
-13.9951249982352
30
0
41
1
10
-1.7
20
-14.0041924220526
30
0
41
1
10
-1.7
20
-14.0112932507837
30
0
41
1
10
-1.7
20
-14.0163938901866
30
0
41
1
10
-1.7
20
-14.019458382701
30
0
41
1
10
-1.7
20
-14.0204497516689
30
0
41
1
10
-1.7
20
-14.0193347368907
30
0
41
1
10
-1.7
20
-14.0171811879838
30
0
41
1
10
-1.70000000000002
20
-14.0157592853883
30
0
0
SPLINE
5
DF
100
AcDbEntity
8
SK1
62
256
6
ByLayer
370
-1
48
1
60
0
100
AcDbSpline
70
4
71
3
72
287
73
283
40
0
40
0
40
0
40
0
40
0.0011530322300821
40
0.0046414760184721
40
0.008129919806862
40
0.0116183635952519
40
0.0151068073836418
40
0.0185952511720318
40
0.0220836949604217
40
0.0255721387488116
40
0.0290605825372016
40
0.0325490263255914
40
0.0395259139023713
40
0.0465028014791512
40
0.053479689055931
40
0.056968132844321
40
0.0604565766327109
40
0.0639450204211008
40
0.0674334642094907
40
0.0744103517862706
40
0.0778987955746605
40
0.0813872393630504
40
0.0848756831514404
40
0.0883641269398302
40
0.0918525707282202
40
0.0953410145166101
40
0.10231790209339
40
0.10580634588178
40
0.10929478967017
40
0.11278323345856
40
0.11627167724695
40
0.11976012103534
40
0.12324856482373
40
0.126737008612119
40
0.130225452400509
40
0.137202339977289
40
0.140690783765679
40
0.144179227554069
40
0.151156115130849
40
0.158133002707629
40
0.161621446496019
40
0.165109890284409
40
0.168598334072799
40
0.172086777861189
40
0.175575221649578
40
0.179063665437968
40
0.180807887332163
40
0.182552109226358
40
0.186040553014748
40
0.189528996803138
40
0.193017440591528
40
0.199994328168308
40
0.203482771956698
40
0.206971215745088
40
0.210459659533478
40
0.213948103321868
40
0.217436547110258
40
0.220924990898647
40
0.224413434687037
40
0.227901878475427
40
0.231390322263817
40
0.234878766052207
40
0.241855653628987
40
0.245344097417377
40
0.248832541205767
40
0.250576763099962
40
0.252320984994157
40
0.255809428782547
40
0.262786316359326
40
0.266274760147716
40
0.269763203936106
40
0.276740091512886
40
0.283716979089666
40
0.287205422878056
40
0.290693866666446
40
0.297670754243226
40
0.301159198031616
40
0.304647641820006
40
0.308136085608396
40
0.311624529396785
40
0.315112973185175
40
0.318601416973565
40
0.325578304550345
40
0.332555192127125
40
0.336043635915515
40
0.339532079703905
40
0.343020523492295
40
0.346508967280685
40
0.353485854857465
40
0.360462742434244
40
0.367439630011024
40
0.374416517587804
40
0.377904961376194
40
0.381393405164584
40
0.384881848952974
40
0.388370292741364
40
0.391858736529754
40
0.395347180318144
40
0.398835624106534
40
0.402324067894923
40
0.405812511683313
40
0.409300955471703
40
0.412789399260093
40
0.416277843048483
40
0.419766286836873
40
0.423254730625263
40
0.426743174413653
40
0.430231618202043
40
0.433720061990433
40
0.437208505778823
40
0.440696949567213
40
0.444185393355603
40
0.447673837143993
40
0.449418059038187
40
0.451162280932383
40
0.454650724720772
40
0.456394946614967
40
0.458139168509162
40
0.459883390403357
40
0.461627612297552
40
0.463371834191747
40
0.465116056085942
40
0.466860277980137
40
0.468604499874332
40
0.472092943662722
40
0.473837165556917
40
0.475581387451112
40
0.477325609345307
40
0.479069831239502
40
0.480814053133697
40
0.482558275027892
40
0.484302496922087
40
0.486046718816282
40
0.487790940710477
40
0.489535162604672
40
0.491279384498867
40
0.493023606393062
40
0.494767828287257
40
0.496512050181451
40
0.498256272075646
40
0.500000493969841
40
0.501744715864036
40
0.503488937758231
40
0.505233159652426
40
0.506977381546621
40
0.508721603440816
40
0.510465825335011
40
0.512210047229206
40
0.513954269123401
40
0.515698491017596
40
0.517442712911791
40
0.519186934805986
40
0.520931156700181
40
0.522675378594376
40
0.524419600488571
40
0.526163822382766
40
0.527908044276961
40
0.531396488065351
40
0.533140709959546
40
0.534884931853741
40
0.536629153747936
40
0.538373375642131
40
0.540117597536325
40
0.541861819430521
40
0.543606041324716
40
0.54535026321891
40
0.548838707007301
40
0.550582928901495
40
0.55232715079569
40
0.55581559458408
40
0.55930403837247
40
0.56279248216086
40
0.56628092594925
40
0.56976936973764
40
0.57325781352603
40
0.57674625731442
40
0.58023470110281
40
0.583723144891199
40
0.58721158867959
40
0.590700032467979
40
0.594188476256369
40
0.597676920044759
40
0.601165363833149
40
0.604653807621539
40
0.608142251409929
40
0.611630695198319
40
0.615119138986709
40
0.618607582775099
40
0.622096026563489
40
0.625584470351879
40
0.632561357928658
40
0.639538245505438
40
0.646515133082218
40
0.653492020658998
40
0.656980464447388
40
0.660468908235778
40
0.663957352024168
40
0.667445795812558
40
0.674422683389338
40
0.681399570966117
40
0.684888014754507
40
0.688376458542897
40
0.691864902331287
40
0.695353346119677
40
0.698841789908067
40
0.702330233696457
40
0.709307121273237
40
0.712795565061627
40
0.716284008850017
40
0.723260896426796
40
0.730237784003577
40
0.733726227791966
40
0.737214671580356
40
0.744191559157136
40
0.747680002945526
40
0.749424224839721
40
0.751168446733916
40
0.754656890522306
40
0.758145334310696
40
0.765122221887476
40
0.768610665675866
40
0.772099109464256
40
0.775587553252646
40
0.779075997041035
40
0.782564440829425
40
0.786052884617815
40
0.789541328406205
40
0.793029772194595
40
0.796518215982985
40
0.800006659771375
40
0.806983547348155
40
0.810471991136545
40
0.813960434924935
40
0.817448878713325
40
0.81919310060752
40
0.820937322501714
40
0.824425766290104
40
0.827914210078494
40
0.831402653866884
40
0.834891097655274
40
0.838379541443664
40
0.841867985232054
40
0.848844872808834
40
0.855821760385614
40
0.859310204174004
40
0.862798647962393
40
0.869775535539173
40
0.873263979327563
40
0.876752423115953
40
0.880240866904343
40
0.883729310692733
40
0.887217754481123
40
0.890706198269513
40
0.894194642057903
40
0.897683085846293
40
0.904659973423073
40
0.908148417211462
40
0.911636860999852
40
0.915125304788242
40
0.918613748576632
40
0.922102192365022
40
0.925590636153412
40
0.932567523730192
40
0.936055967518582
40
0.939544411306972
40
0.943032855095362
40
0.946521298883752
40
0.953498186460532
40
0.956986630248922
40
0.960475074037311
40
0.963963517825701
40
0.967451961614091
40
0.970940405402481
40
0.974428849190871
40
0.977917292979261
40
0.981405736767651
40
0.984894180556041
40
0.988382624344431
40
0.991871068132821
40
0.995359511921211
40
0.998847955709601
40
1
40
1
40
1
40
1
41
1
10
-22.5
20
13.4956358776515
30
0
41
1
10
-22.5
20
13.4959444058917
30
0
41
1
10
-22.5
20
13.497033693275
30
0
41
1
10
-22.5
20
13.4978716184631
30
0
41
1
10
-22.5
20
13.4969161903089
30
0
41
1
10
-22.5
20
13.4939625245411
30
0
41
1
10
-22.5
20
13.4890441905268
30
0
41
1
10
-22.5
20
13.4821928739338
30
0
41
1
10
-22.5
20
13.4734382711797
30
0
41
1
10
-22.5
20
13.4628104278487
30
0
41
1
10
-22.5
20
13.4503375493538
30
0
41
1
10
-22.5
20
13.4312436783152
30
0
41
1
10
-22.5
20
13.402990048048
30
0
41
1
10
-22.5
20
13.3620642251226
30
0
41
1
10
-22.5
20
13.3223661774289
30
0
41
1
10
-22.5
20
13.2871835761246
30
0
41
1
10
-22.5
20
13.2592104836088
30
0
41
1
10
-22.5
20
13.2296213566399
30
0
41
1
10
-22.5
20
13.1879639126742
30
0
41
1
10
-22.5
20
13.1433841284413
30
0
41
1
10
-22.5
20
13.0954724183383
30
0
41
1
10
-22.5
20
13.0580720783436
30
0
41
1
10
-22.5
20
13.0191589474766
30
0
41
1
10
-22.5
20
12.9787481075024
30
0
41
1
10
-22.5
20
12.9368537004399
30
0
41
1
10
-22.5
20
12.8789379874313
30
0
41
1
10
-22.5
20
12.8184132188765
30
0
41
1
10
-22.5
20
12.7547247883428
30
0
41
1
10
-22.5
20
12.7056201369325
30
0
41
1
10
-22.5
20
12.6551113810006
30
0
41
1
10
-22.5
20
12.6032111684974
30
0
41
1
10
-22.5
20
12.5499297998313
30
0
41
1
10
-22.5
20
12.4952790326449
30
0
41
1
10
-22.5
20
12.4392702770472
30
0
41
1
10
-22.5
20
12.3626709718699
30
0
41
1
10
-22.5
20
12.2837700633604
30
0
41
1
10
-22.5
20
12.2018541666219
30
0
41
1
10
-22.5
20
12.1181901660327
30
0
41
1
10
-22.5
20
12.0106580823312
30
0
41
1
10
-22.5
20
11.8988607853737
30
0
41
1
10
-22.5
20
11.8066390784571
30
0
41
1
10
-22.5
20
11.7363216027856
30
0
41
1
10
-22.5
20
11.6647550005754
30
0
41
1
10
-22.5
20
11.59194615036
30
0
41
1
10
-22.5
20
11.5179033392113
30
0
41
1
10
-22.5
20
11.4552554262223
30
0
41
1
10
-22.5
20
11.4043880916922
30
0
41
1
10
-22.5
20
11.3531143221947
30
0
41
1
10
-22.5
20
11.2884404549429
30
0
41
1
10
-22.5
20
11.2095312020912
30
0
41
1
10
-22.5
20
11.1025558247745
30
0
41
1
10
-22.5
20
10.9936883814227
30
0
41
1
10
-22.5
20
10.881957392112
30
0
41
1
10
-22.5
20
10.7971107518715
30
0
41
1
10
-22.5
20
10.7110949831286
30
0
41
1
10
-22.5
20
10.6239149454148
30
0
41
1
10
-22.5
20
10.5355769819029
30
0
41
1
10
-22.5
20
10.4460865275718
30
0
41
1
10
-22.5
20
10.3554481215356
30
0
41
1
10
-22.5
20
10.2636670923514
30
0
41
1
10
-22.5
20
10.1707494549495
30
0
41
1
10
-22.5
20
10.0451570413025
30
0
41
1
10
-22.5
20
9.9178935930201
30
0
41
1
10
-22.5
20
9.78780083934149
30
0
41
1
10
-22.5
20
9.70579078784203
30
0
41
1
10
-22.5
20
9.63944489130404
30
0
41
1
10
-22.5
20
9.57273011219269
30
0
41
1
10
-22.5
20
9.45508832781687
30
0
41
1
10
-22.5
20
9.31898450356377
30
0
41
1
10
-22.5
20
9.18004983919923
30
0
41
1
10
-22.5
20
9.03966368952015
30
0
41
1
10
-22.5
20
8.86197296792949
30
0
41
1
10
-22.5
20
8.68069429175796
30
0
41
1
10
-22.5
20
8.53310893756458
30
0
41
1
10
-22.5
20
8.38410353449396
30
0
41
1
10
-22.5
20
8.23370690743869
30
0
41
1
10
-22.5
20
8.08045168982594
30
0
41
1
10
-22.5
20
7.96465014223952
30
0
41
1
10
-22.5
20
7.84779993569691
30
0
41
1
10
-22.5
20
7.72990617143802
30
0
41
1
10
-22.5
20
7.61097083499584
30
0
41
1
10
-22.5
20
7.45073654157579
30
0
41
1
10
-22.5
20
7.24848505186407
30
0
41
1
10
-22.5
20
7.04280518235291
30
0
41
1
10
-22.5
20
6.87569112826711
30
0
41
1
10
-22.5
20
6.74956632065386
30
0
41
1
10
-22.5
20
6.62242827644155
30
0
41
1
10
-22.5
20
6.4512555331213
30
0
41
1
10
-22.5
20
6.23550102644131
30
0
41
1
10
-22.5
20
5.97220551217549
30
0
41
1
10
-22.5
20
5.70495651005669
30
0
41
1
10
-22.5
20
5.47933703035866
30
0
41
1
10
-22.5
20
5.29623480232564
30
0
41
1
10
-22.5
20
5.15823567759486
30
0
41
1
10
-22.5
20
5.01927995326392
30
0
41
1
10
-22.5
20
4.87937450907222
30
0
41
1
10
-22.5
20
4.73852599905979
30
0
41
1
10
-22.5
20
4.59674211262629
30
0
41
1
10
-22.5
20
4.45403157575558
30
0
41
1
10
-22.5
20
4.31040309161111
30
0
41
1
10
-22.5
20
4.16586580001649
30
0
41
1
10
-22.5
20
4.02043049501106
30
0
41
1
10
-22.5
20
3.87410976932693
30
0
41
1
10
-22.5
20
3.72691565105669
30
0
41
1
10
-22.5
20
3.57886126909131
30
0
41
1
10
-22.5
20
3.4299627769704
30
0
41
1
10
-22.5
20
3.28023687778401
30
0
41
1
10
-22.5
20
3.12970257053468
30
0
41
1
10
-22.5
20
2.97838003358396
30
0
41
1
10
-22.5
20
2.8262921676581
30
0
41
1
10
-22.5
20
2.67346525953189
30
0
41
1
10
-22.5
20
2.51992549648591
30
0
41
1
10
-22.5
20
2.39172828921559
30
0
41
1
10
-22.5
20
2.2882368400623
30
0
41
1
10
-22.5
20
2.18454587114542
30
0
41
1
10
-22.5
20
2.08161602870015
30
0
41
1
10
-22.5
20
1.97729727415896
30
0
41
1
10
-22.5
20
1.89920682890118
30
0
41
1
10
-22.5
20
1.82098464012651
30
0
41
1
10
-22.5
20
1.74263823347056
30
0
41
1
10
-22.5
20
1.66417084854152
30
0
41
1
10
-22.5
20
1.58559123041411
30
0
41
1
10
-22.5
20
1.50690426712365
30
0
41
1
10
-22.5
20
1.40144074045128
30
0
41
1
10
-22.5
20
1.29707563275716
30
0
41
1
10
-22.5
20
1.1912185842138
30
0
41
1
10
-22.5
20
1.11209553564783
30
0
41
1
10
-22.5
20
1.03290644237791
30
0
41
1
10
-22.5
20
0.95365606681014
30
0
41
1
10
-22.5
20
0.874352168955852
30
0
41
1
10
-22.5
20
0.795000198505278
30
0
41
1
10
-22.5
20
0.71560660892132
30
0
41
1
10
-22.5
20
0.63617666680787
30
0
41
1
10
-22.5
20
0.556715993884097
30
0
41
1
10
-22.5
20
0.477229338262958
30
0
41
1
10
-22.5
20
0.397721593521055
30
0
41
1
10
-22.5
20
0.318196568076161
30
0
41
1
10
-22.5
20
0.238658582119825
30
0
41
1
10
-22.5
20
0.159110826532412
30
0
41
1
10
-22.5
20
0.0795570008675952
30
0
41
1
10
-22.5
20
-4.3520458E-09
30
0
41
1
10
-22.5
20
-0.0795570195282949
30
0
41
1
10
-22.5
20
-0.159110863620981
30
0
41
1
10
-22.5
20
-0.238658616598514
30
0
41
1
10
-22.5
20
-0.318196574925025
30
0
41
1
10
-22.5
20
-0.397721596430074
30
0
41
1
10
-22.5
20
-0.477229377934975
30
0
41
1
10
-22.5
20
-0.556716044364009
30
0
41
1
10
-22.5
20
-0.63617667254502
30
0
41
1
10
-22.5
20
-0.715606595157226
30
0
41
1
10
-22.5
20
-0.795000235128668
30
0
41
1
10
-22.5
20
-0.874352236673616
30
0
41
1
10
-22.5
20
-0.953656082911976
30
0
41
1
10
-22.5
20
-1.03290641330761
30
0
41
1
10
-22.5
20
-1.11209555133374
30
0
41
1
10
-22.5
20
-1.19121866112906
30
0
41
1
10
-22.5
20
-1.29707565327635
30
0
41
1
10
-22.5
20
-1.40144071039387
30
0
41
1
10
-22.5
20
-1.50690430877853
30
0
41
1
10
-22.5
20
-1.58559131690836
30
0
41
1
10
-22.5
20
-1.66417088377818
30
0
41
1
10
-22.5
20
-1.74263820265685
30
0
41
1
10
-22.5
20
-1.82098461234611
30
0
41
1
10
-22.5
20
-1.89920687090043
30
0
41
1
10
-22.5
20
-1.97729736527978
30
0
41
1
10
-22.5
20
-2.08161605220536
30
0
41
1
10
-22.5
20
-2.18454583019772
30
0
41
1
10
-22.5
20
-2.28823685042076
30
0
41
1
10
-22.5
20
-2.39172837491469
30
0
41
1
10
-22.5
20
-2.51992552331163
30
0
41
1
10
-22.5
20
-2.67346522993279
30
0
41
1
10
-22.5
20
-2.82629223006825
30
0
41
1
10
-22.5
20
-2.9783800820847
30
0
41
1
10
-22.5
20
-3.12970236953149
30
0
41
1
10
-22.5
20
-3.2802363758513
30
0
41
1
10
-22.5
20
-3.42996282061054
30
0
41
1
10
-22.5
20
-3.57886234252629
30
0
41
1
10
-22.5
20
-3.72691655621918
30
0
41
1
10
-22.5
20
-3.87410940415094
30
0
41
1
10
-22.5
20
-4.02042950258553
30
0
41
1
10
-22.5
20
-4.1658649918152
30
0
41
1
10
-22.5
20
-4.31040320562681
30
0
41
1
10
-22.5
20
-4.45403251641869
30
0
41
1
10
-22.5
20
-4.59674271442694
30
0
41
1
10
-22.5
20
-4.73852585442467
30
0
41
1
10
-22.5
20
-4.87937424460151
30
0
41
1
10
-22.5
20
-5.01927991936705
30
0
41
1
10
-22.5
20
-5.15823571506778
30
0
41
1
10
-22.5
20
-5.29623478947158
30
0
41
1
10
-22.5
20
-5.47933703089231
30
0
41
1
10
-22.5
20
-5.70495655337433
30
0
41
1
10
-22.5
20
-5.97220551419213
30
0
41
1
10
-22.5
20
-6.23550104742759
30
0
41
1
10
-22.5
20
-6.451255571394
30
0
41
1
10
-22.5
20
-6.6224282598192
30
0
41
1
10
-22.5
20
-6.74956631857708
30
0
41
1
10
-22.5
20
-6.87569116366484
30
0
41
1
10
-22.5
20
-7.04280522024894
30
0
41
1
10
-22.5
20
-7.24848505302427
30
0
41
1
10
-22.5
20
-7.4507365478344
30
0
41
1
10
-22.5
20
-7.6109708771202
30
0
41
1
10
-22.5
20
-7.72990620240671
30
0
41
1
10
-22.5
20
-7.84779994085653
30
0
41
1
10
-22.5
20
-7.96465013686171
30
0
41
1
10
-22.5
20
-8.08045169790759
30
0
41
1
10
-22.5
20
-8.23370694014301
30
0
41
1
10
-22.5
20
-8.38410356414289
30
0
41
1
10
-22.5
20
-8.53310893988203
30
0
41
1
10
-22.5
20
-8.68069429599308
30
0
41
1
10
-22.5
20
-8.8619729936481
30
0
41
1
10
-22.5
20
-9.0396637144479
30
0
41
1
10
-22.5
20
-9.18004984465043
30
0
41
1
10
-22.5
20
-9.31898451102214
30
0
41
1
10
-22.5
20
-9.45508835059124
30
0
41
1
10
-22.5
20
-9.57273013875857
30
0
41
1
10
-22.5
20
-9.63944491324963
30
0
41
1
10
-22.5
20
-9.70579080403837
30
0
41
1
10
-22.5
20
-9.7878008492857
30
0
41
1
10
-22.5
20
-9.91789360326428
30
0
41
1
10
-22.5
20
-10.0451570606616
30
0
41
1
10
-22.5
20
-10.1707494782419
30
0
41
1
10
-22.5
20
-10.2636671117607
30
0
41
1
10
-22.5
20
-10.3554481360506
30
0
41
1
10
-22.5
20
-10.4460865401309
30
0
41
1
10
-22.5
20
-10.5355769962349
30
0
41
1
10
-22.5
20
-10.6239149629423
30
0
41
1
10
-22.5
20
-10.7110950034658
30
0
41
1
10
-22.5
20
-10.7971107724731
30
0
41
1
10
-22.5
20
-10.881957410682
30
0
41
1
10
-22.5
20
-10.9936883968037
30
0
41
1
10
-22.5
20
-11.1025558384385
30
0
41
1
10
-22.5
20
-11.2095312195267
30
0
41
1
10
-22.5
20
-11.2884404756242
30
0
41
1
10
-22.5
20
-11.3531143441571
30
0
41
1
10
-22.5
20
-11.4043881128182
30
0
41
1
10
-22.5
20
-11.4552554448703
30
0
41
1
10
-22.5
20
-11.5179033535968
30
0
41
1
10
-22.5
20
-11.5919461625789
30
0
41
1
10
-22.5
20
-11.664755015164
30
0
41
1
10
-22.5
20
-11.7363216229303
30
0
41
1
10
-22.5
20
-11.8066391033683
30
0
41
1
10
-22.5
20
-11.8988608066557
30
0
41
1
10
-22.5
20
-12.0106580919609
30
0
41
1
10
-22.5
20
-12.1181901818312
30
0
41
1
10
-22.5
20
-12.2018541939414
30
0
41
1
10
-22.5
20
-12.2837700876339
30
0
41
1
10
-22.5
20
-12.3626709807027
30
0
41
1
10
-22.5
20
-12.4392702870471
30
0
41
1
10
-22.5
20
-12.4952790541085
30
0
41
1
10
-22.5
20
-12.5499298292215
30
0
41
1
10
-22.5
20
-12.6032111946844
30
0
41
1
10
-22.5
20
-12.6551113940766
30
0
41
1
10
-22.5
20
-12.7056201424592
30
0
41
1
10
-22.5
20
-12.7547247990428
30
0
41
1
10
-22.5
20
-12.8184132466048
30
0
41
1
10
-22.5
20
-12.8789380178894
30
0
41
1
10
-22.5
20
-12.9368537080862
30
0
41
1
10
-22.5
20
-12.9787481114295
30
0
41
1
10
-22.5
20
-13.0191589652135
30
0
41
1
10
-22.5
20
-13.0580721081213
30
0
41
1
10
-22.5
20
-13.0954724456838
30
0
41
1
10
-22.5
20
-13.143384141029
30
0
41
1
10
-22.5
20
-13.1879639125281
30
0
41
1
10
-22.5
20
-13.2296213845592
30
0
41
1
10
-22.5
20
-13.2592105165633
30
0
41
1
10
-22.5
20
-13.2871835921006
30
0
41
1
10
-22.5
20
-13.3223661764574
30
0
41
1
10
-22.5
20
-13.3540536969874
30
0
41
1
10
-22.5
20
-13.3825245595672
30
0
41
1
10
-22.5
20
-13.4021158939438
30
0
41
1
10
-22.5
20
-13.4199649415155
30
0
41
1
10
-22.5
20
-13.4360470510206
30
0
41
1
10
-22.5
20
-13.4503375548199
30
0
41
1
10
-22.5
20
-13.4628103286331
30
0
41
1
10
-22.5
20
-13.4734380181859
30
0
41
1
10
-22.5
20
-13.4821927509398
30
0
41
1
10
-22.5
20
-13.4890446841776
30
0
41
1
10
-22.5
20
-13.4939634903146
30
0
41
1
10
-22.5
20
-13.4969168014739
30
0
41
1
10
-22.5
20
-13.4978715423881
30
0
41
1
10
-22.5
20
-13.4970334667915
30
0
41
1
10
-22.5
20
-13.495944494485
30
0
41
1
10
-22.5
20
-13.4956362888757
30
0
0
SPLINE
5
E0
100
AcDbEntity
8
SK1
62
256
6
ByLayer
370
-1
48
1
60
0
100
AcDbSpline
70
4
71
3
72
119
73
115
40
0
40
0
40
0
40
0
40
0.0017654123486541
40
0.009687035270214
40
0.017608658191774
40
0.0255302811133339
40
0.0334519040348939
40
0.0413735269564538
40
0.0492951498780138
40
0.0572167727995737
40
0.0651383957211337
40
0.0730600186426937
40
0.0809816415642536
40
0.0889032644858136
40
0.0968248874073735
40
0.104746510328934
40
0.112668133250493
40
0.120589756172053
40
0.128511379093613
40
0.136433002015173
40
0.144354624936733
40
0.152276247858293
40
0.160197870779853
40
0.176041116622973
40
0.191884362466093
40
0.207727608309213
40
0.223570854152333
40
0.231492477073893
40
0.239414099995453
40
0.247335722917013
40
0.255257345838573
40
0.271100591681693
40
0.286943837524813
40
0.294865460446372
40
0.302787083367932
40
0.310708706289492
40
0.318630329211052
40
0.326551952132612
40
0.334473575054172
40
0.350316820897292
40
0.358238443818852
40
0.366160066740412
40
0.382003312583532
40
0.397846558426652
40
0.405768181348212
40
0.413689804269772
40
0.429533050112892
40
0.437454673034452
40
0.441415484495232
40
0.445376295956012
40
0.453297918877571
40
0.461219541799131
40
0.477062787642251
40
0.484984410563811
40
0.492906033485371
40
0.500827656406931
40
0.508749279328491
40
0.516670902250051
40
0.524592525171611
40
0.532514148093171
40
0.540435771014731
40
0.548357393936291
40
0.556279016857851
40
0.572122262700971
40
0.580043885622531
40
0.587965508544091
40
0.595887131465651
40
0.599847942926431
40
0.603808754387211
40
0.611730377308771
40
0.619652000230331
40
0.627573623151891
40
0.635495246073451
40
0.64341686899501
40
0.651338491916571
40
0.66718173775969
40
0.68302498360281
40
0.69094660652437
40
0.69886822944593
40
0.71471147528905
40
0.72263309821061
40
0.73055472113217
40
0.73847634405373
40
0.74639796697529
40
0.75431958989685
40
0.76224121281841
40
0.77016283573997
40
0.77808445866153
40
0.79392770450465
40
0.80184932742621
40
0.80977095034777
40
0.81769257326933
40
0.825614196190889
40
0.83353581911245
40
0.84145744203401
40
0.857300687877129
40
0.865222310798689
40
0.873143933720249
40
0.881065556641809
40
0.888987179563369
40
0.904830425406489
40
0.912752048328049
40
0.920673671249609
40
0.928595294171169
40
0.936516917092729
40
0.944438540014289
40
0.952360162935849
40
0.960281785857409
40
0.968203408778969
40
0.976125031700529
40
0.984046654622089
40
0.991968277543649
40
0.999889900465209
40
1
40
1
40
1
40
1
41
1
10
-1.4950399779393
20
-2.59465115086957
30
0
41
1
10
-1.4950399779393
20
-2.606473243442
30
0
41
1
10
-1.4950399779393
20
-2.67130382016646
30
0
41
1
10
-1.4950399779393
20
-2.78881794693001
30
0
41
1
10
-1.4950399779393
20
-2.94652921585708
30
0
41
1
10
-1.4950399779393
20
-3.10333581737226
30
0
41
1
10
-1.4950399779393
20
-3.25922160409144
30
0
41
1
10
-1.4950399779393
20
-3.4141725129254
30
0
41
1
10
-1.4950399779393
20
-3.56817684914566
30
0
41
1
10
-1.4950399779393
20
-3.72122348266291
30
0
41
1
10
-1.4950399779393
20
-3.87330241838259
30
0
41
1
10
-1.4950399779393
20
-4.02440435063471
30
0
41
1
10
-1.4950399779393
20
-4.17452257114442
30
0
41
1
10
-1.4950399779393
20
-4.32365075555242
30
0
41
1
10
-1.4950399779393
20
-4.47178250674139
30
0
41
1
10
-1.4950399779393
20
-4.61891187892093
30
0
41
1
10
-1.4950399779393
20
-4.7650335666859
30
0
41
1
10
-1.4950399779393
20
-4.91014320448997
30
0
41
1
10
-1.4950399779393
20
-5.05423700692032
30
0
41
1
10
-1.4950399779393
20
-5.19731095699922
30
0
41
1
10
-1.4950399779393
20
-5.33936160781602
30
0
41
1
10
-1.4950399779393
20
-5.48038543010182
30
0
41
1
10
-1.4950399779393
20
-5.66717892451575
30
0
41
1
10
-1.4950399779393
20
-5.89779786635279
30
0
41
1
10
-1.4950399779393
20
-6.17053537924178
30
0
41
1
10
-1.4950399779393
20
-6.43910150489376
30
0
41
1
10
-1.4950399779393
20
-6.65929861735816
30
0
41
1
10
-1.4950399779393
20
-6.83355374310952
30
0
41
1
10
-1.4950399779393
20
-6.96311018885424
30
0
41
1
10
-1.4950399779393
20
-7.09160988853208
30
0
41
1
10
-1.4950399779393
20
-7.26163684175143
30
0
41
1
10
-1.4950399779393
20
-7.47128768043942
30
0
41
1
10
-1.4950399779393
20
-7.67738590051292
30
0
41
1
10
-1.4950399779393
20
-7.84029855153605
30
0
41
1
10
-1.4950399779393
20
-7.96134018717205
30
0
41
1
10
-1.4950399779393
20
-8.08130644558901
30
0
41
1
10
-1.4950399779393
20
-8.2001957134178
30
0
41
1
10
-1.4950399779393
20
-8.31800484031689
30
0
41
1
10
-1.4950399779393
20
-8.47372856948019
30
0
41
1
10
-1.4950399779393
20
-8.62702161678089
30
0
41
1
10
-1.4950399779393
20
-8.7783873974316
30
0
41
1
10
-1.4950399779393
20
-8.92829538452324
30
0
41
1
10
-1.4950399779393
20
-9.11275364912453
30
0
41
1
10
-1.4950399779393
20
-9.2935360539519
30
0
41
1
10
-1.4950399779393
20
-9.43608247629777
30
0
41
1
10
-1.4950399779393
20
-9.57714512355727
30
0
41
1
10
-1.4950399779393
20
-9.71574945872365
30
0
41
1
10
-1.4950399779393
20
-9.835227886979
30
0
41
1
10
-1.4950399779393
20
-9.90295237623948
30
0
41
1
10
-1.4950399779393
20
-9.97030028641953
30
0
41
1
10
-1.4950399779393
20
-10.0536983203575
30
0
41
1
10
-1.4950399779393
20
-10.1857467801784
30
0
41
1
10
-1.4950399779393
20
-10.3153089526253
30
0
41
1
10
-1.4950399779393
20
-10.4427777956644
30
0
41
1
10
-1.4950399779393
20
-10.537175897834
30
0
41
1
10
-1.4950399779393
20
-10.630416702033
30
0
41
1
10
-1.4950399779393
20
-10.7224950525573
30
0
41
1
10
-1.4950399779393
20
-10.8134058114344
30
0
41
1
10
-1.4950399779393
20
-10.9031442186804
30
0
41
1
10
-1.4950399779393
20
-10.9917054227684
30
0
41
1
10
-1.4950399779393
20
-11.0790834618892
30
0
41
1
10
-1.4950399779393
20
-11.165273297363
30
0
41
1
10
-1.4950399779393
20
-11.2786601205037
30
0
41
1
10
-1.4950399779393
20
-11.3894729046301
30
0
41
1
10
-1.4950399779393
20
-11.4980349156059
30
0
41
1
10
-1.4950399779393
20
-11.5781957427673
30
0
41
1
10
-1.4950399779393
20
-11.6439487843731
30
0
41
1
10
-1.4950399779393
20
-11.6959849306732
30
0
41
1
10
-1.4950399779393
20
-11.747609354201
30
0
41
1
10
-1.4950399779393
20
-11.8113057197552
30
0
41
1
10
-1.4950399779393
20
-11.886528664654
30
0
41
1
10
-1.4950399779393
20
-11.960500101414
30
0
41
1
10
-1.4950399779393
20
-12.0332119519516
30
0
41
1
10
-1.4950399779393
20
-12.1046570427268
30
0
41
1
10
-1.4950399779393
20
-12.1982669205398
30
0
41
1
10
-1.4950399779393
20
-12.3119621581916
30
0
41
1
10
-1.4950399779393
20
-12.4213295969168
30
0
41
1
10
-1.4950399779393
20
-12.5062717787185
30
0
41
1
10
-1.4950399779393
20
-12.5894449263383
30
0
41
1
10
-1.4950399779393
20
-12.6698142967672
30
0
41
1
10
-1.4950399779393
20
-12.7476032540011
30
0
41
1
10
-1.4950399779393
20
-12.8045464232669
30
0
41
1
10
-1.4950399779393
20
-12.8601132308426
30
0
41
1
10
-1.4950399779393
20
-12.9142926213842
30
0
41
1
10
-1.4950399779393
20
-12.9670724454163
30
0
41
1
10
-1.4950399779393
20
-13.0184419731185
30
0
41
1
10
-1.4950399779393
20
-13.0683888234861
30
0
41
1
10
-1.4950399779393
20
-13.133106637017
30
0
41
1
10
-1.4950399779393
20
-13.1948224412614
30
0
41
1
10
-1.4950399779393
20
-13.2536925631392
30
0
41
1
10
-1.4950399779393
20
-13.296330722945
30
0
41
1
10
-1.4950399779393
20
-13.3374647797226
30
0
41
1
10
-1.4950399779393
20
-13.3770799229021
30
0
41
1
10
-1.4950399779393
20
-13.4151607649325
30
0
41
1
10
-1.4950399779393
20
-13.4638962511352
30
0
41
1
10
-1.4950399779393
20
-13.5094130161235
30
0
41
1
10
-1.4950399779393
20
-13.551806168738
30
0
41
1
10
-1.4950399779393
20
-13.5819601013665
30
0
41
1
10
-1.4950399779393
20
-13.6104729213425
30
0
41
1
10
-1.4950399779393
20
-13.646298505966
30
0
41
1
10
-1.4950399779393
20
-13.6786965897716
30
0
41
1
10
-1.4950399779393
20
-13.7077055842542
30
0
41
1
10
-1.4950399779393
20
-13.7276983600542
30
0
41
1
10
-1.4950399779393
20
-13.7459180935577
30
0
41
1
10
-1.4950399779393
20
-13.7623389110759
30
0
41
1
10
-1.4950399779393
20
-13.7769347594832
30
0
41
1
10
-1.4950399779393
20
-13.7896781016746
30
0
41
1
10
-1.4950399779393
20
-13.800539960484
30
0
41
1
10
-1.4950399779393
20
-13.8094907530557
30
0
41
1
10
-1.4950399779393
20
-13.8164987457743
30
0
41
1
10
-1.4950399779393
20
-13.821531562835
30
0
41
1
10
-1.4950399779393
20
-13.8245545856003
30
0
41
1
10
-1.4950399779393
20
-13.8252109198553
30
0
41
1
10
-1.49503997793929
20
-13.825184730278
30
0
41
1
10
-1.49503997793928
20
-13.825183730178
30
0
0
SPLINE
5
E1
100
AcDbEntity
8
SK1
62
256
6
ByLayer
370
-1
48
1
60
0
100
AcDbSpline
70
4
71
3
72
117
73
113
40
0
40
0
40
0
40
0
40
0.0001126931193812
40
0.0080342955093262
40
0.0159558978992713
40
0.0238775002892163
40
0.0317991026791614
40
0.0397207050691064
40
0.0476423074590515
40
0.0555639098489965
40
0.0634855122389416
40
0.0793287170188317
40
0.0951719217987218
40
0.111015126578612
40
0.118936728968557
40
0.126858331358502
40
0.134779933748447
40
0.142701536138392
40
0.158544740918282
40
0.166466343308227
40
0.174387945698172
40
0.182309548088117
40
0.190231150478062
40
0.198152752868007
40
0.206074355257952
40
0.221917560037842
40
0.229839162427788
40
0.237760764817733
40
0.245682367207678
40
0.253603969597623
40
0.261525571987568
40
0.269447174377513
40
0.277368776767458
40
0.285290379157403
40
0.301133583937293
40
0.309055186327238
40
0.316976788717183
40
0.332819993497073
40
0.348663198276963
40
0.356584800666908
40
0.364506403056853
40
0.372428005446798
40
0.380349607836743
40
0.388271210226688
40
0.396192812616634
40
0.400153613811606
40
0.404114415006579
40
0.412036017396524
40
0.419957619786469
40
0.427879222176414
40
0.443722426956304
40
0.451644029346249
40
0.459565631736194
40
0.467487234126139
40
0.475408836516084
40
0.483330438906029
40
0.491252041295974
40
0.499173643685919
40
0.507095246075864
40
0.515016848465809
40
0.522938450855754
40
0.538781655635644
40
0.546703258025589
40
0.554624860415535
40
0.558585661610507
40
0.56254646280548
40
0.570468065195425
40
0.586311269975315
40
0.59423287236526
40
0.602154474755205
40
0.617997679535095
40
0.633840884314985
40
0.64176248670493
40
0.649684089094875
40
0.665527293874765
40
0.67344889626471
40
0.681370498654655
40
0.6892921010446
40
0.697213703434545
40
0.70513530582449
40
0.713056908214435
40
0.728900112994326
40
0.744743317774216
40
0.752664920164161
40
0.760586522554106
40
0.768508124944051
40
0.776429727333996
40
0.792272932113886
40
0.808116136893776
40
0.823959341673666
40
0.839802546453556
40
0.847724148843501
40
0.855645751233446
40
0.863567353623391
40
0.871488956013336
40
0.879410558403281
40
0.887332160793226
40
0.895253763183171
40
0.903175365573117
40
0.911096967963062
40
0.919018570353007
40
0.926940172742952
40
0.934861775132897
40
0.942783377522842
40
0.950704979912787
40
0.958626582302732
40
0.966548184692677
40
0.974469787082622
40
0.982391389472567
40
0.990312991862512
40
0.998234594252457
40
1
40
1
40
1
40
1
41
1
10
-1.49503997793928
20
13.8251837285014
30
0
41
1
10
-1.49503997793929
20
13.8251847286014
30
0
41
1
10
-1.4950399779393
20
13.8252108739987
30
0
41
1
10
-1.4950399779393
20
13.8245539604948
30
0
41
1
10
-1.4950399779393
20
13.8215305966481
30
0
41
1
10
-1.4950399779393
20
13.8164982902869
30
0
41
1
10
-1.4950399779393
20
13.8094909095343
30
0
41
1
10
-1.4950399779393
20
13.8005402090708
30
0
41
1
10
-1.4950399779393
20
13.7896781830989
30
0
41
1
10
-1.4950399779393
20
13.7769347476405
30
0
41
1
10
-1.4950399779393
20
13.7574597557179
30
0
41
1
10
-1.4950399779393
20
13.7285859139399
30
0
41
1
10
-1.4950399779393
20
13.6868269300449
30
0
41
1
10
-1.4950399779393
20
13.6462985077496
30
0
41
1
10
-1.4950399779393
20
13.6104729008558
30
0
41
1
10
-1.4950399779393
20
13.5819600687286
30
0
41
1
10
-1.4950399779393
20
13.5518061457236
30
0
41
1
10
-1.4950399779393
20
13.509413016618
30
0
41
1
10
-1.4950399779393
20
13.4638962341071
30
0
41
1
10
-1.4950399779393
20
13.4151607370273
30
0
41
1
10
-1.4950399779393
20
13.3770798968994
30
0
41
1
10
-1.4950399779393
20
13.3374647662751
30
0
41
1
10
-1.4950399779393
20
13.2963307178616
30
0
41
1
10
-1.4950399779393
20
13.2536925499096
30
0
41
1
10
-1.4950399779393
20
13.1948224098965
30
0
41
1
10
-1.4950399779393
20
13.1331066142243
30
0
41
1
10
-1.4950399779393
20
13.0683888145289
30
0
41
1
10
-1.4950399779393
20
13.0184419638584
30
0
41
1
10
-1.4950399779393
20
12.9670724273821
30
0
41
1
10
-1.4950399779393
20
12.9142925944038
30
0
41
1
10
-1.4950399779393
20
12.860113205584
30
0
41
1
10
-1.4950399779393
20
12.8045464062654
30
0
41
1
10
-1.4950399779393
20
12.74760324418
30
0
41
1
10
-1.4950399779393
20
12.6698142834541
30
0
41
1
10
-1.4950399779393
20
12.5894449005116
30
0
41
1
10
-1.4950399779393
20
12.50627175547
30
0
41
1
10
-1.4950399779393
20
12.4213295833849
30
0
41
1
10
-1.4950399779393
20
12.3119621458456
30
0
41
1
10
-1.4950399779393
20
12.1982668977617
30
0
41
1
10
-1.4950399779393
20
12.1046570208051
30
0
41
1
10
-1.4950399779393
20
12.0332119345842
30
0
41
1
10
-1.4950399779393
20
11.9605000871413
30
0
41
1
10
-1.4950399779393
20
11.8865286504803
30
0
41
1
10
-1.4950399779393
20
11.8113057028001
30
0
41
1
10
-1.4950399779393
20
11.7476093345099
30
0
41
1
10
-1.4950399779393
20
11.6959849101866
30
0
41
1
10
-1.4950399779393
20
11.643948764099
30
0
41
1
10
-1.4950399779393
20
11.5781957241672
30
0
41
1
10
-1.4950399779393
20
11.4980348993556
30
0
41
1
10
-1.4950399779393
20
11.3894728900619
30
0
41
1
10
-1.4950399779393
20
11.278660103453
30
0
41
1
10
-1.4950399779393
20
11.1652732784127
30
0
41
1
10
-1.4950399779393
20
11.0790834423827
30
0
41
1
10
-1.4950399779393
20
10.9917054044732
30
0
41
1
10
-1.4950399779393
20
10.9031442025602
30
0
41
1
10
-1.4950399779393
20
10.8134057967923
30
0
41
1
10
-1.4950399779393
20
10.7224950378189
30
0
41
1
10
-1.4950399779393
20
10.6304166849825
30
0
41
1
10
-1.4950399779393
20
10.5371758780398
30
0
41
1
10
-1.4950399779393
20
10.4427777751693
30
0
41
1
10
-1.4950399779393
20
10.3153089364435
30
0
41
1
10
-1.4950399779393
20
10.1857467684219
30
0
41
1
10
-1.4950399779393
20
10.0536983054632
30
0
41
1
10
-1.4950399779393
20
9.97030026745779
30
0
41
1
10
-1.4950399779393
20
9.90295235506755
30
0
41
1
10
-1.4950399779393
20
9.83522786489038
30
0
41
1
10
-1.4950399779393
20
9.71574944153573
30
0
41
1
10
-1.4950399779393
20
9.57714511427093
30
0
41
1
10
-1.4950399779393
20
9.43608246295526
30
0
41
1
10
-1.4950399779393
20
9.29353602958125
30
0
41
1
10
-1.4950399779393
20
9.11275363063515
30
0
41
1
10
-1.4950399779393
20
8.92829537712967
30
0
41
1
10
-1.4950399779393
20
8.77838738443313
30
0
41
1
10
-1.4950399779393
20
8.62702158956
30
0
41
1
10
-1.4950399779393
20
8.47372854841302
30
0
41
1
10
-1.4950399779393
20
8.31800483202281
30
0
41
1
10
-1.4950399779393
20
8.20019570647173
30
0
41
1
10
-1.4950399779393
20
8.08130642958628
30
0
41
1
10
-1.4950399779393
20
7.96134016006346
30
0
41
1
10
-1.4950399779393
20
7.84029852533041
30
0
41
1
10
-1.4950399779393
20
7.67738589461936
30
0
41
1
10
-1.4950399779393
20
7.47128766686797
30
0
41
1
10
-1.4950399779393
20
7.261636811758
30
0
41
1
10
-1.4950399779393
20
7.09160986883526
30
0
41
1
10
-1.4950399779393
20
6.96311018452545
30
0
41
1
10
-1.4950399779393
20
6.83355373772449
30
0
41
1
10
-1.4950399779393
20
6.6592985841524
30
0
41
1
10
-1.4950399779393
20
6.43910149333703
30
0
41
1
10
-1.4950399779393
20
6.17053536578155
30
0
41
1
10
-1.4950399779393
20
5.89779783511918
30
0
41
1
10
-1.4950399779393
20
5.66717892097088
30
0
41
1
10
-1.4950399779393
20
5.48038541909952
30
0
41
1
10
-1.4950399779393
20
5.33936157753735
30
0
41
1
10
-1.4950399779393
20
5.19731095553271
30
0
41
1
10
-1.4950399779393
20
5.05423706888553
30
0
41
1
10
-1.4950399779393
20
4.91014315579861
30
0
41
1
10
-1.4950399779393
20
4.7650332428635
30
0
41
1
10
-1.4950399779393
20
4.61891156596767
30
0
41
1
10
-1.4950399779393
20
4.47178260268984
30
0
41
1
10
-1.4950399779393
20
4.32365113214263
30
0
41
1
10
-1.4950399779393
20
4.17452288947305
30
0
41
1
10
-1.4950399779393
20
4.02440432752809
30
0
41
1
10
-1.4950399779393
20
3.87330192992579
30
0
41
1
10
-1.4950399779393
20
3.7212231412766
30
0
41
1
10
-1.4950399779393
20
3.56817690176541
30
0
41
1
10
-1.4950399779393
20
3.41417271020586
30
0
41
1
10
-1.4950399779393
20
3.25922165821993
30
0
41
1
10
-1.4950399779393
20
3.1033357799555
30
0
41
1
10
-1.4950399779393
20
2.94652918151195
30
0
41
1
10
-1.4950399779393
20
2.78881794429316
30
0
41
1
10
-1.4950399779393
20
2.67130381064959
30
0
41
1
10
-1.4950399779393
20
2.60647323876154
30
0
41
1
10
-1.4950399779393
20
2.59465115838313
30
0
0
SPLINE
5
E2
100
AcDbEntity
8
SK1
62
256
6
ByLayer
370
-1
48
1
60
0
100
AcDbSpline
70
4
71
3
72
287
73
283
40
0
40
0
40
0
40
0
40
0.0005770483973586
40
0.0040695136233441
40
0.0075619788493297
40
0.0110544440753152
40
0.0145469093013007
40
0.0180393745272862
40
0.0215318397532718
40
0.0250243049792573
40
0.0285167702052428
40
0.0320092354312283
40
0.0389941658831994
40
0.0459790963351703
40
0.0529640267871414
40
0.0564564920131269
40
0.0599489572391124
40
0.063441422465098
40
0.0669338876910835
40
0.0739188181430545
40
0.07741128336904
40
0.0809037485950255
40
0.084396213821011
40
0.0878886790469966
40
0.0913811442729821
40
0.0948736094989677
40
0.101858539950939
40
0.105351005176924
40
0.10884347040291
40
0.112335935628895
40
0.115828400854881
40
0.119320866080866
40
0.122813331306852
40
0.126305796532837
40
0.129798261758823
40
0.136783192210794
40
0.140275657436779
40
0.143768122662765
40
0.150753053114736
40
0.157737983566707
40
0.161230448792692
40
0.164722914018678
40
0.168215379244663
40
0.171707844470649
40
0.175200309696634
40
0.17869277492262
40
0.180439007535613
40
0.182185240148605
40
0.185677705374591
40
0.189170170600577
40
0.192662635826562
40
0.199647566278533
40
0.203140031504519
40
0.206632496730504
40
0.21012496195649
40
0.213617427182475
40
0.217109892408461
40
0.220602357634446
40
0.224094822860432
40
0.227587288086417
40
0.231079753312403
40
0.234572218538388
40
0.241557148990359
40
0.245049614216345
40
0.24854207944233
40
0.250288312055323
40
0.252034544668316
40
0.255527009894301
40
0.262511940346272
40
0.266004405572258
40
0.269496870798244
40
0.276481801250214
40
0.283466731702185
40
0.286959196928171
40
0.290451662154157
40
0.297436592606127
40
0.300929057832113
40
0.304421523058099
40
0.307913988284084
40
0.31140645351007
40
0.314898918736055
40
0.318391383962041
40
0.325376314414012
40
0.332361244865983
40
0.335853710091968
40
0.339346175317954
40
0.342838640543939
40
0.346331105769925
40
0.353316036221896
40
0.360300966673867
40
0.367285897125838
40
0.374270827577809
40
0.377763292803794
40
0.38125575802978
40
0.384748223255766
40
0.388240688481751
40
0.391733153707736
40
0.395225618933722
40
0.398718084159708
40
0.402210549385693
40
0.405703014611679
40
0.409195479837664
40
0.41268794506365
40
0.416180410289635
40
0.419672875515621
40
0.423165340741606
40
0.426657805967592
40
0.430150271193577
40
0.433642736419563
40
0.437135201645548
40
0.440627666871534
40
0.444120132097519
40
0.447612597323505
40
0.449358829936498
40
0.45110506254949
40
0.454597527775476
40
0.456343760388469
40
0.458089993001461
40
0.459836225614454
40
0.461582458227447
40
0.46332869084044
40
0.465074923453432
40
0.466821156066425
40
0.468567388679418
40
0.472059853905403
40
0.473806086518396
40
0.475552319131389
40
0.477298551744382
40
0.479044784357374
40
0.480791016970367
40
0.48253724958336
40
0.484283482196353
40
0.486029714809345
40
0.487775947422338
40
0.489522180035331
40
0.491268412648324
40
0.493014645261317
40
0.494760877874309
40
0.496507110487302
40
0.498253343100295
40
0.499999575713288
40
0.50174580832628
40
0.503492040939273
40
0.505238273552266
40
0.506984506165259
40
0.508730738778251
40
0.510476971391244
40
0.512223204004237
40
0.513969436617229
40
0.515715669230222
40
0.517461901843215
40
0.519208134456208
40
0.520954367069201
40
0.522700599682193
40
0.524446832295186
40
0.526193064908179
40
0.527939297521172
40
0.531431762747157
40
0.53317799536015
40
0.534924227973143
40
0.536670460586136
40
0.538416693199128
40
0.540162925812121
40
0.541909158425114
40
0.543655391038106
40
0.545401623651099
40
0.548894088877085
40
0.550640321490077
40
0.55238655410307
40
0.555879019329056
40
0.559371484555041
40
0.562863949781027
40
0.566356415007013
40
0.569848880232998
40
0.573341345458983
40
0.576833810684969
40
0.580326275910954
40
0.58381874113694
40
0.587311206362925
40
0.590803671588911
40
0.594296136814896
40
0.597788602040882
40
0.601281067266867
40
0.604773532492853
40
0.608265997718839
40
0.611758462944824
40
0.61525092817081
40
0.618743393396795
40
0.622235858622781
40
0.625728323848766
40
0.632713254300737
40
0.639698184752708
40
0.646683115204679
40
0.65366804565665
40
0.657160510882636
40
0.660652976108621
40
0.664145441334607
40
0.667637906560592
40
0.674622837012564
40
0.681607767464535
40
0.68510023269052
40
0.688592697916505
40
0.692085163142491
40
0.695577628368477
40
0.699070093594462
40
0.702562558820447
40
0.709547489272419
40
0.713039954498404
40
0.71653241972439
40
0.72351735017636
40
0.730502280628332
40
0.733994745854317
40
0.737487211080303
40
0.744472141532274
40
0.747964606758259
40
0.749710839371252
40
0.751457071984245
40
0.75494953721023
40
0.758442002436216
40
0.765426932888187
40
0.768919398114172
40
0.772411863340158
40
0.775904328566143
40
0.779396793792129
40
0.782889259018114
40
0.7863817242441
40
0.789874189470085
40
0.793366654696071
40
0.796859119922057
40
0.800351585148042
40
0.807336515600013
40
0.810828980825999
40
0.814321446051984
40
0.81781391127797
40
0.819560143890962
40
0.821306376503955
40
0.824798841729941
40
0.828291306955926
40
0.831783772181912
40
0.835276237407897
40
0.838768702633883
40
0.842261167859868
40
0.849246098311839
40
0.85623102876381
40
0.859723493989796
40
0.863215959215781
40
0.870200889667752
40
0.873693354893738
40
0.877185820119723
40
0.880678285345709
40
0.884170750571694
40
0.88766321579768
40
0.891155681023665
40
0.894648146249651
40
0.898140611475636
40
0.905125541927607
40
0.908618007153593
40
0.912110472379578
40
0.915602937605564
40
0.919095402831549
40
0.922587868057535
40
0.926080333283521
40
0.933065263735492
40
0.936557728961477
40
0.940050194187463
40
0.943542659413448
40
0.947035124639434
40
0.954020055091405
40
0.95751252031739
40
0.961004985543376
40
0.964497450769361
40
0.967989915995347
40
0.971482381221332
40
0.974974846447318
40
0.978467311673303
40
0.981959776899289
40
0.985452242125274
40
0.98894470735126
40
0.992437172577246
40
0.995929637803231
40
0.999422103029217
40
1
40
1
40
1
40
1
41
1
10
-24
20
12.6301466130593
30
0
41
1
10
-24
20
12.6302729727894
30
0
41
1
10
-24
20
12.6311019487332
30
0
41
1
10
-24
20
12.6318299492432
30
0
41
1
10
-24
20
12.6309352666138
30
0
41
1
10
-24
20
12.6281658201647
30
0
41
1
10
-24
20
12.623548726994
30
0
41
1
10
-24
20
12.6171099043118
30
0
41
1
10
-24
20
12.6088736083307
30
0
41
1
10
-24
20
12.5988647342338
30
0
41
1
10
-24
20
12.5871069661155
30
0
41
1
10
-24
20
12.569020437469
30
0
41
1
10
-24
20
12.5424060911485
30
0
41
1
10
-24
20
12.5036823998811
30
0
41
1
10
-24
20
12.466179119183
30
0
41
1
10
-24
20
12.4326960489613
30
0
41
1
10
-24
20
12.4061495447384
30
0
41
1
10
-24
20
12.3780532328159
30
0
41
1
10
-24
20
12.3383402816863
30
0
41
1
10
-24
20
12.2962370819873
30
0
41
1
10
-24
20
12.2505027270978
30
0
41
1
10
-24
20
12.2149010201899
30
0
41
1
10
-24
20
12.1778433481664
30
0
41
1
10
-24
20
12.139344023803
30
0
41
1
10
-24
20
12.0994154546281
30
0
41
1
10
-24
20
12.0440223921018
30
0
41
1
10
-24
20
11.9866456328948
30
0
41
1
10
-24
20
11.9256779328098
30
0
41
1
10
-24
20
11.8787993022056
30
0
41
1
10
-24
20
11.8305656793587
30
0
41
1
10
-24
20
11.78099039585
30
0
41
1
10
-24
20
11.7300825884547
30
0
41
1
10
-24
20
11.6778529900837
30
0
41
1
10
-24
20
11.6243139686469
30
0
41
1
10
-24
20
11.5508590476175
30
0
41
1
10
-24
20
11.4758394707542
30
0
41
1
10
-24
20
11.3972466128896
30
0
41
1
10
-24
20
11.3169609533628
30
0
41
1
10
-24
20
11.2142799019792
30
0
41
1
10
-24
20
11.1074990885262
30
0
41
1
10
-24
20
11.0189464603389
30
0
41
1
10
-24
20
10.9516093773873
30
0
41
1
10
-24
20
10.8830697782116
30
0
41
1
10
-24
20
10.8133337656712
30
0
41
1
10
-24
20
10.7424101789121
30
0
41
1
10
-24
20
10.6825334430363
30
0
41
1
10
-24
20
10.6336671760819
30
0
41
1
10
-24
20
10.5844084477176
30
0
41
1
10
-24
20
10.5225869468266
30
0
41
1
10
-24
20
10.4469857296791
30
0
41
1
10
-24
20
10.3442039867663
30
0
41
1
10
-24
20
10.2404782892815
30
0
41
1
10
-24
20
10.133123847137
30
0
41
1
10
-24
20
10.0518274139735
30
0
41
1
10
-24
20
9.96941226524035
30
0
41
1
10
-24
20
9.8858827890852
30
0
41
1
10
-24
20
9.80124634105394
30
0
41
1
10
-24
20
9.71550990056983
30
0
41
1
10
-24
20
9.62867742465991
30
0
41
1
10
-24
20
9.54075474090101
30
0
41
1
10
-24
20
9.45175012870757
30
0
41
1
10
-24
20
9.33111730296773
30
0
41
1
10
-24
20
9.20992961158598
30
0
41
1
10
-24
20
9.08500600225796
30
0
41
1
10
-24
20
9.00666454438806
30
0
41
1
10
-24
20
8.94296708063843
30
0
41
1
10
-24
20
8.87892107357061
30
0
41
1
10
-24
20
8.76613371827506
30
0
41
1
10
-24
20
8.63663898523424
30
0
41
1
10
-24
20
8.50332881313912
30
0
41
1
10
-24
20
8.36865251940401
30
0
41
1
10
-24
20
8.19913342470036
30
0
41
1
10
-24
20
8.02625870426021
30
0
41
1
10
-24
20
7.88481232676438
30
0
41
1
10
-24
20
7.74204568631339
30
0
41
1
10
-24
20
7.59930458489882
30
0
41
1
10
-24
20
7.45257386795717
30
0
41
1
10
-24
20
7.34207855908448
30
0
41
1
10
-24
20
7.23061782890775
30
0
41
1
10
-24
20
7.11820191301106
30
0
41
1
10
-24
20
7.00483374343872
30
0
41
1
10
-24
20
6.8516785758469
30
0
41
1
10
-24
20
6.65959441745028
30
0
41
1
10
-24
20
6.46441027855923
30
0
41
1
10
-24
20
6.30499529459033
30
0
41
1
10
-24
20
6.18514753468796
30
0
41
1
10
-24
20
6.06440158167572
30
0
41
1
10
-24
20
5.90137597131746
30
0
41
1
10
-24
20
5.69736367955667
30
0
41
1
10
-24
20
5.44799894794272
30
0
41
1
10
-24
20
5.19525670130326
30
0
41
1
10
-24
20
4.98285125019774
30
0
41
1
10
-24
20
4.80950544532163
30
0
41
1
10
-24
20
4.67950096380329
30
0
41
1
10
-24
20
4.54872537799758
30
0
41
1
10
-24
20
4.41719445888799
30
0
41
1
10
-24
20
4.28492388892991
30
0
41
1
10
-24
20
4.15193103870837
30
0
41
1
10
-24
20
4.01823650200188
30
0
41
1
10
-24
20
3.88386015063671
30
0
41
1
10
-24
20
3.74882265025218
30
0
41
1
10
-24
20
3.61314816606938
30
0
41
1
10
-24
20
3.47686551917991
30
0
41
1
10
-24
20
3.34000139230267
30
0
41
1
10
-24
20
3.20258393847712
30
0
41
1
10
-24
20
3.06464837689458
30
0
41
1
10
-24
20
2.9262304523017
30
0
41
1
10
-24
20
2.78737006373561
30
0
41
1
10
-24
20
2.64810891556724
30
0
41
1
10
-24
20
2.50849315364215
30
0
41
1
10
-24
20
2.36857603859875
30
0
41
1
10
-24
20
2.22840727338092
30
0
41
1
10
-24
20
2.11231267734073
30
0
41
1
10
-24
20
2.01771125590744
30
0
41
1
10
-24
20
1.92310511773127
30
0
41
1
10
-24
20
1.8313714962141
30
0
41
1
10
-24
20
1.73663368976398
30
0
41
1
10
-24
20
1.66636839269287
30
0
41
1
10
-24
20
1.59612143913762
30
0
41
1
10
-24
20
1.52590617425699
30
0
41
1
10
-24
20
1.45572440081648
30
0
41
1
10
-24
20
1.38559146347788
30
0
41
1
10
-24
20
1.31551245865842
30
0
41
1
10
-24
20
1.22103102890804
30
0
41
1
10
-24
20
1.13019491172781
30
0
41
1
10
-24
20
1.03590357373665
30
0
41
1
10
-24
20
0.966211278320685
30
0
41
1
10
-24
20
0.896616942008535
30
0
41
1
10
-24
20
0.827119549474418
30
0
41
1
10
-24
20
0.757724503129253
30
0
41
1
10
-24
20
0.688430802184314
30
0
41
1
10
-24
20
0.619238394305086
30
0
41
1
10
-24
20
0.550143822342449
30
0
41
1
10
-24
20
0.481142957404018
30
0
41
1
10
-24
20
0.412229055265982
30
0
41
1
10
-24
20
0.343394373554958
30
0
41
1
10
-24
20
0.274627961865065
30
0
41
1
10
-24
20
0.205919183520024
30
0
41
1
10
-24
20
0.137254128872428
30
0
41
1
10
-24
20
0.068619580615092
30
0
41
1
10
-24
20
1.20069785E-08
30
0
41
1
10
-24
20
-0.0686195837654395
30
0
41
1
10
-24
20
-0.1372541822264
30
0
41
1
10
-24
20
-0.205919229600312
30
0
41
1
10
-24
20
-0.274627932715674
30
0
41
1
10
-24
20
-0.343394334295567
30
0
41
1
10
-24
20
-0.412229116407673
30
0
41
1
10
-24
20
-0.48114304712405
30
0
41
1
10
-24
20
-0.55014378989776
30
0
41
1
10
-24
20
-0.619238310392802
30
0
41
1
10
-24
20
-0.688430856535206
30
0
41
1
10
-24
20
-0.757724640342815
30
0
41
1
10
-24
20
-0.827119544713668
30
0
41
1
10
-24
20
-0.896616816711344
30
0
41
1
10
-24
20
-0.966211277672699
30
0
41
1
10
-24
20
-1.03590373801057
30
0
41
1
10
-24
20
-1.13019491751669
30
0
41
1
10
-24
20
-1.22103090337816
30
0
41
1
10
-24
20
-1.31551253110209
30
0
41
1
10
-24
20
-1.38559165365194
30
0
41
1
10
-24
20
-1.45572444737027
30
0
41
1
10
-24
20
-1.52590604398472
30
0
41
1
10
-24
20
-1.59612132289769
30
0
41
1
10
-24
20
-1.66636846888792
30
0
41
1
10
-24
20
-1.73663389391052
30
0
41
1
10
-24
20
-1.83137150908334
30
0
41
1
10
-24
20
-1.923104963833
30
0
41
1
10
-24
20
-2.01771124909399
30
0
41
1
10
-24
20
-2.11231287096447
30
0
41
1
10
-24
20
-2.22840729138045
30
0
41
1
10
-24
20
-2.36857592379664
30
0
41
1
10
-24
20
-2.50849329023109
30
0
41
1
10
-24
20
-2.64810899336408
30
0
41
1
10
-24
20
-2.7873694745272
30
0
41
1
10
-24
20
-2.92622914514115
30
0
41
1
10
-24
20
-3.06464867495961
30
0
41
1
10
-24
20
-3.20258694679339
30
0
41
1
10
-24
20
-3.34000339886188
30
0
41
1
10
-24
20
-3.47686412773234
30
0
41
1
10
-24
20
-3.61314539193521
30
0
41
1
10
-24
20
-3.74882070125759
30
0
41
1
10
-24
20
-3.88386081960974
30
0
41
1
10
-24
20
-4.01823910176785
30
0
41
1
10
-24
20
-4.15193237523465
30
0
41
1
10
-24
20
-4.28492323331267
30
0
41
1
10
-24
20
-4.41719365917407
30
0
41
1
10
-24
20
-4.54872525063163
30
0
41
1
10
-24
20
-4.67950102029136
30
0
41
1
10
-24
20
-4.8095053694127
30
0
41
1
10
-24
20
-4.98285124277228
30
0
41
1
10
-24
20
-5.19525677656026
30
0
41
1
10
-24
20
-5.44799891971269
30
0
41
1
10
-24
20
-5.69736372546626
30
0
41
1
10
-24
20
-5.90137602298265
30
0
41
1
10
-24
20
-6.0644015068855
30
0
41
1
10
-24
20
-6.1851475156806
30
0
41
1
10
-24
20
-6.30499537148731
30
0
41
1
10
-24
20
-6.46441033734266
30
0
41
1
10
-24
20
-6.65959438580623
30
0
41
1
10
-24
20
-6.85167858307042
30
0
41
1
10
-24
20
-7.00483382763792
30
0
41
1
10
-24
20
-7.11820195418233
30
0
41
1
10
-24
20
-7.2306178054078
30
0
41
1
10
-24
20
-7.34207852113332
30
0
41
1
10
-24
20
-7.45257387547733
30
0
41
1
10
-24
20
-7.59930464836137
30
0
41
1
10
-24
20
-7.74204572237986
30
0
41
1
10
-24
20
-7.88481230085068
30
0
41
1
10
-24
20
-8.02625870014725
30
0
41
1
10
-24
20
-8.19913346952643
30
0
41
1
10
-24
20
-8.36865254580422
30
0
41
1
10
-24
20
-8.50332879773273
30
0
41
1
10
-24
20
-8.63663898786112
30
0
41
1
10
-24
20
-8.76613375581505
30
0
41
1
10
-24
20
-8.87892111197036
30
0
41
1
10
-24
20
-8.94296710462893
30
0
41
1
10
-24
20
-9.00666455327519
30
0
41
1
10
-24
20
-9.08500599911847
30
0
41
1
10
-24
20
-9.20992961783276
30
0
41
1
10
-24
20
-9.33111733072479
30
0
41
1
10
-24
20
-9.45175015939358
30
0
41
1
10
-24
20
-9.54075475929304
30
0
41
1
10
-24
20
-9.62867743247332
30
0
41
1
10
-24
20
-9.71550990736878
30
0
41
1
10
-24
20
-9.80124635456619
30
0
41
1
10
-24
20
-9.88588281033205
30
0
41
1
10
-24
20
-9.9694122909747
30
0
41
1
10
-24
20
-10.0518274374696
30
0
41
1
10
-24
20
-10.1331238647016
30
0
41
1
10
-24
20
-10.240478300249
30
0
41
1
10
-24
20
-10.3442039980406
30
0
41
1
10
-24
20
-10.4469857502475
30
0
41
1
10
-24
20
-10.5225869730086
30
0
41
1
10
-24
20
-10.5844084741421
30
0
41
1
10
-24
20
-10.6336671988976
30
0
41
1
10
-24
20
-10.6825334589273
30
0
41
1
10
-24
20
-10.7424101865055
30
0
41
1
10
-24
20
-10.8133337727233
30
0
41
1
10
-24
20
-10.8830697936353
30
0
41
1
10
-24
20
-10.951609404873
30
0
41
1
10
-24
20
-11.0189464931514
30
0
41
1
10
-24
20
-11.1074991058536
30
0
41
1
10
-24
20
-11.2142799044294
30
0
41
1
10
-24
20
-11.3169609751522
30
0
41
1
10
-24
20
-11.3972466509688
30
0
41
1
10
-24
20
-11.4758394909226
30
0
41
1
10
-24
20
-11.5508590446085
30
0
41
1
10
-24
20
-11.6243139791192
30
0
41
1
10
-24
20
-11.6778530233414
30
0
41
1
10
-24
20
-11.7300826287653
30
0
41
1
10
-24
20
-11.7809904199399
30
0
41
1
10
-24
20
-11.8305656793297
30
0
41
1
10
-24
20
-11.8787992978642
30
0
41
1
10
-24
20
-11.9256779481161
30
0
41
1
10
-24
20
-11.9866456736684
30
0
41
1
10
-24
20
-12.0440224201629
30
0
41
1
10
-24
20
-12.099415447517
30
0
41
1
10
-24
20
-12.1393440246738
30
0
41
1
10
-24
20
-12.1778433772408
30
0
41
1
10
-24
20
-12.2149010599454
30
0
41
1
10
-24
20
-12.250502752964
30
0
41
1
10
-24
20
-12.2962370828382
30
0
41
1
10
-24
20
-12.3383402824608
30
0
41
1
10
-24
20
-12.3780532736994
30
0
41
1
10
-24
20
-12.4061495785297
30
0
41
1
10
-24
20
-12.4326960530149
30
0
41
1
10
-24
20
-12.4661791203578
30
0
41
1
10
-24
20
-12.4959885477691
30
0
41
1
10
-24
20
-12.523037071398
30
0
41
1
10
-24
20
-12.5415673540695
30
0
41
1
10
-24
20
-12.55843663992
30
0
41
1
10
-24
20
-12.5736235086905
30
0
41
1
10
-24
20
-12.5871069547276
30
0
41
1
10
-24
20
-12.5988645879939
30
0
41
1
10
-24
20
-12.6088733436887
30
0
41
1
10
-24
20
-12.617109869821
30
0
41
1
10
-24
20
-12.6235493215145
30
0
41
1
10
-24
20
-12.6281667848456
30
0
41
1
10
-24
20
-12.630935840933
30
0
41
1
10
-24
20
-12.6318298800803
30
0
41
1
10
-24
20
-12.6311015696725
30
0
41
1
10
-24
20
-12.6302722736673
30
0
41
1
10
-24
20
-12.630145695441
30
0
0
SPLINE
5
E3
100
AcDbEntity
8
1
62
256
6
ByLayer
370
-1
48
1
60
0
100
AcDbSpline
70
4
71
3
72
12
73
8
40
0
40
0
40
0
40
0
40
0.422118800645954
40
0.422118800645954
40
0.843213952177651
40
0.843213952177651
40
1
40
1
40
1
40
1
41
1
10
42.3396890696986
20
20.7646172652996
30
0
41
1
10
42.2857581265523
20
20.7232824750593
30
0
41
1
10
42.2383366145375
20
20.6737701586609
30
0
41
1
10
42.162581002718
20
20.5686723326958
30
0
41
1
10
42.133011291947
20
20.5117475631868
30
0
41
1
10
42.1041538572052
20
20.432107906698
30
0
41
1
10
42.0974300639802
20
20.4101169973185
30
0
41
1
10
42.0918501886416
20
20.3880072437011
30
0
0
SPLINE
5
E4
100
AcDbEntity
8
1
62
256
6
ByLayer
370
-1
48
1
60
0
100
AcDbSpline
70
4
71
3
72
18
73
14
40
0
40
0
40
0
40
0
40
0.212491342405681
40
0.212491342405681
40
0.386617985385161
40
0.386617985385161
40
0.562426135472327
40
0.562426135472327
40
0.715388203408044
40
0.715388203408044
40
0.918248932482271
40
0.918248932482271
40
1
40
1
40
1
40
1
41
1
10
42.0736694534199
20
23.3064477100679
30
0
41
1
10
42.0926370377611
20
23.2380560627652
30
0
41
1
10
42.1230225633508
20
23.1703448750574
30
0
41
1
10
42.1989112444821
20
23.0570173018198
30
0
41
1
10
42.2416845252725
20
23.0084298855268
30
0
41
1
10
42.3406497626204
20
22.924502105045
30
0
41
1
10
42.3985566496511
20
22.8881951337333
30
0
41
1
10
42.5113204761739
20
22.838632275852
30
0
41
1
10
42.5669050743956
20
22.8223228537867
30
0
41
1
10
42.6937048533982
20
22.8011079870739
30
0
41
1
10
42.7662633050582
20
22.8010471426575
30
0
41
1
10
42.8622687007585
20
22.8151586968708
30
0
41
1
10
42.8895729315556
20
22.820918401969
30
0
41
1
10
42.9161897195274
20
22.8282196138728
30
0
0
SPLINE
5
E5
100
AcDbEntity
8
SK1
62
256
6
ByLayer
370
-1
48
1
60
0
100
AcDbSpline
70
4
71
3
72
8
73
4
40
0
40
0
40
0
40
0
40
1
40
1
40
1
40
1
41
1
10
-1.30710678118655
20
3.62781725664615
30
0
41
1
10
-1.37345758266253
20
3.29127686428785
30
0
41
1
10
-1.43729556141982
20
2.946602671997
30
0
41
1
10
-1.4950399779393
20
2.59465115838313
30
0
0
SPLINE
5
E6
100
AcDbEntity
8
1
62
256
6
ByLayer
370
-1
48
1
60
0
100
AcDbSpline
70
4
71
3
72
16
73
12
40
0
40
0
40
0
40
0
40
0.0629122300432742
40
0.0629122300432742
40
0.285786809133486
40
0.285786809133486
40
0.511455234977585
40
0.511455234977585
40
0.751578457748335
40
0.751578457748335
40
1
40
1
40
1
40
1
41
1
10
40.3559875094342
20
20.9930469859185
30
0
41
1
10
40.3602591909784
20
20.9857951097034
30
0
41
1
10
40.3648501335058
20
20.9787201486101
30
0
41
1
10
40.3868940590187
20
20.9477641817905
30
0
41
1
10
40.4080076857797
20
20.9261148504178
30
0
41
1
10
40.454756740248
20
20.8906896041882
30
0
41
1
10
40.4810262456016
20
20.8765459990349
30
0
41
1
10
40.5365819113633
20
20.8563777355661
30
0
41
1
10
40.566638326464
20
20.850648527187
30
0
41
1
10
40.6262988653516
20
20.8482701502762
30
0
41
1
10
40.6565224687542
20
20.8518860748678
30
0
41
1
10
40.6848278743015
20
20.8596504889715
30
0
0
SPLINE
5
E7
100
AcDbEntity
8
1
62
256
6
ByLayer
370
-1
48
1
60
0
100
AcDbSpline
70
4
71
3
72
16
73
12
40
0
40
0
40
0
40
0
40
0.0570827577112213
40
0.0570827577112213
40
0.2800416042956
40
0.2800416042956
40
0.505461650692571
40
0.505461650692571
40
0.745065830758167
40
0.745065830758167
40
1
40
1
40
1
40
1
41
1
10
43.2619581681838
20
21.0224619933026
30
0
41
1
10
43.2657025212918
20
21.0291234199207
30
0
41
1
10
43.2691883196002
20
21.0359384310287
30
0
41
1
10
43.2848360929755
20
21.0697390757445
30
0
41
1
10
43.2931845140327
20
21.0988332498401
30
0
41
1
10
43.3007775429843
20
21.1570137625237
30
0
41
1
10
43.3000405666572
20
21.1868344776204
30
0
41
1
10
43.2900256188937
20
21.2450441179565
30
0
41
1
10
43.2801190660267
20
21.2739593522467
30
0
41
1
10
43.2522710412184
20
21.3276552955612
30
0
41
1
10
43.2335543504067
20
21.3527053037647
30
0
41
1
10
43.2120821042534
20
21.3738065381735
30
0
0
SPLINE
5
E8
100
AcDbEntity
8
1
62
256
6
ByLayer
370
-1
48
1
60
0
100
AcDbSpline
70
4
71
3
72
16
73
12
40
0
40
0
40
0
40
0
40
0.0629122300432797
40
0.0629122300432797
40
0.285786809133456
40
0.285786809133456
40
0.511455234977553
40
0.511455234977553
40
0.751578457748272
40
0.751578457748272
40
1
40
1
40
1
40
1
41
1
10
43.2450300843947
20
22.6948231169257
30
0
41
1
10
43.2407584028505
20
22.7020749931408
30
0
41
1
10
43.2361674603231
20
22.7091499542341
30
0
41
1
10
43.2141235348102
20
22.7401059210537
30
0
41
1
10
43.1930099080492
20
22.7617552524265
30
0
41
1
10
43.1462608535809
20
22.7971804986561
30
0
41
1
10
43.1199913482273
20
22.8113241038094
30
0
41
1
10
43.0644356824657
20
22.8314923672781
30
0
41
1
10
43.0343792673649
20
22.8372215756572
30
0
41
1
10
42.9747187284773
20
22.8395999525681
30
0
41
1
10
42.9444951250747
20
22.8359840279764
30
0
41
1
10
42.9161897195274
20
22.8282196138728
30
0
0
SPLINE
5
E9
100
AcDbEntity
8
1
62
256
6
ByLayer
370
-1
48
1
60
0
100
AcDbSpline
70
4
71
3
72
14
73
10
40
0
40
0
40
0
40
0
40
0.282611672285711
40
0.282611672285711
40
0.569104663837759
40
0.569104663837759
40
0.828406714776577
40
0.828406714776577
40
1
40
1
40
1
40
1
41
1
10
41.527348140409
20
20.3814223927765
30
0
41
1
10
41.5362655867282
20
20.3492686491825
30
0
41
1
10
41.5511110519301
20
20.3176751340698
30
0
41
1
10
41.5917542782257
20
20.2609185921513
30
0
41
1
10
41.6183822642352
20
20.2350062581947
30
0
41
1
10
41.6769494200915
20
20.1967732936549
30
0
41
1
10
41.7090623277042
20
20.1828694185774
30
0
41
1
10
41.764522605217
20
20.1699314106089
30
0
41
1
10
41.7875927160754
20
20.1673288413203
30
0
41
1
10
41.8104606077355
20
20.1674645889739
30
0
0
SPLINE
5
EA
100
AcDbEntity
8
1
62
256
6
ByLayer
370
-1
48
1
60
0
100
AcDbSpline
70
4
71
3
72
12
73
8
40
0
40
0
40
0
40
0
40
0.495913112050073
40
0.495913112050073
40
0.900351883335817
40
0.900351883335817
40
1
40
1
40
1
40
1
41
1
10
42.9326468402343
20
20.8832743211448
30
0
41
1
10
42.8636824587625
20
20.9015417771313
30
0
41
1
10
42.789520101937
20
20.9094970101097
30
0
41
1
10
42.6530093233411
20
20.9009974774233
30
0
41
1
10
42.5894811085698
20
20.8885194528876
30
0
41
1
10
42.5131959290949
20
20.861563294257
30
0
41
1
10
42.4980502382496
20
20.855603496155
30
0
41
1
10
42.4831016196304
20
20.8490937131291
30
0
0
SPLINE
5
EB
100
AcDbEntity
8
1
62
256
6
ByLayer
370
-1
48
1
60
0
100
AcDbSpline
70
4
71
3
72
16
73
12
40
0
40
0
40
0
40
0
40
0.0614836048264916
40
0.0614836048264916
40
0.282260881681941
40
0.282260881681941
40
0.50575810851844
40
0.50575810851844
40
0.743534760153637
40
0.743534760153637
40
1
40
1
40
1
40
1
41
1
10
41.7905569860934
20
23.5204055138703
30
0
41
1
10
41.7822524353445
20
23.5203562166594
30
0
41
1
10
41.7739407675781
20
23.519951647426
30
0
41
1
10
41.7362048096082
20
23.5164980216441
30
0
41
1
10
41.706866176525
20
23.5091520332721
30
0
41
1
10
41.6527216103154
20
23.4865889115223
30
0
41
1
10
41.6272776435626
20
23.4710105483314
30
0
41
1
10
41.5818894327282
20
23.4331629909573
30
0
41
1
10
41.5618115626116
20
23.4100804752451
30
0
41
1
10
41.5290472104315
20
23.3586703350243
30
0
41
1
10
41.5166383771445
20
23.3294659128378
30
0
41
1
10
41.5091674051873
20
23.2998628591432
30
0
0
SPLINE
5
EC
100
AcDbEntity
8
1
62
256
6
ByLayer
370
-1
48
1
60
0
100
AcDbSpline
70
4
71
3
72
14
73
10
40
0
40
0
40
0
40
0
40
0.282360997401772
40
0.282360997401772
40
0.56706939094349
40
0.56706939094349
40
0.824671716722405
40
0.824671716722405
40
1
40
1
40
1
40
1
41
1
10
40.6683707535947
20
22.8045957816995
30
0
41
1
10
40.6358766468772
20
22.8132029010793
30
0
41
1
10
40.6008417141068
20
22.8163274712939
30
0
41
1
10
40.5310199893423
20
22.8097044992122
30
0
41
1
10
40.4951607875472
20
22.7996846071084
30
0
41
1
10
40.4325587769753
20
22.7681719414051
30
0
41
1
10
40.4043537140486
20
22.7473306735109
30
0
41
1
10
40.3648108491928
20
22.7052693309805
30
0
41
1
10
40.3506141232192
20
22.6859646029508
30
0
41
1
10
40.3390594256451
20
22.6654081095417
30
0
0
SPLINE
5
ED
100
AcDbEntity
8
SK1
62
256
6
ByLayer
370
-1
48
1
60
0
100
AcDbSpline
70
4
71
3
72
22
73
18
40
0
40
0
40
0
40
0
40
0.0262442859026881
40
0.0262442859026881
40
0.0530261157854851
40
0.0530261157854851
40
0.0713559655737796
40
0.0713559655737796
40
0.089587401263909
40
0.089587401263909
40
0.119482247898519
40
0.119482247898519
40
0.178618886842945
40
0.178618886842945
40
0.388022338076953
40
0.388022338076953
40
1
40
1
40
1
40
1
41
1
10
-0.394976888875291
20
5.0009244140283
30
0
41
1
10
-0.389542958903149
20
4.99654803778401
30
0
41
1
10
-0.383617633691586
20
4.99263335383438
30
0
41
1
10
-0.370682657201087
20
4.98677476419829
30
0
41
1
10
-0.363425194676552
20
4.98483424058901
30
0
41
1
10
-0.350979181144169
20
4.98462903203949
30
0
41
1
10
-0.345738268039327
20
4.98542011278013
30
0
41
1
10
-0.335836240990062
20
4.98861553627458
30
0
41
1
10
-0.331061456711964
20
4.99102841332402
30
0
41
1
10
-0.319537139874143
20
4.9986715699325
30
0
41
1
10
-0.313226756018608
20
5.00478758784652
30
0
41
1
10
-0.296826258261476
20
5.02421063341325
30
0
41
1
10
-0.288455270980236
20
5.03906576138257
30
0
41
1
10
-0.256353055935392
20
5.10678482490906
30
0
41
1
10
-0.244000373144985
20
5.16381228581221
30
0
41
1
10
-0.204596889637315
20
5.38213882730372
30
0
41
1
10
-0.200000000000046
20
5.54465158381666
30
0
41
1
10
-0.200000000000046
20
5.70317614351262
30
0
0
SPLINE
5
EE
100
AcDbEntity
8
SK1
62
256
6
ByLayer
370
-1
48
1
60
0
100
AcDbSpline
70
4
71
3
72
100
73
96
40
0
40
0
40
0
40
0
40
0.0043783247532282
40
0.0136712309453665
40
0.0229641371375048
40
0.0322570433296431
40
0.0415499495217814
40
0.0601357619060581
40
0.0787215742903348
40
0.0973073866746114
40
0.115893199058888
40
0.125186105251026
40
0.134479011443165
40
0.143771917635303
40
0.153064823827441
40
0.171650636211718
40
0.190236448595995
40
0.199529354788133
40
0.208822260980271
40
0.21811516717241
40
0.227408073364548
40
0.236700979556686
40
0.245993885748825
40
0.264579698133101
40
0.27387260432524
40
0.283165510517378
40
0.301751322901655
40
0.320337135285931
40
0.32963004147807
40
0.338922947670208
40
0.357508760054485
40
0.366801666246623
40
0.371448119342692
40
0.376094572438761
40
0.385387478630899
40
0.394680384823038
40
0.413266197207314
40
0.422559103399453
40
0.431852009591591
40
0.441144915783729
40
0.450437821975868
40
0.459730728168006
40
0.469023634360144
40
0.478316540552283
40
0.487609446744421
40
0.496902352936559
40
0.506195259128698
40
0.524781071512974
40
0.534073977705113
40
0.543366883897251
40
0.552659790089389
40
0.557306243185458
40
0.561952696281528
40
0.571245602473666
40
0.580538508665804
40
0.589831414857943
40
0.599124321050081
40
0.608417227242219
40
0.617710133434358
40
0.636295945818634
40
0.654881758202911
40
0.664174664395049
40
0.673467570587188
40
0.692053382971464
40
0.701346289163602
40
0.710639195355741
40
0.719932101547879
40
0.729225007740017
40
0.738517913932156
40
0.747810820124294
40
0.757103726316433
40
0.766396632508571
40
0.784982444892847
40
0.794275351084986
40
0.803568257277124
40
0.812861163469262
40
0.822154069661401
40
0.831446975853539
40
0.840739882045677
40
0.859325694429954
40
0.868618600622092
40
0.877911506814231
40
0.887204413006369
40
0.896497319198507
40
0.915083131582784
40
0.924376037774922
40
0.933668943967061
40
0.942961850159199
40
0.952254756351337
40
0.961547662543476
40
0.970840568735614
40
0.980133474927752
40
0.98942638111989
40
0.998719287312029
40
1
40
1
40
1
40
1
41
1
10
-0.394976888875291
20
-5.00092508225416
30
0
41
1
10
-0.394976888875291
20
-5.02359314607176
30
0
41
1
10
-0.394976888875291
20
-5.09425535366776
30
0
41
1
10
-0.394976888875291
20
-5.21232773830431
30
0
41
1
10
-0.394976888875291
20
-5.35463943777347
30
0
41
1
10
-0.394976888875291
20
-5.49591839522026
30
0
41
1
10
-0.394976888875291
20
-5.68302324398948
30
0
41
1
10
-0.394976888875291
20
-5.91406388300979
30
0
41
1
10
-0.394976888875291
20
-6.18726435105106
30
0
41
1
10
-0.394976888875291
20
-6.45627504712579
30
0
41
1
10
-0.394976888875291
20
-6.6768468885183
30
0
41
1
10
-0.394976888875291
20
-6.85136201549099
30
0
41
1
10
-0.394976888875291
20
-6.98112245032084
30
0
41
1
10
-0.394976888875291
20
-7.10982246715957
30
0
41
1
10
-0.394976888875291
20
-7.28009512097313
30
0
41
1
10
-0.394976888875291
20
-7.49008091096033
30
0
41
1
10
-0.394976888875291
20
-7.69650359935568
30
0
41
1
10
-0.394976888875291
20
-7.85964216476054
30
0
41
1
10
-0.394976888875291
20
-7.98086146605701
30
0
41
1
10
-0.394976888875291
20
-8.10100253994159
30
0
41
1
10
-0.394976888875291
20
-8.22006380191277
30
0
41
1
10
-0.394976888875291
20
-8.3380422654499
30
0
41
1
10
-0.394976888875291
20
-8.49397420958985
30
0
41
1
10
-0.394976888875291
20
-8.64751156797169
30
0
41
1
10
-0.394976888875291
20
-8.79907644696402
30
0
41
1
10
-0.394976888875291
20
-8.94918034619519
30
0
41
1
10
-0.394976888875291
20
-9.13390680482667
30
0
41
1
10
-0.394976888875291
20
-9.31494999082747
30
0
41
1
10
-0.394976888875291
20
-9.45767863215664
30
0
41
1
10
-0.394976888875291
20
-9.59892077296985
30
0
41
1
10
-0.394976888875291
20
-9.73773602301958
30
0
41
1
10
-0.394976888875291
20
-9.85736937045593
30
0
41
1
10
-0.394976888875291
20
-9.92517902838179
30
0
41
1
10
-0.394976888875291
20
-9.99261145812801
30
0
41
1
10
-0.394976888875291
20
-10.0761265678462
30
0
41
1
10
-0.394976888875291
20
-10.2083399899529
30
0
41
1
10
-0.394976888875291
20
-10.338096057249
30
0
41
1
10
-0.394976888875291
20
-10.4657231753345
30
0
41
1
10
-0.394976888875291
20
-10.5602461538978
30
0
41
1
10
-0.394976888875291
20
-10.6536100894112
30
0
41
1
10
-0.394976888875291
20
-10.7458098983122
30
0
41
1
10
-0.394976888875291
20
-10.8368404586376
30
0
41
1
10
-0.394976888875291
20
-10.9266969919675
30
0
41
1
10
-0.394976888875291
20
-11.0153746961414
30
0
41
1
10
-0.394976888875291
20
-11.1028676417001
30
0
41
1
10
-0.394976888875291
20
-11.1891707748317
30
0
41
1
10
-0.394976888875291
20
-11.3026972665534
30
0
41
1
10
-0.394976888875291
20
-11.413674138825
30
0
41
1
10
-0.394976888875291
20
-11.5223699808134
30
0
41
1
10
-0.394976888875291
20
-11.6026363770329
30
0
41
1
10
-0.394976888875291
20
-11.6684804460587
30
0
41
1
10
-0.394976888875291
20
-11.7205808983271
30
0
41
1
10
-0.394976888875291
20
-11.7722691819395
30
0
41
1
10
-0.394976888875291
20
-11.836053984022
30
0
41
1
10
-0.394976888875291
20
-11.9113764724791
30
0
41
1
10
-0.394976888875291
20
-11.9854459723214
30
0
41
1
10
-0.394976888875291
20
-12.0582544232072
30
0
41
1
10
-0.394976888875291
20
-12.1297946270485
30
0
41
1
10
-0.394976888875291
20
-12.2235215963167
30
0
41
1
10
-0.394976888875291
20
-12.3373769247913
30
0
41
1
10
-0.394976888875291
20
-12.446899173783
30
0
41
1
10
-0.394976888875291
20
-12.5319491682166
30
0
41
1
10
-0.394976888875291
20
-12.6152283642396
30
0
41
1
10
-0.394976888875291
20
-12.6957215996061
30
0
41
1
10
-0.394976888875291
20
-12.773610902979
30
0
41
1
10
-0.394976888875291
20
-12.8306328883531
30
0
41
1
10
-0.394976888875291
20
-12.8862769625636
30
0
41
1
10
-0.394976888875291
20
-12.940532100831
30
0
41
1
10
-0.394976888875291
20
-12.9933861205259
30
0
41
1
10
-0.394976888875291
20
-13.0448282543027
30
0
41
1
10
-0.394976888875291
20
-13.0948461430692
30
0
41
1
10
-0.394976888875291
20
-13.1596507828291
30
0
41
1
10
-0.394976888875291
20
-13.221467049789
30
0
41
1
10
-0.394976888875291
20
-13.2804176772461
30
0
41
1
10
-0.394976888875291
20
-13.3231185723383
30
0
41
1
10
-0.394976888875291
20
-13.3643136307331
30
0
41
1
10
-0.394976888875291
20
-13.4039879870964
30
0
41
1
10
-0.394976888875291
20
-13.4421262291561
30
0
41
1
10
-0.394976888875291
20
-13.490931201485
30
0
41
1
10
-0.394976888875291
20
-13.5365270011545
30
0
41
1
10
-0.394976888875291
20
-13.5789822078612
30
0
41
1
10
-0.394976888875291
20
-13.6091837809887
30
0
41
1
10
-0.394976888875291
20
-13.6377421279937
30
0
41
1
10
-0.394976888875291
20
-13.6736219491958
30
0
41
1
10
-0.394976888875291
20
-13.706079968468
30
0
41
1
10
-0.394976888875291
20
-13.7351343539634
30
0
41
1
10
-0.394976888875291
20
-13.7551609910392
30
0
41
1
10
-0.394976888875291
20
-13.7734119916164
30
0
41
1
10
-0.394976888875291
20
-13.7898613788954
30
0
41
1
10
-0.394976888875291
20
-13.8044829828858
30
0
41
1
10
-0.394976888875291
20
-13.8172491473121
30
0
41
1
10
-0.394976888875291
20
-13.8281307581185
30
0
41
1
10
-0.394976888875291
20
-13.8370980881852
30
0
41
1
10
-0.394976888875291
20
-13.8421014019358
30
0
41
1
10
-0.394976888875291
20
-13.8443373794894
30
0
41
1
10
-0.394976888875291
20
-13.8446019297682
30
0
0
SPLINE
5
EF
100
AcDbEntity
8
1
62
256
6
ByLayer
370
-1
48
1
60
0
100
AcDbSpline
70
4
71
3
72
12
73
8
40
0
40
0
40
0
40
0
40
0.422118800761362
40
0.422118800761362
40
0.843213952313975
40
0.843213952313975
40
1
40
1
40
1
40
1
41
1
10
41.2613285241302
20
22.9232528375446
30
0
41
1
10
41.3152594672913
20
22.9645876277962
30
0
41
1
10
41.3626809793173
20
23.0140999442104
30
0
41
1
10
41.4384365911394
20
23.1191977701968
30
0
41
1
10
41.4680063019067
20
23.1761225397102
30
0
41
1
10
41.4968637366353
20
23.2557621961844
30
0
41
1
10
41.5035875298535
20
23.2777531055449
30
0
41
1
10
41.5091674051873
20
23.2998628591432
30
0
0
SPLINE
5
F0
100
AcDbEntity
8
SK1
62
256
6
ByLayer
370
-1
48
1
60
0
100
AcDbSpline
70
4
71
3
72
22
73
18
40
0
40
0
40
0
40
0
40
0.0408146055975421
40
0.0408146055975421
40
0.0823243808208714
40
0.0823243808208714
40
0.113722137960843
40
0.113722137960843
40
0.144934004837801
40
0.144934004837801
40
0.197663645148653
40
0.197663645148653
40
0.33040493622216
40
0.33040493622216
40
0.796191409884692
40
0.796191409884692
40
1
40
1
40
1
40
1
41
1
10
-0.394976888875291
20
-5.00092508226666
30
0
41
1
10
-0.41553010785394
20
-5.01747813555136
30
0
41
1
10
-0.438024560131566
20
-5.03261131985604
30
0
41
1
10
-0.487324802537927
20
-5.05682200266617
30
0
41
1
10
-0.514951385379717
20
-5.065973715838
30
0
41
1
10
-0.565001076851487
20
-5.07238571210249
30
0
41
1
10
-0.587551462055302
20
-5.07198375916977
30
0
41
1
10
-0.630654498772842
20
-5.06497384681828
30
0
41
1
10
-0.65169083057323
20
-5.05839846240309
30
0
41
1
10
-0.704063404944179
20
-5.0354696203506
30
0
41
1
10
-0.733646054998772
20
-5.01537181535585
30
0
41
1
10
-0.825717517678285
20
-4.93804001611764
30
0
41
1
10
-0.875568215521142
20
-4.86927174197922
30
0
41
1
10
-1.06893868726922
20
-4.55513362670803
30
0
41
1
10
-1.15213866111816
20
-4.27852588598478
30
0
41
1
10
-1.25478905452405
20
-3.87761185644086
30
0
41
1
10
-1.28234760083204
20
-3.75339907142145
30
0
41
1
10
-1.30710678118763
20
-3.62781610099955
30
0
0
SPLINE
5
F1
100
AcDbEntity
8
SK1
62
256
6
ByLayer
370
-1
48
1
60
0
100
AcDbSpline
70
4
71
3
72
8
73
4
40
0
40
0
40
0
40
0
40
1
40
1
40
1
40
1
41
1
10
-1.4950399779393
20
-2.59465115086957
30
0
41
1
10
-1.43729564430089
20
-2.94660231507382
30
0
41
1
10
-1.37345704405578
20
-3.29127575598179
30
0
41
1
10
-1.30710678118653
20
-3.6278161010051
30
0
0
SPLINE
5
F2
100
AcDbEntity
8
1
62
256
6
ByLayer
370
-1
48
1
60
0
100
AcDbSpline
70
4
71
3
72
14
73
10
40
0
40
0
40
0
40
0
40
0.283781629690342
40
0.283781629690342
40
0.570127690168371
40
0.570127690168371
40
0.829311744930018
40
0.829311744930018
40
1
40
1
40
1
40
1
41
1
10
43.2022763170749
20
22.3425409482828
30
0
41
1
10
43.2256933100806
20
22.3665042335645
30
0
41
1
10
43.2456197587715
20
22.3953544158688
30
0
41
1
10
43.2742345310943
20
22.4591794386298
30
0
41
1
10
43.2832057467477
20
22.4952216070112
30
0
41
1
10
43.2867416035545
20
22.5650496982244
30
0
41
1
10
43.2825850827192
20
22.5997827307227
30
0
41
1
10
43.2658789267386
20
22.6540888856674
30
0
41
1
10
43.2565756345106
20
22.6752226623015
30
0
41
1
10
43.2450300843947
20
22.6948231169257
30
0
0
SPLINE
5
F3
100
AcDbEntity
8
1
62
256
6
ByLayer
370
-1
48
1
60
0
100
AcDbSpline
70
4
71
3
72
16
73
12
40
0
40
0
40
0
40
0
40
0.0614836048264095
40
0.0614836048264095
40
0.282260881681886
40
0.282260881681886
40
0.505758108518388
40
0.505758108518388
40
0.743534760153632
40
0.743534760153632
40
1
40
1
40
1
40
1
41
1
10
41.8104606077355
20
20.1674645889739
30
0
41
1
10
41.8187651584844
20
20.1675138861848
30
0
41
1
10
41.8270768262508
20
20.1679184554183
30
0
41
1
10
41.8648127842207
20
20.1713720812002
30
0
41
1
10
41.8941514173039
20
20.1787180695721
30
0
41
1
10
41.9482959835134
20
20.2012811913219
30
0
41
1
10
41.9737399502663
20
20.2168595545128
30
0
41
1
10
42.0191281611007
20
20.2547071118869
30
0
41
1
10
42.0392060312173
20
20.2777896275991
30
0
41
1
10
42.0719703833974
20
20.3291997678199
30
0
41
1
10
42.0843792166844
20
20.3584041900064
30
0
41
1
10
42.0918501886416
20
20.3880072437011
30
0
0
SPLINE
5
F4
100
AcDbEntity
8
1
62
256
6
ByLayer
370
-1
48
1
60
0
100
AcDbSpline
70
4
71
3
72
14
73
10
40
0
40
0
40
0
40
0
40
0.283781629690375
40
0.283781629690375
40
0.5701276901684
40
0.5701276901684
40
0.829311744930039
40
0.829311744930039
40
1
40
1
40
1
40
1
41
1
10
40.398741276754
20
21.3453291545614
30
0
41
1
10
40.3753242837482
20
21.3213658692797
30
0
41
1
10
40.3553978350573
20
21.2925156869754
30
0
41
1
10
40.3267830627346
20
21.2286906642144
30
0
41
1
10
40.3178118470812
20
21.1926484958331
30
0
41
1
10
40.3142759902744
20
21.1228204046199
30
0
41
1
10
40.3184325111097
20
21.0880873721215
30
0
41
1
10
40.3351386670903
20
21.0337812171768
30
0
41
1
10
40.3444419593183
20
21.0126474405427
30
0
41
1
10
40.3559875094342
20
20.9930469859185
30
0
0
SPLINE
5
F5
100
AcDbEntity
8
SK1
62
256
6
ByLayer
370
-1
48
1
60
0
100
AcDbSpline
70
4
71
3
72
24
73
20
40
0
40
0
40
0
40
0
40
0.408002420194574
40
0.408002420194574
40
0.586477084363329
40
0.586477084363329
40
0.763728221544513
40
0.763728221544513
40
0.83464833042642
40
0.83464833042642
40
0.871680147904128
40
0.871680147904128
40
0.909315863704638
40
0.909315863704638
40
0.941446160303592
40
0.941446160303592
40
0.988233002766673
40
0.988233002766673
40
1
40
1
40
1
40
1
41
1
10
-1.30710678118653
20
3.62781725664615
30
0
41
1
10
-1.25754709276271
20
3.87919081380429
30
0
41
1
10
-1.1977179392694
20
4.12580048883993
30
0
41
1
10
-1.07980138365164
20
4.46640123366592
30
0
41
1
10
-1.03947389583291
20
4.56855181342542
30
0
41
1
10
-0.943165684412477
20
4.76452984977917
30
0
41
1
10
-0.887972849225292
20
4.86076144162979
30
0
41
1
10
-0.781589632759719
20
4.97623115222154
30
0
41
1
10
-0.746942513659562
20
5.00751721259149
30
0
41
1
10
-0.685298347589722
20
5.04425501792002
30
0
41
1
10
-0.662073057062727
20
5.05499571071985
30
0
41
1
10
-0.612858105189787
20
5.06918922724967
30
0
41
1
10
-0.586087478285805
20
5.07253385323432
30
0
41
1
10
-0.537899014579082
20
5.06994558199364
30
0
41
1
10
-0.515734678473706
20
5.06532466911642
30
0
41
1
10
-0.465255653618996
20
5.04798484569733
30
0
41
1
10
-0.437776087568892
20
5.03248974169182
30
0
41
1
10
-0.406986543980821
20
5.01034621255963
30
0
41
1
10
-0.400907252385935
20
5.00570060770795
30
0
41
1
10
-0.394976888875291
20
5.00092441402839
30
0
0
SPLINE
5
F6
100
AcDbEntity
8
1
62
256
6
ByLayer
370
-1
48
1
60
0
100
AcDbSpline
70
4
71
3
72
18
73
14
40
0
40
0
40
0
40
0
40
0.212437915935466
40
0.212437915935466
40
0.386573882570251
40
0.386573882570251
40
0.56239198342568
40
0.56239198342568
40
0.715355871380655
40
0.715355871380655
40
0.91820705423188
40
0.91820705423188
40
1
40
1
40
1
40
1
41
1
10
40.398741276754
20
21.3453291545614
30
0
41
1
10
40.4483324537384
20
21.3960772382816
30
0
41
1
10
40.4916017479443
20
21.4563505647881
30
0
41
1
10
40.5514626266781
20
21.5788823820553
30
0
41
1
10
40.5719883246777
20
21.640277036783
30
0
41
1
10
40.5948432346933
20
21.7680156809902
30
0
41
1
10
40.5971466354714
20
21.8363283959467
30
0
41
1
10
40.5833522177643
20
21.9587338159411
30
0
41
1
10
40.5695300271785
20
22.0149899202364
30
0
41
1
10
40.5241735985121
20
22.13528414703
30
0
41
1
10
40.4877766218023
20
22.1980506487305
30
0
41
1
10
40.4273380657537
20
22.2739829064383
30
0
41
1
10
40.4086309949003
20
22.2947083713811
30
0
41
1
10
40.3889354895755
20
22.3140635646707
30
0
0
SPLINE
5
F7
100
AcDbEntity
8
SK1
62
256
6
ByLayer
370
-1
48
1
60
0
100
AcDbSpline
70
4
71
3
72
98
73
94
40
0
40
0
40
0
40
0
40
0.0012808740763045
40
0.0105737783742241
40
0.0198666826721437
40
0.0291595869700633
40
0.0384524912679829
40
0.0477453955659025
40
0.0663312041617417
40
0.0849170127575809
40
0.10350282135342
40
0.11279572565134
40
0.122088629949259
40
0.131381534247179
40
0.140674438545099
40
0.159260247140938
40
0.168553151438857
40
0.177846055736777
40
0.187138960034696
40
0.196431864332616
40
0.205724768630536
40
0.215017672928455
40
0.233603481524295
40
0.242896385822214
40
0.252189290120134
40
0.261482194418053
40
0.270775098715973
40
0.280068003013893
40
0.289360907311812
40
0.298653811609732
40
0.307946715907651
40
0.326532524503491
40
0.33582542880141
40
0.34511833309933
40
0.363704141695169
40
0.382289950291008
40
0.391582854588928
40
0.400875758886847
40
0.410168663184767
40
0.419461567482687
40
0.428754471780606
40
0.438047376078526
40
0.442693828227486
40
0.447340280376445
40
0.456633184674365
40
0.465926088972284
40
0.475218993270204
40
0.493804801866043
40
0.503097706163963
40
0.512390610461883
40
0.521683514759802
40
0.530976419057722
40
0.540269323355641
40
0.549562227653561
40
0.558855131951481
40
0.5681480362494
40
0.57744094054732
40
0.586733844845239
40
0.605319653441079
40
0.614612557738998
40
0.623905462036918
40
0.628551914185878
40
0.633198366334837
40
0.642491270632757
40
0.661077079228596
40
0.670369983526516
40
0.679662887824435
40
0.698248696420275
40
0.716834505016114
40
0.726127409314034
40
0.735420313611953
40
0.754006122207792
40
0.763299026505712
40
0.772591930803632
40
0.781884835101551
40
0.791177739399471
40
0.80047064369739
40
0.80976354799531
40
0.828349356591149
40
0.846935165186988
40
0.856228069484908
40
0.865520973782828
40
0.874813878080747
40
0.884106782378667
40
0.902692590974506
40
0.921278399570345
40
0.939864208166184
40
0.958450016762024
40
0.967742921059943
40
0.977035825357863
40
0.986328729655782
40
0.995621633953702
40
1
40
1
40
1
40
1
41
1
10
-0.394976888875291
20
13.8446015176322
30
0
41
1
10
-0.394976888875291
20
13.8443369604552
30
0
41
1
10
-0.394976888875291
20
13.842101166137
30
0
41
1
10
-0.394976888875291
20
13.8370982474882
30
0
41
1
10
-0.394976888875291
20
13.8281310063336
30
0
41
1
10
-0.394976888875291
20
13.8172492272358
30
0
41
1
10
-0.394976888875291
20
13.8044829705053
30
0
41
1
10
-0.394976888875291
20
13.7849758313288
30
0
41
1
10
-0.394976888875291
20
13.7560496751861
30
0
41
1
10
-0.394976888875291
20
13.7142204148031
30
0
41
1
10
-0.394976888875291
20
13.6736219510479
30
0
41
1
10
-0.394976888875291
20
13.6377421071264
30
0
41
1
10
-0.394976888875291
20
13.6091837483775
30
0
41
1
10
-0.394976888875291
20
13.5789821852606
30
0
41
1
10
-0.394976888875291
20
13.5365270016785
30
0
41
1
10
-0.394976888875291
20
13.4909311840823
30
0
41
1
10
-0.394976888875291
20
13.4421262012037
30
0
41
1
10
-0.394976888875291
20
13.4039879614121
30
0
41
1
10
-0.394976888875291
20
13.3643136176474
30
0
41
1
10
-0.394976888875291
20
13.3231185671574
30
0
41
1
10
-0.394976888875291
20
13.2804176635455
30
0
41
1
10
-0.394976888875291
20
13.2214670183476
30
0
41
1
10
-0.394976888875291
20
13.1596507604527
30
0
41
1
10
-0.394976888875291
20
13.094846134259
30
0
41
1
10
-0.394976888875291
20
13.0448282447276
30
0
41
1
10
-0.394976888875291
20
12.9933861020735
30
0
41
1
10
-0.394976888875291
20
12.9405320737836
30
0
41
1
10
-0.394976888875291
20
12.8862769376535
30
0
41
1
10
-0.394976888875291
20
12.8306328717281
30
0
41
1
10
-0.394976888875291
20
12.7736108931729
30
0
41
1
10
-0.394976888875291
20
12.6957215859151
30
0
41
1
10
-0.394976888875291
20
12.6152283382819
30
0
41
1
10
-0.394976888875291
20
12.5319491453114
30
0
41
1
10
-0.394976888875291
20
12.4468991604423
30
0
41
1
10
-0.394976888875291
20
12.3373769122162
30
0
41
1
10
-0.394976888875291
20
12.2235215734124
30
0
41
1
10
-0.394976888875291
20
12.1297946053789
30
0
41
1
10
-0.394976888875291
20
12.0582544060742
30
0
41
1
10
-0.394976888875291
20
11.9854459580753
30
0
41
1
10
-0.394976888875291
20
11.9113764581405
30
0
41
1
10
-0.394976888875291
20
11.8360539668501
30
0
41
1
10
-0.394976888875291
20
11.7722691621604
30
0
41
1
10
-0.394976888875291
20
11.7205808778945
30
0
41
1
10
-0.394976888875291
20
11.6684804259269
30
0
41
1
10
-0.394976888875291
20
11.6026363586083
30
0
41
1
10
-0.394976888875291
20
11.5223699646631
30
0
41
1
10
-0.394976888875291
20
11.4136741241806
30
0
41
1
10
-0.394976888875291
20
11.3026972493618
30
0
41
1
10
-0.394976888875291
20
11.1891707558493
30
0
41
1
10
-0.394976888875291
20
11.102867622286
30
0
41
1
10
-0.394976888875291
20
11.0153746780185
30
0
41
1
10
-0.394976888875291
20
10.9266969759659
30
0
41
1
10
-0.394976888875291
20
10.8368404439692
30
0
41
1
10
-0.394976888875291
20
10.74580988339
30
0
41
1
10
-0.394976888875291
20
10.6536100721469
30
0
41
1
10
-0.394976888875291
20
10.5602461340712
30
0
41
1
10
-0.394976888875291
20
10.4657231550753
30
0
41
1
10
-0.394976888875291
20
10.3380960413352
30
0
41
1
10
-0.394976888875291
20
10.2083399780688
30
0
41
1
10
-0.394976888875291
20
10.0761265525343
30
0
41
1
10
-0.394976888875291
20
9.99261143893298
30
0
41
1
10
-0.394976888875291
20
9.92517900727512
30
0
41
1
10
-0.394976888875291
20
9.85736934874495
30
0
41
1
10
-0.394976888875291
20
9.73773600630287
30
0
41
1
10
-0.394976888875291
20
9.59892076352932
30
0
41
1
10
-0.394976888875291
20
9.45767861814849
30
0
41
1
10
-0.394976888875291
20
9.3149499665038
30
0
41
1
10
-0.394976888875291
20
9.13390678694702
30
0
41
1
10
-0.394976888875291
20
8.94918033853523
30
0
41
1
10
-0.394976888875291
20
8.79907643306458
30
0
41
1
10
-0.394976888875291
20
8.64751154095558
30
0
41
1
10
-0.394976888875291
20
8.49397418950429
30
0
41
1
10
-0.394976888875291
20
8.33804225713789
30
0
41
1
10
-0.394976888875291
20
8.22006379392718
30
0
41
1
10
-0.394976888875291
20
8.10100252302422
30
0
41
1
10
-0.394976888875291
20
7.98086143927398
30
0
41
1
10
-0.394976888875291
20
7.85964213989763
30
0
41
1
10
-0.394976888875291
20
7.69650359349293
30
0
41
1
10
-0.394976888875291
20
7.49008089634199
30
0
41
1
10
-0.394976888875291
20
7.28009509164627
30
0
41
1
10
-0.394976888875291
20
7.10982244878713
30
0
41
1
10
-0.394976888875291
20
6.98112244545175
30
0
41
1
10
-0.394976888875291
20
6.85136200824962
30
0
41
1
10
-0.394976888875291
20
6.67684685573994
30
0
41
1
10
-0.394976888875291
20
6.45627503636445
30
0
41
1
10
-0.394976888875291
20
6.18726433662556
30
0
41
1
10
-0.394976888875291
20
5.91406385279547
30
0
41
1
10
-0.394976888875291
20
5.68302324019061
30
0
41
1
10
-0.394976888875291
20
5.49591838220567
30
0
41
1
10
-0.394976888875291
20
5.35463940810163
30
0
41
1
10
-0.394976888875291
20
5.21232773385495
30
0
41
1
10
-0.394976888875291
20
5.09425517295406
30
0
41
1
10
-0.394976888875291
20
5.02359271293304
30
0
41
1
10
-0.394976888875291
20
5.0009244140283
30
0
0
SPLINE
5
F8
100
AcDbEntity
8
1
62
256
6
ByLayer
370
-1
48
1
60
0
100
AcDbSpline
70
4
71
3
72
14
73
10
40
0
40
0
40
0
40
0
40
0.282360997401774
40
0.282360997401774
40
0.567069390943498
40
0.567069390943498
40
0.82467171672241
40
0.82467171672241
40
1
40
1
40
1
40
1
41
1
10
42.9326468402343
20
20.8832743211448
30
0
41
1
10
42.9651409469517
20
20.8746672017649
30
0
41
1
10
43.0001758797221
20
20.8715426315503
30
0
41
1
10
43.0699976044866
20
20.878165603632
30
0
41
1
10
43.1058568062817
20
20.8881854957358
30
0
41
1
10
43.1684588168536
20
20.9196981614391
30
0
41
1
10
43.1966638797803
20
20.9405394293334
30
0
41
1
10
43.2362067446361
20
20.9826007718637
30
0
41
1
10
43.2504034706096
20
21.0019054998934
30
0
41
1
10
43.2619581681838
20
21.0224619933026
30
0
0
SPLINE
5
F9
100
AcDbEntity
8
1
62
256
6
ByLayer
370
-1
48
1
60
0
100
AcDbSpline
70
4
71
3
72
18
73
14
40
0
40
0
40
0
40
0
40
0.212491342405499
40
0.212491342405499
40
0.386617985385021
40
0.386617985385021
40
0.562426135472229
40
0.562426135472229
40
0.715388203407983
40
0.715388203407983
40
0.918248932482259
40
0.918248932482259
40
1
40
1
40
1
40
1
41
1
10
41.5273481404089
20
20.3814223927765
30
0
41
1
10
41.5083805560677
20
20.4498140400792
30
0
41
1
10
41.477995030478
20
20.5175252277868
30
0
41
1
10
41.4021063493468
20
20.6308528010244
30
0
41
1
10
41.3593330685564
20
20.6794402173174
30
0
41
1
10
41.2603678312085
20
20.7633679977993
30
0
41
1
10
41.2024609441778
20
20.7996749691109
30
0
41
1
10
41.089697117655
20
20.8492378269922
30
0
41
1
10
41.0341125194333
20
20.8655472490575
30
0
41
1
10
40.9073127404307
20
20.8867621157703
30
0
41
1
10
40.8347542887707
20
20.8868229601867
30
0
41
1
10
40.7387488930704
20
20.8727114059734
30
0
41
1
10
40.7114446622733
20
20.8669517008752
30
0
41
1
10
40.6848278743015
20
20.8596504889715
30
0
0
SPLINE
5
FA
100
AcDbEntity
8
SK1
62
256
6
ByLayer
370
-1
48
1
60
0
100
AcDbSpline
70
4
71
3
72
32
73
28
40
0
40
0
40
0
40
0
40
0.335339404831972
40
0.335339404831972
40
0.429287156787091
40
0.429287156787091
40
0.47567705376244
40
0.47567705376244
40
0.494539743197707
40
0.494539743197707
40
0.513645880085614
40
0.513645880085614
40
0.520504273461008
40
0.520504273461008
40
0.527488218290634
40
0.527488218290634
40
0.533551201014328
40
0.533551201014328
40
0.540998152878254
40
0.540998152878254
40
0.554393631774451
40
0.554393631774451
40
0.598967269657032
40
0.598967269657032
40
0.809317334416223
40
0.809317334416223
40
1
40
1
40
1
40
1
41
1
10
-1.4950399779393
20
2.59465115838304
30
0
41
1
10
-1.51545804662706
20
2.47020327904033
30
0
41
1
10
-1.53713921924269
20
2.34554891087819
30
0
41
1
10
-1.57392592094843
20
2.19043955590803
30
0
41
1
10
-1.58255890853935
20
2.15670217135892
30
0
41
1
10
-1.59805956936562
20
2.1081468839686
30
0
41
1
10
-1.60359902440038
20
2.09231222948606
30
0
41
1
10
-1.61296122457533
20
2.07152520286885
30
0
41
1
10
-1.61586967413162
20
2.0656737244498
30
0
41
1
10
-1.62242426172162
20
2.05481886173052
30
0
41
1
10
-1.62611615645157
20
2.04963161073078
30
0
41
1
10
-1.63217263701876
20
2.04479089552191
30
0
41
1
10
-1.63391092603902
20
2.04372430879368
30
0
41
1
10
-1.63759701012465
20
2.04243943769597
30
0
41
1
10
-1.63960513001732
20
2.04224314885471
30
0
41
1
10
-1.64327142014689
20
2.04303363449088
30
0
41
1
10
-1.64498274878694
20
2.04388024545895
30
0
41
1
10
-1.64846923771175
20
2.04652261877811
30
0
41
1
10
-1.65023197368771
20
2.04850621085967
30
0
41
1
10
-1.6545929794447
20
2.05462030362457
30
0
41
1
10
-1.65687449353446
20
2.05928542847226
30
0
41
1
10
-1.66535432668745
20
2.07982184742582
30
0
41
1
10
-1.66919635898847
20
2.09736547364699
30
0
41
1
10
-1.6880096715786
20
2.19569498442294
30
0
41
1
10
-1.6917465712958
20
2.27904221250569
30
0
41
1
10
-1.69840552504972
20
2.43548746422863
30
0
41
1
10
-1.69970172620592
20
2.50976932903754
30
0
41
1
10
-1.7
20
2.58372509632824
30
0
0
SPLINE
5
FB
100
AcDbEntity
8
1
62
256
6
ByLayer
370
-1
48
1
60
0
100
AcDbSpline
70
4
71
3
72
18
73
14
40
0
40
0
40
0
40
0
40
0.21243791593547
40
0.21243791593547
40
0.386573882570254
40
0.386573882570254
40
0.562391983425681
40
0.562391983425681
40
0.715355871380656
40
0.715355871380656
40
0.918207054231875
40
0.918207054231875
40
1
40
1
40
1
40
1
41
1
10
43.2022763170749
20
22.3425409482828
30
0
41
1
10
43.1526851400905
20
22.2917928645626
30
0
41
1
10
43.1094158458846
20
22.2315195380561
30
0
41
1
10
43.0495549671508
20
22.1089877207889
30
0
41
1
10
43.0290292691512
20
22.0475930660613
30
0
41
1
10
43.0061743591356
20
21.919854421854
30
0
41
1
10
43.0038709583575
20
21.8515417068975
30
0
41
1
10
43.0176653760646
20
21.7291362869031
30
0
41
1
10
43.0314875666504
20
21.6728801826079
30
0
41
1
10
43.0768439953168
20
21.5525859558143
30
0
41
1
10
43.1132409720266
20
21.4898194541137
30
0
41
1
10
43.1736795280752
20
21.4138871964059
30
0
41
1
10
43.1923865989286
20
21.3931617314631
30
0
41
1
10
43.2120821042534
20
21.3738065381735
30
0
0
SPLINE
5
FC
100
AcDbEntity
8
1
62
256
6
ByLayer
370
-1
48
1
60
0
100
AcDbSpline
70
4
71
3
72
14
73
10
40
0
40
0
40
0
40
0
40
0.282611672285362
40
0.282611672285362
40
0.569104663837575
40
0.569104663837575
40
0.828406714776535
40
0.828406714776535
40
1
40
1
40
1
40
1
41
1
10
42.0736694534199
20
23.3064477100679
30
0
41
1
10
42.0647520071006
20
23.3386014536619
30
0
41
1
10
42.0499065418988
20
23.3701949687745
30
0
41
1
10
42.0092633156032
20
23.426951510693
30
0
41
1
10
41.9826353295937
20
23.4528638446495
30
0
41
1
10
41.9240681737374
20
23.4910968091893
30
0
41
1
10
41.8919552661247
20
23.5050006842668
30
0
41
1
10
41.8364949886118
20
23.5179386922354
30
0
41
1
10
41.8134248777535
20
23.520541261524
30
0
41
1
10
41.7905569860934
20
23.5204055138703
30
0
0
SPLINE
5
FD
100
AcDbEntity
8
SK1
62
256
6
ByLayer
370
-1
48
1
60
0
100
AcDbSpline
70
4
71
3
72
24
73
20
40
0
40
0
40
0
40
0
40
0.470757791634908
40
0.470757791634908
40
0.661826126045254
40
0.661826126045254
40
0.85568916651581
40
0.85568916651581
40
0.884460546127643
40
0.884460546127643
40
0.91360691814161
40
0.91360691814161
40
0.932763100125268
40
0.932763100125268
40
0.95203909678233
40
0.95203909678233
40
0.974618894615272
40
0.974618894615272
40
1
40
1
40
1
40
1
41
1
10
-0.199999999999989
20
-5.70317605472911
30
0
41
1
10
-0.199999999999989
20
-5.58107998739831
30
0
41
1
10
-0.203895983734896
20
-5.45705658909691
30
0
41
1
10
-0.223509916035724
20
-5.28128624620587
30
0
41
1
10
-0.23086916609185
20
-5.23019697507434
30
0
41
1
10
-0.252992963272021
20
-5.12819212434212
30
0
41
1
10
-0.266168518183207
20
-5.0748758166919
30
0
41
1
10
-0.299311339940957
20
-5.02202983998879
30
0
41
1
10
-0.304166370278011
20
-5.01525404855027
30
0
41
1
10
-0.315232060467949
20
-5.00279573504582
30
0
41
1
10
-0.321587352348573
20
-4.99699852204864
30
0
41
1
10
-0.333432884234483
20
-4.98975078853741
30
0
41
1
10
-0.338586253854444
20
-4.98746585289803
30
0
41
1
10
-0.349157439354414
20
-4.98479989040243
30
0
41
1
10
-0.354703931885936
20
-4.98441392730476
30
0
41
1
10
-0.366193082216242
20
-4.98556317954746
30
0
41
1
10
-0.372213152675172
20
-4.98741181161262
30
0
41
1
10
-0.383950186909431
20
-4.99285513665984
30
0
41
1
10
-0.389694431034414
20
-4.99667072159761
30
0
41
1
10
-0.394976888882155
20
-5.00092508225598
30
0
0
SPLINE
5
FE
100
AcDbEntity
8
1
62
256
6
ByLayer
370
-1
48
1
60
0
100
AcDbSpline
70
4
71
3
72
16
73
12
40
0
40
0
40
0
40
0
40
0.05708275771121
40
0.05708275771121
40
0.280041604295572
40
0.280041604295572
40
0.505461650692545
40
0.505461650692545
40
0.745065830758145
40
0.745065830758145
40
1
40
1
40
1
40
1
41
1
10
40.3390594256451
20
22.6654081095417
30
0
41
1
10
40.3353150725371
20
22.6587466829236
30
0
41
1
10
40.3318292742287
20
22.6519316718155
30
0
41
1
10
40.3161815008534
20
22.6181310270998
30
0
41
1
10
40.3078330797962
20
22.5890368530042
30
0
41
1
10
40.3002400508446
20
22.5308563403205
30
0
41
1
10
40.3009770271717
20
22.5010356252238
30
0
41
1
10
40.3109919749352
20
22.4428259848877
30
0
41
1
10
40.3208985278022
20
22.4139107505975
30
0
41
1
10
40.3487465526105
20
22.3602148072831
30
0
41
1
10
40.3674632434222
20
22.3351647990795
30
0
41
1
10
40.3889354895755
20
22.3140635646707
30
0
0
SPLINE
5
FF
100
AcDbEntity
8
SK1
62
256
6
ByLayer
370
-1
48
1
60
0
100
AcDbSpline
70
4
71
3
72
30
73
26
40
0
40
0
40
0
40
0
40
0.337353368376273
40
0.337353368376273
40
0.421572476570396
40
0.421572476570396
40
0.437870507614647
40
0.437870507614647
40
0.454360744150349
40
0.454360744150349
40
0.46102437321649
40
0.46102437321649
40
0.467802724987302
40
0.467802724987302
40
0.473791453396888
40
0.473791453396888
40
0.481264268969724
40
0.481264268969724
40
0.494804301393218
40
0.494804301393218
40
0.541069262252274
40
0.541069262252274
40
0.76221802419653
40
0.76221802419653
40
1
40
1
40
1
40
1
41
1
10
-1.7
20
-2.5837250319525
30
0
41
1
10
-1.69946915813009
20
-2.45210484593008
30
0
41
1
10
-1.69760670671556
20
-2.31884997747196
30
0
41
1
10
-1.67915375522098
20
-2.15294187932722
30
0
41
1
10
-1.67485152519237
20
-2.11932442567118
30
0
41
1
10
-1.66472347048305
20
-2.08095979549279
30
0
41
1
10
-1.66287560510223
20
-2.07475454077749
30
0
41
1
10
-1.65846712486042
20
-2.06274931231133
30
0
41
1
10
-1.65588139752758
20
-2.05680133794195
30
0
41
1
10
-1.65120237663186
20
-2.0497680665317
30
0
41
1
10
-1.64969999009789
20
-2.04787870491481
30
0
41
1
10
-1.64639510213217
20
-2.0447894938039
30
0
41
1
10
-1.644535578477
20
-2.04357912964019
30
0
41
1
10
-1.64096575658941
20
-2.04240828386776
30
0
41
1
10
-1.63922229186966
20
-2.04230771235822
30
0
41
1
10
-1.63551182442282
20
-2.04297037181766
30
0
41
1
10
-1.63353448434609
20
-2.04393506875687
30
0
41
1
10
-1.62845259442084
20
-2.04750201060256
30
0
41
1
10
-1.62558657915471
20
-2.0508033417303
30
0
41
1
10
-1.61425491864985
20
-2.06649024761731
30
0
41
1
10
-1.60795428020354
20
-2.08189579117942
30
0
41
1
10
-1.57473680217674
20
-2.17064161742221
30
0
41
1
10
-1.55852136531563
20
-2.25243693059593
30
0
41
1
10
-1.5247433730911
20
-2.41950302647342
30
0
41
1
10
-1.50941945205861
20
-2.5070083929059
30
0
41
1
10
-1.4950399779393
20
-2.59465115086951
30
0
0
SPLINE
5
100
100
AcDbEntity
8
SK1
62
256
6
ByLayer
370
-1
48
1
60
0
100
AcDbSpline
70
4
71
3
72
10
73
6
40
0
40
0
40
0
40
0
40
0.5
40
0.5
40
1
40
1
40
1
40
1
41
1
10
-1.7
20
2.58372509632821
30
0
41
1
10
-1.83222262461143
20
1.751855044526
30
0
41
1
10
-1.92871617486691
20
0.884329181036094
30
0
41
1
10
-1.92842303871006
20
-0.888588835776119
30
0
41
1
10
-1.83224326233339
20
-1.75172436897285
30
0
41
1
10
-1.69999999999999
20
-2.58372503195247
30
0
0
SPLINE
5
101
100
AcDbEntity
8
1
62
256
6
ByLayer
370
-1
48
1
60
0
100
AcDbSpline
70
4
71
3
72
12
73
8
40
0
40
0
40
0
40
0
40
0.495913112049998
40
0.495913112049998
40
0.900351883345193
40
0.900351883345193
40
1
40
1
40
1
40
1
41
1
10
40.6683707535947
20
22.8045957816995
30
0
41
1
10
40.7373351350664
20
22.7863283257129
30
0
41
1
10
40.8114974918919
20
22.7783730927345
30
0
41
1
10
40.9480082704892
20
22.786872625421
30
0
41
1
10
41.0115364852621
20
22.7993506499573
30
0
41
1
10
41.0878216647368
20
22.8263068085883
30
0
41
1
10
41.1029673555807
20
22.8322666066899
30
0
41
1
10
41.1179159741985
20
22.8387763897152
30
0
0
INSERT
5
135
100
AcDbEntity
8
2
62
256
6
ByLayer
370
-1
48
1
60
0
100
AcDbBlockReference
2
DimnDraft3D11
10
0
20
0
30
0
41
1
42
1
43
1
50
0
210
0
220
0
230
1
0
LINE
5
4F
100
AcDbEntity
8
1
62
256
6
ByLayer
370
-1
48
1
60
0
100
AcDbLine
10
0.3
20
-20
30
0
11
20.920792
21
-20
31
0
39
0
210
0
220
0
230
1
0
LINE
5
51
100
AcDbEntity
8
1
62
256
6
ByLayer
370
-1
48
1
60
0
100
AcDbLine
10
20.920792
20
20
30
0
11
0.3
21
20
31
0
39
0
210
0
220
0
230
1
0
LINE
5
52
100
AcDbEntity
8
1
62
256
6
ByLayer
370
-1
48
1
60
0
100
AcDbLine
10
0.3
20
20
30
0
11
0
21
19.7
31
0
39
0
210
0
220
0
230
1
0
LINE
5
53
100
AcDbEntity
8
1
62
256
6
ByLayer
370
-1
48
1
60
0
100
AcDbLine
10
0
20
-19.7
30
0
11
0.3
21
-20
31
0
39
0
210
0
220
0
230
1
0
LINE
5
54
100
AcDbEntity
8
1
62
256
6
ByLayer
370
-1
48
1
60
0
100
AcDbLine
10
21.001177
20
-20.3
30
0
11
22.022287
21
-20.3
31
0
39
0
210
0
220
0
230
1
0
LINE
5
55
100
AcDbEntity
8
1
62
256
6
ByLayer
370
-1
48
1
60
0
100
AcDbLine
10
21.024801
20
20.388166
30
0
11
20.920792
21
20
31
0
39
0
210
0
220
0
230
1
0
LINE
5
56
100
AcDbEntity
8
1
62
256
6
ByLayer
370
-1
48
1
60
0
100
AcDbLine
10
20.920792
20
-20
30
0
11
21.001177
21
-20.3
31
0
39
0
210
0
220
0
230
1
0
LINE
5
57
100
AcDbEntity
8
80
62
256
6
ByLayer
370
-1
48
1
60
0
100
AcDbLine
10
0
20
0
30
0
11
-5
21
0
31
0
39
0
210
0
220
0
230
1
0
LINE
5
58
100
AcDbEntity
8
81
62
256
6
ByLayer
370
-1
48
1
60
0
100
AcDbLine
10
50
20
27
30
0
11
60
21
27
31
0
39
0
210
0
220
0
230
1
0
LINE
5
59
100
AcDbEntity
8
SK4
62
256
6
ByLayer
370
-1
48
0.05
60
0
100
AcDbLine
10
-29
20
0
30
0
11
50
21
0
31
0
39
0
210
0
220
0
230
1
0
LINE
5
5B
100
AcDbEntity
8
4
62
256
6
ByLayer
370
-1
48
0.05
60
0
100
AcDbLine
10
0
20
0
30
0
11
50
21
0
31
0
39
0
210
0
220
0
230
1
0
LINE
5
5D
100
AcDbEntity
8
1
62
256
6
ByLayer
370
-1
48
1
60
0
100
AcDbLine
10
37.256183
20
16.449138
30
0
11
37.506583
21
16.849861
31
0
39
0
210
0
220
0
230
1
0
LINE
5
5E
100
AcDbEntity
8
1
62
256
6
ByLayer
370
-1
48
1
60
0
100
AcDbLine
10
9.076795
20
-5.85989
30
0
11
6.923205
21
-5.85989
31
0
39
0
210
0
220
0
230
1
0
LINE
5
5F
100
AcDbEntity
8
1
62
256
6
ByLayer
370
-1
48
1
60
0
100
AcDbLine
10
37.256183
20
16.449138
30
0
11
37.056892
21
16.573669
31
0
39
0
210
0
220
0
230
1
0
LINE
5
60
100
AcDbEntity
8
1
62
256
6
ByLayer
370
-1
48
1
60
0
100
AcDbLine
10
23.042657
20
18.711561
30
0
11
21.014575
21
18.711561
31
0
39
0
210
0
220
0
230
1
0
LINE
5
61
100
AcDbEntity
8
1
62
256
6
ByLayer
370
-1
48
1
60
0
100
AcDbLine
10
23.042657
20
18.711561
30
0
11
23.577302
21
18.397302
31
0
39
0
210
0
220
0
230
1
0
LINE
5
62
100
AcDbEntity
8
1
62
256
6
ByLayer
370
-1
48
1
60
0
100
AcDbLine
10
24
20
-17.134998
30
0
11
23.259681
21
-18.319756
31
0
39
0
210
0
220
0
230
1
0
LINE
5
63
100
AcDbEntity
8
1
62
256
6
ByLayer
370
-1
48
1
60
0
100
AcDbLine
10
21.014575
20
17.715711
30
0
11
21.014575
21
18.711561
31
0
39
0
210
0
220
0
230
1
0
LINE
5
64
100
AcDbEntity
8
1
62
256
6
ByLayer
370
-1
48
1
60
0
100
AcDbLine
10
21.024801
20
20.388166
30
0
11
21.024801
21
20.387832
31
0
39
0
210
0
220
0
230
1
0
LINE
5
65
100
AcDbEntity
8
1
62
256
6
ByLayer
370
-1
48
1
60
0
100
AcDbLine
10
0
20
-19.7
30
0
11
0
21
19.7
31
0
39
0
210
0
220
0
230
1
0
LINE
5
66
100
AcDbEntity
8
1
62
256
6
ByLayer
370
-1
48
1
60
0
100
AcDbLine
10
6.923205
20
-19.122283
30
0
11
6.923205
21
-5.85989
31
0
39
0
210
0
220
0
230
1
0
LINE
5
67
100
AcDbEntity
8
1
62
256
6
ByLayer
370
-1
48
1
60
0
100
AcDbLine
10
38.919608
20
10.249086
30
0
11
29.218403
21
15.085928
31
0
39
0
210
0
220
0
230
1
0
LINE
5
68
100
AcDbEntity
8
1
62
256
6
ByLayer
370
-1
48
1
60
0
100
AcDbLine
10
6.923205
20
-19.122283
30
0
11
9.076795
21
-19.122283
31
0
39
0
210
0
220
0
230
1
0
LINE
5
69
100
AcDbEntity
8
1
62
256
6
ByLayer
370
-1
48
1
60
0
100
AcDbLine
10
40.037684
20
8.530661
30
0
11
39.694408
21
7.981304
31
0
39
0
210
0
220
0
230
1
0
LINE
5
6A
100
AcDbEntity
8
1
62
256
6
ByLayer
370
-1
48
1
60
0
100
AcDbLine
10
39.633525
20
11.680981
30
0
11
29.932319
21
16.517823
31
0
39
0
210
0
220
0
230
1
0
LINE
5
6B
100
AcDbEntity
8
1
62
256
6
ByLayer
370
-1
48
1
60
0
100
AcDbLine
10
21.001177
20
-20.3
30
0
11
21.001177
21
-17.649682
31
0
39
0
210
0
220
0
230
1
0
LINE
5
6C
100
AcDbEntity
8
1
62
256
6
ByLayer
370
-1
48
1
60
0
100
AcDbLine
10
9.336603
20
-19.024574
30
0
11
9.336603
21
-6.16973
31
0
39
0
210
0
220
0
230
1
0
LINE
5
6D
100
AcDbEntity
8
1
62
256
6
ByLayer
370
-1
48
1
60
0
100
AcDbLine
10
38.919608
20
10.249086
30
0
11
39.633525
21
11.680981
31
0
39
0
210
0
220
0
230
1
0
LINE
5
6E
100
AcDbEntity
8
1
62
256
6
ByLayer
370
-1
48
1
60
0
100
AcDbLine
10
9.076795
20
5.85989
30
0
11
9.076795
21
19.122283
31
0
39
0
210
0
220
0
230
1
0
LINE
5
6F
100
AcDbEntity
8
1
62
256
6
ByLayer
370
-1
48
1
60
0
100
AcDbLine
10
24
20
-17.134998
30
0
11
24
21
18.148845
31
0
39
0
210
0
220
0
230
1
0
LINE
5
70
100
AcDbEntity
8
1
62
256
6
ByLayer
370
-1
48
1
60
0
100
AcDbLine
10
38.969852
20
26.261844
30
0
11
29.75457
21
25.778892
31
0
39
0
210
0
220
0
230
1
0
LINE
5
71
100
AcDbEntity
8
1
62
256
6
ByLayer
370
-1
48
1
60
0
100
AcDbLine
10
29.121545
20
15.13846
30
0
11
29.932319
21
16.517823
31
0
39
0
210
0
220
0
230
1
0
LINE
5
72
100
AcDbEntity
8
1
62
256
6
ByLayer
370
-1
48
1
60
0
100
AcDbLine
10
21.024801
20
19.897634
30
0
11
21.024801
21
19.024561
31
0
39
0
210
0
220
0
230
1
0
LINE
5
73
100
AcDbEntity
8
1
62
256
6
ByLayer
370
-1
48
1
60
0
100
AcDbLine
10
39.786474
20
8.569951
30
0
11
40.037684
21
8.530661
31
0
39
0
210
0
220
0
230
1
0
LINE
5
74
100
AcDbEntity
8
1
62
256
6
ByLayer
370
-1
48
1
60
0
100
AcDbLine
10
6.923205
20
5.85989
30
0
11
6.923205
21
19.122283
31
0
39
0
210
0
220
0
230
1
0
LINE
5
75
100
AcDbEntity
8
1
62
256
6
ByLayer
370
-1
48
1
60
0
100
AcDbLine
10
29.218403
20
15.085928
30
0
11
29.932319
21
16.517823
31
0
39
0
210
0
220
0
230
1
0
LINE
5
76
100
AcDbEntity
8
1
62
256
6
ByLayer
370
-1
48
1
60
0
100
AcDbLine
10
21.71156
20
19.493964
30
0
11
23.042657
21
18.711561
31
0
39
0
210
0
220
0
230
1
0
LINE
5
77
100
AcDbEntity
8
1
62
256
6
ByLayer
370
-1
48
1
60
0
100
AcDbLine
10
29.932319
20
16.517823
30
0
11
22.542486
21
20.861484
31
0
39
0
210
0
220
0
230
1
0
LINE
5
78
100
AcDbEntity
8
1
62
256
6
ByLayer
370
-1
48
1
60
0
100
AcDbLine
10
0.3
20
-20
30
0
11
0.3
21
20
31
0
39
0
210
0
220
0
230
1
0
LINE
5
79
100
AcDbEntity
8
1
62
256
6
ByLayer
370
-1
48
1
60
0
100
AcDbLine
10
9.336603
20
6.16973
30
0
11
9.336603
21
19.024574
31
0
39
0
210
0
220
0
230
1
0
LINE
5
7A
100
AcDbEntity
8
1
62
256
6
ByLayer
370
-1
48
1
60
0
100
AcDbLine
10
20.920792
20
17.248998
30
0
11
20.920792
21
19.958769
31
0
39
0
210
0
220
0
230
1
0
LINE
5
7B
100
AcDbEntity
8
1
62
256
6
ByLayer
370
-1
48
1
60
0
100
AcDbLine
10
20
20
-15.469955
30
0
11
20
21
15.469955
31
0
39
0
210
0
220
0
230
1
0
LINE
5
7C
100
AcDbEntity
8
1
62
256
6
ByLayer
370
-1
48
1
60
0
100
AcDbLine
10
22.022287
20
-20.3
30
0
11
23.259681
21
-18.319756
31
0
39
0
210
0
220
0
230
1
0
LINE
5
7D
100
AcDbEntity
8
1
62
256
6
ByLayer
370
-1
48
1
60
0
100
AcDbLine
10
39.694408
20
7.981304
30
0
11
39.786474
21
8.569951
31
0
39
0
210
0
220
0
230
1
0
LINE
5
7E
100
AcDbEntity
8
1
62
256
6
ByLayer
370
-1
48
1
60
0
100
AcDbLine
10
9.076795
20
-19.122283
30
0
11
9.076795
21
-5.85989
31
0
39
0
210
0
220
0
230
1
0
LINE
5
7F
100
AcDbEntity
8
1
62
256
6
ByLayer
370
-1
48
1
60
0
100
AcDbLine
10
6.923205
20
5.85989
30
0
11
9.076795
21
5.85989
31
0
39
0
210
0
220
0
230
1
0
LINE
5
80
100
AcDbEntity
8
1
62
256
6
ByLayer
370
-1
48
1
60
0
100
AcDbLine
10
9.076795
20
19.122283
30
0
11
6.923205
21
19.122283
31
0
39
0
210
0
220
0
230
1
0
LINE
5
81
100
AcDbEntity
8
1
62
256
6
ByLayer
370
-1
48
1
60
0
100
AcDbLine
10
6.663397
20
6.16973
30
0
11
6.663397
21
19.024574
31
0
39
0
210
0
220
0
230
1
0
LINE
5
82
100
AcDbEntity
8
1
62
256
6
ByLayer
370
-1
48
1
60
0
100
AcDbLine
10
29.121545
20
15.13846
30
0
11
24
21
18.148845
31
0
39
0
210
0
220
0
230
1
0
LINE
5
83
100
AcDbEntity
8
1
62
256
6
ByLayer
370
-1
48
1
60
0
100
AcDbLine
10
41.086841
20
10.209663
30
0
11
44.348041
21
15.428674
31
0
39
0
210
0
220
0
230
1
0
LINE
5
84
100
AcDbEntity
8
1
62
256
6
ByLayer
370
-1
48
1
60
0
100
AcDbLine
10
20.920792
20
19.975788
30
0
11
20.920792
21
20
31
0
39
0
210
0
220
0
230
1
0
LINE
5
85
100
AcDbEntity
8
1
62
256
6
ByLayer
370
-1
48
1
60
0
100
AcDbLine
10
20.920792
20
-20
30
0
11
20.920792
21
-17.248998
31
0
39
0
210
0
220
0
230
1
0
LINE
5
86
100
AcDbEntity
8
1
62
256
6
ByLayer
370
-1
48
1
60
0
100
AcDbLine
10
39.694408
20
7.981304
30
0
11
24
21
-17.134998
31
0
39
0
210
0
220
0
230
1
0
LINE
5
87
100
AcDbEntity
8
1
62
256
6
ByLayer
370
-1
48
1
60
0
100
AcDbLine
10
37.056892
20
16.573669
30
0
11
37.220097
21
16.834852
31
0
39
0
210
0
220
0
230
1
0
LINE
5
88
100
AcDbEntity
8
1
62
256
6
ByLayer
370
-1
48
1
60
0
100
AcDbLine
10
6.663397
20
-19.024574
30
0
11
6.663397
21
-6.16973
31
0
39
0
210
0
220
0
230
1
0
LINE
5
89
100
AcDbEntity
8
1
62
256
6
ByLayer
370
-1
48
1
60
0
100
AcDbLine
10
24
20
18.148845
30
0
11
23.577302
21
18.397302
31
0
39
0
210
0
220
0
230
1
0
LINE
5
8A
100
AcDbEntity
8
SK1
62
256
6
ByLayer
370
-1
48
1
60
0
100
AcDbLine
10
-0.2
20
5.703176
30
0
11
-0.2
21
14.083485
31
0
39
0
210
0
220
0
230
1
0
LINE
5
8C
100
AcDbEntity
8
SK1
62
256
6
ByLayer
370
-1
48
1
60
0
100
AcDbLine
10
-0.2
20
-14.083485
30
0
11
-0.2
21
-5.703176
31
0
39
0
210
0
220
0
230
1
0
LINE
5
8D
100
AcDbEntity
8
SK1
62
256
6
ByLayer
370
-1
48
1
60
0
100
AcDbLine
10
-1.307107
20
-3.627816
30
0
11
-1.307107
21
3.627817
31
0
39
0
210
0
220
0
230
1
0
LINE
5
8E
100
AcDbEntity
8
1
62
256
6
ByLayer
370
-1
48
1
60
0
100
AcDbLine
10
34.436789
20
16.688983
30
0
11
44.112798
21
17.196081
31
0
39
0
210
0
220
0
230
1
0
LINE
5
8F
100
AcDbEntity
8
1
62
256
6
ByLayer
370
-1
48
1
60
0
100
AcDbLine
10
49.164229
20
26.998887
30
0
11
39.48822
21
26.491789
31
0
39
0
210
0
220
0
230
1
0
LINE
5
90
100
AcDbEntity
8
1
62
256
6
ByLayer
370
-1
48
1
60
0
100
AcDbLine
10
44.744593
20
17.568237
30
0
11
49.879134
21
25.785219
31
0
39
0
210
0
220
0
230
1
0
LINE
5
91
100
AcDbEntity
8
1
62
256
6
ByLayer
370
-1
48
1
60
0
100
AcDbLine
10
38.856424
20
26.119633
30
0
11
33.721884
21
17.902651
31
0
39
0
210
0
220
0
230
1
0
MTEXT
5
102
100
AcDbEntity
8
SK6
62
256
6
ByLayer
370
-1
48
1
60
0
100
AcDbMText
10
8.605341
20
-32.463937
30
0
210
0
220
0
230
1
1
\W00.734;\fsimplex.shx,bigfont.shx;C4-SDJCR-27050-11HPA 
40
3.5
41
0
44
1.084337
50
0
71
7
72
5
7
DEFAULT
0
DIMENSION
5
143
100
AcDbEntity
8
2
62
256
6
ByLayer
370
-3
48
1
60
0
100
AcDbDimension
2
DimnDraft3D2
10
35.579385
20
26.286936
30
0
11
34.958414
21
32.533497
31
0
70
34
71
5
72
1
41
1
210
0
220
0
230
1
3
Standard
100
AcDb2LineAngularDimension
13
50
23
29
33
0
14
50
24
41.483093
34
0
15
46.16882
25
26.841904
35
0
16
37.711865
26
38.703693
36
0
40
0
0
DIMENSION
5
158
100
AcDbEntity
8
SK2
62
256
6
ByLayer
370
-3
48
1
60
0
100
AcDbDimension
2
DimnDraft3D3
10
-33.75
20
20
30
0
11
-33.75
21
-5.021053
31
0
70
32
71
5
72
1
41
1
210
0
220
0
230
1
3
Standard
100
AcDbAlignedDimension
13
-2
23
-20
33
0
14
-2
24
20
34
0
50
90
100
AcDbRotatedDimension
1001
ACAD
1000
DSTYLE
1002
{
1070
    74
1070
     0
1070
   279
1070
     0
1070
   172
1070
     1
1070
   173
1070
     1
1070
   340
1005
103
1070
    77
1070
     1
1070
    73
1070
     0
1070
   171
1070
     3
1070
   274
1070
     4
1070
   177
1070
     2
1070
   176
1070
     2
1070
   178
1070
     7
1070
    78
1070
     8
1070
    41
1041
3.175
1070
   147
1041
2.25
1070
    42
1041
2.0
1070
    44
1041
2.0
1070
   140
1041
4.5
1070
   343
1005
144
1070
   344
1005
144
1002
}
0
DIMENSION
5
166
100
AcDbEntity
8
2
62
256
6
ByLayer
370
-3
48
1
60
0
100
AcDbDimension
2
DimnDraft3D4
10
77.25
20
27
30
0
11
77.25
21
10.871053
31
0
70
32
71
5
72
1
41
1
210
0
220
0
230
1
3
Standard
100
AcDbAlignedDimension
13
52
23
0
33
0
14
52
24
27
34
0
50
90
100
AcDbRotatedDimension
1001
ACAD
1000
DSTYLE
1002
{
1070
    74
1070
     0
1070
   279
1070
     0
1070
   172
1070
     1
1070
   173
1070
     1
1070
   340
1005
103
1070
    77
1070
     1
1070
    73
1070
     0
1070
   171
1070
     3
1070
   274
1070
     4
1070
   177
1070
     2
1070
   176
1070
     2
1070
   178
1070
     7
1070
    78
1070
     8
1070
    41
1041
3.175
1070
   147
1041
2.25
1070
    42
1041
2.0
1070
    44
1041
2.0
1070
   140
1041
4.5
1070
   343
1005
144
1070
   344
1005
144
1002
}
0
ENDSEC
0
SECTION
2
OBJECTS
0
DICTIONARY
5
197
330
0
100
AcDbDictionary
280
0
281
1
3
ACAD_GROUP
350
198
3
ACAD_MLINESTYLE
350
199
0
DICTIONARY
5
198
330
0
100
AcDbDictionary
280
0
281
1
0
DICTIONARY
5
199
330
0
100
AcDbDictionary
280
0
281
1
3
Standard
350
18
0
MLINESTYLE
5
18
330
199
100
AcDbMlineStyle
2
Standard
70
0
3

62
256
51
90
52
90
71
2
49
-0.5
62
256
6
ByLayer
49
0.5
62
256
6
ByLayer
0
RASTERVARIABLES
5
185
330

100
AcDbRasterVariables
90
0
70
1
71
1
72
1
0
ENDSEC
0
EOF
