0
SECTION
2
HEADER
9
$ACADVER
1
AC1015
9
$DWGCODEPAGE
3
ANSI_1252
9
$HANDSEED
5
1f7
9
$ANGBASE
50
0
9
$ANGDIR
70
0
9
$ATTMODE
70
1
9
$AUNITS
70
0
9
$AUPREC
70
0
9
$CECOLOR
62
256
9
$CELTSCALE
40
1
9
$CELTYPE
6
ByLayer
9
$CELWEIGHT
370
-1
9
$CLAYER
8
0
9
$CMLJUST
70
0
9
$CMLSCALE
40
1
9
$CMLSTYLE
2
Standard
9
$DIMSTYLE
2
Standard
9
$TEXTSIZE
40
0.2
9
$TEXTSTYLE
7
Standard
9
$LUNITS
70
2
9
$LUPREC
70
4
9
$EXTNAMES
290
1
9
$INSUNITS
70
4
9
$LTSCALE
40
1
9
$LWDISPLAY
290
0
9
$PDMODE
70
0
9
$PDSIZE
40
0
9
$PLINEGEN
70
0
0
ENDSEC
0
SECTION
2
CLASSES
0
CLASS
1
RASTERVARIABLES
2
AcDbRasterVariables
3
ISM
90
0
280
0
281
0
0
ENDSEC
0
SECTION
2
TABLES
0
TABLE
2
VPORT
5
1ed
100
AcDbSymbolTable
0
VPORT
5
1
100
AcDbSymbolTableRecord
100
AcDbViewportTableRecord
2
*Active
70
0
10
0
20
0
11
1
21
1
12
-1
22
1
13
0
23
0
14
0.5
24
0.5
15
10
25
10
16
0
26
0
36
1
17
0
27
0
37
0
0
ENDTAB
0
TABLE
2
LTYPE
5
1ee
100
AcDbSymbolTable
0
LTYPE
5
14
100
AcDbSymbolTableRecord
100
AcDbLinetypeTableRecord
70
0
2
ByBlock
3

72
65
73
0
40
0
0
LTYPE
5
15
100
AcDbSymbolTableRecord
100
AcDbLinetypeTableRecord
70
0
2
ByLayer
3

72
65
73
0
40
0
0
LTYPE
5
16
100
AcDbSymbolTableRecord
100
AcDbLinetypeTableRecord
70
0
2
CONTINUOUS
3
Solid line
72
65
73
0
40
0
0
LTYPE
5
3B
100
AcDbSymbolTableRecord
100
AcDbLinetypeTableRecord
70
0
2
DASHED
3
__ __ __ __ __ __ __ __ __
72
65
73
2
40
25.72
49
12.86
74
0
49
-12.86
74
0
0
LTYPE
5
3C
100
AcDbSymbolTableRecord
100
AcDbLinetypeTableRecord
70
0
2
HIDDEN
3
_ _ _ _ _ _ _ _ _ _ _ _ _ _ _
72
65
73
2
40
0.5
49
0.25
74
0
49
-0.25
74
0
0
LTYPE
5
3D
100
AcDbSymbolTableRecord
100
AcDbLinetypeTableRecord
70
0
2
PHANTOM
3
____ _ _ ____ _ _ _____ _ _ ____
72
65
73
6
40
50.5
49
18
74
0
49
-6.5
74
0
49
6.5
74
0
49
-6.5
74
0
49
6.5
74
0
49
-6.5
74
0
0
LTYPE
5
3E
100
AcDbSymbolTableRecord
100
AcDbLinetypeTableRecord
70
0
2
CENTER
3
____ _ ____ _ ____ _ ____
72
65
73
4
40
47.5
49
22
74
0
49
-8.5
74
0
49
8.5
74
0
49
-8.5
74
0
0
LTYPE
5
3F
100
AcDbSymbolTableRecord
100
AcDbLinetypeTableRecord
70
0
2
DOT
3
.........................
72
65
73
2
40
10
49
0
74
0
49
-10
74
0
0
LTYPE
5
40
100
AcDbSymbolTableRecord
100
AcDbLinetypeTableRecord
70
0
2
DASHDOT
3
_._._._._._._._._._._._._._._._.
72
65
73
4
40
70
49
31
74
0
49
-13
74
0
49
13
74
0
49
-13
74
0
0
ENDTAB
0
TABLE
2
LAYER
5
1ef
100
AcDbSymbolTable
0
LAYER
5
10
100
AcDbSymbolTableRecord
100
AcDbLayerTableRecord
2
0
70
0
62
7
6
CONTINUOUS
290
1
370
-3
390
0
0
LAYER
5
42
100
AcDbSymbolTableRecord
100
AcDbLayerTableRecord
2
80
70
0
62
-6
6
CONTINUOUS
290
1
370
-3
390
0
0
LAYER
5
44
100
AcDbSymbolTableRecord
100
AcDbLayerTableRecord
2
81
70
0
62
-3
6
CONTINUOUS
290
1
370
-3
390
0
0
LAYER
5
46
100
AcDbSymbolTableRecord
100
AcDbLayerTableRecord
2
2
70
0
62
7
6
CONTINUOUS
290
1
370
-3
390
0
0
LAYER
5
48
100
AcDbSymbolTableRecord
100
AcDbLayerTableRecord
2
1
70
0
62
4
6
CONTINUOUS
290
1
370
-3
390
0
0
LAYER
5
57
100
AcDbSymbolTableRecord
100
AcDbLayerTableRecord
2
4
70
0
62
-2
6
CENTER
290
1
370
-3
390
0
0
LAYER
5
1d9
100
AcDbSymbolTableRecord
100
AcDbLayerTableRecord
2
SK4
70
0
62
2
6
CENTER
290
1
370
-3
390
0
0
LAYER
5
1da
100
AcDbSymbolTableRecord
100
AcDbLayerTableRecord
2
SK1
70
0
62
4
6
CONTINUOUS
290
1
370
-3
390
0
0
LAYER
5
1db
100
AcDbSymbolTableRecord
100
AcDbLayerTableRecord
2
SK6
70
0
62
5
6
CONTINUOUS
290
1
370
-3
390
0
0
LAYER
5
1dc
100
AcDbSymbolTableRecord
100
AcDbLayerTableRecord
2
SK2
70
0
62
7
6
CONTINUOUS
290
1
370
-3
390
0
0
ENDTAB
0
TABLE
2
STYLE
5
1f0
100
AcDbSymbolTable
0
STYLE
5
11
100
AcDbSymbolTableRecord
100
AcDbTextStyleTableRecord
2
Standard
3
txt
70
0
71
0
40
0
41
1
42
0
50
0
0
STYLE
5
155
100
AcDbSymbolTableRecord
100
AcDbTextStyleTableRecord
2
DEFAULT
3
simplex.shx
70
0
71
0
40
0
41
1
42
0
50
0
0
STYLE
5
178
100
AcDbSymbolTableRecord
100
AcDbTextStyleTableRecord
2
DWGDirectTextStyle
3
SIMPLEX
70
0
71
0
40
0
41
1
42
0
50
0
0
ENDTAB
0
TABLE
2
DIMSTYLE
5
1f1
100
AcDbSymbolTable
100
AcDbDimStyleTable
0
DIMSTYLE
105
27
100
AcDbSymbolTableRecord
100
AcDbDimStyleTableRecord
2
Standard
70
0
3
<>
41
0.18
42
0.0625
44
0.18
140
0.18
147
0.09
73
0
74
0
77
1
271
2
275
0
278
52
280
0
340
11
0
ENDTAB
0
TABLE
2
VIEW
5
1f2
100
AcDbSymbolTable
0
ENDTAB
0
TABLE
2
UCS
5
1f3
100
AcDbSymbolTable
0
ENDTAB
0
TABLE
2
APPID
5
1f4
100
AcDbSymbolTable
0
APPID
5
12
100
AcDbSymbolTableRecord
100
AcDbRegAppTableRecord
2
ACAD
70
0
0
ENDTAB
0
TABLE
2
BLOCK_RECORD
5
1f5
100
AcDbSymbolTable
0
BLOCK_RECORD
5
1F
100
AcDbSymbolTableRecord
100
AcDbBlockTableRecord
2
*Model_Space
340
0
70
0
0
BLOCK_RECORD
5
1B
100
AcDbSymbolTableRecord
100
AcDbBlockTableRecord
2
*Paper_Space
340
0
70
0
0
BLOCK_RECORD
5
23
100
AcDbSymbolTableRecord
100
AcDbBlockTableRecord
2
*Paper_Space0
340
0
70
0
0
BLOCK_RECORD
5
17A
100
AcDbSymbolTableRecord
100
AcDbBlockTableRecord
2
DimnDraft3D1
340
0
70
0
0
BLOCK_RECORD
5
188
100
AcDbSymbolTableRecord
100
AcDbBlockTableRecord
2
_CLOSED
340
0
70
0
0
BLOCK_RECORD
5
18F
100
AcDbSymbolTableRecord
100
AcDbBlockTableRecord
2
DimnDraft3D2
340
0
70
0
0
BLOCK_RECORD
5
19E
100
AcDbSymbolTableRecord
100
AcDbBlockTableRecord
2
DimnDraft3D3
340
0
70
0
0
BLOCK_RECORD
5
1AC
100
AcDbSymbolTableRecord
100
AcDbBlockTableRecord
2
DimnDraft3D4
340
0
70
0
0
ENDTAB
0
ENDSEC
0
SECTION
2
BLOCKS
0
BLOCK
5
20
100
AcDbEntity
8
0
100
AcDbBlockBegin
2
*Model_Space
70
0
10
0
20
0
30
0
3
*Model_Space
0
ENDBLK
5
21
100
AcDbEntity
8
0
100
AcDbBlockEnd
0
BLOCK
5
1C
100
AcDbEntity
8
0
100
AcDbBlockBegin
2
*Paper_Space
70
0
10
0
20
0
30
0
3
*Paper_Space
0
ENDBLK
5
1D
100
AcDbEntity
8
0
100
AcDbBlockEnd
0
BLOCK
5
24
100
AcDbEntity
8
0
100
AcDbBlockBegin
2
*Paper_Space0
70
0
10
0
20
0
30
0
3
*Paper_Space0
0
ENDBLK
5
25
100
AcDbEntity
8
0
100
AcDbBlockEnd
0
BLOCK
5
185
100
AcDbEntity
8
0
100
AcDbBlockBegin
2
DimnDraft3D1
70
0
10
0
20
0
30
0
3
DimnDraft3D1
0
MTEXT
5
17B
100
AcDbEntity
8
2
62
256
6
ByLayer
370
-1
48
1
60
0
100
AcDbMText
10
73.125
20
4.996053
30
0
210
0
220
0
230
1
1
\W01.000;\fsimplex.shx,bigfont.shx;12 
40
4.5
41
0
44
1.084337
50
90
71
7
72
5
7
DEFAULT
0
LINE
5
17C
100
AcDbEntity
8
2
62
256
6
ByLayer
370
-1
48
1
60
0
100
AcDbLine
10
66.5
20
0
30
0
11
77.25
21
0
31
0
39
0
210
0
220
0
230
1
0
LINE
5
17D
100
AcDbEntity
8
2
62
256
6
ByLayer
370
-1
48
1
60
0
100
AcDbLine
10
61.5
20
11.875
30
0
11
77.25
21
11.875
31
0
39
0
210
0
220
0
230
1
0
LINE
5
17E
100
AcDbEntity
8
2
62
256
6
ByLayer
370
-1
48
1
60
0
100
AcDbLine
10
74.25
20
-11.25
30
0
11
74.25
21
23.125
31
0
39
0
210
0
220
0
230
1
0
LINE
5
17F
100
AcDbEntity
8
2
62
256
6
ByLayer
370
-1
48
1
60
0
100
AcDbLine
10
74.25
20
0
30
0
11
74.644957
21
-2.999999
31
0
39
0
210
0
220
0
230
1
0
LINE
5
180
100
AcDbEntity
8
2
62
256
6
ByLayer
370
-1
48
1
60
0
100
AcDbLine
10
74.25
20
0
30
0
11
73.855043
21
-3.000001
31
0
39
0
210
0
220
0
230
1
0
LINE
5
181
100
AcDbEntity
8
2
62
256
6
ByLayer
370
-1
48
1
60
0
100
AcDbLine
10
74.644957
20
-2.999999
30
0
11
73.855043
21
-3.000001
31
0
39
0
210
0
220
0
230
1
0
LINE
5
182
100
AcDbEntity
8
2
62
256
6
ByLayer
370
-1
48
1
60
0
100
AcDbLine
10
74.25
20
11.875
30
0
11
73.855043
21
14.874999
31
0
39
0
210
0
220
0
230
1
0
LINE
5
183
100
AcDbEntity
8
2
62
256
6
ByLayer
370
-1
48
1
60
0
100
AcDbLine
10
74.25
20
11.875
30
0
11
74.644957
21
14.875001
31
0
39
0
210
0
220
0
230
1
0
LINE
5
184
100
AcDbEntity
8
2
62
256
6
ByLayer
370
-1
48
1
60
0
100
AcDbLine
10
73.855043
20
14.874999
30
0
11
74.644957
21
14.875001
31
0
39
0
210
0
220
0
230
1
0
ENDBLK
5
186
100
AcDbEntity
8
0
100
AcDbBlockEnd
0
BLOCK
5
189
100
AcDbEntity
8
0
100
AcDbBlockBegin
2
_CLOSED
70
0
10
0
20
0
30
0
3
_CLOSED
0
LINE
5
18B
100
AcDbEntity
8
0
62
256
6
ByLayer
370
-2
48
1
60
0
100
AcDbLine
10
-1
20
0.166667
30
0
11
0
21
0
31
0
39
0
210
0
220
0
230
1
0
LINE
5
18C
100
AcDbEntity
8
0
62
256
6
ByLayer
370
-2
48
1
60
0
100
AcDbLine
10
0
20
0
30
0
11
-1
21
-0.166667
31
0
39
0
210
0
220
0
230
1
0
LINE
5
18D
100
AcDbEntity
8
0
62
256
6
ByLayer
370
-2
48
1
60
0
100
AcDbLine
10
-1
20
0.166667
30
0
11
-1
21
-0.166667
31
0
39
0
210
0
220
0
230
1
0
LINE
5
18E
100
AcDbEntity
8
0
62
256
6
ByLayer
370
-2
48
1
60
0
100
AcDbLine
10
0
20
0
30
0
11
-1
21
0
31
0
39
0
210
0
220
0
230
1
0
ENDBLK
5
18A
100
AcDbEntity
8
0
100
AcDbBlockEnd
0
BLOCK
5
19B
100
AcDbEntity
8
0
100
AcDbBlockBegin
2
DimnDraft3D2
70
0
10
0
20
0
30
0
3
DimnDraft3D2
0
MTEXT
5
190
100
AcDbEntity
8
SK2
62
256
6
ByLayer
370
-1
48
1
60
0
100
AcDbMText
10
-34.875
20
-3.896053
30
0
210
0
220
0
230
1
1
\W01.000;\fsimplex.shx,bigfont.shx;%%c40 
40
4.5
41
0
44
1.084337
50
90
71
7
72
5
7
DEFAULT
0
LINE
5
192
100
AcDbEntity
8
SK2
62
256
6
ByLayer
370
-1
48
1
60
0
100
AcDbLine
10
-1.5
20
20
30
0
11
-36.75
21
20
31
0
39
0
210
0
220
0
230
1
0
LINE
5
193
100
AcDbEntity
8
SK2
62
256
6
ByLayer
370
-1
48
1
60
0
100
AcDbLine
10
-1.5
20
-20
30
0
11
-36.75
21
-20
31
0
39
0
210
0
220
0
230
1
0
LINE
5
194
100
AcDbEntity
8
SK2
62
256
6
ByLayer
370
-1
48
1
60
0
100
AcDbLine
10
-33.75
20
20
30
0
11
-33.75
21
-20
31
0
39
0
210
0
220
0
230
1
0
LINE
5
195
100
AcDbEntity
8
SK2
62
256
6
ByLayer
370
-1
48
1
60
0
100
AcDbLine
10
-33.75
20
20
30
0
11
-33.355043
21
17.000001
31
0
39
0
210
0
220
0
230
1
0
LINE
5
196
100
AcDbEntity
8
SK2
62
256
6
ByLayer
370
-1
48
1
60
0
100
AcDbLine
10
-33.75
20
20
30
0
11
-34.144957
21
16.999999
31
0
39
0
210
0
220
0
230
1
0
LINE
5
197
100
AcDbEntity
8
SK2
62
256
6
ByLayer
370
-1
48
1
60
0
100
AcDbLine
10
-33.355043
20
17.000001
30
0
11
-34.144957
21
16.999999
31
0
39
0
210
0
220
0
230
1
0
LINE
5
198
100
AcDbEntity
8
SK2
62
256
6
ByLayer
370
-1
48
1
60
0
100
AcDbLine
10
-33.75
20
-20
30
0
11
-34.144957
21
-17.000001
31
0
39
0
210
0
220
0
230
1
0
LINE
5
199
100
AcDbEntity
8
SK2
62
256
6
ByLayer
370
-1
48
1
60
0
100
AcDbLine
10
-33.75
20
-20
30
0
11
-33.355043
21
-16.999999
31
0
39
0
210
0
220
0
230
1
0
LINE
5
19A
100
AcDbEntity
8
SK2
62
256
6
ByLayer
370
-1
48
1
60
0
100
AcDbLine
10
-34.144957
20
-17.000001
30
0
11
-33.355043
21
-16.999999
31
0
39
0
210
0
220
0
230
1
0
ENDBLK
5
19C
100
AcDbEntity
8
0
100
AcDbBlockEnd
0
BLOCK
5
1A9
100
AcDbEntity
8
0
100
AcDbBlockBegin
2
DimnDraft3D3
70
0
10
0
20
0
30
0
3
DimnDraft3D3
0
MTEXT
5
19F
100
AcDbEntity
8
2
62
256
6
ByLayer
370
-1
48
1
60
0
100
AcDbMText
10
28.496053
20
32.75
30
0
210
0
220
0
230
1
1
\W01.000;\fsimplex.shx,bigfont.shx;60 
40
4.5
41
0
44
1.084337
50
0
71
7
72
5
7
DEFAULT
0
LINE
5
1A0
100
AcDbEntity
8
2
62
256
6
ByLayer
370
-1
48
1
60
0
100
AcDbLine
10
60
20
13.375
30
0
11
60
21
34.625
31
0
39
0
210
0
220
0
230
1
0
LINE
5
1A1
100
AcDbEntity
8
2
62
256
6
ByLayer
370
-1
48
1
60
0
100
AcDbLine
10
0
20
1.5
30
0
11
0
21
34.625
31
0
39
0
210
0
220
0
230
1
0
LINE
5
1A2
100
AcDbEntity
8
2
62
256
6
ByLayer
370
-1
48
1
60
0
100
AcDbLine
10
60
20
31.625
30
0
11
0
21
31.625
31
0
39
0
210
0
220
0
230
1
0
LINE
5
1A3
100
AcDbEntity
8
2
62
256
6
ByLayer
370
-1
48
1
60
0
100
AcDbLine
10
60
20
31.625
30
0
11
57.000001
21
31.230043
31
0
39
0
210
0
220
0
230
1
0
LINE
5
1A4
100
AcDbEntity
8
2
62
256
6
ByLayer
370
-1
48
1
60
0
100
AcDbLine
10
60
20
31.625
30
0
11
56.999999
21
32.019957
31
0
39
0
210
0
220
0
230
1
0
LINE
5
1A5
100
AcDbEntity
8
2
62
256
6
ByLayer
370
-1
48
1
60
0
100
AcDbLine
10
57.000001
20
31.230043
30
0
11
56.999999
21
32.019957
31
0
39
0
210
0
220
0
230
1
0
LINE
5
1A6
100
AcDbEntity
8
2
62
256
6
ByLayer
370
-1
48
1
60
0
100
AcDbLine
10
0
20
31.625
30
0
11
2.999999
21
32.019957
31
0
39
0
210
0
220
0
230
1
0
LINE
5
1A7
100
AcDbEntity
8
2
62
256
6
ByLayer
370
-1
48
1
60
0
100
AcDbLine
10
0
20
31.625
30
0
11
3.000001
21
31.230043
31
0
39
0
210
0
220
0
230
1
0
LINE
5
1A8
100
AcDbEntity
8
2
62
256
6
ByLayer
370
-1
48
1
60
0
100
AcDbLine
10
2.999999
20
32.019957
30
0
11
3.000001
21
31.230043
31
0
39
0
210
0
220
0
230
1
0
ENDBLK
5
1AA
100
AcDbEntity
8
0
100
AcDbBlockEnd
0
BLOCK
5
1B7
100
AcDbEntity
8
0
100
AcDbBlockBegin
2
DimnDraft3D4
70
0
10
0
20
0
30
0
3
DimnDraft3D4
0
MTEXT
5
1AD
100
AcDbEntity
8
2
62
256
6
ByLayer
370
-1
48
1
60
0
100
AcDbMText
10
39.853748
20
22.75
30
0
210
0
220
0
230
1
1
\W01.000;\fsimplex.shx,bigfont.shx;37 
40
4.5
41
0
44
1.084337
50
0
71
7
72
5
7
DEFAULT
0
LINE
5
1AE
100
AcDbEntity
8
2
62
256
6
ByLayer
370
-1
48
1
60
0
100
AcDbLine
10
22.71539
20
13.375
30
0
11
22.71539
21
24.625
31
0
39
0
210
0
220
0
230
1
0
LINE
5
1AF
100
AcDbEntity
8
2
62
256
6
ByLayer
370
-1
48
1
60
0
100
AcDbLine
10
60
20
13.375
30
0
11
60
21
24.625
31
0
39
0
210
0
220
0
230
1
0
LINE
5
1B0
100
AcDbEntity
8
2
62
256
6
ByLayer
370
-1
48
1
60
0
100
AcDbLine
10
22.71539
20
21.625
30
0
11
60
21
21.625
31
0
39
0
210
0
220
0
230
1
0
LINE
5
1B1
100
AcDbEntity
8
2
62
256
6
ByLayer
370
-1
48
1
60
0
100
AcDbLine
10
22.71539
20
21.625
30
0
11
25.715389
21
22.019957
31
0
39
0
210
0
220
0
230
1
0
LINE
5
1B2
100
AcDbEntity
8
2
62
256
6
ByLayer
370
-1
48
1
60
0
100
AcDbLine
10
22.71539
20
21.625
30
0
11
25.715392
21
21.230043
31
0
39
0
210
0
220
0
230
1
0
LINE
5
1B3
100
AcDbEntity
8
2
62
256
6
ByLayer
370
-1
48
1
60
0
100
AcDbLine
10
25.715389
20
22.019957
30
0
11
25.715392
21
21.230043
31
0
39
0
210
0
220
0
230
1
0
LINE
5
1B4
100
AcDbEntity
8
2
62
256
6
ByLayer
370
-1
48
1
60
0
100
AcDbLine
10
60
20
21.625
30
0
11
57.000001
21
21.230043
31
0
39
0
210
0
220
0
230
1
0
LINE
5
1B5
100
AcDbEntity
8
2
62
256
6
ByLayer
370
-1
48
1
60
0
100
AcDbLine
10
60
20
21.625
30
0
11
56.999999
21
22.019957
31
0
39
0
210
0
220
0
230
1
0
LINE
5
1B6
100
AcDbEntity
8
2
62
256
6
ByLayer
370
-1
48
1
60
0
100
AcDbLine
10
57.000001
20
21.230043
30
0
11
56.999999
21
22.019957
31
0
39
0
210
0
220
0
230
1
0
ENDBLK
5
1B8
100
AcDbEntity
8
0
100
AcDbBlockEnd
0
ENDSEC
0
SECTION
2
ENTITIES
0
ARC
5
BD
100
AcDbEntity
8
1
62
256
6
ByLayer
370
-1
48
1
60
0
100
AcDbCircle
39
0
10
-23.636183
20
-9.2
30
0
40
1.2
210
0
220
0
230
-1
100
AcDbArc
50
15
51
90
0
ARC
5
BE
100
AcDbEntity
8
1
62
256
6
ByLayer
370
-1
48
1
60
0
100
AcDbCircle
39
0
10
-23.636183
20
9.2
30
0
40
1.2
210
0
220
0
230
-1
100
AcDbArc
50
270
51
345
0
ARC
5
BF
100
AcDbEntity
8
1
62
256
6
ByLayer
370
-1
48
1
60
0
100
AcDbCircle
39
0
10
-46.924316
20
-8.8
30
0
40
0.8
210
0
220
0
230
-1
100
AcDbArc
50
90
51
99.068722
0
ARC
5
C0
100
AcDbEntity
8
1
62
256
6
ByLayer
370
-1
48
1
60
0
100
AcDbCircle
39
0
10
-46.924316
20
8.8
30
0
40
0.8
210
0
220
0
230
-1
100
AcDbArc
50
220
51
270
0
ARC
5
C1
100
AcDbEntity
8
SK1
62
256
6
ByLayer
370
-1
48
1
60
0
100
AcDbCircle
39
0
10
0.6
20
-15
30
0
40
1
210
0
220
0
230
-1
100
AcDbArc
50
113.578178
51
126.869898
0
ARC
5
C2
100
AcDbEntity
8
SK1
62
256
6
ByLayer
370
-1
48
1
60
0
100
AcDbCircle
39
0
10
0.6
20
15
30
0
40
1
210
0
220
0
230
-1
100
AcDbArc
50
233.130102
51
246.421822
0
CIRCLE
5
C3
100
AcDbEntity
8
SK1
62
256
6
ByLayer
370
-1
48
1
60
0
100
AcDbCircle
10
11.5
20
0
30
0
40
2.3
39
0
210
0
220
0
230
-1
0
ELLIPSE
5
C4
100
AcDbEntity
8
1
62
256
6
ByLayer
370
-1
48
1
60
0
100
AcDbEllipse
10
51.942342
20
14.797494
30
0
11
-1.90943555697513
21
-9.13291624613548
31
0
210
0
220
0
230
1
40
0.163436
41
0.636104658428627
42
0.65922535200548
0
ELLIPSE
5
C5
100
AcDbEntity
8
1
62
256
6
ByLayer
370
-1
48
1
60
0
100
AcDbEllipse
10
54.676864
20
0
30
0
11
-9.56827771202999
21
6.86054180851112
31
0
210
0
220
0
230
1
40
0.430064
41
-0.276550403682835
42
0.984360285207253
0
ELLIPSE
5
C6
100
AcDbEntity
8
1
62
256
6
ByLayer
370
-1
48
1
60
0
100
AcDbEllipse
10
51.324155
20
5.307827
30
0
11
1.99576982364838
21
-0.130010811144786
31
0
210
0
220
0
230
1
40
0.965789
41
-0.278714973744066
42
-0.195154892630987
0
ELLIPSE
5
C7
100
AcDbEntity
8
1
62
256
6
ByLayer
370
-1
48
1
60
0
100
AcDbEllipse
10
54.676864
20
0
30
0
11
-9.5802380591656
21
6.86911748576973
31
0
210
0
220
0
230
1
40
0.430064
41
1.00549010531942
42
1.73712830907691
0
ELLIPSE
5
C8
100
AcDbEntity
8
1
62
256
6
ByLayer
370
-1
48
1
60
0
100
AcDbEllipse
10
51.285381
20
4.712627
30
0
11
1.99576982364838
21
-0.130010811144786
31
0
210
0
220
0
230
1
40
0.965789
41
1.38129299740107
42
2.94773157264875
0
ELLIPSE
5
C9
100
AcDbEntity
8
1
62
256
6
ByLayer
370
-1
48
1
60
0
100
AcDbEllipse
10
16.948929
20
0
30
0
11
-9.36741787978184
21
19.74174915275
31
0
210
0
220
0
230
1
40
0.341999
41
0.152726244898347
42
1.09631952749991
0
ELLIPSE
5
CA
100
AcDbEntity
8
1
62
256
6
ByLayer
370
-1
48
1
60
0
100
AcDbEllipse
10
51.261111
20
4.340057
30
0
11
-0.555770166303396
21
2.35434151313807
31
0
210
0
220
0
230
1
40
0.808663
41
-0.551155264694816
42
-0.476135113006096
0
ELLIPSE
5
CB
100
AcDbEntity
8
1
62
256
6
ByLayer
370
-1
48
1
60
0
100
AcDbEllipse
10
-0.948929
20
0
30
0
11
-9.3674178797817
21
-19.7417491527498
31
0
210
0
220
0
230
1
40
0.341999
41
2.04527312608987
42
2.98886640869144
0
ELLIPSE
5
CC
100
AcDbEntity
8
1
62
256
6
ByLayer
370
-1
48
1
60
0
100
AcDbEllipse
10
47.723643
20
4.811673
30
0
11
-1.15729257441897
21
1.01280259159077
31
0
210
0
220
0
230
1
40
0.694577
41
-0.661544906015331
42
2.92752703058697
0
ELLIPSE
5
CD
100
AcDbEntity
8
1
62
256
6
ByLayer
370
-1
48
1
60
0
100
AcDbEllipse
10
-0.948929
20
0
30
0
11
-9.36741787978045
21
19.7417491527483
31
0
210
0
220
0
230
1
40
0.341999
41
-2.98886640869144
42
-2.04527312608982
0
ELLIPSE
5
CE
100
AcDbEntity
8
1
62
256
6
ByLayer
370
-1
48
1
60
0
100
AcDbEllipse
10
51.827444
20
13.033728
30
0
11
-1.90943584149438
21
-9.13291887540306
31
0
210
0
220
0
230
1
40
0.163436
41
0.829796628620087
42
0.908895010252111
0
ELLIPSE
5
CF
100
AcDbEntity
8
1
62
256
6
ByLayer
370
-1
48
1
60
0
100
AcDbEllipse
10
51.324155
20
5.307827
30
0
11
1.99576982364838
21
-0.130010811144786
31
0
210
0
220
0
230
1
40
0.965789
41
1.37721476918407
42
1.55377608618343
0
ELLIPSE
5
D0
100
AcDbEntity
8
1
62
256
6
ByLayer
370
-1
48
1
60
0
100
AcDbEllipse
10
51.296228
20
4.879126
30
0
11
-0.555770178804468
21
2.35434150046789
31
0
210
0
220
0
230
1
40
0.808663
41
-0.378672182339425
42
-0.282443065361612
0
ELLIPSE
5
D1
100
AcDbEntity
8
1
62
256
6
ByLayer
370
-1
48
1
60
0
100
AcDbEllipse
10
16.948929
20
0
30
0
11
-9.36741787978213
21
-19.7417491527502
31
0
210
0
220
0
230
1
40
0.341999
41
-1.09631952749989
42
-0.152726244898338
0
ELLIPSE
5
D2
100
AcDbEntity
8
1
62
256
6
ByLayer
370
-1
48
1
60
0
100
AcDbEllipse
10
51.333764
20
5.455332
30
0
11
1.99576982364838
21
-0.130010811144786
31
0
210
0
220
0
230
1
40
0.965789
41
1.62688451417655
42
-0.34802837571913
0
ELLIPSE
5
D3
100
AcDbEntity
8
1
62
256
6
ByLayer
370
-1
48
1
60
0
100
AcDbEllipse
10
56.822295
20
6.528527
30
0
11
1.72135147289673
21
-0.112134324612379
31
0
210
0
220
0
230
1
40
0.965789
41
3.14159237916035
42
-1.50796498548413
0
ELLIPSE
5
D4
100
AcDbEntity
8
1
62
256
6
ByLayer
370
-1
48
1
60
0
100
AcDbEllipse
10
56.822295
20
6.528527
30
0
11
1.72135147289673
21
-0.112134324612379
31
0
210
0
220
0
230
1
40
0.965789
41
-1.50796440569711
42
0
0
ELLIPSE
5
D5
100
AcDbEntity
8
1
62
256
6
ByLayer
370
-1
48
1
60
0
100
AcDbEllipse
10
55.652252
20
6.507747
30
0
11
-0.421107432789808
21
0.0274322811515491
31
0
210
0
220
0
230
1
40
0.965789
41
2.50944009720271
42
3.13751106467077
0
ELLIPSE
5
D6
100
AcDbEntity
8
1
62
256
6
ByLayer
370
-1
48
1
60
0
100
AcDbEllipse
10
56.084957
20
6.916988
30
0
11
-0.184608708687475
21
0.0120260000308924
31
0
210
0
220
0
230
1
40
0.965789
41
-1.75969453548197
42
-0.755918670242272
0
ELLIPSE
5
D7
100
AcDbEntity
8
1
62
256
6
ByLayer
370
-1
48
1
60
0
100
AcDbEllipse
10
57.556262
20
6.910567
30
0
11
-0.184608708687475
21
0.0120260000308924
31
0
210
0
220
0
230
1
40
0.965789
41
-2.38556232892385
42
-1.25623465131366
0
ELLIPSE
5
D8
100
AcDbEntity
8
1
62
256
6
ByLayer
370
-1
48
1
60
0
100
AcDbEllipse
10
56.820609
20
6.502649
30
0
11
-0.746417914044493
21
0.0486240433681486
31
0
210
0
220
0
230
1
40
0.965789
41
-0.984794807629457
42
-0.25399318061134
0
ELLIPSE
5
D9
100
AcDbEntity
8
1
62
256
6
ByLayer
370
-1
48
1
60
0
100
AcDbEllipse
10
56.820609
20
6.502649
30
0
11
-0.746417914044493
21
0.0486240433681486
31
0
210
0
220
0
230
1
40
0.965789
41
2.69792797861577
42
-3.11649227210988
0
ELLIPSE
5
DA
100
AcDbEntity
8
1
62
256
6
ByLayer
370
-1
48
1
60
0
100
AcDbEllipse
10
56.820609
20
6.502649
30
0
11
0.746417914044493
21
-0.0486240433681501
31
0
210
0
220
0
230
1
40
0.965789
41
-3.04102956827567
42
-2.60022615107763
0
ELLIPSE
5
DB
100
AcDbEntity
8
1
62
256
6
ByLayer
370
-1
48
1
60
0
100
AcDbEllipse
10
56.788579
20
6.010963
30
0
11
1.24735613978024
21
-0.0812567569654917
31
0
210
0
220
0
230
1
40
0.965789
41
-2.14855523771411
42
-1.50796511303728
0
ELLIPSE
5
DC
100
AcDbEntity
8
1
62
256
6
ByLayer
370
-1
48
1
60
0
100
AcDbEllipse
10
56.788579
20
6.010963
30
0
11
1.24735613978024
21
-0.0812567569654917
31
0
210
0
220
0
230
1
40
0.965789
41
-1.50796431293119
42
-0.993037343959657
0
ELLIPSE
5
DD
100
AcDbEntity
8
1
62
256
6
ByLayer
370
-1
48
1
60
0
100
AcDbEllipse
10
59.596085
20
1.741776
30
0
11
-0.20189908291657
21
0.0131523501499718
31
0
210
0
220
0
230
1
40
0.965789
41
1.63362806019201
42
-3.14159140408443
0
ELLIPSE
5
DE
100
AcDbEntity
8
1
62
256
6
ByLayer
370
-1
48
1
60
0
100
AcDbEllipse
10
56.811965
20
6.369949
30
0
11
-1.87103420967036
21
0.121885135448234
31
0
210
0
220
0
230
1
40
0.965789
41
-0.494015458519179
42
-9.80949580443344E-16
0
ELLIPSE
5
DF
100
AcDbEntity
8
1
62
256
6
ByLayer
370
-1
48
1
60
0
100
AcDbEllipse
10
56.811965
20
6.369949
30
0
11
-1.87103420967036
21
0.121885135448234
31
0
210
0
220
0
230
1
40
0.965789
41
0
42
0.208522932883613
0
ELLIPSE
5
E0
100
AcDbEntity
8
1
62
256
6
ByLayer
370
-1
48
1
60
0
100
AcDbEllipse
10
56.811965
20
6.369949
30
0
11
-1.87103420967036
21
0.121885135448234
31
0
210
0
220
0
230
1
40
0.965789
41
2.93306951861819
42
-2.62205183804734
0
ELLIPSE
5
E1
100
AcDbEntity
8
1
62
256
6
ByLayer
370
-1
48
1
60
0
100
AcDbEllipse
10
52.910728
20
4.929422
30
0
11
-0.294601118044362
21
0.0191912563599596
31
0
210
0
220
0
230
1
40
0.965789
41
-2.19270216226363
42
-1.50796459339749
0
ELLIPSE
5
E2
100
AcDbEntity
8
1
62
256
6
ByLayer
370
-1
48
1
60
0
100
AcDbEllipse
10
51.772944
20
5.414985
30
0
11
-0.20189908291657
21
0.0131523501499718
31
0
210
0
220
0
230
1
40
0.965789
41
3.4526627464435E-05
42
1.63362806019194
0
ELLIPSE
5
E3
100
AcDbEntity
8
1
62
256
6
ByLayer
370
-1
48
1
60
0
100
AcDbEllipse
10
56.809498
20
6.332073
30
0
11
-1.82090010187886
21
0.118619239780928
31
0
210
0
220
0
230
1
40
0.965789
41
-0.36039995927416
42
-1.00795766943913E-15
0
ELLIPSE
5
E4
100
AcDbEntity
8
1
62
256
6
ByLayer
370
-1
48
1
60
0
100
AcDbEllipse
10
56.809498
20
6.332073
30
0
11
-1.82090010187886
21
0.118619239780928
31
0
210
0
220
0
230
1
40
0.965789
41
0
42
0.368646171447891
0
ELLIPSE
5
E5
100
AcDbEntity
8
1
62
256
6
ByLayer
370
-1
48
1
60
0
100
AcDbEllipse
10
56.809498
20
6.332073
30
0
11
-1.82090010187886
21
0.118619239780928
31
0
210
0
220
0
230
1
40
0.965789
41
2.77294647339727
42
-2.78119326796499
0
ELLIPSE
5
E6
100
AcDbEntity
8
1
62
256
6
ByLayer
370
-1
48
1
60
0
100
AcDbEllipse
10
56.825451
20
6.576974
30
0
11
-1.92685733812668
21
0.125521632064852
31
0
210
0
220
0
230
1
40
0.965789
41
0
42
6.28318530717959
0
ELLIPSE
5
E7
100
AcDbEntity
8
1
62
256
6
ByLayer
370
-1
48
1
60
0
100
AcDbEllipse
10
59.649609
20
2.56341
30
0
11
-0.20189908291657
21
0.0131523501499718
31
0
210
0
220
0
230
1
40
0.965789
41
1.63362806019208
42
-2.55516214459444
0
ELLIPSE
5
E8
100
AcDbEntity
8
1
62
256
6
ByLayer
370
-1
48
1
60
0
100
AcDbEllipse
10
58.000553
20
10.223647
30
0
11
-0.294601118044362
21
0.0191912563599596
31
0
210
0
220
0
230
1
40
0.965789
41
0.586430508995414
42
2.68082561138883
0
ELLIPSE
5
E9
100
AcDbEntity
8
1
62
256
6
ByLayer
370
-1
48
1
60
0
100
AcDbEllipse
10
59.511549
20
3.756222
30
0
11
-0.294601118044362
21
0.0191912563599596
31
0
210
0
220
0
230
1
40
0.965789
41
-1.50796459339778
42
0.586430508994969
0
ELLIPSE
5
EA
100
AcDbEntity
8
1
62
256
6
ByLayer
370
-1
48
1
60
0
100
AcDbEllipse
10
52.964251
20
5.751055
30
0
11
-0.294601118044362
21
0.0191912563599596
31
0
210
0
220
0
230
1
40
0.965789
41
2.68082561138861
42
-1.50796459339744
0
ELLIPSE
5
EB
100
AcDbEntity
8
1
62
256
6
ByLayer
370
-1
48
1
60
0
100
AcDbEllipse
10
59.000276
20
10.930894
30
0
11
-0.20189908291657
21
0.0131523501499718
31
0
210
0
220
0
230
1
40
0.965789
41
-2.55516214459368
42
-0.460767042201189
0
ELLIPSE
5
EC
100
AcDbEntity
8
1
62
256
6
ByLayer
370
-1
48
1
60
0
100
AcDbEllipse
10
51.826468
20
6.236619
30
0
11
-0.20189908291657
21
0.0131523501499718
31
0
210
0
220
0
230
1
40
0.965789
41
-0.460767042201121
42
1.63362806019194
0
ELLIPSE
5
ED
100
AcDbEntity
8
1
62
256
6
ByLayer
370
-1
48
1
60
0
100
AcDbEllipse
10
56.837467
20
6.761431
30
0
11
1.03281088373803
21
-0.0672805947674275
31
0
210
0
220
0
230
1
40
0.965789
41
2.67996763172869
42
-2.55430416493449
0
ELLIPSE
5
EE
100
AcDbEntity
8
1
62
256
6
ByLayer
370
-1
48
1
60
0
100
AcDbEllipse
10
56.837467
20
6.761431
30
0
11
1.03281088373803
21
-0.0672805947674275
31
0
210
0
220
0
230
1
40
0.965789
41
-0.461625021861102
42
0.58728848865532
0
ELLIPSE
5
EF
100
AcDbEntity
8
1
62
256
6
ByLayer
370
-1
48
1
60
0
100
AcDbEllipse
10
56.820609
20
6.502649
30
0
11
0.746417914044493
21
-0.0486240433681501
31
0
210
0
220
0
230
1
40
0.965789
41
0.02510038147991
42
0.10056308531431
0
ELLIPSE
5
F0
100
AcDbEntity
8
1
62
256
6
ByLayer
370
-1
48
1
60
0
100
AcDbEllipse
10
57.405092
20
7.479065
30
0
11
-0.421107432789808
21
0.0274322811515491
31
0
210
0
220
0
230
1
40
0.965789
41
1.11045827442368
42
1.88535800227612
0
ELLIPSE
5
F1
100
AcDbEntity
8
1
62
256
6
ByLayer
370
-1
48
1
60
0
100
AcDbEllipse
10
56.837467
20
6.761431
30
0
11
1.03281088373803
21
-0.0672805947674275
31
0
210
0
220
0
230
1
40
0.965789
41
-1.5079645933978
42
-0.461625021861102
0
ELLIPSE
5
F2
100
AcDbEntity
8
1
62
256
6
ByLayer
370
-1
48
1
60
0
100
AcDbEllipse
10
57.988967
20
6.497551
30
0
11
-0.421107432789808
21
0.0274322811515491
31
0
210
0
220
0
230
1
40
0.965789
41
0.129745055713541
42
0.839917933289068
0
ELLIPSE
5
F3
100
AcDbEntity
8
1
62
256
6
ByLayer
370
-1
48
1
60
0
100
AcDbEllipse
10
56.837467
20
6.761431
30
0
11
1.03281088373803
21
-0.0672805947674275
31
0
210
0
220
0
230
1
40
0.965789
41
-2.55430416493449
42
-1.5079645933978
0
ELLIPSE
5
F4
100
AcDbEntity
8
1
62
256
6
ByLayer
370
-1
48
1
60
0
100
AcDbEllipse
10
56.820609
20
6.502649
30
0
11
-0.746417914044493
21
0.0486240433681486
31
0
210
0
220
0
230
1
40
0.965789
41
-3.04102956827548
42
-2.03113437916614
0
ELLIPSE
5
F5
100
AcDbEntity
8
1
62
256
6
ByLayer
370
-1
48
1
60
0
100
AcDbEllipse
10
56.834674
20
6.718551
30
0
11
0.746417914044493
21
-0.0486240433681501
31
0
210
0
220
0
230
1
40
0.965789
41
0.0251003814799149
42
0.100563085314303
0
ELLIPSE
5
F6
100
AcDbEntity
8
1
62
256
6
ByLayer
370
-1
48
1
60
0
100
AcDbEllipse
10
56.837467
20
6.761431
30
0
11
1.03281088373803
21
-0.0672805947674275
31
0
210
0
220
0
230
1
40
0.965789
41
0.58728848865532
42
1.633628060192
0
ELLIPSE
5
F7
100
AcDbEntity
8
1
62
256
6
ByLayer
370
-1
48
1
60
0
100
AcDbEllipse
10
56.236127
20
7.484166
30
0
11
-0.421107432789808
21
0.0274322811515491
31
0
210
0
220
0
230
1
40
0.965789
41
2.15679784596033
42
2.93169757381281
0
ELLIPSE
5
F8
100
AcDbEntity
8
1
62
256
6
ByLayer
370
-1
48
1
60
0
100
AcDbEllipse
10
56.837467
20
6.761431
30
0
11
1.03281088373803
21
-0.0672805947674275
31
0
210
0
220
0
230
1
40
0.965789
41
1.633628060192
42
2.67996763172869
0
ELLIPSE
5
F9
100
AcDbEntity
8
1
62
256
6
ByLayer
370
-1
48
1
60
0
100
AcDbEllipse
10
56.820609
20
6.502649
30
0
11
-0.746417914044493
21
0.0486240433681486
31
0
210
0
220
0
230
1
40
0.965789
41
-2.03113437916614
42
-0.984794807629457
0
ELLIPSE
5
FA
100
AcDbEntity
8
1
62
256
6
ByLayer
370
-1
48
1
60
0
100
AcDbEllipse
10
56.834674
20
6.718551
30
0
11
0.746417914044493
21
-0.0486240433681501
31
0
210
0
220
0
230
1
40
0.965789
41
-3.11649227210971
42
-3.04102956827567
0
ELLIPSE
5
FB
100
AcDbEntity
8
1
62
256
6
ByLayer
370
-1
48
1
60
0
100
AcDbEllipse
10
56.236127
20
7.484166
30
0
11
-0.421107432789808
21
0.0274322811515491
31
0
210
0
220
0
230
1
40
0.965789
41
1.38189811810789
42
2.15679784596033
0
ELLIPSE
5
FC
100
AcDbEntity
8
1
62
256
6
ByLayer
370
-1
48
1
60
0
100
AcDbEllipse
10
56.820609
20
7.323686
30
0
11
-0.184608708687475
21
0.0120260000308924
31
0
210
0
220
0
230
1
40
0.965789
41
-2.80603410701857
42
-0.209895079776969
0
ELLIPSE
5
FD
100
AcDbEntity
8
1
62
256
6
ByLayer
370
-1
48
1
60
0
100
AcDbEllipse
10
57.405092
20
7.479065
30
0
11
-0.421107432789808
21
0.0274322811515491
31
0
210
0
220
0
230
1
40
0.965789
41
0.335558546571214
42
1.11045827442368
0
ELLIPSE
5
FE
100
AcDbEntity
8
1
62
256
6
ByLayer
370
-1
48
1
60
0
100
AcDbEllipse
10
56.837467
20
6.761431
30
0
11
1.29725038537144
21
-0.0845070272441119
31
0
210
0
220
0
230
1
40
0.965789
41
0
42
6.28318530717959
0
ELLIPSE
5
FF
100
AcDbEntity
8
1
62
256
6
ByLayer
370
-1
48
1
60
0
100
AcDbEllipse
10
56.834535
20
6.716422
30
0
11
1.72135147289673
21
-0.112134324612379
31
0
210
0
220
0
230
1
40
0.965789
41
0
42
6.28318530717959
0
POINT
5
41
100
AcDbEntity
8
80
62
256
6
ByLayer
370
-1
48
1
60
0
100
AcDbPoint
10
0
20
0
30
0
39
0
210
0
220
0
230
1
50
360
0
POINT
5
43
100
AcDbEntity
8
81
62
256
6
ByLayer
370
-1
48
1
60
0
100
AcDbPoint
10
60
20
11.875
30
0
39
0
210
0
220
0
230
1
50
360
0
POINT
5
45
100
AcDbEntity
8
2
62
256
6
ByLayer
370
-1
48
1
60
0
100
AcDbPoint
10
60
20
11.875
30
0
39
0
210
0
220
0
230
1
50
360
0
SPLINE
5
100
100
AcDbEntity
8
SK1
62
256
6
ByLayer
370
-1
48
1
60
0
100
AcDbSpline
70
4
71
2
72
6
73
3
40
0
40
0
40
0
40
1
40
1
40
1
41
1
10
-2.5
20
14.0000000000165
30
0
41
1
10
-12.5002365839528
20
13.7487592491245
30
0
41
1
10
-22.5004731679057
20
13.4975184982324
30
0
0
SPLINE
5
101
100
AcDbEntity
8
1
62
256
6
ByLayer
370
-1
48
1
60
0
100
AcDbSpline
70
4
71
3
72
11
73
7
40
0
40
0
40
0
40
0
40
0.255284643358629
40
0.564956849331406
40
0.862120549701258
40
1
40
1
40
1
40
1
41
1
10
57.9604495378641
20
5.26980630537653
30
0
41
1
10
57.9221313388182
20
5.21670898511428
30
0
41
1
10
57.8259853583308
20
5.10350105886587
30
0
41
1
10
57.6430705283522
20
4.9511069510055
30
0
41
1
10
57.4542747731089
20
4.8461089245379
30
0
41
1
10
57.3337186420695
20
4.79894809263609
30
0
41
1
10
57.294651570453
20
4.78553673690897
30
0
0
SPLINE
5
102
100
AcDbEntity
8
1
62
256
6
ByLayer
370
-1
48
1
60
0
100
AcDbSpline
70
4
71
3
72
13
73
9
40
0
40
0
40
0
40
0
40
0.0957336854185969
40
0.310755677842004
40
0.529865621619048
40
0.754998008352726
40
0.988134605679024
40
1
40
1
40
1
40
1
41
1
10
56.2606521887155
20
4.80350613599782
30
0
41
1
10
56.2249511206726
20
4.81707856279616
30
0
41
1
10
56.1113678986298
20
4.86530917887737
30
0
41
1
10
55.9329544116995
20
4.96916211080114
30
0
41
1
10
55.7446220963284
20
5.12831059755183
30
0
41
1
10
55.5912153785628
20
5.31440627097237
30
0
41
1
10
55.5139916680933
20
5.45371116455942
30
0
41
1
10
55.4823474312248
20
5.52768522809424
30
0
41
1
10
55.4808347938473
20
5.53127091280476
30
0
0
SPLINE
5
103
100
AcDbEntity
8
SK1
62
256
6
ByLayer
370
-1
48
1
60
0
100
AcDbSpline
70
4
71
3
72
23
73
19
40
0
40
0
40
0
40
0
40
0.0481914891112201
40
0.0566136565892712
40
0.0627721993813963
40
0.0650493547378003
40
0.0660493838373874
40
0.0670072893865691
40
0.0679775531510109
40
0.06901847915523
40
0.0715061185496293
40
0.0790320816793695
40
0.130661750743411
40
0.193767963341424
40
0.277700478816252
40
0.492099733773838
40
0.742186690336849
40
1
40
1
40
1
40
1
41
1
10
-1.49999999999994
20
13.8251486130518
30
0
41
1
10
-1.50735816765575
20
13.8240147786141
30
0
41
1
10
-1.52246712168556
20
13.8254366188268
30
0
41
1
10
-1.54438003139862
20
13.8293973042898
30
0
41
1
10
-1.5523632054325
20
13.8312683135853
30
0
41
1
10
-1.55875908723326
20
13.8331135183506
30
0
41
1
10
-1.56206879776002
20
13.8341581381266
30
0
41
1
10
-1.56446558187611
20
13.8349547391861
30
0
41
1
10
-1.56686109288111
20
13.8357919801396
30
0
41
1
10
-1.5702211106067
20
13.8370246024165
30
0
41
1
10
-1.5769580088365
20
13.839698244523
30
0
41
1
10
-1.59877190359086
20
13.8498957544909
30
0
41
1
10
-1.61088920350457
20
13.8590291915001
30
0
41
1
10
-1.62905947533022
20
13.8709659862926
30
0
41
1
10
-1.64922100836617
20
13.8841916327316
30
0
41
1
10
-1.67041225028038
20
13.889105500614
30
0
41
1
10
-1.68697480092402
20
13.8606254275765
30
0
41
1
10
-1.69531440989854
20
13.8264738174939
30
0
41
1
10
-1.6966703465865
20
13.7922270997962
30
0
0
SPLINE
5
104
100
AcDbEntity
8
SK1
62
256
6
ByLayer
370
-1
48
1
60
0
100
AcDbSpline
70
4
71
2
72
6
73
3
40
0
40
0
40
0
40
1
40
1
40
1
41
1
10
-22.5004731679057
20
-13.4975184982574
30
0
41
1
10
-12.5002365839528
20
-13.7487592491499
30
0
41
1
10
-2.5
20
-14.0000000000425
30
0
0
SPLINE
5
105
100
AcDbEntity
8
SK1
62
256
6
ByLayer
370
-1
48
1
60
0
100
AcDbSpline
70
4
71
2
72
6
73
3
40
0
40
0
40
0
40
1
40
1
40
1
41
1
10
-1.69501459340779
20
14.0202240353492
30
0
41
1
10
-2.0975072967039
20
14.0101120176829
30
0
41
1
10
-2.5
20
14.0000000000165
30
0
0
SPLINE
5
106
100
AcDbEntity
8
SK1
62
256
6
ByLayer
370
-1
48
1
60
0
100
AcDbSpline
70
4
71
2
72
6
73
3
40
0
40
0
40
0
40
1
40
1
40
1
41
1
10
-2.5
20
-14.0000000000425
30
0
41
1
10
-2.0975072967039
20
-14.0101120177088
30
0
41
1
10
-1.69501459340779
20
-14.0202240353752
30
0
0
SPLINE
5
107
100
AcDbEntity
8
SK1
62
256
6
ByLayer
370
-1
48
1
60
0
100
AcDbSpline
70
4
71
2
72
6
73
3
40
0
40
0
40
0
40
1
40
1
40
1
41
1
10
-22.5004044652863
20
13.4963063088843
30
0
41
1
10
-23.2502022102608
20
13.0377782396013
30
0
41
1
10
-24
20
12.579249793836
30
0
0
SPLINE
5
108
100
AcDbEntity
8
SK1
62
256
6
ByLayer
370
-1
48
1
60
0
100
AcDbSpline
70
4
71
2
72
6
73
3
40
0
40
0
40
0
40
1
40
1
40
1
41
1
10
-24
20
-12.580456895609
30
0
41
1
10
-23.250195418368
20
-13.0391711292673
30
0
41
1
10
-22.5003908339782
20
-13.4978821831766
30
0
0
SPLINE
5
109
100
AcDbEntity
8
SK1
62
256
6
ByLayer
370
-1
48
1
60
0
100
AcDbSpline
70
4
71
3
72
26
73
22
40
0
40
0
40
0
40
0
40
0.0132327592005839
40
0.192912659647527
40
0.372574859570878
40
0.536311841268183
40
0.665660295960992
40
0.750813269281287
40
0.786949048146626
40
0.79693927735665
40
0.800130210808738
40
0.802281868718544
40
0.803066897183243
40
0.803418548787146
40
0.803759724955291
40
0.80446447138384
40
0.805283408435785
40
0.8074681959263
40
0.831295992983208
40
0.905156694505911
40
1
40
1
40
1
40
1
41
1
10
-1.69867278286128
20
-13.7959926390708
30
0
41
1
10
-1.69864011835779
20
-13.7990334956665
30
0
41
1
10
-1.69810103377912
20
-13.8425057457237
30
0
41
1
10
-1.6943499519239
20
-13.8879097270569
30
0
41
1
10
-1.68709040516174
20
-13.9288083064489
30
0
41
1
10
-1.67655148342533
20
-13.9302129649349
30
0
41
1
10
-1.66343399954806
20
-13.9098463189309
30
0
41
1
10
-1.64794719496103
20
-13.8824638392596
30
0
41
1
10
-1.63286827452356
20
-13.8609778451956
30
0
41
1
10
-1.62116768904087
20
-13.8487649758982
30
0
41
1
10
-1.61485049755331
20
-13.8433552365456
30
0
41
1
10
-1.6110902256579
20
-13.840466543315
30
0
41
1
10
-1.60808485292517
20
-13.8384074213376
30
0
41
1
10
-1.60655988135542
20
-13.837418577743
30
0
41
1
10
-1.60506672047475
20
-13.836482562177
30
0
41
1
10
-1.60309927395667
20
-13.8353157511844
30
0
41
1
10
-1.59980668281841
20
-13.8335050881536
30
0
41
1
10
-1.58305408684188
20
-13.8255470297328
30
0
41
1
10
-1.56451920355599
20
-13.8251132298293
30
0
41
1
10
-1.53150919706266
20
-13.823384129155
30
0
41
1
10
-1.51003699476172
20
-13.8242603688263
30
0
41
1
10
-1.49999999999994
20
-13.8251486126234
30
0
0
SPLINE
5
10A
100
AcDbEntity
8
SK1
62
256
6
ByLayer
370
-1
48
1
60
0
100
AcDbSpline
70
4
71
1
72
4
73
2
40
0
40
0
40
1
40
1
41
1
10
-1.69692757259185
20
13.7844507230198
30
0
41
1
10
-1.69747889924969
20
13.7677805276468
30
0
0
SPLINE
5
10B
100
AcDbEntity
8
1
62
256
6
ByLayer
370
-1
48
1
60
0
100
AcDbSpline
70
4
71
3
72
8
73
4
40
0
40
0
40
0
40
0
40
1
40
1
40
1
40
1
41
1
10
47.537151902747
20
8.25801012930029
30
0
41
1
10
47.9370555553853
20
8.74753575297092
30
0
41
1
10
48.3398428314237
20
9.23486201910464
30
0
41
1
10
48.7443431880252
20
9.72084272507971
30
0
0
SPLINE
5
10C
100
AcDbEntity
8
1
62
256
6
ByLayer
370
-1
48
1
60
0
100
AcDbSpline
70
4
71
3
72
18
73
14
40
0
40
0
40
0
40
0
40
0.0074698584964713
40
0.0074698584964713
40
0.116973966194781
40
0.116973966194781
40
0.258725811908682
40
0.258725811908682
40
0.483357667469274
40
0.483357667469274
40
0.914372095275102
40
0.914372095275102
40
1
40
1
40
1
40
1
41
1
10
6.9232050807569
20
-5.85988980456943
30
0
41
1
10
6.92208468721896
20
-5.85988980456943
30
0
41
1
10
6.92096421381791
20
-5.85990260585547
30
0
41
1
10
6.90362587375569
20
-5.86029870927993
30
0
41
1
10
6.88729582850945
20
-5.86347117694424
30
0
41
1
10
6.85241494776133
20
-5.87578180524324
30
0
41
1
10
6.83403826981098
20
-5.88647487106027
30
0
41
1
10
6.79189644932293
20
-5.91885996191019
30
0
41
1
10
6.77017927255534
20
-5.94374247779561
30
0
41
1
10
6.71671845086621
20
-6.02032056207838
30
0
41
1
10
6.69216738458638
20
-6.07738634703679
30
0
41
1
10
6.67004133265905
20
-6.1465227648568
30
0
41
1
10
6.66660535986759
20
-6.15810095961689
30
0
41
1
10
6.66339745962159
20
-6.16973001948574
30
0
0
SPLINE
5
10D
100
AcDbEntity
8
1
62
256
6
ByLayer
370
-1
48
1
60
0
100
AcDbSpline
70
4
71
3
72
10
73
6
40
0
40
0
40
0
40
0
40
0.150681229842402
40
0.150681229842402
40
1
40
1
40
1
40
1
41
1
10
47.0504115503841
20
0.20048637860387
30
0
41
1
10
47.0443244379252
20
0.209090794872452
30
0
41
1
10
47.0382022966205
20
0.217678017732567
30
0
41
1
10
46.9973249075175
20
0.274559630777531
30
0
41
1
10
46.9614501795655
20
0.322334232566135
30
0
41
1
10
46.9243163482518
20
0.369164414599567
30
0
0
SPLINE
5
10E
100
AcDbEntity
8
1
62
256
6
ByLayer
370
-1
48
1
60
0
100
AcDbSpline
70
4
71
3
72
16
73
12
40
0
40
0
40
0
40
0
40
0.267372091523143
40
0.267372091523143
40
0.600855844067848
40
0.600855844067848
40
0.762574643716887
40
0.762574643716887
40
0.898037673161703
40
0.898037673161703
40
1
40
1
40
1
40
1
41
1
10
6.66339745962154
20
6.1697300194856
30
0
41
1
10
6.67334240635006
20
6.13367828095579
30
0
41
1
10
6.68546814770983
20
6.09801792960667
30
0
41
1
10
6.7192969694421
20
6.02025855383843
30
0
41
1
10
6.7428302695898
20
5.97794802948573
30
0
41
1
10
6.78884631127269
20
5.92367470492701
30
0
41
1
10
6.80595658073201
20
5.90709361727349
30
0
41
1
10
6.84135466156636
20
5.88208699512387
30
0
41
1
10
6.85938079361097
20
5.87260601127602
30
0
41
1
10
6.89283602717148
20
5.86230971122501
30
0
41
1
10
6.90809932802136
20
5.85988980456929
30
0
41
1
10
6.92320508075687
20
5.85988980456929
30
0
0
SPLINE
5
10F
100
AcDbEntity
8
1
62
256
6
ByLayer
370
-1
48
1
60
0
100
AcDbSpline
70
4
71
3
72
16
73
12
40
0
40
0
40
0
40
0
40
0.267372091523206
40
0.267372091523206
40
0.600855844067856
40
0.600855844067856
40
0.762574643716907
40
0.762574643716907
40
0.89803767316171
40
0.89803767316171
40
1
40
1
40
1
40
1
41
1
10
6.66339745962154
20
-19.0245744101322
30
0
41
1
10
6.67334240635006
20
-19.036266103658
30
0
41
1
10
6.68546814770983
20
-19.0477160699853
30
0
41
1
10
6.7192969694421
20
-19.0724552288877
30
0
41
1
10
6.7428302695898
20
-19.0857432838256
30
0
41
1
10
6.78884631127269
20
-19.1026287554228
30
0
41
1
10
6.80595658073201
20
-19.1077588484921
30
0
41
1
10
6.84135466156636
20
-19.1154700309997
30
0
41
1
10
6.85938079361097
20
-19.1183821582684
30
0
41
1
10
6.89283602717148
20
-19.1215414200073
30
0
41
1
10
6.90809932802136
20
-19.1222825906926
30
0
41
1
10
6.92320508075687
20
-19.1222825906926
30
0
0
SPLINE
5
110
100
AcDbEntity
8
1
62
256
6
ByLayer
370
-1
48
1
60
0
100
AcDbSpline
70
4
71
3
72
16
73
12
40
0
40
0
40
0
40
0
40
0.267372091523441
40
0.267372091523441
40
0.600855844067933
40
0.600855844067933
40
0.762574643716983
40
0.762574643716983
40
0.898037673161768
40
0.898037673161768
40
1
40
1
40
1
40
1
41
1
10
9.33660254037846
20
19.0245744101322
30
0
41
1
10
9.32665759364994
20
19.036266103658
30
0
41
1
10
9.31453185229014
20
19.0477160699853
30
0
41
1
10
9.28070303055787
20
19.0724552288877
30
0
41
1
10
9.25716973041017
20
19.0857432838256
30
0
41
1
10
9.21115368872728
20
19.1026287554228
30
0
41
1
10
9.19404341926796
20
19.1077588484921
30
0
41
1
10
9.15864533843362
20
19.1154700309996
30
0
41
1
10
9.140619206389
20
19.1183821582684
30
0
41
1
10
9.10716397282849
20
19.1215414200073
30
0
41
1
10
9.09190067197864
20
19.1222825906925
30
0
41
1
10
9.07679491924313
20
19.1222825906925
30
0
0
SPLINE
5
111
100
AcDbEntity
8
1
62
256
6
ByLayer
370
-1
48
1
60
0
100
AcDbSpline
70
4
71
3
72
18
73
14
40
0
40
0
40
0
40
0
40
0.0074698584965039
40
0.0074698584965039
40
0.116973966194825
40
0.116973966194825
40
0.258725811908749
40
0.258725811908749
40
0.483357667469395
40
0.483357667469395
40
0.91437209527532
40
0.91437209527532
40
1
40
1
40
1
40
1
41
1
10
9.0767949192431
20
-19.1222825906926
30
0
41
1
10
9.07791531278104
20
-19.1222825906926
30
0
41
1
10
9.07903578618212
20
-19.122278667842
30
0
41
1
10
9.09637412624434
20
-19.1221572838471
30
0
41
1
10
9.11270417149058
20
-19.1211855627664
30
0
41
1
10
9.1475850522387
20
-19.1174067506416
30
0
41
1
10
9.16596173018905
20
-19.1141200721534
30
0
41
1
10
9.20810355067712
20
-19.1041233146922
30
0
41
1
10
9.22982072744469
20
-19.0964050302577
30
0
41
1
10
9.28328154913385
20
-19.0724543460921
30
0
41
1
10
9.30783261541364
20
-19.0543706588151
30
0
41
1
10
9.32995866734097
20
-19.0320887998676
30
0
41
1
10
9.33339464013241
20
-19.0283457512527
30
0
41
1
10
9.33660254037841
20
-19.0245744101322
30
0
0
SPLINE
5
112
100
AcDbEntity
8
1
62
256
6
ByLayer
370
-1
48
1
60
0
100
AcDbSpline
70
4
71
3
72
18
73
14
40
0
40
0
40
0
40
0
40
0.0074698584964685
40
0.0074698584964685
40
0.116973966194791
40
0.116973966194791
40
0.258725811908698
40
0.258725811908698
40
0.48335766746929
40
0.48335766746929
40
0.914372095275107
40
0.914372095275107
40
1
40
1
40
1
40
1
41
1
10
9.0767949192431
20
5.85988980456929
30
0
41
1
10
9.07791531278104
20
5.85988980456929
30
0
41
1
10
9.07903578618212
20
5.85990260585533
30
0
41
1
10
9.09637412624431
20
5.86029870927979
30
0
41
1
10
9.11270417149055
20
5.8634711769441
30
0
41
1
10
9.14758505223867
20
5.87578180524309
30
0
41
1
10
9.16596173018905
20
5.8864748710601
30
0
41
1
10
9.20810355067709
20
5.91885996191004
30
0
41
1
10
9.22982072744466
20
5.94374247779547
30
0
41
1
10
9.28328154913382
20
6.02032056207824
30
0
41
1
10
9.30783261541362
20
6.07738634703665
30
0
41
1
10
9.32995866734097
20
6.14652276485663
30
0
41
1
10
9.33339464013241
20
6.15810095961672
30
0
41
1
10
9.33660254037841
20
6.16973001948557
30
0
0
SPLINE
5
113
100
AcDbEntity
8
1
62
256
6
ByLayer
370
-1
48
1
60
0
100
AcDbSpline
70
4
71
3
72
28
73
24
40
0
40
0
40
0
40
0
40
0.0866724631757403
40
0.0866724631757403
40
0.172516114641467
40
0.172516114641467
40
0.300289699830924
40
0.300289699830924
40
0.431707316322535
40
0.431707316322535
40
0.502673311461903
40
0.502673311461903
40
0.573816858219954
40
0.573816858219954
40
0.682853252127788
40
0.682853252127788
40
0.800471135816022
40
0.800471135816022
40
0.899781274177612
40
0.899781274177612
40
0.981852942660721
40
0.981852942660721
40
1
40
1
40
1
40
1
41
1
10
48.7050800348774
20
3.6512260675064
30
0
41
1
10
48.6897785215134
20
3.64290080455766
30
0
41
1
10
48.6823704754736
20
3.65708843408788
30
0
41
1
10
48.6777926566199
20
3.7233671388563
30
0
41
1
10
48.6803396067501
20
3.77553087614783
30
0
41
1
10
48.6902933161219
20
3.93594110645458
30
0
41
1
10
48.6999056912104
20
4.06135965987681
30
0
41
1
10
48.7026747710669
20
4.34334571173414
30
0
41
1
10
48.6968900114392
20
4.50647532958672
30
0
41
1
10
48.6313057677938
20
4.75931235761735
30
0
41
1
10
48.5953942432793
20
4.85011259327396
30
0
41
1
10
48.4942171438965
20
5.01736429777651
30
0
41
1
10
48.4279820908849
20
5.09533738901158
30
0
41
1
10
48.2448204835162
20
5.27030989492562
30
0
41
1
10
48.1181689347629
20
5.36088354873169
30
0
41
1
10
47.8639981266536
20
5.53534916830338
30
0
41
1
10
47.7328170706677
20
5.62038194169662
30
0
41
1
10
47.5208672000417
20
5.77264036908812
30
0
41
1
10
47.4333139890172
20
5.84190205438685
30
0
41
1
10
47.3131870382423
20
5.96390539084101
30
0
41
1
10
47.2727915682444
20
6.01867909996042
30
0
41
1
10
47.2485367260952
20
6.08186494114716
30
0
41
1
10
47.2450829199237
20
6.0933241113288
30
0
41
1
10
47.2426553067942
20
6.1046397375402
30
0
0
SPLINE
5
114
100
AcDbEntity
8
1
62
256
6
ByLayer
370
-1
48
1
60
0
100
AcDbSpline
70
4
71
3
72
16
73
12
40
0
40
0
40
0
40
0
40
0.267372091523208
40
0.267372091523208
40
0.600855844067834
40
0.600855844067834
40
0.76257464371688
40
0.76257464371688
40
0.898037673161697
40
0.898037673161697
40
1
40
1
40
1
40
1
41
1
10
9.33660254037846
20
-6.16973001948571
30
0
41
1
10
9.32665759364994
20
-6.13367828095591
30
0
41
1
10
9.31453185229017
20
-6.09801792960678
30
0
41
1
10
9.2807030305579
20
-6.02025855383854
30
0
41
1
10
9.2571697304102
20
-5.97794802948584
30
0
41
1
10
9.21115368872731
20
-5.92367470492715
30
0
41
1
10
9.19404341926798
20
-5.9070936172736
30
0
41
1
10
9.15864533843367
20
-5.88208699512401
30
0
41
1
10
9.14061920638903
20
-5.87260601127616
30
0
41
1
10
9.10716397282852
20
-5.86230971122515
30
0
41
1
10
9.09190067197864
20
-5.85988980456943
30
0
41
1
10
9.07679491924313
20
-5.85988980456943
30
0
0
SPLINE
5
115
100
AcDbEntity
8
1
62
256
6
ByLayer
370
-1
48
1
60
0
100
AcDbSpline
70
4
71
3
72
10
73
6
40
0
40
0
40
0
40
0
40
0.461745717818328
40
0.461745717818328
40
1
40
1
40
1
40
1
41
1
10
47.264413228109
20
8.0418834990937
30
0
41
1
10
47.313118714607
20
8.06551731094922
30
0
41
1
10
47.3594695805119
20
8.09423187981216
30
0
41
1
10
47.4520972154809
20
8.16529570954523
30
0
41
1
10
47.497626788895
20
8.20962708531474
30
0
41
1
10
47.5371519027545
20
8.25801012929307
30
0
0
SPLINE
5
116
100
AcDbEntity
8
1
62
256
6
ByLayer
370
-1
48
1
60
0
100
AcDbSpline
70
4
71
3
72
44
73
40
40
-0.0350071640796779
40
-0.0350071640796779
40
0
40
0
40
0.053522323856062
40
0.053522323856062
40
0.107033368408265
40
0.107033368408265
40
0.160713765613062
40
0.160713765613062
40
0.214513527639527
40
0.214513527639527
40
0.2681294938144
40
0.2681294938144
40
0.321545140313268
40
0.321545140313268
40
0.375056506460534
40
0.375056506460534
40
0.428809692031831
40
0.428809692031831
40
0.482574671403383
40
0.482574671403383
40
0.536103806235444
40
0.536103806235444
40
0.589517695269125
40
0.589517695269125
40
0.643113583217976
40
0.643113583217976
40
0.696908287865516
40
0.696908287865516
40
0.750607922740992
40
0.750607922740992
40
0.80406473791187
40
0.80406473791187
40
0.857510889653106
40
0.857510889653106
40
0.911193849089854
40
0.911193849089854
40
0.964992835920322
40
0.964992835920322
40
1
40
1
40
1.05352232385606
40
1.05352232385606
41
1
10
14
20
-0.147199785104078
30
0
41
1
10
14
20
0.22322683487829
30
0
41
1
10
13.9615567897578
20
0.449529532429125
30
0
41
1
10
13.8142754223323
20
0.870732224517866
30
0
41
1
10
13.7034438208906
20
1.07143779767665
30
0
41
1
10
13.4252713058038
20
1.42077851278251
30
0
41
1
10
13.2539183506795
20
1.57407609420716
30
0
41
1
10
12.8748254429897
20
1.81243392050902
30
0
41
1
10
12.6617377193724
20
1.90063634220147
30
0
41
1
10
12.2250010494472
20
1.99983733849021
30
0
41
1
10
11.9953546930757
20
2.01245382666389
30
0
41
1
10
11.5518592617003
20
1.96183673169747
30
0
41
1
10
11.3318676482926
20
1.89819981179045
30
0
41
1
10
10.93043518355
20
1.70463361723074
30
0
41
1
10
10.7435390018255
20
1.57194221293705
30
0
41
1
10
10.427556037316
20
1.25600716441761
30
0
41
1
10
10.294360006347
20
1.068164577327
30
0
41
1
10
10.100293235061
20
0.664311901912754
30
0
41
1
10
10.0367643012054
20
0.442687622178113
30
0
41
1
10
9.98758075185745
20
-0.0020418775925748
30
0
41
1
10
10.0009166114507
20
-0.231264184406342
30
0
41
1
10
10.1009802251916
20
-0.665837778537508
30
0
41
1
10
10.1889081070628
20
-0.877202914830633
30
0
41
1
10
10.4264731816938
20
-1.25454677626891
30
0
41
1
10
10.5795791544139
20
-1.42557407494539
30
0
41
1
10
10.929567780172
20
-1.70422650029138
30
0
41
1
10
11.1314685181367
20
-1.81547165333123
30
0
41
1
10
11.5547019685918
20
-1.96260354095819
30
0
41
1
10
11.7818656194361
20
-2.00064215052706
30
0
41
1
10
12.2287710880047
20
-1.99934382798901
30
0
41
1
10
12.4546841777037
20
-1.96033798121783
30
0
41
1
10
12.8750159584165
20
-1.8121807461817
30
0
41
1
10
13.0752148821921
20
-1.70102777680717
30
0
41
1
10
13.4237732882888
20
-1.42228121516908
30
0
41
1
10
13.576718313574
20
-1.25059659761274
30
0
41
1
10
13.8142799982876
20
-0.870990227207585
30
0
41
1
10
13.9020315045067
20
-0.657716388224003
30
0
41
1
10
13.9835469904496
20
-0.295295076122073
30
0
41
1
10
14
20
-0.147199785104078
30
0
41
1
10
14
20
0.22322683487829
30
0
0
SPLINE
5
117
100
AcDbEntity
8
1
62
256
6
ByLayer
370
-1
48
1
60
0
100
AcDbSpline
70
4
71
3
72
16
73
12
40
0
40
0
40
0
40
0
40
0.234352937534441
40
0.234352937534441
40
0.471903677176506
40
0.471903677176506
40
0.673594166655174
40
0.673594166655174
40
0.861032842954259
40
0.861032842954259
40
1
40
1
40
1
40
1
41
1
10
46.2777439820574
20
7.7234079305415
30
0
41
1
10
46.2411731237737
20
7.75473999873242
30
0
41
1
10
46.2200645724834
20
7.78507909680835
30
0
41
1
10
46.2224950186882
20
7.83942497797276
30
0
41
1
10
46.2473567376479
20
7.86409663726579
30
0
41
1
10
46.3397492902541
20
7.90071501402838
30
0
41
1
10
46.4015916097585
20
7.91456816409595
30
0
41
1
10
46.5461187733731
20
7.9351231866516
30
0
41
1
10
46.6285922331522
20
7.94258661599861
30
0
41
1
10
46.782747100636
20
7.95222919271504
30
0
41
1
10
46.8526731188632
20
7.95534463406213
30
0
41
1
10
46.9243163482518
20
7.95767991689453
30
0
0
SPLINE
5
118
100
AcDbEntity
8
1
62
256
6
ByLayer
370
-1
48
1
60
0
100
AcDbSpline
70
4
71
3
72
8
73
4
40
0
40
0
40
0
40
0
40
1
40
1
40
1
40
1
41
1
10
48.7443431880252
20
9.72084272507971
30
0
41
1
10
48.7225681483606
20
9.69727698056039
30
0
41
1
10
48.7018941979482
20
9.67366258237024
30
0
41
1
10
48.6823196249254
20
9.65000415788919
30
0
0
SPLINE
5
119
100
AcDbEntity
8
1
62
256
6
ByLayer
370
-1
48
1
60
0
100
AcDbSpline
70
4
71
3
72
10
73
6
40
0
40
0
40
0
40
0
40
0.752875539547934
40
0.752875539547934
40
1
40
1
40
1
40
1
41
1
10
46.9243163482518
20
7.95767991689453
30
0
41
1
10
47.010649927851
20
7.96049404640848
30
0
41
1
10
47.0990568590749
20
7.97717527767159
30
0
41
1
10
47.2104602331042
20
8.01744587442138
30
0
41
1
10
47.2377539364506
20
8.0289473654351
30
0
41
1
10
47.2644132281089
20
8.04188349909387
30
0
0
SPLINE
5
11A
100
AcDbEntity
8
1
62
256
6
ByLayer
370
-1
48
1
60
0
100
AcDbSpline
70
4
71
3
72
18
73
14
40
0
40
0
40
0
40
0
40
0.0074698584964994
40
0.0074698584964994
40
0.116973966194807
40
0.116973966194807
40
0.258725811908723
40
0.258725811908723
40
0.483357667469369
40
0.483357667469369
40
0.914372095275296
40
0.914372095275296
40
1
40
1
40
1
40
1
41
1
10
6.9232050807569
20
19.1222825906925
30
0
41
1
10
6.92208468721896
20
19.1222825906925
30
0
41
1
10
6.92096421381788
20
19.122278667842
30
0
41
1
10
6.90362587375569
20
19.1221572838471
30
0
41
1
10
6.88729582850945
20
19.1211855627664
30
0
41
1
10
6.85241494776133
20
19.1174067506415
30
0
41
1
10
6.83403826981095
20
19.1141200721533
30
0
41
1
10
6.7918964493229
20
19.1041233146922
30
0
41
1
10
6.77017927255531
20
19.0964050302576
30
0
41
1
10
6.71671845086618
20
19.072454346092
30
0
41
1
10
6.69216738458636
20
19.054370658815
30
0
41
1
10
6.67004133265903
20
19.0320887998676
30
0
41
1
10
6.66660535986759
20
19.0283457512526
30
0
41
1
10
6.66339745962159
20
19.0245744101322
30
0
0
SPLINE
5
11B
100
AcDbEntity
8
SK1
62
256
6
ByLayer
370
-1
48
1
60
0
100
AcDbSpline
70
4
71
3
72
24
73
20
40
0
40
0
40
0
40
0
40
0.416623320783934
40
0.416623320783934
40
0.634643763466185
40
0.634643763466185
40
0.785340372726785
40
0.785340372726785
40
0.861106647985493
40
0.861106647985493
40
0.887069380785658
40
0.887069380785658
40
0.913463798905328
40
0.913463798905328
40
0.937659383863788
40
0.937659383863788
40
0.962903985882179
40
0.962903985882179
40
1
40
1
40
1
40
1
41
1
10
-0.20050549849546
20
13.9765351294332
30
0
41
1
10
-0.201954254088946
20
13.9626818920912
30
0
41
1
10
-0.206780576711083
20
13.9461323576492
30
0
41
1
10
-0.224346935588187
20
13.9153098301286
30
0
41
1
10
-0.232233669438102
20
13.9036655551733
30
0
41
1
10
-0.252765410814618
20
13.8814084969653
30
0
41
1
10
-0.262983257543368
20
13.8715421084066
30
0
41
1
10
-0.286616108803798
20
13.8549361512882
30
0
41
1
10
-0.296048597512964
20
13.8489546731
30
0
41
1
10
-0.313313649213939
20
13.8405611977702
30
0
41
1
10
-0.318242626725265
20
13.8383488525843
30
0
41
1
10
-0.329187128776852
20
13.8339930106961
30
0
41
1
10
-0.335388564995384
20
13.83179581462
30
0
41
1
10
-0.347755359286083
20
13.8280854434499
30
0
41
1
10
-0.354048035137083
20
13.8264890383489
30
0
41
1
10
-0.366250197629455
20
13.8239295609977
30
0
41
1
10
-0.372316125402563
20
13.8229457626001
30
0
41
1
10
-0.38603706697225
20
13.821215643274
30
0
41
1
10
-0.393386043187917
20
13.8207370125792
30
0
41
1
10
-0.399999999999977
20
13.8205593061294
30
0
0
SPLINE
5
11C
100
AcDbEntity
8
SK1
62
256
6
ByLayer
370
-1
48
1
60
0
100
AcDbSpline
70
4
71
3
72
12
73
8
40
0
40
0
40
0
40
0
40
0.454157713120126
40
0.454157713120126
40
0.963320428648706
40
0.963320428648706
40
1
40
1
40
1
40
1
41
1
10
-1.69993675628516
20
-14.0201000901576
30
0
41
1
10
-1.69992994244677
20
-14.019947507599
30
0
41
1
10
-1.69992217967916
20
-14.0069976003317
30
0
41
1
10
-1.6999033584496
20
-13.9488693938811
30
0
41
1
10
-1.69989196081232
20
-13.8999352043427
30
0
41
1
10
-1.69987826187631
20
-13.8244796398649
30
0
41
1
10
-1.69987733377806
20
-13.8192912163694
30
0
41
1
10
-1.69987639962216
20
-13.8139891097792
30
0
0
SPLINE
5
11D
100
AcDbEntity
8
SK1
62
256
6
ByLayer
370
-1
48
1
60
0
100
AcDbSpline
70
4
71
3
72
12
73
8
40
0
40
0
40
0
40
0
40
0.225083373316724
40
0.225083373316724
40
0.901221024681366
40
0.901221024681366
40
1
40
1
40
1
40
1
41
1
10
-1.69987639956196
20
13.8139891228069
30
0
41
1
10
-1.6998821721447
20
13.8467538802839
30
0
41
1
10
-1.69988770053215
20
13.8751817758087
30
0
41
1
10
-1.69990862108713
20
13.9728837802977
30
0
41
1
10
-1.69992170837494
20
14.0103233015038
30
0
41
1
10
-1.69993408583238
20
14.0196033612819
30
0
41
1
10
-1.69993561737394
20
14.0201591252266
30
0
41
1
10
-1.69993710406919
20
14.0201007612183
30
0
0
SPLINE
5
11E
100
AcDbEntity
8
SK1
62
256
6
ByLayer
370
-1
48
1
60
0
100
AcDbSpline
70
4
71
3
72
36
73
32
40
0
40
0
40
0
40
0
40
0.0350778700622892
40
0.0701557401245785
40
0.105233610186868
40
0.140311480249157
40
0.175389350311446
40
0.210467220373735
40
0.245545090436025
40
0.280622960498314
40
0.315700830560603
40
0.350778700622893
40
0.385856570685182
40
0.420934440747471
40
0.45601231080976
40
0.491090180872049
40
0.526168050934339
40
0.561245920996628
40
0.596323791058917
40
0.631401661121206
40
0.666479531183496
40
0.701557401245785
40
0.736635271308074
40
0.771713141370363
40
0.806791011432653
40
0.841868881494942
40
0.876946751557231
40
0.91202462161952
40
0.94710249168181
40
0.982180361744099
40
1
40
1
40
1
40
1
41
1
10
-2.50000000000003
20
-7.105E-13
30
0
41
1
10
-2.50000000000003
20
0.346883656061664
30
0
41
1
10
-2.50000000000003
20
1.04065118119354
30
0
41
1
10
-2.50000000000003
20
2.07115346708628
30
0
41
1
10
-2.50000000000003
20
3.08164075068999
30
0
41
1
10
-2.50000000000003
20
4.06279756753617
30
0
41
1
10
-2.50000000000003
20
5.00611371647045
30
0
41
1
10
-2.50000000000003
20
5.90410354017845
30
0
41
1
10
-2.50000000000003
20
6.75049300436314
30
0
41
1
10
-2.50000000000003
20
7.5403600901673
30
0
41
1
10
-2.50000000000003
20
8.2702281904499
30
0
41
1
10
-2.50000000000003
20
8.93810819472964
30
0
41
1
10
-2.50000000000003
20
9.54348621244372
30
0
41
1
10
-2.50000000000003
20
10.0872626785011
30
0
41
1
10
-2.50000000000003
20
10.5716382167279
30
0
41
1
10
-2.50000000000003
20
10.9999604980928
30
0
41
1
10
-2.50000000000003
20
11.3765272237737
30
0
41
1
10
-2.50000000000003
20
11.7063640299199
30
0
41
1
10
-2.50000000000003
20
11.9949858913349
30
0
41
1
10
-2.50000000000003
20
12.2481085138171
30
0
41
1
10
-2.50000000000003
20
12.4714476031645
30
0
41
1
10
-2.50000000000003
20
12.6704085794698
30
0
41
1
10
-2.50000000000003
20
12.8498878450847
30
0
41
1
10
-2.5
20
13.0140570199816
30
0
41
1
10
-2.5
20
13.1661926175571
30
0
41
1
10
-2.5
20
13.3085456809
30
0
41
1
10
-2.5
20
13.4422586266056
30
0
41
1
10
-2.5
20
13.5673285570816
30
0
41
1
10
-2.5
20
13.6826243876244
30
0
41
1
10
-2.5
20
13.7690033581588
30
0
41
1
10
-2.5
20
13.8152093706248
30
0
41
1
10
-2.5
20
13.8300379997865
30
0
0
SPLINE
5
11F
100
AcDbEntity
8
SK1
62
256
6
ByLayer
370
-1
48
1
60
0
100
AcDbSpline
70
4
71
3
72
36
73
32
40
0
40
0
40
0
40
0
40
0.0178196609846188
40
0.0528975302351682
40
0.0879753994857175
40
0.123053268736267
40
0.158131137986816
40
0.193209007237366
40
0.228286876487915
40
0.263364745738464
40
0.298442614989013
40
0.333520484239563
40
0.368598353490112
40
0.403676222740662
40
0.438754091991211
40
0.47383196124176
40
0.508909830492309
40
0.543987699742859
40
0.579065568993408
40
0.614143438243957
40
0.649221307494507
40
0.684299176745056
40
0.719377045995605
40
0.754454915246155
40
0.789532784496704
40
0.824610653747253
40
0.859688522997803
40
0.894766392248352
40
0.929844261498901
40
0.964922130749451
40
1
40
1
40
1
40
1
41
1
10
-2.5
20
-13.8300379990246
30
0
41
1
10
-2.5
20
-13.8152093806163
30
0
41
1
10
-2.5
20
-13.7690034238402
30
0
41
1
10
-2.5
20
-13.6826242739908
30
0
41
1
10
-2.5
20
-13.5673285915049
30
0
41
1
10
-2.5
20
-13.4422586025461
30
0
41
1
10
-2.5
20
-13.3085456688692
30
0
41
1
10
-2.5
20
-13.1661926897401
30
0
41
1
10
-2.5
20
-13.0140569623472
30
0
41
1
10
-2.50000000000003
20
-12.8498880034396
30
0
41
1
10
-2.50000000000003
20
-12.6704084850956
30
0
41
1
10
-2.50000000000003
20
-12.4714478223064
30
0
41
1
10
-2.50000000000003
20
-12.2481096226925
30
0
41
1
10
-2.50000000000003
20
-11.9949861279873
30
0
41
1
10
-2.50000000000003
20
-11.7063633867661
30
0
41
1
10
-2.50000000000003
20
-11.3765274476039
30
0
41
1
10
-2.50000000000003
20
-10.9999604015462
30
0
41
1
10
-2.50000000000003
20
-10.5716383790841
30
0
41
1
10
-2.50000000000003
20
-10.0872626214917
30
0
41
1
10
-2.50000000000003
20
-9.54348627812499
30
0
41
1
10
-2.50000000000003
20
-8.93810819169016
30
0
41
1
10
-2.50000000000003
20
-8.27022813692673
30
0
41
1
10
-2.50000000000003
20
-7.54036014828114
30
0
41
1
10
-2.50000000000003
20
-6.75049282543105
30
0
41
1
10
-2.50000000000003
20
-5.90410365814924
30
0
41
1
10
-2.50000000000003
20
-5.00611342351962
30
0
41
1
10
-2.50000000000003
20
-4.0627977356329
30
0
41
1
10
-2.50000000000003
20
-3.08164037125397
30
0
41
1
10
-2.50000000000003
20
-2.07115366844857
30
0
41
1
10
-2.50000000000003
20
-1.04065075518065
30
0
41
1
10
-2.50000000000003
20
-0.346883656063085
30
0
41
1
10
-2.50000000000003
20
-7.105E-13
30
0
0
SPLINE
5
120
100
AcDbEntity
8
SK1
62
256
6
ByLayer
370
-1
48
1
60
0
100
AcDbSpline
70
4
71
3
72
41
73
37
40
0
40
0
40
0
40
0
40
0.005173393274552
40
0.0357360888486952
40
0.0662987844228384
40
0.0968614799969816
40
0.127424175571125
40
0.157986871145268
40
0.188549566719411
40
0.219112262293554
40
0.249674957867698
40
0.280237653441841
40
0.310800349015984
40
0.341363044590127
40
0.37192574016427
40
0.402488435738414
40
0.433051131312557
40
0.4636138268867
40
0.494176522460843
40
0.524739218034986
40
0.55530191360913
40
0.585864609183273
40
0.616427304757416
40
0.646990000331559
40
0.677552695905702
40
0.708115391479846
40
0.738678087053989
40
0.769240782628132
40
0.799803478202275
40
0.830366173776418
40
0.860928869350562
40
0.891491564924705
40
0.922054260498848
40
0.952616956072991
40
0.983179651647135
40
1
40
1
40
1
40
1
41
1
10
-22.5004731679057
20
-2.80341068632481
30
0
41
1
10
-22.5004731679057
20
-2.85784491600981
30
0
41
1
10
-22.5004731679057
20
-3.2329759253133
30
0
41
1
10
-22.5004731679057
20
-3.91697768508692
30
0
41
1
10
-22.5004731679057
20
-4.82643632415184
30
0
41
1
10
-22.5004731679057
20
-5.69219631008977
30
0
41
1
10
-22.5004731679057
20
-6.50820727023807
30
0
41
1
10
-22.5004731679057
20
-7.26972504175993
30
0
41
1
10
-22.5004731679057
20
-7.97339694733137
30
0
41
1
10
-22.5004731679057
20
-8.61730576117128
30
0
41
1
10
-22.5004731679057
20
-9.20095589831908
30
0
41
1
10
-22.5004731679057
20
-9.72521527356798
30
0
41
1
10
-22.5004731679057
20
-10.1922060412959
30
0
41
1
10
-22.5004731679057
20
-10.605154928537
30
0
41
1
10
-22.5004731679057
20
-10.9682064049644
30
0
41
1
10
-22.5004731679057
20
-11.2862040256942
30
0
41
1
10
-22.5004731679057
20
-11.5644676534542
30
0
41
1
10
-22.5004731679057
20
-11.8085061571768
30
0
41
1
10
-22.5004731679057
20
-12.0238284057944
30
0
41
1
10
-22.5004731679057
20
-12.2156480648241
30
0
41
1
10
-22.5004731679057
20
-12.3886857876025
30
0
41
1
10
-22.5004731679057
20
-12.5469624704374
30
0
41
1
10
-22.5004731679057
20
-12.6936378129178
30
0
41
1
10
-22.5004731679057
20
-12.8308815249943
30
0
41
1
10
-22.5004731679057
20
-12.9597952961197
30
0
41
1
10
-22.5004731679057
20
-13.080376331087
30
0
41
1
10
-22.5004731679057
20
-13.1915338744526
30
0
41
1
10
-22.5004731679057
20
-13.2911496299688
30
0
41
1
10
-22.5004731679057
20
-13.3761852100001
30
0
41
1
10
-22.5004731679057
20
-13.4428288363681
30
0
41
1
10
-22.5004731679057
20
-13.4866768366259
30
0
41
1
10
-22.5004731679057
20
-13.5029401449552
30
0
41
1
10
-22.5004731679057
20
-13.4866735728523
30
0
41
1
10
-22.5004731679057
20
-13.4330108195395
30
0
41
1
10
-22.5004731679057
20
-13.3517277423477
30
0
41
1
10
-22.5004731679057
20
-13.2839031785176
30
0
41
1
10
-22.5004731679057
20
-13.2574153102302
30
0
0
SPLINE
5
121
100
AcDbEntity
8
SK1
62
256
6
ByLayer
370
-1
48
1
60
0
100
AcDbSpline
70
4
71
3
72
41
73
37
40
0
40
0
40
0
40
0
40
0.0168291574231847
40
0.0473911588881867
40
0.0779531603531886
40
0.108515161818191
40
0.139077163283193
40
0.169639164748194
40
0.200201166213196
40
0.230763167678198
40
0.2613251691432
40
0.291887170608202
40
0.322449172073204
40
0.353011173538206
40
0.383573175003208
40
0.414135176468209
40
0.444697177933211
40
0.475259179398213
40
0.505821180863215
40
0.536383182328217
40
0.566945183793219
40
0.597507185258221
40
0.628069186723222
40
0.658631188188224
40
0.689193189653226
40
0.719755191118228
40
0.75031719258323
40
0.780879194048232
40
0.811441195513234
40
0.842003196978236
40
0.872565198443238
40
0.90312719990824
40
0.933689201373241
40
0.964251202838243
40
0.994813204303245
40
1
40
1
40
1
40
1
41
1
10
-22.5004731679057
20
13.2573719221612
30
0
41
1
10
-22.5004731679057
20
13.2838769164506
30
0
41
1
10
-22.5004731679057
20
13.3517182325894
30
0
41
1
10
-22.5004731679057
20
13.4330104431312
30
0
41
1
10
-22.5004731679057
20
13.4866743347735
30
0
41
1
10
-22.5004731679057
20
13.5029400711765
30
0
41
1
10
-22.5004731679057
20
13.4866763698191
30
0
41
1
10
-22.5004731679057
20
13.4428289925546
30
0
41
1
10
-22.5004731679057
20
13.376185384585
30
0
41
1
10
-22.5004731679057
20
13.2911495589338
30
0
41
1
10
-22.5004731679057
20
13.1915339840077
30
0
41
1
10
-22.5004731679057
20
13.0803762978992
30
0
41
1
10
-22.5004731679057
20
12.9597953193156
30
0
41
1
10
-22.5004731679057
20
12.8308815365934
30
0
41
1
10
-22.5004731679057
20
12.6936377433256
30
0
41
1
10
-22.5004731679057
20
12.5469625260033
30
0
41
1
10
-22.5004731679057
20
12.3886856349313
30
0
41
1
10
-22.5004731679057
20
12.215648155811
30
0
41
1
10
-22.5004731679057
20
12.0238281945179
30
0
41
1
10
-22.5004731679057
20
11.8085050881006
30
0
41
1
10
-22.5004731679057
20
11.5644674252956
30
0
41
1
10
-22.5004731679057
20
11.2862046457642
30
0
41
1
10
-22.5004731679057
20
10.9682061891677
30
0
41
1
10
-22.5004731679057
20
10.6051550216184
30
0
41
1
10
-22.5004731679057
20
10.1922058847668
30
0
41
1
10
-22.5004731679057
20
9.72521532853119
30
0
41
1
10
-22.5004731679057
20
9.2009558349952
30
0
41
1
10
-22.5004731679057
20
8.6173057641017
30
0
41
1
10
-22.5004731679057
20
7.97339699893348
30
0
41
1
10
-22.5004731679057
20
7.26972498573187
30
0
41
1
10
-22.5004731679057
20
6.50820744274802
30
0
41
1
10
-22.5004731679057
20
5.69219619635314
30
0
41
1
10
-22.5004731679057
20
4.8264366065882
30
0
41
1
10
-22.5004731679057
20
3.91697752302343
30
0
41
1
10
-22.5004731679057
20
3.23283665747223
30
0
41
1
10
-22.5004731679057
20
2.85756124199364
30
0
41
1
10
-22.5004731679057
20
2.80298407401412
30
0
0
SPLINE
5
122
100
AcDbEntity
8
SK1
62
256
6
ByLayer
370
-1
48
1
60
0
100
AcDbSpline
70
4
71
3
72
16
73
12
40
0
40
0
40
0
40
0
40
0.191989911189605
40
0.191989911189605
40
0.508396714589958
40
0.508396714589958
40
0.666600116290134
40
0.666600116290134
40
0.82480351799031
40
0.82480351799031
40
1
40
1
40
1
40
1
41
1
10
-24
20
-1.93860443082849
30
0
41
1
10
-24
20
-2.92777901302665
30
0
41
1
10
-24
20
-3.90570156553278
30
0
41
1
10
-24
20
-6.47870196847751
30
0
41
1
10
-24.0000000000001
20
-7.9941309990835
30
0
41
1
10
-24
20
-10.038323491446
30
0
41
1
10
-24
20
-10.6565531338096
30
0
41
1
10
-24
20
-11.6917416693997
30
0
41
1
10
-24
20
-12.0543163894305
30
0
41
1
10
-24
20
-12.4930843719074
30
0
41
1
10
-24
20
-12.5869873349459
30
0
41
1
10
-24
20
-12.5805086396884
30
0
0
SPLINE
5
123
100
AcDbEntity
8
SK1
62
256
6
ByLayer
370
-1
48
1
60
0
100
AcDbSpline
70
4
71
3
72
16
73
12
40
0
40
0
40
0
40
0
40
0.173115687724301
40
0.173115687724301
40
0.331616789650572
40
0.331616789650572
40
0.490117891576842
40
0.490117891576842
40
0.807120095429383
40
0.807120095429383
40
1
40
1
40
1
40
1
41
1
10
-24
20
12.5789058148487
30
0
41
1
10
-24
20
12.5868648020496
30
0
41
1
10
-24
20
12.4973714113505
30
0
41
1
10
-24
20
12.0757278199446
30
0
41
1
10
-24
20
11.7229190952328
30
0
41
1
10
-24
20
10.693552350922
30
0
41
1
10
-24
20
10.0714994172455
30
0
41
1
10
-24
20
8.02191588662336
30
0
41
1
10
-24
20
6.46297144200639
30
0
41
1
10
-24
20
3.91976884342637
30
0
41
1
10
-24
20
2.93482772582803
30
0
41
1
10
-24
20
1.93761136670253
30
0
0
SPLINE
5
124
100
AcDbEntity
8
SK1
62
256
6
ByLayer
370
-1
48
1
60
0
100
AcDbSpline
70
4
71
3
72
32
73
28
40
0
40
0
40
0
40
0
40
0.385020424940715
40
0.385020424940715
40
0.472740972374772
40
0.472740972374772
40
0.502592885641504
40
0.502592885641504
40
0.52772371954664
40
0.52772371954664
40
0.553352282136792
40
0.553352282136792
40
0.560937104166052
40
0.560937104166052
40
0.56865088436072
40
0.56865088436072
40
0.575222032418769
40
0.575222032418769
40
0.584752366245011
40
0.584752366245011
40
0.603127850101626
40
0.603127850101626
40
0.669911124086594
40
0.669911124086594
40
0.935702887974081
40
0.935702887974081
40
1
40
1
40
1
40
1
41
1
10
-1.49999999999997
20
-13.6354046322643
30
0
41
1
10
-1.52103408040219
20
-13.6113106077528
30
0
41
1
10
-1.5431136748729
20
-13.5864010885067
30
0
41
1
10
-1.58136675286579
20
-13.5660073910366
30
0
41
1
10
-1.58900202914975
20
-13.5626923002263
30
0
41
1
10
-1.60130723593383
20
-13.5605634744677
30
0
41
1
10
-1.60462784617891
20
-13.5602351852046
30
0
41
1
10
-1.61136477270867
20
-13.5603829527657
30
0
41
1
10
-1.6146830542956
20
-13.5607248602462
30
0
41
1
10
-1.62228239094077
20
-13.5626439304685
30
0
41
1
10
-1.62665165692866
20
-13.5641658144187
30
0
41
1
10
-1.633716248285
20
-13.5686250506848
30
0
41
1
10
-1.63548301786963
20
-13.5698688039791
30
0
41
1
10
-1.639165556969
20
-13.5728313577292
30
0
41
1
10
-1.64113772385812
20
-13.5746110950765
30
0
41
1
10
-1.64462082807191
20
-13.5781471549731
30
0
41
1
10
-1.64619573481406
20
-13.5799049614575
30
0
41
1
10
-1.64972043997636
20
-13.584157849073
30
0
41
1
10
-1.65159006135414
20
-13.5866989919877
30
0
41
1
10
-1.65639599432834
20
-13.5937562155754
30
0
41
1
10
-1.65888709683196
20
-13.598117184021
30
0
41
1
10
-1.66876077054772
20
-13.6169304791085
30
0
41
1
10
-1.67291602816357
20
-13.6292362105215
30
0
41
1
10
-1.69081671913955
20
-13.6869666460463
30
0
41
1
10
-1.69435307535019
20
-13.7234530454499
30
0
41
1
10
-1.69786340229237
20
-13.7665137722788
30
0
41
1
10
-1.69840424771837
20
-13.7747371350447
30
0
41
1
10
-1.69882153886863
20
-13.7827993255853
30
0
0
SPLINE
5
125
100
AcDbEntity
8
SK1
62
256
6
ByLayer
370
-1
48
1
60
0
100
AcDbSpline
70
4
71
3
72
30
73
26
40
0
40
0
40
0
40
0
40
0.235990784790533
40
0.235990784790533
40
0.335016750124182
40
0.335016750124182
40
0.384853702309047
40
0.384853702309047
40
0.39709106581693
40
0.39709106581693
40
0.40647948804442
40
0.40647948804442
40
0.413323475829402
40
0.413323475829402
40
0.420193657994976
40
0.420193657994976
40
0.428935165647374
40
0.428935165647374
40
0.444453479836835
40
0.444453479836835
40
0.496060008251095
40
0.496060008251095
40
0.739922792406486
40
0.739922792406486
40
1
40
1
40
1
40
1
41
1
10
-1.69838954725694
20
13.7718654457946
30
0
41
1
10
-1.69666591265505
20
13.7426794942399
30
0
41
1
10
-1.6931107500389
20
13.7112061081291
30
0
41
1
10
-1.68230072580121
20
13.660683839389
30
0
41
1
10
-1.67842044770694
20
13.6449634423473
30
0
41
1
10
-1.66859001317826
20
13.6180744027555
30
0
41
1
10
-1.66475505883102
20
13.6084753381917
30
0
41
1
10
-1.6567320520555
20
13.5944939492952
30
0
41
1
10
-1.65493545898607
20
13.5915744315689
30
0
41
1
10
-1.65123820111944
20
13.5862178900123
30
0
41
1
10
-1.64942346643747
20
13.5837814588173
30
0
41
1
10
-1.64594895810478
20
13.5796226008379
30
0
41
1
10
-1.64434597983555
20
13.577851143578
30
0
41
1
10
-1.64108204049393
20
13.5745754745144
30
0
41
1
10
-1.63938355065434
20
13.5730360144529
30
0
41
1
10
-1.63570949532826
20
13.5700223170069
30
0
41
1
10
-1.63372521915028
20
13.5686215557205
30
0
41
1
10
-1.62868242693074
20
13.5654657380712
30
0
41
1
10
-1.62584021274373
20
13.5641526690565
30
0
41
1
10
-1.61482820841928
20
13.5600107847138
30
0
41
1
10
-1.6086656293586
20
13.5600136874792
30
0
41
1
10
-1.57659539127451
20
13.5626705036974
30
0
41
1
10
-1.5608760418886
20
13.5768587352047
30
0
41
1
10
-1.52842549386321
20
13.6040696267205
30
0
41
1
10
-1.51376047951371
20
13.619642338392
30
0
41
1
10
-1.49999999999994
20
13.6354046768691
30
0
0
SPLINE
5
126
100
AcDbEntity
8
SK1
62
256
6
ByLayer
370
-1
48
1
60
0
100
AcDbSpline
70
4
71
3
72
11
73
7
40
0
40
0
40
0
40
0
40
0.259718456679959
40
0.606906692129272
40
0.954094927578585
40
1
40
1
40
1
40
1
41
1
10
-1.49999999999997
20
-13.6354046322643
30
0
41
1
10
-1.49999999999994
20
-13.6578696444418
30
0
41
1
10
-1.49999999999994
20
-13.7069591275838
30
0
41
1
10
-1.49999999999994
20
-13.7692421105741
30
0
41
1
10
-1.49999999999994
20
-13.8010925595763
30
0
41
1
10
-1.49999999999994
20
-13.8119873962151
30
0
41
1
10
-1.49999999999994
20
-13.8131756322642
30
0
0
SPLINE
5
127
100
AcDbEntity
8
SK1
62
256
6
ByLayer
370
-1
48
1
60
0
100
AcDbSpline
70
4
71
3
72
10
73
6
40
0
40
0
40
0
40
0
40
0.361253388146462
40
0.726656076269041
40
1
40
1
40
1
40
1
41
1
10
-1.49999999999994
20
13.8090096767258
30
0
41
1
10
-1.49999999999994
20
13.7987774892529
30
0
41
1
10
-1.49999999999994
20
13.7689848945262
30
0
41
1
10
-1.49999999999994
20
13.706959317709
30
0
41
1
10
-1.49999999999997
20
13.6578697130908
30
0
41
1
10
-1.49999999999997
20
13.6354046768691
30
0
0
SPLINE
5
128
100
AcDbEntity
8
SK1
62
256
6
ByLayer
370
-1
48
1
60
0
100
AcDbSpline
70
4
71
3
72
8
73
4
40
0
40
0
40
0
40
0
40
1
40
1
40
1
40
1
41
1
10
-1.30710678118652
20
10.1604678274959
30
0
41
1
10
-1.37518745626232
20
10.464873312677
30
0
41
1
10
-1.44070099149928
20
10.7605012718268
30
0
41
1
10
-1.49999999999986
20
11.0432567601308
30
0
0
SPLINE
5
129
100
AcDbEntity
8
1
62
256
6
ByLayer
370
-1
48
1
60
0
100
AcDbSpline
70
4
71
3
72
16
73
12
40
0
40
0
40
0
40
0
40
0.0521257352456945
40
0.0521257352456945
40
0.276951235277296
40
0.276951235277296
40
0.50392354879502
40
0.50392354879502
40
0.74478235965801
40
0.74478235965801
40
1
40
1
40
1
40
1
41
1
10
56.8374672861742
20
7.76116449167321
30
0
41
1
10
56.8330749107139
20
7.76118365897293
30
0
41
1
10
56.8286778822459
20
7.76103218999202
30
0
41
1
10
56.8055475167437
20
7.75933680281949
30
0
41
1
10
56.7867895035552
20
7.75474100165735
30
0
41
1
10
56.752055193485
20
7.74001020929356
30
0
41
1
10
56.7356589082594
20
7.72964888976279
30
0
41
1
10
56.7062702929214
20
7.70418285121582
30
0
41
1
10
56.6931668437603
20
7.68852367853316
30
0
41
1
10
56.6717334340751
20
7.65368591597877
30
0
41
1
10
56.6634605891191
20
7.63395519367131
30
0
41
1
10
56.6581846365875
20
7.61379350887853
30
0
0
SPLINE
5
12A
100
AcDbEntity
8
1
62
256
6
ByLayer
370
-1
48
1
60
0
100
AcDbSpline
70
4
71
3
72
16
73
12
40
0
40
0
40
0
40
0
40
0.0966084595565055
40
0.0966084595565055
40
0.320715851551956
40
0.320715851551956
40
0.549451844708971
40
0.549451844708971
40
0.794081163235538
40
0.794081163235538
40
1
40
1
40
1
40
1
41
1
10
57.7332319344578
20
7.25813161893313
30
0
41
1
10
57.7291697106588
20
7.26493309619718
30
0
41
1
10
57.7246277316271
20
7.2714287650526
30
0
41
1
10
57.7082456455001
20
7.29159102303137
30
0
41
1
10
57.6943775878477
20
7.30370515402504
30
0
41
1
10
57.6638499709271
20
7.32251507022818
30
0
41
1
10
57.6467604201279
20
7.3293460152635
30
0
41
1
10
57.6107344347438
20
7.33740639172231
30
0
41
1
10
57.5913074864252
20
7.33833457478636
30
0
41
1
10
57.5565903954141
20
7.33454196559694
30
0
41
1
10
57.5408640921732
20
7.33069136244688
30
0
41
1
10
57.5259006374655
20
7.32502937679305
30
0
0
SPLINE
5
12B
100
AcDbEntity
8
1
62
256
6
ByLayer
370
-1
48
1
60
0
100
AcDbSpline
70
4
71
3
72
18
73
14
40
0
40
0
40
0
40
0
40
0.19320594587953
40
0.19320594587953
40
0.372396640025458
40
0.372396640025458
40
0.553460003940655
40
0.553460003940655
40
0.709164493568119
40
0.709164493568119
40
0.911896175490161
40
0.911896175490161
40
1
40
1
40
1
40
1
41
1
10
56.1467427956825
20
7.33104769921135
30
0
41
1
10
56.1844165632883
20
7.31620260001213
30
0
41
1
10
56.2245990322314
20
7.30654282307881
30
0
41
1
10
56.3034715509644
20
7.30091636281523
30
0
41
1
10
56.342982412273
20
7.30407347653752
30
0
41
1
10
56.4196420314613
20
7.32414739285156
30
0
41
1
10
56.4578925493286
20
7.34168666603671
30
0
41
1
10
56.520904143268
20
7.38535894611289
30
0
41
1
10
56.5475851243221
20
7.41040630136757
30
0
41
1
10
56.5994765967959
20
7.47373178456283
30
0
41
1
10
56.6228064750005
20
7.5146570756431
30
0
41
1
10
56.6469595737805
20
7.57556473449941
30
0
41
1
10
56.6531557988253
20
7.59457615594948
30
0
41
1
10
56.6581846365875
20
7.61379350887853
30
0
0
SPLINE
5
12C
100
AcDbEntity
8
1
62
256
6
ByLayer
370
-1
48
1
60
0
100
AcDbSpline
70
4
71
3
72
18
73
14
40
0
40
0
40
0
40
0
40
0.193293611183359
40
0.193293611183359
40
0.372472976029554
40
0.372472976029554
40
0.553524092713949
40
0.553524092713949
40
0.709228117232064
40
0.709228117232064
40
0.911978194012447
40
0.911978194012447
40
1
40
1
40
1
40
1
41
1
10
57.0144587965618
20
7.61223881172978
30
0
41
1
10
57.0246950558521
20
7.57042223201
30
0
41
1
10
57.040601771547
20
7.52924355095448
30
0
41
1
10
57.0822339831719
20
7.45605909403562
30
0
41
1
10
57.1077396579908
20
7.42282709456742
30
0
41
1
10
57.1677218800427
20
7.36657166712322
30
0
41
1
10
57.2032932060862
20
7.34294845851591
30
0
41
1
10
57.272893920156
20
7.31281968183052
30
0
41
1
10
57.3072537400357
20
7.30395479369562
30
0
41
1
10
57.3851680166561
20
7.29526789548567
30
0
41
1
10
57.4296661317789
20
7.29864419642857
30
0
41
1
10
57.4901144446525
20
7.31277972946478
30
0
41
1
10
57.5082395826284
20
7.31834665271109
30
0
41
1
10
57.5259006374656
20
7.32502937679251
30
0
0
SPLINE
5
12D
100
AcDbEntity
8
1
62
256
6
ByLayer
370
-1
48
1
60
0
100
AcDbSpline
70
4
71
3
72
14
73
10
40
0
40
0
40
0
40
0
40
0.0142151212874113
40
0.0142151212874113
40
0.353611630535815
40
0.353611630535815
40
0.791542897948606
40
0.791542897948606
40
1
40
1
40
1
40
1
41
1
10
56.0873125420742
20
6.74906737887707
30
0
41
1
10
56.0872128628818
20
6.75055061096751
30
0
41
1
10
56.0871052040575
20
6.75203485080343
30
0
41
1
10
56.084262447005
20
6.78855101926024
30
0
41
1
10
56.0769457021801
20
6.82441597277949
30
0
41
1
10
56.0518729776021
20
6.90226708360058
30
0
41
1
10
56.0314130369461
20
6.94432361162887
30
0
41
1
10
55.9951674824143
20
6.99995088776956
30
0
41
1
10
55.9823862101689
20
7.01716064861023
30
0
41
1
10
55.9687851969904
20
7.03337147359738
30
0
0
SPLINE
5
12E
100
AcDbEntity
8
1
62
256
6
ByLayer
370
-1
48
1
60
0
100
AcDbSpline
70
4
71
3
72
14
73
10
40
0
40
0
40
0
40
0
40
0.219838222796394
40
0.219838222796394
40
0.515128902839758
40
0.515128902839758
40
0.7820789473199
40
0.7820789473199
40
1
40
1
40
1
40
1
41
1
10
57.5259006374668
20
6.15664400650326
30
0
41
1
10
57.5418914699863
20
6.15481929620194
30
0
41
1
10
57.5587648172853
20
6.15487838130667
30
0
41
1
10
57.5984781607845
20
6.15987342508859
30
0
41
1
10
57.622060905264
20
6.1666240006796
30
0
41
1
10
57.6638240731817
20
6.18662473867698
30
0
41
1
10
57.6829273227865
20
6.19952951087561
30
0
41
1
10
57.7124069858645
20
6.22729552559659
30
0
41
1
10
57.7240932048326
20
6.24169165662093
30
0
41
1
10
57.7332319344578
20
6.25691308894685
30
0
0
SPLINE
5
12F
100
AcDbEntity
8
1
62
256
6
ByLayer
370
-1
48
1
60
0
100
AcDbSpline
70
4
71
3
72
14
73
10
40
0
40
0
40
0
40
0
40
0.318084166587883
40
0.318084166587883
40
0.60856216600808
40
0.60856216600808
40
0.864305967318048
40
0.864305967318048
40
1
40
1
40
1
40
1
41
1
10
57.703847064887
20
7.02580006920803
30
0
41
1
10
57.7206301670124
20
7.04516857004595
30
0
41
1
10
57.73469231094
20
7.0681669531304
30
0
41
1
10
57.7526972966491
20
7.11535249886018
30
0
41
1
10
57.7576474149072
20
7.14002974660573
30
0
41
1
10
57.7580939658778
20
7.1857800842993
30
0
41
1
10
57.7546205363886
20
7.20761256479892
30
0
41
1
10
57.743778709547
20
7.23825457879036
30
0
41
1
10
57.7389597802569
20
7.24854135140936
30
0
41
1
10
57.7332319344578
20
7.25813161893313
30
0
0
SPLINE
5
130
100
AcDbEntity
8
1
62
256
6
ByLayer
370
-1
48
1
60
0
100
AcDbSpline
70
4
71
3
72
16
73
12
40
0
40
0
40
0
40
0
40
0.0634480931510992
40
0.0634480931510992
40
0.287401248858868
40
0.287401248858868
40
0.51414315161501
40
0.51414315161501
40
0.755257540040445
40
0.755257540040445
40
1
40
1
40
1
40
1
41
1
10
55.9417026378906
20
7.26594943398123
30
0
41
1
10
55.9390205958807
20
7.26148223529793
30
0
41
1
10
55.9365355288138
20
7.25686755698953
30
0
41
1
10
55.9262996650561
20
7.23555270510059
30
0
41
1
10
55.9209016347055
20
7.21722855709675
30
0
41
1
10
55.9158274652789
20
7.17988108227024
30
0
41
1
10
55.916144119056
20
7.16037916880859
30
0
41
1
10
55.9221679915492
20
7.1216183745033
30
0
41
1
10
55.9282713567686
20
7.10196555301675
30
0
41
1
10
55.9451476953466
20
7.06555151391001
30
0
41
1
10
55.9561510350018
20
7.04842992447644
30
0
41
1
10
55.9687851969904
20
7.03337147359733
30
0
0
SPLINE
5
131
100
AcDbEntity
8
1
62
256
6
ByLayer
370
-1
48
1
60
0
100
AcDbSpline
70
4
71
3
72
18
73
14
40
0
40
0
40
0
40
0
40
0.0053373074502353
40
0.0053373074502353
40
0.231448760171928
40
0.231448760171928
40
0.457002852552744
40
0.457002852552744
40
0.694240448504034
40
0.694240448504034
40
0.952962655012498
40
0.952962655012498
40
1
40
1
40
1
40
1
41
1
10
56.8374672861742
20
5.76169803125484
30
0
41
1
10
56.8379194379981
20
5.76169605816997
30
0
41
1
10
56.8383715802907
20
5.76169548324822
30
0
41
1
10
56.8577163370844
20
5.7617307078637
30
0
41
1
10
56.876811254494
20
5.76428875010254
30
0
41
1
10
56.912247523704
20
5.77385676495027
30
0
41
1
10
56.9290542915595
20
5.78096750977585
30
0
41
1
10
56.9593353115205
20
5.79887870550203
30
0
41
1
10
56.9729831985719
20
5.81006216854303
30
0
41
1
10
56.9960516086932
20
5.83555376359612
30
0
41
1
10
57.0052844755827
20
5.85036064526184
30
0
41
1
10
57.012515707037
20
5.86828562291146
30
0
41
1
10
57.0135376742165
20
5.87108600031502
30
0
41
1
10
57.0144587965621
20
5.87389819683676
30
0
0
SPLINE
5
132
100
AcDbEntity
8
1
62
256
6
ByLayer
370
-1
48
1
60
0
100
AcDbSpline
70
4
71
3
72
12
73
8
40
0
40
0
40
0
40
0
40
0.404489726079068
40
0.404489726079068
40
0.796334333365787
40
0.796334333365787
40
1
40
1
40
1
40
1
41
1
10
55.9687851969925
20
6.4617201485475
30
0
41
1
10
55.9950194287183
20
6.48263707114251
30
0
41
1
10
56.0183242245544
20
6.50804442535392
30
0
41
1
10
56.0553412850851
20
6.56612702243373
30
0
41
1
10
56.069676073913
20
6.59931808051215
30
0
41
1
10
56.0828585819242
20
6.65437914219879
30
0
41
1
10
56.0859000406979
20
6.67422162930387
30
0
41
1
10
56.0873125420742
20
6.69455756671891
30
0
0
SPLINE
5
133
100
AcDbEntity
8
1
62
256
6
ByLayer
370
-1
48
1
60
0
100
AcDbSpline
70
4
71
3
72
14
73
10
40
0
40
0
40
0
40
0
40
0.279809744297787
40
0.279809744297787
40
0.567613048610863
40
0.567613048610863
40
0.828345652223301
40
0.828345652223301
40
1
40
1
40
1
40
1
41
1
10
56.1467427956826
20
7.33104769921175
30
0
41
1
10
56.1267696739363
20
7.33891797586537
30
0
41
1
10
56.1052689627185
20
7.34344799935749
30
0
41
1
10
56.0619285505459
20
7.34436121151728
30
0
41
1
10
56.0394261358017
20
7.34047969568155
30
0
41
1
10
56.0000614821869
20
7.32458452735076
30
0
41
1
10
55.982291039189
20
7.31309558847789
30
0
41
1
10
55.9576404546501
20
7.28900568914059
30
0
41
1
10
55.9489085735754
20
7.27795161227834
30
0
41
1
10
55.9417026378906
20
7.26594943398123
30
0
0
SPLINE
5
134
100
AcDbEntity
8
1
62
256
6
ByLayer
370
-1
48
1
60
0
100
AcDbSpline
70
4
71
3
72
18
73
14
40
0
40
0
40
0
40
0
40
0.0208791201063681
40
0.0208791201063681
40
0.245857146493317
40
0.245857146493317
40
0.471189609605725
40
0.471189609605725
40
0.708915467328245
40
0.708915467328245
40
0.96863040557347
40
0.96863040557347
40
1
40
1
40
1
40
1
41
1
10
57.7332319344578
20
6.25691308894685
30
0
41
1
10
57.7341184218276
20
6.25838961884327
30
0
41
1
10
57.7349828117501
20
6.25987560956455
30
0
41
1
10
57.7447889910722
20
6.27728629587355
30
0
41
1
10
57.7512208934959
20
6.29441238016983
30
0
41
1
10
57.7581619646765
20
6.32825580682533
30
0
41
1
10
57.7587639436164
20
6.34540419862338
30
0
41
1
10
57.754471074257
20
6.37845653127684
30
0
41
1
10
57.7492375161922
20
6.39465803727981
30
0
41
1
10
57.7333370650147
20
6.42476333092753
30
0
41
1
10
57.7220333530742
20
6.43870335423159
30
0
41
1
10
57.7071689166849
20
6.45147777823749
30
0
41
1
10
57.705522518331
20
6.45283118269657
30
0
41
1
10
57.7038470648826
20
6.45414874416082
30
0
0
SPLINE
5
135
100
AcDbEntity
8
1
62
256
6
ByLayer
370
-1
48
1
60
0
100
AcDbSpline
70
4
71
3
72
16
73
12
40
0
40
0
40
0
40
0
40
0.133194644422877
40
0.133194644422877
40
0.438211863100227
40
0.438211863100227
40
0.714144221154169
40
0.714144221154169
40
0.958760863458115
40
0.958760863458115
40
1
40
1
40
1
40
1
41
1
10
55.9687851969897
20
6.4617201485506
30
0
41
1
10
55.9618836913798
20
6.4562174808859
30
0
41
1
10
55.9554818537233
20
6.45005549424394
30
0
41
1
10
55.9366213662884
20
6.42798617585757
30
0
41
1
10
55.9266089751438
20
6.40918669120933
30
0
41
1
10
55.9164211096753
20
6.36994864905864
30
0
41
1
10
55.9152863676282
20
6.34921466939358
30
0
41
1
10
55.921199810796
20
6.31013801425252
30
0
41
1
10
55.9274446412027
20
6.29122564728391
30
0
41
1
10
55.9382807672796
20
6.27063867920629
30
0
41
1
10
55.9399494599968
20
6.26766629115576
30
0
41
1
10
55.9417026378906
20
6.26473090399492
30
0
0
SPLINE
5
136
100
AcDbEntity
8
1
62
256
6
ByLayer
370
-1
48
1
60
0
100
AcDbSpline
70
4
71
3
72
14
73
10
40
0
40
0
40
0
40
0
40
0.263776671884369
40
0.263776671884369
40
0.553587506064685
40
0.553587506064685
40
0.815939925983196
40
0.815939925983196
40
1
40
1
40
1
40
1
41
1
10
57.0144587965622
20
7.6122388117299
30
0
41
1
10
57.00934410838
20
7.63313304272268
30
0
41
1
10
57.0010016330132
20
7.65360350098388
30
0
41
1
10
56.9772968964409
20
7.69240035836282
30
0
41
1
10
56.9609024854747
20
7.7109038635729
30
0
41
1
10
56.9244437127417
20
7.73850619557902
30
0
41
1
10
56.904300486932
20
7.74871438975975
30
0
41
1
10
56.8684450084779
20
7.75888193383085
30
0
41
1
10
56.852893392954
20
7.76109717574934
30
0
41
1
10
56.8374672861742
20
7.76116449167321
30
0
0
SPLINE
5
137
100
AcDbEntity
8
1
62
256
6
ByLayer
370
-1
48
1
60
0
100
AcDbSpline
70
4
71
3
72
12
73
8
40
0
40
0
40
0
40
0
40
0.459485808155307
40
0.459485808155307
40
0.841721382595533
40
0.841721382595533
40
1
40
1
40
1
40
1
41
1
10
57.703847064887
20
7.02580006920803
30
0
41
1
10
57.6733199763511
20
6.99057035211118
30
0
41
1
10
57.6465618308717
20
6.95013929567332
30
0
41
1
10
57.6089430238676
20
6.87042821314188
30
0
41
1
10
57.595831318818
20
6.83118162013432
30
0
41
1
10
57.5853146861288
20
6.77540840088156
30
0
41
1
10
57.5831689481902
20
6.75889786434823
30
0
41
1
10
57.5820353374608
20
6.74254475801644
30
0
0
SPLINE
5
138
100
AcDbEntity
8
1
62
256
6
ByLayer
370
-1
48
1
60
0
100
AcDbSpline
70
4
71
3
72
14
73
10
40
0
40
0
40
0
40
0
40
0.197618050949042
40
0.197618050949042
40
0.495649249901637
40
0.495649249901637
40
0.765003710289533
40
0.765003710289533
40
1
40
1
40
1
40
1
41
1
10
56.6581846365855
20
5.87545289398713
30
0
41
1
10
56.6622766863461
20
5.86370584555104
30
0
41
1
10
56.668147458762
20
5.85208851629199
30
0
41
1
10
56.6870555176505
20
5.82459506871925
30
0
41
1
10
56.7026253073121
20
5.80908478482294
30
0
41
1
10
56.738151717609
20
5.78513499350279
30
0
41
1
10
56.7581142572566
20
5.77582145172818
30
0
41
1
10
56.7978096140565
20
5.76461406957424
30
0
41
1
10
56.8177937329023
20
5.76178388204227
30
0
41
1
10
56.8374672861742
20
5.76169803125484
30
0
0
SPLINE
5
139
100
AcDbEntity
8
1
62
256
6
ByLayer
370
-1
48
1
60
0
100
AcDbSpline
70
4
71
3
72
18
73
14
40
0
40
0
40
0
40
0
40
0.211894648550194
40
0.211894648550194
40
0.38768872661442
40
0.38768872661442
40
0.565137191854247
40
0.565137191854247
40
0.720050775234288
40
0.720050775234288
40
0.92596315826811
40
0.92596315826811
40
1
40
1
40
1
40
1
41
1
10
57.525900637467
20
6.15664400650385
30
0
41
1
10
57.483820614257
20
6.16144574848548
30
0
41
1
10
57.4386865549482
20
6.16068033721433
30
0
41
1
10
57.3551350773357
20
6.14801335251482
30
0
41
1
10
57.3159458613293
20
6.13782296477814
30
0
41
1
10
57.2406534007322
20
6.10913004290404
30
0
41
1
10
57.2035149484002
20
6.09007163876828
30
0
41
1
10
57.1424611363076
20
6.04921053923886
30
0
41
1
10
57.1167039087191
20
6.02759454862661
30
0
41
1
10
57.0664841901428
20
5.97509473770495
30
0
41
1
10
57.0442472197298
20
5.94263113807432
30
0
41
1
10
57.0231746903921
20
5.89794605992341
30
0
41
1
10
57.0184053883668
20
5.88594718446495
30
0
41
1
10
57.0144587965621
20
5.87389819683676
30
0
0
SPLINE
5
13A
100
AcDbEntity
8
1
62
256
6
ByLayer
370
-1
48
1
60
0
100
AcDbSpline
70
4
71
3
72
16
73
12
40
0
40
0
40
0
40
0
40
0.186443275364355
40
0.186443275364355
40
0.411051379260747
40
0.411051379260747
40
0.645061288502798
40
0.645061288502798
40
0.898784089495255
40
0.898784089495255
40
1
40
1
40
1
40
1
41
1
10
55.9417026378906
20
6.26473090399492
30
0
41
1
10
55.9495050083779
20
6.25166721078142
30
0
41
1
10
55.9591070385581
20
6.23920147046428
30
0
41
1
10
55.9829740120072
20
6.21454743431426
30
0
41
1
10
55.9981082074428
20
6.20263481732329
30
0
41
1
10
56.0306970828696
20
6.18304683843019
30
0
41
1
10
56.0486242781479
20
6.17530878203894
30
0
41
1
10
56.0858605396953
20
6.16447534968731
30
0
41
1
10
56.1056211088723
20
6.16167060456675
30
0
41
1
10
56.1319872955376
20
6.16150149991338
30
0
41
1
10
56.1394522496065
20
6.16187955189554
30
0
41
1
10
56.1467427956826
20
6.16266232892247
30
0
0
SPLINE
5
13B
100
AcDbEntity
8
1
62
256
6
ByLayer
370
-1
48
1
60
0
100
AcDbSpline
70
4
71
3
72
14
73
10
40
0
40
0
40
0
40
0
40
0.0488763984545334
40
0.0488763984545334
40
0.385924317779499
40
0.385924317779499
40
0.833211742698379
40
0.833211742698379
40
1
40
1
40
1
40
1
41
1
10
57.5820353374608
20
6.68803494585802
30
0
41
1
10
57.5823874009159
20
6.68311507206627
30
0
41
1
10
57.5828361639692
20
6.67822659863688
30
0
41
1
10
57.5870995061835
20
6.64022162042482
30
0
41
1
10
57.5954363371228
20
6.60858912865274
30
0
41
1
10
57.6231270465606
20
6.54277991352637
30
0
41
1
10
57.6455274235824
20
6.50990962167577
30
0
41
1
10
57.6820302867568
20
6.47246982322073
30
0
41
1
10
57.6926698183637
20
6.46293842990573
30
0
41
1
10
57.7038470648828
20
6.4541487441607
30
0
0
SPLINE
5
13C
100
AcDbEntity
8
1
62
256
6
ByLayer
370
-1
48
1
60
0
100
AcDbSpline
70
4
71
3
72
18
73
14
40
0
40
0
40
0
40
0
40
0.207610655601442
40
0.207610655601442
40
0.384210677338182
40
0.384210677338182
40
0.562516328114173
40
0.562516328114173
40
0.717620623459289
40
0.717620623459289
40
0.922818488238356
40
0.922818488238356
40
1
40
1
40
1
40
1
41
1
10
56.6581846365868
20
5.87545289398778
30
0
41
1
10
56.6464567088272
20
5.90912025961089
30
0
41
1
10
56.6281988801697
20
5.94274984568699
30
0
41
1
10
56.5824847728441
20
6.00148014640203
30
0
41
1
10
56.5562041409163
20
6.0277523654739
30
0
41
1
10
56.4954574047074
20
6.07500625522758
30
0
41
1
10
56.4599399742484
20
6.09659882800858
30
0
41
1
10
56.3908309253924
20
6.12871614785101
30
0
41
1
10
56.356785703334
20
6.14072106320216
30
0
41
1
10
56.2792606821113
20
6.16026522823969
30
0
41
1
10
56.234965527091
20
6.16553825507117
30
0
41
1
10
56.1775048368771
20
6.16517668032674
30
0
41
1
10
56.1619440321402
20
6.16429446711294
30
0
41
1
10
56.1467427956826
20
6.16266232892249
30
0
0
SPLINE
5
13D
100
AcDbEntity
8
SK1
62
256
6
ByLayer
370
-1
48
1
60
0
100
AcDbSpline
70
4
71
3
72
42
73
38
40
0
40
0
40
0
40
0
40
0.0163810799662886
40
0.0163810799662886
40
0.0639494586822892
40
0.0639494586822892
40
0.111492368509681
40
0.111492368509681
40
0.159020260673948
40
0.159020260673948
40
0.206538696314306
40
0.206538696314306
40
0.301841004701234
40
0.301841004701234
40
0.349350958516758
40
0.349350958516758
40
0.396858939445313
40
0.396858939445313
40
0.499991607752652
40
0.499991607752652
40
0.516601332169717
40
0.516601332169717
40
0.583129525453324
40
0.583129525453324
40
0.649661096937646
40
0.649661096937646
40
0.716199521981162
40
0.716199521981162
40
0.782749828530482
40
0.782749828530482
40
0.849320463856288
40
0.849320463856288
40
0.915927044283006
40
0.915927044283006
40
0.982603703090785
40
0.982603703090785
40
1
40
1
40
1
40
1
41
1
10
-1.69981569924971
20
-11.2200949991767
30
0
41
1
10
-1.69981856362037
20
-11.1207678099741
30
0
41
1
10
-1.6998214555658
20
-11.0197460882449
30
0
41
1
10
-1.6998327087941
20
-10.6197166436947
30
0
41
1
10
-1.69984096117844
20
-10.3093124677711
30
0
41
1
10
-1.69985627945195
20
-9.67089489702849
30
0
41
1
10
-1.69986339652112
20
-9.34219998643059
30
0
41
1
10
-1.69987638263768
20
-8.67135827503972
30
0
41
1
10
-1.69988226804873
20
-8.32867240091619
30
0
41
1
10
-1.69989288476137
20
-7.63285725565936
30
0
41
1
10
-1.69989763259613
20
-7.27927913043618
30
0
41
1
10
-1.69991038517998
20
-6.20530628141103
30
0
41
1
10
-1.69991692144461
20
-5.47053995364467
30
0
41
1
10
-1.69992447255984
20
-4.35600041076461
30
0
41
1
10
-1.69992661984512
20
-3.98217936829525
30
0
41
1
10
-1.69993025239984
20
-3.23115744164951
30
0
41
1
10
-1.69993174702918
20
-2.85365549347546
30
0
41
1
10
-1.69993553802419
20
-1.65434441174062
30
0
41
1
10
-1.69993688327909
20
-0.826444369253011
30
0
41
1
10
-1.69993688325647
20
0.133316515351339
30
0
41
1
10
-1.69993681380041
20
0.266638936206419
30
0
41
1
10
-1.6999363327711
20
0.933461303427634
30
0
41
1
10
-1.69993563464405
20
1.4669997181237
30
0
41
1
10
-1.69993295956064
20
2.52948275287076
30
0
41
1
10
-1.69993106557931
20
3.05921414632021
30
0
41
1
10
-1.69992601584138
20
4.11072927097743
30
0
41
1
10
-1.69992284788898
20
4.6333479548922
30
0
41
1
10
-1.69991498568021
20
5.66672460149613
30
0
41
1
10
-1.69991029166533
20
6.17840405824722
30
0
41
1
10
-1.69989900651961
20
7.18502489837152
30
0
41
1
10
-1.69989241745722
20
7.68102386068736
30
0
41
1
10
-1.69987697795142
20
8.64967394328065
30
0
41
1
10
-1.69986809143538
20
9.12363191314273
30
0
41
1
10
-1.69984796596435
20
10.0383427101562
30
0
41
1
10
-1.69983659055055
20
10.4808745530795
30
0
41
1
10
-1.69982181164121
20
11.0072903314504
30
0
41
1
10
-1.69981874005481
20
11.1146479425185
30
0
41
1
10
-1.69981569921254
20
11.220095149943
30
0
0
SPLINE
5
13E
100
AcDbEntity
8
SK1
62
256
6
ByLayer
370
-1
48
1
60
0
100
AcDbSpline
70
4
71
3
72
8
73
4
40
0
40
0
40
0
40
0
40
1
40
1
40
1
40
1
41
1
10
-1.49999999999997
20
-11.0432566657553
30
0
41
1
10
-1.4407009227769
20
-10.7605011362211
30
0
41
1
10
-1.37518753744982
20
-10.4648732483274
30
0
41
1
10
-1.30710678118655
20
-10.1604677237623
30
0
0
SPLINE
5
13F
100
AcDbEntity
8
SK1
62
256
6
ByLayer
370
-1
48
1
60
0
100
AcDbSpline
70
4
71
3
72
8
73
4
40
0
40
0
40
0
40
0
40
1
40
1
40
1
40
1
41
1
10
-19.8
20
-2.84826050041744
30
0
41
1
10
-20.7001622649416
20
-2.83337167863357
30
0
41
1
10
-21.6003201798638
20
-2.81816393732618
30
0
41
1
10
-22.5004731679057
20
-2.80262409679059
30
0
0
SPLINE
5
140
100
AcDbEntity
8
SK1
62
256
6
ByLayer
370
-1
48
1
60
0
100
AcDbSpline
70
4
71
3
72
30
73
26
40
0
40
0
40
0
40
0
40
0.309922093200292
40
0.309922093200292
40
0.399153198632414
40
0.399153198632414
40
0.444043316237152
40
0.444043316237152
40
0.455525929453154
40
0.455525929453154
40
0.46396786462375
40
0.46396786462375
40
0.470165559322023
40
0.470165559322023
40
0.476390874125163
40
0.476390874125163
40
0.484181030291342
40
0.484181030291342
40
0.497892832544882
40
0.497892832544882
40
0.542980317225042
40
0.542980317225042
40
0.755042161425796
40
0.755042161425796
40
1
40
1
40
1
40
1
41
1
10
-1.6998156992496
20
-11.2200949991746
30
0
41
1
10
-1.6990098845009
20
-11.2940905874432
30
0
41
1
10
-1.69659601890535
20
-11.3661769525636
30
0
41
1
10
-1.68236701486518
20
-11.4476781250385
30
0
41
1
10
-1.67850143154689
20
-11.4653487728468
30
0
41
1
10
-1.66874393877066
20
-11.4876823244398
30
0
41
1
10
-1.6649368040799
20
-11.4948074664035
30
0
41
1
10
-1.65696964869636
20
-11.4995975854956
30
0
41
1
10
-1.65512318176133
20
-11.5003320527686
30
0
41
1
10
-1.65136799526795
20
-11.5006733789065
30
0
41
1
10
-1.64957053737984
20
-11.5005195406816
30
0
41
1
10
-1.64611435448279
20
-11.4993892727614
30
0
41
1
10
-1.64451138608641
20
-11.4986198333647
30
0
41
1
10
-1.64123848479448
20
-11.4964922927574
30
0
41
1
10
-1.6395304183043
20
-11.4951044687853
30
0
41
1
10
-1.63586644690392
20
-11.491597031774
30
0
41
1
10
-1.63389787739385
20
-11.4893413226806
30
0
41
1
10
-1.62891859243223
20
-11.4829717318784
30
0
41
1
10
-1.62611358319256
20
-11.4786269788617
30
0
41
1
10
-1.61533746633876
20
-11.4603844401424
30
0
41
1
10
-1.60929392783928
20
-11.4463891169648
30
0
41
1
10
-1.57800984451237
20
-11.3692403447195
30
0
41
1
10
-1.56265979181001
20
-11.3091519309387
30
0
41
1
10
-1.5296715570133
20
-11.1801677873175
30
0
41
1
10
-1.51435444267585
20
-11.1117028917349
30
0
41
1
10
-1.49999999999997
20
-11.0432566657553
30
0
0
SPLINE
5
141
100
AcDbEntity
8
SK1
62
256
6
ByLayer
370
-1
48
1
60
0
100
AcDbSpline
70
4
71
3
72
12
73
8
40
0
40
0
40
0
40
0
40
0.247496329612393
40
0.247496329612393
40
0.621680828585826
40
0.621680828585826
40
1
40
1
40
1
40
1
41
1
10
-22.5005851333936
20
-2.80459742298396
30
0
41
1
10
-22.6306074864336
20
-2.75030997840142
30
0
41
1
10
-22.7596934258127
20
-2.69233489718701
30
0
41
1
10
-23.0803915998877
20
-2.53670716675296
30
0
41
1
10
-23.2706179527374
20
-2.4337964262065
30
0
41
1
10
-23.6430753809423
20
-2.20514582983176
30
0
41
1
10
-23.8258291927968
20
-2.07884530779739
30
0
41
1
10
-24
20
-1.93886479626778
30
0
0
SPLINE
5
142
100
AcDbEntity
8
SK1
62
256
6
ByLayer
370
-1
48
1
60
0
100
AcDbSpline
70
4
71
3
72
30
73
26
40
0
40
0
40
0
40
0
40
0.0064673562652499
40
0.0558206207878751
40
0.1051738853105
40
0.154527149833125
40
0.203880414355751
40
0.253233678878376
40
0.302586943401001
40
0.351940207923626
40
0.401293472446252
40
0.450646736968877
40
0.500000001491502
40
0.500000001491502
40
0.549353266014127
40
0.598706530536752
40
0.648059795059378
40
0.697413059582003
40
0.746766324104628
40
0.796119588627253
40
0.845472853149878
40
0.894826117672504
40
0.944179382195129
40
0.993532646717754
40
1
40
1
40
1
40
1
41
1
10
-0.400000000000006
20
8.93744051686699
30
0
41
1
10
-0.400000000000006
20
8.91031470316736
30
0
41
1
10
-0.400000000000006
20
8.67464703685025
30
0
41
1
10
-0.400000000000006
20
8.2055049624397
30
0
41
1
10
-0.400000000000006
20
7.4830455794108
30
0
41
1
10
-0.400000000000006
20
6.70053905030551
30
0
41
1
10
-0.400000000000006
20
5.86145096507065
30
0
41
1
10
-0.400000000000006
20
4.97069843174813
30
0
41
1
10
-0.400000000000006
20
4.03455626181523
30
0
41
1
10
-0.400000000000006
20
3.06051612943
30
0
41
1
10
-0.400000000000006
20
2.05709815871373
30
0
41
1
10
-0.400000000000006
20
1.03363245164445
30
0
41
1
10
-0.400000000000006
20
0.345518014343639
30
0
41
1
10
-0.400000000000006
20
-0.345517792546587
30
0
41
1
10
-0.400000000000006
20
-1.0336320472187
30
0
41
1
10
-0.400000000000006
20
-2.05709849418429
30
0
41
1
10
-0.400000000000006
20
-3.06051572360622
30
0
41
1
10
-0.400000000000006
20
-4.03455642760309
30
0
41
1
10
-0.400000000000006
20
-4.97069813204988
30
0
41
1
10
-0.400000000000006
20
-5.8614510930521
30
0
41
1
10
-0.400000000000006
20
-6.70053886646519
30
0
41
1
10
-0.400000000000006
20
-7.48304564481663
30
0
41
1
10
-0.400000000000006
20
-8.20550490435011
30
0
41
1
10
-0.400000000000006
20
-8.67464700867632
30
0
41
1
10
-0.400000000000006
20
-8.91031468553479
30
0
41
1
10
-0.400000000000006
20
-8.9374404894146
30
0
0
SPLINE
5
143
100
AcDbEntity
8
SK1
62
256
6
ByLayer
370
-1
48
1
60
0
100
AcDbSpline
70
4
71
3
72
10
73
6
40
0
40
0
40
0
40
0
40
0.5
40
0.5
40
1
40
1
40
1
40
1
41
1
10
-1.69981569925216
20
-11.2200949991764
30
0
41
1
10
-1.83115107886948
20
-11.876130925119
30
0
41
1
10
-1.92953541918828
20
-12.4720942456084
30
0
41
1
10
-1.93030096375389
20
-13.3558854618899
30
0
41
1
10
-1.83256439819709
20
-13.6438481172418
30
0
41
1
10
-1.69987639962216
20
-13.8139891097792
30
0
0
SPLINE
5
144
100
AcDbEntity
8
SK1
62
256
6
ByLayer
370
-1
48
1
60
0
100
AcDbSpline
70
4
71
3
72
22
73
18
40
0
40
0
40
0
40
0
40
0.0454750421077554
40
0.0454750421077554
40
0.0916971104300836
40
0.0916971104300836
40
0.124730820047476
40
0.124730820047476
40
0.157670625640593
40
0.157670625640593
40
0.207758304956995
40
0.207758304956995
40
0.304061062114281
40
0.304061062114281
40
0.637717473463807
40
0.637717473463807
40
1
40
1
40
1
40
1
41
1
10
-0.399999999999977
20
13.8205593061294
30
0
41
1
10
-0.420999976042083
20
13.8199950703333
30
0
41
1
10
-0.443961809696646
20
13.8194154514702
30
0
41
1
10
-0.494647063101581
20
13.8183907115237
30
0
41
1
10
-0.523189068298279
20
13.8179397858341
30
0
41
1
10
-0.574670665083175
20
13.8175362680776
30
0
41
1
10
-0.597386437669513
20
13.817479944279
30
0
41
1
10
-0.641431839616189
20
13.8176243678929
30
0
41
1
10
-0.663246710630688
20
13.8178235441912
30
0
41
1
10
-0.714283072801635
20
13.8185195665193
30
0
41
1
10
-0.742454063880018
20
13.8191165787919
30
0
41
1
10
-0.81583086675451
20
13.8208994098089
30
0
41
1
10
-0.855303346484334
20
13.8221358140405
30
0
41
1
10
-1.0085333428859
20
13.8262671509121
30
0
41
1
10
-1.08108389656209
20
13.8259072671463
30
0
41
1
10
-1.21167507406491
20
13.8137860851337
30
0
41
1
10
-1.26353428331785
20
13.8012421743945
30
0
41
1
10
-1.307106781187
20
13.7816169419684
30
0
0
SPLINE
5
145
100
AcDbEntity
8
SK1
62
256
6
ByLayer
370
-1
48
1
60
0
100
AcDbSpline
70
4
71
3
72
24
73
20
40
0
40
0
40
0
40
0
40
0.394791168098766
40
0.394791168098766
40
0.579781070771313
40
0.579781070771313
40
0.767171693512621
40
0.767171693512621
40
0.820831794856709
40
0.820831794856709
40
0.860294839570426
40
0.860294839570426
40
0.893334322584131
40
0.893334322584131
40
0.926298016687701
40
0.926298016687701
40
0.97566648486559
40
0.97566648486559
40
1
40
1
40
1
40
1
41
1
10
-1.30710678118703
20
-13.7816170399175
30
0
41
1
10
-1.25962676058171
20
-13.8030025087906
30
0
41
1
10
-1.20254207393026
20
-13.8159749454823
30
0
41
1
10
-1.08828060359855
20
-13.8243325994922
30
0
41
1
10
-1.04711229543494
20
-13.8254023541192
30
0
41
1
10
-0.946606389283119
20
-13.8247907177771
30
0
41
1
10
-0.887894258212356
20
-13.8229394305021
30
0
41
1
10
-0.779163270217765
20
-13.8199942138014
30
0
41
1
10
-0.751976533685479
20
-13.8193026740064
30
0
41
1
10
-0.699320824472011
20
-13.8183000215652
30
0
41
1
10
-0.674800947319739
20
-13.817934006622
30
0
41
1
10
-0.627772857871776
20
-13.8175472833354
30
0
41
1
10
-0.605111421975806
20
-13.817481197282
30
0
41
1
10
-0.561054927046428
20
-13.8176071498896
30
0
41
1
10
-0.539176761809955
20
-13.817797842943
30
0
41
1
10
-0.488413111571759
20
-13.8184720418364
30
0
41
1
10
-0.460475725756851
20
-13.8190530754638
30
0
41
1
10
-0.423088493790516
20
-13.8199502054623
30
0
41
1
10
-0.411274881784863
20
-13.8202560686827
30
0
41
1
10
-0.399999999999977
20
-13.8205590132786
30
0
0
SPLINE
5
146
100
AcDbEntity
8
SK1
62
256
6
ByLayer
370
-1
48
1
60
0
100
AcDbSpline
70
4
71
3
72
12
73
8
40
0
40
0
40
0
40
0
40
0.495554280708575
40
0.495554280708575
40
0.747358026925704
40
0.747358026925704
40
1
40
1
40
1
40
1
41
1
10
-24
20
1.93725576731222
30
0
41
1
10
-23.7720083436625
20
2.12054303693196
30
0
41
1
10
-23.5294035106498
20
2.28058059628992
30
0
41
1
10
-23.1539837438192
20
2.494424014152
30
0
41
1
10
-23.0253842665353
20
2.56192366347832
30
0
41
1
10
-22.7651235247375
20
2.68872520332889
30
0
41
1
10
-22.6333423348616
20
2.74804888479511
30
0
41
1
10
-22.500585998987
20
2.80352713756849
30
0
0
SPLINE
5
147
100
AcDbEntity
8
SK1
62
256
6
ByLayer
370
-1
48
1
60
0
100
AcDbSpline
70
4
71
3
72
32
73
28
40
0
40
0
40
0
40
0
40
0.356808184973907
40
0.356808184973907
40
0.438411838749387
40
0.438411838749387
40
0.466161785027183
40
0.466161785027183
40
0.489371467125742
40
0.489371467125742
40
0.513018292354368
40
0.513018292354368
40
0.520116184259287
40
0.520116184259287
40
0.527338312436591
40
0.527338312436591
40
0.533476233835289
40
0.533476233835289
40
0.542171407500699
40
0.542171407500699
40
0.55876465767277
40
0.55876465767277
40
0.631794475022252
40
0.631794475022252
40
0.921051258667438
40
0.921051258667438
40
1
40
1
40
1
40
1
41
1
10
-1.49999999999997
20
11.0432567601295
30
0
41
1
10
-1.52100645737559
20
11.143421860069
30
0
41
1
10
-1.5430560078139
20
11.2432407795521
30
0
41
1
10
-1.58125527226929
20
11.3699922559903
30
0
41
1
10
-1.58890346837515
20
11.3938513199655
30
0
41
1
10
-1.60122712477465
20
11.4265414889797
30
0
41
1
10
-1.60455072583915
20
11.4349191188302
30
0
41
1
10
-1.61127341122605
20
11.4504602870416
30
0
41
1
10
-1.61457144095249
20
11.4576229814924
30
0
41
1
10
-1.622112769377
20
11.4721094266828
30
0
41
1
10
-1.62643636915365
20
11.4797121996191
30
0
41
1
10
-1.63344186077995
20
11.4887799895128
30
0
41
1
10
-1.63521179379262
20
11.4908577020848
30
0
41
1
10
-1.63891257988672
20
11.4945831305536
30
0
41
1
10
-1.64090128135041
20
11.4962624091794
30
0
41
1
10
-1.64442091474388
20
11.4985684913492
30
0
41
1
10
-1.64601505674835
20
11.4993445654197
30
0
41
1
10
-1.64953409590154
20
11.5005222771493
30
0
41
1
10
-1.65138915185287
20
11.5006794795432
30
0
41
1
10
-1.65612998491076
20
11.5002228076755
30
0
41
1
10
-1.65859125632852
20
11.4988524274895
30
0
41
1
10
-1.66992786103808
20
11.4896161662332
30
0
41
1
10
-1.6742970214317
20
11.4761319240862
30
0
41
1
10
-1.69353967468206
20
11.4090716838935
30
0
41
1
10
-1.69646405586675
20
11.342822082185
30
0
41
1
10
-1.69923187341033
20
11.2574519422567
30
0
41
1
10
-1.69961119513496
20
11.2388741740142
30
0
41
1
10
-1.69981569921254
20
11.2200951499431
30
0
0
SPLINE
5
148
100
AcDbEntity
8
SK1
62
256
6
ByLayer
370
-1
48
1
60
0
100
AcDbSpline
70
4
71
3
72
24
73
20
40
0
40
0
40
0
40
0
40
0.0301893744467162
40
0.0301893744467162
40
0.0535407797217203
40
0.0535407797217203
40
0.0721579167046848
40
0.0721579167046848
40
0.0907729641977611
40
0.0907729641977611
40
0.11662490631433
40
0.11662490631433
40
0.163150532045231
40
0.163150532045231
40
0.310469689454529
40
0.310469689454529
40
0.926051549674106
40
0.926051549674106
40
1
40
1
40
1
40
1
41
1
10
-0.399999999999977
20
-13.8205590132786
30
0
41
1
10
-0.394013511242747
20
-13.8207198641373
30
0
41
1
10
-0.387438377041548
20
-13.8211277948213
30
0
41
1
10
-0.374607857819029
20
-13.8226095541097
30
0
41
1
10
-0.368494470268644
20
-13.8235344490986
30
0
41
1
10
-0.357073302473168
20
-13.8258132771122
30
0
41
1
10
-0.351741572367729
20
-13.8270713477329
30
0
41
1
10
-0.34140996003066
20
-13.8299215021952
30
0
41
1
10
-0.336294849042844
20
-13.831543966011
30
0
41
1
10
-0.325054468279149
20
-13.8355258548496
30
0
41
1
10
-0.319101901704443
20
-13.8379842992552
30
0
41
1
10
-0.304411347490543
20
-13.8446767815525
30
0
41
1
10
-0.296779548188397
20
-13.8489171706104
30
0
41
1
10
-0.269692663824316
20
-13.8655029311592
30
0
41
1
10
-0.257826564745358
20
-13.8765532193897
30
0
41
1
10
-0.207555971514893
20
-13.9283182748064
30
0
41
1
10
-0.202396119115292
20
-13.9564451915611
30
0
41
1
10
-0.200117109994949
20
-13.9811720438818
30
0
41
1
10
-0.19999999999996
20
-13.9837327080566
30
0
41
1
10
-0.19999999999996
20
-13.9861958937558
30
0
0
SPLINE
5
149
100
AcDbEntity
8
SK1
62
256
6
ByLayer
370
-1
48
1
60
0
100
AcDbSpline
70
4
71
3
72
45
73
41
40
-0.0346300286035655
40
-0.0346300286035655
40
0
40
0
40
0.0475940648481407
40
0.0475940648481407
40
0.0965184190875157
40
0.0965184190875157
40
0.147310856465067
40
0.147310856465067
40
0.201021214045081
40
0.201021214045081
40
0.257397538254294
40
0.257397538254294
40
0.315363793396393
40
0.315363793396393
40
0.373501396508155
40
0.373501396508155
40
0.429887704510806
40
0.429887704510806
40
0.482698951397555
40
0.482698951397555
40
0.532060668202765
40
0.532060668202765
40
0.580270943407078
40
0.580270943407078
40
0.630009903188237
40
0.630009903188237
40
0.682937455613623
40
0.682937455613623
40
0.739082541070617
40
0.739082541070617
40
0.79707410849335
40
0.79707410849335
40
0.855139692250048
40
0.855139692250048
40
0.911700891399203
40
0.911700891399203
40
0.965369971396435
40
0.965369971396435
40
0.965369971396435
40
1
40
1
40
1.04759406484814
40
1.04759406484814
41
1
10
-14.199998860492
20
-0.195779505205053
30
0
41
1
10
-14.19999906958
20
0.267210848088297
30
0
41
1
10
-14.1549653620878
20
0.537829495878668
30
0
41
1
10
-13.9811603022183
20
1.05085315321551
30
0
41
1
10
-13.8479489403013
20
1.29901458038464
30
0
41
1
10
-13.5090917585043
20
1.74398152533448
30
0
41
1
10
-13.2966153047635
20
1.94439787848856
30
0
41
1
10
-12.8132597074372
20
2.27589490980492
30
0
41
1
10
-12.5333924247192
20
2.40687429557582
30
0
41
1
10
-11.9402236122327
20
2.57809132104046
30
0
41
1
10
-11.6179008572436
20
2.61592037323513
30
0
41
1
10
-10.978058571661
20
2.58726147516296
30
0
41
1
10
-10.6519737316284
20
2.51743448283975
30
0
41
1
10
-10.0495354252737
20
2.27669435642298
30
0
41
1
10
-9.76458695188165
20
2.1018902461773
30
0
41
1
10
-9.28828404018321
20
1.67593883365214
30
0
41
1
10
-9.08744036945413
20
1.42063278621933
30
0
41
1
10
-8.80580819825664
20
0.879368962855381
30
0
41
1
10
-8.71444704115484
20
0.588313046749107
30
0
41
1
10
-8.64527530282299
20
0.0200002559397774
30
0
41
1
10
-8.65960498515068
20
-0.26470688181044
30
0
41
1
10
-8.77929723853043
20
-0.798830930998264
30
0
41
1
10
-8.88394225922266
20
-1.05592470359488
30
0
41
1
10
-9.16863428067478
20
-1.52533009184933
30
0
41
1
10
-9.35442854786561
20
-1.74215629113783
30
0
41
1
10
-9.79084723791351
20
-2.11618452011851
30
0
41
1
10
-10.0504883893078
20
-2.27375739590218
30
0
41
1
10
-10.6152992906673
20
-2.50598218409226
30
0
41
1
10
-10.9299451812896
20
-2.57826440578876
30
0
41
1
10
-11.5681490361844
20
-2.61957318555309
30
0
41
1
10
-11.9006130957653
20
-2.58569625944895
30
0
41
1
10
-12.5271999239084
20
-2.41214177538069
30
0
41
1
10
-12.8302733567014
20
-2.26974093899196
30
0
41
1
10
-13.3537946876932
20
-1.89907444030658
30
0
41
1
10
-13.5837644096822
20
-1.66747097156468
30
0
41
1
10
-13.931081210465
20
-1.15778437546808
30
0
41
1
10
-14.0583951082748
20
-0.875048201484191
30
0
41
1
10
-14.1297023359959
20
-0.583081112235533
30
0
41
1
10
-14.1761417894393
20
-0.392935001083998
30
0
41
1
10
-14.199998860492
20
-0.195779505205053
30
0
41
1
10
-14.19999906958
20
0.267210848088297
30
0
0
SPLINE
5
14A
100
AcDbEntity
8
SK1
62
256
6
ByLayer
370
-1
48
1
60
0
100
AcDbSpline
70
4
71
3
72
10
73
6
40
0
40
0
40
0
40
0
40
0.5
40
0.5
40
1
40
1
40
1
40
1
41
1
10
-1.69987639956199
20
13.8139891228069
30
0
41
1
10
-1.83136791289743
20
13.6453820424031
30
0
41
1
10
-1.92972130820297
20
13.3591566385541
30
0
41
1
10
-1.93011581881123
20
12.4772345388728
30
0
41
1
10
-1.8323478284845
20
11.8821096043679
30
0
41
1
10
-1.69981569921254
20
11.220095149943
30
0
0
SPLINE
5
14B
100
AcDbEntity
8
SK1
62
256
6
ByLayer
370
-1
48
1
60
0
100
AcDbSpline
70
4
71
3
72
14
73
10
40
0
40
0
40
0
40
0
40
0.25
40
0.25
40
0.5
40
0.5
40
0.75
40
0.75
40
1
40
1
40
1
40
1
41
1
10
-19.8
20
2.84826040122627
30
0
41
1
10
-19.4213705075328
20
2.43193817467554
30
0
41
1
10
-19.0490297361788
20
2.00512515686862
30
0
41
1
10
-18.3967176818302
20
1.08626551209704
30
0
41
1
10
-18.0914942365837
20
0.575140219140621
30
0
41
1
10
-18.0919446684424
20
-0.576395665756166
30
0
41
1
10
-18.3974126675918
20
-1.08735157915569
30
0
41
1
10
-19.0492789263641
20
-2.00536815097223
30
0
41
1
10
-19.4215285818014
20
-2.43211212076594
30
0
41
1
10
-19.8
20
-2.84826050041744
30
0
0
SPLINE
5
14C
100
AcDbEntity
8
SK1
62
256
6
ByLayer
370
-1
48
1
60
0
100
AcDbSpline
70
4
71
3
72
8
73
4
40
0
40
0
40
0
40
0
40
1
40
1
40
1
40
1
41
1
10
-22.5004731679057
20
2.80262399194035
30
0
41
1
10
-21.6003201798639
20
2.81816383438385
30
0
41
1
10
-20.7001622649419
20
2.8333715775812
30
0
41
1
10
-19.8
20
2.84826040122627
30
0
0
SPLINE
5
14D
100
AcDbEntity
8
SK1
62
256
6
ByLayer
370
-1
48
1
60
0
100
AcDbSpline
70
4
71
3
72
24
73
20
40
0
40
0
40
0
40
0
40
0.394877922708192
40
0.394877922708192
40
0.580271084197783
40
0.580271084197783
40
0.768092380401698
40
0.768092380401698
40
0.821325674438792
40
0.821325674438792
40
0.860625757621651
40
0.860625757621651
40
0.893524977193175
40
0.893524977193175
40
0.926347265136333
40
0.926347265136333
40
0.975576490970274
40
0.975576490970274
40
1
40
1
40
1
40
1
41
1
10
-1.30710678118703
20
10.160467827498
30
0
41
1
10
-1.25962593586633
20
9.94816926053198
30
0
41
1
10
-1.20254850571763
20
9.73180067129928
30
0
41
1
10
-1.08824216113823
20
9.41659596796893
30
0
41
1
10
-1.04699802347588
20
9.31590336423272
30
0
41
1
10
-0.946250180675321
20
9.11950211960027
30
0
41
1
10
-0.887394430155553
20
9.01992183652672
30
0
41
1
10
-0.778364745641994
20
8.91699957395659
30
0
41
1
10
-0.751322228895333
20
8.89564847526049
30
0
41
1
10
-0.69888758856905
20
8.86638197856541
30
0
41
1
10
-0.674417337863702
20
8.85629235916036
30
0
41
1
10
-0.627495618071606
20
8.84577616559181
30
0
41
1
10
-0.604890157613198
20
8.84404219355875
30
0
41
1
10
-0.560951675503702
20
8.84748193803469
30
0
41
1
10
-0.53913685305389
20
8.85263387600781
30
0
41
1
10
-0.488477836546281
20
8.87151866637396
30
0
41
1
10
-0.460588269981457
20
8.88831436263396
30
0
41
1
10
-0.423186184652025
20
8.91677396546166
30
0
41
1
10
-0.411320909424916
20
8.92690113825304
30
0
41
1
10
-0.400000000000006
20
8.93744051686699
30
0
0
SPLINE
5
14E
100
AcDbEntity
8
SK1
62
256
6
ByLayer
370
-1
48
1
60
0
100
AcDbSpline
70
4
71
3
72
26
73
22
40
0
40
0
40
0
40
0
40
0.469403751215792
40
0.469403751215792
40
0.668333808039381
40
0.668333808039381
40
0.804497002020916
40
0.804497002020916
40
0.872926187938192
40
0.872926187938192
40
0.896633792667968
40
0.896633792667968
40
0.920732147850817
40
0.920732147850817
40
0.939215880686019
40
0.939215880686019
40
0.957594092066725
40
0.957594092066725
40
0.988123078809746
40
0.988123078809746
40
1
40
1
40
1
40
1
41
1
10
-0.199999999999989
20
-8.40749973949914
30
0
41
1
10
-0.199999999999989
20
-8.51461534918104
30
0
41
1
10
-0.203954484133504
20
-8.61986583915061
30
0
41
1
10
-0.224231563102933
20
-8.76295988126236
30
0
41
1
10
-0.232128059220457
20
-8.80486887867684
30
0
41
1
10
-0.252650553335258
20
-8.87212805227264
30
0
41
1
10
-0.262801357815363
20
-8.89890895336222
30
0
41
1
10
-0.286190160055526
20
-8.93455842121782
30
0
41
1
10
-0.295505718386465
20
-8.94599572336179
30
0
41
1
10
-0.312556985258197
20
-8.95753357352959
30
0
41
1
10
-0.31746142328393
20
-8.96016919643657
30
0
41
1
10
-0.328372569613094
20
-8.96404129776147
30
0
41
1
10
-0.334563302925432
20
-8.96527359568941
30
0
41
1
10
-0.346028153029039
20
-8.96538929465626
30
0
41
1
10
-0.351296881189341
20
-8.96473829722555
30
0
41
1
10
-0.36149091233267
20
-8.96216148729059
30
0
41
1
10
-0.366528995160792
20
-8.9602294964107
30
0
41
1
10
-0.37905887400612
20
-8.95407880164845
30
0
41
1
10
-0.386232627478421
20
-8.94913487993014
30
0
41
1
10
-0.395209317435388
20
-8.94177489785534
30
0
41
1
10
-0.397646932912949
20
-8.93963111309506
30
0
41
1
10
-0.400000000000006
20
-8.9374404894146
30
0
0
SPLINE
5
14F
100
AcDbEntity
8
SK1
62
256
6
ByLayer
370
-1
48
1
60
0
100
AcDbSpline
70
4
71
3
72
8
73
4
40
0
40
0
40
0
40
0
40
1
40
1
40
1
40
1
41
1
10
-1.49999999999994
20
13.6354046768691
30
0
41
1
10
-1.44071565363043
20
13.7033136427551
30
0
41
1
10
-1.37519864922129
20
13.7509480842751
30
0
41
1
10
-1.30710678118652
20
13.7816169419687
30
0
0
SPLINE
5
150
100
AcDbEntity
8
SK1
62
256
6
ByLayer
370
-1
48
1
60
0
100
AcDbSpline
70
4
71
3
72
24
73
20
40
0
40
0
40
0
40
0
40
0.0301187499953203
40
0.0301187499953203
40
0.0534018365053555
40
0.0534018365053555
40
0.0719408910761614
40
0.0719408910761614
40
0.0904791533301793
40
0.0904791533301793
40
0.116174592447884
40
0.116174592447884
40
0.162377423921534
40
0.162377423921534
40
0.308559543339506
40
0.308559543339506
40
0.919447305589682
40
0.919447305589682
40
1
40
1
40
1
40
1
41
1
10
-0.400000000000006
20
8.93744051686696
30
0
41
1
10
-0.394021907363538
20
8.94300591619313
30
0
41
1
10
-0.387455721931559
20
8.94832539136738
30
0
41
1
10
-0.374642088260146
20
8.95639727880831
30
0
41
1
10
-0.368537871169394
20
8.95950751746429
30
0
41
1
10
-0.357135762582004
20
8.96346523453994
30
0
41
1
10
-0.351815344406219
20
8.96466028975536
30
0
41
1
10
-0.341502023901597
20
8.96557373731753
30
0
41
1
10
-0.336394085703148
20
8.96530581233228
30
0
41
1
10
-0.325180811064627
20
8.963264364498
30
0
41
1
10
-0.319244979015537
20
8.96096385937881
30
0
41
1
10
-0.304601528202028
20
8.95300955369811
30
0
41
1
10
-0.296991891221495
20
8.94608578218973
30
0
41
1
10
-0.269994031066375
20
8.9153789217676
30
0
41
1
10
-0.258147468665214
20
8.886614666924
30
0
41
1
10
-0.207929604819299
20
8.73701168708993
30
0
41
1
10
-0.202635974171216
20
8.60016457500396
30
0
41
1
10
-0.200138743205685
20
8.44420301851957
30
0
41
1
10
-0.199999999999989
20
8.42588603316696
30
0
41
1
10
-0.199999999999989
20
8.40750014849772
30
0
0
SPLINE
5
151
100
AcDbEntity
8
SK1
62
256
6
ByLayer
370
-1
48
1
60
0
100
AcDbSpline
70
4
71
3
72
8
73
4
40
0
40
0
40
0
40
0
40
1
40
1
40
1
40
1
41
1
10
-1.30710678118655
20
-13.7816170399177
30
0
41
1
10
-1.37519841462441
20
-13.7509478976379
30
0
41
1
10
-1.44071553653529
20
-13.7033135347957
30
0
41
1
10
-1.49999999999994
20
-13.6354046322643
30
0
0
SPLINE
5
152
100
AcDbEntity
8
SK1
62
256
6
ByLayer
370
-1
48
1
60
0
100
AcDbSpline
70
4
71
3
72
22
73
18
40
0
40
0
40
0
40
0
40
0.0453655052169124
40
0.0453655052169124
40
0.0914751972597736
40
0.0914751972597736
40
0.124383747115286
40
0.124383747115286
40
0.157201546581
40
0.157201546581
40
0.206974440260693
40
0.206974440260693
40
0.302545938025688
40
0.302545938025688
40
0.6333466355802
40
0.6333466355802
40
1
40
1
40
1
40
1
41
1
10
-0.400000000000006
20
-8.9374404894146
30
0
41
1
10
-0.420955366999294
20
-8.91793177101306
30
0
41
1
10
-0.443867507390905
20
-8.89971071918933
30
0
41
1
10
-0.494451685351294
20
-8.86916072101909
30
0
41
1
10
-0.522939586966487
20
-8.85665244562733
30
0
41
1
10
-0.574321971460336
20
-8.84554736348585
30
0
41
1
10
-0.596982832349738
20
-8.8440070091323
30
0
41
1
10
-0.640939778009113
20
-8.84782790232856
30
0
41
1
10
-0.662719990227458
20
-8.85316417158947
30
0
41
1
10
-0.713600983107909
20
-8.87255730134007
30
0
41
1
10
-0.74167041300791
20
-8.88976150791842
30
0
41
1
10
-0.814730389755397
20
-8.9461845054656
30
0
41
1
10
-0.8540406612087
20
-8.99185407022631
30
0
41
1
10
-1.00654757593853
20
-9.20045912315467
30
0
41
1
10
-1.07885637711374
20
-9.3843002896177
30
0
41
1
10
-1.2104770921195
20
-9.76283328980907
30
0
41
1
10
-1.2630181680241
20
-9.96333687278891
30
0
41
1
10
-1.30710678118703
20
-10.1604677237643
30
0
0
SPLINE
5
153
100
AcDbEntity
8
SK1
62
256
6
ByLayer
370
-1
48
1
60
0
100
AcDbSpline
70
4
71
3
72
38
73
34
40
0
40
0
40
0
40
0
40
0.0138492174306019
40
0.0485742736700941
40
0.0832993299095862
40
0.118024386149078
40
0.152749442388571
40
0.187474498628063
40
0.222199554867555
40
0.256924611107047
40
0.291649667346539
40
0.326374723586031
40
0.361099779825524
40
0.395824836065016
40
0.430549892304508
40
0.465274948544
40
0.500000004783492
40
0.500000004783492
40
0.534725061022985
40
0.569450117262477
40
0.604175173501969
40
0.638900229741461
40
0.673625285980953
40
0.708350342220446
40
0.743075398459938
40
0.77780045469943
40
0.812525510938922
40
0.847250567178414
40
0.881975623417907
40
0.916700679657399
40
0.951425735896891
40
0.986150792136383
40
1
40
1
40
1
40
1
41
1
10
-1.49999999999997
20
11.0432567601295
30
0
41
1
10
-1.49999999999997
20
10.9933963464676
30
0
41
1
10
-1.49999999999997
20
10.8139061462322
30
0
41
1
10
-1.49999999999997
20
10.4772329840777
30
0
41
1
10
-1.49999999999997
20
10.0002270171547
30
0
41
1
10
-1.49999999999997
20
9.46387613701771
30
0
41
1
10
-1.49999999999997
20
8.86594532257436
30
0
41
1
10
-1.49999999999997
20
8.2055049624397
30
0
41
1
10
-1.49999999999997
20
7.4830455794108
30
0
41
1
10
-1.49999999999997
20
6.70053905030551
30
0
41
1
10
-1.49999999999997
20
5.86145096507065
30
0
41
1
10
-1.49999999999997
20
4.97069843174813
30
0
41
1
10
-1.5
20
4.03455626181523
30
0
41
1
10
-1.5
20
3.06051612943
30
0
41
1
10
-1.5
20
2.05709815871373
30
0
41
1
10
-1.5
20
1.03363245164445
30
0
41
1
10
-1.5
20
0.345518014343639
30
0
41
1
10
-1.5
20
-0.345517792546587
30
0
41
1
10
-1.5
20
-1.0336320472187
30
0
41
1
10
-1.5
20
-2.05709849418429
30
0
41
1
10
-1.5
20
-3.06051572360622
30
0
41
1
10
-1.5
20
-4.03455642760309
30
0
41
1
10
-1.49999999999997
20
-4.97069813204988
30
0
41
1
10
-1.49999999999997
20
-5.86145109305212
30
0
41
1
10
-1.49999999999997
20
-6.70053886646519
30
0
41
1
10
-1.49999999999997
20
-7.48304564481663
30
0
41
1
10
-1.49999999999997
20
-8.20550490435011
30
0
41
1
10
-1.49999999999997
20
-8.86594532533073
30
0
41
1
10
-1.49999999999997
20
-9.46387619819615
30
0
41
1
10
-1.49999999999997
20
-10.0002269636989
30
0
41
1
10
-1.49999999999997
20
-10.4772331424557
30
0
41
1
10
-1.49999999999997
20
-10.8139060623048
30
0
41
1
10
-1.49999999999997
20
-10.9933962749838
30
0
41
1
10
-1.49999999999997
20
-11.0432566657553
30
0
0
LINE
5
47
100
AcDbEntity
8
1
62
256
6
ByLayer
370
-1
48
1
60
0
100
AcDbLine
10
0.3
20
20
30
0
11
0
21
19.7
31
0
39
0
210
0
220
0
230
1
0
LINE
5
49
100
AcDbEntity
8
1
62
256
6
ByLayer
370
-1
48
1
60
0
100
AcDbLine
10
0
20
-19.7
30
0
11
0.3
21
-20
31
0
39
0
210
0
220
0
230
1
0
LINE
5
4A
100
AcDbEntity
8
1
62
256
6
ByLayer
370
-1
48
1
60
0
100
AcDbLine
10
19.5
20
-20
30
0
11
22.477072
21
-8.889417
31
0
39
0
210
0
220
0
230
1
0
LINE
5
4B
100
AcDbEntity
8
1
62
256
6
ByLayer
370
-1
48
1
60
0
100
AcDbLine
10
22.477072
20
8.889417
30
0
11
19.5
21
20
31
0
39
0
210
0
220
0
230
1
0
LINE
5
4C
100
AcDbEntity
8
1
62
256
6
ByLayer
370
-1
48
1
60
0
100
AcDbLine
10
19.5
20
20
30
0
11
0.3
21
20
31
0
39
0
210
0
220
0
230
1
0
LINE
5
4D
100
AcDbEntity
8
1
62
256
6
ByLayer
370
-1
48
1
60
0
100
AcDbLine
10
0.3
20
-20
30
0
11
19.5
21
-20
31
0
39
0
210
0
220
0
230
1
0
LINE
5
4E
100
AcDbEntity
8
1
62
256
6
ByLayer
370
-1
48
1
60
0
100
AcDbLine
10
47.050412
20
-8.01
30
0
11
47.299571
21
-8.01
31
0
39
0
210
0
220
0
230
1
0
LINE
5
4F
100
AcDbEntity
8
1
62
256
6
ByLayer
370
-1
48
1
60
0
100
AcDbLine
10
23.636183
20
-8
30
0
11
46.924316
21
-8
31
0
39
0
210
0
220
0
230
1
0
LINE
5
50
100
AcDbEntity
8
1
62
256
6
ByLayer
370
-1
48
1
60
0
100
AcDbLine
10
46.924316
20
8
30
0
11
23.636183
21
8
31
0
39
0
210
0
220
0
230
1
0
LINE
5
51
100
AcDbEntity
8
1
62
256
6
ByLayer
370
-1
48
1
60
0
100
AcDbLine
10
48.684825
20
9.653514
30
0
11
47.537152
21
8.28577
31
0
39
0
210
0
220
0
230
1
0
LINE
5
52
100
AcDbEntity
8
1
62
256
6
ByLayer
370
-1
48
1
60
0
100
AcDbLine
10
58.543647
20
6.416393
30
0
11
58.555887
21
6.604288
31
0
39
0
210
0
220
0
230
1
0
LINE
5
53
100
AcDbEntity
8
1
62
256
6
ByLayer
370
-1
48
1
60
0
100
AcDbLine
10
55.113184
20
6.828557
30
0
11
55.100944
21
6.640662
31
0
39
0
210
0
220
0
230
1
0
LINE
5
54
100
AcDbEntity
8
1
62
256
6
ByLayer
370
-1
48
1
60
0
100
AcDbLine
10
59.797984
20
1.728624
30
0
11
59.851508
21
2.550258
31
0
39
0
210
0
220
0
230
1
0
LINE
5
55
100
AcDbEntity
8
1
62
256
6
ByLayer
370
-1
48
1
60
0
100
AcDbLine
10
51.624569
20
6.249771
30
0
11
51.571045
21
5.428138
31
0
39
0
210
0
220
0
230
1
0
LINE
5
56
100
AcDbEntity
8
4
62
256
6
ByLayer
370
-1
48
0.05
60
0
100
AcDbLine
10
0
20
0
30
0
11
60
21
0
31
0
39
0
210
0
220
0
230
1
0
LINE
5
58
100
AcDbEntity
8
SK4
62
256
6
ByLayer
370
-1
48
0.05
60
0
100
AcDbLine
10
-29
20
0
30
0
11
65
21
0
31
0
39
0
210
0
220
0
230
1
0
LINE
5
5A
100
AcDbEntity
8
80
62
256
6
ByLayer
370
-1
48
1
60
0
100
AcDbLine
10
0
20
0
30
0
11
-5
21
0
31
0
39
0
210
0
220
0
230
1
0
LINE
5
5B
100
AcDbEntity
8
81
62
256
6
ByLayer
370
-1
48
1
60
0
100
AcDbLine
10
60
20
11.875
30
0
11
65
21
11.875
31
0
39
0
210
0
220
0
230
1
0
LINE
5
5C
100
AcDbEntity
8
1
62
256
6
ByLayer
370
-1
48
1
60
0
100
AcDbLine
10
47.242655
20
6.10464
30
0
11
46.277744
21
7.723408
31
0
39
0
210
0
220
0
230
1
0
LINE
5
5D
100
AcDbEntity
8
1
62
256
6
ByLayer
370
-1
48
1
60
0
100
AcDbLine
10
6.663397
20
-19.024574
30
0
11
6.663397
21
-6.16973
31
0
39
0
210
0
220
0
230
1
0
LINE
5
5E
100
AcDbEntity
8
1
62
256
6
ByLayer
370
-1
48
1
60
0
100
AcDbLine
10
55.257248
20
9.544874
30
0
11
55.257248
21
9.250399
31
0
39
0
210
0
220
0
230
1
0
LINE
5
5F
100
AcDbEntity
8
1
62
256
6
ByLayer
370
-1
48
1
60
0
100
AcDbLine
10
54.883814
20
9.694052
30
0
11
48.744343
21
9.720843
31
0
39
0
210
0
220
0
230
1
0
LINE
5
60
100
AcDbEntity
8
1
62
256
6
ByLayer
370
-1
48
1
60
0
100
AcDbLine
10
51.347249
20
7.387081
30
0
11
54.883814
21
9.304637
31
0
39
0
210
0
220
0
230
1
0
LINE
5
61
100
AcDbEntity
8
1
62
256
6
ByLayer
370
-1
48
1
60
0
100
AcDbLine
10
51.293092
20
7.26544
30
0
11
54.853318
21
9.195825
31
0
39
0
210
0
220
0
230
1
0
LINE
5
62
100
AcDbEntity
8
1
62
256
6
ByLayer
370
-1
48
1
60
0
100
AcDbLine
10
9.076795
20
5.85989
30
0
11
6.923205
21
5.85989
31
0
39
0
210
0
220
0
230
1
0
LINE
5
63
100
AcDbEntity
8
1
62
256
6
ByLayer
370
-1
48
1
60
0
100
AcDbLine
10
52.309494
20
7.433581
30
0
11
51.831308
21
7.174305
31
0
39
0
210
0
220
0
230
1
0
LINE
5
64
100
AcDbEntity
8
1
62
256
6
ByLayer
370
-1
48
1
60
0
100
AcDbLine
10
54.951618
20
9.546208
30
0
11
54.951618
21
9.113179
31
0
39
0
210
0
220
0
230
1
0
LINE
5
65
100
AcDbEntity
8
1
62
256
6
ByLayer
370
-1
48
1
60
0
100
AcDbLine
10
54.853318
20
9.195825
30
0
11
54.951618
21
9.113179
31
0
39
0
210
0
220
0
230
1
0
LINE
5
66
100
AcDbEntity
8
1
62
256
6
ByLayer
370
-1
48
1
60
0
100
AcDbLine
10
53.844455
20
-4.970766
30
0
11
53.349639
21
-5.200542
31
0
39
0
210
0
220
0
230
1
0
LINE
5
67
100
AcDbEntity
8
1
62
256
6
ByLayer
370
-1
48
1
60
0
100
AcDbLine
10
6.923205
20
-19.122283
30
0
11
6.923205
21
-5.85989
31
0
39
0
210
0
220
0
230
1
0
LINE
5
68
100
AcDbEntity
8
1
62
256
6
ByLayer
370
-1
48
1
60
0
100
AcDbLine
10
9.076795
20
-19.122283
30
0
11
6.923205
21
-19.122283
31
0
39
0
210
0
220
0
230
1
0
LINE
5
69
100
AcDbEntity
8
1
62
256
6
ByLayer
370
-1
48
1
60
0
100
AcDbLine
10
59.760281
20
1.151268
30
0
11
53.257691
21
4.806507
31
0
39
0
210
0
220
0
230
1
0
LINE
5
6A
100
AcDbEntity
8
1
62
256
6
ByLayer
370
-1
48
1
60
0
100
AcDbLine
10
53.167058
20
4.675755
30
0
11
59.76989
21
0.964167
31
0
39
0
210
0
220
0
230
1
0
LINE
5
6B
100
AcDbEntity
8
1
62
256
6
ByLayer
370
-1
48
1
60
0
100
AcDbLine
10
47.299571
20
-8.01
30
0
11
53.349639
21
-5.200542
31
0
39
0
210
0
220
0
230
1
0
LINE
5
6C
100
AcDbEntity
8
1
62
256
6
ByLayer
370
-1
48
1
60
0
100
AcDbLine
10
6.663397
20
6.16973
30
0
11
6.663397
21
19.024574
31
0
39
0
210
0
220
0
230
1
0
LINE
5
6D
100
AcDbEntity
8
1
62
256
6
ByLayer
370
-1
48
1
60
0
100
AcDbLine
10
59.721508
20
1.173122
30
0
11
59.721508
21
1.587999
31
0
39
0
210
0
220
0
230
1
0
LINE
5
6E
100
AcDbEntity
8
1
62
256
6
ByLayer
370
-1
48
1
60
0
100
AcDbLine
10
59.721508
20
2.833758
30
0
11
59.721508
21
3.311689
31
0
39
0
210
0
220
0
230
1
0
LINE
5
6F
100
AcDbEntity
8
1
62
256
6
ByLayer
370
-1
48
1
60
0
100
AcDbLine
10
51.483666
20
7.232826
30
0
11
54.951618
21
9.113179
31
0
39
0
210
0
220
0
230
1
0
LINE
5
70
100
AcDbEntity
8
1
62
256
6
ByLayer
370
-1
48
1
60
0
100
AcDbLine
10
6.923205
20
-5.85989
30
0
11
9.076795
21
-5.85989
31
0
39
0
210
0
220
0
230
1
0
LINE
5
71
100
AcDbEntity
8
1
62
256
6
ByLayer
370
-1
48
1
60
0
100
AcDbLine
10
0.3
20
0
30
0
11
0.3
21
-20
31
0
39
0
210
0
220
0
230
1
0
LINE
5
72
100
AcDbEntity
8
1
62
256
6
ByLayer
370
-1
48
1
60
0
100
AcDbLine
10
0.3
20
20
30
0
11
0.3
21
0
31
0
39
0
210
0
220
0
230
1
0
LINE
5
73
100
AcDbEntity
8
1
62
256
6
ByLayer
370
-1
48
1
60
0
100
AcDbLine
10
54.951618
20
9.546208
30
0
11
54.883814
21
9.564359
31
0
39
0
210
0
220
0
230
1
0
LINE
5
74
100
AcDbEntity
8
1
62
256
6
ByLayer
370
-1
48
1
60
0
100
AcDbLine
10
9.336603
20
-19.024574
30
0
11
9.336603
21
-6.16973
31
0
39
0
210
0
220
0
230
1
0
LINE
5
75
100
AcDbEntity
8
1
62
256
6
ByLayer
370
-1
48
1
60
0
100
AcDbLine
10
19.5
20
-20
30
0
11
19.5
21
0
31
0
39
0
210
0
220
0
230
1
0
LINE
5
76
100
AcDbEntity
8
1
62
256
6
ByLayer
370
-1
48
1
60
0
100
AcDbLine
10
19.5
20
0
30
0
11
19.5
21
20
31
0
39
0
210
0
220
0
230
1
0
LINE
5
77
100
AcDbEntity
8
1
62
256
6
ByLayer
370
-1
48
1
60
0
100
AcDbLine
10
6.923205
20
5.85989
30
0
11
6.923205
21
19.122283
31
0
39
0
210
0
220
0
230
1
0
LINE
5
78
100
AcDbEntity
8
1
62
256
6
ByLayer
370
-1
48
1
60
0
100
AcDbLine
10
54.951618
20
9.546208
30
0
11
55.257248
21
9.544874
31
0
39
0
210
0
220
0
230
1
0
LINE
5
79
100
AcDbEntity
8
1
62
256
6
ByLayer
370
-1
48
1
60
0
100
AcDbLine
10
59.760281
20
0.969571
30
0
11
59.760281
21
1.151268
31
0
39
0
210
0
220
0
230
1
0
LINE
5
7A
100
AcDbEntity
8
1
62
256
6
ByLayer
370
-1
48
1
60
0
100
AcDbLine
10
9.336603
20
6.16973
30
0
11
9.336603
21
19.024574
31
0
39
0
210
0
220
0
230
1
0
LINE
5
7B
100
AcDbEntity
8
1
62
256
6
ByLayer
370
-1
48
1
60
0
100
AcDbLine
10
23.636183
20
-8
30
0
11
23.636183
21
0
31
0
39
0
210
0
220
0
230
1
0
LINE
5
7C
100
AcDbEntity
8
1
62
256
6
ByLayer
370
-1
48
1
60
0
100
AcDbLine
10
23.636183
20
0
30
0
11
23.636183
21
8
31
0
39
0
210
0
220
0
230
1
0
LINE
5
7D
100
AcDbEntity
8
1
62
256
6
ByLayer
370
-1
48
1
60
0
100
AcDbLine
10
54.765904
20
-4.542874
30
0
11
53.844457
21
-4.970765
31
0
39
0
210
0
220
0
230
1
0
LINE
5
7E
100
AcDbEntity
8
1
62
256
6
ByLayer
370
-1
48
1
60
0
100
AcDbLine
10
6.923205
20
19.122283
30
0
11
9.076795
21
19.122283
31
0
39
0
210
0
220
0
230
1
0
LINE
5
7F
100
AcDbEntity
8
1
62
256
6
ByLayer
370
-1
48
1
60
0
100
AcDbLine
10
59.76989
20
-2.219183
30
0
11
54.765904
21
-4.542874
31
0
39
0
210
0
220
0
230
1
0
LINE
5
80
100
AcDbEntity
8
1
62
256
6
ByLayer
370
-1
48
1
60
0
100
AcDbLine
10
59.76989
20
0.964167
30
0
11
59.76989
21
-2.219183
31
0
39
0
210
0
220
0
230
1
0
LINE
5
81
100
AcDbEntity
8
1
62
256
6
ByLayer
370
-1
48
1
60
0
100
AcDbLine
10
46.924316
20
8
30
0
11
46.924316
21
7.95768
31
0
39
0
210
0
220
0
230
1
0
LINE
5
82
100
AcDbEntity
8
1
62
256
6
ByLayer
370
-1
48
1
60
0
100
AcDbLine
10
46.924316
20
0.369164
30
0
11
46.924316
21
-8
31
0
39
0
210
0
220
0
230
1
0
LINE
5
83
100
AcDbEntity
8
1
62
256
6
ByLayer
370
-1
48
1
60
0
100
AcDbLine
10
47.050412
20
-8.01
30
0
11
47.050412
21
0.200486
31
0
39
0
210
0
220
0
230
1
0
LINE
5
84
100
AcDbEntity
8
1
62
256
6
ByLayer
370
-1
48
1
60
0
100
AcDbLine
10
51.639791
20
6.638528
30
0
11
51.926129
21
6.793783
31
0
39
0
210
0
220
0
230
1
0
LINE
5
85
100
AcDbEntity
8
1
62
256
6
ByLayer
370
-1
48
1
60
0
100
AcDbLine
10
9.076795
20
-19.122283
30
0
11
9.076795
21
-5.85989
31
0
39
0
210
0
220
0
230
1
0
LINE
5
86
100
AcDbEntity
8
1
62
256
6
ByLayer
370
-1
48
1
60
0
100
AcDbLine
10
0
20
19.7
30
0
11
0
21
-19.7
31
0
39
0
210
0
220
0
230
1
0
LINE
5
87
100
AcDbEntity
8
1
62
256
6
ByLayer
370
-1
48
1
60
0
100
AcDbLine
10
53.844455
20
-4.970766
30
0
11
48.70508
21
3.651226
31
0
39
0
210
0
220
0
230
1
0
LINE
5
88
100
AcDbEntity
8
1
62
256
6
ByLayer
370
-1
48
1
60
0
100
AcDbLine
10
54.765904
20
-4.542874
30
0
11
47.264413
21
8.041883
31
0
39
0
210
0
220
0
230
1
0
LINE
5
89
100
AcDbEntity
8
1
62
256
6
ByLayer
370
-1
48
1
60
0
100
AcDbLine
10
51.784642
20
6.581123
30
0
11
51.805479
21
6.59242
31
0
39
0
210
0
220
0
230
1
0
LINE
5
8A
100
AcDbEntity
8
1
62
256
6
ByLayer
370
-1
48
1
60
0
100
AcDbLine
10
47.537152
20
8.28577
30
0
11
47.537152
21
8.25801
31
0
39
0
210
0
220
0
230
1
0
LINE
5
8B
100
AcDbEntity
8
1
62
256
6
ByLayer
370
-1
48
1
60
0
100
AcDbLine
10
54.883814
20
9.694052
30
0
11
54.883814
21
9.304637
31
0
39
0
210
0
220
0
230
1
0
LINE
5
8C
100
AcDbEntity
8
1
62
256
6
ByLayer
370
-1
48
1
60
0
100
AcDbLine
10
22.477072
20
-8.889417
30
0
11
22.477072
21
8.889417
31
0
39
0
210
0
220
0
230
1
0
LINE
5
8D
100
AcDbEntity
8
1
62
256
6
ByLayer
370
-1
48
1
60
0
100
AcDbLine
10
54.883814
20
9.304637
30
0
11
54.853318
21
9.195825
31
0
39
0
210
0
220
0
230
1
0
LINE
5
8E
100
AcDbEntity
8
1
62
256
6
ByLayer
370
-1
48
1
60
0
100
AcDbLine
10
9.076795
20
5.85989
30
0
11
9.076795
21
19.122283
31
0
39
0
210
0
220
0
230
1
0
LINE
5
8F
100
AcDbEntity
8
1
62
256
6
ByLayer
370
-1
48
1
60
0
100
AcDbLine
10
55.955714
20
6.261063
30
0
11
55.968785
21
6.46172
31
0
39
0
210
0
220
0
230
1
0
LINE
5
90
100
AcDbEntity
8
1
62
256
6
ByLayer
370
-1
48
1
60
0
100
AcDbLine
10
59.053211
20
1.548713
30
0
11
59.596085
21
1.546344
31
0
39
0
210
0
220
0
230
1
0
LINE
5
91
100
AcDbEntity
8
1
62
256
6
ByLayer
370
-1
48
1
60
0
100
AcDbLine
10
57.985802
20
2.148736
30
0
11
58.000553
21
2.375173
31
0
39
0
210
0
220
0
230
1
0
LINE
5
92
100
AcDbEntity
8
1
62
256
6
ByLayer
370
-1
48
1
60
0
100
AcDbLine
10
53.381744
20
4.736772
30
0
11
53.396495
21
4.963209
31
0
39
0
210
0
220
0
230
1
0
LINE
5
93
100
AcDbEntity
8
1
62
256
6
ByLayer
370
-1
48
1
60
0
100
AcDbLine
10
59.461311
20
3.270182
30
0
11
59.511549
21
4.041388
31
0
39
0
210
0
220
0
230
1
0
LINE
5
94
100
AcDbEntity
8
1
62
256
6
ByLayer
370
-1
48
1
60
0
100
AcDbLine
10
59.665921
20
3.218847
30
0
11
59.491451
21
3.219608
31
0
39
0
210
0
220
0
230
1
0
LINE
5
95
100
AcDbEntity
8
1
62
256
6
ByLayer
370
-1
48
1
60
0
100
AcDbLine
10
53.102128
20
4.545622
30
0
11
53.062416
21
4.612244
31
0
39
0
210
0
220
0
230
1
0
LINE
5
96
100
AcDbEntity
8
SK1
62
256
6
ByLayer
370
-1
48
1
60
0
100
AcDbLine
10
-0.2
20
14.083485
30
0
11
-0.2
21
13.986196
31
0
39
0
210
0
220
0
230
1
0
LINE
5
98
100
AcDbEntity
8
SK1
62
256
6
ByLayer
370
-1
48
1
60
0
100
AcDbLine
10
-0.2
20
-14.083485
30
0
11
-0.2
21
-13.986196
31
0
39
0
210
0
220
0
230
1
0
LINE
5
99
100
AcDbEntity
8
SK1
62
256
6
ByLayer
370
-1
48
1
60
0
100
AcDbLine
10
-19.8
20
-2.848261
30
0
11
-19.8
21
2.84826
31
0
39
0
210
0
220
0
230
1
0
LINE
5
9A
100
AcDbEntity
8
1
62
256
6
ByLayer
370
-1
48
1
60
0
100
AcDbLine
10
60
20
9.644589
30
0
11
60
21
4.508701
31
0
39
0
210
0
220
0
230
1
0
LINE
5
9B
100
AcDbEntity
8
1
62
256
6
ByLayer
370
-1
48
1
60
0
100
AcDbLine
10
52.910728
20
5.214588
30
0
11
52.964251
21
6.036221
31
0
39
0
210
0
220
0
230
1
0
LINE
5
9C
100
AcDbEntity
8
1
62
256
6
ByLayer
370
-1
48
1
60
0
100
AcDbLine
10
59.946476
20
3.687067
30
0
11
60
21
4.508701
31
0
39
0
210
0
220
0
230
1
0
LINE
5
9D
100
AcDbEntity
8
1
62
256
6
ByLayer
370
-1
48
1
60
0
100
AcDbLine
10
53.11594
20
5.433878
30
0
11
53.219888
21
5.607357
31
0
39
0
210
0
220
0
230
1
0
LINE
5
9E
100
AcDbEntity
8
1
62
256
6
ByLayer
370
-1
48
1
60
0
100
AcDbLine
10
52.910728
20
5.214588
30
0
11
51.772944
21
5.219553
31
0
39
0
210
0
220
0
230
1
0
LINE
5
9F
100
AcDbEntity
8
1
62
256
6
ByLayer
370
-1
48
1
60
0
100
AcDbLine
10
52.475801
20
7.711161
30
0
11
57.079858
21
10.259014
31
0
39
0
210
0
220
0
230
1
0
LINE
5
A0
100
AcDbEntity
8
1
62
256
6
ByLayer
370
-1
48
1
60
0
100
AcDbLine
10
57.640969
20
10.256565
30
0
11
57.744916
21
10.082179
31
0
39
0
210
0
220
0
230
1
0
LINE
5
A1
100
AcDbEntity
8
1
62
256
6
ByLayer
370
-1
48
1
60
0
100
AcDbLine
10
58.000553
20
2.375173
30
0
11
59.649609
21
2.367977
31
0
39
0
210
0
220
0
230
1
0
LINE
5
A2
100
AcDbEntity
8
1
62
256
6
ByLayer
370
-1
48
1
60
0
100
AcDbLine
10
52.964251
20
6.036221
30
0
11
51.826468
21
6.041186
31
0
39
0
210
0
220
0
230
1
0
LINE
5
A3
100
AcDbEntity
8
1
62
256
6
ByLayer
370
-1
48
1
60
0
100
AcDbLine
10
53.396495
20
4.963209
30
0
11
53.11594
21
5.433878
31
0
39
0
210
0
220
0
230
1
0
LINE
5
A4
100
AcDbEntity
8
1
62
256
6
ByLayer
370
-1
48
1
60
0
100
AcDbLine
10
60
20
4.508701
30
0
11
59.719445
21
4.04048
31
0
39
0
210
0
220
0
230
1
0
LINE
5
A5
100
AcDbEntity
8
1
62
256
6
ByLayer
370
-1
48
1
60
0
100
AcDbLine
10
53.396495
20
4.963209
30
0
11
58.000553
21
2.375173
31
0
39
0
210
0
220
0
230
1
0
LINE
5
A6
100
AcDbEntity
8
1
62
256
6
ByLayer
370
-1
48
1
60
0
100
AcDbLine
10
59.596085
20
1.546344
30
0
11
59.649609
21
2.367977
31
0
39
0
210
0
220
0
230
1
0
LINE
5
A7
100
AcDbEntity
8
1
62
256
6
ByLayer
370
-1
48
1
60
0
100
AcDbLine
10
58.256189
20
10.079948
30
0
11
58.825081
21
11.029375
31
0
39
0
210
0
220
0
230
1
0
LINE
5
A8
100
AcDbEntity
8
1
62
256
6
ByLayer
370
-1
48
1
60
0
100
AcDbLine
10
53.062416
20
4.612244
30
0
11
53.11594
21
5.433878
31
0
39
0
210
0
220
0
230
1
0
LINE
5
A9
100
AcDbEntity
8
1
62
256
6
ByLayer
370
-1
48
1
60
0
100
AcDbLine
10
51.772944
20
5.219553
30
0
11
51.826468
21
6.041186
31
0
39
0
210
0
220
0
230
1
0
LINE
5
AA
100
AcDbEntity
8
1
62
256
6
ByLayer
370
-1
48
1
60
0
100
AcDbLine
10
59.255913
20
3.614754
30
0
11
59.824805
21
2.660362
31
0
39
0
210
0
220
0
230
1
0
LINE
5
AB
100
AcDbEntity
8
1
62
256
6
ByLayer
370
-1
48
1
60
0
100
AcDbLine
10
59.946476
20
3.687067
30
0
11
59.665921
21
3.218847
31
0
39
0
210
0
220
0
230
1
0
LINE
5
AC
100
AcDbEntity
8
1
62
256
6
ByLayer
370
-1
48
1
60
0
100
AcDbLine
10
59.665921
20
3.218847
30
0
11
59.719445
21
4.04048
31
0
39
0
210
0
220
0
230
1
0
LINE
5
AD
100
AcDbEntity
8
1
62
256
6
ByLayer
370
-1
48
1
60
0
100
AcDbLine
10
52.475801
20
7.711161
30
0
11
51.651273
21
6.3351
31
0
39
0
210
0
220
0
230
1
0
LINE
5
AE
100
AcDbEntity
8
1
62
256
6
ByLayer
370
-1
48
1
60
0
100
AcDbLine
10
59.719445
20
4.04048
30
0
11
59.511549
21
4.041388
31
0
39
0
210
0
220
0
230
1
0
LINE
5
AF
100
AcDbEntity
8
1
62
256
6
ByLayer
370
-1
48
1
60
0
100
AcDbLine
10
60
20
9.644589
30
0
11
59.175472
21
11.027846
31
0
39
0
210
0
220
0
230
1
0
LINE
5
B0
100
AcDbEntity
8
1
62
256
6
ByLayer
370
-1
48
1
60
0
100
AcDbLine
10
57.079858
20
10.259014
30
0
11
57.640969
21
10.256565
31
0
39
0
210
0
220
0
230
1
0
LINE
5
B1
100
AcDbEntity
8
1
62
256
6
ByLayer
370
-1
48
1
60
0
100
AcDbLine
10
57.582035
20
6.742545
30
0
11
57.567971
21
6.526643
31
0
39
0
210
0
220
0
230
1
0
LINE
5
B2
100
AcDbEntity
8
1
62
256
6
ByLayer
370
-1
48
1
60
0
100
AcDbLine
10
57.567971
20
6.472133
30
0
11
57.582035
21
6.688035
31
0
39
0
210
0
220
0
230
1
0
LINE
5
B3
100
AcDbEntity
8
1
62
256
6
ByLayer
370
-1
48
1
60
0
100
AcDbLine
10
56.087313
20
6.694558
30
0
11
56.073248
21
6.478655
31
0
39
0
210
0
220
0
230
1
0
LINE
5
B4
100
AcDbEntity
8
1
62
256
6
ByLayer
370
-1
48
1
60
0
100
AcDbLine
10
57.68814
20
6.213038
30
0
11
57.703847
21
6.454149
31
0
39
0
210
0
220
0
230
1
0
LINE
5
B5
100
AcDbEntity
8
1
62
256
6
ByLayer
370
-1
48
1
60
0
100
AcDbLine
10
57.510188
20
7.083833
30
0
11
57.525901
21
7.325029
31
0
39
0
210
0
220
0
230
1
0
LINE
5
B6
100
AcDbEntity
8
1
62
256
6
ByLayer
370
-1
48
1
60
0
100
AcDbLine
10
56.998746
20
7.371042
30
0
11
57.014459
21
7.612239
31
0
39
0
210
0
220
0
230
1
0
LINE
5
B7
100
AcDbEntity
8
1
62
256
6
ByLayer
370
-1
48
1
60
0
100
AcDbLine
10
56.642472
20
7.372597
30
0
11
56.658185
21
7.613794
31
0
39
0
210
0
220
0
230
1
0
LINE
5
B8
100
AcDbEntity
8
1
62
256
6
ByLayer
370
-1
48
1
60
0
100
AcDbLine
10
56.13103
20
7.089851
30
0
11
56.146743
21
7.331048
31
0
39
0
210
0
220
0
230
1
0
LINE
5
B9
100
AcDbEntity
8
SK1
62
256
6
ByLayer
370
-1
48
1
60
0
100
AcDbLine
10
-1.307107
20
-13.781617
30
0
11
-1.307107
21
-10.160468
31
0
39
0
210
0
220
0
230
1
0
LINE
5
BA
100
AcDbEntity
8
SK1
62
256
6
ByLayer
370
-1
48
1
60
0
100
AcDbLine
10
-24
20
-1.938583
30
0
11
-24
21
1.937641
31
0
39
0
210
0
220
0
230
1
0
LINE
5
BB
100
AcDbEntity
8
SK1
62
256
6
ByLayer
370
-1
48
1
60
0
100
AcDbLine
10
-1.307107
20
10.160468
30
0
11
-1.307107
21
13.781617
31
0
39
0
210
0
220
0
230
1
0
LINE
5
BC
100
AcDbEntity
8
SK1
62
256
6
ByLayer
370
-1
48
1
60
0
100
AcDbLine
10
-0.2
20
-8.4075
30
0
11
-0.2
21
8.4075
31
0
39
0
210
0
220
0
230
1
0
MTEXT
5
154
100
AcDbEntity
8
SK6
62
256
6
ByLayer
370
-1
48
1
60
0
100
AcDbMText
10
-11.125
20
-30.875
30
0
210
0
220
0
230
1
1
\W00.724;\fsimplex.shx,bigfont.shx;C4-R166.0KFZ12060-11 
40
3.5
41
0
44
1.084337
50
0
71
7
72
5
7
DEFAULT
0
DIMENSION
5
187
100
AcDbEntity
8
2
62
256
6
ByLayer
370
-3
48
1
60
0
100
AcDbDimension
2
DimnDraft3D1
10
74.25
20
11.875
30
0
11
74.25
21
3.871053
31
0
70
32
71
5
72
1
41
1
210
0
220
0
230
1
3
Standard
100
AcDbAlignedDimension
13
66.5
23
0
33
0
14
61.5
24
11.875
34
0
50
90
100
AcDbRotatedDimension
1001
ACAD
1000
DSTYLE
1002
{
1070
    74
1070
     0
1070
   279
1070
     0
1070
   172
1070
     1
1070
   173
1070
     1
1070
   340
1005
155
1070
   271
1070
     3
1070
   272
1070
     3
1070
    77
1070
     1
1070
    73
1070
     0
1070
   171
1070
     4
1070
   274
1070
     4
1070
   177
1070
     2
1070
   176
1070
     2
1070
   178
1070
     7
1070
    78
1070
     8
1070
    41
1041
3.0
1070
   147
1041
2.25
1070
    42
1041
1.5
1070
    44
1041
3.0
1070
   140
1041
4.5
1070
   343
1005
188
1070
   344
1005
188
1002
}
0
DIMENSION
5
19D
100
AcDbEntity
8
SK2
62
256
6
ByLayer
370
-3
48
1
60
0
100
AcDbDimension
2
DimnDraft3D2
10
-33.75
20
-20
30
0
11
-33.75
21
-5.021053
31
0
70
32
71
5
72
1
41
1
210
0
220
0
230
1
3
Standard
100
AcDbAlignedDimension
13
-1.5
23
20
33
0
14
-1.5
24
-20
34
0
50
90
100
AcDbRotatedDimension
1001
ACAD
1000
DSTYLE
1002
{
1070
    74
1070
     0
1070
   279
1070
     0
1070
   172
1070
     1
1070
   173
1070
     1
1070
   340
1005
155
1070
   271
1070
     3
1070
   272
1070
     3
1070
    77
1070
     1
1070
    73
1070
     0
1070
   171
1070
     4
1070
   274
1070
     4
1070
   177
1070
     2
1070
   176
1070
     2
1070
   178
1070
     7
1070
    78
1070
     8
1070
    41
1041
3.0
1070
   147
1041
2.25
1070
    42
1041
1.5
1070
    44
1041
3.0
1070
   140
1041
4.5
1070
   343
1005
188
1070
   344
1005
188
1002
}
0
DIMENSION
5
1AB
100
AcDbEntity
8
2
62
256
6
ByLayer
370
-3
48
1
60
0
100
AcDbDimension
2
DimnDraft3D3
10
0
20
31.625
30
0
11
27.371053
21
31.625
31
0
70
32
71
5
72
1
41
1
210
0
220
0
230
1
3
Standard
100
AcDbAlignedDimension
13
60
23
13.375
33
0
14
0
24
1.5
34
0
50
0
100
AcDbRotatedDimension
1001
ACAD
1000
DSTYLE
1002
{
1070
   279
1070
     0
1070
   172
1070
     1
1070
   173
1070
     1
1070
   340
1005
155
1070
   271
1070
     3
1070
   272
1070
     3
1070
    77
1070
     1
1070
    73
1070
     0
1070
   171
1070
     4
1070
   274
1070
     4
1070
   177
1070
     2
1070
   176
1070
     2
1070
   178
1070
     7
1070
    78
1070
     8
1070
    41
1041
3.0
1070
   147
1041
2.25
1070
    42
1041
1.5
1070
    44
1041
3.0
1070
   140
1041
4.5
1070
   343
1005
188
1070
   344
1005
188
1002
}
0
DIMENSION
5
1B9
100
AcDbEntity
8
2
62
256
6
ByLayer
370
-3
48
1
60
0
100
AcDbDimension
2
DimnDraft3D4
10
60
20
21.625
30
0
11
38.728748
21
21.625
31
0
70
32
71
5
72
1
41
1
210
0
220
0
230
1
3
Standard
100
AcDbAlignedDimension
13
22.71539
23
13.375
33
0
14
60
24
13.375
34
0
50
0
100
AcDbRotatedDimension
1001
ACAD
1000
DSTYLE
1002
{
1070
   279
1070
     0
1070
   172
1070
     1
1070
   173
1070
     1
1070
   340
1005
155
1070
   271
1070
     3
1070
   272
1070
     3
1070
    77
1070
     1
1070
    73
1070
     0
1070
   171
1070
     4
1070
   274
1070
     4
1070
   177
1070
     2
1070
   176
1070
     2
1070
   178
1070
     7
1070
    78
1070
     8
1070
    41
1041
3.0
1070
   147
1041
2.25
1070
    42
1041
1.5
1070
    44
1041
3.0
1070
   140
1041
4.5
1070
   343
1005
188
1070
   344
1005
188
1002
}
0
ENDSEC
0
SECTION
2
OBJECTS
0
DICTIONARY
5
1ea
330
0
100
AcDbDictionary
280
0
281
1
3
ACAD_GROUP
350
1eb
3
ACAD_MLINESTYLE
350
1ec
0
DICTIONARY
5
1eb
330
0
100
AcDbDictionary
280
0
281
1
0
DICTIONARY
5
1ec
330
0
100
AcDbDictionary
280
0
281
1
3
Standard
350
18
0
MLINESTYLE
5
18
330
1ec
100
AcDbMlineStyle
2
Standard
70
0
3

62
256
51
90
52
90
71
2
49
-0.5
62
256
6
ByLayer
49
0.5
62
256
6
ByLayer
0
RASTERVARIABLES
5
1d8
330

100
AcDbRasterVariables
90
0
70
1
71
1
72
1
0
ENDSEC
0
EOF
