0
SECTION
2
HEADER
9
$ACADVER
1
AC1015
9
$DWGCODEPAGE
3
ANSI_1252
9
$HANDSEED
5
2f6
9
$ANGBASE
50
0
9
$ANGDIR
70
0
9
$ATTMODE
70
1
9
$AUNITS
70
0
9
$AUPREC
70
0
9
$CECOLOR
62
256
9
$CELTSCALE
40
1
9
$CELTYPE
6
ByLayer
9
$CELWEIGHT
370
18
9
$CLAYER
8
0
9
$CMLJUST
70
0
9
$CMLSCALE
40
1
9
$CMLSTYLE
2
Standard
9
$DIMSTYLE
2
Standard
9
$TEXTSIZE
40
0.2
9
$TEXTSTYLE
7
Standard
9
$LUNITS
70
2
9
$LUPREC
70
4
9
$EXTNAMES
290
1
9
$INSUNITS
70
4
9
$LTSCALE
40
1
9
$LWDISPLAY
290
1
9
$PDMODE
70
0
9
$PDSIZE
40
0
9
$PLINEGEN
70
0
0
ENDSEC
0
SECTION
2
CLASSES
0
CLASS
1
RASTERVARIABLES
2
AcDbRasterVariables
3
ISM
90
0
280
0
281
0
0
ENDSEC
0
SECTION
2
TABLES
0
TABLE
2
VPORT
5
2ec
100
AcDbSymbolTable
0
VPORT
5
1
100
AcDbSymbolTableRecord
100
AcDbViewportTableRecord
2
*Active
70
0
10
0
20
0
11
1
21
1
12
-1
22
1
13
0
23
0
14
0.5
24
0.5
15
10
25
10
16
0
26
0
36
1
17
0
27
0
37
0
0
ENDTAB
0
TABLE
2
LTYPE
5
2ed
100
AcDbSymbolTable
0
LTYPE
5
14
100
AcDbSymbolTableRecord
100
AcDbLinetypeTableRecord
70
0
2
ByBlock
3

72
65
73
0
40
0
0
LTYPE
5
15
100
AcDbSymbolTableRecord
100
AcDbLinetypeTableRecord
70
0
2
ByLayer
3

72
65
73
0
40
0
0
LTYPE
5
16
100
AcDbSymbolTableRecord
100
AcDbLinetypeTableRecord
70
0
2
CONTINUOUS
3
Solid line
72
65
73
0
40
0
0
LTYPE
5
6A
100
AcDbSymbolTableRecord
100
AcDbLinetypeTableRecord
70
0
2
CENTER
3
____ _ ____ _ ____ _ ____
72
65
73
4
40
47.5
49
22
74
0
49
-8.5
74
0
49
8.5
74
0
49
-8.5
74
0
0
LTYPE
5
6B
100
AcDbSymbolTableRecord
100
AcDbLinetypeTableRecord
70
0
2
DASHED
3
__ __ __ __ __ __ __ __ __
72
65
73
2
40
25.72
49
12.86
74
0
49
-12.86
74
0
0
ENDTAB
0
TABLE
2
LAYER
5
2ee
100
AcDbSymbolTable
0
LAYER
5
10
100
AcDbSymbolTableRecord
100
AcDbLayerTableRecord
2
0
70
0
62
7
6
CONTINUOUS
290
1
370
-3
390
0
0
LAYER
5
6D
100
AcDbSymbolTableRecord
100
AcDbLayerTableRecord
2
80
70
0
62
-6
6
CONTINUOUS
290
1
370
-3
390
0
0
LAYER
5
6F
100
AcDbSymbolTableRecord
100
AcDbLayerTableRecord
2
81
70
0
62
-3
6
CONTINUOUS
290
1
370
-3
390
0
0
LAYER
5
71
100
AcDbSymbolTableRecord
100
AcDbLayerTableRecord
2
1
70
0
62
4
6
CONTINUOUS
290
1
370
-3
390
0
0
LAYER
5
249
100
AcDbSymbolTableRecord
100
AcDbLayerTableRecord
2
2
70
0
62
7
6
CONTINUOUS
290
1
370
-3
390
0
0
LAYER
5
2d9
100
AcDbSymbolTableRecord
100
AcDbLayerTableRecord
2
SK1
70
0
62
4
6
CONTINUOUS
290
1
370
-3
390
0
0
LAYER
5
2da
100
AcDbSymbolTableRecord
100
AcDbLayerTableRecord
2
SK6
70
0
62
5
6
CONTINUOUS
290
1
370
-3
390
0
0
LAYER
5
2db
100
AcDbSymbolTableRecord
100
AcDbLayerTableRecord
2
SK2
70
0
62
7
6
CONTINUOUS
290
1
370
-3
390
0
0
ENDTAB
0
TABLE
2
STYLE
5
2ef
100
AcDbSymbolTable
0
STYLE
5
11
100
AcDbSymbolTableRecord
100
AcDbTextStyleTableRecord
2
Standard
3
txt
70
0
71
0
40
0
41
1
42
0
50
0
0
STYLE
5
22E
100
AcDbSymbolTableRecord
100
AcDbTextStyleTableRecord
2
iso_b_vert
3
simplex.shx
70
0
71
0
40
0
41
1
42
0
50
0
0
STYLE
5
22F
100
AcDbSymbolTableRecord
100
AcDbTextStyleTableRecord
2
DWGDirectTextStyle
3
simplex
70
0
71
0
40
0
41
1
42
0
50
0
0
ENDTAB
0
TABLE
2
DIMSTYLE
5
2f0
100
AcDbSymbolTable
100
AcDbDimStyleTable
0
DIMSTYLE
105
27
100
AcDbSymbolTableRecord
100
AcDbDimStyleTableRecord
2
Standard
70
0
3
<>
41
0.18
42
0.0625
44
0.18
140
0.18
147
0.09
73
0
74
0
77
1
271
2
275
0
278
52
280
0
340
11
0
ENDTAB
0
TABLE
2
VIEW
5
2f1
100
AcDbSymbolTable
0
ENDTAB
0
TABLE
2
UCS
5
2f2
100
AcDbSymbolTable
0
ENDTAB
0
TABLE
2
APPID
5
2f3
100
AcDbSymbolTable
0
APPID
5
12
100
AcDbSymbolTableRecord
100
AcDbRegAppTableRecord
2
ACAD
70
0
0
ENDTAB
0
TABLE
2
BLOCK_RECORD
5
2f4
100
AcDbSymbolTable
0
BLOCK_RECORD
5
1F
100
AcDbSymbolTableRecord
100
AcDbBlockTableRecord
2
*Model_Space
340
0
70
0
0
BLOCK_RECORD
5
1B
100
AcDbSymbolTableRecord
100
AcDbBlockTableRecord
2
*Paper_Space
340
0
70
0
0
BLOCK_RECORD
5
23
100
AcDbSymbolTableRecord
100
AcDbBlockTableRecord
2
*Paper_Space0
340
0
70
0
0
BLOCK_RECORD
5
231
100
AcDbSymbolTableRecord
100
AcDbBlockTableRecord
2
DimnDraft3D1
340
0
70
0
0
BLOCK_RECORD
5
240
100
AcDbSymbolTableRecord
100
AcDbBlockTableRecord
2
_CLOSED
340
0
70
0
0
BLOCK_RECORD
5
247
100
AcDbSymbolTableRecord
100
AcDbBlockTableRecord
2
DimnDraft3D2
340
0
70
0
0
BLOCK_RECORD
5
256
100
AcDbSymbolTableRecord
100
AcDbBlockTableRecord
2
DimnDraft3D3
340
0
70
0
0
BLOCK_RECORD
5
264
100
AcDbSymbolTableRecord
100
AcDbBlockTableRecord
2
DimnDraft3D4
340
0
70
0
0
BLOCK_RECORD
5
272
100
AcDbSymbolTableRecord
100
AcDbBlockTableRecord
2
DimnDraft3D5
340
0
70
0
0
ENDTAB
0
ENDSEC
0
SECTION
2
BLOCKS
0
BLOCK
5
20
100
AcDbEntity
8
0
100
AcDbBlockBegin
2
*Model_Space
70
0
10
0
20
0
30
0
3
*Model_Space
0
ENDBLK
5
21
100
AcDbEntity
8
0
100
AcDbBlockEnd
0
BLOCK
5
1C
100
AcDbEntity
8
0
100
AcDbBlockBegin
2
*Paper_Space
70
0
10
0
20
0
30
0
3
*Paper_Space
0
ENDBLK
5
1D
100
AcDbEntity
8
0
100
AcDbBlockEnd
0
BLOCK
5
24
100
AcDbEntity
8
0
100
AcDbBlockBegin
2
*Paper_Space0
70
0
10
0
20
0
30
0
3
*Paper_Space0
0
ENDBLK
5
25
100
AcDbEntity
8
0
100
AcDbBlockEnd
0
BLOCK
5
23D
100
AcDbEntity
8
0
100
AcDbBlockBegin
2
DimnDraft3D1
70
0
10
0
20
0
30
0
3
DimnDraft3D1
0
MTEXT
5
232
100
AcDbEntity
8
SK2
62
256
6
ByLayer
370
18
48
1
60
0
100
AcDbMText
10
33.784211
20
43.475
30
0
210
0
220
0
230
1
1
\W0.6740;70
40
3.5
41
0
44
1.084337
50
0
71
7
72
5
7
iso_b_vert
0
LINE
5
234
100
AcDbEntity
8
SK2
62
256
6
ByLayer
370
13
48
1
60
0
100
AcDbLine
10
0
20
2
30
0
11
0
21
44.6
31
0
39
0
210
0
220
0
230
1
0
LINE
5
235
100
AcDbEntity
8
SK2
62
256
6
ByLayer
370
13
48
1
60
0
100
AcDbLine
10
70
20
-25
30
0
11
70
21
44.6
31
0
39
0
210
0
220
0
230
1
0
LINE
5
236
100
AcDbEntity
8
SK2
62
256
6
ByLayer
370
13
48
1
60
0
100
AcDbLine
10
0
20
42.6
30
0
11
70
21
42.6
31
0
39
0
210
0
220
0
230
1
0
LINE
5
237
100
AcDbEntity
8
SK2
62
256
6
ByLayer
370
13
48
1
60
0
100
AcDbLine
10
0
20
42.6
30
0
11
3.174998
21
43.017997
31
0
39
0
210
0
220
0
230
1
0
LINE
5
238
100
AcDbEntity
8
SK2
62
256
6
ByLayer
370
13
48
1
60
0
100
AcDbLine
10
0
20
42.6
30
0
11
3.175002
21
42.182003
31
0
39
0
210
0
220
0
230
1
0
LINE
5
239
100
AcDbEntity
8
SK2
62
256
6
ByLayer
370
13
48
1
60
0
100
AcDbLine
10
3.174998
20
43.017997
30
0
11
3.175002
21
42.182003
31
0
39
0
210
0
220
0
230
1
0
LINE
5
23A
100
AcDbEntity
8
SK2
62
256
6
ByLayer
370
13
48
1
60
0
100
AcDbLine
10
70
20
42.6
30
0
11
66.825002
21
42.182003
31
0
39
0
210
0
220
0
230
1
0
LINE
5
23B
100
AcDbEntity
8
SK2
62
256
6
ByLayer
370
13
48
1
60
0
100
AcDbLine
10
70
20
42.6
30
0
11
66.824998
21
43.017997
31
0
39
0
210
0
220
0
230
1
0
LINE
5
23C
100
AcDbEntity
8
SK2
62
256
6
ByLayer
370
13
48
1
60
0
100
AcDbLine
10
66.825002
20
42.182003
30
0
11
66.824998
21
43.017997
31
0
39
0
210
0
220
0
230
1
0
ENDBLK
5
23E
100
AcDbEntity
8
0
100
AcDbBlockEnd
0
BLOCK
5
241
100
AcDbEntity
8
0
100
AcDbBlockBegin
2
_CLOSED
70
0
10
0
20
0
30
0
3
_CLOSED
0
LINE
5
243
100
AcDbEntity
8
0
62
256
6
ByLayer
370
-2
48
1
60
0
100
AcDbLine
10
-1
20
0.166667
30
0
11
0
21
0
31
0
39
0
210
0
220
0
230
1
0
LINE
5
244
100
AcDbEntity
8
0
62
256
6
ByLayer
370
-2
48
1
60
0
100
AcDbLine
10
0
20
0
30
0
11
-1
21
-0.166667
31
0
39
0
210
0
220
0
230
1
0
LINE
5
245
100
AcDbEntity
8
0
62
256
6
ByLayer
370
-2
48
1
60
0
100
AcDbLine
10
-1
20
0.166667
30
0
11
-1
21
-0.166667
31
0
39
0
210
0
220
0
230
1
0
LINE
5
246
100
AcDbEntity
8
0
62
256
6
ByLayer
370
-2
48
1
60
0
100
AcDbLine
10
0
20
0
30
0
11
-1
21
0
31
0
39
0
210
0
220
0
230
1
0
ENDBLK
5
242
100
AcDbEntity
8
0
100
AcDbBlockEnd
0
BLOCK
5
253
100
AcDbEntity
8
0
100
AcDbBlockBegin
2
DimnDraft3D2
70
0
10
0
20
0
30
0
3
DimnDraft3D2
0
MTEXT
5
248
100
AcDbEntity
8
2
62
256
6
ByLayer
370
18
48
1
60
0
100
AcDbMText
10
52.784211
20
-39.239079
30
0
210
0
220
0
230
1
1
\W0.6740;32
40
3.5
41
0
44
1.084337
50
0
71
7
72
5
7
iso_b_vert
0
LINE
5
24A
100
AcDbEntity
8
2
62
256
6
ByLayer
370
13
48
1
60
0
100
AcDbLine
10
70
20
-29
30
0
11
70
21
-42.114079
31
0
39
0
210
0
220
0
230
1
0
LINE
5
24B
100
AcDbEntity
8
2
62
256
6
ByLayer
370
13
48
1
60
0
100
AcDbLine
10
38
20
-22
30
0
11
38
21
-42.114079
31
0
39
0
210
0
220
0
230
1
0
LINE
5
24C
100
AcDbEntity
8
2
62
256
6
ByLayer
370
13
48
1
60
0
100
AcDbLine
10
70
20
-40.114079
30
0
11
38
21
-40.114079
31
0
39
0
210
0
220
0
230
1
0
LINE
5
24D
100
AcDbEntity
8
2
62
256
6
ByLayer
370
13
48
1
60
0
100
AcDbLine
10
70
20
-40.114079
30
0
11
66.825002
21
-40.532076
31
0
39
0
210
0
220
0
230
1
0
LINE
5
24E
100
AcDbEntity
8
2
62
256
6
ByLayer
370
13
48
1
60
0
100
AcDbLine
10
70
20
-40.114079
30
0
11
66.824998
21
-39.696083
31
0
39
0
210
0
220
0
230
1
0
LINE
5
24F
100
AcDbEntity
8
2
62
256
6
ByLayer
370
13
48
1
60
0
100
AcDbLine
10
66.825002
20
-40.532076
30
0
11
66.824998
21
-39.696083
31
0
39
0
210
0
220
0
230
1
0
LINE
5
250
100
AcDbEntity
8
2
62
256
6
ByLayer
370
13
48
1
60
0
100
AcDbLine
10
38
20
-40.114079
30
0
11
41.174998
21
-39.696083
31
0
39
0
210
0
220
0
230
1
0
LINE
5
251
100
AcDbEntity
8
2
62
256
6
ByLayer
370
13
48
1
60
0
100
AcDbLine
10
38
20
-40.114079
30
0
11
41.175002
21
-40.532076
31
0
39
0
210
0
220
0
230
1
0
LINE
5
252
100
AcDbEntity
8
2
62
256
6
ByLayer
370
13
48
1
60
0
100
AcDbLine
10
41.174998
20
-39.696083
30
0
11
41.175002
21
-40.532076
31
0
39
0
210
0
220
0
230
1
0
ENDBLK
5
254
100
AcDbEntity
8
0
100
AcDbBlockEnd
0
BLOCK
5
261
100
AcDbEntity
8
0
100
AcDbBlockBegin
2
DimnDraft3D3
70
0
10
0
20
0
30
0
3
DimnDraft3D3
0
MTEXT
5
257
100
AcDbEntity
8
SK2
62
256
6
ByLayer
370
18
48
1
60
0
100
AcDbMText
10
-34.475
20
-1.4
30
0
210
0
220
0
230
1
1
\W0.7361;40
40
3.5
41
0
44
1.084337
50
90
71
7
72
5
7
iso_b_vert
0
LINE
5
258
100
AcDbEntity
8
SK2
62
256
6
ByLayer
370
13
48
1
60
0
100
AcDbLine
10
-2
20
-20
30
0
11
-35.6
21
-20
31
0
39
0
210
0
220
0
230
1
0
LINE
5
259
100
AcDbEntity
8
SK2
62
256
6
ByLayer
370
13
48
1
60
0
100
AcDbLine
10
-2
20
20
30
0
11
-35.6
21
20
31
0
39
0
210
0
220
0
230
1
0
LINE
5
25A
100
AcDbEntity
8
SK2
62
256
6
ByLayer
370
13
48
1
60
0
100
AcDbLine
10
-33.6
20
-20
30
0
11
-33.6
21
20
31
0
39
0
210
0
220
0
230
1
0
LINE
5
25B
100
AcDbEntity
8
SK2
62
256
6
ByLayer
370
13
48
1
60
0
100
AcDbLine
10
-33.6
20
-20
30
0
11
-34.017997
21
-16.825002
31
0
39
0
210
0
220
0
230
1
0
LINE
5
25C
100
AcDbEntity
8
SK2
62
256
6
ByLayer
370
13
48
1
60
0
100
AcDbLine
10
-33.6
20
-20
30
0
11
-33.182003
21
-16.824998
31
0
39
0
210
0
220
0
230
1
0
LINE
5
25D
100
AcDbEntity
8
SK2
62
256
6
ByLayer
370
13
48
1
60
0
100
AcDbLine
10
-34.017997
20
-16.825002
30
0
11
-33.182003
21
-16.824998
31
0
39
0
210
0
220
0
230
1
0
LINE
5
25E
100
AcDbEntity
8
SK2
62
256
6
ByLayer
370
13
48
1
60
0
100
AcDbLine
10
-33.6
20
20
30
0
11
-33.182003
21
16.825002
31
0
39
0
210
0
220
0
230
1
0
LINE
5
25F
100
AcDbEntity
8
SK2
62
256
6
ByLayer
370
13
48
1
60
0
100
AcDbLine
10
-33.6
20
20
30
0
11
-34.017997
21
16.824998
31
0
39
0
210
0
220
0
230
1
0
LINE
5
260
100
AcDbEntity
8
SK2
62
256
6
ByLayer
370
13
48
1
60
0
100
AcDbLine
10
-33.182003
20
16.825002
30
0
11
-34.017997
21
16.824998
31
0
39
0
210
0
220
0
230
1
0
ENDBLK
5
262
100
AcDbEntity
8
0
100
AcDbBlockEnd
0
BLOCK
5
26F
100
AcDbEntity
8
0
100
AcDbBlockBegin
2
DimnDraft3D4
70
0
10
0
20
0
30
0
3
DimnDraft3D4
0
MTEXT
5
265
100
AcDbEntity
8
2
62
256
6
ByLayer
370
18
48
1
60
0
100
AcDbMText
10
94.225
20
-14.715789
30
0
210
0
220
0
230
1
1
\W0.6740;27
40
3.5
41
0
44
1.084337
50
90
71
7
72
5
7
iso_b_vert
0
LINE
5
266
100
AcDbEntity
8
2
62
256
6
ByLayer
370
13
48
1
60
0
100
AcDbLine
10
63
20
0
30
0
11
97.1
21
0
31
0
39
0
210
0
220
0
230
1
0
LINE
5
267
100
AcDbEntity
8
2
62
256
6
ByLayer
370
13
48
1
60
0
100
AcDbLine
10
72
20
-27
30
0
11
97.1
21
-27
31
0
39
0
210
0
220
0
230
1
0
LINE
5
268
100
AcDbEntity
8
2
62
256
6
ByLayer
370
13
48
1
60
0
100
AcDbLine
10
95.1
20
0
30
0
11
95.1
21
-27
31
0
39
0
210
0
220
0
230
1
0
LINE
5
269
100
AcDbEntity
8
2
62
256
6
ByLayer
370
13
48
1
60
0
100
AcDbLine
10
95.1
20
0
30
0
11
95.517997
21
-3.174998
31
0
39
0
210
0
220
0
230
1
0
LINE
5
26A
100
AcDbEntity
8
2
62
256
6
ByLayer
370
13
48
1
60
0
100
AcDbLine
10
95.1
20
0
30
0
11
94.682003
21
-3.175002
31
0
39
0
210
0
220
0
230
1
0
LINE
5
26B
100
AcDbEntity
8
2
62
256
6
ByLayer
370
13
48
1
60
0
100
AcDbLine
10
95.517997
20
-3.174998
30
0
11
94.682003
21
-3.175002
31
0
39
0
210
0
220
0
230
1
0
LINE
5
26C
100
AcDbEntity
8
2
62
256
6
ByLayer
370
13
48
1
60
0
100
AcDbLine
10
95.1
20
-27
30
0
11
94.682003
21
-23.825002
31
0
39
0
210
0
220
0
230
1
0
LINE
5
26D
100
AcDbEntity
8
2
62
256
6
ByLayer
370
13
48
1
60
0
100
AcDbLine
10
95.1
20
-27
30
0
11
95.517997
21
-23.824998
31
0
39
0
210
0
220
0
230
1
0
LINE
5
26E
100
AcDbEntity
8
2
62
256
6
ByLayer
370
13
48
1
60
0
100
AcDbLine
10
94.682003
20
-23.825002
30
0
11
95.517997
21
-23.824998
31
0
39
0
210
0
220
0
230
1
0
ENDBLK
5
270
100
AcDbEntity
8
0
100
AcDbBlockEnd
0
BLOCK
5
27D
100
AcDbEntity
8
0
100
AcDbBlockBegin
2
DimnDraft3D5
70
0
10
0
20
0
30
0
3
DimnDraft3D5
0
MTEXT
5
273
100
AcDbEntity
8
2
62
256
6
ByLayer
370
18
48
1
60
0
100
AcDbMText
10
87.225
20
-37.945789
30
0
210
0
220
0
230
1
1
\W0.5404;5
40
3.5
41
0
44
1.084337
50
90
71
7
72
5
7
iso_b_vert
0
LINE
5
274
100
AcDbEntity
8
2
62
256
6
ByLayer
370
13
48
1
60
0
100
AcDbLine
10
72
20
-27
30
0
11
90.1
21
-27
31
0
39
0
210
0
220
0
230
1
0
LINE
5
275
100
AcDbEntity
8
2
62
256
6
ByLayer
370
13
48
1
60
0
100
AcDbLine
10
72
20
-22
30
0
11
90.1
21
-22
31
0
39
0
210
0
220
0
230
1
0
LINE
5
276
100
AcDbEntity
8
2
62
256
6
ByLayer
370
13
48
1
60
0
100
AcDbLine
10
88.1
20
-13.25
30
0
11
88.1
21
-38.820789
31
0
39
0
210
0
220
0
230
1
0
LINE
5
277
100
AcDbEntity
8
2
62
256
6
ByLayer
370
13
48
1
60
0
100
AcDbLine
10
88.1
20
-27
30
0
11
88.517997
21
-30.174998
31
0
39
0
210
0
220
0
230
1
0
LINE
5
278
100
AcDbEntity
8
2
62
256
6
ByLayer
370
13
48
1
60
0
100
AcDbLine
10
88.1
20
-27
30
0
11
87.682003
21
-30.175002
31
0
39
0
210
0
220
0
230
1
0
LINE
5
279
100
AcDbEntity
8
2
62
256
6
ByLayer
370
13
48
1
60
0
100
AcDbLine
10
88.517997
20
-30.174998
30
0
11
87.682003
21
-30.175002
31
0
39
0
210
0
220
0
230
1
0
LINE
5
27A
100
AcDbEntity
8
2
62
256
6
ByLayer
370
13
48
1
60
0
100
AcDbLine
10
88.1
20
-22
30
0
11
87.682003
21
-18.825002
31
0
39
0
210
0
220
0
230
1
0
LINE
5
27B
100
AcDbEntity
8
2
62
256
6
ByLayer
370
13
48
1
60
0
100
AcDbLine
10
88.1
20
-22
30
0
11
88.517997
21
-18.824998
31
0
39
0
210
0
220
0
230
1
0
LINE
5
27C
100
AcDbEntity
8
2
62
256
6
ByLayer
370
13
48
1
60
0
100
AcDbLine
10
87.682003
20
-18.825002
30
0
11
88.517997
21
-18.824998
31
0
39
0
210
0
220
0
230
1
0
ENDBLK
5
27E
100
AcDbEntity
8
0
100
AcDbBlockEnd
0
ENDSEC
0
SECTION
2
ENTITIES
0
ARC
5
F8
100
AcDbEntity
8
1
62
256
6
ByLayer
370
13
48
1
60
0
100
AcDbCircle
39
0
10
-20.279208
20
-21.2
30
0
40
1.2
210
0
220
0
230
-1
100
AcDbArc
50
90
51
165
0
ARC
5
F9
100
AcDbEntity
8
1
62
256
6
ByLayer
370
13
48
1
60
0
100
AcDbCircle
39
0
10
-38
20
-20.725
30
0
40
1.6
210
0
220
0
230
-1
100
AcDbArc
50
288.546902
51
0
0
ARC
5
FA
100
AcDbEntity
8
1
62
256
6
ByLayer
370
13
48
1
60
0
100
AcDbCircle
39
0
10
-24.083141
20
14.5
30
0
40
3.99999999999994
210
0
220
0
230
-1
100
AcDbArc
50
270
51
359.5
0
ELLIPSE
5
FB
100
AcDbEntity
8
1
62
256
6
ByLayer
370
13
48
1
60
0
100
AcDbEllipse
10
16.948929
20
0
30
0
11
9.36741787978185
21
-19.7417491527508
31
0
210
0
220
0
230
-1
40
0.341999
41
2.04527312608992
42
2.98886640869141
0
ELLIPSE
5
FC
100
AcDbEntity
8
1
62
256
6
ByLayer
370
13
48
1
60
0
100
AcDbEllipse
10
16.948929
20
0
30
0
11
9.36741787978137
21
19.7417491527502
31
0
210
0
220
0
230
-1
40
0.341999
41
-2.98886640869142
42
-2.04527312608989
0
ELLIPSE
5
FD
100
AcDbEntity
8
1
62
256
6
ByLayer
370
13
48
1
60
0
100
AcDbEllipse
10
63.757013
20
-24.5
30
0
11
0.443474237675927
21
0.98520097050011
31
0
210
0
220
0
230
-1
40
0.386501
41
-2.96756010420959
42
-2.20174254586121
0
ELLIPSE
5
FE
100
AcDbEntity
8
1
62
256
6
ByLayer
370
13
48
1
60
0
100
AcDbEllipse
10
64.661975
20
-24.5
30
0
11
2.67184296984657
21
0.988910622114707
31
0
210
0
220
0
230
-1
40
0.055584
41
-2.11293045361796
42
-2.03810588125595
0
ELLIPSE
5
FF
100
AcDbEntity
8
1
62
256
6
ByLayer
370
13
48
1
60
0
100
AcDbEllipse
10
64.661975
20
-24.5
30
0
11
2.67184275072858
21
-0.988910550437033
31
0
210
0
220
0
230
-1
40
0.055584
41
2.03810585058799
42
2.11293042784329
0
ELLIPSE
5
100
100
AcDbEntity
8
1
62
256
6
ByLayer
370
13
48
1
60
0
100
AcDbEllipse
10
-0.948929
20
0
30
0
11
9.36741787978288
21
-19.7417491527507
31
0
210
0
220
0
230
-1
40
0.341999
41
-1.09631952749983
42
-0.152726244898369
0
ELLIPSE
5
101
100
AcDbEntity
8
1
62
256
6
ByLayer
370
13
48
1
60
0
100
AcDbEllipse
10
62.571269
20
-24.5
30
0
11
2.01243450986088
21
2.03384491146094E-15
31
0
210
0
220
0
230
-1
40
0.496911
41
1.2245100336152
42
-1.22451003361517
0
ELLIPSE
5
102
100
AcDbEntity
8
1
62
256
6
ByLayer
370
13
48
1
60
0
100
AcDbEllipse
10
63.937611
20
-24.5
30
0
11
-6.12303176933838E-17
21
1.00000000003699
31
0
210
0
220
0
230
-1
40
0.451159
41
-1.74550750765844
42
-1.39608514593133
0
ELLIPSE
5
103
100
AcDbEntity
8
1
62
256
6
ByLayer
370
13
48
1
60
0
100
AcDbEllipse
10
-0.948929
20
0
30
0
11
9.36741787978267
21
19.7417491527505
31
0
210
0
220
0
230
-1
40
0.341999
41
0.15272624489837
42
1.09631952749983
0
ELLIPSE
5
104
100
AcDbEntity
8
1
62
256
6
ByLayer
370
13
48
1
60
0
100
AcDbEllipse
10
63.757013
20
-24.5
30
0
11
0.443474237667403
21
-0.985200970489482
31
0
210
0
220
0
230
-1
40
0.386501
41
2.20174254585408
42
2.96756010420785
0
ELLIPSE
5
105
100
AcDbEntity
8
1
62
256
6
ByLayer
370
13
48
1
60
0
100
AcDbEllipse
10
20.174537
20
0
30
0
11
-1.22460635382233E-15
21
19.9999999999992
31
0
210
0
220
0
230
-1
40
0.008727
41
-2.59148809657397
42
-0.643159436585981
0
ELLIPSE
5
106
100
AcDbEntity
8
1
62
256
6
ByLayer
370
13
48
1
60
0
100
AcDbEllipse
10
66.376095
20
-22.838894
30
0
11
-0.0372036955976343
21
-0.2269711105711
31
0
210
0
220
0
230
1
40
0.637857
41
0.944424256061099
42
1.62073508670506
0
ELLIPSE
5
107
100
AcDbEntity
8
1
62
256
6
ByLayer
370
13
48
1
60
0
100
AcDbEllipse
10
68.308021
20
-22.75008
30
0
11
0.0343782006618846
21
-0.227416224837304
31
0
210
0
220
0
230
1
40
0.010451
41
-1.50176867939539
42
-0.726227648000395
0
ELLIPSE
5
108
100
AcDbEntity
8
1
62
256
6
ByLayer
370
13
48
1
60
0
100
AcDbEllipse
10
68.308021
20
-26.24992
30
0
11
0.0343782006618846
21
0.227416224837304
31
0
210
0
220
0
230
1
40
0.010451
41
0.726227648000395
42
1.50176867939545
0
ELLIPSE
5
109
100
AcDbEntity
8
1
62
256
6
ByLayer
370
13
48
1
60
0
100
AcDbEllipse
10
66.376095
20
-26.161106
30
0
11
-0.0372036955976341
21
0.2269711105711
31
0
210
0
220
0
230
1
40
0.637857
41
-1.62073508670506
42
-0.944424256061099
0
ELLIPSE
5
10A
100
AcDbEntity
8
1
62
256
6
ByLayer
370
13
48
1
60
0
100
AcDbEllipse
10
64.266852
20
-25.798614
30
0
11
-0.00443971027567598
21
-0.249960574836649
31
0
210
0
220
0
230
1
40
0.341973
41
-2.71046133214406
42
-1.56472240806875
0
ELLIPSE
5
10B
100
AcDbEntity
8
1
62
256
6
ByLayer
370
13
48
1
60
0
100
AcDbEllipse
10
64.575688
20
-23.270853
30
0
11
0.117850249619683
21
0.220479746608568
31
0
210
0
220
0
230
1
40
0.628513
41
-2.61189376972352
42
-1.2466917828353
0
ELLIPSE
5
10C
100
AcDbEntity
8
1
62
256
6
ByLayer
370
13
48
1
60
0
100
AcDbEllipse
10
64.575688
20
-25.729148
30
0
11
0.117850233694188
21
-0.220479755121021
31
0
210
0
220
0
230
1
40
0.628513
41
1.24669182823353
42
2.61189371595026
0
ELLIPSE
5
10D
100
AcDbEntity
8
1
62
256
6
ByLayer
370
13
48
1
60
0
100
AcDbEllipse
10
64.266852
20
-23.201386
30
0
11
-0.00443963165026046
21
0.249960576233153
31
0
210
0
220
0
230
1
40
0.341973
41
1.56472251563661
42
2.71046134076457
0
ELLIPSE
5
10E
100
AcDbEntity
8
1
62
256
6
ByLayer
370
13
48
1
60
0
100
AcDbEllipse
10
63.896635
20
-25.792041
30
0
11
0.0041937518783538
21
0.249964822415441
31
0
210
0
220
0
230
1
40
0.341978
41
0.42882120894445
42
1.57653374874629
0
ELLIPSE
5
10F
100
AcDbEntity
8
1
62
256
6
ByLayer
370
13
48
1
60
0
100
AcDbEllipse
10
63.896635
20
-23.207959
30
0
11
0.00419362662096718
21
-0.249964824516899
31
0
210
0
220
0
230
1
40
0.341978
41
-1.57653357738128
42
-0.428821234248932
0
ELLIPSE
5
110
100
AcDbEntity
8
1
62
256
6
ByLayer
370
13
48
1
60
0
100
AcDbEllipse
10
63.896635
20
-23.207959
30
0
11
0.226769904979307
21
0.105239774779671
31
0
210
0
220
0
230
1
40
0.151449
41
1.88624128123206
42
2.72609499684267
0
ELLIPSE
5
111
100
AcDbEntity
8
1
62
256
6
ByLayer
370
13
48
1
60
0
100
AcDbEllipse
10
63.896635
20
-23.207959
30
0
11
0.192541275630354
21
-0.159461146297887
31
0
210
0
220
0
230
1
40
0.894807
41
-2.03609417243739
42
-1.06582349864773
0
ELLIPSE
5
112
100
AcDbEntity
8
1
62
256
6
ByLayer
370
13
48
1
60
0
100
AcDbEllipse
10
63.896635
20
-25.792041
30
0
11
-0.226769904979307
21
0.105239774779671
31
0
210
0
220
0
230
1
40
0.151449
41
0.415497656747138
42
1.25535137235773
0
ELLIPSE
5
113
100
AcDbEntity
8
1
62
256
6
ByLayer
370
13
48
1
60
0
100
AcDbEllipse
10
63.896635
20
-25.792041
30
0
11
0.192541309773544
21
0.159461105071702
31
0
210
0
220
0
230
1
40
0.894807
41
1.06582322628555
42
2.03609436403001
0
ELLIPSE
5
114
100
AcDbEntity
8
1
62
256
6
ByLayer
370
13
48
1
60
0
100
AcDbEllipse
10
63.525204
20
-22.407603
30
0
11
0.248127472715431
21
0.0591357431726492
31
0
210
0
220
0
230
-1
40
0.082207
41
-2.68834941611854
42
-1.90295008510717
0
ELLIPSE
5
115
100
AcDbEntity
8
1
62
256
6
ByLayer
370
13
48
1
60
0
100
AcDbEllipse
10
63.525204
20
-26.592397
30
0
11
0.248127472670331
21
-0.0591357431646548
31
0
210
0
220
0
230
-1
40
0.082207
41
1.90295008498709
42
2.68834941609511
0
ELLIPSE
5
116
100
AcDbEntity
8
1
62
256
6
ByLayer
370
13
48
1
60
0
100
AcDbEllipse
10
66.372716
20
-22.837676
30
0
11
0.119667798519678
21
0.196416949363984
31
0
210
0
220
0
230
1
40
0.597641
41
-1.86084369188812
42
-1.28074896175455
0
ELLIPSE
5
117
100
AcDbEntity
8
1
62
256
6
ByLayer
370
13
48
1
60
0
100
AcDbEllipse
10
66.372716
20
-26.162324
30
0
11
0.119667798519678
21
-0.196416949363984
31
0
210
0
220
0
230
1
40
0.597641
41
1.28074896175448
42
1.86084369188805
0
ELLIPSE
5
118
100
AcDbEntity
8
1
62
256
6
ByLayer
370
13
48
1
60
0
100
AcDbEllipse
10
65.495921
20
-23.486889
30
0
11
0.206917527452797
21
0.140303730644702
31
0
210
0
220
0
230
1
40
0.823661
41
-2.20858799582967
42
-1.45669646334272
0
ELLIPSE
5
119
100
AcDbEntity
8
1
62
256
6
ByLayer
370
13
48
1
60
0
100
AcDbEllipse
10
65.495921
20
-25.513111
30
0
11
0.206917580647164
21
-0.140303652194533
31
0
210
0
220
0
230
1
40
0.823661
41
1.45669620350378
42
2.20858804197698
0
ELLIPSE
5
11A
100
AcDbEntity
8
1
62
256
6
ByLayer
370
13
48
1
60
0
100
AcDbEllipse
10
63.525204
20
-22.407603
30
0
11
0.249974374854579
21
0.0507180485476791
31
0
210
0
220
0
230
-1
40
0.070574
41
-2.69094352032824
42
-1.90554418931283
0
ELLIPSE
5
11B
100
AcDbEntity
8
1
62
256
6
ByLayer
370
13
48
1
60
0
100
AcDbEllipse
10
63.525204
20
-26.592397
30
0
11
0.249974374823454
21
-0.0507180485431052
31
0
210
0
220
0
230
-1
40
0.070574
41
1.90554418923456
42
2.69094352032084
0
ELLIPSE
5
11C
100
AcDbEntity
8
1
62
256
6
ByLayer
370
13
48
1
60
0
100
AcDbEllipse
10
63.316753
20
-26.554426
30
0
11
-0.00727720191311246
21
-0.0186290722344349
31
0
210
0
220
0
230
1
40
0.894205
41
-1.55767186143173
42
-1.23473700712522
0
ELLIPSE
5
11D
100
AcDbEntity
8
1
62
256
6
ByLayer
370
13
48
1
60
0
100
AcDbEllipse
10
63.316753
20
-22.445574
30
0
11
-0.00727720191311336
21
0.0186290722344345
31
0
210
0
220
0
230
1
40
0.894205
41
1.23473700712522
42
1.55767186143173
0
ELLIPSE
5
11E
100
AcDbEntity
8
1
62
256
6
ByLayer
370
13
48
1
60
0
100
AcDbEllipse
10
65.547237
20
-25.35144
30
0
11
0.249846926115621
21
-0.00874720015635105
31
0
210
0
220
0
230
1
40
0.750608
41
1.02290462445186
42
1.70169781748859
0
ELLIPSE
5
11F
100
AcDbEntity
8
1
62
256
6
ByLayer
370
13
48
1
60
0
100
AcDbEllipse
10
65.547237
20
-23.64856
30
0
11
0.249846921369704
21
0.00874733571328907
31
0
210
0
220
0
230
1
40
0.750608
41
-1.70169787390471
42
-1.02290497692159
0
ELLIPSE
5
120
100
AcDbEntity
8
1
62
256
6
ByLayer
370
13
48
1
60
0
100
AcDbEllipse
10
63.311319
20
-26.553392
30
0
11
1.66819193409396E-07
21
0.0199999999993043
31
0
210
0
220
0
230
1
40
0.906308
41
1.2348280052648
42
1.57080388627612
0
ELLIPSE
5
121
100
AcDbEntity
8
1
62
256
6
ByLayer
370
13
48
1
60
0
100
AcDbEllipse
10
63.311319
20
-22.446608
30
0
11
-1.66819192705286E-07
21
0.0199999999993043
31
0
210
0
220
0
230
1
40
0.906308
41
1.57078876731368
42
1.90676464832499
0
ELLIPSE
5
122
100
AcDbEntity
8
1
62
256
6
ByLayer
370
13
48
1
60
0
100
AcDbEllipse
10
62.947266
20
-22.446572
30
0
11
0.000516689010875447
21
0.0199933246976595
31
0
210
0
220
0
230
1
40
0.904621
41
1.59417026037695
42
1.93016731350165
0
ELLIPSE
5
123
100
AcDbEntity
8
1
62
256
6
ByLayer
370
13
48
1
60
0
100
AcDbEllipse
10
62.947266
20
-26.553428
30
0
11
-0.000516689010875325
21
0.0199933246976595
31
0
210
0
220
0
230
1
40
0.904621
41
1.21142534008815
42
1.54742239321284
0
ELLIPSE
5
124
100
AcDbEntity
8
1
62
256
6
ByLayer
370
13
48
1
60
0
100
AcDbEllipse
10
65.681682
20
-24.02126
30
0
11
0.208351294700965
21
0.138165617996779
31
0
210
0
220
0
230
1
40
0.328475
41
-1.88277706446508
42
-1.11088764732339
0
ELLIPSE
5
125
100
AcDbEntity
8
1
62
256
6
ByLayer
370
13
48
1
60
0
100
AcDbEllipse
10
65.681682
20
-24.97874
30
0
11
0.208351341972879
21
-0.138165546711546
31
0
210
0
220
0
230
1
40
0.328475
41
1.11088755728274
42
1.88277708187358
0
ELLIPSE
5
126
100
AcDbEntity
8
1
62
256
6
ByLayer
370
13
48
1
60
0
100
AcDbEllipse
10
64.262268
20
-24.631886
30
0
11
0.249711860133238
21
0.0119994545208677
31
0
210
0
220
0
230
1
40
0.102391
41
1.64627417079775
42
2.70279518242717
0
ELLIPSE
5
127
100
AcDbEntity
8
1
62
256
6
ByLayer
370
13
48
1
60
0
100
AcDbEllipse
10
63.970334
20
-25.064144
30
0
11
0.0801092063469286
21
-0.236817472029547
31
0
210
0
220
0
230
1
40
0.051691
41
1.99612869318361
42
2.99634502504098
0
ELLIPSE
5
128
100
AcDbEntity
8
1
62
256
6
ByLayer
370
13
48
1
60
0
100
AcDbEllipse
10
63.970334
20
-23.935856
30
0
11
0.0801092029984038
21
0.236817473162266
31
0
210
0
220
0
230
1
40
0.051691
41
-2.99634502577199
42
-1.99612899767454
0
ELLIPSE
5
129
100
AcDbEntity
8
1
62
256
6
ByLayer
370
13
48
1
60
0
100
AcDbEllipse
10
64.262268
20
-24.368114
30
0
11
0.249711858181825
21
-0.0119994951302153
31
0
210
0
220
0
230
1
40
0.102391
41
-2.7027951657758
42
-1.64627416293758
0
ELLIPSE
5
12A
100
AcDbEntity
8
1
62
256
6
ByLayer
370
13
48
1
60
0
100
AcDbEllipse
10
68.808021
20
-26.250346
30
0
11
-0.0305240551688062
21
0.227965528218746
31
0
210
0
220
0
230
1
40
0.00928
41
-1.5016016830548
42
-0.753203377496801
0
ELLIPSE
5
12B
100
AcDbEntity
8
1
62
256
6
ByLayer
370
13
48
1
60
0
100
AcDbEllipse
10
68.808021
20
-22.749654
30
0
11
-0.0305240551688064
21
-0.227965528218746
31
0
210
0
220
0
230
1
40
0.00928
41
0.753203377496801
42
1.50160168305523
0
ELLIPSE
5
12C
100
AcDbEntity
8
1
62
256
6
ByLayer
370
13
48
1
60
0
100
AcDbEllipse
10
69.195162
20
-26.200749
30
0
11
-0.0280596719528445
21
0.228281963391545
31
0
210
0
220
0
230
1
40
0.164219
41
0.778143565892525
42
1.4813537694192
0
ELLIPSE
5
12D
100
AcDbEntity
8
1
62
256
6
ByLayer
370
13
48
1
60
0
100
AcDbEllipse
10
69.778808
20
-25.888054
30
0
11
-0.057715369185191
21
0.0816635546606754
31
0
210
0
220
0
230
1
40
0.139258
41
-1.58442224103983
42
-0.784038772190193
0
ELLIPSE
5
12E
100
AcDbEntity
8
1
62
256
6
ByLayer
370
13
48
1
60
0
100
AcDbEllipse
10
69.598618
20
-26.012259
30
0
11
-0.055539716034572
21
0.0831585229714857
31
0
210
0
220
0
230
1
40
0.139564
41
-1.58074179094107
42
-0.780385816812892
0
ELLIPSE
5
12F
100
AcDbEntity
8
1
62
256
6
ByLayer
370
13
48
1
60
0
100
AcDbEllipse
10
69.195162
20
-22.799251
30
0
11
-0.0280596719528447
21
-0.228281963391545
31
0
210
0
220
0
230
1
40
0.164219
41
-1.4813537694192
42
-0.778143565892261
0
ELLIPSE
5
130
100
AcDbEntity
8
1
62
256
6
ByLayer
370
13
48
1
60
0
100
AcDbEllipse
10
69.598618
20
-22.987741
30
0
11
-0.0555397160345721
21
-0.0831585229714856
31
0
210
0
220
0
230
1
40
0.139564
41
0.780385816813272
42
1.58074179094093
0
ELLIPSE
5
131
100
AcDbEntity
8
1
62
256
6
ByLayer
370
13
48
1
60
0
100
AcDbEllipse
10
69.778808
20
-23.111946
30
0
11
-0.057715369185191
21
-0.0816635546606753
31
0
210
0
220
0
230
1
40
0.139258
41
0.784038772190956
42
1.58442224103997
0
ELLIPSE
5
132
100
AcDbEntity
8
1
62
256
6
ByLayer
370
13
48
1
60
0
100
AcDbEllipse
10
63.960225
20
-23.932435
30
0
11
0.0801330718436643
21
0.236809397611028
31
0
210
0
220
0
230
1
40
0.052378
41
-2.99633978110965
42
-1.9982201134417
0
ELLIPSE
5
133
100
AcDbEntity
8
1
62
256
6
ByLayer
370
13
48
1
60
0
100
AcDbEllipse
10
63.960225
20
-25.067565
30
0
11
0.0801330753651988
21
-0.236809396419389
31
0
210
0
220
0
230
1
40
0.052378
41
1.99821981134461
42
2.99633978033037
0
ELLIPSE
5
134
100
AcDbEntity
8
1
62
256
6
ByLayer
370
13
48
1
60
0
100
AcDbEllipse
10
69.521878
20
-22.921955
30
0
11
-0.078543330044571
21
-0.0618946306678503
31
0
210
0
220
0
230
1
40
0.129812
41
1.15297770919777
42
1.62345594610855
0
ELLIPSE
5
135
100
AcDbEntity
8
1
62
256
6
ByLayer
370
13
48
1
60
0
100
AcDbEllipse
10
69.521878
20
-26.078045
30
0
11
-0.078543330044571
21
0.0618946306678503
31
0
210
0
220
0
230
1
40
0.129812
41
-1.62345594610855
42
-1.15297770919801
0
ELLIPSE
5
136
100
AcDbEntity
8
1
62
256
6
ByLayer
370
13
48
1
60
0
100
AcDbEllipse
10
69.258678
20
-23.422746
30
0
11
0.00447811123902838
21
-0.399974932364181
31
0
210
0
220
0
230
1
40
0.406715
41
1.56624278122701
42
2.28570077964824
0
ELLIPSE
5
137
100
AcDbEntity
8
1
62
256
6
ByLayer
370
13
48
1
60
0
100
AcDbEllipse
10
69.258678
20
-25.577254
30
0
11
0.0044781112390283
21
0.399974932364181
31
0
210
0
220
0
230
1
40
0.406715
41
-2.2857007796482
42
-1.56624278122701
0
ELLIPSE
5
138
100
AcDbEntity
8
1
62
256
6
ByLayer
370
13
48
1
60
0
100
AcDbEllipse
10
69.879987
20
-23.202774
30
0
11
-0.0761825742139186
21
-0.0647782014734956
31
0
210
0
220
0
230
1
40
0.131654
41
0.95127549762259
42
1.61858310779787
0
ELLIPSE
5
139
100
AcDbEntity
8
1
62
256
6
ByLayer
370
13
48
1
60
0
100
AcDbEllipse
10
69.879987
20
-25.797226
30
0
11
-0.0761825742139185
21
0.0647782014734957
31
0
210
0
220
0
230
1
40
0.131654
41
-1.61858310779802
42
-0.951275497623094
0
ELLIPSE
5
13A
100
AcDbEntity
8
1
62
256
6
ByLayer
370
13
48
1
60
0
100
AcDbEllipse
10
69.90851
20
-23.237394
30
0
11
-0.0780735047316925
21
-0.0624862213524742
31
0
210
0
220
0
230
1
40
0.076499
41
0.995842833728243
42
1.66608814563566
0
ELLIPSE
5
13B
100
AcDbEntity
8
1
62
256
6
ByLayer
370
13
48
1
60
0
100
AcDbEllipse
10
69.90851
20
-25.762606
30
0
11
-0.0780735047316924
21
0.0624862213524742
31
0
210
0
220
0
230
1
40
0.076499
41
-1.6660881456358
42
-0.995842833728123
0
ELLIPSE
5
13C
100
AcDbEntity
8
1
62
256
6
ByLayer
370
13
48
1
60
0
100
AcDbEllipse
10
68.548784
20
-23.418834
30
0
11
-0.000921308389249212
21
-0.399998938987158
31
0
210
0
220
0
230
1
40
0.05179
41
1.57091561244836
42
2.39651152074873
0
ELLIPSE
5
13D
100
AcDbEntity
8
1
62
256
6
ByLayer
370
13
48
1
60
0
100
AcDbEllipse
10
68.548784
20
-25.581166
30
0
11
-0.000921308389249558
21
0.399998938987158
31
0
210
0
220
0
230
1
40
0.05179
41
-2.39651152074826
42
-1.57091561244836
0
ELLIPSE
5
13E
100
AcDbEntity
8
1
62
256
6
ByLayer
370
18
48
1
60
0
100
AcDbEllipse
10
65.372916
20
-26.9
30
0
11
-0.203674870635643
21
0
31
-3.33066907387545E-16
210
1.63528719251465E-15
220
0
230
-1
40
0.981957
41
1.5707963267949
42
2.10231488414288
0
ELLIPSE
5
13F
100
AcDbEntity
8
1
62
256
6
ByLayer
370
18
48
1
60
0
100
AcDbEllipse
10
65.700355
20
-26.393023
30
0
11
0.117518340696117
21
0.384385172385799
31
1.94289029309403E-16
210
1.63435502888238E-15
220
5.78153988874555E-18
230
-1
40
0.995153
41
2.91576259201241
42
-2.91576259201242
0
ELLIPSE
5
140
100
AcDbEntity
8
1
62
256
6
ByLayer
370
18
48
1
60
0
100
AcDbEllipse
10
65.372916
20
-22.1
30
0
11
0.203674870635643
21
2.49421540694359E-17
31
0
210
0
220
0
230
-1
40
0.981957
41
1.03927776944691
42
1.5707963267949
0
ELLIPSE
5
141
100
AcDbEntity
8
1
62
256
6
ByLayer
370
18
48
1
60
0
100
AcDbEllipse
10
70.048748
20
-25.762606
30
0
11
1.1330996904646E-16
21
0.4
31
0
210
0
220
0
230
1
40
0.121869
41
1.5707963267949
42
1.64009079051255
0
ELLIPSE
5
142
100
AcDbEntity
8
1
62
256
6
ByLayer
370
18
48
1
60
0
100
AcDbEllipse
10
65.700355
20
-22.606977
30
0
11
0.117518340696115
21
-0.3843851723858
31
1.87350135405496E-16
210
1.69566474595522E-15
220
3.10146508567605E-17
230
-1
40
0.995153
41
2.91576259201242
42
-2.91576259201242
0
ELLIPSE
5
143
100
AcDbEntity
8
1
62
256
6
ByLayer
370
18
48
1
60
0
100
AcDbEllipse
10
70.048748
20
-23.237394
30
0
11
1.1330996904646E-16
21
0.4
31
0
210
0
220
0
230
1
40
0.121869
41
1.50150186307724
42
1.5707963267949
0
ELLIPSE
5
144
100
AcDbEntity
8
1
62
256
6
ByLayer
370
18
48
1
60
0
100
AcDbEllipse
10
69.506073
20
-26.986005
30
0
11
0.229994542342805
21
-0.0163464333688765
31
0
210
0
220
0
230
-1
40
0.096932
41
1.44202876488679
42
1.73802346936226
0
ELLIPSE
5
145
100
AcDbEntity
8
1
62
256
6
ByLayer
370
18
48
1
60
0
100
AcDbEllipse
10
69.506073
20
-22.013995
30
0
11
0.229994541679849
21
0.0163464333259539
31
0
210
0
220
0
230
-1
40
0.096932
41
-1.73802346966015
42
-1.44202876432641
0
POINT
5
6C
100
AcDbEntity
8
80
62
256
6
ByLayer
370
18
48
1
60
0
100
AcDbPoint
10
0
20
0
30
0
39
0
210
0
220
0
230
1
50
360
0
POINT
5
6E
100
AcDbEntity
8
81
62
256
6
ByLayer
370
18
48
1
60
0
100
AcDbPoint
10
70
20
-27
30
0
39
0
210
0
220
0
230
1
50
360
0
SPLINE
5
146
100
AcDbEntity
8
SK1
62
256
6
ByLayer
370
13
48
1
60
0
100
AcDbSpline
70
4
71
2
72
6
73
3
40
0
40
0
40
0
40
1
40
1
40
1
41
1
10
-22.5
20
-13.493617102966
30
0
41
1
10
-11.9999999937702
20
-13.7572106057466
30
0
41
1
10
-1.5
20
-14.0208013164368
30
0
0
SPLINE
5
147
100
AcDbEntity
8
SK1
62
256
6
ByLayer
370
13
48
1
60
0
100
AcDbSpline
70
4
71
2
72
6
73
3
40
0
40
0
40
0
40
1
40
1
40
1
41
1
10
-1.49999999999997
20
14.0208011084547
30
0
41
1
10
-11.9999999937704
20
13.757210398744
30
0
41
1
10
-22.5
20
13.4936168969067
30
0
0
SPLINE
5
148
100
AcDbEntity
8
SK1
62
256
6
ByLayer
370
13
48
1
60
0
100
AcDbSpline
70
4
71
2
72
6
73
3
40
0
40
0
40
0
40
1
40
1
40
1
41
1
10
-24
20
-12.6317666961722
30
0
41
1
10
-23.2499989213513
20
-13.0645642295314
30
0
41
1
10
-22.5
20
-13.4973544658104
30
0
0
SPLINE
5
149
100
AcDbEntity
8
SK1
62
256
6
ByLayer
370
13
48
1
60
0
100
AcDbSpline
70
4
71
2
72
6
73
3
40
0
40
0
40
0
40
1
40
1
40
1
41
1
10
-22.5
20
13.4973543128463
30
0
41
1
10
-23.2499989214096
20
13.0645640769691
30
0
41
1
10
-24
20
12.6317665440291
30
0
0
SPLINE
5
14A
100
AcDbEntity
8
SK1
62
256
6
ByLayer
370
13
48
1
60
0
100
AcDbSpline
70
4
71
3
72
13
73
9
40
0
40
0
40
0
40
0
40
0.239503433743722
40
0.368423147407414
40
0.500068568291187
40
0.631702599546694
40
0.760590896708261
40
1
40
1
40
1
40
1
41
1
10
-1.2950399779393
20
13.8302939701715
30
0
41
1
10
-1.32110931868493
20
13.8298918808819
30
0
41
1
10
-1.35883875168665
20
13.8360616243459
30
0
41
1
10
-1.40627575244349
20
13.8590955459825
30
0
41
1
10
-1.43886250823778
20
13.8842521059516
30
0
41
1
10
-1.46563495916618
20
13.9155205133761
30
0
41
1
10
-1.49103211526619
20
13.9617198002386
30
0
41
1
10
-1.49909125765834
20
13.9990778949977
30
0
41
1
10
-1.49999999999997
20
14.0251256210924
30
0
0
SPLINE
5
14B
100
AcDbEntity
8
SK1
62
256
6
ByLayer
370
13
48
1
60
0
100
AcDbSpline
70
4
71
3
72
13
73
9
40
0
40
0
40
0
40
0
40
0.23940910295447
40
0.368297400007636
40
0.499931431229631
40
0.631576852162334
40
0.760496565943167
40
1
40
1
40
1
40
1
41
1
10
-1.5
20
-14.0251257319826
30
0
41
1
10
-1.49909125765302
20
-13.999078005959
30
0
41
1
10
-1.49103211526085
20
-13.9617199113056
30
0
41
1
10
-1.46563495915865
20
-13.9155206245876
30
0
41
1
10
-1.43886250822771
20
-13.8842522172587
30
0
41
1
10
-1.40627575243269
20
-13.859095657368
30
0
41
1
10
-1.35883875167477
20
-13.8360617358029
30
0
41
1
10
-1.32110931867848
20
-13.829891992355
30
0
41
1
10
-1.2950399779393
20
-13.8302940816453
30
0
0
SPLINE
5
14C
100
AcDbEntity
8
SK1
62
256
6
ByLayer
370
13
48
1
60
0
100
AcDbSpline
70
4
71
2
72
6
73
3
40
0
40
0
40
0
40
1
40
1
40
1
41
1
10
-0.19497688887526
20
13.7071940401201
30
0
41
1
10
-0.745008433404536
20
13.6935133023981
30
0
41
1
10
-1.2950399779393
20
13.6798325485488
30
0
0
SPLINE
5
14D
100
AcDbEntity
8
SK1
62
256
6
ByLayer
370
13
48
1
60
0
100
AcDbSpline
70
4
71
2
72
6
73
3
40
0
40
0
40
0
40
1
40
1
40
1
41
1
10
-1.2950399779393
20
-13.679832857032
30
0
41
1
10
-0.745008433404564
20
-13.6935136106344
30
0
41
1
10
-0.194976888875288
20
-13.7071943481093
30
0
0
SPLINE
5
14E
100
AcDbEntity
8
SK1
62
256
6
ByLayer
370
13
48
1
60
0
100
AcDbSpline
70
4
71
2
72
6
73
3
40
0
40
0
40
0
40
1
40
1
40
1
41
1
10
-0.194976888875288
20
-13.8101782617655
30
0
41
1
10
-0.120139283047507
20
-13.855188244108
30
0
41
1
10
-0.0625565596670583
20
-13.9146491544819
30
0
0
SPLINE
5
14F
100
AcDbEntity
8
SK1
62
256
6
ByLayer
370
13
48
1
60
0
100
AcDbSpline
70
4
71
2
72
6
73
3
40
0
40
0
40
0
40
1
40
1
40
1
41
1
10
-0.0625342436547953
20
13.9146715009651
30
0
41
1
10
-0.120123408897285
20
13.8551971845182
30
0
41
1
10
-0.19497688887526
20
13.8101828913628
30
0
0
SPLINE
5
150
100
AcDbEntity
8
SK1
62
256
6
ByLayer
370
13
48
1
60
0
100
AcDbSpline
70
4
71
3
72
12
73
8
40
0
40
0
40
0
40
0
40
0.0127203330946687
40
0.0127203330946687
40
0.214135679389054
40
0.214135679389054
40
1
40
1
40
1
40
1
41
1
10
-0.0602985645292051
20
-13.9145218345509
30
0
41
1
10
-0.0593964688640369
20
-13.9153952655455
30
0
41
1
10
-0.0585256126048819
20
-13.9162544311286
30
0
41
1
10
-0.0444522050673015
20
-13.9303614107994
30
0
41
1
10
-0.0368502956177963
20
-13.9409878066092
30
0
41
1
10
-0.006666004478177
20
-13.9874572658671
30
0
41
1
10
-0.0026467346095274
20
-14.0109326065335
30
0
41
1
10
-0.000805613483351
20
-14.0306701435938
30
0
0
SPLINE
5
151
100
AcDbEntity
8
SK1
62
256
6
ByLayer
370
13
48
1
60
0
100
AcDbSpline
70
4
71
3
72
17
73
13
40
0
40
0
40
0
40
0
40
0.0221027139573055
40
0.0973714432982625
40
0.172640172639219
40
0.323177631321133
40
0.473715090003048
40
0.624252548684961
40
0.774790007366875
40
0.850058736707832
40
0.925327466048789
40
1
40
1
40
1
40
1
41
1
10
-0.194976888875317
20
-4.73091688957595
30
0
41
1
10
-0.194976888875317
20
-4.84547062718627
30
0
41
1
10
-0.194976888875317
20
-5.34600749760222
30
0
41
1
10
-0.194976888875317
20
-6.20093243629219
30
0
41
1
10
-0.194976888875317
20
-7.60326991175293
30
0
41
1
10
-0.194976888875345
20
-9.18432410849499
30
0
41
1
10
-0.19497688887526
20
-10.7996944875048
30
0
41
1
10
-0.194976888875317
20
-12.1164719810225
30
0
41
1
10
-0.194976888875317
20
-12.944151395321
30
0
41
1
10
-0.194976888875288
20
-13.4249207366667
30
0
41
1
10
-0.194976888875317
20
-13.6865448825562
30
0
41
1
10
-0.194976888875288
20
-13.78960275995
30
0
41
1
10
-0.194976888875317
20
-13.8212248895301
30
0
0
SPLINE
5
152
100
AcDbEntity
8
SK1
62
256
6
ByLayer
370
13
48
1
60
0
100
AcDbSpline
70
4
71
3
72
24
73
20
40
0
40
0
40
0
40
0
40
0.149902947479376
40
0.149902947479376
40
0.186299155545379
40
0.186299155545379
40
0.216969792232384
40
0.216969792232384
40
0.238433941598801
40
0.238433941598801
40
0.259993458473666
40
0.259993458473666
40
0.286592900540544
40
0.286592900540544
40
0.331875395551842
40
0.331875395551842
40
0.468295706210124
40
0.468295706210124
40
1
40
1
40
1
40
1
41
1
10
-0.194976888875317
20
4.73091779437283
30
0
41
1
10
-0.1811286393187
20
4.70485294421482
30
0
41
1
10
-0.165554985979298
20
4.67911324054279
30
0
41
1
10
-0.139453347875815
20
4.65553412275395
30
0
41
1
10
-0.133886398748274
20
4.65132394610109
30
0
41
1
10
-0.122723847834294
20
4.64544541083956
30
0
41
1
10
-0.117159205014843
20
4.64344689792514
30
0
41
1
10
-0.107249640667277
20
4.64239014803732
30
0
41
1
10
-0.102950307378734
20
4.64265340392626
30
0
41
1
10
-0.0945615278816945
20
4.64485826345816
30
0
41
1
10
-0.0903767365650765
20
4.64684052419443
30
0
41
1
10
-0.0818344550555992
20
4.65265022074203
30
0
41
1
10
-0.0775208680997252
20
4.65684844226098
30
0
41
1
10
-0.0672962948696068
20
4.66919372450596
30
0
41
1
10
-0.0620832687967265
20
4.67822452773967
30
0
41
1
10
-0.0444091532071695
20
4.71486493319205
30
0
41
1
10
-0.0368050460398592
20
4.74476717390402
30
0
41
1
10
-0.006640078912568
20
4.8874042144177
30
0
41
1
10
-0.0026194263267314
20
5.00103667819704
30
0
41
1
10
-0.0007958230309555
20
5.11194031590915
30
0
0
SPLINE
5
153
100
AcDbEntity
8
SK1
62
256
6
ByLayer
370
13
48
1
60
0
100
AcDbSpline
70
4
71
3
72
26
73
22
40
0
40
0
40
0
40
0
40
0.0030618374294291
40
0.0030618374294291
40
0.278228155398027
40
0.278228155398027
40
0.416208740323974
40
0.416208740323974
40
0.470531175334392
40
0.470531175334392
40
0.525818474939522
40
0.525818474939522
40
0.564225314474164
40
0.564225314474164
40
0.602508119244351
40
0.602508119244351
40
0.661187136902129
40
0.661187136902129
40
0.773666005629805
40
0.773666005629805
40
1
40
1
40
1
40
1
41
1
10
-0.0221432172669438
20
13.9648695564011
30
0
41
1
10
-0.0221987745295849
20
13.9647667397209
30
0
41
1
10
-0.0222544696115961
20
13.9646638211854
30
0
41
1
10
-0.0273529447491683
20
13.9552563801811
30
0
41
1
10
-0.0336340177947534
20
13.9449990153133
30
0
41
1
10
-0.0486543039073695
20
13.9265181986993
30
0
41
1
10
-0.0546590793256314
20
13.9197432543168
30
0
41
1
10
-0.0662151571646348
20
13.9089569124683
30
0
41
1
10
-0.0699040228829517
20
13.9057108150203
30
0
41
1
10
-0.0783744152140002
20
13.8988832775961
30
0
41
1
10
-0.0833138176530213
20
13.8951957613209
30
0
41
1
10
-0.0924761808933852
20
13.889071292133
30
0
41
1
10
-0.0965506606434303
20
13.8865414290507
30
0
41
1
10
-0.104642622438348
20
13.8819062025049
30
0
41
1
10
-0.108747508354014
20
13.8797469100552
30
0
41
1
10
-0.11860671783765
20
13.8749467969173
30
0
41
1
10
-0.124260780251063
20
13.8725549463965
30
0
41
1
10
-0.139312709768234
20
13.8668249226594
30
0
41
1
10
-0.147870724774208
20
13.8643852431074
30
0
41
1
10
-0.171058905453066
20
13.8588876379668
30
0
41
1
10
-0.183642464412173
20
13.8575503148104
30
0
41
1
10
-0.194976888875288
20
13.8569757097873
30
0
0
SPLINE
5
154
100
AcDbEntity
8
SK1
62
256
6
ByLayer
370
13
48
1
60
0
100
AcDbSpline
70
4
71
3
72
18
73
14
40
0
40
0
40
0
40
0
40
0.0450404095727374
40
0.11687618036603
40
0.188711951159322
40
0.260547721952614
40
0.404219263539199
40
0.547890805125784
40
0.691562346712369
40
0.835233888298953
40
0.907069659092246
40
0.978905429885538
40
1
40
1
40
1
40
1
41
1
10
-0.194976888875288
20
13.8569757097873
30
0
41
1
10
-0.194976888875288
20
13.8536747842007
30
0
41
1
10
-0.19497688887526
20
13.8227683771156
30
0
41
1
10
-0.19497688887526
20
13.6872372258342
30
0
41
1
10
-0.194976888875288
20
13.4249208368689
30
0
41
1
10
-0.194976888875288
20
12.9441507808103
30
0
41
1
10
-0.194976888875288
20
12.116472300359
30
0
41
1
10
-0.194976888875288
20
10.7996941469075
30
0
41
1
10
-0.194976888875317
20
9.18432423990018
30
0
41
1
10
-0.194976888875345
20
7.60327005928423
30
0
41
1
10
-0.194976888875288
20
6.20093257911881
30
0
41
1
10
-0.194976888875288
20
5.3460077323378
30
0
41
1
10
-0.194976888875317
20
4.84547122059865
30
0
41
1
10
-0.194976888875317
20
4.7309177943599
30
0
0
SPLINE
5
155
100
AcDbEntity
8
SK1
62
256
6
ByLayer
370
13
48
1
60
0
100
AcDbSpline
70
4
71
3
72
18
73
14
40
0
40
0
40
0
40
0
40
0.0095919733919565
40
0.0846426356145092
40
0.159693297837062
40
0.234743960059615
40
0.38484528450472
40
0.534946608949825
40
0.68504793339493
40
0.835149257840036
40
0.910199920062588
40
0.985250582285141
40
1
40
1
40
1
40
1
41
1
10
-1.29503997793932
20
-3.72039904787636
30
0
41
1
10
-1.29503997793932
20
-3.77241114920608
30
0
41
1
10
-1.29503997793932
20
-4.22989754380623
30
0
41
1
10
-1.2950399779393
20
-5.06796043045179
30
0
41
1
10
-1.2950399779393
20
-6.18418927877329
30
0
41
1
10
-1.29503997793932
20
-7.58444837414552
30
0
41
1
10
-1.29503997793935
20
-9.16312231847047
30
0
41
1
10
-1.29503997793927
20
-10.7763306191778
30
0
41
1
10
-1.2950399779393
20
-12.0913768621482
30
0
41
1
10
-1.2950399779393
20
-12.9178759353221
30
0
41
1
10
-1.29503997793927
20
-13.3979947415187
30
0
41
1
10
-1.2950399779393
20
-13.5897580461367
30
0
41
1
10
-1.2950399779393
20
-13.6685920576739
30
0
41
1
10
-1.2950399779393
20
-13.6808330478659
30
0
0
SPLINE
5
156
100
AcDbEntity
8
SK1
62
256
6
ByLayer
370
13
48
1
60
0
100
AcDbSpline
70
4
71
3
72
9
73
5
40
0
40
0
40
0
40
0
40
0.519331765067645
40
1
40
1
40
1
40
1
41
1
10
-1.2950399779393
20
-13.6808326863618
30
0
41
1
10
-1.29503997793927
20
-13.7308786999659
30
0
41
1
10
-1.29503997793927
20
-13.8044807044917
30
0
41
1
10
-1.29503997793927
20
-13.8302062988966
30
0
41
1
10
-1.29503997793927
20
-13.8302936863618
30
0
0
SPLINE
5
157
100
AcDbEntity
8
SK1
62
256
6
ByLayer
370
13
48
1
60
0
100
AcDbSpline
70
4
71
3
72
26
73
22
40
0
40
0
40
0
40
0
40
0.455772887626953
40
0.455772887626953
40
0.606056662529698
40
0.606056662529698
40
0.681417972286493
40
0.681417972286493
40
0.71102024159616
40
0.71102024159616
40
0.7411469535681
40
0.7411469535681
40
0.762126917909705
40
0.762126917909705
40
0.783038171075001
40
0.783038171075001
40
0.815137685909757
40
0.815137685909757
40
0.876717535015202
40
0.876717535015202
40
1
40
1
40
1
40
1
41
1
10
-0.0006221005214684
20
-5.10701827362513
30
0
41
1
10
-0.0021374688204219
20
-5.01231723385015
30
0
41
1
10
-0.0070926985841879
20
-4.91622083167778
30
0
41
1
10
-0.0273692006633439
20
-4.78741077335394
30
0
41
1
10
-0.0336555723152685
20
-4.75502934026693
30
0
41
1
10
-0.0486945340236673
20
-4.70761501775601
30
0
41
1
10
-0.0547078517413695
20
-4.6917278789285
30
0
41
1
10
-0.0662767852370507
20
-4.67145788371957
30
0
41
1
10
-0.0699635256378599
20
-4.66589172921769
30
0
41
1
10
-0.0784259962194085
20
-4.65584477065113
30
0
41
1
10
-0.0833590716319463
20
-4.65126946065362
30
0
41
1
10
-0.0925141923163721
20
-4.64577580632593
30
0
41
1
10
-0.096590567679641
20
-4.64414189642653
30
0
41
1
10
-0.104684456721572
20
-4.64248855073865
30
0
41
1
10
-0.108789384283682
20
-4.64243416838247
30
0
41
1
10
-0.118656856542714
20
-4.64385112926152
30
0
41
1
10
-0.124317740339819
20
-4.64611203095947
30
0
41
1
10
-0.13939494786618
20
-4.65464906509163
30
0
41
1
10
-0.147967471094176
20
-4.66273672062422
30
0
41
1
10
-0.171116437536654
20
-4.6889543639499
30
0
41
1
10
-0.183668733047711
20
-4.70963290725948
30
0
41
1
10
-0.194976888875317
20
-4.73091688957595
30
0
0
SPLINE
5
158
100
AcDbEntity
8
SK1
62
256
6
ByLayer
370
13
48
1
60
0
100
AcDbSpline
70
4
71
3
72
19
73
15
40
0
40
0
40
0
40
0
40
0.0657328528306492
40
0.131624785347908
40
0.197516717865166
40
0.263408650382425
40
0.395192515416942
40
0.526976380451459
40
0.658760245485976
40
0.790544110520493
40
0.856436043037751
40
0.92232797555501
40
0.988219908072268
40
1
40
1
40
1
40
1
41
1
10
-1.49999999999997
20
14.0207885517942
30
0
41
1
10
-1.49999999999997
20
14.0323059938345
30
0
41
1
10
-1.49999999999997
20
14.0089215998462
30
0
41
1
10
-1.49999999999997
20
13.8526757395093
30
0
41
1
10
-1.49999999999997
20
13.5878913365204
30
0
41
1
10
-1.49999999999997
20
13.1031838925468
30
0
41
1
10
-1.49999999999997
20
12.2683613692996
30
0
41
1
10
-1.49999999999997
20
10.9411047485551
30
0
41
1
10
-1.5
20
9.31264880772019
30
0
41
1
10
-1.5
20
7.71718805595958
30
0
41
1
10
-1.49999999999997
20
6.30227108969967
30
0
41
1
10
-1.5
20
5.17209546861972
30
0
41
1
10
-1.5
20
4.30166905260057
30
0
41
1
10
-1.5
20
3.81517906515137
30
0
41
1
10
-1.5
20
3.74104084360079
30
0
0
SPLINE
5
159
100
AcDbEntity
8
SK1
62
256
6
ByLayer
370
13
48
1
60
0
100
AcDbSpline
70
4
71
3
72
19
73
15
40
0
40
0
40
0
40
0
40
0.0117801951369998
40
0.0776720574004693
40
0.143563919663939
40
0.209455781927408
40
0.341239506454347
40
0.473023230981286
40
0.604806955508225
40
0.736590680035163
40
0.802482542298633
40
0.868374404562102
40
0.934266266825572
40
1
40
1
40
1
40
1
41
1
10
-1.5
20
-3.7410384923455
30
0
41
1
10
-1.5
20
-3.81517744639771
30
0
41
1
10
-1.5
20
-4.30166817802058
30
0
41
1
10
-1.5
20
-5.17209555078495
30
0
41
1
10
-1.5
20
-6.30227096604654
30
0
41
1
10
-1.50000000000003
20
-7.71718790760852
30
0
41
1
10
-1.50000000000006
20
-9.31264866297752
30
0
41
1
10
-1.49999999999997
20
-10.9411050943729
30
0
41
1
10
-1.5
20
-12.2683610406491
30
0
41
1
10
-1.5
20
-13.1031845097078
30
0
41
1
10
-1.49999999999997
20
-13.5878912371465
30
0
41
1
10
-1.5
20
-13.8526759849257
30
0
41
1
10
-1.49999999999997
20
-14.0089228503272
30
0
41
1
10
-1.5
20
-14.0323064110459
30
0
41
1
10
-1.50000000000003
20
-14.020788124627
30
0
0
SPLINE
5
15A
100
AcDbEntity
8
SK1
62
256
6
ByLayer
370
13
48
1
60
0
100
AcDbSpline
70
4
71
3
72
37
73
33
40
0
40
0
40
0
40
0
40
0.0163670377009955
40
0.0448160428050127
40
0.07326504790903
40
0.101714053013047
40
0.158612063221082
40
0.215510073429116
40
0.272408083637151
40
0.329306093845185
40
0.357755098949203
40
0.38620410405322
40
0.414653109157237
40
0.443102114261254
40
0.471551119365272
40
0.48577562191728
40
0.500000124469289
40
0.514224627021297
40
0.528449129573306
40
0.556898134677323
40
0.585347139781341
40
0.613796144885358
40
0.642245149989375
40
0.670694155093392
40
0.727592165301427
40
0.784490175509461
40
0.841388185717496
40
0.898286195925531
40
0.926735201029548
40
0.955184206133565
40
0.983633211237582
40
1
40
1
40
1
40
1
41
1
10
-22.5
20
13.4958460145301
30
0
41
1
10
-22.5
20
13.4916054326198
30
0
41
1
10
-22.5
20
13.4607923836125
30
0
41
1
10
-22.5
20
13.3308793310681
30
0
41
1
10
-22.5
20
13.0738790940806
30
0
41
1
10
-22.5
20
12.6015902509941
30
0
41
1
10
-22.5
20
11.7893001827952
30
0
41
1
10
-22.5
20
10.4950928592069
30
0
41
1
10
-22.5
20
8.90791053296317
30
0
41
1
10
-22.5
20
7.35788839712208
30
0
41
1
10
-22.5
20
5.98264738368812
30
0
41
1
10
-22.5
20
4.89022224945171
30
0
41
1
10
-22.5
20
3.73751327283387
30
0
41
1
10
-22.5
20
2.52988151772905
30
0
41
1
10
-22.5
20
1.48826017841199
30
0
41
1
10
-22.5
20
0.637225663005324
30
0
41
1
10
-22.5
20
1.013000031E-07
30
0
41
1
10
-22.5
20
-0.637225639727319
30
0
41
1
10
-22.5
20
-1.48826022368627
30
0
41
1
10
-22.5
20
-2.52988134516511
30
0
41
1
10
-22.5
20
-3.73751305004348
30
0
41
1
10
-22.5
20
-4.89022238185561
30
0
41
1
10
-22.5
20
-5.98264719956148
30
0
41
1
10
-22.5
20
-7.35788825135657
30
0
41
1
10
-22.5
20
-8.90791043028727
30
0
41
1
10
-22.4999999999999
20
-10.4950931885593
30
0
41
1
10
-22.5
20
-11.7892998835214
30
0
41
1
10
-22.5
20
-12.6015908597962
30
0
41
1
10
-22.5
20
-13.0738789920944
30
0
41
1
10
-22.5
20
-13.3308795934982
30
0
41
1
10
-22.5
20
-13.4607923968441
30
0
41
1
10
-22.5
20
-13.4916053193134
30
0
41
1
10
-22.5
20
-13.4958459852145
30
0
0
SPLINE
5
15B
100
AcDbEntity
8
SK1
62
256
6
ByLayer
370
13
48
1
60
0
100
AcDbSpline
70
4
71
3
72
37
73
33
40
0
40
0
40
0
40
0
40
0.0168497859886022
40
0.0452703277472691
40
0.073690869505936
40
0.102111411264603
40
0.158952494781937
40
0.21579357829927
40
0.272634661816604
40
0.329475745333938
40
0.357896287092605
40
0.386316828851272
40
0.414737370609939
40
0.443157912368606
40
0.471578454127273
40
0.485788725006606
40
0.499998995885939
40
0.514209266765273
40
0.528419537644606
40
0.556840079403273
40
0.58526062116194
40
0.613681162920607
40
0.642101704679274
40
0.670522246437941
40
0.727363329955275
40
0.784204413472608
40
0.841045496989942
40
0.897886580507276
40
0.926307122265943
40
0.95472766402461
40
0.983148205783277
40
1
40
1
40
1
40
1
41
1
10
-24
20
12.6306002511893
30
0
41
1
10
-24
20
12.6268567634384
30
0
41
1
10
-24
20
12.5980248057095
30
0
41
1
10
-23.9999999999999
20
12.4743689830171
30
0
41
1
10
-23.9999999999999
20
12.2301461791881
30
0
41
1
10
-24
20
11.7782420302007
30
0
41
1
10
-24
20
11.0029381899705
30
0
41
1
10
-24
20
9.76298011868093
30
0
41
1
10
-24
20
8.24354697090385
30
0
41
1
10
-24
20
6.7681107158906
30
0
41
1
10
-23.9999999999999
20
5.45799637564639
30
0
41
1
10
-24
20
4.42753733029474
30
0
41
1
10
-24
20
3.35000222974921
30
0
41
1
10
-24
20
2.2377174198939
30
0
41
1
10
-24
20
1.30515932004789
30
0
41
1
10
-24
20
0.55110085473882
30
0
41
1
10
-24
20
2.45414526E-07
30
0
41
1
10
-24
20
-0.5511008955595
30
0
41
1
10
-24
20
-1.30515943417129
30
0
41
1
10
-24
20
-2.23771697460677
30
0
41
1
10
-24
20
-3.3500020823588
30
0
41
1
10
-24
20
-4.42753754516377
30
0
41
1
10
-24
20
-5.45799609225455
30
0
41
1
10
-24
20
-6.76811057436927
30
0
41
1
10
-24
20
-8.24354693727904
30
0
41
1
10
-24
20
-9.76298042100564
30
0
41
1
10
-24
20
-11.0029379389178
30
0
41
1
10
-24
20
-11.778242625282
30
0
41
1
10
-24
20
-12.2301460729139
30
0
41
1
10
-24
20
-12.4743692733745
30
0
41
1
10
-24
20
-12.5980286176068
30
0
41
1
10
-24
20
-12.6268595431678
30
0
41
1
10
-24
20
-12.6306017487779
30
0
0
SPLINE
5
15C
100
AcDbEntity
8
1
62
256
6
ByLayer
370
13
48
1
60
0
100
AcDbSpline
70
4
71
3
72
8
73
4
40
0
40
0
40
0
40
0
40
1
40
1
40
1
40
1
41
1
10
22.9943826624181
20
-26.6749999999995
30
0
41
1
10
22.9945539019422
20
-26.6749999999995
30
0
41
1
10
23.0614546671543
20
-26.6749999999995
30
0
41
1
10
23.199007662423
20
-26.6749999999995
30
0
0
SPLINE
5
15D
100
AcDbEntity
8
SK1
62
256
6
ByLayer
370
13
48
1
60
0
100
AcDbSpline
70
4
71
3
72
9
73
5
40
0
40
0
40
0
40
0
40
0.482295651807467
40
1
40
1
40
1
40
1
41
1
10
-1.29503997793927
20
13.8302937156775
30
0
41
1
10
-1.29503997793927
20
13.8303672291092
30
0
41
1
10
-1.29503997793927
20
13.8047114898038
30
0
41
1
10
-1.2950399779393
20
13.7308788348325
30
0
41
1
10
-1.2950399779393
20
13.6808333670012
30
0
0
SPLINE
5
15E
100
AcDbEntity
8
SK1
62
256
6
ByLayer
370
13
48
1
60
0
100
AcDbSpline
70
4
71
3
72
18
73
14
40
0
40
0
40
0
40
0
40
0.0147492645193491
40
0.0897999484798974
40
0.164850632440446
40
0.314952000361542
40
0.465053368282639
40
0.615154736203736
40
0.765256104124832
40
0.840306788085381
40
0.915357472045929
40
0.990408156006477
40
1
40
1
40
1
40
1
41
1
10
-1.29503997793927
20
13.6808323670007
30
0
41
1
10
-1.2950399779393
20
13.668591509504
30
0
41
1
10
-1.29503997793927
20
13.5897577055456
30
0
41
1
10
-1.2950399779393
20
13.3979948418577
30
0
41
1
10
-1.2950399779393
20
12.9178753212493
30
0
41
1
10
-1.2950399779393
20
12.0913771799458
30
0
41
1
10
-1.29503997793927
20
10.776330279443
30
0
41
1
10
-1.2950399779393
20
9.16312244767201
30
0
41
1
10
-1.29503997793932
20
7.58444852154136
30
0
41
1
10
-1.2950399779393
20
6.18418942476774
30
0
41
1
10
-1.2950399779393
20
5.06796032972636
30
0
41
1
10
-1.2950399779393
20
4.22989838674073
30
0
41
1
10
-1.2950399779393
20
3.77241274608147
30
0
41
1
10
-1.2950399779393
20
3.72040136699579
30
0
0
SPLINE
5
15F
100
AcDbEntity
8
1
62
256
6
ByLayer
370
13
48
1
60
0
100
AcDbSpline
70
4
71
3
72
14
73
10
40
0
40
0
40
0
40
0
40
0.278012418692505
40
0.278012418692505
40
0.556596269058825
40
0.556596269058825
40
0.827168123940325
40
0.827168123940325
40
1
40
1
40
1
40
1
41
1
10
63.4933208596266
20
-24.3261762775262
30
0
41
1
10
63.4946138316572
20
-24.3099399229112
30
0
41
1
10
63.4932442393929
20
-24.2933762928752
30
0
41
1
10
63.4851690657454
20
-24.2622637151263
30
0
41
1
10
63.4783276592374
20
-24.2472829148834
30
0
41
1
10
63.4602533158712
20
-24.2215170645342
30
0
41
1
10
63.4488902287962
20
-24.2102698894178
30
0
41
1
10
63.4277314361067
20
-24.1957099103992
30
0
41
1
10
63.4187033620133
20
-24.1908927823637
30
0
41
1
10
63.4092734763616
20
-24.18709869934
30
0
0
SPLINE
5
160
100
AcDbEntity
8
1
62
256
6
ByLayer
370
13
48
1
60
0
100
AcDbSpline
70
4
71
3
72
14
73
10
40
0
40
0
40
0
40
0
40
0.265128917186061
40
0.265128917186061
40
0.530376505467211
40
0.530376505467211
40
0.794808184621342
40
0.794808184621342
40
1
40
1
40
1
40
1
41
1
10
63.4092734763608
20
-24.8129013006585
30
0
41
1
10
63.42361498958
20
-24.8071310406736
30
0
41
1
10
63.4370758012672
20
-24.7989217742682
30
0
41
1
10
63.4599666341411
20
-24.7787560435221
30
0
41
1
10
63.4697053991613
20
-24.7665276517027
30
0
41
1
10
63.4842613387862
20
-24.7398297105141
30
0
41
1
10
63.4892965875609
20
-24.7250176841899
30
0
41
1
10
63.4937880852348
20
-24.6980833518837
30
0
41
1
10
63.494280962861
20
-24.6858801136371
30
0
41
1
10
63.4933208596277
20
-24.6738237224737
30
0
0
SPLINE
5
161
100
AcDbEntity
8
1
62
256
6
ByLayer
370
13
48
1
60
0
100
AcDbSpline
70
4
71
3
72
16
73
12
40
0
40
0
40
0
40
0
40
0.464304267159423
40
0.464304267159423
40
0.647533485142163
40
0.647533485142163
40
0.83338367586076
40
0.83338367586076
40
0.950238074310153
40
0.950238074310153
40
1
40
1
40
1
40
1
41
1
10
6.66339745962176
20
19.0245744101321
30
0
41
1
10
6.6807035654306
20
19.0449201888241
30
0
41
1
10
6.70445583204761
20
19.064770869388
30
0
41
1
10
6.75332706552732
20
19.0892734034402
30
0
41
1
10
6.76920288341049
20
19.0959253431033
30
0
41
1
10
6.80605435144628
20
19.107808584962
30
0
41
1
10
6.82759190740063
20
19.1131587398643
30
0
41
1
10
6.86713065155251
20
19.119240656951
30
0
41
1
10
6.88386474465577
20
19.1209710216543
30
0
41
1
10
6.90829201976624
20
19.1221075563675
30
0
41
1
10
6.91575967688865
20
19.1222825906924
30
0
41
1
10
6.92320508075704
20
19.1222825906924
30
0
0
SPLINE
5
162
100
AcDbEntity
8
1
62
256
6
ByLayer
370
13
48
1
60
0
100
AcDbSpline
70
4
71
3
72
8
73
4
40
0
40
0
40
0
40
0
40
1
40
1
40
1
40
1
41
1
10
21.4383186059721
20
-19.5006005974259
30
0
41
1
10
21.8677612957918
20
-21.3628151743463
30
0
41
1
10
22.3347484315996
20
-23.2532739496863
30
0
41
1
10
22.8124083510882
20
-25.1407343834576
30
0
0
SPLINE
5
163
100
AcDbEntity
8
1
62
256
6
ByLayer
370
13
48
1
60
0
100
AcDbSpline
70
4
71
3
72
8
73
4
40
0
40
0
40
0
40
0
40
1
40
1
40
1
40
1
41
1
10
22.8124083510882
20
-25.1407343834576
30
0
41
1
10
22.9375865605338
20
-25.6468464332401
30
0
41
1
10
23.0665754860746
20
-26.1581839021161
30
0
41
1
10
23.199007662423
20
-26.6749999999995
30
0
0
SPLINE
5
164
100
AcDbEntity
8
1
62
256
6
ByLayer
370
13
48
1
60
0
100
AcDbSpline
70
4
71
3
72
12
73
8
40
0
40
0
40
0
40
0
40
0.332469083143922
40
0.332469083143922
40
0.665555032879937
40
0.665555032879937
40
1
40
1
40
1
40
1
41
1
10
63.2363113507526
20
-24.8830267960715
30
0
41
1
10
63.2277019071042
20
-24.8865451946283
30
0
41
1
10
63.2196373202205
20
-24.8914351024372
30
0
41
1
10
63.2060214390494
20
-24.9032957467983
30
0
41
1
10
63.2003006100501
20
-24.9104297058916
30
0
41
1
10
63.1919410587999
20
-24.9258255353225
30
0
41
1
10
63.1891986366654
20
-24.934281880491
30
0
41
1
10
63.1879342494323
20
-24.942776117002
30
0
0
SPLINE
5
165
100
AcDbEntity
8
1
62
256
6
ByLayer
370
13
48
1
60
0
100
AcDbSpline
70
4
71
3
72
16
73
12
40
0
40
0
40
0
40
0
40
0.114691258187664
40
0.114691258187664
40
0.256006982051951
40
0.256006982051951
40
0.478481509698196
40
0.478481509698196
40
0.904237458570552
40
0.904237458570552
40
1
40
1
40
1
40
1
41
1
10
6.92320508075707
20
-19.1222825906924
30
0
41
1
10
6.90623920058431
20
-19.1222825906924
30
0
41
1
10
6.88906253212429
20
-19.1213397893256
30
0
41
1
10
6.85346109846202
20
-19.1175632573668
30
0
41
1
10
6.8350716873681
20
-19.1143205262482
30
0
41
1
10
6.79305201772186
20
-19.1044641374226
30
0
41
1
10
6.77140364934806
20
-19.0968571256393
30
0
41
1
10
6.71814486104435
20
-19.0732678361839
30
0
41
1
10
6.69359399943812
20
-19.0554522237107
30
0
41
1
10
6.67087946572579
20
-19.0329978954362
30
0
41
1
10
6.6669950341082
20
-19.0288038685173
30
0
41
1
10
6.66339745962179
20
-19.0245744101321
30
0
0
SPLINE
5
166
100
AcDbEntity
8
1
62
256
6
ByLayer
370
13
48
1
60
0
100
AcDbSpline
70
4
71
3
72
8
73
4
40
0
40
0
40
0
40
0
40
1
40
1
40
1
40
1
41
1
10
20.0832933516484
20
-17.0493973356538
30
0
41
1
10
20.0867537437267
20
-17.2925638780265
30
0
41
1
10
20.1503581055391
20
-17.5237832837643
30
0
41
1
10
20.2792076144254
20
-17.7305776158667
30
0
0
SPLINE
5
167
100
AcDbEntity
8
1
62
256
6
ByLayer
370
13
48
1
60
0
100
AcDbSpline
70
4
71
3
72
8
73
4
40
0
40
0
40
0
40
0
40
1
40
1
40
1
40
1
41
1
10
22.8124083510882
20
-25.1407343834576
30
0
41
1
10
23.0677953262216
20
-25.6501603607518
30
0
41
1
10
23.3288255382814
20
-26.1611964214338
30
0
41
1
10
23.5930492276302
20
-26.6750000000008
30
0
0
SPLINE
5
168
100
AcDbEntity
8
1
62
256
6
ByLayer
370
13
48
1
60
0
100
AcDbSpline
70
4
71
3
72
10
73
6
40
0
40
0
40
0
40
0
40
0.5
40
0.5
40
1
40
1
40
1
40
1
41
1
10
21.4383186059722
20
-19.5006005974259
30
0
41
1
10
21.33333202267
20
-19.0453418389442
30
0
41
1
10
21.0678371515348
20
-18.6880943496369
30
0
41
1
10
20.6124522205098
20
-18.1457206434875
30
0
41
1
10
20.4101044551922
20
-17.9406577705733
30
0
41
1
10
20.2792076144253
20
-17.7305776158666
30
0
0
SPLINE
5
169
100
AcDbEntity
8
1
62
256
6
ByLayer
370
13
48
1
60
0
100
AcDbSpline
70
4
71
3
72
12
73
8
40
0
40
0
40
0
40
0
40
0.341738160164296
40
0.341738160164296
40
0.684939258919487
40
0.684939258919487
40
1
40
1
40
1
40
1
41
1
10
63.1879342494332
20
-24.0572238829978
30
0
41
1
10
63.1892254700519
20
-24.065898387956
30
0
41
1
10
63.1920609352705
20
-24.0745361648453
30
0
41
1
10
63.2007598266993
20
-24.0902655256446
30
0
41
1
10
63.2067633663158
20
-24.0975538331826
30
0
41
1
10
63.2204640584807
20
-24.1090661546965
30
0
41
1
10
63.2281403943922
20
-24.1136340008112
30
0
41
1
10
63.2363113507527
20
-24.1169732039282
30
0
0
SPLINE
5
16A
100
AcDbEntity
8
1
62
256
6
ByLayer
370
13
48
1
60
0
100
AcDbSpline
70
4
71
3
72
10
73
6
40
0
40
0
40
0
40
0
40
0.191325696014408
40
0.191325696014408
40
1
40
1
40
1
40
1
41
1
10
37.9999999999994
20
-22.325
30
0
41
1
10
37.9664715585716
20
-22.325
30
0
41
1
10
37.9330144883819
20
-22.3239454947723
30
0
41
1
10
37.7599323638333
20
-22.3130748066297
30
0
41
1
10
37.6216432074468
20
-22.2857095997379
30
0
41
1
10
37.4910706614984
20
-22.2419017530516
30
0
0
SPLINE
5
16B
100
AcDbEntity
8
1
62
256
6
ByLayer
370
13
48
1
60
0
100
AcDbSpline
70
4
71
3
72
16
73
12
40
0
40
0
40
0
40
0
40
0.464304267159235
40
0.464304267159235
40
0.647533485141916
40
0.647533485141916
40
0.833383675860468
40
0.833383675860468
40
0.950238074309805
40
0.950238074309805
40
1
40
1
40
1
40
1
41
1
10
9.33660254037855
20
6.16973001948651
30
0
41
1
10
9.31929643456971
20
6.10699311212824
30
0
41
1
10
9.29554416795273
20
6.04466199750371
30
0
41
1
10
9.246672934473
20
5.96658891111952
30
0
41
1
10
9.23079711658986
20
5.94525308185442
30
0
41
1
10
9.19394564855403
20
5.90694983484894
30
0
41
1
10
9.17240809259968
20
5.88959453036662
30
0
41
1
10
9.13286934844777
20
5.86981268651979
30
0
41
1
10
9.11613525534449
20
5.86416869949517
30
0
41
1
10
9.09170798023402
20
5.86046107106384
30
0
41
1
10
9.0842403231116
20
5.85988980457012
30
0
41
1
10
9.07679491924318
20
5.85988980457012
30
0
0
SPLINE
5
16C
100
AcDbEntity
8
1
62
256
6
ByLayer
370
13
48
1
60
0
100
AcDbSpline
70
4
71
3
72
16
73
12
40
0
40
0
40
0
40
0
40
0.11469125818826
40
0.11469125818826
40
0.256006982052369
40
0.256006982052369
40
0.478481509698206
40
0.478481509698206
40
0.904237458569697
40
0.904237458569697
40
1
40
1
40
1
40
1
41
1
10
9.07679491924321
20
-5.85988980456995
30
0
41
1
10
9.09376079941597
20
-5.85988980456995
30
0
41
1
10
9.11093746787597
20
-5.86296835504317
30
0
41
1
10
9.14653890153821
20
-5.87527238052365
30
0
41
1
10
9.16492831263216
20
-5.88582364044501
30
0
41
1
10
9.20694798227836
20
-5.91775860341673
30
0
41
1
10
9.22859635065217
20
-5.94228809980649
30
0
41
1
10
9.28185513895582
20
-6.01773563791693
30
0
41
1
10
9.30640600056211
20
-6.07398601286533
30
0
41
1
10
9.32912053427447
20
-6.14371014971277
30
0
41
1
10
9.33300496589214
20
-6.15668833929763
30
0
41
1
10
9.33660254037858
20
-6.16973001948631
30
0
0
SPLINE
5
16D
100
AcDbEntity
8
1
62
256
6
ByLayer
370
13
48
1
60
0
100
AcDbSpline
70
4
71
3
72
16
73
12
40
0
40
0
40
0
40
0
40
0.464304267159304
40
0.464304267159304
40
0.647533485141964
40
0.647533485141964
40
0.833383675860479
40
0.833383675860479
40
0.950238074309832
40
0.950238074309832
40
1
40
1
40
1
40
1
41
1
10
9.33660254037858
20
-19.024574410132
30
0
41
1
10
9.31929643456971
20
-19.044920188824
30
0
41
1
10
9.29554416795276
20
-19.0647708693879
30
0
41
1
10
9.246672934473
20
-19.0892734034401
30
0
41
1
10
9.23079711658986
20
-19.0959253431032
30
0
41
1
10
9.19394564855403
20
-19.1078085849619
30
0
41
1
10
9.17240809259971
20
-19.1131587398642
30
0
41
1
10
9.1328693484478
20
-19.1192406569509
30
0
41
1
10
9.11613525534452
20
-19.1209710216542
30
0
41
1
10
9.09170798023405
20
-19.1221075563675
30
0
41
1
10
9.0842403231116
20
-19.1222825906924
30
0
41
1
10
9.07679491924321
20
-19.1222825906924
30
0
0
SPLINE
5
16E
100
AcDbEntity
8
1
62
256
6
ByLayer
370
13
48
1
60
0
100
AcDbSpline
70
4
71
3
72
16
73
12
40
0
40
0
40
0
40
0
40
0.114691258188305
40
0.114691258188305
40
0.256006982052388
40
0.256006982052388
40
0.478481509698221
40
0.478481509698221
40
0.904237458569747
40
0.904237458569747
40
1
40
1
40
1
40
1
41
1
10
9.07679491924318
20
19.1222825906924
30
0
41
1
10
9.09376079941595
20
19.1222825906924
30
0
41
1
10
9.11093746787597
20
19.1213397893256
30
0
41
1
10
9.14653890153821
20
19.1175632573668
30
0
41
1
10
9.16492831263213
20
19.1143205262482
30
0
41
1
10
9.20694798227834
20
19.1044641374226
30
0
41
1
10
9.22859635065217
20
19.0968571256393
30
0
41
1
10
9.28185513895582
20
19.0732678361839
30
0
41
1
10
9.30640600056211
20
19.0554522237107
30
0
41
1
10
9.32912053427447
20
19.0329978954362
30
0
41
1
10
9.33300496589214
20
19.0288038685172
30
0
41
1
10
9.33660254037858
20
19.024574410132
30
0
0
SPLINE
5
16F
100
AcDbEntity
8
1
62
256
6
ByLayer
370
13
48
1
60
0
100
AcDbSpline
70
4
71
3
72
16
73
12
40
0
40
0
40
0
40
0
40
0.114691258187649
40
0.114691258187649
40
0.256006982051973
40
0.256006982051973
40
0.478481509698153
40
0.478481509698153
40
0.904237458570415
40
0.904237458570415
40
1
40
1
40
1
40
1
41
1
10
6.92320508075704
20
5.85988980456992
30
0
41
1
10
6.90623920058428
20
5.85988980456992
30
0
41
1
10
6.88906253212426
20
5.86296835504317
30
0
41
1
10
6.85346109846202
20
5.87527238052365
30
0
41
1
10
6.83507168736807
20
5.88582364044501
30
0
41
1
10
6.79305201772183
20
5.91775860341676
30
0
41
1
10
6.77140364934806
20
5.94228809980652
30
0
41
1
10
6.71814486104435
20
6.01773563791701
30
0
41
1
10
6.69359399943809
20
6.07398601286547
30
0
41
1
10
6.67087946572576
20
6.14371014971283
30
0
41
1
10
6.66699503410814
20
6.15668833929757
30
0
41
1
10
6.66339745962173
20
6.16973001948614
30
0
0
SPLINE
5
170
100
AcDbEntity
8
1
62
256
6
ByLayer
370
13
48
1
60
0
100
AcDbSpline
70
4
71
3
72
16
73
12
40
0
40
0
40
0
40
0
40
0.464304267159406
40
0.464304267159406
40
0.647533485142149
40
0.647533485142149
40
0.833383675860763
40
0.833383675860763
40
0.950238074310133
40
0.950238074310133
40
1
40
1
40
1
40
1
41
1
10
6.66339745962179
20
-6.16973001948597
30
0
41
1
10
6.6807035654306
20
-6.1069931121277
30
0
41
1
10
6.70445583204761
20
-6.04466199750323
30
0
41
1
10
6.75332706552732
20
-5.96658891111906
30
0
41
1
10
6.76920288341049
20
-5.94525308185399
30
0
41
1
10
6.80605435144628
20
-5.90694983484855
30
0
41
1
10
6.82759190740063
20
-5.88959453036622
30
0
41
1
10
6.86713065155251
20
-5.86981268651942
30
0
41
1
10
6.88386474465577
20
-5.86416869949477
30
0
41
1
10
6.90829201976624
20
-5.86046107106347
30
0
41
1
10
6.91575967688865
20
-5.85988980456975
30
0
41
1
10
6.92320508075704
20
-5.85988980456975
30
0
0
SPLINE
5
171
100
AcDbEntity
8
1
62
256
6
ByLayer
370
13
48
1
60
0
100
AcDbSpline
70
4
71
3
72
8
73
4
40
0
40
0
40
0
40
0
40
1
40
1
40
1
40
1
41
1
10
37.4870090741132
20
-22.3249999999994
30
0
41
1
10
37.4870090741132
20
-22.2972675177651
30
0
41
1
10
37.4883701950414
20
-22.269502442387
30
0
41
1
10
37.4910706614978
20
-22.2419017530515
30
0
0
SPLINE
5
172
100
AcDbEntity
8
SK1
62
256
6
ByLayer
370
13
48
1
60
0
100
AcDbSpline
70
4
71
3
72
28
73
24
40
0
40
0
40
0
40
0
40
0.377034444361182
40
0.377034444361182
40
0.47124127723197
40
0.47124127723197
40
0.490342212885775
40
0.490342212885775
40
0.509783225476965
40
0.509783225476965
40
0.519844552637956
40
0.519844552637956
40
0.52997722677853
40
0.52997722677853
40
0.541821348727225
40
0.541821348727225
40
0.561608872108359
40
0.561608872108359
40
0.62190789644527
40
0.62190789644527
40
0.89680812171134
40
0.89680812171134
40
1
40
1
40
1
40
1
41
1
10
-1.5
20
3.74104084360653
30
0
41
1
10
-1.49948391269609
20
3.63417013990087
30
0
41
1
10
-1.49801334499241
20
3.52538029256473
30
0
41
1
10
-1.47899240365126
20
3.38918061262683
30
0
41
1
10
-1.47445369516237
20
3.36127936627429
30
0
41
1
10
-1.46372014141698
20
3.32987528051652
30
0
41
1
10
-1.46166223189101
20
3.32459698992847
30
0
41
1
10
-1.45678851564171
20
3.31460755237418
30
0
41
1
10
-1.4538889094697
20
3.3097583034762
30
0
41
1
10
-1.44864641825058
20
3.30405134215559
30
0
41
1
10
-1.44665905392483
20
3.30237734709189
30
0
41
1
10
-1.44252686345214
20
3.30004911866314
30
0
41
1
10
-1.44033108267638
20
3.29938429897709
30
0
41
1
10
-1.43573980986434
20
3.29908647772174
30
0
41
1
10
-1.43330601221794
20
3.29961641656925
30
0
41
1
10
-1.42730008788584
20
3.30215874547523
30
0
41
1
10
-1.42390702769759
20
3.30489947938327
30
0
41
1
10
-1.41154657890996
20
3.31753145864417
30
0
41
1
10
-1.404444277355
20
3.33065622406889
30
0
41
1
10
-1.36890632117996
20
3.40459313488492
30
0
41
1
10
-1.35116259655351
20
3.47601320611636
30
0
41
1
10
-1.32746963298686
20
3.57256952640077
30
0
41
1
10
-1.32133005289867
20
3.59916216804771
30
0
41
1
10
-1.31543506509192
20
3.62586927327695
30
0
0
SPLINE
5
173
100
AcDbEntity
8
SK1
62
256
6
ByLayer
370
13
48
1
60
0
100
AcDbSpline
70
4
71
3
72
8
73
4
40
0
40
0
40
0
40
0
40
1
40
1
40
1
40
1
41
1
10
-1.29503997793935
20
-3.72039904785808
30
0
41
1
10
-1.30170669741997
20
-3.68878214845066
30
0
41
1
10
-1.30850489094851
20
-3.6572639451395
30
0
41
1
10
-1.3154350650949
20
-3.62586695867591
30
0
0
SPLINE
5
174
100
AcDbEntity
8
SK1
62
256
6
ByLayer
370
13
48
1
60
0
100
AcDbSpline
70
4
71
3
72
12
73
8
40
0
40
0
40
0
40
0
40
0.5
40
0.5
40
0.75
40
0.75
40
1
40
1
40
1
40
1
41
1
10
-1.29503997793938
20
3.72040136697612
30
0
41
1
10
-1.22199541772719
20
4.06681496075993
30
0
41
1
10
-1.13721610602156
20
4.40140649757242
30
0
41
1
10
-0.894136394993296
20
4.86361722008431
30
0
41
1
10
-0.786658716765601
20
5.06086826310116
30
0
41
1
10
-0.390435375656892
20
5.08086576639013
30
0
41
1
10
-0.276930368305102
20
4.88516870907185
30
0
41
1
10
-0.19497688887634
20
4.73091779436106
30
0
0
SPLINE
5
175
100
AcDbEntity
8
SK1
62
256
6
ByLayer
370
13
48
1
60
0
100
AcDbSpline
70
4
71
3
72
24
73
20
40
0
40
0
40
0
40
0
40
0.0901614988592237
40
0.0901614988592237
40
0.181733106332615
40
0.181733106332615
40
0.214503724484323
40
0.214503724484323
40
0.247806738810304
40
0.247806738810304
40
0.277183737236237
40
0.277183737236237
40
0.315792315807102
40
0.315792315807102
40
0.385680326206819
40
0.385680326206819
40
0.612470727242031
40
0.612470727242031
40
1
40
1
40
1
40
1
41
1
10
-0.194976888875317
20
-4.73091688957595
30
0
41
1
10
-0.224294196666904
20
-4.78609733368657
30
0
41
1
10
-0.256845982353468
20
-4.84001817084277
30
0
41
1
10
-0.333661237776369
20
-4.94138447783655
30
0
41
1
10
-0.378650482073567
20
-4.99058361471532
30
0
41
1
10
-0.456090783662034
20
-5.03969320338194
30
0
41
1
10
-0.478643661901771
20
-5.05102586014925
30
0
41
1
10
-0.52695396362904
20
-5.06693427154809
30
0
41
1
10
-0.553477954712633
20
-5.07144010608209
30
0
41
1
10
-0.602851607658977
20
-5.07087702435183
30
0
41
1
10
-0.626321651452571
20
-5.06687795966644
30
0
41
1
10
-0.676891450438404
20
-5.05106404795396
30
0
41
1
10
-0.703710994176674
20
-5.03716264055146
30
0
41
1
10
-0.771332556850496
20
-4.99203579100384
30
0
41
1
10
-0.807956751921239
20
-4.9553921489038
30
0
41
1
10
-0.943771067614819
20
-4.79352739495047
30
0
41
1
10
-1.01135146346533
20
-4.64820364019542
30
0
41
1
10
-1.16985849982038
20
-4.25259336742965
30
0
41
1
10
-1.23839317197056
20
-3.9890463745196
30
0
41
1
10
-1.29503997793932
20
-3.72039904785851
30
0
0
SPLINE
5
176
100
AcDbEntity
8
SK1
62
256
6
ByLayer
370
13
48
1
60
0
100
AcDbSpline
70
4
71
3
72
8
73
4
40
0
40
0
40
0
40
0
40
1
40
1
40
1
40
1
41
1
10
-1.3154350650949
20
3.62586927327766
30
0
41
1
10
-1.30850489189842
20
3.65726626185167
30
0
41
1
10
-1.30170669836539
20
3.68878446662453
30
0
41
1
10
-1.29503997793927
20
3.72040136697754
30
0
0
SPLINE
5
177
100
AcDbEntity
8
SK1
62
256
6
ByLayer
370
13
48
1
60
0
100
AcDbSpline
70
4
71
3
72
32
73
28
40
0
40
0
40
0
40
0
40
0.234209043903683
40
0.234209043903683
40
0.348206763259495
40
0.348206763259495
40
0.387972400413404
40
0.387972400413404
40
0.426398401700154
40
0.426398401700154
40
0.446201405559806
40
0.446201405559806
40
0.460607225947448
40
0.460607225947448
40
0.470823768377258
40
0.470823768377258
40
0.481109409918393
40
0.481109409918393
40
0.493204164541493
40
0.493204164541493
40
0.513632814857372
40
0.513632814857372
40
0.575937702183571
40
0.575937702183571
40
0.849388942620191
40
0.849388942620191
40
1
40
1
40
1
40
1
41
1
10
-1.31543506509487
20
-3.62586695867572
30
0
41
1
10
-1.32892168642002
20
-3.56476614674233
30
0
41
1
10
-1.34349959231662
20
-3.5040502880243
30
0
41
1
10
-1.36961730758037
20
-3.41684163113896
30
0
41
1
10
-1.37884997794626
20
-3.38865446814293
30
0
41
1
10
-1.39378799795975
20
-3.35290064218199
30
0
41
1
10
-1.39789768863872
20
-3.34384914889202
30
0
41
1
10
-1.40678360062631
20
-3.3269730775302
30
0
41
1
10
-1.41153323216869
20
-3.31901123641643
30
0
41
1
10
-1.41993003827378
20
-3.30877228636973
30
0
41
1
10
-1.42303023860259
20
-3.30558367021891
30
0
41
1
10
-1.42895868263383
20
-3.30140692198512
30
0
41
1
10
-1.43168019086241
20
-3.30003789907363
30
0
41
1
10
-1.43660796064438
20
-3.29908976692212
30
0
41
1
10
-1.43877831496019
20
-3.29911915451325
30
0
41
1
10
-1.44306627714502
20
-3.3002670295046
30
0
41
1
10
-1.4452338316201
20
-3.30141564585125
30
0
41
1
10
-1.44956683766552
20
-3.30483928988434
30
0
41
1
10
-1.45173486948684
20
-3.30730216548517
30
0
41
1
10
-1.45688629366657
20
-3.3145742837105
30
0
41
1
10
-1.45955294606344
20
-3.31993077203052
30
0
41
1
10
-1.46877475888465
20
-3.34195438711905
30
0
41
1
10
-1.47296281845897
20
-3.36016321689965
30
0
41
1
10
-1.49173289900656
20
-3.45605620516406
30
0
41
1
10
-1.49494782483947
20
-3.53530191305845
30
0
41
1
10
-1.49909354148034
20
-3.6558094148653
30
0
41
1
10
-1.49979467204841
20
-3.69851944650176
30
0
41
1
10
-1.5
20
-3.74103849235144
30
0
0
SPLINE
5
178
100
AcDbEntity
8
SK1
62
256
6
ByLayer
370
13
48
1
60
0
100
AcDbSpline
70
4
71
3
72
10
73
6
40
0
40
0
40
0
40
0
40
0.5
40
0.5
40
1
40
1
40
1
40
1
41
1
10
-1.50000000000003
20
-3.74103849235124
30
0
41
1
10
-1.72822660488518
20
-2.5729940346929
30
0
41
1
10
-1.9345094732038
20
-1.30949470645604
30
0
41
1
10
-1.93607546443374
20
1.29428834739886
30
0
41
1
10
-1.72898991428966
20
2.56908970224461
30
0
41
1
10
-1.5
20
3.74104084360653
30
0
0
SPLINE
5
179
100
AcDbEntity
8
1
62
256
6
ByLayer
370
18
48
1
60
0
100
AcDbSpline
70
4
71
3
72
10
73
6
40
0
40
0
40
0
40
0
40
0.955278663307113
40
0.955278663307113
40
1
40
1
40
1
40
1
41
1
10
56.4
20
-22.2999999999999
30
0
41
1
10
56.3575631985057
20
-22.2999999999999
30
0
41
1
10
56.3128593536871
20
-22.3069581050096
30
0
41
1
10
56.2677727819472
20
-22.3224811425772
30
0
41
1
10
56.2657624289886
20
-22.3231920459308
30
0
41
1
10
56.2637535520551
20
-22.3239212253972
30
0
0
SPLINE
5
17A
100
AcDbEntity
8
1
62
256
6
ByLayer
370
18
48
1
60
0
100
AcDbSpline
70
4
71
3
72
10
73
6
40
0
40
0
40
0
40
0
40
0.162708415110932
40
0.162708415110932
40
1
40
1
40
1
40
1
41
1
10
56.2681266662175
20
-26.6776222335529
30
0
41
1
10
56.2752427814924
20
-26.6801147181571
30
0
41
1
10
56.2823812785674
20
-26.6823885499614
30
0
41
1
10
56.3263525328971
20
-26.6950249912079
30
0
41
1
10
56.3639443231505
20
-26.6999999999999
30
0
41
1
10
56.4
20
-26.6999999999999
30
0
0
SPLINE
5
17B
100
AcDbEntity
8
1
62
256
6
ByLayer
370
13
48
1
60
0
100
AcDbSpline
70
4
71
2
72
6
73
3
40
0
40
0
40
0
40
1
40
1
40
1
41
0.974231088937642
10
63.67491150048
20
-24.3681142101813
30
0
41
0.983568696287066
10
63.747154586119
20
-24.3681142101813
30
0
41
1
10
63.8009195004782
20
-24.3681142101813
30
0
0
SPLINE
5
17C
100
AcDbEntity
8
1
62
256
6
ByLayer
370
13
48
1
60
0
100
AcDbSpline
70
4
71
2
72
6
73
3
40
0
40
0
40
0
40
1
40
1
40
1
41
0.974231088937762
10
63.6749115004809
20
-24.4999999999999
30
0
41
0.983568696287172
10
63.7471545861194
20
-24.4999999999998
30
0
41
1
10
63.8009195004782
20
-24.4999999999999
30
0
0
SPLINE
5
17D
100
AcDbEntity
8
1
62
256
6
ByLayer
370
13
48
1
60
0
100
AcDbSpline
70
4
71
3
72
8
73
4
40
0
40
0
40
0
40
0
40
1
40
1
40
1
40
1
41
1
10
65.6829840127523
20
-23.8040903047635
30
0
41
1
10
65.6810947661036
20
-23.7413927350206
30
0
41
1
10
65.6631068755878
20
-23.6857787753366
30
0
41
1
10
65.6342900358638
20
-23.6402367804514
30
0
0
SPLINE
5
17E
100
AcDbEntity
8
1
62
256
6
ByLayer
370
13
48
1
60
0
100
AcDbSpline
70
4
71
3
72
10
73
6
40
0
40
0
40
0
40
0
40
0.262862791350924
40
0.262862791350924
40
1
40
1
40
1
40
1
41
1
10
65.6342900358642
20
-23.6402367804522
30
0
41
1
10
65.7025775519151
20
-23.5771352431155
30
0
41
1
10
65.7722682487008
20
-23.5155151344826
30
0
41
1
10
66.0422196182249
20
-23.2874582145175
30
0
41
1
10
66.2522353540996
20
-23.1315604261186
30
0
41
1
10
66.4715765647267
20
-22.99117205236
30
0
0
SPLINE
5
17F
100
AcDbEntity
8
1
62
256
6
ByLayer
370
13
48
1
60
0
100
AcDbSpline
70
4
71
3
72
12
73
8
40
0
40
0
40
0
40
0
40
0.0871818958158546
40
0.0871818958158546
40
0.555816072150762
40
0.555816072150762
40
1
40
1
40
1
40
1
41
1
10
66.4715765647289
20
-22.9911720523586
30
0
41
1
10
66.516355622926
20
-22.9994322356792
30
0
41
1
10
66.5625010428803
20
-23.0064786074716
30
0
41
1
10
66.8599208005271
20
-23.0436485111458
30
0
41
1
10
67.1493997212845
20
-23.0436224334876
30
0
41
1
10
67.7340901033076
20
-23.0062252172053
30
0
41
1
10
68.0363033123272
20
-22.9677673835345
30
0
41
1
10
68.3321466497296
20
-22.9203544399354
30
0
0
SPLINE
5
180
100
AcDbEntity
8
1
62
256
6
ByLayer
370
13
48
1
60
0
100
AcDbSpline
70
4
71
3
72
8
73
4
40
0
40
0
40
0
40
0
40
1
40
1
40
1
40
1
41
1
10
68.3321466497296
20
-22.9203544399354
30
0
41
1
10
68.4819028297928
20
-22.8963539625838
30
0
41
1
10
68.6367163407338
20
-22.8969936246009
30
0
41
1
10
68.7872005279842
20
-22.9161492535703
30
0
0
SPLINE
5
181
100
AcDbEntity
8
1
62
256
6
ByLayer
370
13
48
1
60
0
100
AcDbSpline
70
4
71
3
72
8
73
4
40
0
40
0
40
0
40
0
40
1
40
1
40
1
40
1
41
1
10
68.7872005279842
20
-22.9161492535703
30
0
41
1
10
68.9080845009776
20
-22.9315369735515
30
0
41
1
10
69.0296597255469
20
-22.9457705706944
30
0
41
1
10
69.1488622536791
20
-22.9586027197611
30
0
0
SPLINE
5
182
100
AcDbEntity
8
1
62
256
6
ByLayer
370
13
48
1
60
0
100
AcDbSpline
70
4
71
3
72
8
73
4
40
0
40
0
40
0
40
0
40
1
40
1
40
1
40
1
41
1
10
69.1488622536791
20
-22.9586027197611
30
0
41
1
10
69.2906386357502
20
-22.9738649436199
30
0
41
1
10
69.430489331089
20
-23.0099976418319
30
0
41
1
10
69.5673140428787
20
-23.0522904115315
30
0
0
SPLINE
5
183
100
AcDbEntity
8
1
62
256
6
ByLayer
370
13
48
1
60
0
100
AcDbSpline
70
4
71
3
72
8
73
4
40
0
40
0
40
0
40
0
40
1
40
1
40
1
40
1
41
1
10
69.5673140428785
20
-23.0522904115314
30
0
41
1
10
69.6274617011982
20
-23.092462196322
30
0
41
1
10
69.6869033219913
20
-23.1336975027736
30
0
41
1
10
69.7459718007427
20
-23.1754451875985
30
0
0
SPLINE
5
184
100
AcDbEntity
8
1
62
256
6
ByLayer
370
13
48
1
60
0
100
AcDbSpline
70
4
71
3
72
8
73
4
40
0
40
0
40
0
40
0
40
1
40
1
40
1
40
1
41
1
10
69.7459718007427
20
-23.1754451875985
30
0
41
1
10
69.6240345464985
20
-23.1705986009854
30
0
41
1
10
69.5024410495939
20
-23.1651912786276
30
0
41
1
10
69.3785881656746
20
-23.1591687168293
30
0
0
SPLINE
5
185
100
AcDbEntity
8
1
62
256
6
ByLayer
370
13
48
1
60
0
100
AcDbSpline
70
4
71
3
72
12
73
8
40
0
40
0
40
0
40
0
40
0.182835658751355
40
0.182835658751355
40
0.599400569939014
40
0.599400569939014
40
1
40
1
40
1
40
1
41
1
10
69.3785881656746
20
-23.1591687168293
30
0
41
1
10
69.3310683850016
20
-23.1568579848811
30
0
41
1
10
69.2829585315104
20
-23.1546667183974
30
0
41
1
10
69.1239573417233
20
-23.1475950559594
30
0
41
1
10
69.0107346591718
20
-23.1428302121398
30
0
41
1
10
68.7864706205419
20
-23.1337445117691
30
0
41
1
10
68.6749954711982
20
-23.129124281984
30
0
41
1
10
68.5635072589985
20
-23.1248539965128
30
0
0
SPLINE
5
186
100
AcDbEntity
8
1
62
256
6
ByLayer
370
13
48
1
60
0
100
AcDbSpline
70
4
71
3
72
16
73
12
40
0
40
0
40
0
40
0
40
0.0921366095856315
40
0.0921366095856315
40
0.290118390674097
40
0.290118390674097
40
0.595936908248371
40
0.595936908248371
40
0.880361355152389
40
0.880361355152389
40
1
40
1
40
1
40
1
41
1
10
68.5635072589985
20
-23.1248539965128
30
0
41
1
10
68.5591982602681
20
-23.1246889507711
30
0
41
1
10
68.5548883609445
20
-23.1245428730263
30
0
41
1
10
68.5413159701824
20
-23.1241432836465
30
0
41
1
10
68.5320505661206
20
-23.1239578171095
30
0
41
1
10
68.5084733436751
20
-23.1237233032518
30
0
41
1
10
68.494157775922
20
-23.1238156600877
30
0
41
1
10
68.4665431360997
20
-23.1244111680175
30
0
41
1
10
68.4532407620858
20
-23.124943941937
30
0
41
1
10
68.4343574737551
20
-23.1259266706367
30
0
41
1
10
68.4287674124236
20
-23.1262454804366
30
0
41
1
10
68.4231781443762
20
-23.1265697045966
30
0
0
SPLINE
5
187
100
AcDbEntity
8
1
62
256
6
ByLayer
370
13
48
1
60
0
100
AcDbSpline
70
4
71
3
72
10
73
6
40
0
40
0
40
0
40
0
40
0.526039489910472
40
0.526039489910472
40
1
40
1
40
1
40
1
41
1
10
68.4231781443762
20
-23.1265697045966
30
0
41
1
10
68.3243838115333
20
-23.1323005998247
30
0
41
1
10
68.2257440636944
20
-23.1476816536284
30
0
41
1
10
68.0427884076341
20
-23.1932471571036
30
0
41
1
10
67.9555807587938
20
-23.2138682413174
30
0
41
1
10
67.8688521819128
20
-23.236344810966
30
0
0
SPLINE
5
188
100
AcDbEntity
8
1
62
256
6
ByLayer
370
13
48
1
60
0
100
AcDbSpline
70
4
71
3
72
13
73
9
40
0
40
0
40
0
40
0
40
0.579075565907237
40
0.579075565907237
40
0.579075565907237
40
0.952945790436294
40
0.952945790436294
40
1
40
1
40
1
40
1
41
1
10
67.8688521819128
20
-23.236344810966
30
0
41
1
10
67.4253573800224
20
-23.3512808811976
30
0
41
1
10
66.9763277002349
20
-23.4676832936672
30
0
41
1
10
66.557589780142
20
-23.5763862802014
30
0
41
1
10
66.2850802933633
20
-23.6471288464948
30
0
41
1
10
66.0213233971121
20
-23.7157242920068
30
0
41
1
10
65.7443878409568
20
-23.7880373100894
30
0
41
1
10
65.7135476384128
20
-23.7960962298176
30
0
41
1
10
65.6829840127524
20
-23.8040903047634
30
0
0
SPLINE
5
189
100
AcDbEntity
8
1
62
256
6
ByLayer
370
13
48
1
60
0
100
AcDbSpline
70
4
71
3
72
8
73
4
40
0
40
0
40
0
40
0
40
1
40
1
40
1
40
1
41
1
10
65.6342903231341
20
-25.3597634850012
30
0
41
1
10
65.6631071748038
20
-25.3142214349602
30
0
41
1
10
65.6810950586271
20
-25.2586074061984
30
0
41
1
10
65.6829842751339
20
-25.1959097638635
30
0
0
SPLINE
5
18A
100
AcDbEntity
8
1
62
256
6
ByLayer
370
13
48
1
60
0
100
AcDbSpline
70
4
71
3
72
13
73
9
40
0
40
0
40
0
40
0
40
0.579075643919431
40
0.579075643919431
40
0.579075643919431
40
0.952945918815726
40
0.952945918815726
40
1
40
1
40
1
40
1
41
1
10
67.8688521819128
20
-25.7636551890337
30
0
41
1
10
67.4253573800224
20
-25.6487191188021
30
0
41
1
10
66.9763277002349
20
-25.5323167063326
30
0
41
1
10
66.557589780142
20
-25.4236137197984
30
0
41
1
10
66.2850802933633
20
-25.3528711535049
30
0
41
1
10
66.0213233971121
20
-25.284275707993
30
0
41
1
10
65.7443879299412
20
-25.2119627131458
30
0
41
1
10
65.7135478149083
20
-25.2039038163023
30
0
41
1
10
65.6829842751339
20
-25.1959097638636
30
0
0
SPLINE
5
18B
100
AcDbEntity
8
1
62
256
6
ByLayer
370
13
48
1
60
0
100
AcDbSpline
70
4
71
3
72
10
73
6
40
0
40
0
40
0
40
0
40
0.526039489910472
40
0.526039489910472
40
1
40
1
40
1
40
1
41
1
10
68.4231781443762
20
-25.8734302954031
30
0
41
1
10
68.3243838115333
20
-25.867699400175
30
0
41
1
10
68.2257440636944
20
-25.8523183463714
30
0
41
1
10
68.0427884076341
20
-25.8067528428962
30
0
41
1
10
67.9555807587938
20
-25.7861317586823
30
0
41
1
10
67.8688521819128
20
-25.7636551890337
30
0
0
SPLINE
5
18C
100
AcDbEntity
8
1
62
256
6
ByLayer
370
13
48
1
60
0
100
AcDbSpline
70
4
71
3
72
16
73
12
40
0
40
0
40
0
40
0
40
0.0921366095856315
40
0.0921366095856315
40
0.290118390674097
40
0.290118390674097
40
0.595936908248371
40
0.595936908248371
40
0.880361355152389
40
0.880361355152389
40
1
40
1
40
1
40
1
41
1
10
68.5635072589985
20
-25.8751460034869
30
0
41
1
10
68.5591982602681
20
-25.8753110492286
30
0
41
1
10
68.5548883609445
20
-25.8754571269734
30
0
41
1
10
68.5413159701824
20
-25.8758567163532
30
0
41
1
10
68.5320505661206
20
-25.8760421828902
30
0
41
1
10
68.5084733436751
20
-25.876276696748
30
0
41
1
10
68.494157775922
20
-25.876184339912
30
0
41
1
10
68.4665431360997
20
-25.8755888319822
30
0
41
1
10
68.4532407620858
20
-25.8750560580627
30
0
41
1
10
68.4343574737551
20
-25.874073329363
30
0
41
1
10
68.4287674124236
20
-25.8737545195631
30
0
41
1
10
68.4231781443762
20
-25.8734302954031
30
0
0
SPLINE
5
18D
100
AcDbEntity
8
1
62
256
6
ByLayer
370
13
48
1
60
0
100
AcDbSpline
70
4
71
3
72
12
73
8
40
0
40
0
40
0
40
0
40
0.182835658751355
40
0.182835658751355
40
0.599400569939014
40
0.599400569939014
40
1
40
1
40
1
40
1
41
1
10
69.3785881656746
20
-25.8408312831705
30
0
41
1
10
69.3310683850016
20
-25.8431420151186
30
0
41
1
10
69.2829585315104
20
-25.8453332816023
30
0
41
1
10
69.1239573417233
20
-25.8524049440403
30
0
41
1
10
69.0107346591718
20
-25.85716978786
30
0
41
1
10
68.7864706205419
20
-25.8662554882307
30
0
41
1
10
68.6749954711982
20
-25.8708757180158
30
0
41
1
10
68.5635072589985
20
-25.8751460034869
30
0
0
SPLINE
5
18E
100
AcDbEntity
8
1
62
256
6
ByLayer
370
13
48
1
60
0
100
AcDbSpline
70
4
71
3
72
8
73
4
40
0
40
0
40
0
40
0
40
1
40
1
40
1
40
1
41
1
10
69.7459718007427
20
-25.8245548124012
30
0
41
1
10
69.6240345464985
20
-25.8294013990143
30
0
41
1
10
69.5024410495939
20
-25.8348087213722
30
0
41
1
10
69.3785881656746
20
-25.8408312831704
30
0
0
SPLINE
5
18F
100
AcDbEntity
8
1
62
256
6
ByLayer
370
13
48
1
60
0
100
AcDbSpline
70
4
71
3
72
8
73
4
40
0
40
0
40
0
40
0
40
1
40
1
40
1
40
1
41
1
10
69.5673140428785
20
-25.9477095884684
30
0
41
1
10
69.6274617011982
20
-25.9075378036777
30
0
41
1
10
69.6869033219913
20
-25.8663024972262
30
0
41
1
10
69.7459718007427
20
-25.8245548124013
30
0
0
SPLINE
5
190
100
AcDbEntity
8
1
62
256
6
ByLayer
370
13
48
1
60
0
100
AcDbSpline
70
4
71
3
72
8
73
4
40
0
40
0
40
0
40
0
40
1
40
1
40
1
40
1
41
1
10
69.1488622536791
20
-26.0413972802386
30
0
41
1
10
69.2906386357502
20
-26.0261350563798
30
0
41
1
10
69.430489331089
20
-25.9900023581678
30
0
41
1
10
69.5673140428787
20
-25.9477095884682
30
0
0
SPLINE
5
191
100
AcDbEntity
8
1
62
256
6
ByLayer
370
13
48
1
60
0
100
AcDbSpline
70
4
71
3
72
8
73
4
40
0
40
0
40
0
40
0
40
1
40
1
40
1
40
1
41
1
10
68.7872005279842
20
-26.0838507464294
30
0
41
1
10
68.9080845009776
20
-26.0684630264482
30
0
41
1
10
69.0296597255469
20
-26.0542294293054
30
0
41
1
10
69.1488622536791
20
-26.0413972802386
30
0
0
SPLINE
5
192
100
AcDbEntity
8
1
62
256
6
ByLayer
370
13
48
1
60
0
100
AcDbSpline
70
4
71
3
72
8
73
4
40
0
40
0
40
0
40
0
40
1
40
1
40
1
40
1
41
1
10
68.3321466497296
20
-26.0796455600644
30
0
41
1
10
68.4819028297928
20
-26.103646037416
30
0
41
1
10
68.6367163407338
20
-26.1030063753988
30
0
41
1
10
68.7872005279842
20
-26.0838507464294
30
0
0
SPLINE
5
193
100
AcDbEntity
8
1
62
256
6
ByLayer
370
13
48
1
60
0
100
AcDbSpline
70
4
71
3
72
12
73
8
40
0
40
0
40
0
40
0
40
0.0871818958158546
40
0.0871818958158546
40
0.555816072150762
40
0.555816072150762
40
1
40
1
40
1
40
1
41
1
10
66.4715765647289
20
-26.0088279476412
30
0
41
1
10
66.516355622926
20
-26.0005677643205
30
0
41
1
10
66.5625010428803
20
-25.9935213925282
30
0
41
1
10
66.8599208005271
20
-25.9563514888539
30
0
41
1
10
67.1493997212845
20
-25.9563775665121
30
0
41
1
10
67.7340901033076
20
-25.9937747827945
30
0
41
1
10
68.0363033123272
20
-26.0322326164653
30
0
41
1
10
68.3321466497296
20
-26.0796455600644
30
0
0
SPLINE
5
194
100
AcDbEntity
8
1
62
256
6
ByLayer
370
13
48
1
60
0
100
AcDbSpline
70
4
71
3
72
10
73
6
40
0
40
0
40
0
40
0
40
0.262862519552919
40
0.262862519552919
40
1
40
1
40
1
40
1
41
1
10
65.6342903231341
20
-25.3597634850012
30
0
41
1
10
65.7025777473366
20
-25.4228649296772
30
0
41
1
10
65.7722683482755
20
-25.4844849496385
30
0
41
1
10
66.0422196182249
20
-25.7125417854822
30
0
41
1
10
66.2522353540996
20
-25.8684395738812
30
0
41
1
10
66.4715765647267
20
-26.0088279476397
30
0
0
SPLINE
5
195
100
AcDbEntity
8
1
62
256
6
ByLayer
370
13
48
1
60
0
100
AcDbSpline
70
4
71
3
72
10
73
6
40
0
40
0
40
0
40
0
40
0.812931652353805
40
0.812931652353805
40
1
40
1
40
1
40
1
41
1
10
65.4655618269024
20
-23.7073545448681
30
0
41
1
10
65.4905044130484
20
-23.735700047579
30
0
41
1
10
65.5093173194924
20
-23.7695520340048
30
0
41
1
10
65.5191608890839
20
-23.816943728241
30
0
41
1
10
65.5204525785783
20
-23.8261790480958
30
0
41
1
10
65.5211345260091
20
-23.8356348100961
30
0
0
SPLINE
5
196
100
AcDbEntity
8
1
62
256
6
ByLayer
370
13
48
1
60
0
100
AcDbSpline
70
4
71
3
72
12
73
8
40
0
40
0
40
0
40
0
40
0.419184864075828
40
0.419184864075828
40
0.521895266235895
40
0.521895266235895
40
1
40
1
40
1
40
1
41
1
10
65.5211345260091
20
-23.8356348100961
30
0
41
1
10
65.5237504340724
20
-23.8719065268611
30
0
41
1
10
65.5343283545523
20
-23.9129583166503
30
0
41
1
10
65.5559667433271
20
-23.9650679590488
30
0
41
1
10
65.5606993957358
20
-23.9755184583537
30
0
41
1
10
65.5894233514625
20
-24.0340588358166
30
0
41
1
10
65.6220730803716
20
-24.0833715823908
30
0
41
1
10
65.6609228658779
20
-24.1288038101266
30
0
0
SPLINE
5
197
100
AcDbEntity
8
1
62
256
6
ByLayer
370
13
48
1
60
0
100
AcDbSpline
70
4
71
3
72
18
73
14
40
0
40
0
40
0
40
0
40
0.303051933317988
40
0.303051933317988
40
0.487257767964007
40
0.487257767964007
40
0.499533009530601
40
0.499533009530601
40
0.667187139568689
40
0.667187139568689
40
0.695147561451768
40
0.695147561451768
40
1
40
1
40
1
40
1
41
1
10
65.6609228658779
20
-24.1288038101266
30
0
41
1
10
65.7135335135174
20
-24.1903284464572
30
0
41
1
10
65.7619362646628
20
-24.2599577646455
30
0
41
1
10
65.8111946407649
20
-24.3852530619
30
0
41
1
10
65.8231149559066
20
-24.4371364143474
30
0
41
1
10
65.8246102881376
20
-24.4922646812293
30
0
41
1
10
65.8246606321735
20
-24.4957735250045
30
0
41
1
10
65.8247477590766
20
-24.5464115130624
30
0
41
1
10
65.8161442690326
20
-24.5941075488753
30
0
41
1
10
65.7987132174386
20
-24.6458596595475
30
0
41
1
10
65.7960149985793
20
-24.6532794164919
30
0
41
1
10
65.7626142306366
20
-24.7390700089491
30
0
41
1
10
65.7138905703339
20
-24.8092540591614
30
0
41
1
10
65.6609229052364
20
-24.8711962502493
30
0
0
SPLINE
5
198
100
AcDbEntity
8
1
62
256
6
ByLayer
370
13
48
1
60
0
100
AcDbSpline
70
4
71
3
72
12
73
8
40
0
40
0
40
0
40
0
40
0.059394264300233
40
0.059394264300233
40
0.553288200423872
40
0.553288200423872
40
1
40
1
40
1
40
1
41
1
10
65.6609229052364
20
-24.8711962502493
30
0
41
1
10
65.656024990239
20
-24.8769240388189
30
0
41
1
10
65.651230555261
20
-24.8827016764089
30
0
41
1
10
65.6081599802425
20
-24.9361916214178
30
0
41
1
10
65.5766828886214
20
-24.9876479148732
30
0
41
1
10
65.5357697752028
20
-25.0816007597341
30
0
41
1
10
65.5239217382615
20
-25.1257205689269
30
0
41
1
10
65.5211347111541
20
-25.1643653134519
30
0
0
SPLINE
5
199
100
AcDbEntity
8
1
62
256
6
ByLayer
370
13
48
1
60
0
100
AcDbSpline
70
4
71
3
72
10
73
6
40
0
40
0
40
0
40
0
40
0.812842204044401
40
0.812842204044401
40
1
40
1
40
1
40
1
41
1
10
65.5211347111541
20
-25.1643653134519
30
0
41
1
10
65.5182139494672
20
-25.2048644133373
30
0
41
1
10
65.5036615838422
20
-25.2413785118389
30
0
41
1
10
65.4768473699088
20
-25.2791577711832
30
0
41
1
10
65.4713784689837
20
-25.2860357583202
30
0
41
1
10
65.4655620286947
20
-25.2926457415772
30
0
0
SPLINE
5
19A
100
AcDbEntity
8
1
62
256
6
ByLayer
370
13
48
1
60
0
100
AcDbSpline
70
4
71
3
72
8
73
4
40
0
40
0
40
0
40
0
40
1
40
1
40
1
40
1
41
1
10
65.4655620286946
20
-25.2926457415772
30
0
41
1
10
65.3277223079949
20
-25.3118153423365
30
0
41
1
10
65.1898798111548
20
-25.3309660816981
30
0
41
1
10
65.0520355651061
20
-25.3501047685041
30
0
0
SPLINE
5
19B
100
AcDbEntity
8
1
62
256
6
ByLayer
370
13
48
1
60
0
100
AcDbSpline
70
4
71
3
72
14
73
10
40
0
40
0
40
0
40
0
40
0.102447041397989
40
0.102447041397989
40
0.525388411553141
40
0.525388411553141
40
0.919987754093892
40
0.919987754093892
40
1
40
1
40
1
40
1
41
1
10
65.0520355651061
20
-25.3501047685041
30
0
41
1
10
65.0324592862908
20
-25.3528227946808
30
0
41
1
10
65.0129161067098
20
-25.3558548777858
30
0
41
1
10
64.9139233159999
20
-25.3728042993698
30
0
41
1
10
64.8351625923798
20
-25.3916865711402
30
0
41
1
10
64.6931025586169
20
-25.4334731695953
30
0
41
1
10
64.6307076370283
20
-25.4582073728937
30
0
41
1
10
64.5654061680181
20
-25.4902777678958
30
0
41
1
10
64.5545512003208
20
-25.495828266366
30
0
41
1
10
64.5440056455243
20
-25.5014569413291
30
0
0
SPLINE
5
19C
100
AcDbEntity
8
1
62
256
6
ByLayer
370
13
48
1
60
0
100
AcDbSpline
70
4
71
3
72
14
73
10
40
0
40
0
40
0
40
0
40
0.15204037662591
40
0.15204037662591
40
0.440443065599007
40
0.440443065599007
40
0.719928934942157
40
0.719928934942157
40
1
40
1
40
1
40
1
41
1
10
64.5440056455243
20
-25.5014569413291
30
0
41
1
10
64.5321089705187
20
-25.5078067747936
30
0
41
1
10
64.5192322013558
20
-25.5139241357254
30
0
41
1
10
64.4798769240089
20
-25.5305313567864
30
0
41
1
10
64.4508842095018
20
-25.5403029443208
30
0
41
1
10
64.3909384751368
20
-25.5558404738733
30
0
41
1
10
64.3593518723187
20
-25.5618946535932
30
0
41
1
10
64.2967214890184
20
-25.5696399275064
30
0
41
1
10
64.2648490497149
20
-25.5714152169367
30
0
41
1
10
64.235163296305
20
-25.5708922494355
30
0
0
SPLINE
5
19D
100
AcDbEntity
8
1
62
256
6
ByLayer
370
13
48
1
60
0
100
AcDbSpline
70
4
71
3
72
8
73
4
40
0
40
0
40
0
40
0
40
1
40
1
40
1
40
1
41
1
10
64.235163296305
20
-25.5708922494355
30
0
41
1
10
64.1116779762096
20
-25.5687168352431
30
0
41
1
10
63.9882816195312
20
-25.5663091635847
30
0
41
1
10
63.864905395161
20
-25.5641123501023
30
0
0
SPLINE
5
19E
100
AcDbEntity
8
1
62
256
6
ByLayer
370
13
48
1
60
0
100
AcDbSpline
70
4
71
3
72
12
73
8
40
0
40
0
40
0
40
0
40
0.32728025931415
40
0.32728025931415
40
0.707681653994561
40
0.707681653994561
40
1
40
1
40
1
40
1
41
1
10
63.864905395161
20
-25.5641123501023
30
0
41
1
10
63.8385896978139
20
-25.532158158804
30
0
41
1
10
63.8091013360519
20
-25.4933737458551
30
0
41
1
10
63.7722979245712
20
-25.381946890584
30
0
41
1
10
63.7633628845556
20
-25.3063033697702
30
0
41
1
10
63.7684540483803
20
-25.1568252077146
30
0
41
1
10
63.7776464530692
20
-25.0852241822063
30
0
41
1
10
63.7928855278384
20
-25.011453350375
30
0
0
SPLINE
5
19F
100
AcDbEntity
8
1
62
256
6
ByLayer
370
13
48
1
60
0
100
AcDbSpline
70
4
71
3
72
12
73
8
40
0
40
0
40
0
40
0
40
0.358487530595534
40
0.358487530595534
40
0.67894909180414
40
0.67894909180414
40
1
40
1
40
1
40
1
41
1
10
63.7928855278384
20
-25.011453350375
30
0
41
1
10
63.8101021066424
20
-25.0055398122013
30
0
41
1
10
63.8273824407111
20
-24.9997841267436
30
0
41
1
10
63.860215276265
20
-24.9891766210512
30
0
41
1
10
63.8757583280478
20
-24.9842931552139
30
0
41
1
10
63.9069529184184
20
-24.9747602810798
30
0
41
1
10
63.9226059757712
20
-24.9701109009556
30
0
41
1
10
63.9382953258455
20
-24.9655809610964
30
0
0
SPLINE
5
1A0
100
AcDbEntity
8
1
62
256
6
ByLayer
370
13
48
1
60
0
100
AcDbSpline
70
4
71
3
72
8
73
4
40
0
40
0
40
0
40
0
40
1
40
1
40
1
40
1
41
1
10
63.9382953258455
20
-24.9655809610964
30
0
41
1
10
63.9416733187259
20
-24.9646056431565
30
0
41
1
10
63.9450514372896
20
-24.9636306360634
30
0
41
1
10
63.948429680894
20
-24.9626559415927
30
0
0
SPLINE
5
1A1
100
AcDbEntity
8
1
62
256
6
ByLayer
370
13
48
1
60
0
100
AcDbSpline
70
4
71
3
72
16
73
12
40
0
40
0
40
0
40
0
40
0.226396549712979
40
0.226396549712979
40
0.49604828471296
40
0.49604828471296
40
0.75456075351648
40
0.75456075351648
40
0.960928711930137
40
0.960928711930137
40
1
40
1
40
1
40
1
41
1
10
63.9484296808941
20
-24.9626559415937
30
0
41
1
10
63.9849980284647
20
-24.9521052027024
30
0
41
1
10
64.020752575175
20
-24.937814219407
30
0
41
1
10
64.0931438135199
20
-24.8979730779339
30
0
41
1
10
64.1295704288592
20
-24.8702054752187
30
0
41
1
10
64.187606710557
20
-24.805651023231
30
0
41
1
10
64.2105886007523
20
-24.7682501540086
30
0
41
1
10
64.2363122457502
20
-24.6961125361409
30
0
41
1
10
64.2424833383663
20
-24.661472238183
30
0
41
1
10
64.242759582289
20
-24.6205015731676
30
0
41
1
10
64.2425919492039
20
-24.6138929506095
30
0
41
1
10
64.2422132359233
20
-24.6072952531881
30
0
0
SPLINE
5
1A2
100
AcDbEntity
8
1
62
256
6
ByLayer
370
13
48
1
60
0
100
AcDbSpline
70
4
71
3
72
8
73
4
40
0
40
0
40
0
40
0
40
1
40
1
40
1
40
1
41
1
10
64.2422132359233
20
-24.6072952531881
30
0
41
1
10
64.2381359316433
20
-24.5362630995468
30
0
41
1
10
64.2381359366078
20
-24.4637369795715
30
0
41
1
10
64.2422132508815
20
-24.392704829038
30
0
0
SPLINE
5
1A3
100
AcDbEntity
8
1
62
256
6
ByLayer
370
13
48
1
60
0
100
AcDbSpline
70
4
71
3
72
14
73
10
40
0
40
0
40
0
40
0
40
0.227808198603014
40
0.227808198603014
40
0.466915974097517
40
0.466915974097517
40
0.725559413975037
40
0.725559413975037
40
1
40
1
40
1
40
1
41
1
10
64.2422132508815
20
-24.392704829038
30
0
41
1
10
64.2443855985001
20
-24.3548596906232
30
0
41
1
10
64.2393665326208
20
-24.3161519887969
30
0
41
1
10
64.2156498885991
20
-24.2428805797053
30
0
41
1
10
64.1959293248207
20
-24.2074154714102
30
0
41
1
10
64.1444211748329
20
-24.1436902693198
30
0
41
1
10
64.1110163953101
20
-24.1152004170795
30
0
41
1
10
64.0357732945888
20
-24.0683957061091
30
0
41
1
10
63.9926409003131
20
-24.0500999787276
30
0
41
1
10
63.9484297121925
20
-24.0373441168447
30
0
0
SPLINE
5
1A4
100
AcDbEntity
8
1
62
256
6
ByLayer
370
13
48
1
60
0
100
AcDbSpline
70
4
71
3
72
8
73
4
40
0
40
0
40
0
40
0
40
1
40
1
40
1
40
1
41
1
10
63.9484297121925
20
-24.0373441168447
30
0
41
1
10
63.9450514681622
20
-24.0363694220652
30
0
41
1
10
63.9416733491718
20
-24.0353944146648
30
0
41
1
10
63.938295355865
20
-24.0344190964154
30
0
0
SPLINE
5
1A5
100
AcDbEntity
8
1
62
256
6
ByLayer
370
13
48
1
60
0
100
AcDbSpline
70
4
71
3
72
12
73
8
40
0
40
0
40
0
40
0
40
0.507485182159569
40
0.507485182159569
40
0.827579760922024
40
0.827579760922024
40
1
40
1
40
1
40
1
41
1
10
63.9382953558651
20
-24.0344190964144
30
0
41
1
10
63.9134968147625
20
-24.0272590852782
30
0
41
1
10
63.8887878028273
20
-24.0198003797529
30
0
41
1
10
63.8486726419301
20
-24.0071367980844
30
0
41
1
10
63.8331982998658
20
-24.0021159720932
30
0
41
1
10
63.8094625902884
20
-23.994198977545
30
0
41
1
10
63.8011667453271
20
-23.9913911167939
30
0
41
1
10
63.7928855362849
20
-23.988546692631
30
0
0
SPLINE
5
1A6
100
AcDbEntity
8
1
62
256
6
ByLayer
370
13
48
1
60
0
100
AcDbSpline
70
4
71
3
72
14
73
10
40
0
40
0
40
0
40
0
40
0.174964566773922
40
0.174964566773922
40
0.581070400641029
40
0.581070400641029
40
0.936777115762908
40
0.936777115762908
40
1
40
1
40
1
40
1
41
1
10
63.7928855362849
20
-23.988546692631
30
0
41
1
10
63.7837027674589
20
-23.9440938289551
30
0
41
1
10
63.7767060888798
20
-23.9005259857376
30
0
41
1
10
63.7616844548898
20
-23.7632675500106
30
0
41
1
10
63.7641619121848
20
-23.6751240154799
30
0
41
1
10
63.7931235303016
20
-23.5419644551267
30
0
41
1
10
63.8169014232755
20
-23.4910915949052
30
0
41
1
10
63.8539980910054
20
-23.4482164022121
30
0
41
1
10
63.8597682725895
20
-23.442125708258
30
0
41
1
10
63.8649053974482
20
-23.4358878873456
30
0
0
SPLINE
5
1A7
100
AcDbEntity
8
1
62
256
6
ByLayer
370
18
48
1
60
0
100
AcDbSpline
70
4
71
2
72
7
73
4
40
0
40
0
40
0
40
0.708870800351166
40
1
40
1
40
1
41
1
10
63.2986055392391
20
-26.6999999999999
30
0
41
1
10
63.0751549314992
20
-26.6999999999999
30
0
41
1
10
62.9464550520322
20
-26.6999999999999
30
0
41
1
10
62.9314365392391
20
-26.6999999999999
30
0
0
SPLINE
5
1A8
100
AcDbEntity
8
1
62
256
6
ByLayer
370
13
48
1
60
0
100
AcDbSpline
70
4
71
3
72
10
73
6
40
0
40
0
40
0
40
0
40
0.317064872302993
40
0.317064872302993
40
1
40
1
40
1
40
1
41
1
10
63.8649053974481
20
-23.4358878873457
30
0
41
1
10
63.9040236620118
20
-23.4351913750714
30
0
41
1
10
63.9430373997723
20
-23.434323075153
30
0
41
1
10
64.066452021748
20
-23.4320372544946
30
0
41
1
10
64.1508304836203
20
-23.4305937936376
30
0
41
1
10
64.2351632251839
20
-23.4291081507946
30
0
0
SPLINE
5
1A9
100
AcDbEntity
8
1
62
256
6
ByLayer
370
13
48
1
60
0
100
AcDbSpline
70
4
71
3
72
14
73
10
40
0
40
0
40
0
40
0
40
0.0629171722654902
40
0.0629171722654902
40
0.360926335929676
40
0.360926335929676
40
0.68129834430082
40
0.68129834430082
40
1
40
1
40
1
40
1
41
1
10
64.2351632251839
20
-23.4291081507946
30
0
41
1
10
64.24194031934
20
-23.4289887625091
30
0
41
1
10
64.2488122949275
20
-23.4289857392563
30
0
41
1
10
64.2880807841643
20
-23.4296275188663
30
0
41
1
10
64.3224484834363
20
-23.4327838899447
30
0
41
1
10
64.391180122346
20
-23.4439728864342
30
0
41
1
10
64.4264982847355
20
-23.4525213513464
30
0
41
1
10
64.4900591762723
20
-23.4730771881928
30
0
41
1
10
64.5192879379177
20
-23.485350506901
30
0
41
1
10
64.5440056178101
20
-23.4985435345293
30
0
0
SPLINE
5
1AA
100
AcDbEntity
8
1
62
256
6
ByLayer
370
13
48
1
60
0
100
AcDbSpline
70
4
71
3
72
12
73
8
40
0
40
0
40
0
40
0
40
0.146285672307715
40
0.146285672307715
40
0.570909324013412
40
0.570909324013412
40
1
40
1
40
1
40
1
41
1
10
64.5440056178101
20
-23.4985435345293
30
0
41
1
10
64.5633830780364
20
-23.5088862272595
30
0
41
1
10
64.5838104178634
20
-23.5189731117254
30
0
41
1
10
64.6656707087217
20
-23.5566205066632
30
0
41
1
10
64.7379586329225
20
-23.5810328750634
30
0
41
1
10
64.8898448255197
20
-23.6216372600577
30
0
41
1
10
64.9709017387468
20
-23.6386308459871
30
0
41
1
10
65.0520356091022
20
-23.6498956867883
30
0
0
SPLINE
5
1AB
100
AcDbEntity
8
1
62
256
6
ByLayer
370
18
48
1
60
0
100
AcDbSpline
70
4
71
3
72
16
73
12
40
0
40
0
40
0
40
0
40
0.0452651449285768
40
0.510303489172457
40
0.742822661294397
40
0.859082247355367
40
0.917212040385852
40
0.946276936901095
40
0.960809385158716
40
0.975341833416337
40
1
40
1
40
1
40
1
41
1
10
63.2986246430131
20
-22.2999999999999
30
0
41
1
10
63.2927891088829
20
-22.2999999999999
30
0
41
1
10
63.227001343463
20
-22.2999999999999
30
0
41
1
10
63.1312377274569
20
-22.2999999999999
30
0
41
1
10
63.0263192243348
20
-22.2999999999999
30
0
41
1
10
62.9738635552327
20
-22.2999999999999
30
0
41
1
10
62.9476303454673
20
-22.2999999999999
30
0
41
1
10
62.9345221056094
20
-22.2999999999999
30
0
41
1
10
62.9270180784932
20
-22.2999999999999
30
0
41
1
10
62.9198259414834
20
-22.2999999999999
30
0
41
1
10
62.9141937008629
20
-22.2999999999999
30
0
41
1
10
62.9105156430122
20
-22.2999999999998
30
0
0
SPLINE
5
1AC
100
AcDbEntity
8
1
62
256
6
ByLayer
370
13
48
1
60
0
100
AcDbSpline
70
4
71
3
72
8
73
4
40
0
40
0
40
0
40
0
40
1
40
1
40
1
40
1
41
1
10
65.0520356091022
20
-23.6498956867883
30
0
41
1
10
65.1898797708723
20
-23.669034334198
30
0
41
1
10
65.3277221857777
20
-23.6881850172815
30
0
41
1
10
65.465561826902
20
-23.7073545448677
30
0
0
SPLINE
5
1AD
100
AcDbEntity
8
1
62
256
6
ByLayer
370
13
48
1
60
0
100
AcDbSpline
70
4
71
3
72
10
73
6
40
0
40
0
40
0
40
0
40
0.429814431875093
40
0.429814431875093
40
1
40
1
40
1
40
1
41
1
10
62.9291721825288
20
-26.5534275254038
30
0
41
1
10
62.9817507403392
20
-26.5520463856958
30
0
41
1
10
63.0334870091772
20
-26.5533938813723
30
0
41
1
10
63.154824648867
20
-26.5533901180082
30
0
41
1
10
63.2240085957053
20
-26.5533912085785
30
0
41
1
10
63.2931927050601
20
-26.5533917856403
30
0
0
SPLINE
5
1AE
100
AcDbEntity
8
1
62
256
6
ByLayer
370
13
48
1
60
0
100
AcDbSpline
70
4
71
3
72
8
73
4
40
0
40
0
40
0
40
0
40
1
40
1
40
1
40
1
41
1
10
63.2931927050601
20
-26.5533917856403
30
0
41
1
10
63.2950100653161
20
-26.5533918007988
30
0
41
1
10
63.296834152092
20
-26.5537254521591
30
0
41
1
10
63.2986272418367
20
-26.5544258990028
30
0
0
SPLINE
5
1AF
100
AcDbEntity
8
1
62
256
6
ByLayer
370
13
48
1
60
0
100
AcDbSpline
70
4
71
3
72
8
73
4
40
0
40
0
40
0
40
0
40
1
40
1
40
1
40
1
41
1
10
63.2986272418368
20
-22.4455741009965
30
0
41
1
10
63.2968341520921
20
-22.4462745478402
30
0
41
1
10
63.2950100653161
20
-22.4466081992009
30
0
41
1
10
63.2931927050601
20
-22.4466082143594
30
0
0
SPLINE
5
1B0
100
AcDbEntity
8
1
62
256
6
ByLayer
370
13
48
1
60
0
100
AcDbSpline
70
4
71
3
72
12
73
8
40
0
40
0
40
0
40
0
40
0.446162353448865
40
0.446162353448865
40
0.913525316268472
40
0.913525316268472
40
1
40
1
40
1
40
1
41
1
10
68.3080209311119
20
-26.2338758120953
30
0
41
1
10
68.0237379010492
20
-26.1873796702301
30
0
41
1
10
67.7341683347816
20
-26.1433773996228
30
0
41
1
10
67.173398570925
20
-26.1020024621258
30
0
41
1
10
66.8958173425284
20
-26.0997027514358
30
0
41
1
10
66.6097198409166
20
-26.1343061268931
30
0
41
1
10
66.5654951334019
20
-26.1409132642534
30
0
41
1
10
66.522546519857
20
-26.1487350489124
30
0
0
SPLINE
5
1B1
100
AcDbEntity
8
1
62
256
6
ByLayer
370
13
48
1
60
0
100
AcDbSpline
70
4
71
3
72
12
73
8
40
0
40
0
40
0
40
0
40
0.446162353448865
40
0.446162353448865
40
0.913525316268472
40
0.913525316268472
40
1
40
1
40
1
40
1
41
1
10
68.3080209311119
20
-22.7661241879044
30
0
41
1
10
68.0237379010492
20
-22.8126203297697
30
0
41
1
10
67.7341683347816
20
-22.8566226003769
30
0
41
1
10
67.173398570925
20
-22.897997537874
30
0
41
1
10
66.8958173425284
20
-22.9002972485639
30
0
41
1
10
66.6097198409166
20
-22.8656938731067
30
0
41
1
10
66.5654951334019
20
-22.8590867357464
30
0
41
1
10
66.522546519857
20
-22.8512649510873
30
0
0
SPLINE
5
1B2
100
AcDbEntity
8
1
62
256
6
ByLayer
370
13
48
1
60
0
100
AcDbSpline
70
4
71
3
72
12
73
8
40
0
40
0
40
0
40
0
40
0.097045488675419
40
0.097045488675419
40
0.46856848705314
40
0.46856848705314
40
1
40
1
40
1
40
1
41
1
10
63.2931927050601
20
-22.4466082143594
30
0
41
1
10
63.2814175811818
20
-22.4466083125753
30
0
41
1
10
63.2696424637538
20
-22.4466084311711
30
0
41
1
10
63.2127882142952
20
-22.4466090212464
30
0
41
1
10
63.167709088726
20
-22.4466095131486
30
0
41
1
10
63.0581471684549
20
-22.4466075331331
30
0
41
1
10
62.9941814061991
20
-22.4482801444891
30
0
41
1
10
62.9291721825288
20
-22.4465724745959
30
0
0
SPLINE
5
1B3
100
AcDbEntity
8
1
62
256
6
ByLayer
370
13
48
1
60
0
100
AcDbSpline
70
4
71
3
72
8
73
4
40
0
40
0
40
0
40
0
40
1
40
1
40
1
40
1
41
1
10
66.5194240279073
20
-26.1499672236965
30
0
41
1
10
66.5375224093968
20
-26.3839555391789
30
0
41
1
10
66.5560816104739
20
-26.6179087626274
30
0
41
1
10
66.5751468255075
20
-26.8518202897931
30
0
0
SPLINE
5
1B4
100
AcDbEntity
8
1
62
256
6
ByLayer
370
13
48
1
60
0
100
AcDbSpline
70
4
71
3
72
10
73
6
40
0
40
0
40
0
40
0
40
0.66186493310015
40
0.66186493310015
40
1
40
1
40
1
40
1
41
1
10
66.522546519857
20
-26.1487350489124
30
0
41
1
10
66.5218272660526
20
-26.1488660391333
30
0
41
1
10
66.5211157003955
20
-26.1490816425504
30
0
41
1
10
66.5200910301868
20
-26.1495604622194
30
0
41
1
10
66.5197512894157
20
-26.1497498974219
30
0
41
1
10
66.5194240279075
20
-26.1499672236965
30
0
0
SPLINE
5
1B5
100
AcDbEntity
8
1
62
256
6
ByLayer
370
13
48
1
60
0
100
AcDbSpline
70
4
71
3
72
10
73
6
40
0
40
0
40
0
40
0
40
0.66186493310015
40
0.66186493310015
40
1
40
1
40
1
40
1
41
1
10
66.522546519857
20
-22.8512649510873
30
0
41
1
10
66.5218272660526
20
-22.8511339608664
30
0
41
1
10
66.5211157003955
20
-22.8509183574494
30
0
41
1
10
66.5200910301868
20
-22.8504395377804
30
0
41
1
10
66.5197512894157
20
-22.8502501025779
30
0
41
1
10
66.5194240279075
20
-22.8500327763033
30
0
0
SPLINE
5
1B6
100
AcDbEntity
8
1
62
256
6
ByLayer
370
13
48
1
60
0
100
AcDbSpline
70
4
71
3
72
8
73
4
40
0
40
0
40
0
40
0
40
1
40
1
40
1
40
1
41
1
10
66.5194240279073
20
-22.8500327763032
30
0
41
1
10
66.5375224093968
20
-22.6160444608208
30
0
41
1
10
66.5560816104739
20
-22.3820912373723
30
0
41
1
10
66.5751468255075
20
-22.1481797102067
30
0
0
SPLINE
5
1B7
100
AcDbEntity
8
1
62
256
6
ByLayer
370
13
48
1
60
0
100
AcDbSpline
70
4
71
3
72
8
73
4
40
0
40
0
40
0
40
0
40
1
40
1
40
1
40
1
41
1
10
65.0823583168192
20
-25.5700873844633
30
0
41
1
10
65.2202111766753
20
-25.5510855282296
30
0
41
1
10
65.3580655312504
20
-25.532094514189
30
0
41
1
10
65.4959209603994
20
-25.513111306741
30
0
0
SPLINE
5
1B8
100
AcDbEntity
8
1
62
256
6
ByLayer
370
13
48
1
60
0
100
AcDbSpline
70
4
71
3
72
10
73
6
40
0
40
0
40
0
40
0
40
0.735245446204665
40
0.735245446204665
40
1
40
1
40
1
40
1
41
1
10
66.3604948530829
20
-26.1697647410695
30
0
41
1
10
66.1351841532664
20
-26.028029948209
30
0
41
1
10
65.9190513871272
20
-25.8707737258954
30
0
41
1
10
65.6398209448933
20
-25.640163681179
30
0
41
1
10
65.5671678688689
20
-25.5773990756177
30
0
41
1
10
65.4959209603994
20
-25.513111306741
30
0
0
SPLINE
5
1B9
100
AcDbEntity
8
1
62
256
6
ByLayer
370
13
48
1
60
0
100
AcDbSpline
70
4
71
3
72
8
73
4
40
0
40
0
40
0
40
0
40
1
40
1
40
1
40
1
41
1
10
66.4189357069485
20
-26.8461019979996
30
0
41
1
10
66.3989606781221
20
-26.6206995424962
30
0
41
1
10
66.3794949705365
20
-26.3952514685289
30
0
41
1
10
66.360494853083
20
-26.1697647410695
30
0
0
SPLINE
5
1BA
100
AcDbEntity
8
1
62
256
6
ByLayer
370
13
48
1
60
0
100
AcDbSpline
70
4
71
3
72
8
73
4
40
0
40
0
40
0
40
0
40
1
40
1
40
1
40
1
41
1
10
66.4189357069485
20
-22.1538980020001
30
0
41
1
10
66.3989606781221
20
-22.3793004575036
30
0
41
1
10
66.3794949705365
20
-22.6047485314709
30
0
41
1
10
66.360494853083
20
-22.8302352589302
30
0
0
SPLINE
5
1BB
100
AcDbEntity
8
1
62
256
6
ByLayer
370
13
48
1
60
0
100
AcDbSpline
70
4
71
3
72
14
73
10
40
0
40
0
40
0
40
0
40
0.285062144130617
40
0.285062144130617
40
0.566464995147806
40
0.566464995147806
40
0.851712725177373
40
0.851712725177373
40
1
40
1
40
1
40
1
41
1
10
64.1813466597388
20
-25.7986142989012
30
0
41
1
10
64.2354314797172
20
-25.7991410429572
30
0
41
1
10
64.2933676072007
20
-25.7973845162133
30
0
41
1
10
64.4074421942018
20
-25.7896501368848
30
0
41
1
10
64.464968326041
20
-25.7836358743082
30
0
41
1
10
64.5742320266077
20
-25.768102183755
30
0
41
1
10
64.6271918556632
20
-25.7583536159569
30
0
41
1
10
64.6992914010575
20
-25.7416554909337
30
0
41
1
10
64.7227954896707
20
-25.7355320054563
30
0
41
1
10
64.7445778714942
20
-25.7291477796932
30
0
0
SPLINE
5
1BC
100
AcDbEntity
8
1
62
256
6
ByLayer
370
13
48
1
60
0
100
AcDbSpline
70
4
71
3
72
8
73
4
40
0
40
0
40
0
40
0
40
1
40
1
40
1
40
1
41
1
10
65.4959206607396
20
-23.4868889636489
30
0
41
1
10
65.3580653291587
20
-23.4679058322143
30
0
41
1
10
65.2202110744688
20
-23.448914877325
30
0
41
1
10
65.0823583168192
20
-23.4299130633923
30
0
0
SPLINE
5
1BD
100
AcDbEntity
8
1
62
256
6
ByLayer
370
13
48
1
60
0
100
AcDbSpline
70
4
71
3
72
10
73
6
40
0
40
0
40
0
40
0
40
0.735245173215393
40
0.735245173215393
40
1
40
1
40
1
40
1
41
1
10
66.3604948530829
20
-22.8302352589302
30
0
41
1
10
66.1351841532664
20
-22.9719700517907
30
0
41
1
10
65.9190513871272
20
-23.1292262741043
30
0
41
1
10
65.6398208411871
20
-23.3598364044692
30
0
41
1
10
65.5671676651882
20
-23.4226011003423
30
0
41
1
10
65.4959206607523
20
-23.4868889636374
30
0
0
SPLINE
5
1BE
100
AcDbEntity
8
1
62
256
6
ByLayer
370
13
48
1
60
0
100
AcDbSpline
70
4
71
3
72
14
73
10
40
0
40
0
40
0
40
0
40
0.312465139410283
40
0.312465139410283
40
0.633033174040285
40
0.633033174040285
40
0.935779057490139
40
0.935779057490139
40
1
40
1
40
1
40
1
41
1
10
64.7445778714941
20
-23.2708526967745
30
0
41
1
10
64.6990942811236
20
-23.2575218515873
30
0
41
1
10
64.6456101801587
20
-23.2452549029686
30
0
41
1
10
64.5296637122458
20
-23.224683265981
30
0
41
1
10
64.4652792914178
20
-23.2161909212354
30
0
41
1
10
64.3401538762821
20
-23.205021319762
30
0
41
1
10
64.2776897780797
20
-23.2018981914085
30
0
41
1
10
64.2062380517514
20
-23.2012618704677
30
0
41
1
10
64.1937073862825
20
-23.2012657286805
30
0
41
1
10
64.1813466597388
20
-23.2013861104048
30
0
0
SPLINE
5
1BF
100
AcDbEntity
8
1
62
256
6
ByLayer
370
13
48
1
60
0
100
AcDbSpline
70
4
71
3
72
12
73
8
40
0
40
0
40
0
40
0
40
0.456747676619458
40
0.456747676619458
40
0.981156035943025
40
0.981156035943025
40
1
40
1
40
1
40
1
41
1
10
66.4509746186693
20
-22.9623823332782
30
0
41
1
10
66.4395358361747
20
-22.9456393198226
30
0
41
1
10
66.4264052498597
20
-22.9264346039495
30
0
41
1
10
66.3966976735128
20
-22.8830321184115
30
0
41
1
10
66.3794123714819
20
-22.8578068604413
30
0
41
1
10
66.361726655458
20
-22.8320304551786
30
0
41
1
10
66.361110738461
20
-22.8311328538669
30
0
41
1
10
66.3604948530776
20
-22.830235258933
30
0
0
SPLINE
5
1C0
100
AcDbEntity
8
1
62
256
6
ByLayer
370
13
48
1
60
0
100
AcDbSpline
70
4
71
3
72
10
73
6
40
0
40
0
40
0
40
0
40
0.648249027969341
40
0.648249027969341
40
1
40
1
40
1
40
1
41
1
10
66.4715765647289
20
-22.9911720523586
30
0
41
1
10
66.4674517415713
20
-22.9857212049414
30
0
41
1
10
66.4630893933127
20
-22.9797365030098
30
0
41
1
10
66.4560766784025
20
-22.9697934445594
30
0
41
1
10
66.4535496776649
20
-22.9661514623285
30
0
41
1
10
66.4509746186698
20
-22.9623823332779
30
0
0
SPLINE
5
1C1
100
AcDbEntity
8
1
62
256
6
ByLayer
370
13
48
1
60
0
100
AcDbSpline
70
4
71
3
72
10
73
6
40
0
40
0
40
0
40
0
40
0.648249027969341
40
0.648249027969341
40
1
40
1
40
1
40
1
41
1
10
66.4715765647289
20
-26.0088279476412
30
0
41
1
10
66.4674517415713
20
-26.0142787950584
30
0
41
1
10
66.4630893933127
20
-26.02026349699
30
0
41
1
10
66.4560766784025
20
-26.0302065554404
30
0
41
1
10
66.4535496776649
20
-26.0338485376712
30
0
41
1
10
66.4509746186698
20
-26.0376176667218
30
0
0
SPLINE
5
1C2
100
AcDbEntity
8
1
62
256
6
ByLayer
370
13
48
1
60
0
100
AcDbSpline
70
4
71
3
72
12
73
8
40
0
40
0
40
0
40
0
40
0.456747676619458
40
0.456747676619458
40
0.981156035943025
40
0.981156035943025
40
1
40
1
40
1
40
1
41
1
10
66.4509746186693
20
-26.0376176667215
30
0
41
1
10
66.4395358361747
20
-26.0543606801772
30
0
41
1
10
66.4264052498597
20
-26.0735653960502
30
0
41
1
10
66.3966976735128
20
-26.1169678815882
30
0
41
1
10
66.3794123714819
20
-26.1421931395585
30
0
41
1
10
66.361726655458
20
-26.1679695448212
30
0
41
1
10
66.361110738461
20
-26.1688671461328
30
0
41
1
10
66.3604948530776
20
-26.1697647410667
30
0
0
SPLINE
5
1C3
100
AcDbEntity
8
1
62
256
6
ByLayer
370
13
48
1
60
0
100
AcDbSpline
70
4
71
3
72
10
73
6
40
0
40
0
40
0
40
0
40
0.47226940634438
40
0.47226940634438
40
1
40
1
40
1
40
1
41
1
10
65.8148303211307
20
-24.0212600705527
30
0
41
1
10
65.7820572623393
20
-23.9874798446832
30
0
41
1
10
65.7542413036991
20
-23.9510814207094
30
0
41
1
10
65.7086468495572
20
-23.8765466332572
30
0
41
1
10
65.691635919795
20
-23.837729790839
30
0
41
1
10
65.6829840127524
20
-23.8040903047635
30
0
0
SPLINE
5
1C4
100
AcDbEntity
8
1
62
256
6
ByLayer
370
13
48
1
60
0
100
AcDbSpline
70
4
71
3
72
11
73
7
40
0
40
0
40
0
40
0
40
0.377684193944734
40
0.377684193944734
40
0.377684193944734
40
1
40
1
40
1
40
1
41
1
10
65.8148303211302
20
-24.0212600705534
30
0
41
1
10
66.0560408700062
20
-23.9671757768839
30
0
41
1
10
66.3141929682629
20
-23.9081193165092
30
0
41
1
10
66.5806434977873
20
-23.8464729683436
30
0
41
1
10
67.0160384766795
20
-23.7457394081353
30
0
41
1
10
67.4839774507975
20
-23.6355759299911
30
0
41
1
10
67.9452047820325
20
-23.5262491084917
30
0
0
SPLINE
5
1C5
100
AcDbEntity
8
1
62
256
6
ByLayer
370
13
48
1
60
0
100
AcDbSpline
70
4
71
3
72
12
73
8
40
0
40
0
40
0
40
0
40
0.450990104104386
40
0.450990104104386
40
0.941653153234684
40
0.941653153234684
40
1
40
1
40
1
40
1
41
1
10
65.6829842751338
20
-25.1959097638635
30
0
41
1
10
65.6903964617538
20
-25.167090326148
30
0
41
1
10
65.7039100726209
20
-25.1345516661802
30
0
41
1
10
65.7430512977276
20
-25.0649904445563
30
0
41
1
10
65.7702053188827
20
-25.0270083336775
30
0
41
1
10
65.8067394296903
20
-24.9871970505964
30
0
41
1
10
65.8107449633077
20
-24.9829509610674
30
0
41
1
10
65.814830417275
20
-24.9787399510002
30
0
0
SPLINE
5
1C6
100
AcDbEntity
8
1
62
256
6
ByLayer
370
13
48
1
60
0
100
AcDbSpline
70
4
71
3
72
11
73
7
40
0
40
0
40
0
40
0
40
0.37768416286754
40
0.37768416286754
40
0.37768416286754
40
1
40
1
40
1
40
1
41
1
10
65.8148304172784
20
-24.9787399510047
30
0
41
1
10
66.056040938399
20
-25.0328242387472
30
0
41
1
10
66.314193003468
20
-25.0918806916356
30
0
41
1
10
66.5806434977873
20
-25.1535270316562
30
0
41
1
10
67.0160384766795
20
-25.2542605918644
30
0
41
1
10
67.4839774507975
20
-25.3644240700086
30
0
41
1
10
67.9452047820325
20
-25.473750891508
30
0
0
SPLINE
5
1C7
100
AcDbEntity
8
1
62
256
6
ByLayer
370
13
48
1
60
0
100
AcDbSpline
70
4
71
3
72
12
73
8
40
0
40
0
40
0
40
0
40
0.481621165173274
40
0.481621165173274
40
0.901905632903789
40
0.901905632903789
40
1
40
1
40
1
40
1
41
1
10
64.7445778714941
20
-25.7291477796933
30
0
41
1
10
64.7856306266091
20
-25.6962326706749
30
0
41
1
10
64.8349612796708
20
-25.6656737822309
30
0
41
1
10
64.9365142413742
20
-25.6151768585783
30
0
41
1
10
64.9889703855346
20
-25.5939127209903
30
0
41
1
10
65.0562253817947
20
-25.5758961175921
30
0
41
1
10
65.0692587001345
20
-25.572795892287
30
0
41
1
10
65.0823583168192
20
-25.5700873844633
30
0
0
SPLINE
5
1C8
100
AcDbEntity
8
1
62
256
6
ByLayer
370
13
48
1
60
0
100
AcDbSpline
70
4
71
3
72
12
73
8
40
0
40
0
40
0
40
0
40
0.420702072206737
40
0.420702072206737
40
0.850903768208396
40
0.850903768208396
40
1
40
1
40
1
40
1
41
1
10
65.0823583168192
20
-23.4299130633923
30
0
41
1
10
65.0271333094112
20
-23.4184946267964
30
0
41
1
10
64.9727761511562
20
-23.3996596556627
30
0
41
1
10
64.873075554115
20
-23.3548903718982
30
0
41
1
10
64.8260346211675
20
-23.3290465430056
30
0
41
1
10
64.7710197947053
20
-23.2912597321562
30
0
41
1
10
64.7574342791626
20
-23.2811606561874
30
0
41
1
10
64.7445778714941
20
-23.2708526967745
30
0
0
SPLINE
5
1C9
100
AcDbEntity
8
1
62
256
6
ByLayer
370
13
48
1
60
0
100
AcDbSpline
70
4
71
3
72
8
73
4
40
0
40
0
40
0
40
0
40
1
40
1
40
1
40
1
41
1
10
64.1813466597388
20
-23.2013861104048
30
0
41
1
10
64.0579410962568
20
-23.20357795703
30
0
41
1
10
63.9345373502359
20
-23.2058890518719
30
0
41
1
10
63.8111299346595
20
-23.2079594416725
30
0
0
SPLINE
5
1CA
100
AcDbEntity
8
1
62
256
6
ByLayer
370
13
48
1
60
0
100
AcDbSpline
70
4
71
3
72
8
73
4
40
0
40
0
40
0
40
0
40
1
40
1
40
1
40
1
41
1
10
63.8111298158822
20
-25.7920408142678
30
0
41
1
10
63.9345372709257
20
-25.7941112665874
30
0
41
1
10
64.0579410564829
20
-25.7964224127399
30
0
41
1
10
64.1813466597388
20
-25.7986142989012
30
0
0
SPLINE
5
1CB
100
AcDbEntity
8
1
62
256
6
ByLayer
370
13
48
1
60
0
100
AcDbSpline
70
4
71
3
72
14
73
10
40
0
40
0
40
0
40
0
40
0.296336902034371
40
0.296336902034371
40
0.500919501582311
40
0.500919501582311
40
0.705835321647557
40
0.705835321647557
40
1
40
1
40
1
40
1
41
1
10
65.8148304172784
20
-24.9787399510047
30
0
41
1
10
65.8660677167673
20
-24.896645895112
30
0
41
1
10
65.9104038791952
20
-24.8054665305828
30
0
41
1
10
65.956339122512
20
-24.6411562565502
30
0
41
1
10
65.9668678182987
20
-24.5697508415603
30
0
41
1
10
65.9666931573394
20
-24.4282792322164
30
0
41
1
10
65.9559491921173
20
-24.3567972718045
30
0
41
1
10
65.909769034297
20
-24.1932201779695
30
0
41
1
10
65.8657051166848
20
-24.1027732503862
30
0
41
1
10
65.8148303211301
20
-24.0212600705532
30
0
0
SPLINE
5
1CC
100
AcDbEntity
8
1
62
256
6
ByLayer
370
13
48
1
60
0
100
AcDbSpline
70
4
71
3
72
8
73
4
40
0
40
0
40
0
40
0
40
1
40
1
40
1
40
1
41
1
10
63.2942061665889
20
-22.4532020272647
30
0
41
1
10
63.2961388882516
20
-22.4530967031808
30
0
41
1
10
63.2980820985356
20
-22.4526503606753
30
0
41
1
10
63.3000011338344
20
-22.4518363582193
30
0
0
SPLINE
5
1CD
100
AcDbEntity
8
1
62
256
6
ByLayer
370
13
48
1
60
0
100
AcDbSpline
70
4
71
3
72
8
73
4
40
0
40
0
40
0
40
0
40
1
40
1
40
1
40
1
41
1
10
63.2942061665889
20
-26.5467979727351
30
0
41
1
10
63.2961388882516
20
-26.5469032968189
30
0
41
1
10
63.2980820985356
20
-26.5473496393244
30
0
41
1
10
63.3000011338344
20
-26.5481636417805
30
0
0
SPLINE
5
1CE
100
AcDbEntity
8
1
62
256
6
ByLayer
370
13
48
1
60
0
100
AcDbSpline
70
4
71
3
72
12
73
8
40
0
40
0
40
0
40
0
40
0.456750585004434
40
0.456750585004434
40
0.981156431701552
40
0.981156431701552
40
1
40
1
40
1
40
1
41
1
10
66.5194240279075
20
-22.8500327763033
30
0
41
1
10
66.4993013296112
20
-22.8475263169872
30
0
41
1
10
66.476214663313
20
-22.8446505945641
30
0
41
1
10
66.4240212508577
20
-22.8381490302173
30
0
41
1
10
66.3936761766719
20
-22.8343688956115
30
0
41
1
10
66.3626553113416
20
-22.8305044033997
30
0
41
1
10
66.3615750708371
20
-22.8303698296326
30
0
41
1
10
66.3604948532722
20
-22.8302352589439
30
0
0
SPLINE
5
1CF
100
AcDbEntity
8
1
62
256
6
ByLayer
370
13
48
1
60
0
100
AcDbSpline
70
4
71
3
72
12
73
8
40
0
40
0
40
0
40
0
40
0.456750585004434
40
0.456750585004434
40
0.981156431701552
40
0.981156431701552
40
1
40
1
40
1
40
1
41
1
10
66.5194240279075
20
-26.1499672236965
30
0
41
1
10
66.4993013296112
20
-26.1524736830125
30
0
41
1
10
66.476214663313
20
-26.1553494054356
30
0
41
1
10
66.4240212508577
20
-26.1618509697824
30
0
41
1
10
66.3936761766719
20
-26.1656311043882
30
0
41
1
10
66.3626553113416
20
-26.1694955966
30
0
41
1
10
66.3615750708371
20
-26.1696301703671
30
0
41
1
10
66.3604948532722
20
-26.1697647410558
30
0
0
SPLINE
5
1D0
100
AcDbEntity
8
1
62
256
6
ByLayer
370
13
48
1
60
0
100
AcDbSpline
70
4
71
3
72
12
73
8
40
0
40
0
40
0
40
0
40
0.407652787610617
40
0.407652787610617
40
0.80675425507476
40
0.80675425507476
40
1
40
1
40
1
40
1
41
1
10
63.6827261627815
20
-23.2903821029882
30
0
41
1
10
63.6423493903773
20
-23.3391350151867
30
0
41
1
10
63.6100632367462
20
-23.4069615603405
30
0
41
1
10
63.5760713525874
20
-23.5814580751724
30
0
41
1
10
63.5722997161055
20
-23.6879609118762
30
0
41
1
10
63.5864044365501
20
-23.860915642676
30
0
41
1
10
63.5941788065669
20
-23.9207107717424
30
0
41
1
10
63.6048054173026
20
-23.9819516762818
30
0
0
SPLINE
5
1D1
100
AcDbEntity
8
1
62
256
6
ByLayer
370
13
48
1
60
0
100
AcDbSpline
70
4
71
3
72
24
73
20
40
0
40
0
40
0
40
0
40
0.25
40
0.3125
40
0.3125
40
0.375
40
0.375
40
0.5
40
0.625
40
0.6875
40
0.6875
40
0.75
40
0.75
40
0.875
40
0.875
40
0.9375
40
0.9990234375
40
0.9990234375
40
1
40
1
40
1
40
1
41
1
10
63.7928855362849
20
-23.9885466926311
30
0
41
1
10
63.7735058405859
20
-23.9924389557444
30
0
41
1
10
63.7500219604898
20
-23.9959135052368
30
0
41
1
10
63.7274462335765
20
-23.9976971384492
30
0
41
1
10
63.7184908164345
20
-23.9982706604807
30
0
41
1
10
63.7140357684625
20
-23.9984881740305
30
0
41
1
10
63.7009086714262
20
-23.9989223289908
30
0
41
1
10
63.6840638506437
20
-23.9989242590005
30
0
41
1
10
63.6646031095877
20
-23.9975278516045
30
0
41
1
10
63.6536539959649
20
-23.9960522495579
30
0
41
1
10
63.6465202483459
20
-23.9949232551958
30
0
41
1
10
63.6430323536057
20
-23.9942848116952
30
0
41
1
10
63.6329462679787
20
-23.9921733144765
30
0
41
1
10
63.6266760085806
20
-23.9905017772482
30
0
41
1
10
63.6179576652336
20
-23.9875955043178
30
0
41
1
10
63.6124180704423
20
-23.9855411758166
30
0
41
1
10
63.6073314608476
20
-23.9832239724945
30
0
41
1
10
63.6048818820026
20
-23.9819902783107
30
0
41
1
10
63.6048436355454
20
-23.9819709854775
30
0
41
1
10
63.6048054173026
20
-23.9819516762818
30
0
0
SPLINE
5
1D2
100
AcDbEntity
8
1
62
256
6
ByLayer
370
13
48
1
60
0
100
AcDbSpline
70
4
71
3
72
12
73
8
40
0
40
0
40
0
40
0
40
0.308993760133951
40
0.308993760133951
40
0.683588934766892
40
0.683588934766892
40
1
40
1
40
1
40
1
41
1
10
63.6048053546503
20
-25.0180483237179
30
0
41
1
10
63.5879447413016
20
-25.1152155807562
30
0
41
1
10
63.5782978958977
20
-25.2090630116522
30
0
41
1
10
63.57500258097
20
-25.3962132224944
30
0
41
1
10
63.5851737729859
20
-25.4878413848631
30
0
41
1
10
63.6242985955955
20
-25.6229913575026
30
0
41
1
10
63.6512264716852
20
-25.6715839946608
30
0
41
1
10
63.6827260440042
20
-25.709618152952
30
0
0
SPLINE
5
1D3
100
AcDbEntity
8
1
62
256
6
ByLayer
370
13
48
1
60
0
100
AcDbSpline
70
4
71
3
72
9
73
5
40
0
40
0
40
0
40
0
40
0.499743409265181
40
1
40
1
40
1
40
1
41
1
10
63.7928855278383
20
-25.0114533503754
30
0
41
1
10
63.7543020074558
20
-25.0058574268779
30
0
41
1
10
63.6770953456626
20
-24.9946598334854
30
0
41
1
10
63.6289102608853
20
-25.0102494935322
30
0
41
1
10
63.6048053546503
20
-25.0180483237179
30
0
0
SPLINE
5
1D4
100
AcDbEntity
8
1
62
256
6
ByLayer
370
13
48
1
60
0
100
AcDbSpline
70
4
71
2
72
6
73
3
40
0
40
0
40
0
40
1
40
1
40
1
41
1
10
63.4140087529927
20
-23.9819516762818
30
0
41
1
10
63.5094070851476
20
-23.9819516762818
30
0
41
1
10
63.6048054173026
20
-23.9819516762818
30
0
0
SPLINE
5
1D5
100
AcDbEntity
8
1
62
256
6
ByLayer
370
13
48
1
60
0
100
AcDbSpline
70
4
71
2
72
6
73
3
40
0
40
0
40
0
40
1
40
1
40
1
41
1
10
62.93015299629
20
-22.4531662875012
30
0
41
1
10
63.1720808746414
20
-23.2175589818915
30
0
41
1
10
63.4140087529927
20
-23.9819516762818
30
0
0
SPLINE
5
1D6
100
AcDbEntity
8
1
62
256
6
ByLayer
370
13
48
1
60
0
100
AcDbSpline
70
4
71
3
72
12
73
8
40
0
40
0
40
0
40
0
40
0.429865222127252
40
0.429865222127252
40
0.859701708003693
40
0.859701708003693
40
1
40
1
40
1
40
1
41
1
10
62.93015299629
20
-22.4531662875012
30
0
41
1
10
62.9827425698598
20
-22.4545253638509
30
0
41
1
10
63.0344895999536
20
-22.4531999311968
30
0
41
1
10
63.1388130934788
20
-22.4532031668567
30
0
41
1
10
63.1909725495536
20
-22.4532030555641
30
0
41
1
10
63.2601566366992
20
-22.4532023566229
30
0
41
1
10
63.2771813944671
20
-22.4532021692676
30
0
41
1
10
63.2942061665889
20
-22.4532020272647
30
0
0
SPLINE
5
1D7
100
AcDbEntity
8
1
62
256
6
ByLayer
370
13
48
1
60
0
100
AcDbSpline
70
4
71
3
72
12
73
8
40
0
40
0
40
0
40
0
40
0.140298291996301
40
0.140298291996301
40
0.570134777872745
40
0.570134777872745
40
1
40
1
40
1
40
1
41
1
10
63.2942061665889
20
-26.5467979727351
30
0
41
1
10
63.2771813944671
20
-26.5467978307321
30
0
41
1
10
63.2601566366992
20
-26.5467976433768
30
0
41
1
10
63.1909725495536
20
-26.5467969444357
30
0
41
1
10
63.1388130934788
20
-26.546796833143
30
0
41
1
10
63.0344895999536
20
-26.5468000688029
30
0
41
1
10
62.9827425698598
20
-26.5454746361488
30
0
41
1
10
62.93015299629
20
-26.5468337124986
30
0
0
SPLINE
5
1D8
100
AcDbEntity
8
1
62
256
6
ByLayer
370
13
48
1
60
0
100
AcDbSpline
70
4
71
2
72
6
73
3
40
0
40
0
40
0
40
1
40
1
40
1
41
1
10
63.4140087529927
20
-25.0180483237179
30
0
41
1
10
63.5094070538215
20
-25.0180483237179
30
0
41
1
10
63.6048053546503
20
-25.0180483237179
30
0
0
SPLINE
5
1D9
100
AcDbEntity
8
1
62
256
6
ByLayer
370
13
48
1
60
0
100
AcDbSpline
70
4
71
2
72
6
73
3
40
0
40
0
40
0
40
1
40
1
40
1
41
1
10
62.93015299629
20
-26.5468337124986
30
0
41
1
10
63.1720808746414
20
-25.7824410181082
30
0
41
1
10
63.4140087529927
20
-25.0180483237179
30
0
0
SPLINE
5
1DA
100
AcDbEntity
8
1
62
256
6
ByLayer
370
13
48
1
60
0
100
AcDbSpline
70
4
71
3
72
8
73
4
40
0
40
0
40
0
40
0
40
1
40
1
40
1
40
1
41
1
10
69.8921442338084
20
-23.2096982440934
30
0
41
1
10
69.8627647515653
20
-23.1751464267315
30
0
41
1
10
69.8279641482437
20
-23.1450190084683
30
0
41
1
10
69.7909653354444
20
-23.1188702552209
30
0
0
SPLINE
5
1DB
100
AcDbEntity
8
1
62
256
6
ByLayer
370
13
48
1
60
0
100
AcDbSpline
70
4
71
3
72
8
73
4
40
0
40
0
40
0
40
0
40
1
40
1
40
1
40
1
41
1
10
69.7909653354444
20
-23.118870255221
30
0
41
1
10
69.7313904454621
20
-23.0767659556496
30
0
41
1
10
69.6714380804948
20
-23.0351802591341
30
0
41
1
10
69.6107752183728
20
-22.9946648914278
30
0
0
SPLINE
5
1DC
100
AcDbEntity
8
1
62
256
6
ByLayer
370
13
48
1
60
0
100
AcDbSpline
70
4
71
3
72
10
73
6
40
0
40
0
40
0
40
0
40
0.742990102267645
40
0.742990102267645
40
1
40
1
40
1
40
1
41
1
10
69.6107752183728
20
-22.9946648914278
30
0
41
1
10
69.5899301363519
20
-22.9807429277518
30
0
41
1
10
69.5696186119127
20
-22.9656782476958
30
0
41
1
10
69.5453944188342
20
-22.9421228060606
30
0
41
1
10
69.5394295011685
20
-22.9357237170335
30
0
41
1
10
69.5340357485912
20
-22.9288791283458
30
0
0
SPLINE
5
1DD
100
AcDbEntity
8
1
62
256
6
ByLayer
370
13
48
1
60
0
100
AcDbSpline
70
4
71
3
72
10
73
6
40
0
40
0
40
0
40
0
40
0.742990102267645
40
0.742990102267645
40
1
40
1
40
1
40
1
41
1
10
69.6107752183728
20
-26.0053351085719
30
0
41
1
10
69.5899301363519
20
-26.019257072248
30
0
41
1
10
69.5696186119127
20
-26.034321752304
30
0
41
1
10
69.5453944188342
20
-26.0578771939391
30
0
41
1
10
69.5394295011685
20
-26.0642762829662
30
0
41
1
10
69.5340357485912
20
-26.0711208716539
30
0
0
SPLINE
5
1DE
100
AcDbEntity
8
1
62
256
6
ByLayer
370
13
48
1
60
0
100
AcDbSpline
70
4
71
3
72
8
73
4
40
0
40
0
40
0
40
0
40
1
40
1
40
1
40
1
41
1
10
69.7909653354444
20
-25.8811297447788
30
0
41
1
10
69.7313904454621
20
-25.9232340443501
30
0
41
1
10
69.6714380804948
20
-25.9648197408657
30
0
41
1
10
69.6107752183728
20
-26.0053351085719
30
0
0
SPLINE
5
1DF
100
AcDbEntity
8
1
62
256
6
ByLayer
370
13
48
1
60
0
100
AcDbSpline
70
4
71
3
72
8
73
4
40
0
40
0
40
0
40
0
40
1
40
1
40
1
40
1
41
1
10
68.8080209311119
20
-22.7656982889678
30
0
41
1
10
68.6428355720663
20
-22.7435803527518
30
0
41
1
10
68.4728063563389
20
-22.7412137998322
30
0
41
1
10
68.3080209311119
20
-22.7661241879044
30
0
0
SPLINE
5
1E0
100
AcDbEntity
8
1
62
256
6
ByLayer
370
13
48
1
60
0
100
AcDbSpline
70
4
71
3
72
8
73
4
40
0
40
0
40
0
40
0
40
1
40
1
40
1
40
1
41
1
10
69.8921442338084
20
-25.7903017559063
30
0
41
1
10
69.8627647515653
20
-25.8248535732683
30
0
41
1
10
69.8279641482437
20
-25.8549809915314
30
0
41
1
10
69.7909653354444
20
-25.8811297447788
30
0
0
SPLINE
5
1E1
100
AcDbEntity
8
1
62
256
6
ByLayer
370
13
48
1
60
0
100
AcDbSpline
70
4
71
3
72
8
73
4
40
0
40
0
40
0
40
0
40
1
40
1
40
1
40
1
41
1
10
68.8080209311119
20
-26.234301711032
30
0
41
1
10
68.6428355720663
20
-26.2564196472479
30
0
41
1
10
68.4728063563389
20
-26.2587862001675
30
0
41
1
10
68.3080209311119
20
-26.2338758120953
30
0
0
SPLINE
5
1E2
100
AcDbEntity
8
1
62
256
6
ByLayer
370
13
48
1
60
0
100
AcDbSpline
70
4
71
3
72
8
73
4
40
0
40
0
40
0
40
0
40
1
40
1
40
1
40
1
41
1
10
69.4662283541793
20
-26.1213001081331
30
0
41
1
10
69.3645721130157
20
-26.1510948749974
30
0
41
1
10
69.2601844544977
20
-26.1720578768988
30
0
41
1
10
69.1553172864457
20
-26.184947806048
30
0
0
SPLINE
5
1E3
100
AcDbEntity
8
1
62
256
6
ByLayer
370
13
48
1
60
0
100
AcDbSpline
70
4
71
3
72
8
73
4
40
0
40
0
40
0
40
0
40
1
40
1
40
1
40
1
41
1
10
69.4662283541793
20
-22.8786998918667
30
0
41
1
10
69.3645721130157
20
-22.8489051250024
30
0
41
1
10
69.2601844544977
20
-22.827942123101
30
0
41
1
10
69.1553172864457
20
-22.8150521939517
30
0
0
SPLINE
5
1E4
100
AcDbEntity
8
1
62
256
6
ByLayer
370
13
48
1
60
0
100
AcDbSpline
70
4
71
3
72
22
73
18
40
0
40
0
40
0
40
0
40
0.000222718869746
40
0.000222718869746
40
0.259227458805804
40
0.259227458805804
40
0.465187962680825
40
0.465187962680825
40
0.514638646729743
40
0.514638646729743
40
0.731295224185332
40
0.731295224185332
40
0.772617906475971
40
0.772617906475971
40
0.999777281128767
40
0.999777281128767
40
1
40
1
40
1
40
1
41
1
10
64.035691245647
20
-24.6318857898185
30
0
41
1
10
64.0356932856395
20
-24.6319051972583
30
0
41
1
10
64.0356953283832
20
-24.6319246042703
30
0
41
1
10
64.0380663888124
20
-24.6545135048095
30
0
41
1
10
64.0365596228332
20
-24.6777619749043
30
0
41
1
10
64.0262287382005
20
-24.7171340957599
30
0
41
1
10
64.0188079227838
20
-24.7341828107227
30
0
41
1
10
64.0063644003339
20
-24.7532441173664
30
0
41
1
10
64.0037725995617
20
-24.7568870666076
30
0
41
1
10
63.9892423112083
20
-24.7756686620476
30
0
41
1
10
63.9743667237898
20
-24.7891764059837
30
0
41
1
10
63.9550246963389
20
-24.8019874117385
30
0
41
1
10
63.951823946192
20
-24.8039775515193
30
0
41
1
10
63.9309707186486
20
-24.8161704968599
30
0
41
1
10
63.9118439399919
20
-24.8238045388756
30
0
41
1
10
63.8928770947448
20
-24.8292106919528
30
0
41
1
10
63.8928585800716
20
-24.8292159648572
30
0
41
1
10
63.8928400660952
20
-24.8292212401835
30
0
0
SPLINE
5
1E5
100
AcDbEntity
8
1
62
256
6
ByLayer
370
13
48
1
60
0
100
AcDbSpline
70
4
71
3
72
20
73
16
40
0
40
0
40
0
40
0
40
0.0002232153553158
40
0.0002232153553158
40
0.274386302285847
40
0.274386302285847
40
0.473368417101266
40
0.473368417101266
40
0.521262782240241
40
0.521262782240241
40
0.760382585843684
40
0.760382585843684
40
0.999776784646173
40
0.999776784646173
40
1
40
1
40
1
40
1
41
1
10
63.892840140512
20
-24.1707787598162
30
0
41
1
10
63.8928586544878
20
-24.1707840351419
30
0
41
1
10
63.8928771691604
20
-24.1707893080456
30
0
41
1
10
63.9156355774231
20
-24.1772761764036
30
0
41
1
10
63.9387687151515
20
-24.1870729260989
30
0
41
1
10
63.9740397484175
20
-24.2107404497836
30
0
41
1
10
63.9877700889217
20
-24.2230671136444
30
0
41
1
10
64.0016713970764
20
-24.2403097628471
30
0
41
1
10
64.0042645879512
20
-24.2437947429746
30
0
41
1
10
64.0187113466353
20
-24.264872416359
30
0
41
1
10
64.0272715785523
20
-24.2848079504402
30
0
41
1
10
64.0367671024569
20
-24.3256198632023
30
0
41
1
10
64.0378953513001
20
-24.3471162281963
30
0
41
1
10
64.0356953494997
20
-24.3680753957371
30
0
41
1
10
64.0356933067495
20
-24.3680948027453
30
0
41
1
10
64.0356912667505
20
-24.3681142101813
30
0
0
SPLINE
5
1E6
100
AcDbEntity
8
1
62
256
6
ByLayer
370
13
48
1
60
0
100
AcDbSpline
70
4
71
3
72
8
73
4
40
0
40
0
40
0
40
0
40
1
40
1
40
1
40
1
41
1
10
69.1553172864458
20
-26.1849478060481
30
0
41
1
10
69.0406647169833
20
-26.2004961736361
30
0
41
1
10
68.9240025737786
20
-26.2169904762703
30
0
41
1
10
68.8080209311119
20
-26.234301711032
30
0
0
SPLINE
5
1E7
100
AcDbEntity
8
1
62
256
6
ByLayer
370
13
48
1
60
0
100
AcDbSpline
70
4
71
3
72
16
73
12
40
0
40
0
40
0
40
0
40
0.0364169573037049
40
0.0364169573037049
40
0.0997081083467255
40
0.0997081083467255
40
0.211635380228895
40
0.211635380228895
40
0.452209862564279
40
0.452209862564279
40
1
40
1
40
1
40
1
41
1
10
69.4662283541792
20
-22.8786998918666
30
0
41
1
10
69.4670387760248
20
-22.8793201575089
30
0
41
1
10
69.4678500729596
20
-22.8799399872486
30
0
41
1
10
69.470075804622
20
-22.8816391967088
30
0
41
1
10
69.4714916802361
20
-22.8827180841632
30
0
41
1
10
69.4754161685163
20
-22.885702680876
30
0
41
1
10
69.477928856633
20
-22.8876070120109
30
0
41
1
10
69.4858553152411
20
-22.8935924715476
30
0
41
1
10
69.4912894215204
20
-22.897663553651
30
0
41
1
10
69.5091166544244
20
-22.9109082364588
30
0
41
1
10
69.5216024730774
20
-22.9200075226608
30
0
41
1
10
69.5340357485912
20
-22.9288791283458
30
0
0
SPLINE
5
1E8
100
AcDbEntity
8
1
62
256
6
ByLayer
370
13
48
1
60
0
100
AcDbSpline
70
4
71
3
72
8
73
4
40
0
40
0
40
0
40
0
40
1
40
1
40
1
40
1
41
1
10
69.1553172864458
20
-22.8150521939517
30
0
41
1
10
69.0406647169833
20
-22.7995038263636
30
0
41
1
10
68.9240025737786
20
-22.7830095237295
30
0
41
1
10
68.8080209311119
20
-22.7656982889678
30
0
0
SPLINE
5
1E9
100
AcDbEntity
8
1
62
256
6
ByLayer
370
13
48
1
60
0
100
AcDbSpline
70
4
71
3
72
16
73
12
40
0
40
0
40
0
40
0
40
0.0364498729883201
40
0.0364498729883201
40
0.0987306192890671
40
0.0987306192890671
40
0.210020225745924
40
0.210020225745924
40
0.450231110269824
40
0.450231110269824
40
1
40
1
40
1
40
1
41
1
10
69.4662283541792
20
-22.8786998918666
30
0
41
1
10
69.4665920879058
20
-22.879658648595
30
0
41
1
10
69.4669568390965
20
-22.8806170165207
30
0
41
1
10
69.4679468505053
20
-22.8832160106037
30
0
41
1
10
69.4685733701323
20
-22.8848561160017
30
0
41
1
10
69.4703235564761
20
-22.8894240046839
30
0
41
1
10
69.4714506814858
20
-22.8923500224429
30
0
41
1
10
69.4750256156321
20
-22.9015753874738
30
0
41
1
10
69.4774931433138
20
-22.9078619965313
30
0
41
1
10
69.4856650049043
20
-22.9284018503414
30
0
41
1
10
69.4914797806527
20
-22.9425577377261
30
0
41
1
10
69.4973512174168
20
-22.9563888569638
30
0
0
SPLINE
5
1EA
100
AcDbEntity
8
1
62
256
6
ByLayer
370
13
48
1
60
0
100
AcDbSpline
70
4
71
3
72
16
73
12
40
0
40
0
40
0
40
0
40
0.036416957303705
40
0.036416957303705
40
0.0997081083467255
40
0.0997081083467255
40
0.211635380228895
40
0.211635380228895
40
0.452209862564279
40
0.452209862564279
40
1
40
1
40
1
40
1
41
1
10
69.4662283541792
20
-26.1213001081331
30
0
41
1
10
69.4670387760248
20
-26.1206798424908
30
0
41
1
10
69.4678500729596
20
-26.1200600127511
30
0
41
1
10
69.470075804622
20
-26.118360803291
30
0
41
1
10
69.4714916802361
20
-26.1172819158365
30
0
41
1
10
69.4754161685163
20
-26.1142973191238
30
0
41
1
10
69.477928856633
20
-26.1123929879889
30
0
41
1
10
69.4858553152411
20
-26.1064075284521
30
0
41
1
10
69.4912894215204
20
-26.1023364463488
30
0
41
1
10
69.5091166544244
20
-26.0890917635409
30
0
41
1
10
69.5216024730774
20
-26.0799924773389
30
0
41
1
10
69.5340357485912
20
-26.0711208716539
30
0
0
SPLINE
5
1EB
100
AcDbEntity
8
1
62
256
6
ByLayer
370
13
48
1
60
0
100
AcDbSpline
70
4
71
3
72
10
73
6
40
0
40
0
40
0
40
0
40
0.726515101313405
40
0.726515101313405
40
1
40
1
40
1
40
1
41
1
10
69.5673140428787
20
-25.9477095884682
30
0
41
1
10
69.5467943373434
20
-25.96761692756
30
0
41
1
10
69.527721005355
20
-25.9896397430199
30
0
41
1
10
69.5068496360731
20
-26.0236522037519
30
0
41
1
10
69.501672486575
20
-26.0334316943917
30
0
41
1
10
69.4973512174149
20
-26.043611143035
30
0
0
SPLINE
5
1EC
100
AcDbEntity
8
1
62
256
6
ByLayer
370
13
48
1
60
0
100
AcDbSpline
70
4
71
3
72
16
73
12
40
0
40
0
40
0
40
0
40
0.0364498729883201
40
0.0364498729883201
40
0.0987306192890671
40
0.0987306192890671
40
0.210020225745924
40
0.210020225745924
40
0.450231110269824
40
0.450231110269824
40
1
40
1
40
1
40
1
41
1
10
69.4662283541792
20
-26.1213001081331
30
0
41
1
10
69.4665920879058
20
-26.1203413514047
30
0
41
1
10
69.4669568390965
20
-26.119382983479
30
0
41
1
10
69.4679468505053
20
-26.1167839893961
30
0
41
1
10
69.4685733701323
20
-26.1151438839981
30
0
41
1
10
69.4703235564761
20
-26.1105759953158
30
0
41
1
10
69.4714506814858
20
-26.1076499775568
30
0
41
1
10
69.4750256156321
20
-26.098424612526
30
0
41
1
10
69.4774931433138
20
-26.0921380034684
30
0
41
1
10
69.4856650049043
20
-26.0715981496583
30
0
41
1
10
69.4914797806527
20
-26.0574422622737
30
0
41
1
10
69.4973512174168
20
-26.0436111430359
30
0
0
SPLINE
5
1ED
100
AcDbEntity
8
1
62
256
6
ByLayer
370
13
48
1
60
0
100
AcDbSpline
70
4
71
3
72
10
73
6
40
0
40
0
40
0
40
0
40
0.726515101313405
40
0.726515101313405
40
1
40
1
40
1
40
1
41
1
10
69.5673140428787
20
-23.0522904115315
30
0
41
1
10
69.5467943373434
20
-23.0323830724397
30
0
41
1
10
69.527721005355
20
-23.0103602569798
30
0
41
1
10
69.5068496360731
20
-22.9763477962478
30
0
41
1
10
69.501672486575
20
-22.9665683056081
30
0
41
1
10
69.4973512174149
20
-22.9563888569647
30
0
0
SPLINE
5
1EE
100
AcDbEntity
8
1
62
256
6
ByLayer
370
13
48
1
60
0
100
AcDbSpline
70
4
71
3
72
16
73
12
40
0
40
0
40
0
40
0
40
0.0003118173380686
40
0.0003118173380686
40
0.279489245325511
40
0.279489245325511
40
0.55875761252395
40
0.55875761252395
40
0.999688182661868
40
0.999688182661868
40
1
40
1
40
1
40
1
41
1
10
63.7037729407914
20
-24.099423036601
30
0
41
1
10
63.7037912567827
20
-24.0994306983101
30
0
41
1
10
63.7038095726709
20
-24.0994383602396
30
0
41
1
10
63.720226713854
20
-24.1063055756697
30
0
41
1
10
63.7367050975242
20
-24.1130140042081
30
0
41
1
10
63.7698094845915
20
-24.1261313121201
30
0
41
1
10
63.786437576077
20
-24.1325409030493
30
0
41
1
10
63.8294858918491
20
-24.1486836430595
30
0
41
1
10
63.8560096249246
20
-24.1581956154145
30
0
41
1
10
63.8826933601575
20
-24.1673456256791
30
0
41
1
10
63.8827122186186
20
-24.1673520919309
30
0
41
1
10
63.8827310770044
20
-24.167358558383
30
0
0
SPLINE
5
1EF
100
AcDbEntity
8
1
62
256
6
ByLayer
370
13
48
1
60
0
100
AcDbSpline
70
4
71
3
72
9
73
5
40
0
40
0
40
0
40
0
40
0.49971069640967
40
1
40
1
40
1
40
1
41
1
10
63.7928855362849
20
-23.988546692631
30
0
41
1
10
63.7739562259549
20
-24.017145478968
30
0
41
1
10
63.7360756873431
20
-24.0743761657282
30
0
41
1
10
63.7145446756413
20
-24.0910708597535
30
0
41
1
10
63.7037729407914
20
-24.099423036601
30
0
0
SPLINE
5
1F0
100
AcDbEntity
8
1
62
256
6
ByLayer
370
13
48
1
60
0
100
AcDbSpline
70
4
71
3
72
16
73
12
40
0
40
0
40
0
40
0
40
0.0003118144544083
40
0.0003118144544083
40
0.278931528860409
40
0.278931528860409
40
0.55807335791413
40
0.55807335791413
40
0.999688185545606
40
0.999688185545606
40
1
40
1
40
1
40
1
41
1
10
63.8827310030705
20
-24.8326414416167
30
0
41
1
10
63.8827121446849
20
-24.8326479080691
30
0
41
1
10
63.8826932862241
20
-24.832654374321
30
0
41
1
10
63.8658237075292
20
-24.8384390526613
30
0
41
1
10
63.8490299503336
20
-24.8443641894164
30
0
41
1
10
63.8155387444205
20
-24.8565209665094
30
0
41
1
10
63.7988396824678
20
-24.8627538332967
30
0
41
1
10
63.7559042651525
20
-24.8792319905207
30
0
41
1
10
63.7297658847848
20
-24.8897042053354
30
0
41
1
10
63.7038095096562
20
-24.9005616397594
30
0
41
1
10
63.7037911937686
20
-24.9005693016892
30
0
41
1
10
63.7037728777779
20
-24.9005769633987
30
0
0
SPLINE
5
1F1
100
AcDbEntity
8
1
62
256
6
ByLayer
370
13
48
1
60
0
100
AcDbSpline
70
4
71
3
72
24
73
20
40
0
40
0
40
0
40
0
40
0.25
40
0.3125
40
0.3125
40
0.375
40
0.375
40
0.5
40
0.625
40
0.6875
40
0.6875
40
0.75
40
0.75
40
0.875
40
0.875
40
0.9375
40
0.9990234375
40
0.9990234375
40
1
40
1
40
1
40
1
41
1
10
63.7928855278383
20
-25.0114533503742
30
0
41
1
10
63.7832636662611
20
-24.9961585079392
30
0
41
1
10
63.771730379822
20
-24.9786865199447
30
0
41
1
10
63.7608004404685
20
-24.9632182901826
30
0
41
1
10
63.7564782072273
20
-24.9571964588086
30
0
41
1
10
63.7543353507194
20
-24.9542591766928
30
0
41
1
10
63.7480333946262
20
-24.9457687090552
30
0
41
1
10
63.7400009682935
20
-24.9353449576944
30
0
41
1
10
63.7308566270157
20
-24.9244865512124
30
0
41
1
10
63.7257777119109
20
-24.9189592531132
30
0
41
1
10
63.7224844900989
20
-24.9154990325106
30
0
41
1
10
63.7208806452621
20
-24.9138779945067
30
0
41
1
10
63.716263102556
20
-24.9094095510224
30
0
41
1
10
63.713425258485
20
-24.9069332418216
30
0
41
1
10
63.7095321511242
20
-24.9039784551771
30
0
41
1
10
63.7070772953718
20
-24.9022752343209
30
0
41
1
10
63.7048620512314
20
-24.9010724521093
30
0
41
1
10
63.7038058396485
20
-24.9005918876131
30
0
41
1
10
63.7037893512562
20
-24.9005844099342
30
0
41
1
10
63.7037728777784
20
-24.9005769633985
30
0
0
SPLINE
5
1F2
100
AcDbEntity
8
1
62
256
6
ByLayer
370
13
48
1
60
0
100
AcDbSpline
70
4
71
3
72
14
73
10
40
0
40
0
40
0
40
0
40
0.0505559842848517
40
0.0505559842848517
40
0.533727627143306
40
0.533727627143306
40
0.896918867994815
40
0.896918867994815
40
1
40
1
40
1
40
1
41
1
10
69.8700651469456
20
-25.7236141656851
30
0
41
1
10
69.8721585882714
20
-25.7214305521654
30
0
41
1
10
69.8742266116036
20
-25.7192222312432
30
0
41
1
10
69.8955839637868
20
-25.6958462835974
30
0
41
1
10
69.9127357036069
20
-25.6720989852149
30
0
41
1
10
69.9341426255233
20
-25.6267058076483
30
0
41
1
10
69.9406215633697
20
-25.6055478655085
30
0
41
1
10
69.9437467206534
20
-25.5779800705857
30
0
41
1
10
69.9441226460485
20
-25.5717767334459
30
0
41
1
10
69.9441651422531
20
-25.565579611811
30
0
0
SPLINE
5
1F3
100
AcDbEntity
8
1
62
256
6
ByLayer
370
13
48
1
60
0
100
AcDbSpline
70
4
71
3
72
16
73
12
40
0
40
0
40
0
40
0
40
0.001953125
40
0.001953125
40
0.25
40
0.5
40
0.75
40
0.9375
40
0.998046875
40
0.998046875
40
1
40
1
40
1
40
1
41
1
10
63.6048054173026
20
-23.9819516762818
30
0
41
1
10
63.6048376062847
20
-23.982053094538
30
0
41
1
10
63.6048698691533
20
-23.982154483168
30
0
41
1
10
63.6090089675086
20
-23.9951284211643
30
0
41
1
10
63.6196461576043
20
-24.020014777112
30
0
41
1
10
63.6422215823352
20
-24.0530637840465
30
0
41
1
10
63.6681516706902
20
-24.0780979202904
30
0
41
1
10
63.6895266456595
20
-24.0921898947789
30
0
41
1
10
63.7007377477655
20
-24.0979615926384
30
0
41
1
10
63.703594309955
20
-24.0993372931323
30
0
41
1
10
63.7036836094554
20
-24.0993802045226
30
0
41
1
10
63.703772940784
20
-24.0994230365975
30
0
0
SPLINE
5
1F4
100
AcDbEntity
8
1
62
256
6
ByLayer
370
13
48
1
60
0
100
AcDbSpline
70
4
71
3
72
17
73
13
40
0
40
0
40
0
40
0
40
0.001953125
40
0.001953125
40
0.0625
40
0.25
40
0.5
40
0.75
40
0.9375
40
0.998046875
40
0.998046875
40
1
40
1
40
1
40
1
41
1
10
63.7037728777784
20
-24.9005769633985
30
0
41
1
10
63.7036835329031
20
-24.9006198019688
30
0
41
1
10
63.7035942202295
20
-24.9006627196441
30
0
41
1
10
63.7007372482941
20
-24.902038614615
30
0
41
1
10
63.6895258082259
20
-24.9078103883299
30
0
41
1
10
63.6681578319086
20
-24.9218967394422
30
0
41
1
10
63.6422141768717
20
-24.9469450301024
30
0
41
1
10
63.6214778213815
20
-24.9773024014294
30
0
41
1
10
63.6103018420582
20
-25.0018474097122
30
0
41
1
10
63.605904425656
20
-25.0146025276373
30
0
41
1
10
63.6048697969046
20
-25.0178455471524
30
0
41
1
10
63.604837538754
20
-25.017946920831
30
0
41
1
10
63.604805354653
20
-25.0180483237095
30
0
0
SPLINE
5
1F5
100
AcDbEntity
8
1
62
256
6
ByLayer
370
13
48
1
60
0
100
AcDbSpline
70
4
71
3
72
8
73
4
40
0
40
0
40
0
40
0
40
1
40
1
40
1
40
1
41
1
10
69.7459718007427
20
-23.1754451875985
30
0
41
1
10
69.7806983372205
20
-23.1961413648143
30
0
41
1
10
69.8139636111441
20
-23.2201469971731
30
0
41
1
10
69.8426948714028
20
-23.2485532485234
30
0
0
SPLINE
5
1F6
100
AcDbEntity
8
1
62
256
6
ByLayer
370
13
48
1
60
0
100
AcDbSpline
70
4
71
3
72
8
73
4
40
0
40
0
40
0
40
0
40
1
40
1
40
1
40
1
41
1
10
69.8426948714027
20
-23.2485532485235
30
0
41
1
10
69.8519343190549
20
-23.2576881792569
30
0
41
1
10
69.861052890068
20
-23.2669853864875
30
0
41
1
10
69.8700651469456
20
-23.2763858343146
30
0
0
SPLINE
5
1F7
100
AcDbEntity
8
1
62
256
6
ByLayer
370
13
48
1
60
0
100
AcDbSpline
70
4
71
3
72
8
73
4
40
0
40
0
40
0
40
0
40
1
40
1
40
1
40
1
41
1
10
69.4213727254145
20
-23.4227457685312
30
0
41
1
10
69.5956640074145
20
-23.4207944068692
30
0
41
1
10
69.7699434366784
20
-23.4286877795675
30
0
41
1
10
69.9441651422587
20
-23.4344203881881
30
0
0
SPLINE
5
1F8
100
AcDbEntity
8
1
62
256
6
ByLayer
370
13
48
1
60
0
100
AcDbSpline
70
4
71
3
72
8
73
4
40
0
40
0
40
0
40
0
40
1
40
1
40
1
40
1
41
1
10
69.4213727254145
20
-25.5772542314685
30
0
41
1
10
69.5956640074145
20
-25.5792055931305
30
0
41
1
10
69.7699434366784
20
-25.5713122204323
30
0
41
1
10
69.9441651422587
20
-25.5655796118116
30
0
0
SPLINE
5
1F9
100
AcDbEntity
8
1
62
256
6
ByLayer
370
13
48
1
60
0
100
AcDbSpline
70
4
71
3
72
8
73
4
40
0
40
0
40
0
40
0
40
1
40
1
40
1
40
1
41
1
10
69.8426948714027
20
-25.7514467514763
30
0
41
1
10
69.8519343190549
20
-25.7423118207429
30
0
41
1
10
69.861052890068
20
-25.7330146135122
30
0
41
1
10
69.8700651469456
20
-25.7236141656851
30
0
0
SPLINE
5
1FA
100
AcDbEntity
8
1
62
256
6
ByLayer
370
13
48
1
60
0
100
AcDbSpline
70
4
71
3
72
14
73
10
40
0
40
0
40
0
40
0
40
0.0505559842848517
40
0.0505559842848517
40
0.533727627143306
40
0.533727627143306
40
0.896918867994815
40
0.896918867994815
40
1
40
1
40
1
40
1
41
1
10
69.8700651469456
20
-23.2763858343146
30
0
41
1
10
69.8721585882714
20
-23.2785694478344
30
0
41
1
10
69.8742266116036
20
-23.2807777687565
30
0
41
1
10
69.8955839637868
20
-23.3041537164023
30
0
41
1
10
69.9127357036069
20
-23.3279010147848
30
0
41
1
10
69.9341426255233
20
-23.3732941923515
30
0
41
1
10
69.9406215633697
20
-23.3944521344912
30
0
41
1
10
69.9437467206534
20
-23.422019929414
30
0
41
1
10
69.9441226460485
20
-23.4282232665538
30
0
41
1
10
69.9441651422531
20
-23.4344203881887
30
0
0
SPLINE
5
1FB
100
AcDbEntity
8
1
62
256
6
ByLayer
370
13
48
1
60
0
100
AcDbSpline
70
4
71
3
72
8
73
4
40
0
40
0
40
0
40
0
40
1
40
1
40
1
40
1
41
1
10
69.7459718007427
20
-25.8245548124013
30
0
41
1
10
69.7806983372205
20
-25.8038586351854
30
0
41
1
10
69.8139636111441
20
-25.7798530028266
30
0
41
1
10
69.8426948714028
20
-25.7514467514764
30
0
0
SPLINE
5
1FC
100
AcDbEntity
8
1
62
256
6
ByLayer
370
13
48
1
60
0
100
AcDbSpline
70
4
71
3
72
10
73
6
40
0
40
0
40
0
40
0
40
0.478455993418637
40
0.478455993418637
40
1
40
1
40
1
40
1
41
1
10
69.9970257409039
20
-23.4344203881877
30
0
41
1
10
69.9970257409039
20
-23.4002471029513
30
0
41
1
10
69.9899219088571
20
-23.3656104221456
30
0
41
1
10
69.9639730710007
20
-23.299008546876
30
0
41
1
10
69.9439829972708
20
-23.2664891139857
30
0
41
1
10
69.9206965706902
20
-23.2373938527189
30
0
0
SPLINE
5
1FD
100
AcDbEntity
8
1
62
256
6
ByLayer
370
13
48
1
60
0
100
AcDbSpline
70
4
71
3
72
8
73
4
40
0
40
0
40
0
40
0
40
1
40
1
40
1
40
1
41
1
10
63.8928400660951
20
-24.8292212401835
30
0
41
1
10
63.8894702607721
20
-24.8303611578916
30
0
41
1
10
63.8861005726669
20
-24.8315012251449
30
0
41
1
10
63.8827310030703
20
-24.8326414416165
30
0
0
SPLINE
5
1FE
100
AcDbEntity
8
1
62
256
6
ByLayer
370
13
48
1
60
0
100
AcDbSpline
70
4
71
3
72
10
73
6
40
0
40
0
40
0
40
0
40
0.478455993418637
40
0.478455993418637
40
1
40
1
40
1
40
1
41
1
10
69.9970257409039
20
-25.565579611812
30
0
41
1
10
69.9970257409039
20
-25.5997528970484
30
0
41
1
10
69.9899219088571
20
-25.6343895778541
30
0
41
1
10
69.9639730710007
20
-25.7009914531237
30
0
41
1
10
69.9439829972708
20
-25.733510886014
30
0
41
1
10
69.9206965706902
20
-25.7626061472809
30
0
0
SPLINE
5
1FF
100
AcDbEntity
8
1
62
256
6
ByLayer
370
13
48
1
60
0
100
AcDbSpline
70
4
71
3
72
8
73
4
40
0
40
0
40
0
40
0
40
1
40
1
40
1
40
1
41
1
10
63.8827310770044
20
-24.167358558383
30
0
41
1
10
63.886100646763
20
-24.1684987748536
30
0
41
1
10
63.8894703350289
20
-24.1696388421072
30
0
41
1
10
63.8928401405119
20
-24.1707787598164
30
0
0
SPLINE
5
200
100
AcDbEntity
8
1
62
256
6
ByLayer
370
13
48
1
60
0
100
AcDbSpline
70
4
71
3
72
8
73
4
40
0
40
0
40
0
40
0
40
1
40
1
40
1
40
1
41
1
10
69.9206965706901
20
-23.2373938527189
30
0
41
1
10
69.9112950489699
20
-23.2279964561777
30
0
41
1
10
69.901780692966
20
-23.2187466287701
30
0
41
1
10
69.8921442338085
20
-23.2096982440933
30
0
0
SPLINE
5
201
100
AcDbEntity
8
1
62
256
6
ByLayer
370
13
48
1
60
0
100
AcDbSpline
70
4
71
3
72
8
73
4
40
0
40
0
40
0
40
0
40
1
40
1
40
1
40
1
41
1
10
69.9206965706901
20
-25.7626061472809
30
0
41
1
10
69.9112950489699
20
-25.772003543822
30
0
41
1
10
69.901780692966
20
-25.7812533712296
30
0
41
1
10
69.8921442338085
20
-25.7903017559064
30
0
0
SPLINE
5
202
100
AcDbEntity
8
1
62
256
6
ByLayer
370
13
48
1
60
0
100
AcDbSpline
70
4
71
3
72
12
73
8
40
0
40
0
40
0
40
0
40
0.398362077603418
40
0.398362077603418
40
0.817187858883142
40
0.817187858883142
40
1
40
1
40
1
40
1
41
1
10
68.5695
20
-23.4188340226224
30
0
41
1
10
68.6862018964713
20
-23.4190580199588
30
0
41
1
10
68.8027495698944
20
-23.4220320478143
30
0
41
1
10
69.037745272551
20
-23.4238302977539
30
0
41
1
10
69.1566627089887
20
-23.4241607546794
30
0
41
1
10
69.3224222584759
20
-23.4235451366866
30
0
41
1
10
69.3722793677962
20
-23.4232038087289
30
0
41
1
10
69.4213727254145
20
-23.4227457685312
30
0
0
SPLINE
5
203
100
AcDbEntity
8
1
62
256
6
ByLayer
370
13
48
1
60
0
100
AcDbSpline
70
4
71
3
72
8
73
4
40
0
40
0
40
0
40
0
40
1
40
1
40
1
40
1
41
1
10
64.0356912667505
20
-24.3681142101813
30
0
41
1
10
64.0314932792738
20
-24.4554751567926
30
0
41
1
10
64.0314932722284
20
-24.5445248394249
30
0
41
1
10
64.035691245647
20
-24.6318857898185
30
0
0
SPLINE
5
204
100
AcDbEntity
8
1
62
256
6
ByLayer
370
13
48
1
60
0
100
AcDbSpline
70
4
71
3
72
12
73
8
40
0
40
0
40
0
40
0
40
0.398362077603418
40
0.398362077603418
40
0.817187858883142
40
0.817187858883142
40
1
40
1
40
1
40
1
41
1
10
68.5695
20
-25.5811659773773
30
0
41
1
10
68.6862018964713
20
-25.5809419800409
30
0
41
1
10
68.8027495698944
20
-25.5779679521855
30
0
41
1
10
69.037745272551
20
-25.5761697022458
30
0
41
1
10
69.1566627089887
20
-25.5758392453203
30
0
41
1
10
69.3224222584759
20
-25.5764548633132
30
0
41
1
10
69.3722793677962
20
-25.5767961912709
30
0
41
1
10
69.4213727254145
20
-25.5772542314685
30
0
0
SPLINE
5
205
100
AcDbEntity
8
1
62
256
6
ByLayer
370
13
48
1
60
0
100
AcDbSpline
70
4
71
2
72
6
73
3
40
0
40
0
40
0
40
1
40
1
40
1
41
1
10
63.5128526580647
20
-24.099423036601
30
0
41
1
10
63.608312799428
20
-24.099423036601
30
0
41
1
10
63.7037729407914
20
-24.099423036601
30
0
0
SPLINE
5
206
100
AcDbEntity
8
1
62
256
6
ByLayer
370
13
48
1
60
0
100
AcDbSpline
70
4
71
2
72
6
73
3
40
0
40
0
40
0
40
1
40
1
40
1
41
1
10
63.4140087529927
20
-23.9819516762818
30
0
41
0.916194302198623
10
63.4401472908696
20
-24.0645387164002
30
0
41
1
10
63.5128526580647
20
-24.099423036601
30
0
0
SPLINE
5
207
100
AcDbEntity
8
1
62
256
6
ByLayer
370
13
48
1
60
0
100
AcDbSpline
70
4
71
2
72
6
73
3
40
0
40
0
40
0
40
1
40
1
40
1
41
1
10
63.4140087529927
20
-25.0180483237179
30
0
41
0.916194302198623
10
63.4401472908696
20
-24.9354612835996
30
0
41
1
10
63.5128526580647
20
-24.9005769633987
30
0
0
SPLINE
5
208
100
AcDbEntity
8
1
62
256
6
ByLayer
370
13
48
1
60
0
100
AcDbSpline
70
4
71
2
72
6
73
3
40
0
40
0
40
0
40
1
40
1
40
1
41
1
10
63.5128526580647
20
-24.9005769633987
30
0
41
1
10
63.6083127679213
20
-24.9005769633987
30
0
41
1
10
63.703772877778
20
-24.9005769633987
30
0
0
SPLINE
5
209
100
AcDbEntity
8
1
62
256
6
ByLayer
370
13
48
1
60
0
100
AcDbSpline
70
4
71
2
72
6
73
3
40
0
40
0
40
0
40
1
40
1
40
1
41
1
10
63.5128526580647
20
-24.099423036601
30
0
41
0.999533107184471
10
63.5890718752233
20
-24.1359933157895
30
0
41
1
10
63.6671732168403
20
-24.167358558383
30
0
0
SPLINE
5
20A
100
AcDbEntity
8
1
62
256
6
ByLayer
370
13
48
1
60
0
100
AcDbSpline
70
4
71
2
72
6
73
3
40
0
40
0
40
0
40
1
40
1
40
1
41
1
10
63.5128526580647
20
-24.9005769633987
30
0
41
0.999533107184471
10
63.5890718752233
20
-24.8640066842102
30
0
41
1
10
63.6671732168403
20
-24.8326414416167
30
0
0
SPLINE
5
20B
100
AcDbEntity
8
1
62
256
6
ByLayer
370
13
48
1
60
0
100
AcDbSpline
70
4
71
2
72
6
73
3
40
0
40
0
40
0
40
1
40
1
40
1
41
1
10
63.6756897242366
20
-24.1707787598162
30
0
41
0.819152044288974
10
63.8009195004782
20
-24.2210706271572
30
0
41
1
10
63.8009195004782
20
-24.3681142101813
30
0
0
SPLINE
5
20C
100
AcDbEntity
8
1
62
256
6
ByLayer
370
13
48
1
60
0
100
AcDbSpline
70
4
71
2
72
6
73
3
40
0
40
0
40
0
40
1
40
1
40
1
41
1
10
63.6756897242366
20
-24.1707787598162
30
0
41
1
10
63.7842649323743
20
-24.1707787598162
30
0
41
1
10
63.892840140512
20
-24.1707787598162
30
0
0
SPLINE
5
20D
100
AcDbEntity
8
1
62
256
6
ByLayer
370
13
48
1
60
0
100
AcDbSpline
70
4
71
2
72
6
73
3
40
0
40
0
40
0
40
1
40
1
40
1
41
1
10
63.6756897242366
20
-24.8292212401835
30
0
41
1
10
63.7842648951658
20
-24.8292212401835
30
0
41
1
10
63.8928400660951
20
-24.8292212401835
30
0
0
SPLINE
5
20E
100
AcDbEntity
8
1
62
256
6
ByLayer
370
13
48
1
60
0
100
AcDbSpline
70
4
71
2
72
6
73
3
40
0
40
0
40
0
40
1
40
1
40
1
41
1
10
63.6756897242366
20
-24.8292212401835
30
0
41
0.819152044288974
10
63.8009195004782
20
-24.7789293728425
30
0
41
1
10
63.8009195004782
20
-24.6318857898185
30
0
0
SPLINE
5
20F
100
AcDbEntity
8
1
62
256
6
ByLayer
370
13
48
1
60
0
100
AcDbSpline
70
4
71
2
72
6
73
3
40
0
40
0
40
0
40
1
40
1
40
1
41
1
10
63.8009195004782
20
-24.6318857898185
30
0
41
1
10
63.8009195004782
20
-24.5659428949092
30
0
41
1
10
63.8009195004782
20
-24.4999999999999
30
0
0
SPLINE
5
210
100
AcDbEntity
8
1
62
256
6
ByLayer
370
13
48
1
60
0
100
AcDbSpline
70
4
71
2
72
6
73
3
40
0
40
0
40
0
40
1
40
1
40
1
41
1
10
63.8009195004782
20
-24.3681142101813
30
0
41
1
10
63.8009195004782
20
-24.4340571050906
30
0
41
1
10
63.8009195004782
20
-24.4999999999999
30
0
0
SPLINE
5
211
100
AcDbEntity
8
1
62
256
6
ByLayer
370
13
48
1
60
0
100
AcDbSpline
70
4
71
2
72
6
73
3
40
0
40
0
40
0
40
1
40
1
40
1
41
0.976988940619968
10
63.337927752996
20
-23.9819516762818
30
0
41
0.985872486409562
10
63.3808878003297
20
-23.9819516762818
30
0
41
1
10
63.4140087529927
20
-23.9819516762818
30
0
0
SPLINE
5
212
100
AcDbEntity
8
1
62
256
6
ByLayer
370
13
48
1
60
0
100
AcDbSpline
70
4
71
2
72
6
73
3
40
0
40
0
40
0
40
1
40
1
40
1
41
0.977424468553352
10
63.3400317529932
20
-25.0180483237178
30
0
41
0.986216326739216
10
63.3817051760118
20
-25.0180483237178
30
0
41
1
10
63.4140087529927
20
-25.0180483237179
30
0
0
SPLINE
5
213
100
AcDbEntity
8
1
62
256
6
ByLayer
370
13
48
1
60
0
100
AcDbSpline
70
4
71
3
72
10
73
6
40
0
40
0
40
0
40
0
40
0.509182709127215
40
0.509182709127215
40
1
40
1
40
1
40
1
41
1
10
67.9452047820325
20
-23.5262491084917
30
0
41
1
10
68.0291203560375
20
-23.5041481175078
30
0
41
1
10
68.1137414373503
20
-23.4848016976146
30
0
41
1
10
68.2795482262596
20
-23.4460831457827
30
0
41
1
10
68.361943582892
20
-23.4294566784912
30
0
41
1
10
68.4452047820325
20
-23.4232755936799
30
0
0
SPLINE
5
214
100
AcDbEntity
8
1
62
256
6
ByLayer
370
13
48
1
60
0
100
AcDbSpline
70
4
71
2
72
6
73
3
40
0
40
0
40
0
40
1
40
1
40
1
41
1
10
63.6671732168403
20
-24.167358558383
30
0
41
1
10
63.6714314705385
20
-24.1690686590996
30
0
41
1
10
63.6756897242366
20
-24.1707787598162
30
0
0
SPLINE
5
215
100
AcDbEntity
8
1
62
256
6
ByLayer
370
13
48
1
60
0
100
AcDbSpline
70
4
71
2
72
6
73
3
40
0
40
0
40
0
40
1
40
1
40
1
41
1
10
63.6671732168403
20
-24.8326414416167
30
0
41
1
10
63.6714314705385
20
-24.8309313409001
30
0
41
1
10
63.6756897242366
20
-24.8292212401835
30
0
0
SPLINE
5
216
100
AcDbEntity
8
1
62
256
6
ByLayer
370
13
48
1
60
0
100
AcDbSpline
70
4
71
3
72
10
73
6
40
0
40
0
40
0
40
0
40
0.509182709127215
40
0.509182709127215
40
1
40
1
40
1
40
1
41
1
10
67.9452047820325
20
-25.473750891508
30
0
41
1
10
68.0291203560375
20
-25.4958518824919
30
0
41
1
10
68.1137414373503
20
-25.5151983023852
30
0
41
1
10
68.2795482262596
20
-25.553916854217
30
0
41
1
10
68.361943582892
20
-25.5705433215085
30
0
41
1
10
68.4452047820325
20
-25.5767244063199
30
0
0
SPLINE
5
217
100
AcDbEntity
8
1
62
256
6
ByLayer
370
13
48
1
60
0
100
AcDbSpline
70
4
71
3
72
20
73
16
40
0
40
0
40
0
40
0
40
0.0004820975609761
40
0.0004820975609761
40
0.133108009856496
40
0.133108009856496
40
0.428100199580249
40
0.428100199580249
40
0.722972669357347
40
0.722972669357347
40
0.911734386886859
40
0.911734386886859
40
0.999517902439265
40
0.999517902439265
40
1
40
1
40
1
40
1
41
1
10
68.4452047820325
20
-23.4232755936799
30
0
41
1
10
68.4452247438524
20
-23.4232743584679
30
0
41
1
10
68.4452447056884
20
-23.4232731235169
30
0
41
1
10
68.4507562054647
20
-23.4229321626955
30
0
41
1
10
68.4562482889807
20
-23.4226006118758
30
0
41
1
10
68.4739568221937
20
-23.4215618124876
30
0
41
1
10
68.4861760798083
20
-23.4208941322564
30
0
41
1
10
68.5106158530261
20
-23.4198190677089
30
0
41
1
10
68.5228380850943
20
-23.4194133811069
30
0
41
1
10
68.5428824360939
20
-23.4189944483096
30
0
41
1
10
68.550706171784
20
-23.4188931187064
30
0
41
1
10
68.5621657649981
20
-23.4188330827097
30
0
41
1
10
68.5658031655838
20
-23.4188270680635
30
0
41
1
10
68.5694600537392
20
-23.418833946324
30
0
41
1
10
68.5694800268794
20
-23.4188339843332
30
0
41
1
10
68.5695
20
-23.4188340226224
30
0
0
SPLINE
5
218
100
AcDbEntity
8
1
62
256
6
ByLayer
370
13
48
1
60
0
100
AcDbSpline
70
4
71
3
72
20
73
16
40
0
40
0
40
0
40
0
40
0.0004820975609761
40
0.0004820975609761
40
0.133108009856496
40
0.133108009856496
40
0.428100199580249
40
0.428100199580249
40
0.722972669357347
40
0.722972669357347
40
0.911734386886859
40
0.911734386886859
40
0.999517902439265
40
0.999517902439265
40
1
40
1
40
1
40
1
41
1
10
68.4452047820325
20
-25.5767244063199
30
0
41
1
10
68.445224743864
20
-25.5767256413441
30
0
41
1
10
68.4452447056884
20
-25.5767268764828
30
0
41
1
10
68.4507562054647
20
-25.5770678373042
30
0
41
1
10
68.4562482889807
20
-25.577399388124
30
0
41
1
10
68.4739568221937
20
-25.5784381875121
30
0
41
1
10
68.4861760798083
20
-25.5791058677433
30
0
41
1
10
68.5106158530261
20
-25.5801809322908
30
0
41
1
10
68.5228380850943
20
-25.5805866188928
30
0
41
1
10
68.5428824360939
20
-25.5810055516901
30
0
41
1
10
68.550706171784
20
-25.5811068812933
30
0
41
1
10
68.5621657649981
20
-25.5811669172901
30
0
41
1
10
68.5658031655838
20
-25.5811729319363
30
0
41
1
10
68.5694600537392
20
-25.5811660536757
30
0
41
1
10
68.5694800268757
20
-25.5811660153327
30
0
41
1
10
68.5695
20
-25.5811659773773
30
0
0
SPLINE
5
219
100
AcDbEntity
8
1
62
256
6
ByLayer
370
13
48
1
60
0
100
AcDbSpline
70
4
71
3
72
8
73
4
40
0
40
0
40
0
40
0
40
1
40
1
40
1
40
1
41
1
10
68.4452047820325
20
-24.4999999999999
30
0
41
1
10
68.486636521355
20
-24.4999999999999
30
0
41
1
10
68.5280682606775
20
-24.4999999999999
30
0
41
1
10
68.5695
20
-24.4999999999999
30
0
0
SPLINE
5
21A
100
AcDbEntity
8
1
62
256
6
ByLayer
370
13
48
1
60
0
100
AcDbSpline
70
4
71
2
72
6
73
3
40
0
40
0
40
0
40
1
40
1
40
1
41
0.974057334525303
10
63.4122076580766
20
-24.099423036601
30
0
41
0.983415275114724
10
63.4699659993015
20
-24.099423036601
30
0
41
1
10
63.5128526580647
20
-24.099423036601
30
0
0
SPLINE
5
21B
100
AcDbEntity
8
1
62
256
6
ByLayer
370
13
48
1
60
0
100
AcDbSpline
70
4
71
2
72
6
73
3
40
0
40
0
40
0
40
1
40
1
40
1
41
0.974057334525303
10
63.4122076580766
20
-24.9005769633987
30
0
41
0.983415275114724
10
63.4699659993015
20
-24.9005769633987
30
0
41
1
10
63.5128526580647
20
-24.9005769633987
30
0
0
SPLINE
5
21C
100
AcDbEntity
8
1
62
256
6
ByLayer
370
13
48
1
60
0
100
AcDbSpline
70
4
71
2
72
6
73
3
40
0
40
0
40
0
40
1
40
1
40
1
41
0.973878093313909
10
63.5509282168402
20
-24.1673585583831
30
0
41
0.983255852161695
10
63.6177065696162
20
-24.167358558383
30
0
41
1
10
63.6671732168403
20
-24.167358558383
30
0
0
SPLINE
5
21D
100
AcDbEntity
8
1
62
256
6
ByLayer
370
13
48
1
60
0
100
AcDbSpline
70
4
71
2
72
6
73
3
40
0
40
0
40
0
40
1
40
1
40
1
41
0.973878093313909
10
63.5509282168402
20
-24.8326414416167
30
0
41
0.983255852161695
10
63.6177065696162
20
-24.8326414416167
30
0
41
1
10
63.6671732168403
20
-24.8326414416167
30
0
0
SPLINE
5
21E
100
AcDbEntity
8
1
62
256
6
ByLayer
370
13
48
1
60
0
100
AcDbSpline
70
4
71
2
72
6
73
3
40
0
40
0
40
0
40
1
40
1
40
1
41
0.974231088937642
10
63.67491150048
20
-24.6318857898184
30
0
41
0.983568696287066
10
63.747154586119
20
-24.6318857898184
30
0
41
1
10
63.8009195004782
20
-24.6318857898185
30
0
0
SPLINE
5
21F
100
AcDbEntity
8
1
62
256
6
ByLayer
370
13
48
1
60
0
100
AcDbSpline
70
4
71
2
72
6
73
3
40
0
40
0
40
0
40
1
40
1
40
1
41
0.973900758954706
10
63.5588097242301
20
-24.8292212401835
30
0
41
0.983276077509955
10
63.6259442698992
20
-24.8292212401835
30
0
41
1
10
63.6756897242366
20
-24.8292212401835
30
0
0
SPLINE
5
220
100
AcDbEntity
8
1
62
256
6
ByLayer
370
13
48
1
60
0
100
AcDbSpline
70
4
71
2
72
6
73
3
40
0
40
0
40
0
40
1
40
1
40
1
41
0.973900758954706
10
63.5588097242301
20
-24.1707787598162
30
0
41
0.983276077509955
10
63.6259442698992
20
-24.1707787598162
30
0
41
1
10
63.6756897242366
20
-24.1707787598162
30
0
0
SPLINE
5
221
100
AcDbEntity
8
1
62
256
6
ByLayer
370
18
48
1
60
0
100
AcDbSpline
70
4
71
3
72
10
73
6
40
0
40
0
40
0
40
0
40
0.496545174713846
40
0.496545174713846
40
1
40
1
40
1
40
1
41
1
10
66.5751468255075
20
-26.8518202897931
30
0
41
1
10
66.5533466896018
20
-26.8519547187432
30
0
41
1
10
66.5282952678048
20
-26.8515224700658
30
0
41
1
10
66.4755077617421
20
-26.8495979948641
30
0
41
1
10
66.4470112578507
20
-26.8480652317678
30
0
41
1
10
66.4189357069485
20
-26.8461019979996
30
0
0
SPLINE
5
222
100
AcDbEntity
8
1
62
256
6
ByLayer
370
18
48
1
60
0
100
AcDbSpline
70
4
71
2
72
7
73
4
40
0
40
0
40
0
40
0.5
40
1
40
1
40
1
41
1
10
63.2986247883348
20
-22.2999999999999
30
0
41
1
10
63.3201857441014
20
-22.2999999999999
30
0
41
1
10
63.3928014367905
20
-22.2999999999999
30
0
41
1
10
63.4396834701052
20
-22.2999999999999
30
0
0
SPLINE
5
223
100
AcDbEntity
8
1
62
256
6
ByLayer
370
18
48
1
60
0
100
AcDbSpline
70
4
71
3
72
13
73
9
40
0
40
0
40
0
40
0
40
0.500781235726681
40
0.500781235726681
40
0.500781235726681
40
0.767869301884458
40
0.767869301884458
40
1
40
1
40
1
40
1
41
1
10
68.3080209311119
20
-22.084552986583
30
0
41
1
10
67.9992740849282
20
-22.1062893818144
30
0
41
1
10
67.6856286536802
20
-22.1232635068586
30
0
41
1
10
67.3930508724
20
-22.134030768815
30
0
41
1
10
67.2354121141052
20
-22.1398320904247
30
0
41
1
10
67.081988013643
20
-22.1439328099504
30
0
41
1
10
66.8101575856409
20
-22.148228791694
30
0
41
1
10
66.6889476378265
20
-22.1488814546261
30
0
41
1
10
66.5751468255075
20
-22.1481797102066
30
0
0
SPLINE
5
224
100
AcDbEntity
8
1
62
256
6
ByLayer
370
18
48
1
60
0
100
AcDbSpline
70
4
71
3
72
16
73
12
40
0
40
0
40
0
40
0
40
0.201783384739321
40
0.201783384739321
40
0.403377864546656
40
0.403377864546656
40
0.607832959331835
40
0.607832959331835
40
0.816478248427783
40
0.816478248427783
40
1
40
1
40
1
40
1
41
1
10
69.5889153303076
20
-27.0134226531935
30
0
41
1
10
69.6326534239637
20
-27.0159800100219
30
0
41
1
10
69.6773706525875
20
-27.0108864728838
30
0
41
1
10
69.7612881167608
20
-26.986485288533
30
0
41
1
10
69.8016398650051
20
-26.9668699683993
30
0
41
1
10
69.8732925878941
20
-26.9158682720377
30
0
41
1
10
69.905434479868
20
-26.8836377162791
30
0
41
1
10
69.957421523965
20
-26.8106512765017
30
0
41
1
10
69.9777200998911
20
-26.7687380628391
30
0
41
1
10
70.0017074509187
20
-26.6867397199392
30
0
41
1
10
70.0073562176765
20
-26.6461629626418
30
0
41
1
10
70.007016558107
20
-26.6060065466128
30
0
0
SPLINE
5
225
100
AcDbEntity
8
1
62
256
6
ByLayer
370
18
48
1
60
0
100
AcDbSpline
70
4
71
3
72
8
73
4
40
0
40
0
40
0
40
0
40
1
40
1
40
1
40
1
41
1
10
68.8080209311119
20
-26.9506480130383
30
0
41
1
10
68.9243549173321
20
-26.9588381582481
30
0
41
1
10
69.0410108992438
20
-26.9680450467384
30
0
41
1
10
69.1553172864458
20
-26.9780511391228
30
0
0
SPLINE
5
226
100
AcDbEntity
8
1
62
256
6
ByLayer
370
18
48
1
60
0
100
AcDbSpline
70
4
71
3
72
16
73
12
40
0
40
0
40
0
40
0
40
0.211361443762947
40
0.211361443762947
40
0.422716290819755
40
0.422716290819755
40
0.633949151093206
40
0.633949151093206
40
0.842299705562237
40
0.842299705562237
40
1
40
1
40
1
40
1
41
1
10
70.007016558107
20
-22.3939934533869
30
0
41
1
10
70.0074064524711
20
-22.3478980045804
30
0
41
1
10
69.9998556439929
20
-22.3011705705232
30
0
41
1
10
69.9702190740798
20
-22.2141828170586
30
0
41
1
10
69.9477208985697
20
-22.1727120654671
30
0
41
1
10
69.891017377631
20
-22.1007877171565
30
0
41
1
10
69.8560136095222
20
-22.0693208264512
30
0
41
1
10
69.7789786511116
20
-22.0212551311979
30
0
41
1
10
69.735955317775
20
-22.0037930955306
30
0
41
1
10
69.6582018857319
20
-21.9872372688779
30
0
41
1
10
69.6232945560288
20
-21.9845672009515
30
0
41
1
10
69.5889153303076
20
-21.9865773468062
30
0
0
SPLINE
5
227
100
AcDbEntity
8
1
62
256
6
ByLayer
370
18
48
1
60
0
100
AcDbSpline
70
4
71
3
72
8
73
4
40
0
40
0
40
0
40
0
40
1
40
1
40
1
40
1
41
1
10
69.1553172864458
20
-22.021948860877
30
0
41
1
10
69.0410108992438
20
-22.0319549532613
30
0
41
1
10
68.9243549173321
20
-22.0411618417516
30
0
41
1
10
68.8080209311119
20
-22.0493519869615
30
0
0
SPLINE
5
228
100
AcDbEntity
8
1
62
256
6
ByLayer
370
18
48
1
60
0
100
AcDbSpline
70
4
71
3
72
13
73
9
40
0
40
0
40
0
40
0
40
0.200250351048004
40
0.200250351048004
40
0.699726211832344
40
0.699726211832344
40
0.699726211832344
40
1
40
1
40
1
40
1
41
1
10
66.5751468255075
20
-26.8518202897931
30
0
41
1
10
66.6734170081302
20
-26.8512143138704
30
0
41
1
10
66.7771679125051
20
-26.8516168751549
30
0
41
1
10
67.1509426949543
20
-26.8564958370737
30
0
41
1
10
67.4473892371082
20
-26.8662987843779
30
0
41
1
10
67.7497500928555
20
-26.8816070075917
30
0
41
1
10
67.9331836738877
20
-26.8908940636042
30
0
41
1
10
68.1211915582716
20
-26.9022938520514
30
0
41
1
10
68.3080209311119
20
-26.9154470134167
30
0
0
SPLINE
5
229
100
AcDbEntity
8
1
62
256
6
ByLayer
370
18
48
1
60
0
100
AcDbSpline
70
4
71
3
72
12
73
8
40
0
40
0
40
0
40
0
40
0.0020745602245391
40
0.0965030327464488
40
0.474216922834087
40
0.851930812921726
40
1
40
1
40
1
40
1
41
1
10
56.6382260241767
20
-22.2999999999999
30
0
41
1
10
56.6395256467883
20
-22.2999999999999
30
0
41
1
10
56.6999814307932
20
-22.2999999999999
30
0
41
1
10
56.997327365087
20
-22.2999999999999
30
0
41
1
10
57.5299646675477
20
-22.2999999999999
30
0
41
1
10
58.0963240516963
20
-22.2999999999999
30
0
41
1
10
58.4259051272088
20
-22.2999999999999
30
0
41
1
10
58.518720237989
20
-22.2999999999999
30
0
0
SPLINE
5
22A
100
AcDbEntity
8
1
62
256
6
ByLayer
370
18
48
1
60
0
100
AcDbSpline
70
4
71
3
72
10
73
6
40
0
40
0
40
0
40
0
40
0.496604554236898
40
0.496604554236898
40
1
40
1
40
1
40
1
41
1
10
66.4189357069464
20
-22.1538980020243
30
0
41
1
10
66.4466398380798
20
-22.1519607404565
30
0
41
1
10
66.4747488636876
20
-22.1504426549576
30
0
41
1
10
66.5276169252262
20
-22.14848963148
30
0
41
1
10
66.5530543877322
20
-22.1480434787984
30
0
41
1
10
66.5751468255075
20
-22.1481797102066
30
0
0
SPLINE
5
22B
100
AcDbEntity
8
1
62
256
6
ByLayer
370
18
48
1
60
0
100
AcDbSpline
70
4
71
3
72
8
73
4
40
0
40
0
40
0
40
0
40
1
40
1
40
1
40
1
41
1
10
63.2986246429738
20
-26.6999999999998
30
0
41
1
10
63.3262795836386
20
-26.6999999999998
30
0
41
1
10
63.3781764584514
20
-26.6999999999998
30
0
41
1
10
63.4396676644657
20
-26.6999999999998
30
0
0
SPLINE
5
22C
100
AcDbEntity
8
1
62
256
6
ByLayer
370
18
48
1
60
0
100
AcDbSpline
70
4
71
3
72
12
73
8
40
0
40
0
40
0
40
0
40
0.148069187078275
40
0.525783077165912
40
0.903496967253549
40
0.997925439775459
40
1
40
1
40
1
40
1
41
1
10
58.518720237989
20
-26.6999999999999
30
0
41
1
10
58.4259051272088
20
-26.6999999999999
30
0
41
1
10
58.0963240516963
20
-26.6999999999999
30
0
41
1
10
57.5299646675477
20
-26.6999999999999
30
0
41
1
10
56.997327365087
20
-26.6999999999999
30
0
41
1
10
56.6999814307932
20
-26.6999999999999
30
0
41
1
10
56.6395256467883
20
-26.6999999999999
30
0
41
1
10
56.6382260241767
20
-26.6999999999999
30
0
0
LINE
5
70
100
AcDbEntity
8
1
62
256
6
ByLayer
370
13
48
1
60
0
100
AcDbLine
10
0.3
20
20
30
0
11
0
21
19.7
31
0
39
0
210
0
220
0
230
1
0
LINE
5
72
100
AcDbEntity
8
1
62
256
6
ByLayer
370
13
48
1
60
0
100
AcDbLine
10
0
20
-19.7
30
0
11
0.3
21
-20
31
0
39
0
210
0
220
0
230
1
0
LINE
5
73
100
AcDbEntity
8
1
62
256
6
ByLayer
370
13
48
1
60
0
100
AcDbLine
10
21.438319
20
-20.889417
30
0
11
22.988561
21
-26.675
31
0
39
0
210
0
220
0
230
1
0
LINE
5
74
100
AcDbEntity
8
1
62
256
6
ByLayer
370
13
48
1
60
0
100
AcDbLine
10
0.3
20
-20
30
0
11
20.279208
21
-20
31
0
39
0
210
0
220
0
230
1
0
LINE
5
75
100
AcDbEntity
8
1
62
256
6
ByLayer
370
13
48
1
60
0
100
AcDbLine
10
20.034991
20
20
30
0
11
0.3
21
20
31
0
39
0
210
0
220
0
230
1
0
LINE
5
76
100
AcDbEntity
8
80
62
256
6
ByLayer
370
18
48
1
60
0
100
AcDbLine
10
0
20
0
30
0
11
-5
21
0
31
0
39
0
210
0
220
0
230
1
0
LINE
5
77
100
AcDbEntity
8
81
62
256
6
ByLayer
370
18
48
1
60
0
100
AcDbLine
10
70
20
-27
30
0
11
75
21
-27
31
0
39
0
210
0
220
0
230
1
0
LINE
5
78
100
AcDbEntity
8
1
62
256
6
ByLayer
370
13
48
1
60
0
100
AcDbLine
10
0.3
20
20
30
0
11
0.3
21
-20
31
0
39
0
210
0
220
0
230
1
0
LINE
5
79
100
AcDbEntity
8
1
62
256
6
ByLayer
370
13
48
1
60
0
100
AcDbLine
10
20.069863
20
16.004099
30
0
11
20.034991
21
20
31
0
39
0
210
0
220
0
230
1
0
LINE
5
7A
100
AcDbEntity
8
1
62
256
6
ByLayer
370
13
48
1
60
0
100
AcDbLine
10
0
20
19.7
30
0
11
0
21
-19.7
31
0
39
0
210
0
220
0
230
1
0
LINE
5
7B
100
AcDbEntity
8
1
62
256
6
ByLayer
370
13
48
1
60
0
100
AcDbLine
10
20.279208
20
-20
30
0
11
20.279208
21
-17.730578
31
0
39
0
210
0
220
0
230
1
0
LINE
5
7C
100
AcDbEntity
8
1
62
256
6
ByLayer
370
13
48
1
60
0
100
AcDbLine
10
20.083293
20
14.465094
30
0
11
20.083293
21
-17.049397
31
0
39
0
210
0
220
0
230
1
0
LINE
5
7D
100
AcDbEntity
8
1
62
256
6
ByLayer
370
13
48
1
60
0
100
AcDbLine
10
9.336603
20
6.16973
30
0
11
9.336603
21
19.024574
31
0
39
0
210
0
220
0
230
1
0
LINE
5
7E
100
AcDbEntity
8
1
62
256
6
ByLayer
370
13
48
1
60
0
100
AcDbLine
10
9.076795
20
5.85989
30
0
11
9.076795
21
19.122283
31
0
39
0
210
0
220
0
230
1
0
LINE
5
7F
100
AcDbEntity
8
1
62
256
6
ByLayer
370
13
48
1
60
0
100
AcDbLine
10
6.923205
20
-19.122283
30
0
11
6.923205
21
-5.85989
31
0
39
0
210
0
220
0
230
1
0
LINE
5
80
100
AcDbEntity
8
1
62
256
6
ByLayer
370
13
48
1
60
0
100
AcDbLine
10
6.663397
20
-19.024574
30
0
11
6.663397
21
-6.16973
31
0
39
0
210
0
220
0
230
1
0
LINE
5
81
100
AcDbEntity
8
1
62
256
6
ByLayer
370
13
48
1
60
0
100
AcDbLine
10
9.336603
20
-19.024574
30
0
11
9.336603
21
-6.16973
31
0
39
0
210
0
220
0
230
1
0
LINE
5
82
100
AcDbEntity
8
SK1
62
256
6
ByLayer
370
13
48
1
60
0
100
AcDbLine
10
-1.315435
20
-3.625867
30
0
11
-1.315435
21
3.625869
31
0
39
0
210
0
220
0
230
1
0
LINE
5
84
100
AcDbEntity
8
1
62
256
6
ByLayer
370
13
48
1
60
0
100
AcDbLine
10
9.076795
20
-19.122283
30
0
11
9.076795
21
-5.85989
31
0
39
0
210
0
220
0
230
1
0
LINE
5
85
100
AcDbEntity
8
1
62
256
6
ByLayer
370
13
48
1
60
0
100
AcDbLine
10
6.923205
20
5.85989
30
0
11
6.923205
21
19.122283
31
0
39
0
210
0
220
0
230
1
0
LINE
5
86
100
AcDbEntity
8
1
62
256
6
ByLayer
370
13
48
1
60
0
100
AcDbLine
10
6.663397
20
6.16973
30
0
11
6.663397
21
19.024574
31
0
39
0
210
0
220
0
230
1
0
LINE
5
87
100
AcDbEntity
8
1
62
256
6
ByLayer
370
13
48
1
60
0
100
AcDbLine
10
24.083141
20
-26.675
30
0
11
24.083141
21
10.5
31
0
39
0
210
0
220
0
230
1
0
LINE
5
88
100
AcDbEntity
8
1
62
256
6
ByLayer
370
13
48
1
60
0
100
AcDbLine
10
44.4
20
-26.675
30
0
11
44.4
21
-22.325
31
0
39
0
210
0
220
0
230
1
0
LINE
5
89
100
AcDbEntity
8
1
62
256
6
ByLayer
370
13
48
1
60
0
100
AcDbLine
10
21.438319
20
-19.500601
30
0
11
21.438319
21
-20.889417
31
0
39
0
210
0
220
0
230
1
0
LINE
5
8A
100
AcDbEntity
8
1
62
256
6
ByLayer
370
13
48
1
60
0
100
AcDbLine
10
37.487009
20
-22.325
30
0
11
38
21
-22.325
31
0
39
0
210
0
220
0
230
1
0
LINE
5
8B
100
AcDbEntity
8
1
62
256
6
ByLayer
370
13
48
1
60
0
100
AcDbLine
10
53.389175
20
-22.325
30
0
11
53.389175
21
-26.675
31
0
39
0
210
0
220
0
230
1
0
LINE
5
8C
100
AcDbEntity
8
1
62
256
6
ByLayer
370
13
48
1
60
0
100
AcDbLine
10
58.389175
20
-26.675
30
0
11
58.389175
21
-22.325
31
0
39
0
210
0
220
0
230
1
0
LINE
5
8D
100
AcDbEntity
8
1
62
256
6
ByLayer
370
13
48
1
60
0
100
AcDbLine
10
44.4
20
-22.325
30
0
11
38
21
-22.325
31
0
39
0
210
0
220
0
230
1
0
LINE
5
8E
100
AcDbEntity
8
1
62
256
6
ByLayer
370
13
48
1
60
0
100
AcDbLine
10
58.389175
20
-26.675
30
0
11
62.87957
21
-26.675
31
0
39
0
210
0
220
0
230
1
0
LINE
5
8F
100
AcDbEntity
8
1
62
256
6
ByLayer
370
13
48
1
60
0
100
AcDbLine
10
53.389175
20
-26.675
30
0
11
58.389175
21
-26.675
31
0
39
0
210
0
220
0
230
1
0
LINE
5
90
100
AcDbEntity
8
1
62
256
6
ByLayer
370
13
48
1
60
0
100
AcDbLine
10
6.923205
20
-5.85989
30
0
11
9.076795
21
-5.85989
31
0
39
0
210
0
220
0
230
1
0
LINE
5
91
100
AcDbEntity
8
1
62
256
6
ByLayer
370
13
48
1
60
0
100
AcDbLine
10
24.083141
20
10.5
30
0
11
34.548567
21
10.5
31
0
39
0
210
0
220
0
230
1
0
LINE
5
92
100
AcDbEntity
8
1
62
256
6
ByLayer
370
13
48
1
60
0
100
AcDbLine
10
36.4
20
0
30
0
11
34.548567
21
10.5
31
0
39
0
210
0
220
0
230
1
0
LINE
5
93
100
AcDbEntity
8
1
62
256
6
ByLayer
370
13
48
1
60
0
100
AcDbLine
10
58.389175
20
-22.325
30
0
11
62.87957
21
-22.325
31
0
39
0
210
0
220
0
230
1
0
LINE
5
94
100
AcDbEntity
8
1
62
256
6
ByLayer
370
13
48
1
60
0
100
AcDbLine
10
44.4
20
-26.675
30
0
11
37.487009
21
-26.675
31
0
39
0
210
0
220
0
230
1
0
LINE
5
95
100
AcDbEntity
8
1
62
256
6
ByLayer
370
13
48
1
60
0
100
AcDbLine
10
9.076795
20
5.85989
30
0
11
6.923205
21
5.85989
31
0
39
0
210
0
220
0
230
1
0
LINE
5
96
100
AcDbEntity
8
1
62
256
6
ByLayer
370
13
48
1
60
0
100
AcDbLine
10
53.389175
20
-22.325
30
0
11
58.389175
21
-22.325
31
0
39
0
210
0
220
0
230
1
0
LINE
5
97
100
AcDbEntity
8
1
62
256
6
ByLayer
370
13
48
1
60
0
100
AcDbLine
10
37.487009
20
-22.325
30
0
11
37.487009
21
-26.675
31
0
39
0
210
0
220
0
230
1
0
LINE
5
98
100
AcDbEntity
8
1
62
256
6
ByLayer
370
13
48
1
60
0
100
AcDbLine
10
9.076795
20
-19.122283
30
0
11
6.923205
21
-19.122283
31
0
39
0
210
0
220
0
230
1
0
LINE
5
99
100
AcDbEntity
8
1
62
256
6
ByLayer
370
13
48
1
60
0
100
AcDbLine
10
53.389175
20
-26.675
30
0
11
44.4
21
-26.675
31
0
39
0
210
0
220
0
230
1
0
LINE
5
9A
100
AcDbEntity
8
1
62
256
6
ByLayer
370
13
48
1
60
0
100
AcDbLine
10
63.254303
20
-25.44064
30
0
11
62.87957
21
-26.675
31
0
39
0
210
0
220
0
230
1
0
LINE
5
9B
100
AcDbEntity
8
1
62
256
6
ByLayer
370
13
48
1
60
0
100
AcDbLine
10
36.4
20
-20.725
30
0
11
36.4
21
0
31
0
39
0
210
0
220
0
230
1
0
LINE
5
9C
100
AcDbEntity
8
1
62
256
6
ByLayer
370
13
48
1
60
0
100
AcDbLine
10
6.923205
20
19.122283
30
0
11
9.076795
21
19.122283
31
0
39
0
210
0
220
0
230
1
0
LINE
5
9D
100
AcDbEntity
8
1
62
256
6
ByLayer
370
13
48
1
60
0
100
AcDbLine
10
20.069863
20
16.004099
30
0
11
20.083293
21
14.465094
31
0
39
0
210
0
220
0
230
1
0
LINE
5
9E
100
AcDbEntity
8
1
62
256
6
ByLayer
370
13
48
1
60
0
100
AcDbLine
10
37.487009
20
-26.675
30
0
11
24.083141
21
-26.675
31
0
39
0
210
0
220
0
230
1
0
LINE
5
9F
100
AcDbEntity
8
1
62
256
6
ByLayer
370
13
48
1
60
0
100
AcDbLine
10
23.593049
20
-26.675
30
0
11
24.083141
21
-26.675
31
0
39
0
210
0
220
0
230
1
0
LINE
5
A0
100
AcDbEntity
8
1
62
256
6
ByLayer
370
13
48
1
60
0
100
AcDbLine
10
23.199008
20
-26.675
30
0
11
23.593049
21
-26.675
31
0
39
0
210
0
220
0
230
1
0
LINE
5
A1
100
AcDbEntity
8
1
62
256
6
ByLayer
370
13
48
1
60
0
100
AcDbLine
10
62.87957
20
-22.325
30
0
11
63.254303
21
-23.55936
31
0
39
0
210
0
220
0
230
1
0
LINE
5
A2
100
AcDbEntity
8
1
62
256
6
ByLayer
370
13
48
1
60
0
100
AcDbLine
10
44.4
20
-22.325
30
0
11
53.389175
21
-22.325
31
0
39
0
210
0
220
0
230
1
0
LINE
5
A3
100
AcDbEntity
8
1
62
256
6
ByLayer
370
13
48
1
60
0
100
AcDbLine
10
58.609992
20
-26.7
30
0
11
58.609992
21
-26.675
31
0
39
0
210
0
220
0
230
1
0
LINE
5
A4
100
AcDbEntity
8
1
62
256
6
ByLayer
370
13
48
1
60
0
100
AcDbLine
10
58.609992
20
-22.325
30
0
11
58.609992
21
-22.3
31
0
39
0
210
0
220
0
230
1
0
LINE
5
A5
100
AcDbEntity
8
1
62
256
6
ByLayer
370
13
48
1
60
0
100
AcDbLine
10
58.51872
20
-26.674999
30
0
11
58.51872
21
-26.7
31
0
39
0
210
0
220
0
230
1
0
LINE
5
A6
100
AcDbEntity
8
1
62
256
6
ByLayer
370
13
48
1
60
0
100
AcDbLine
10
58.51872
20
-22.3
30
0
11
58.51872
21
-22.325001
31
0
39
0
210
0
220
0
230
1
0
LINE
5
A7
100
AcDbEntity
8
1
62
256
6
ByLayer
370
13
48
1
60
0
100
AcDbLine
10
63.298627
20
-26.554426
30
0
11
63.298627
21
-26.7
31
0
39
0
210
0
220
0
230
1
0
LINE
5
A8
100
AcDbEntity
8
1
62
256
6
ByLayer
370
13
48
1
60
0
100
AcDbLine
10
68.308021
20
-26.233876
30
0
11
68.308021
21
-26.915447
31
0
39
0
210
0
220
0
230
1
0
LINE
5
A9
100
AcDbEntity
8
1
62
256
6
ByLayer
370
13
48
1
60
0
100
AcDbLine
10
68.308021
20
-22.766124
30
0
11
68.308021
21
-22.084553
31
0
39
0
210
0
220
0
230
1
0
LINE
5
AA
100
AcDbEntity
8
1
62
256
6
ByLayer
370
13
48
1
60
0
100
AcDbLine
10
63.298627
20
-22.3
30
0
11
63.298627
21
-22.445574
31
0
39
0
210
0
220
0
230
1
0
LINE
5
AB
100
AcDbEntity
8
1
62
256
6
ByLayer
370
13
48
1
60
0
100
AcDbLine
10
65.082358
20
-26.7
30
0
11
65.082358
21
-25.570087
31
0
39
0
210
0
220
0
230
1
0
LINE
5
AC
100
AcDbEntity
8
1
62
256
6
ByLayer
370
13
48
1
60
0
100
AcDbLine
10
64.744578
20
-25.729148
30
0
11
64.744578
21
-26.7
31
0
39
0
210
0
220
0
230
1
0
LINE
5
AD
100
AcDbEntity
8
1
62
256
6
ByLayer
370
13
48
1
60
0
100
AcDbLine
10
65.082358
20
-23.429913
30
0
11
65.082358
21
-22.3
31
0
39
0
210
0
220
0
230
1
0
LINE
5
AE
100
AcDbEntity
8
1
62
256
6
ByLayer
370
13
48
1
60
0
100
AcDbLine
10
64.181347
20
-26.7
30
0
11
64.181347
21
-25.798614
31
0
39
0
210
0
220
0
230
1
0
LINE
5
AF
100
AcDbEntity
8
1
62
256
6
ByLayer
370
13
48
1
60
0
100
AcDbLine
10
64.744578
20
-22.3
30
0
11
64.744578
21
-23.270853
31
0
39
0
210
0
220
0
230
1
0
LINE
5
B0
100
AcDbEntity
8
1
62
256
6
ByLayer
370
13
48
1
60
0
100
AcDbLine
10
64.181347
20
-22.3
30
0
11
64.181347
21
-23.201386
31
0
39
0
210
0
220
0
230
1
0
LINE
5
B1
100
AcDbEntity
8
1
62
256
6
ByLayer
370
13
48
1
60
0
100
AcDbLine
10
65.63429
20
-23.640237
30
0
11
65.495921
21
-23.486889
31
0
39
0
210
0
220
0
230
1
0
LINE
5
B2
100
AcDbEntity
8
1
62
256
6
ByLayer
370
13
48
1
60
0
100
AcDbLine
10
65.495921
20
-25.513111
30
0
11
65.63429
21
-25.359763
31
0
39
0
210
0
220
0
230
1
0
LINE
5
B3
100
AcDbEntity
8
1
62
256
6
ByLayer
370
13
48
1
60
0
100
AcDbLine
10
67.945205
20
-23.526249
30
0
11
67.868852
21
-23.236345
31
0
39
0
210
0
220
0
230
1
0
LINE
5
B4
100
AcDbEntity
8
1
62
256
6
ByLayer
370
13
48
1
60
0
100
AcDbLine
10
67.945205
20
-25.473751
30
0
11
67.868852
21
-25.763655
31
0
39
0
210
0
220
0
230
1
0
LINE
5
B5
100
AcDbEntity
8
1
62
256
6
ByLayer
370
13
48
1
60
0
100
AcDbLine
10
65.082358
20
-25.570087
30
0
11
65.052036
21
-25.350105
31
0
39
0
210
0
220
0
230
1
0
LINE
5
B6
100
AcDbEntity
8
1
62
256
6
ByLayer
370
13
48
1
60
0
100
AcDbLine
10
65.082358
20
-23.429913
30
0
11
65.052036
21
-23.649896
31
0
39
0
210
0
220
0
230
1
0
LINE
5
B7
100
AcDbEntity
8
1
62
256
6
ByLayer
370
13
48
1
60
0
100
AcDbLine
10
63.81113
20
-23.207959
30
0
11
63.439699
21
-22.407603
31
0
39
0
210
0
220
0
230
1
0
LINE
5
B8
100
AcDbEntity
8
1
62
256
6
ByLayer
370
13
48
1
60
0
100
AcDbLine
10
63.439699
20
-22.407603
30
0
11
63.439699
21
-22.3
31
0
39
0
210
0
220
0
230
1
0
LINE
5
B9
100
AcDbEntity
8
1
62
256
6
ByLayer
370
13
48
1
60
0
100
AcDbLine
10
63.439699
20
-26.7
30
0
11
63.439699
21
-26.592397
31
0
39
0
210
0
220
0
230
1
0
LINE
5
BA
100
AcDbEntity
8
1
62
256
6
ByLayer
370
13
48
1
60
0
100
AcDbLine
10
63.439699
20
-26.592397
30
0
11
63.81113
21
-25.792041
31
0
39
0
210
0
220
0
230
1
0
LINE
5
BB
100
AcDbEntity
8
1
62
256
6
ByLayer
370
13
48
1
60
0
100
AcDbLine
10
65.495921
20
-25.513111
30
0
11
65.465562
21
-25.292646
31
0
39
0
210
0
220
0
230
1
0
LINE
5
BC
100
AcDbEntity
8
1
62
256
6
ByLayer
370
13
48
1
60
0
100
AcDbLine
10
65.495921
20
-23.486889
30
0
11
65.465562
21
-23.707355
31
0
39
0
210
0
220
0
230
1
0
LINE
5
BD
100
AcDbEntity
8
1
62
256
6
ByLayer
370
13
48
1
60
0
100
AcDbLine
10
67.945205
20
-23.526249
30
0
11
67.945205
21
-25.473751
31
0
39
0
210
0
220
0
230
1
0
LINE
5
BE
100
AcDbEntity
8
1
62
256
6
ByLayer
370
13
48
1
60
0
100
AcDbLine
10
63.294206
20
-22.453202
30
0
11
63.682726
21
-23.290382
31
0
39
0
210
0
220
0
230
1
0
LINE
5
BF
100
AcDbEntity
8
1
62
256
6
ByLayer
370
13
48
1
60
0
100
AcDbLine
10
63.682726
20
-25.709618
30
0
11
63.294206
21
-26.546798
31
0
39
0
210
0
220
0
230
1
0
LINE
5
C0
100
AcDbEntity
8
1
62
256
6
ByLayer
370
13
48
1
60
0
100
AcDbLine
10
70.000117
20
-23.209698
30
0
11
69.892144
21
-23.209698
31
0
39
0
210
0
220
0
230
1
0
LINE
5
C1
100
AcDbEntity
8
1
62
256
6
ByLayer
370
13
48
1
60
0
100
AcDbLine
10
69.534036
20
-22.928879
30
0
11
69.534036
21
-21.989786
31
0
39
0
210
0
220
0
230
1
0
LINE
5
C2
100
AcDbEntity
8
1
62
256
6
ByLayer
370
13
48
1
60
0
100
AcDbLine
10
69.534036
20
-26.071121
30
0
11
69.534036
21
-27.010214
31
0
39
0
210
0
220
0
230
1
0
LINE
5
C3
100
AcDbEntity
8
1
62
256
6
ByLayer
370
13
48
1
60
0
100
AcDbLine
10
68.808021
20
-22.765698
30
0
11
68.808021
21
-22.049352
31
0
39
0
210
0
220
0
230
1
0
LINE
5
C4
100
AcDbEntity
8
1
62
256
6
ByLayer
370
13
48
1
60
0
100
AcDbLine
10
69.466228
20
-21.994732
30
0
11
69.466228
21
-22.8787
31
0
39
0
210
0
220
0
230
1
0
LINE
5
C5
100
AcDbEntity
8
1
62
256
6
ByLayer
370
13
48
1
60
0
100
AcDbLine
10
68.808021
20
-26.234302
30
0
11
68.808021
21
-26.950648
31
0
39
0
210
0
220
0
230
1
0
LINE
5
C6
100
AcDbEntity
8
1
62
256
6
ByLayer
370
13
48
1
60
0
100
AcDbLine
10
70.000117
20
-25.790302
30
0
11
69.892144
21
-25.790302
31
0
39
0
210
0
220
0
230
1
0
LINE
5
C7
100
AcDbEntity
8
1
62
256
6
ByLayer
370
13
48
1
60
0
100
AcDbLine
10
69.466228
20
-27.005268
30
0
11
69.466228
21
-26.1213
31
0
39
0
210
0
220
0
230
1
0
LINE
5
C8
100
AcDbEntity
8
1
62
256
6
ByLayer
370
13
48
1
60
0
100
AcDbLine
10
69.155317
20
-26.184948
30
0
11
69.155317
21
-26.978051
31
0
39
0
210
0
220
0
230
1
0
LINE
5
C9
100
AcDbEntity
8
1
62
256
6
ByLayer
370
13
48
1
60
0
100
AcDbLine
10
69.155317
20
-22.815052
30
0
11
69.155317
21
-22.021949
31
0
39
0
210
0
220
0
230
1
0
LINE
5
CA
100
AcDbEntity
8
1
62
256
6
ByLayer
370
13
48
1
60
0
100
AcDbLine
10
69.944165
20
-23.43442
30
0
11
69.997026
21
-23.43442
31
0
39
0
210
0
220
0
230
1
0
LINE
5
CB
100
AcDbEntity
8
1
62
256
6
ByLayer
370
13
48
1
60
0
100
AcDbLine
10
69.920697
20
-25.762606
30
0
11
70
21
-25.762606
31
0
39
0
210
0
220
0
230
1
0
LINE
5
CC
100
AcDbEntity
8
1
62
256
6
ByLayer
370
13
48
1
60
0
100
AcDbLine
10
69.997026
20
-25.56558
30
0
11
69.997026
21
-23.43442
31
0
39
0
210
0
220
0
230
1
0
LINE
5
CD
100
AcDbEntity
8
1
62
256
6
ByLayer
370
13
48
1
60
0
100
AcDbLine
10
69.920697
20
-23.237394
30
0
11
70
21
-23.237394
31
0
39
0
210
0
220
0
230
1
0
LINE
5
CE
100
AcDbEntity
8
1
62
256
6
ByLayer
370
13
48
1
60
0
100
AcDbLine
10
69.944165
20
-25.56558
30
0
11
69.997026
21
-25.56558
31
0
39
0
210
0
220
0
230
1
0
LINE
5
CF
100
AcDbEntity
8
1
62
256
6
ByLayer
370
13
48
1
60
0
100
AcDbLine
10
69.944165
20
-23.43442
30
0
11
69.944165
21
-25.56558
31
0
39
0
210
0
220
0
230
1
0
LINE
5
D0
100
AcDbEntity
8
1
62
256
6
ByLayer
370
13
48
1
60
0
100
AcDbLine
10
69.421373
20
-23.422746
30
0
11
69.421373
21
-25.577254
31
0
39
0
210
0
220
0
230
1
0
LINE
5
D1
100
AcDbEntity
8
1
62
256
6
ByLayer
370
13
48
1
60
0
100
AcDbLine
10
63.667173
20
-24.167359
30
0
11
63.882731
21
-24.167359
31
0
39
0
210
0
220
0
230
1
0
LINE
5
D2
100
AcDbEntity
8
1
62
256
6
ByLayer
370
13
48
1
60
0
100
AcDbLine
10
63.667173
20
-24.832641
30
0
11
63.882731
21
-24.832641
31
0
39
0
210
0
220
0
230
1
0
LINE
5
D3
100
AcDbEntity
8
1
62
256
6
ByLayer
370
13
48
1
60
0
100
AcDbLine
10
63.80092
20
-24.368114
30
0
11
64.035691
21
-24.368114
31
0
39
0
210
0
220
0
230
1
0
LINE
5
D4
100
AcDbEntity
8
1
62
256
6
ByLayer
370
13
48
1
60
0
100
AcDbLine
10
63.80092
20
-24.631886
30
0
11
64.035691
21
-24.631886
31
0
39
0
210
0
220
0
230
1
0
LINE
5
D5
100
AcDbEntity
8
1
62
256
6
ByLayer
370
13
48
1
60
0
100
AcDbLine
10
68.5695
20
-25.581166
30
0
11
68.5695
21
-24.5
31
0
39
0
210
0
220
0
230
1
0
LINE
5
D6
100
AcDbEntity
8
1
62
256
6
ByLayer
370
13
48
1
60
0
100
AcDbLine
10
68.5695
20
-23.418834
30
0
11
68.5695
21
-24.5
31
0
39
0
210
0
220
0
230
1
0
LINE
5
D7
100
AcDbEntity
8
1
62
256
6
ByLayer
370
13
48
1
60
0
100
AcDbLine
10
68.445205
20
-23.423276
30
0
11
68.423178
21
-23.12657
31
0
39
0
210
0
220
0
230
1
0
LINE
5
D8
100
AcDbEntity
8
1
62
256
6
ByLayer
370
13
48
1
60
0
100
AcDbLine
10
68.445205
20
-25.576724
30
0
11
68.423178
21
-25.87343
31
0
39
0
210
0
220
0
230
1
0
LINE
5
D9
100
AcDbEntity
8
1
62
256
6
ByLayer
370
13
48
1
60
0
100
AcDbLine
10
68.445205
20
-23.423276
30
0
11
68.445205
21
-24.5
31
0
39
0
210
0
220
0
230
1
0
LINE
5
DA
100
AcDbEntity
8
1
62
256
6
ByLayer
370
13
48
1
60
0
100
AcDbLine
10
68.445205
20
-25.576724
30
0
11
68.445205
21
-24.5
31
0
39
0
210
0
220
0
230
1
0
LINE
5
DB
100
AcDbEntity
8
1
62
256
6
ByLayer
370
13
48
1
60
0
100
AcDbLine
10
56.638226
20
-26.7
30
0
11
56.638226
21
-26.674975
31
0
39
0
210
0
220
0
230
1
0
LINE
5
DC
100
AcDbEntity
8
1
62
256
6
ByLayer
370
13
48
1
60
0
100
AcDbLine
10
56.638226
20
-22.325025
30
0
11
56.638226
21
-22.3
31
0
39
0
210
0
220
0
230
1
0
LINE
5
DD
100
AcDbEntity
8
1
62
256
6
ByLayer
370
18
48
1
60
0
100
AcDbLine
10
68.308021
20
-26.915447
30
0
11
68.808021
21
-26.950648
31
0
39
0
210
0
220
0
230
1
0
LINE
5
DE
100
AcDbEntity
8
1
62
256
6
ByLayer
370
18
48
1
60
0
100
AcDbLine
10
64.744578
20
-22.3
30
0
11
64.181347
21
-22.3
31
0
39
0
210
0
220
0
230
1
0
LINE
5
DF
100
AcDbEntity
8
1
62
256
6
ByLayer
370
18
48
1
60
0
100
AcDbLine
10
63.439668
20
-26.7
30
0
11
64.181347
21
-26.7
31
0
39
0
210
0
220
0
230
1
0
LINE
5
E0
100
AcDbEntity
8
1
62
256
6
ByLayer
370
18
48
1
60
0
100
AcDbLine
10
66.418936
20
-26.846102
30
0
11
65.671473
21
-26.793834
31
0
39
0
210
0
220
0
230
1
0
LINE
5
E1
100
AcDbEntity
8
1
62
256
6
ByLayer
370
18
48
1
60
0
100
AcDbLine
10
61.404967
20
-26.7
30
0
11
58.609992
21
-26.7
31
0
39
0
210
0
220
0
230
1
0
LINE
5
E2
100
AcDbEntity
8
1
62
256
6
ByLayer
370
18
48
1
60
0
100
AcDbLine
10
69.155317
20
-26.978051
30
0
11
69.466228
21
-27.005268
31
0
39
0
210
0
220
0
230
1
0
LINE
5
E3
100
AcDbEntity
8
1
62
256
6
ByLayer
370
18
48
1
60
0
100
AcDbLine
10
56.4
20
-22.3
30
0
11
56.638226
21
-22.3
31
0
39
0
210
0
220
0
230
1
0
LINE
5
E4
100
AcDbEntity
8
1
62
256
6
ByLayer
370
18
48
1
60
0
100
AcDbLine
10
65.082358
20
-26.7
30
0
11
64.744578
21
-26.7
31
0
39
0
210
0
220
0
230
1
0
LINE
5
E5
100
AcDbEntity
8
1
62
256
6
ByLayer
370
18
48
1
60
0
100
AcDbLine
10
65.476147
20
-22.272408
30
0
11
65.500168
21
-22.258539
31
0
39
0
210
0
220
0
230
1
0
LINE
5
E6
100
AcDbEntity
8
1
62
256
6
ByLayer
370
18
48
1
60
0
100
AcDbLine
10
58.51872
20
-26.7
30
0
11
58.609992
21
-26.7
31
0
39
0
210
0
220
0
230
1
0
LINE
5
E7
100
AcDbEntity
8
1
62
256
6
ByLayer
370
18
48
1
60
0
100
AcDbLine
10
65.671473
20
-22.206166
30
0
11
66.418936
21
-22.153898
31
0
39
0
210
0
220
0
230
1
0
LINE
5
E8
100
AcDbEntity
8
1
62
256
6
ByLayer
370
18
48
1
60
0
100
AcDbLine
10
58.609992
20
-22.3
30
0
11
61.404967
21
-22.3
31
0
39
0
210
0
220
0
230
1
0
LINE
5
E9
100
AcDbEntity
8
1
62
256
6
ByLayer
370
18
48
1
60
0
100
AcDbLine
10
70.000117
20
-23.209698
30
0
11
70.007017
21
-22.393993
31
0
39
0
210
0
220
0
230
1
0
LINE
5
EA
100
AcDbEntity
8
1
62
256
6
ByLayer
370
18
48
1
60
0
100
AcDbLine
10
64.181347
20
-26.7
30
0
11
64.744578
21
-26.7
31
0
39
0
210
0
220
0
230
1
0
LINE
5
EB
100
AcDbEntity
8
1
62
256
6
ByLayer
370
18
48
1
60
0
100
AcDbLine
10
69.534036
20
-27.010214
30
0
11
69.588915
21
-27.013423
31
0
39
0
210
0
220
0
230
1
0
LINE
5
EC
100
AcDbEntity
8
1
62
256
6
ByLayer
370
18
48
1
60
0
100
AcDbLine
10
56.638226
20
-26.7
30
0
11
56.4
21
-26.7
31
0
39
0
210
0
220
0
230
1
0
LINE
5
ED
100
AcDbEntity
8
1
62
256
6
ByLayer
370
18
48
1
60
0
100
AcDbLine
10
68.808021
20
-22.049352
30
0
11
68.308021
21
-22.084553
31
0
39
0
210
0
220
0
230
1
0
LINE
5
EE
100
AcDbEntity
8
1
62
256
6
ByLayer
370
18
48
1
60
0
100
AcDbLine
10
65.372916
20
-22.3
30
0
11
65.082358
21
-22.3
31
0
39
0
210
0
220
0
230
1
0
LINE
5
EF
100
AcDbEntity
8
1
62
256
6
ByLayer
370
18
48
1
60
0
100
AcDbLine
10
65.500168
20
-26.741461
30
0
11
65.476147
21
-26.727592
31
0
39
0
210
0
220
0
230
1
0
LINE
5
F0
100
AcDbEntity
8
1
62
256
6
ByLayer
370
18
48
1
60
0
100
AcDbLine
10
64.181347
20
-22.3
30
0
11
63.439699
21
-22.3
31
0
39
0
210
0
220
0
230
1
0
LINE
5
F1
100
AcDbEntity
8
1
62
256
6
ByLayer
370
18
48
1
60
0
100
AcDbLine
10
69.588915
20
-21.986577
30
0
11
69.534036
21
-21.989786
31
0
39
0
210
0
220
0
230
1
0
LINE
5
F2
100
AcDbEntity
8
1
62
256
6
ByLayer
370
18
48
1
60
0
100
AcDbLine
10
70.007017
20
-26.606007
30
0
11
70.000117
21
-25.790302
31
0
39
0
210
0
220
0
230
1
0
LINE
5
F3
100
AcDbEntity
8
1
62
256
6
ByLayer
370
18
48
1
60
0
100
AcDbLine
10
70
20
-25.762606
30
0
11
70
21
-23.237394
31
0
39
0
210
0
220
0
230
1
0
LINE
5
F4
100
AcDbEntity
8
1
62
256
6
ByLayer
370
18
48
1
60
0
100
AcDbLine
10
58.609992
20
-22.3
30
0
11
58.51872
21
-22.3
31
0
39
0
210
0
220
0
230
1
0
LINE
5
F5
100
AcDbEntity
8
1
62
256
6
ByLayer
370
18
48
1
60
0
100
AcDbLine
10
65.082358
20
-26.7
30
0
11
65.372916
21
-26.7
31
0
39
0
210
0
220
0
230
1
0
LINE
5
F6
100
AcDbEntity
8
1
62
256
6
ByLayer
370
18
48
1
60
0
100
AcDbLine
10
64.744578
20
-22.3
30
0
11
65.082358
21
-22.3
31
0
39
0
210
0
220
0
230
1
0
LINE
5
F7
100
AcDbEntity
8
1
62
256
6
ByLayer
370
18
48
1
60
0
100
AcDbLine
10
69.466228
20
-21.994732
30
0
11
69.155317
21
-22.021949
31
0
39
0
210
0
220
0
230
1
0
MTEXT
5
22D
100
AcDbEntity
8
SK6
62
256
6
ByLayer
370
18
48
1
60
0
100
AcDbMText
10
-8.625
20
-54.38204
30
0
210
0
220
0
230
1
1
\W0.7866;C4-QD-LFJ32C27070A
40
3.5
41
0
44
1.084337
50
0
71
7
72
5
7
iso_b_vert
0
DIMENSION
5
23F
100
AcDbEntity
8
SK2
62
256
6
ByLayer
370
13
48
1
60
0
100
AcDbDimension
2
DimnDraft3D1
10
70
20
42.6
30
0
11
32.909211
21
42.6
31
0
70
32
71
5
72
1
41
1
210
0
220
0
230
1
3
Standard
100
AcDbAlignedDimension
13
0
23
2
33
0
14
70
24
-25
34
0
50
0
100
AcDbRotatedDimension
1001
ACAD
1000
DSTYLE
1002
{
1070
   279
1070
     0
1070
   172
1070
     1
1070
   173
1070
     1
1070
   340
1005
22E
1070
   271
1070
     1
1070
    77
1070
     1
1070
    73
1070
     0
1070
   171
1070
     3
1070
   274
1070
     4
1070
   177
1070
     2
1070
   176
1070
     2
1070
   178
1070
     7
1070
    78
1070
     8
1070
    41
1041
3.175
1070
   147
1041
1.75
1070
    42
1041
2.0
1070
    44
1041
2.0
1070
   140
1041
3.5
1070
   343
1005
240
1070
   344
1005
240
1002
}
0
DIMENSION
5
255
100
AcDbEntity
8
2
62
256
6
ByLayer
370
13
48
1
60
0
100
AcDbDimension
2
DimnDraft3D2
10
38
20
-40.114079
30
0
11
51.909211
21
-40.114079
31
0
70
32
71
5
72
1
41
1
210
0
220
0
230
1
3
Standard
100
AcDbAlignedDimension
13
70
23
-29
33
0
14
38
24
-22
34
0
50
0
100
AcDbRotatedDimension
1001
ACAD
1000
DSTYLE
1002
{
1070
   279
1070
     0
1070
   172
1070
     1
1070
   173
1070
     1
1070
   340
1005
22E
1070
   271
1070
     1
1070
    77
1070
     1
1070
    73
1070
     0
1070
   171
1070
     3
1070
   274
1070
     4
1070
   177
1070
     2
1070
   176
1070
     2
1070
   178
1070
     7
1070
    78
1070
     8
1070
    41
1041
3.175
1070
   147
1041
1.75
1070
    42
1041
2.0
1070
    44
1041
2.0
1070
   140
1041
3.5
1070
   343
1005
240
1070
   344
1005
240
1002
}
0
DIMENSION
5
263
100
AcDbEntity
8
SK2
62
256
6
ByLayer
370
13
48
1
60
0
100
AcDbDimension
2
DimnDraft3D3
10
-33.6
20
20
30
0
11
-33.6
21
-2.275
31
0
70
32
71
5
72
1
41
1
210
0
220
0
230
1
3
Standard
100
AcDbAlignedDimension
13
-2
23
-20
33
0
14
-2
24
20
34
0
50
90
100
AcDbRotatedDimension
1001
ACAD
1000
DSTYLE
1002
{
1070
    74
1070
     0
1070
   279
1070
     0
1070
   172
1070
     1
1070
   173
1070
     1
1070
   340
1005
22E
1070
   271
1070
     1
1070
    77
1070
     1
1070
    73
1070
     0
1070
   171
1070
     3
1070
   274
1070
     4
1070
   177
1070
     2
1070
   176
1070
     2
1070
   178
1070
     7
1070
    78
1070
     8
1070
    41
1041
3.175
1070
   147
1041
1.75
1070
    42
1041
2.0
1070
    44
1041
2.0
1070
   140
1041
3.5
1070
   343
1005
240
1070
   344
1005
240
1002
}
0
DIMENSION
5
271
100
AcDbEntity
8
2
62
256
6
ByLayer
370
13
48
1
60
0
100
AcDbDimension
2
DimnDraft3D4
10
95.1
20
-27
30
0
11
95.1
21
-15.590789
31
0
70
32
71
5
72
1
41
1
210
0
220
0
230
1
3
Standard
100
AcDbAlignedDimension
13
63
23
0
33
0
14
72
24
-27
34
0
50
90
100
AcDbRotatedDimension
1001
ACAD
1000
DSTYLE
1002
{
1070
    74
1070
     0
1070
   279
1070
     0
1070
   172
1070
     1
1070
   173
1070
     1
1070
   340
1005
22E
1070
   271
1070
     1
1070
    77
1070
     1
1070
    73
1070
     0
1070
   171
1070
     3
1070
   274
1070
     4
1070
   177
1070
     2
1070
   176
1070
     2
1070
   178
1070
     7
1070
    78
1070
     8
1070
    41
1041
3.175
1070
   147
1041
1.75
1070
    42
1041
2.0
1070
    44
1041
2.0
1070
   140
1041
3.5
1070
   343
1005
240
1070
   344
1005
240
1002
}
0
DIMENSION
5
27F
100
AcDbEntity
8
2
62
256
6
ByLayer
370
13
48
1
60
0
100
AcDbDimension
2
DimnDraft3D5
10
88.1
20
-22
30
0
11
88.1
21
-38.820789
31
0
70
32
71
5
72
1
41
1
210
0
220
0
230
1
3
Standard
100
AcDbAlignedDimension
13
72
23
-27
33
0
14
72
24
-22
34
0
50
90
100
AcDbRotatedDimension
1001
ACAD
1000
DSTYLE
1002
{
1070
    74
1070
     0
1070
   279
1070
     0
1070
   172
1070
     1
1070
   173
1070
     1
1070
   340
1005
22E
1070
   271
1070
     1
1070
    77
1070
     1
1070
    73
1070
     0
1070
   171
1070
     3
1070
   274
1070
     4
1070
   177
1070
     2
1070
   176
1070
     2
1070
   178
1070
     7
1070
    78
1070
     8
1070
    41
1041
3.175
1070
   147
1041
1.75
1070
    42
1041
2.0
1070
    44
1041
2.0
1070
   140
1041
3.5
1070
   343
1005
240
1070
   344
1005
240
1002
}
0
ENDSEC
0
SECTION
2
OBJECTS
0
DICTIONARY
5
2e9
330
0
100
AcDbDictionary
280
0
281
1
3
ACAD_GROUP
350
2ea
3
ACAD_MLINESTYLE
350
2eb
0
DICTIONARY
5
2ea
330
0
100
AcDbDictionary
280
0
281
1
0
DICTIONARY
5
2eb
330
0
100
AcDbDictionary
280
0
281
1
3
Standard
350
18
0
MLINESTYLE
5
18
330
2eb
100
AcDbMlineStyle
2
Standard
70
0
3

62
256
51
90
52
90
71
2
49
-0.5
62
256
6
ByLayer
49
0.5
62
256
6
ByLayer
0
RASTERVARIABLES
5
2d8
330

100
AcDbRasterVariables
90
0
70
1
71
1
72
1
0
ENDSEC
0
EOF
